999
DXF file: fg-002182-2d-A.dxf
999
Pro/ENGINEER 2016130 by Parametric Technology Corporation
  0
SECTION
  2
HEADER
  9
$ACADVER
  1
AC1015
  9
$DWGCODEPAGE
  3
ANSI_1252
  9
$EXTMAX
 10
201.8348623853
 20
155.9633027523
 30
0.0
  9
$EXTMIN
 10
0.0
 20
-0.0
 30
0.0
  9
$LIMMIN
 10
0.0
 20
-0.0
  9
$LIMMAX
 10
201.8348623853
 20
155.9633027523
  9
$VIEWCTR
 10
100.9174311927
 20
77.9816513761
  9
$VIEWSIZE
 40
155.9633027523
  9
$CLAYER
  8
0
  9
$LTSCALE
 40
11.1009174312
  9
$CELTYPE
  6
BYLAYER
  9
$DIMSCALE
 40
1.0
  9
$DIMASZ
 40
1.7201834862
  9
$DIMEXO
 40
0.0625
  9
$DIMDLI
 40
7.6697247706
  9
$DIMEXE
 40
0.125
  9
$DIMCEN
 40
1.8165137615
  9
$DIMLFAC
 40
1.0
  9
$DIMBLK
  1
_FILLED
  9
$DIMALT
 70
0
  9
$DIMALTF
 40
25.4
  9
$DIMTXT
 40
1.4334862385
  9
$DIMTOL
 70
1
  9
$DIMLIM
 70
0
  9
$DIMTFAC
 40
1.0
  9
$DIMTP
 40
0.01
  9
$DIMTM
 40
0.01
  9
$DIMGAP
 40
0.09
  9
$DIMDSEP
 70
46
  9
$AUNITS
 70
0
  9
$PDMODE
 70
3
  9
$PDSIZE
 40
0.3125
  9
$HANDSEED
  5
61C
  9
$TILEMODE
 70
1
  9
$MEASUREMENT
 70
0
  9
$INSUNITS
 70
1
  0
ENDSEC
  0
SECTION
  2
CLASSES
  0
CLASS
  1
ACDBDICTIONARYWDFLT
  2
AcDbDictionaryWithDefault
  3
AutoCAD 2000
 90
0
280
0
281
0
  0
CLASS
  1
ACDBPLACEHOLDER
  2
AcDbPlaceHolder
  3
AutoCAD 2000
 90
0
280
0
281
0
  0
CLASS
  1
LAYOUT
  2
AcDbLayout
  3
AutoCAD 2000
 90
0
280
0
281
0
  0
ENDSEC
  0
SECTION
  2
TABLES
  0
TABLE
  2
VPORT
  5
8
100
AcDbSymbolTable
 70
2
  0
VPORT
  5
1F4
100
AcDbSymbolTableRecord
100
AcDbViewportTableRecord
  2
*ACTIVE
 70
0
 10
0.0
 20
0.0
 11
1.0
 21
1.0
 12
100.9174311927
 22
77.9816513761
 13
0.0
 23
0.0
 14
1.0
 24
1.0
 15
0.0
 25
0.0
 16
0.0
 26
0.0
 36
1.0
 17
0.0
 27
0.0
 37
0.0
 40
155.9633027523
 41
1.2941176471
 42
50.0
 43
0.0
 44
0.0
 50
0.0
 51
0.0
 71
0
 72
100
 73
1
 74
1
 75
0
 76
0
 77
0
 78
0
  0
ENDTAB
  0
TABLE
  2
LTYPE
  5
5
100
AcDbSymbolTable
 70
6
  0
LTYPE
  5
14
100
AcDbSymbolTableRecord
100
AcDbLinetypeTableRecord
  2
BYBLOCK
 70
0
  3

 72
65
 73
0
 40
0.0
  0
LTYPE
  5
15
100
AcDbSymbolTableRecord
100
AcDbLinetypeTableRecord
  2
BYLAYER
 70
0
  3

 72
65
 73
0
 40
0.0
  0
LTYPE
  5
16
100
AcDbSymbolTableRecord
100
AcDbLinetypeTableRecord
  2
CONTINUOUS
 70
64
  3
Solid line
 72
65
 73
0
 40
0.0
  0
LTYPE
  5
1F5
100
AcDbSymbolTableRecord
100
AcDbLinetypeTableRecord
  2
CENTER
 70
64
  3
____ _ ____ _ ____ _ ____ _ ____ _ ____ _ ____
 72
65
 73
4
 40
0.6
 49
0.375
 74
0
 49
-0.075
 74
0
 49
0.075
 74
0
 49
-0.075
 74
0
  0
LTYPE
  5
1F6
100
AcDbSymbolTableRecord
100
AcDbLinetypeTableRecord
  2
HIDDEN
 70
64
  3
- - - - - - - - - - - - - - - - - - - -
 72
65
 73
2
 40
0.2
 49
0.1
 74
0
 49
-0.1
 74
0
  0
LTYPE
  5
1F7
100
AcDbSymbolTableRecord
100
AcDbLinetypeTableRecord
  2
PHANTOM
 70
64
  3
_____ _ _ _____ _ _ _____ _ _ _____
 72
65
 73
6
 40
0.8
 49
0.45
 74
0
 49
-0.05
 74
0
 49
0.1
 74
0
 49
-0.05
 74
0
 49
0.1
 74
0
 49
-0.05
 74
0
  0
LTYPE
  5
1F8
100
AcDbSymbolTableRecord
100
AcDbLinetypeTableRecord
  2
DOT
 70
64
  3
. . . . . . . . . . . . . . . . . . . .
 72
65
 73
2
 40
0.2
 49
0.1
 74
0
 49
-0.1
 74
0
  0
LTYPE
  5
1F9
100
AcDbSymbolTableRecord
100
AcDbLinetypeTableRecord
  2
DASHED
 70
64
  3
- - - - - - - - - - - - - - - - - - - -
 72
65
 73
2
 40
0.2
 49
0.1
 74
0
 49
-0.1
 74
0
  0
ENDTAB
  0
TABLE
  2
LAYER
  5
2
100
AcDbSymbolTable
 70
36
  0
LAYER
  5
10
100
AcDbSymbolTableRecord
100
AcDbLayerTableRecord
  2
0
 70
0
 62
7
  6
CONTINUOUS
370
-3
390
F
  0
LAYER
  5
1FA
100
AcDbSymbolTableRecord
100
AcDbLayerTableRecord
  2
DEFAULT_1
 70
0
 62
7
  6
CENTER
370
-3
390
F
  0
LAYER
  5
1FB
100
AcDbSymbolTableRecord
100
AcDbLayerTableRecord
  2
DEFAULT_2
 70
0
 62
8
  6
HIDDEN
370
-3
390
F
  0
LAYER
  5
1FC
100
AcDbSymbolTableRecord
100
AcDbLayerTableRecord
  2
DEFAULT_3
 70
0
 62
7
  6
PHANTOM
370
-3
390
F
  0
LAYER
  5
1FD
100
AcDbSymbolTableRecord
100
AcDbLayerTableRecord
  2
0_SNAPLINES
 70
0
 62
7
  6
CONTINUOUS
370
-3
390
F
  0
LAYER
  5
1FE
100
AcDbSymbolTableRecord
100
AcDbLayerTableRecord
  2
1_ALL_PLANES
 70
0
 62
7
  6
CONTINUOUS
370
-3
390
F
  0
LAYER
  5
1FF
100
AcDbSymbolTableRecord
100
AcDbLayerTableRecord
  2
1__DEF_PLANES
 70
0
 62
7
  6
CONTINUOUS
370
-3
390
F
  0
LAYER
  5
200
100
AcDbSymbolTableRecord
100
AcDbLayerTableRecord
  2
2_ALL_CSYS
 70
0
 62
7
  6
CONTINUOUS
370
-3
390
F
  0
LAYER
  5
201
100
AcDbSymbolTableRecord
100
AcDbLayerTableRecord
  2
2__DEF_CSYS
 70
0
 62
7
  6
CONTINUOUS
370
-3
390
F
  0
LAYER
  5
202
100
AcDbSymbolTableRecord
100
AcDbLayerTableRecord
  2
3_ALL_AXES
 70
0
 62
7
  6
CONTINUOUS
370
-3
390
F
  0
LAYER
  5
203
100
AcDbSymbolTableRecord
100
AcDbLayerTableRecord
  2
3_AXES_OTHER
 70
0
 62
7
  6
CONTINUOUS
370
-3
390
F
  0
LAYER
  5
204
100
AcDbSymbolTableRecord
100
AcDbLayerTableRecord
  2
3_HOLES
 70
0
 62
7
  6
CONTINUOUS
370
-3
390
F
  0
LAYER
  5
205
100
AcDbSymbolTableRecord
100
AcDbLayerTableRecord
  2
4_ALL_POINTS
 70
0
 62
7
  6
CONTINUOUS
370
-3
390
F
  0
LAYER
  5
206
100
AcDbSymbolTableRecord
100
AcDbLayerTableRecord
  2
5_ALL_CURVES
 70
0
 62
7
  6
CONTINUOUS
370
-3
390
F
  0
LAYER
  5
207
100
AcDbSymbolTableRecord
100
AcDbLayerTableRecord
  2
6_ALL_SURFS
 70
0
 62
7
  6
CONTINUOUS
370
-3
390
F
  0
LAYER
  5
208
100
AcDbSymbolTableRecord
100
AcDbLayerTableRecord
  2
6_COPYGEOM
 70
0
 62
7
  6
CONTINUOUS
370
-3
390
F
  0
LAYER
  5
209
100
AcDbSymbolTableRecord
100
AcDbLayerTableRecord
  2
7_ALL_ROUNDS
 70
0
 62
7
  6
CONTINUOUS
370
-3
390
F
  0
LAYER
  5
20A
100
AcDbSymbolTableRecord
100
AcDbLayerTableRecord
  2
7_MERGES
 70
0
 62
7
  6
CONTINUOUS
370
-3
390
F
  0
LAYER
  5
20B
100
AcDbSymbolTableRecord
100
AcDbLayerTableRecord
  2
8_GDT
 70
0
 62
7
  6
CONTINUOUS
370
-3
390
F
  0
LAYER
  5
20C
100
AcDbSymbolTableRecord
100
AcDbLayerTableRecord
  2
8_SET_DATUMS
 70
0
 62
7
  6
CONTINUOUS
370
-3
390
F
  0
LAYER
  5
20D
100
AcDbSymbolTableRecord
100
AcDbLayerTableRecord
  2
9_COSMETICS
 70
0
 62
7
  6
CONTINUOUS
370
-3
390
F
  0
LAYER
  5
20E
100
AcDbSymbolTableRecord
100
AcDbLayerTableRecord
  2
9_THREADS
 70
0
 62
7
  6
CONTINUOUS
370
-3
390
F
  0
ENDTAB
  0
TABLE
  2
STYLE
  5
3
100
AcDbSymbolTable
 70
1
  0
STYLE
  5
11
100
AcDbSymbolTableRecord
100
AcDbTextStyleTableRecord
  2
STANDARD
 70
0
 40
0.0
 41
0.8
 50
0.0
 71
0
 42
0.2
  3
txt
  4

  0
STYLE
  5
20F
100
AcDbSymbolTableRecord
100
AcDbTextStyleTableRecord
  2
TEXTSTYLE_1
 70
0
 40
0.0
 41
0.8
 50
0.0
 71
0
 42
0.2
  3
gdt
  4

  0
ENDTAB
  0
TABLE
  2
VIEW
  5
6
100
AcDbSymbolTable
 70
0
  0
ENDTAB
  0
TABLE
  2
UCS
  5
7
100
AcDbSymbolTable
 70
0
  0
ENDTAB
  0
TABLE
  2
APPID
  5
9
100
AcDbSymbolTable
 70
1
  0
APPID
  5
210
100
AcDbSymbolTableRecord
100
AcDbRegAppTableRecord
  2
ACAD
 70
0
  0
ENDTAB
  0
TABLE
  2
BLOCK_RECORD
  5
1
100
AcDbSymbolTable
 70
0
  0
BLOCK_RECORD
  5
211
100
AcDbSymbolTableRecord
100
AcDbBlockTableRecord
  2
*Model_Space
  0
BLOCK_RECORD
  5
212
100
AcDbSymbolTableRecord
100
AcDbBlockTableRecord
  2
*Paper_Space
  0
BLOCK_RECORD
  5
213
100
AcDbSymbolTableRecord
100
AcDbBlockTableRecord
  2
_FILLED
  0
BLOCK_RECORD
  5
214
100
AcDbSymbolTableRecord
100
AcDbBlockTableRecord
  2
*D0
  0
BLOCK_RECORD
  5
215
100
AcDbSymbolTableRecord
100
AcDbBlockTableRecord
  2
*D1
  0
BLOCK_RECORD
  5
216
100
AcDbSymbolTableRecord
100
AcDbBlockTableRecord
  2
*D2
  0
BLOCK_RECORD
  5
217
100
AcDbSymbolTableRecord
100
AcDbBlockTableRecord
  2
*D3
  0
BLOCK_RECORD
  5
218
100
AcDbSymbolTableRecord
100
AcDbBlockTableRecord
  2
*D4
  0
BLOCK_RECORD
  5
219
100
AcDbSymbolTableRecord
100
AcDbBlockTableRecord
  2
*D5
  0
BLOCK_RECORD
  5
21A
100
AcDbSymbolTableRecord
100
AcDbBlockTableRecord
  2
*D6
  0
BLOCK_RECORD
  5
21B
100
AcDbSymbolTableRecord
100
AcDbBlockTableRecord
  2
*D7
  0
BLOCK_RECORD
  5
21C
100
AcDbSymbolTableRecord
100
AcDbBlockTableRecord
  2
*D8
  0
BLOCK_RECORD
  5
21D
100
AcDbSymbolTableRecord
100
AcDbBlockTableRecord
  2
*D9
  0
BLOCK_RECORD
  5
21E
100
AcDbSymbolTableRecord
100
AcDbBlockTableRecord
  2
*D10
  0
BLOCK_RECORD
  5
21F
100
AcDbSymbolTableRecord
100
AcDbBlockTableRecord
  2
*D11
  0
BLOCK_RECORD
  5
220
100
AcDbSymbolTableRecord
100
AcDbBlockTableRecord
  2
*D12
  0
BLOCK_RECORD
  5
221
100
AcDbSymbolTableRecord
100
AcDbBlockTableRecord
  2
*D13
  0
BLOCK_RECORD
  5
222
100
AcDbSymbolTableRecord
100
AcDbBlockTableRecord
  2
*D14
  0
BLOCK_RECORD
  5
223
100
AcDbSymbolTableRecord
100
AcDbBlockTableRecord
  2
*D15
  0
BLOCK_RECORD
  5
224
100
AcDbSymbolTableRecord
100
AcDbBlockTableRecord
  2
*D16
  0
BLOCK_RECORD
  5
225
100
AcDbSymbolTableRecord
100
AcDbBlockTableRecord
  2
*D17
  0
BLOCK_RECORD
  5
226
100
AcDbSymbolTableRecord
100
AcDbBlockTableRecord
  2
*D18
  0
BLOCK_RECORD
  5
227
100
AcDbSymbolTableRecord
100
AcDbBlockTableRecord
  2
*D19
  0
BLOCK_RECORD
  5
228
100
AcDbSymbolTableRecord
100
AcDbBlockTableRecord
  2
*D20
  0
BLOCK_RECORD
  5
229
100
AcDbSymbolTableRecord
100
AcDbBlockTableRecord
  2
*D21
  0
BLOCK_RECORD
  5
22A
100
AcDbSymbolTableRecord
100
AcDbBlockTableRecord
  2
CG_3D_BL2
  0
BLOCK_RECORD
  5
22B
100
AcDbSymbolTableRecord
100
AcDbBlockTableRecord
  2
CG_3D_BL1
  0
BLOCK_RECORD
  5
22C
100
AcDbSymbolTableRecord
100
AcDbBlockTableRecord
  2
CG_3D_BL0
  0
ENDTAB
  0
TABLE
  2
DIMSTYLE
  5
A
100
AcDbSymbolTable
 70
1
100
AcDbDimStyleTable
 71
0
  0
DIMSTYLE
105
22D
100
AcDbSymbolTableRecord
100
AcDbDimStyleTableRecord
  2
STANDARD
 70
0
  3

  4

 40
1.0
 41
1.7201834862
 42
0.0625
 43
0.38
 44
0.125
 45
0.0
 46
0.0
 47
0.01
 48
0.01
140
1.4334862385
141
0.09
142
0.0
143
25.4
144
1.0
145
0.0
146
1.0
147
0.09
 71
1.0
 72
0.0
 73
1
 74
1
 75
0
 76
0
 77
0
 78
4
170
0
171
2
172
0
173
0
174
0
175
0
176
0
177
0
178
0
270
2
271
3
272
3
273
2
274
2
275
0
280
0
281
0
282
0
283
1
284
4
285
0
286
0
287
3
288
0
340
11
278
46
341
213
342
213
343
213
344
213
  0
DIMSTYLE
105
22E
100
AcDbSymbolTableRecord
100
AcDbDimStyleTableRecord
  2
DIMSTYLE_1
 70
0
  3

  4

 40
1.0
 41
1.7201834862
 42
0.0625
 43
0.38
 44
0.125
 45
0.0
 46
0.0
 47
0.01
 48
0.01
140
1.4334862385
141
0.09
142
0.0
143
25.4
144
1.0
145
0.0
146
1.0
147
0.078125
 71
0.0
 72
0.0
 73
1
 74
1
 75
0
 76
0
 77
0
 78
4
170
0
171
2
172
0
173
0
174
0
175
0
176
0
177
0
178
0
270
2
271
1
272
1
273
2
274
2
275
0
280
0
281
0
282
0
283
1
284
4
285
0
286
0
287
3
288
0
340
11
278
46
341
213
342
213
343
213
344
213
  0
ENDTAB
  0
ENDSEC
  0
SECTION
  2
BLOCKS
  0
BLOCK
  5
20
100
AcDbEntity
  8
0
100
AcDbBlockBegin
  2
*Model_Space
 70
0
 10
0.0
 20
0.0
 30
0.0
  3
*Model_Space
  1

  0
ENDBLK
  5
21
100
AcDbEntity
  8
0
100
AcDbBlockEnd
  0
BLOCK
  5
1C
100
AcDbEntity
  8
0
100
AcDbBlockBegin
  2
*Paper_Space
 70
0
 10
0.0
 20
0.0
 30
0.0
  3
*Paper_Space
  1

  0
ENDBLK
  5
1D
100
AcDbEntity
  8
0
100
AcDbBlockEnd
  0
BLOCK
  5
22F
100
AcDbEntity
  8
0
100
AcDbBlockBegin
 62
2
  6
CONTINUOUS
  2
CG_3D_BL2
 70
64
 10
37.6284010374
 20
120.7192252535
  3
CG_3D_BL2
  1

  0
ARC
  5
230
100
AcDbEntity
  8
0
100
AcDbCircle
 62
7
  6
CONTINUOUS
 10
37.6284010374
 20
120.7192252535
 40
0.8623853211
100
AcDbArc
 50
90.0
 51
180.0
  0
ARC
  5
231
100
AcDbEntity
  8
0
100
AcDbCircle
 62
7
  6
CONTINUOUS
 10
37.6284010374
 20
120.7192252535
 40
0.8623853211
100
AcDbArc
 50
180.0
 51
270.0
  0
ARC
  5
232
100
AcDbEntity
  8
0
100
AcDbCircle
 62
7
  6
CONTINUOUS
 10
37.6284010374
 20
120.7192252535
 40
0.8623853211
100
AcDbArc
 50
270.0
 51
360.0
  0
ARC
  5
233
100
AcDbEntity
  8
0
100
AcDbCircle
 62
7
  6
CONTINUOUS
 10
37.6284010374
 20
120.7192252535
 40
0.8623853211
100
AcDbArc
 50
0.0
 51
90.0
  0
LINE
  5
234
100
AcDbEntity
  8
0
100
AcDbLine
 62
7
  6
CONTINUOUS
 10
37.6284010374
 20
120.7192252535
 11
38.4907863585
 21
120.7192252535
  0
LINE
  5
235
100
AcDbEntity
  8
0
100
AcDbLine
 62
7
  6
CONTINUOUS
 10
37.6284010374
 20
120.7192252535
 11
37.6284010374
 21
119.8568399324
  0
LINE
  5
236
100
AcDbEntity
  8
0
100
AcDbLine
 62
7
  6
CONTINUOUS
 10
36.7660157163
 20
120.7192252535
 11
37.6284010374
 21
120.7192252535
  0
LINE
  5
237
100
AcDbEntity
  8
0
100
AcDbLine
 62
7
  6
CONTINUOUS
 10
37.6284010374
 20
121.5816105746
 11
37.6284010374
 21
120.7192252535
  0
LINE
  5
238
100
AcDbEntity
  8
0
100
AcDbLine
 62
2
  6
CONTINUOUS
 10
37.6284010374
 20
120.7135415656
 11
37.6340847253
 21
120.7192252535
  0
LWPOLYLINE
  5
239
100
AcDbEntity
  8
0
100
AcDbPolyline
 62
7
  6
CONTINUOUS
 90
8
 70
0
 10
37.6284010374
 20
120.7192252535
 10
37.6284010374
 20
119.8568399324
 10
37.8948927573
 20
119.8990480743
 10
38.135298411
 20
120.021540873
 10
38.3260854179
 20
120.2123278799
 10
38.4485782166
 20
120.4527335336
 10
38.4907863585
 20
120.7192252535
 10
37.6284010374
 20
120.7192252535
  0
HATCH
  5
23A
100
AcDbEntity
  8
0
100
AcDbHatch
 62
7
  6
CONTINUOUS
 10
0.0
 20
0.0
 30
0.0
210
0.0
220
0.0
230
1.0
  2
SOLID
 70
1
 71
1
 91
1
 92
1
 93
7
 72
1
 10
37.6284010374
 20
120.7192252535
 11
37.6284010374
 21
119.8568399324
 72
1
 10
37.6284010374
 20
119.8568399324
 11
37.8948927573
 21
119.8990480743
 72
1
 10
37.8948927573
 20
119.8990480743
 11
38.135298411
 21
120.021540873
 72
1
 10
38.135298411
 20
120.021540873
 11
38.3260854179
 21
120.2123278799
 72
1
 10
38.3260854179
 20
120.2123278799
 11
38.4485782166
 21
120.4527335336
 72
1
 10
38.4485782166
 20
120.4527335336
 11
38.4907863585
 21
120.7192252535
 72
1
 10
38.4907863585
 20
120.7192252535
 11
37.6284010374
 21
120.7192252535
 97
1
330
239
 75
0
 76
1
 98
1
 10
0.0
 20
0.0
  0
LWPOLYLINE
  5
23B
100
AcDbEntity
  8
0
100
AcDbPolyline
 62
7
  6
CONTINUOUS
 90
8
 70
0
 10
37.6284010374
 20
120.7192252535
 10
36.7660157163
 20
120.7192252535
 10
36.8082238582
 20
120.9857169734
 10
36.930716657
 20
121.226122627
 10
37.1215036639
 20
121.4169096339
 10
37.3619093175
 20
121.5394024327
 10
37.6284010374
 20
121.5816105746
 10
37.6284010374
 20
120.7192252535
  0
HATCH
  5
23C
100
AcDbEntity
  8
0
100
AcDbHatch
 62
7
  6
CONTINUOUS
 10
0.0
 20
0.0
 30
0.0
210
0.0
220
0.0
230
1.0
  2
SOLID
 70
1
 71
1
 91
1
 92
1
 93
7
 72
1
 10
37.6284010374
 20
120.7192252535
 11
36.7660157163
 21
120.7192252535
 72
1
 10
36.7660157163
 20
120.7192252535
 11
36.8082238582
 21
120.9857169734
 72
1
 10
36.8082238582
 20
120.9857169734
 11
36.930716657
 21
121.226122627
 72
1
 10
36.930716657
 20
121.226122627
 11
37.1215036639
 21
121.4169096339
 72
1
 10
37.1215036639
 20
121.4169096339
 11
37.3619093175
 21
121.5394024327
 72
1
 10
37.3619093175
 20
121.5394024327
 11
37.6284010374
 21
121.5816105746
 72
1
 10
37.6284010374
 20
121.5816105746
 11
37.6284010374
 21
120.7192252535
 97
1
330
23B
 75
0
 76
1
 98
1
 10
0.0
 20
0.0
  0
ENDBLK
  5
23D
100
AcDbEntity
  8
0
  6
BYBLOCK
 62
0
100
AcDbBlockEnd
  0
BLOCK
  5
23E
100
AcDbEntity
  8
0
100
AcDbBlockBegin
 62
2
  6
CONTINUOUS
  2
CG_3D_BL1
 70
64
 10
37.6277608019
 20
63.8750771315
  3
CG_3D_BL1
  1

  0
ARC
  5
23F
100
AcDbEntity
  8
0
100
AcDbCircle
 62
7
  6
CONTINUOUS
 10
37.6277608019
 20
63.8750771315
 40
0.8623853211
100
AcDbArc
 50
90.0
 51
180.0
  0
ARC
  5
240
100
AcDbEntity
  8
0
100
AcDbCircle
 62
7
  6
CONTINUOUS
 10
37.6277608019
 20
63.8750771315
 40
0.8623853211
100
AcDbArc
 50
180.0
 51
270.0
  0
ARC
  5
241
100
AcDbEntity
  8
0
100
AcDbCircle
 62
7
  6
CONTINUOUS
 10
37.6277608019
 20
63.8750771315
 40
0.8623853211
100
AcDbArc
 50
270.0
 51
360.0
  0
ARC
  5
242
100
AcDbEntity
  8
0
100
AcDbCircle
 62
7
  6
CONTINUOUS
 10
37.6277608019
 20
63.8750771315
 40
0.8623853211
100
AcDbArc
 50
0.0
 51
90.0
  0
LINE
  5
243
100
AcDbEntity
  8
0
100
AcDbLine
 62
7
  6
CONTINUOUS
 10
37.6277608019
 20
63.8750771315
 11
38.490146123
 21
63.8750771315
  0
LINE
  5
244
100
AcDbEntity
  8
0
100
AcDbLine
 62
7
  6
CONTINUOUS
 10
37.6277608019
 20
63.8750771315
 11
37.6277608019
 21
63.0126918104
  0
LINE
  5
245
100
AcDbEntity
  8
0
100
AcDbLine
 62
7
  6
CONTINUOUS
 10
36.7653754808
 20
63.8750771315
 11
37.6277608019
 21
63.8750771315
  0
LINE
  5
246
100
AcDbEntity
  8
0
100
AcDbLine
 62
7
  6
CONTINUOUS
 10
37.6277608019
 20
64.7374624526
 11
37.6277608019
 21
63.8750771315
  0
LINE
  5
247
100
AcDbEntity
  8
0
100
AcDbLine
 62
2
  6
CONTINUOUS
 10
37.6277608019
 20
63.8693934436
 11
37.6334444898
 21
63.8750771315
  0
LWPOLYLINE
  5
248
100
AcDbEntity
  8
0
100
AcDbPolyline
 62
7
  6
CONTINUOUS
 90
8
 70
0
 10
37.6277608019
 20
63.8750771315
 10
37.6277608019
 20
63.0126918104
 10
37.8942525218
 20
63.0548999523
 10
38.1346581754
 20
63.177392751
 10
38.3254451824
 20
63.368179758
 10
38.4479379811
 20
63.6085854116
 10
38.490146123
 20
63.8750771315
 10
37.6277608019
 20
63.8750771315
  0
HATCH
  5
249
100
AcDbEntity
  8
0
100
AcDbHatch
 62
7
  6
CONTINUOUS
 10
0.0
 20
0.0
 30
0.0
210
0.0
220
0.0
230
1.0
  2
SOLID
 70
1
 71
1
 91
1
 92
1
 93
7
 72
1
 10
37.6277608019
 20
63.8750771315
 11
37.6277608019
 21
63.0126918104
 72
1
 10
37.6277608019
 20
63.0126918104
 11
37.8942525218
 21
63.0548999523
 72
1
 10
37.8942525218
 20
63.0548999523
 11
38.1346581754
 21
63.177392751
 72
1
 10
38.1346581754
 20
63.177392751
 11
38.3254451824
 21
63.368179758
 72
1
 10
38.3254451824
 20
63.368179758
 11
38.4479379811
 21
63.6085854116
 72
1
 10
38.4479379811
 20
63.6085854116
 11
38.490146123
 21
63.8750771315
 72
1
 10
38.490146123
 20
63.8750771315
 11
37.6277608019
 21
63.8750771315
 97
1
330
248
 75
0
 76
1
 98
1
 10
0.0
 20
0.0
  0
LWPOLYLINE
  5
24A
100
AcDbEntity
  8
0
100
AcDbPolyline
 62
7
  6
CONTINUOUS
 90
8
 70
0
 10
37.6277608019
 20
63.8750771315
 10
36.7653754808
 20
63.8750771315
 10
36.8075836227
 20
64.1415688514
 10
36.9300764214
 20
64.381974505
 10
37.1208634284
 20
64.572761512
 10
37.361269082
 20
64.6952543107
 10
37.6277608019
 20
64.7374624526
 10
37.6277608019
 20
63.8750771315
  0
HATCH
  5
24B
100
AcDbEntity
  8
0
100
AcDbHatch
 62
7
  6
CONTINUOUS
 10
0.0
 20
0.0
 30
0.0
210
0.0
220
0.0
230
1.0
  2
SOLID
 70
1
 71
1
 91
1
 92
1
 93
7
 72
1
 10
37.6277608019
 20
63.8750771315
 11
36.7653754808
 21
63.8750771315
 72
1
 10
36.7653754808
 20
63.8750771315
 11
36.8075836227
 21
64.1415688514
 72
1
 10
36.8075836227
 20
64.1415688514
 11
36.9300764214
 21
64.381974505
 72
1
 10
36.9300764214
 20
64.381974505
 11
37.1208634284
 21
64.572761512
 72
1
 10
37.1208634284
 20
64.572761512
 11
37.361269082
 21
64.6952543107
 72
1
 10
37.361269082
 20
64.6952543107
 11
37.6277608019
 21
64.7374624526
 72
1
 10
37.6277608019
 20
64.7374624526
 11
37.6277608019
 21
63.8750771315
 97
1
330
24A
 75
0
 76
1
 98
1
 10
0.0
 20
0.0
  0
ENDBLK
  5
24C
100
AcDbEntity
  8
0
  6
BYBLOCK
 62
0
100
AcDbBlockEnd
  0
BLOCK
  5
24D
100
AcDbEntity
  8
0
100
AcDbBlockBegin
 62
2
  6
CONTINUOUS
  2
CG_3D_BL0
 70
64
 10
17.1960130504
 20
20.0432470928
  3
CG_3D_BL0
  1

  0
ARC
  5
24E
100
AcDbEntity
  8
0
100
AcDbCircle
 62
7
  6
CONTINUOUS
 10
17.1960130504
 20
20.0432470928
 40
0.9174311927
100
AcDbArc
 50
90.0
 51
180.0
  0
ARC
  5
24F
100
AcDbEntity
  8
0
100
AcDbCircle
 62
7
  6
CONTINUOUS
 10
17.1960130504
 20
20.0432470928
 40
0.9174311927
100
AcDbArc
 50
180.0
 51
270.0
  0
ARC
  5
250
100
AcDbEntity
  8
0
100
AcDbCircle
 62
7
  6
CONTINUOUS
 10
17.1960130504
 20
20.0432470928
 40
0.9174311927
100
AcDbArc
 50
270.0
 51
360.0
  0
ARC
  5
251
100
AcDbEntity
  8
0
100
AcDbCircle
 62
7
  6
CONTINUOUS
 10
17.1960130504
 20
20.0432470928
 40
0.9174311927
100
AcDbArc
 50
0.0
 51
90.0
  0
LINE
  5
252
100
AcDbEntity
  8
0
100
AcDbLine
 62
7
  6
CONTINUOUS
 10
17.1960130504
 20
20.0432470928
 11
18.1134442431
 21
20.0432470928
  0
LINE
  5
253
100
AcDbEntity
  8
0
100
AcDbLine
 62
7
  6
CONTINUOUS
 10
17.1960130504
 20
20.0432470928
 11
17.1960130504
 21
19.1258159001
  0
LINE
  5
254
100
AcDbEntity
  8
0
100
AcDbLine
 62
7
  6
CONTINUOUS
 10
16.2785818578
 20
20.0432470928
 11
17.1960130504
 21
20.0432470928
  0
LINE
  5
255
100
AcDbEntity
  8
0
100
AcDbLine
 62
7
  6
CONTINUOUS
 10
17.1960130504
 20
20.9606782854
 11
17.1960130504
 21
20.0432470928
  0
LINE
  5
256
100
AcDbEntity
  8
0
100
AcDbLine
 62
2
  6
CONTINUOUS
 10
17.1960130504
 20
20.0372006163
 11
17.2020595269
 21
20.0432470928
  0
LWPOLYLINE
  5
257
100
AcDbEntity
  8
0
100
AcDbPolyline
 62
7
  6
CONTINUOUS
 90
8
 70
0
 10
17.1960130504
 20
20.0432470928
 10
17.1960130504
 20
19.1258159001
 10
17.4795148801
 20
19.1707181787
 10
17.7352655755
 20
19.3010296667
 10
17.9382304764
 20
19.5039945677
 10
18.0685419644
 20
19.7597452631
 10
18.1134442431
 20
20.0432470928
 10
17.1960130504
 20
20.0432470928
  0
HATCH
  5
258
100
AcDbEntity
  8
0
100
AcDbHatch
 62
7
  6
CONTINUOUS
 10
0.0
 20
0.0
 30
0.0
210
0.0
220
0.0
230
1.0
  2
SOLID
 70
1
 71
1
 91
1
 92
1
 93
7
 72
1
 10
17.1960130504
 20
20.0432470928
 11
17.1960130504
 21
19.1258159001
 72
1
 10
17.1960130504
 20
19.1258159001
 11
17.4795148801
 21
19.1707181787
 72
1
 10
17.4795148801
 20
19.1707181787
 11
17.7352655755
 21
19.3010296667
 72
1
 10
17.7352655755
 20
19.3010296667
 11
17.9382304764
 21
19.5039945677
 72
1
 10
17.9382304764
 20
19.5039945677
 11
18.0685419644
 21
19.7597452631
 72
1
 10
18.0685419644
 20
19.7597452631
 11
18.1134442431
 21
20.0432470928
 72
1
 10
18.1134442431
 20
20.0432470928
 11
17.1960130504
 21
20.0432470928
 97
1
330
257
 75
0
 76
1
 98
1
 10
0.0
 20
0.0
  0
LWPOLYLINE
  5
259
100
AcDbEntity
  8
0
100
AcDbPolyline
 62
7
  6
CONTINUOUS
 90
8
 70
0
 10
17.1960130504
 20
20.0432470928
 10
16.2785818578
 20
20.0432470928
 10
16.3234841364
 20
20.3267489225
 10
16.4537956244
 20
20.5824996178
 10
16.6567605254
 20
20.7854645188
 10
16.9125112207
 20
20.9157760068
 10
17.1960130504
 20
20.9606782854
 10
17.1960130504
 20
20.0432470928
  0
HATCH
  5
25A
100
AcDbEntity
  8
0
100
AcDbHatch
 62
7
  6
CONTINUOUS
 10
0.0
 20
0.0
 30
0.0
210
0.0
220
0.0
230
1.0
  2
SOLID
 70
1
 71
1
 91
1
 92
1
 93
7
 72
1
 10
17.1960130504
 20
20.0432470928
 11
16.2785818578
 21
20.0432470928
 72
1
 10
16.2785818578
 20
20.0432470928
 11
16.3234841364
 21
20.3267489225
 72
1
 10
16.3234841364
 20
20.3267489225
 11
16.4537956244
 21
20.5824996178
 72
1
 10
16.4537956244
 20
20.5824996178
 11
16.6567605254
 21
20.7854645188
 72
1
 10
16.6567605254
 20
20.7854645188
 11
16.9125112207
 21
20.9157760068
 72
1
 10
16.9125112207
 20
20.9157760068
 11
17.1960130504
 21
20.9606782854
 72
1
 10
17.1960130504
 20
20.9606782854
 11
17.1960130504
 21
20.0432470928
 97
1
330
259
 75
0
 76
1
 98
1
 10
0.0
 20
0.0
  0
ENDBLK
  5
25B
100
AcDbEntity
  8
0
  6
BYBLOCK
 62
0
100
AcDbBlockEnd
  0
BLOCK
  5
25C
100
AcDbEntity
  8
0
100
AcDbBlockBegin
  2
_FILLED
 70
64
 10
0.0
 20
0.0
  3
_FILLED
  1

  0
SOLID
  5
25D
100
AcDbEntity
  8
0
  6
BYBLOCK
 62
0
100
AcDbTrace
 10
0.0
 20
0.0
 11
-1.0
 21
0.1666666667
 12
-1.0
 22
-0.1666666667
 13
-1.0
 23
-0.1666666667
  0
ENDBLK
  5
25E
100
AcDbEntity
  8
0
  6
BYBLOCK
 62
0
100
AcDbBlockEnd
  0
BLOCK
  5
25F
100
AcDbEntity
  8
0
100
AcDbBlockBegin
 62
2
  6
CONTINUOUS
  2
*D0
 70
65
 10
0.0
 20
0.0
  3
*D0
  1

  0
MTEXT
  5
260
100
AcDbEntity
  8
0
100
AcDbMText
 62
2
  6
CONTINUOUS
  7
STANDARD
 71
1
 72
1
 10
165.7246622361
 20
47.3714341046
 30
0.0
 11
1.0
 21
0.0
 31
0.0
 44
0.9
  1
5.6\P[141]
 40
1.4334862385
 41
5.9899246396
  0
LINE
  5
261
100
AcDbEntity
  8
0
100
AcDbLine
 62
2
  6
CONTINUOUS
 10
155.1314766716
 20
56.5506612104
 11
155.1314766716
 21
45.5079019945
  0
LINE
  5
262
100
AcDbEntity
  8
0
100
AcDbLine
 62
2
  6
CONTINUOUS
 10
160.6814766716
 20
56.5506612104
 11
160.6814766716
 21
45.5079019945
  0
LINE
  5
263
100
AcDbEntity
  8
0
100
AcDbLine
 62
2
  6
CONTINUOUS
 10
155.1314766716
 20
46.6546909853
 11
150.5443207082
 21
46.6546909853
  0
LINE
  5
264
100
AcDbEntity
  8
0
100
AcDbLine
 62
2
  6
CONTINUOUS
 10
160.6814766716
 20
46.6546909853
 11
165.0079191169
 21
46.6546909853
  0
INSERT
  5
265
100
AcDbEntity
  8
0
100
AcDbBlockReference
 62
2
  6
CONTINUOUS
  2
_FILLED
 10
155.1314766716
 20
46.6546909853
 41
1.7201834862
 42
1.7201834862
 43
1.7201834862
  0
INSERT
  5
266
100
AcDbEntity
  8
0
100
AcDbBlockReference
 62
2
  6
CONTINUOUS
  2
_FILLED
 10
160.6814766716
 20
46.6546909853
 41
1.7201834862
 42
1.7201834862
 43
1.7201834862
 50
180.0
  0
ENDBLK
  5
267
100
AcDbEntity
  8
0
  6
BYBLOCK
 62
0
100
AcDbBlockEnd
  0
BLOCK
  5
268
100
AcDbEntity
  8
0
100
AcDbBlockBegin
 62
2
  6
CONTINUOUS
  2
*D1
 70
65
 10
0.0
 20
0.0
  3
*D1
  1

  0
MTEXT
  5
269
100
AcDbEntity
  8
0
100
AcDbMText
 62
2
  6
CONTINUOUS
  7
STANDARD
 71
3
 72
1
 10
131.9195444834
 20
66.2368989046
 30
0.0
 11
1.0
 21
0.0
 31
0.0
 44
0.9
  1
4.0\P[102]
 40
1.4334862385
 41
6.4506880734
  0
LINE
  5
26A
100
AcDbEntity
  8
0
100
AcDbLine
 62
2
  6
CONTINUOUS
 10
154.8080821761
 20
60.8740557058
 11
134.1290348851
 21
60.8740557058
  0
LINE
  5
26B
100
AcDbEntity
  8
0
100
AcDbLine
 62
2
  6
CONTINUOUS
 10
154.8080821761
 20
56.8740557058
 11
134.1290348851
 21
56.8740557058
  0
LINE
  5
26C
100
AcDbEntity
  8
0
100
AcDbLine
 62
2
  6
CONTINUOUS
 10
135.2758238759
 20
60.8740557058
 11
135.2758238759
 21
65.5201557854
  0
LINE
  5
26D
100
AcDbEntity
  8
0
100
AcDbLine
 62
2
  6
CONTINUOUS
 10
135.2758238759
 20
65.5201557854
 11
133.8649900928
 21
65.5201557854
  0
LINE
  5
26E
100
AcDbEntity
  8
0
100
AcDbLine
 62
2
  6
CONTINUOUS
 10
135.2758238759
 20
56.8740557058
 11
135.2758238759
 21
52.2868997425
  0
INSERT
  5
26F
100
AcDbEntity
  8
0
100
AcDbBlockReference
 62
2
  6
CONTINUOUS
  2
_FILLED
 10
135.2758238759
 20
60.8740557058
 41
1.7201834862
 42
1.7201834862
 43
1.7201834862
 50
270.0
  0
INSERT
  5
270
100
AcDbEntity
  8
0
100
AcDbBlockReference
 62
2
  6
CONTINUOUS
  2
_FILLED
 10
135.2758238759
 20
56.8740557058
 41
1.7201834862
 42
1.7201834862
 43
1.7201834862
 50
90.0
  0
ENDBLK
  5
271
100
AcDbEntity
  8
0
  6
BYBLOCK
 62
0
100
AcDbBlockEnd
  0
BLOCK
  5
272
100
AcDbEntity
  8
0
100
AcDbBlockBegin
 62
2
  6
CONTINUOUS
  2
*D2
 70
65
 10
0.0
 20
0.0
  3
*D2
  1

  0
MTEXT
  5
273
100
AcDbEntity
  8
0
100
AcDbMText
 62
2
  6
CONTINUOUS
  7
STANDARD
 71
2
 72
1
 10
96.9434700018
 20
87.2953810755
 30
0.0
 11
1.0
 21
0.0
 31
0.0
 44
0.9
  1
30.0\P[762]
 40
1.4334862385
 41
6.9114515072
  0
LINE
  5
274
100
AcDbEntity
  8
0
100
AcDbLine
 62
2
  6
CONTINUOUS
 10
82.1994496872
 20
73.4474502012
 11
82.1994496872
 21
87.7254269471
  0
LINE
  5
275
100
AcDbEntity
  8
0
100
AcDbLine
 62
2
  6
CONTINUOUS
 10
112.1994496872
 20
74.4474502012
 11
112.1994496872
 21
87.7254269471
  0
LINE
  5
276
100
AcDbEntity
  8
0
100
AcDbLine
 62
2
  6
CONTINUOUS
 10
82.1994496872
 20
86.5786379563
 11
94.1788893989
 21
86.5786379563
  0
LINE
  5
277
100
AcDbEntity
  8
0
100
AcDbLine
 62
2
  6
CONTINUOUS
 10
112.1994496872
 20
86.5786379563
 11
100.2200099756
 21
86.5786379563
  0
INSERT
  5
278
100
AcDbEntity
  8
0
100
AcDbBlockReference
 62
2
  6
CONTINUOUS
  2
_FILLED
 10
82.1994496872
 20
86.5786379563
 41
1.7201834862
 42
1.7201834862
 43
1.7201834862
 50
180.0
  0
INSERT
  5
279
100
AcDbEntity
  8
0
100
AcDbBlockReference
 62
2
  6
CONTINUOUS
  2
_FILLED
 10
112.1994496872
 20
86.5786379563
 41
1.7201834862
 42
1.7201834862
 43
1.7201834862
  0
ENDBLK
  5
27A
100
AcDbEntity
  8
0
  6
BYBLOCK
 62
0
100
AcDbBlockEnd
  0
BLOCK
  5
27B
100
AcDbEntity
  8
0
100
AcDbBlockBegin
 62
2
  6
CONTINUOUS
  2
*D3
 70
65
 10
0.0
 20
0.0
  3
*D3
  1

  0
MTEXT
  5
27C
100
AcDbEntity
  8
0
100
AcDbMText
 62
2
  6
CONTINUOUS
  7
STANDARD
 71
2
 72
1
 10
97.0398821905
 20
80.0654872937
 30
0.0
 11
1.0
 21
0.0
 31
0.0
 44
0.9
  1
18.5\P[470]
 40
1.4334862385
 41
6.9114515072
  0
LINE
  5
27D
100
AcDbEntity
  8
0
100
AcDbLine
 62
2
  6
CONTINUOUS
 10
88.1994496872
 20
73.9548813939
 11
88.1994496872
 21
80.4955331653
  0
LINE
  5
27E
100
AcDbEntity
  8
0
100
AcDbLine
 62
2
  6
CONTINUOUS
 10
106.6994496872
 20
73.9548813939
 11
106.6994496872
 21
80.4955331653
  0
LINE
  5
27F
100
AcDbEntity
  8
0
100
AcDbLine
 62
2
  6
CONTINUOUS
 10
88.1994496872
 20
79.3487441745
 11
94.4288893989
 21
79.3487441745
  0
LINE
  5
280
100
AcDbEntity
  8
0
100
AcDbLine
 62
2
  6
CONTINUOUS
 10
106.6994496872
 20
79.3487441745
 11
100.4700099756
 21
79.3487441745
  0
INSERT
  5
281
100
AcDbEntity
  8
0
100
AcDbBlockReference
 62
2
  6
CONTINUOUS
  2
_FILLED
 10
88.1994496872
 20
79.3487441745
 41
1.7201834862
 42
1.7201834862
 43
1.7201834862
 50
180.0
  0
INSERT
  5
282
100
AcDbEntity
  8
0
100
AcDbBlockReference
 62
2
  6
CONTINUOUS
  2
_FILLED
 10
106.6994496872
 20
79.3487441745
 41
1.7201834862
 42
1.7201834862
 43
1.7201834862
  0
ENDBLK
  5
283
100
AcDbEntity
  8
0
  6
BYBLOCK
 62
0
100
AcDbBlockEnd
  0
BLOCK
  5
284
100
AcDbEntity
  8
0
100
AcDbBlockBegin
 62
2
  6
CONTINUOUS
  2
*D4
 70
65
 10
0.0
 20
0.0
  3
*D4
  1

  0
MTEXT
  5
285
100
AcDbEntity
  8
0
100
AcDbMText
 62
2
  6
CONTINUOUS
  7
STANDARD
 71
2
 72
1
 10
77.3352891105
 20
64.590798825
 30
0.0
 11
1.0
 21
0.0
 31
0.0
 44
0.9
  1
16.8\P[425]
 40
1.4334862385
 41
6.7578636959
  0
LINE
  5
286
100
AcDbEntity
  8
0
100
AcDbLine
 62
2
  6
CONTINUOUS
 10
86.4936239992
 20
72.2490557058
 11
76.4956757422
 21
72.2490557058
  0
LINE
  5
287
100
AcDbEntity
  8
0
100
AcDbLine
 62
2
  6
CONTINUOUS
 10
86.4936239992
 20
55.4990557058
 11
76.4956757422
 21
55.4990557058
  0
LINE
  5
288
100
AcDbEntity
  8
0
100
AcDbLine
 62
2
  6
CONTINUOUS
 10
77.642464733
 20
72.2490557058
 11
77.642464733
 21
65.3075419443
  0
LINE
  5
289
100
AcDbEntity
  8
0
100
AcDbLine
 62
2
  6
CONTINUOUS
 10
77.642464733
 20
55.4990557058
 11
77.642464733
 21
60.2903401094
  0
INSERT
  5
28A
100
AcDbEntity
  8
0
100
AcDbBlockReference
 62
2
  6
CONTINUOUS
  2
_FILLED
 10
77.642464733
 20
72.2490557058
 41
1.7201834862
 42
1.7201834862
 43
1.7201834862
 50
90.0
  0
INSERT
  5
28B
100
AcDbEntity
  8
0
100
AcDbBlockReference
 62
2
  6
CONTINUOUS
  2
_FILLED
 10
77.642464733
 20
55.4990557058
 41
1.7201834862
 42
1.7201834862
 43
1.7201834862
 50
270.0
  0
ENDBLK
  5
28C
100
AcDbEntity
  8
0
  6
BYBLOCK
 62
0
100
AcDbBlockEnd
  0
BLOCK
  5
28D
100
AcDbEntity
  8
0
100
AcDbBlockBegin
 62
2
  6
CONTINUOUS
  2
*D5
 70
65
 10
0.0
 20
0.0
  3
*D5
  1

  0
MTEXT
  5
28E
100
AcDbEntity
  8
0
100
AcDbMText
 62
2
  6
CONTINUOUS
  7
STANDARD
 71
1
 72
1
 10
116.9858772981
 20
80.0654872937
 30
0.0
 11
1.0
 21
0.0
 31
0.0
 44
0.9
  1
5.5\P[140]
 40
1.4334862385
 41
6.4506880734
  0
LINE
  5
28F
100
AcDbEntity
  8
0
100
AcDbLine
 62
2
  6
CONTINUOUS
 10
112.1994496872
 20
74.4474502012
 11
112.1994496872
 21
80.4955331653
  0
LINE
  5
290
100
AcDbEntity
  8
0
100
AcDbLine
 62
2
  6
CONTINUOUS
 10
106.6994496872
 20
73.9548813939
 11
106.6994496872
 21
80.4955331653
  0
LINE
  5
291
100
AcDbEntity
  8
0
100
AcDbLine
 62
2
  6
CONTINUOUS
 10
112.1994496872
 20
79.3487441745
 11
116.2691341789
 21
79.3487441745
  0
LINE
  5
292
100
AcDbEntity
  8
0
100
AcDbLine
 62
2
  6
CONTINUOUS
 10
106.6994496872
 20
79.3487441745
 11
102.1122937239
 21
79.3487441745
  0
INSERT
  5
293
100
AcDbEntity
  8
0
100
AcDbBlockReference
 62
2
  6
CONTINUOUS
  2
_FILLED
 10
112.1994496872
 20
79.3487441745
 41
1.7201834862
 42
1.7201834862
 43
1.7201834862
 50
180.0
  0
INSERT
  5
294
100
AcDbEntity
  8
0
100
AcDbBlockReference
 62
2
  6
CONTINUOUS
  2
_FILLED
 10
106.6994496872
 20
79.3487441745
 41
1.7201834862
 42
1.7201834862
 43
1.7201834862
  0
ENDBLK
  5
295
100
AcDbEntity
  8
0
  6
BYBLOCK
 62
0
100
AcDbBlockEnd
  0
BLOCK
  5
296
100
AcDbEntity
  8
0
100
AcDbBlockBegin
 62
2
  6
CONTINUOUS
  2
*D6
 70
65
 10
0.0
 20
0.0
  3
*D6
  1

  0
MTEXT
  5
297
100
AcDbEntity
  8
0
100
AcDbMText
 62
2
  6
CONTINUOUS
  7
STANDARD
 71
2
 72
1
 10
96.6874903163
 20
45.4878124087
 30
0.0
 11
1.0
 21
0.0
 31
0.0
 44
0.9
  1
16.1\P[408]
 40
1.4334862385
 41
6.9114515072
  0
LINE
  5
298
100
AcDbEntity
  8
0
100
AcDbLine
 62
2
  6
CONTINUOUS
 10
105.2314496872
 20
57.7189473121
 11
105.2314496872
 21
43.6242802986
  0
LINE
  5
299
100
AcDbEntity
  8
0
100
AcDbLine
 62
2
  6
CONTINUOUS
 10
89.1674496872
 20
57.6556076764
 11
89.1674496872
 21
43.6242802986
  0
LINE
  5
29A
100
AcDbEntity
  8
0
100
AcDbLine
 62
2
  6
CONTINUOUS
 10
105.2314496872
 20
44.7710692894
 11
100.2200099756
 21
44.7710692894
  0
LINE
  5
29B
100
AcDbEntity
  8
0
100
AcDbLine
 62
2
  6
CONTINUOUS
 10
89.1674496872
 20
44.7710692894
 11
94.1788893989
 21
44.7710692894
  0
INSERT
  5
29C
100
AcDbEntity
  8
0
100
AcDbBlockReference
 62
2
  6
CONTINUOUS
  2
_FILLED
 10
105.2314496872
 20
44.7710692894
 41
1.7201834862
 42
1.7201834862
 43
1.7201834862
  0
INSERT
  5
29D
100
AcDbEntity
  8
0
100
AcDbBlockReference
 62
2
  6
CONTINUOUS
  2
_FILLED
 10
89.1674496872
 20
44.7710692894
 41
1.7201834862
 42
1.7201834862
 43
1.7201834862
 50
180.0
  0
ENDBLK
  5
29E
100
AcDbEntity
  8
0
  6
BYBLOCK
 62
0
100
AcDbBlockEnd
  0
BLOCK
  5
29F
100
AcDbEntity
  8
0
100
AcDbBlockBegin
 62
2
  6
CONTINUOUS
  2
*D7
 70
65
 10
0.0
 20
0.0
  3
*D7
  1

  0
MTEXT
  5
2A0
100
AcDbEntity
  8
0
100
AcDbMText
 62
2
  6
CONTINUOUS
  7
STANDARD
 71
2
 72
1
 10
109.367414689
 20
45.4878124087
 30
0.0
 11
1.0
 21
0.0
 31
0.0
 44
0.9
  1
7.0\P[177]
 40
1.4334862385
 41
6.4506880734
  0
LINE
  5
2A1
100
AcDbEntity
  8
0
100
AcDbLine
 62
2
  6
CONTINUOUS
 10
112.1994496872
 20
53.3006612104
 11
112.1994496872
 21
43.6242802986
  0
LINE
  5
2A2
100
AcDbEntity
  8
0
100
AcDbLine
 62
2
  6
CONTINUOUS
 10
105.2314496872
 20
57.7189473121
 11
105.2314496872
 21
43.6242802986
  0
LINE
  5
2A3
100
AcDbEntity
  8
0
100
AcDbLine
 62
2
  6
CONTINUOUS
 10
112.1994496872
 20
44.7710692894
 11
116.7866056505
 21
44.7710692894
  0
LINE
  5
2A4
100
AcDbEntity
  8
0
100
AcDbLine
 62
2
  6
CONTINUOUS
 10
105.2314496872
 20
44.7710692894
 11
100.6442937239
 21
44.7710692894
  0
INSERT
  5
2A5
100
AcDbEntity
  8
0
100
AcDbBlockReference
 62
2
  6
CONTINUOUS
  2
_FILLED
 10
112.1994496872
 20
44.7710692894
 41
1.7201834862
 42
1.7201834862
 43
1.7201834862
 50
180.0
  0
INSERT
  5
2A6
100
AcDbEntity
  8
0
100
AcDbBlockReference
 62
2
  6
CONTINUOUS
  2
_FILLED
 10
105.2314496872
 20
44.7710692894
 41
1.7201834862
 42
1.7201834862
 43
1.7201834862
  0
ENDBLK
  5
2A7
100
AcDbEntity
  8
0
  6
BYBLOCK
 62
0
100
AcDbBlockEnd
  0
BLOCK
  5
2A8
100
AcDbEntity
  8
0
100
AcDbBlockBegin
 62
2
  6
CONTINUOUS
  2
*D8
 70
65
 10
0.0
 20
0.0
  3
*D8
  1

  0
MTEXT
  5
2A9
100
AcDbEntity
  8
0
100
AcDbMText
 62
2
  6
CONTINUOUS
  7
STANDARD
 71
1
 72
1
 10
116.8427403756
 20
57.4589637151
 30
0.0
 11
1.0
 21
0.0
 31
0.0
 44
0.9
  1
.6\P[14]
 40
1.4334862385
 41
4.7612221494
  0
LINE
  5
2AA
100
AcDbEntity
  8
0
100
AcDbLine
 62
2
  6
CONTINUOUS
 10
113.6902753753
 20
63.8740557058
 11
115.6959513848
 21
63.8740557058
  0
LINE
  5
2AB
100
AcDbEntity
  8
0
100
AcDbLine
 62
2
  6
CONTINUOUS
 10
108.8472753753
 20
63.3040557058
 11
115.6959513848
 21
63.3040557058
  0
LINE
  5
2AC
100
AcDbEntity
  8
0
100
AcDbLine
 62
2
  6
CONTINUOUS
 10
114.549162394
 20
63.8740557058
 11
114.549162394
 21
68.4612116691
  0
LINE
  5
2AD
100
AcDbEntity
  8
0
100
AcDbLine
 62
2
  6
CONTINUOUS
 10
114.549162394
 20
63.3040557058
 11
114.549162394
 21
56.7422205958
  0
LINE
  5
2AE
100
AcDbEntity
  8
0
100
AcDbLine
 62
2
  6
CONTINUOUS
 10
114.549162394
 20
56.7422205958
 11
116.1259972564
 21
56.7422205958
  0
INSERT
  5
2AF
100
AcDbEntity
  8
0
100
AcDbBlockReference
 62
2
  6
CONTINUOUS
  2
_FILLED
 10
114.549162394
 20
63.8740557058
 41
1.7201834862
 42
1.7201834862
 43
1.7201834862
 50
270.0
  0
INSERT
  5
2B0
100
AcDbEntity
  8
0
100
AcDbBlockReference
 62
2
  6
CONTINUOUS
  2
_FILLED
 10
114.549162394
 20
63.3040557058
 41
1.7201834862
 42
1.7201834862
 43
1.7201834862
 50
90.0
  0
ENDBLK
  5
2B1
100
AcDbEntity
  8
0
  6
BYBLOCK
 62
0
100
AcDbBlockEnd
  0
BLOCK
  5
2B2
100
AcDbEntity
  8
0
100
AcDbBlockBegin
 62
2
  6
CONTINUOUS
  2
*D9
 70
65
 10
0.0
 20
0.0
  3
*D9
  1

  0
MTEXT
  5
2B3
100
AcDbEntity
  8
0
100
AcDbMText
 62
2
  6
CONTINUOUS
  7
STANDARD
 71
2
 72
1
 10
37.2669661744
 20
103.0656553195
 30
0.0
 11
1.0
 21
0.0
 31
0.0
 44
0.9
  1
43.9\P[1116]
 40
1.4334862385
 41
7.2186271298
  0
LINE
  5
2B4
100
AcDbEntity
  8
0
100
AcDbLine
 62
2
  6
CONTINUOUS
 10
15.665037734
 20
110.7664358176
 11
15.665037734
 21
101.2021232094
  0
LINE
  5
2B5
100
AcDbEntity
  8
0
100
AcDbLine
 62
2
  6
CONTINUOUS
 10
59.585637734
 20
110.7664358176
 11
59.585637734
 21
101.2021232094
  0
LINE
  5
2B6
100
AcDbEntity
  8
0
100
AcDbLine
 62
2
  6
CONTINUOUS
 10
15.665037734
 20
102.3489122002
 11
34.5023855715
 21
102.3489122002
  0
LINE
  5
2B7
100
AcDbEntity
  8
0
100
AcDbLine
 62
2
  6
CONTINUOUS
 10
59.585637734
 20
102.3489122002
 11
40.7482898965
 21
102.3489122002
  0
INSERT
  5
2B8
100
AcDbEntity
  8
0
100
AcDbBlockReference
 62
2
  6
CONTINUOUS
  2
_FILLED
 10
15.665037734
 20
102.3489122002
 41
1.7201834862
 42
1.7201834862
 43
1.7201834862
 50
180.0
  0
INSERT
  5
2B9
100
AcDbEntity
  8
0
100
AcDbBlockReference
 62
2
  6
CONTINUOUS
  2
_FILLED
 10
59.585637734
 20
102.3489122002
 41
1.7201834862
 42
1.7201834862
 43
1.7201834862
  0
ENDBLK
  5
2BA
100
AcDbEntity
  8
0
  6
BYBLOCK
 62
0
100
AcDbBlockEnd
  0
BLOCK
  5
2BB
100
AcDbEntity
  8
0
100
AcDbBlockBegin
 62
2
  6
CONTINUOUS
  2
*D10
 70
65
 10
0.0
 20
0.0
  3
*D10
  1

  0
MTEXT
  5
2BC
100
AcDbEntity
  8
0
100
AcDbMText
 62
2
  6
CONTINUOUS
  7
STANDARD
 71
2
 72
1
 10
68.0706673243
 20
122.439004625
 30
0.0
 11
1.0
 21
0.0
 31
0.0
 44
0.9
  1
18.5\P[470]
 40
1.4334862385
 41
6.9114515072
  0
LINE
  5
2BD
100
AcDbEntity
  8
0
100
AcDbLine
 62
2
  6
CONTINUOUS
 10
61.2914634221
 20
112.4722615057
 11
69.6270238118
 21
112.4722615057
  0
LINE
  5
2BE
100
AcDbEntity
  8
0
100
AcDbLine
 62
2
  6
CONTINUOUS
 10
61.2914634221
 20
130.9722615057
 11
69.6270238118
 21
130.9722615057
  0
LINE
  5
2BF
100
AcDbEntity
  8
0
100
AcDbLine
 62
2
  6
CONTINUOUS
 10
68.480234821
 20
112.4722615057
 11
68.480234821
 21
118.1385459094
  0
LINE
  5
2C0
100
AcDbEntity
  8
0
100
AcDbLine
 62
2
  6
CONTINUOUS
 10
68.480234821
 20
130.9722615057
 11
68.480234821
 21
123.1557477442
  0
INSERT
  5
2C1
100
AcDbEntity
  8
0
100
AcDbBlockReference
 62
2
  6
CONTINUOUS
  2
_FILLED
 10
68.480234821
 20
112.4722615057
 41
1.7201834862
 42
1.7201834862
 43
1.7201834862
 50
270.0
  0
INSERT
  5
2C2
100
AcDbEntity
  8
0
100
AcDbBlockReference
 62
2
  6
CONTINUOUS
  2
_FILLED
 10
68.480234821
 20
130.9722615057
 41
1.7201834862
 42
1.7201834862
 43
1.7201834862
 50
90.0
  0
ENDBLK
  5
2C3
100
AcDbEntity
  8
0
  6
BYBLOCK
 62
0
100
AcDbBlockEnd
  0
BLOCK
  5
2C4
100
AcDbEntity
  8
0
100
AcDbBlockBegin
 62
2
  6
CONTINUOUS
  2
*D11
 70
65
 10
0.0
 20
0.0
  3
*D11
  1

  0
MTEXT
  5
2C5
100
AcDbEntity
  8
0
100
AcDbMText
 62
2
  6
CONTINUOUS
  7
STANDARD
 71
2
 72
1
 10
67.7634917017
 20
135.4701180306
 30
0.0
 11
1.0
 21
0.0
 31
0.0
 44
0.9
  1
5.5\P[140]
 40
1.4334862385
 41
6.4506880734
  0
LINE
  5
2C6
100
AcDbEntity
  8
0
100
AcDbLine
 62
2
  6
CONTINUOUS
 10
61.2914634221
 20
130.9722615057
 11
69.6270238118
 21
130.9722615057
  0
LINE
  5
2C7
100
AcDbEntity
  8
0
100
AcDbLine
 62
2
  6
CONTINUOUS
 10
61.7927322294
 20
136.4722615057
 11
69.6270238118
 21
136.4722615057
  0
LINE
  5
2C8
100
AcDbEntity
  8
0
100
AcDbLine
 62
2
  6
CONTINUOUS
 10
68.480234821
 20
130.9722615057
 11
68.480234821
 21
126.3851055424
  0
LINE
  5
2C9
100
AcDbEntity
  8
0
100
AcDbLine
 62
2
  6
CONTINUOUS
 10
68.480234821
 20
136.4722615057
 11
68.480234821
 21
141.059417469
  0
INSERT
  5
2CA
100
AcDbEntity
  8
0
100
AcDbBlockReference
 62
2
  6
CONTINUOUS
  2
_FILLED
 10
68.480234821
 20
130.9722615057
 41
1.7201834862
 42
1.7201834862
 43
1.7201834862
 50
90.0
  0
INSERT
  5
2CB
100
AcDbEntity
  8
0
100
AcDbBlockReference
 62
2
  6
CONTINUOUS
  2
_FILLED
 10
68.480234821
 20
136.4722615057
 41
1.7201834862
 42
1.7201834862
 43
1.7201834862
 50
270.0
  0
ENDBLK
  5
2CC
100
AcDbEntity
  8
0
  6
BYBLOCK
 62
0
100
AcDbBlockEnd
  0
BLOCK
  5
2CD
100
AcDbEntity
  8
0
100
AcDbBlockBegin
 62
2
  6
CONTINUOUS
  2
*D12
 70
65
 10
0.0
 20
0.0
  3
*D12
  1

  0
MTEXT
  5
2CE
100
AcDbEntity
  8
0
100
AcDbMText
 62
2
  6
CONTINUOUS
  7
STANDARD
 71
2
 72
1
 10
37.1645743002
 20
96.2971190981
 30
0.0
 11
1.0
 21
0.0
 31
0.0
 44
0.9
  1
47.2\P[1199]
 40
1.4334862385
 41
7.6793905636
  0
LINE
  5
2CF
100
AcDbEntity
  8
0
100
AcDbLine
 62
2
  6
CONTINUOUS
 10
14.031337734
 20
106.8988670103
 11
14.031337734
 21
94.433586988
  0
LINE
  5
2D0
100
AcDbEntity
  8
0
100
AcDbLine
 62
2
  6
CONTINUOUS
 10
61.219337734
 20
106.8988670103
 11
61.219337734
 21
94.433586988
  0
LINE
  5
2D1
100
AcDbEntity
  8
0
100
AcDbLine
 62
2
  6
CONTINUOUS
 10
14.031337734
 20
95.5803759788
 11
34.3487977602
 21
95.5803759788
  0
LINE
  5
2D2
100
AcDbEntity
  8
0
100
AcDbLine
 62
2
  6
CONTINUOUS
 10
61.219337734
 20
95.5803759788
 11
40.9018777078
 21
95.5803759788
  0
INSERT
  5
2D3
100
AcDbEntity
  8
0
100
AcDbBlockReference
 62
2
  6
CONTINUOUS
  2
_FILLED
 10
14.031337734
 20
95.5803759788
 41
1.7201834862
 42
1.7201834862
 43
1.7201834862
 50
180.0
  0
INSERT
  5
2D4
100
AcDbEntity
  8
0
100
AcDbBlockReference
 62
2
  6
CONTINUOUS
  2
_FILLED
 10
61.219337734
 20
95.5803759788
 41
1.7201834862
 42
1.7201834862
 43
1.7201834862
  0
ENDBLK
  5
2D5
100
AcDbEntity
  8
0
  6
BYBLOCK
 62
0
100
AcDbBlockEnd
  0
BLOCK
  5
2D6
100
AcDbEntity
  8
0
100
AcDbBlockBegin
 62
2
  6
CONTINUOUS
  2
*D13
 70
65
 10
0.0
 20
0.0
  3
*D13
  1

  0
MTEXT
  5
2D7
100
AcDbEntity
  8
0
100
AcDbMText
 62
2
  6
CONTINUOUS
  7
STANDARD
 71
2
 72
1
 10
66.7244278087
 20
64.215798825
 30
0.0
 11
1.0
 21
0.0
 31
0.0
 44
0.9
  1
20.8\P[527]
 40
1.4334862385
 41
6.7578636959
  0
LINE
  5
2D8
100
AcDbEntity
  8
0
100
AcDbLine
 62
2
  6
CONTINUOUS
 10
61.7927322294
 20
73.8740557058
 11
68.0248046108
 21
73.8740557058
  0
LINE
  5
2D9
100
AcDbEntity
  8
0
100
AcDbLine
 62
2
  6
CONTINUOUS
 10
60.1047322294
 20
53.1240557058
 11
68.0248046108
 21
53.1240557058
  0
LINE
  5
2DA
100
AcDbEntity
  8
0
100
AcDbLine
 62
2
  6
CONTINUOUS
 10
66.87801562
 20
73.8740557058
 11
66.87801562
 21
64.9325419443
  0
LINE
  5
2DB
100
AcDbEntity
  8
0
100
AcDbLine
 62
2
  6
CONTINUOUS
 10
66.87801562
 20
53.1240557058
 11
66.87801562
 21
59.9153401094
  0
INSERT
  5
2DC
100
AcDbEntity
  8
0
100
AcDbBlockReference
 62
2
  6
CONTINUOUS
  2
_FILLED
 10
66.87801562
 20
73.8740557058
 41
1.7201834862
 42
1.7201834862
 43
1.7201834862
 50
90.0
  0
INSERT
  5
2DD
100
AcDbEntity
  8
0
100
AcDbBlockReference
 62
2
  6
CONTINUOUS
  2
_FILLED
 10
66.87801562
 20
53.1240557058
 41
1.7201834862
 42
1.7201834862
 43
1.7201834862
 50
270.0
  0
ENDBLK
  5
2DE
100
AcDbEntity
  8
0
  6
BYBLOCK
 62
0
100
AcDbBlockEnd
  0
BLOCK
  5
2DF
100
AcDbEntity
  8
0
100
AcDbBlockBegin
 62
2
  6
CONTINUOUS
  2
*D14
 70
65
 10
0.0
 20
0.0
  3
*D14
  1

  0
MTEXT
  5
2E0
100
AcDbEntity
  8
0
100
AcDbMText
 62
2
  6
CONTINUOUS
  7
STANDARD
 71
2
 72
1
 10
8.9077000284
 20
129.314004625
 30
0.0
 11
1.0
 21
0.0
 31
0.0
 44
0.9
  1
15.8\P[400]
 40
1.4334862385
 41
6.9114515072
  0
LINE
  5
2E1
100
AcDbEntity
  8
0
100
AcDbLine
 62
2
  6
CONTINUOUS
 10
13.4579432386
 20
136.4722615057
 11
8.1704785343
 21
136.4722615057
  0
LINE
  5
2E2
100
AcDbEntity
  8
0
100
AcDbLine
 62
2
  6
CONTINUOUS
 10
35.1223113385
 20
120.7222615057
 11
8.1704785343
 21
120.7222615057
  0
LINE
  5
2E3
100
AcDbEntity
  8
0
100
AcDbLine
 62
2
  6
CONTINUOUS
 10
9.3172675251
 20
136.4722615057
 11
9.3172675251
 21
130.0307477442
  0
LINE
  5
2E4
100
AcDbEntity
  8
0
100
AcDbLine
 62
2
  6
CONTINUOUS
 10
9.3172675251
 20
120.7222615057
 11
9.3172675251
 21
125.0135459094
  0
INSERT
  5
2E5
100
AcDbEntity
  8
0
100
AcDbBlockReference
 62
2
  6
CONTINUOUS
  2
_FILLED
 10
9.3172675251
 20
136.4722615057
 41
1.7201834862
 42
1.7201834862
 43
1.7201834862
 50
90.0
  0
INSERT
  5
2E6
100
AcDbEntity
  8
0
100
AcDbBlockReference
 62
2
  6
CONTINUOUS
  2
_FILLED
 10
9.3172675251
 20
120.7222615057
 41
1.7201834862
 42
1.7201834862
 43
1.7201834862
 50
270.0
  0
ENDBLK
  5
2E7
100
AcDbEntity
  8
0
  6
BYBLOCK
 62
0
100
AcDbBlockEnd
  0
BLOCK
  5
2E8
100
AcDbEntity
  8
0
100
AcDbBlockBegin
 62
2
  6
CONTINUOUS
  2
*D15
 70
65
 10
0.0
 20
0.0
  3
*D15
  1

  0
MTEXT
  5
2E9
100
AcDbEntity
  8
0
100
AcDbMText
 62
2
  6
CONTINUOUS
  7
STANDARD
 71
2
 72
1
 10
121.7247784931
 20
65.8152438973
 30
0.0
 11
1.0
 21
0.0
 31
0.0
 44
0.9
  1
9.3\P[235]
 40
1.4334862385
 41
6.6042758847
  0
LINE
  5
2EA
100
AcDbEntity
  8
0
100
AcDbLine
 62
2
  6
CONTINUOUS
 10
108.5998441827
 20
68.4990557058
 11
123.5883106032
 21
68.4990557058
  0
LINE
  5
2EB
100
AcDbEntity
  8
0
100
AcDbLine
 62
2
  6
CONTINUOUS
 10
108.5998441827
 20
59.2490557058
 11
123.5883106032
 21
59.2490557058
  0
LINE
  5
2EC
100
AcDbEntity
  8
0
100
AcDbLine
 62
2
  6
CONTINUOUS
 10
122.4415216123
 20
68.4990557058
 11
122.4415216123
 21
73.0862116691
  0
LINE
  5
2ED
100
AcDbEntity
  8
0
100
AcDbLine
 62
2
  6
CONTINUOUS
 10
122.4415216123
 20
59.2490557058
 11
122.4415216123
 21
54.6618997425
  0
INSERT
  5
2EE
100
AcDbEntity
  8
0
100
AcDbBlockReference
 62
2
  6
CONTINUOUS
  2
_FILLED
 10
122.4415216123
 20
68.4990557058
 41
1.7201834862
 42
1.7201834862
 43
1.7201834862
 50
270.0
  0
INSERT
  5
2EF
100
AcDbEntity
  8
0
100
AcDbBlockReference
 62
2
  6
CONTINUOUS
  2
_FILLED
 10
122.4415216123
 20
59.2490557058
 41
1.7201834862
 42
1.7201834862
 43
1.7201834862
 50
90.0
  0
ENDBLK
  5
2F0
100
AcDbEntity
  8
0
  6
BYBLOCK
 62
0
100
AcDbBlockEnd
  0
BLOCK
  5
2F1
100
AcDbEntity
  8
0
100
AcDbBlockBegin
 62
2
  6
CONTINUOUS
  2
*D16
 70
65
 10
0.0
 20
0.0
  3
*D16
  1

  0
MTEXT
  5
2F2
100
AcDbEntity
  8
0
100
AcDbMText
 62
2
  6
CONTINUOUS
  7
STANDARD
 71
3
 72
1
 10
95.4868360396
 20
51.6808951118
 30
0.0
 11
1.0
 21
0.0
 31
0.0
 44
0.9
  1
7.0\P[177]
 40
1.4334862385
 41
6.4506880734
  0
LINE
  5
2F3
100
AcDbEntity
  8
0
100
AcDbLine
 62
2
  6
CONTINUOUS
 10
108.7064496872
 20
59.3556612104
 11
108.7064496872
 21
49.8173630017
  0
LINE
  5
2F4
100
AcDbEntity
  8
0
100
AcDbLine
 62
2
  6
CONTINUOUS
 10
101.7564496872
 20
59.3556612104
 11
101.7564496872
 21
49.8173630017
  0
LINE
  5
2F5
100
AcDbEntity
  8
0
100
AcDbLine
 62
2
  6
CONTINUOUS
 10
108.7064496872
 20
50.9641519926
 11
113.2936056505
 21
50.9641519926
  0
LINE
  5
2F6
100
AcDbEntity
  8
0
100
AcDbLine
 62
2
  6
CONTINUOUS
 10
101.7564496872
 20
50.9641519926
 11
97.4322816491
 21
50.9641519926
  0
INSERT
  5
2F7
100
AcDbEntity
  8
0
100
AcDbBlockReference
 62
2
  6
CONTINUOUS
  2
_FILLED
 10
108.7064496872
 20
50.9641519926
 41
1.7201834862
 42
1.7201834862
 43
1.7201834862
 50
180.0
  0
INSERT
  5
2F8
100
AcDbEntity
  8
0
100
AcDbBlockReference
 62
2
  6
CONTINUOUS
  2
_FILLED
 10
101.7564496872
 20
50.9641519926
 41
1.7201834862
 42
1.7201834862
 43
1.7201834862
  0
ENDBLK
  5
2F9
100
AcDbEntity
  8
0
  6
BYBLOCK
 62
0
100
AcDbBlockEnd
  0
BLOCK
  5
2FA
100
AcDbEntity
  8
0
100
AcDbBlockBegin
 62
2
  6
CONTINUOUS
  2
*D17
 70
65
 10
0.0
 20
0.0
  3
*D17
  1

  0
MTEXT
  5
2FB
100
AcDbEntity
  8
0
100
AcDbMText
 62
2
  6
CONTINUOUS
  7
STANDARD
 71
3
 72
1
 10
75.2180146254
 20
79.2168313619
 30
0.0
 11
1.0
 21
0.0
 31
0.0
 44
0.9
  1
1.6\P[41]
 40
1.4334862385
 41
4.7612221494
  0
LINE
  5
2FC
100
AcDbEntity
  8
0
100
AcDbLine
 62
2
  6
CONTINUOUS
 10
82.6260551918
 20
73.8740557058
 11
76.4956757422
 21
73.8740557058
  0
LINE
  5
2FD
100
AcDbEntity
  8
0
100
AcDbLine
 62
2
  6
CONTINUOUS
 10
86.4936239992
 20
72.2490557058
 11
76.4956757422
 21
72.2490557058
  0
LINE
  5
2FE
100
AcDbEntity
  8
0
100
AcDbLine
 62
2
  6
CONTINUOUS
 10
77.642464733
 20
73.8740557058
 11
77.642464733
 21
78.5000882426
  0
LINE
  5
2FF
100
AcDbEntity
  8
0
100
AcDbLine
 62
2
  6
CONTINUOUS
 10
77.642464733
 20
78.5000882426
 11
76.3443252414
 21
78.5000882426
  0
LINE
  5
300
100
AcDbEntity
  8
0
100
AcDbLine
 62
2
  6
CONTINUOUS
 10
77.642464733
 20
72.2490557058
 11
77.642464733
 21
67.6618997425
  0
INSERT
  5
301
100
AcDbEntity
  8
0
100
AcDbBlockReference
 62
2
  6
CONTINUOUS
  2
_FILLED
 10
77.642464733
 20
73.8740557058
 41
1.7201834862
 42
1.7201834862
 43
1.7201834862
 50
270.0
  0
INSERT
  5
302
100
AcDbEntity
  8
0
100
AcDbBlockReference
 62
2
  6
CONTINUOUS
  2
_FILLED
 10
77.642464733
 20
72.2490557058
 41
1.7201834862
 42
1.7201834862
 43
1.7201834862
 50
90.0
  0
ENDBLK
  5
303
100
AcDbEntity
  8
0
  6
BYBLOCK
 62
0
100
AcDbBlockEnd
  0
BLOCK
  5
304
100
AcDbEntity
  8
0
100
AcDbBlockBegin
 62
2
  6
CONTINUOUS
  2
*D18
 70
65
 10
0.0
 20
0.0
  3
*D18
  1

  0
MTEXT
  5
305
100
AcDbEntity
  8
0
100
AcDbMText
 62
2
  6
CONTINUOUS
  7
STANDARD
 71
3
 72
1
 10
135.5590932207
 20
49.8677636536
 30
0.0
 11
1.0
 21
0.0
 31
0.0
 44
0.9
  1
3.0\P[76]
 40
1.4334862385
 41
5.2219855832
  0
LINE
  5
306
100
AcDbEntity
  8
0
100
AcDbLine
 62
2
  6
CONTINUOUS
 10
142.3490821761
 20
53.8740557058
 11
138.019936866
 21
53.8740557058
  0
LINE
  5
307
100
AcDbEntity
  8
0
100
AcDbLine
 62
2
  6
CONTINUOUS
 10
154.8080821761
 20
56.8740557058
 11
138.019936866
 21
56.8740557058
  0
LINE
  5
308
100
AcDbEntity
  8
0
100
AcDbLine
 62
2
  6
CONTINUOUS
 10
139.1667258568
 20
53.8740557058
 11
139.1667258568
 21
49.1510205343
  0
LINE
  5
309
100
AcDbEntity
  8
0
100
AcDbLine
 62
2
  6
CONTINUOUS
 10
139.1667258568
 20
49.1510205343
 11
136.7877957109
 21
49.1510205343
  0
LINE
  5
30A
100
AcDbEntity
  8
0
100
AcDbLine
 62
2
  6
CONTINUOUS
 10
139.1667258568
 20
56.8740557058
 11
139.1667258568
 21
61.4612116691
  0
INSERT
  5
30B
100
AcDbEntity
  8
0
100
AcDbBlockReference
 62
2
  6
CONTINUOUS
  2
_FILLED
 10
139.1667258568
 20
53.8740557058
 41
1.7201834862
 42
1.7201834862
 43
1.7201834862
 50
90.0
  0
INSERT
  5
30C
100
AcDbEntity
  8
0
100
AcDbBlockReference
 62
2
  6
CONTINUOUS
  2
_FILLED
 10
139.1667258568
 20
56.8740557058
 41
1.7201834862
 42
1.7201834862
 43
1.7201834862
 50
270.0
  0
ENDBLK
  5
30D
100
AcDbEntity
  8
0
  6
BYBLOCK
 62
0
100
AcDbBlockEnd
  0
BLOCK
  5
30E
100
AcDbEntity
  8
0
100
AcDbBlockBegin
 62
2
  6
CONTINUOUS
  2
*D19
 70
65
 10
0.0
 20
0.0
  3
*D19
  1

  0
MTEXT
  5
30F
100
AcDbEntity
  8
0
100
AcDbMText
 62
2
  6
CONTINUOUS
  7
STANDARD
 71
2
 72
1
 10
148.364801049
 20
47.3714341046
 30
0.0
 11
1.0
 21
0.0
 31
0.0
 44
0.9
  1
12.9\P[328]
 40
1.4334862385
 41
6.7578636959
  0
LINE
  5
310
100
AcDbEntity
  8
0
100
AcDbLine
 62
2
  6
CONTINUOUS
 10
142.2124766716
 20
53.5506612104
 11
142.2124766716
 21
45.5079019945
  0
LINE
  5
311
100
AcDbEntity
  8
0
100
AcDbLine
 62
2
  6
CONTINUOUS
 10
155.1314766716
 20
56.5506612104
 11
155.1314766716
 21
45.5079019945
  0
LINE
  5
312
100
AcDbEntity
  8
0
100
AcDbLine
 62
2
  6
CONTINUOUS
 10
142.2124766716
 20
46.6546909853
 11
145.7026123203
 21
46.6546909853
  0
LINE
  5
313
100
AcDbEntity
  8
0
100
AcDbLine
 62
2
  6
CONTINUOUS
 10
155.1314766716
 20
46.6546909853
 11
151.6413410228
 21
46.6546909853
  0
INSERT
  5
314
100
AcDbEntity
  8
0
100
AcDbBlockReference
 62
2
  6
CONTINUOUS
  2
_FILLED
 10
142.2124766716
 20
46.6546909853
 41
1.7201834862
 42
1.7201834862
 43
1.7201834862
 50
180.0
  0
INSERT
  5
315
100
AcDbEntity
  8
0
100
AcDbBlockReference
 62
2
  6
CONTINUOUS
  2
_FILLED
 10
155.1314766716
 20
46.6546909853
 41
1.7201834862
 42
1.7201834862
 43
1.7201834862
  0
ENDBLK
  5
316
100
AcDbEntity
  8
0
  6
BYBLOCK
 62
0
100
AcDbBlockEnd
  0
BLOCK
  5
317
100
AcDbEntity
  8
0
100
AcDbBlockBegin
 62
2
  6
CONTINUOUS
  2
*D20
 70
65
 10
0.0
 20
0.0
  3
*D20
  1

  0
MTEXT
  5
318
100
AcDbEntity
  8
0
100
AcDbMText
 62
2
  6
CONTINUOUS
  7
STANDARD
 71
2
 72
1
 10
49.2175539857
 20
78.8903345833
 30
0.0
 11
1.0
 21
0.0
 31
0.0
 44
0.9
  1
23.6\P[599]
 40
1.4334862385
 41
6.7578636959
  0
LINE
  5
319
100
AcDbEntity
  8
0
100
AcDbLine
 62
2
  6
CONTINUOUS
 10
61.219337734
 20
73.9862073371
 11
61.219337734
 21
79.3203804548
  0
LINE
  5
31A
100
AcDbEntity
  8
0
100
AcDbLine
 62
2
  6
CONTINUOUS
 10
37.625337734
 20
75.1479699924
 11
37.625337734
 21
79.3203804548
  0
LINE
  5
31B
100
AcDbEntity
  8
0
100
AcDbLine
 62
2
  6
CONTINUOUS
 10
61.219337734
 20
78.173591464
 11
52.3917020853
 21
78.173591464
  0
LINE
  5
31C
100
AcDbEntity
  8
0
100
AcDbLine
 62
2
  6
CONTINUOUS
 10
37.625337734
 20
78.173591464
 11
46.4529733828
 21
78.173591464
  0
INSERT
  5
31D
100
AcDbEntity
  8
0
100
AcDbBlockReference
 62
2
  6
CONTINUOUS
  2
_FILLED
 10
61.219337734
 20
78.173591464
 41
1.7201834862
 42
1.7201834862
 43
1.7201834862
  0
INSERT
  5
31E
100
AcDbEntity
  8
0
100
AcDbBlockReference
 62
2
  6
CONTINUOUS
  2
_FILLED
 10
37.625337734
 20
78.173591464
 41
1.7201834862
 42
1.7201834862
 43
1.7201834862
 50
180.0
  0
ENDBLK
  5
31F
100
AcDbEntity
  8
0
  6
BYBLOCK
 62
0
100
AcDbBlockEnd
  0
BLOCK
  5
320
100
AcDbEntity
  8
0
100
AcDbBlockBegin
 62
2
  6
CONTINUOUS
  2
*D21
 70
65
 10
0.0
 20
0.0
  3
*D21
  1

  0
MTEXT
  5
321
100
AcDbEntity
  8
0
100
AcDbMText
 62
2
  6
CONTINUOUS
  7
STANDARD
 71
2
 72
1
 10
9.5944070463
 20
70.7318949329
 30
0.0
 11
1.0
 21
0.0
 31
0.0
 44
0.9
  1
10.0\P[254]
 40
1.4334862385
 41
6.7578636959
  0
LINE
  5
322
100
AcDbEntity
  8
0
100
AcDbLine
 62
2
  6
CONTINUOUS
 10
14.1679432386
 20
73.8740557058
 11
8.754793678
 21
73.8740557058
  0
LINE
  5
323
100
AcDbEntity
  8
0
100
AcDbLine
 62
2
  6
CONTINUOUS
 10
12.1606792345
 20
63.8740557058
 11
8.754793678
 21
63.8740557058
  0
LINE
  5
324
100
AcDbEntity
  8
0
100
AcDbLine
 62
2
  6
CONTINUOUS
 10
9.9015826689
 20
73.8740557058
 11
9.9015826689
 21
71.4486380522
  0
LINE
  5
325
100
AcDbEntity
  8
0
100
AcDbLine
 62
2
  6
CONTINUOUS
 10
9.9015826689
 20
63.8740557058
 11
9.9015826689
 21
66.4314362173
  0
INSERT
  5
326
100
AcDbEntity
  8
0
100
AcDbBlockReference
 62
2
  6
CONTINUOUS
  2
_FILLED
 10
9.9015826689
 20
73.8740557058
 41
1.7201834862
 42
1.7201834862
 43
1.7201834862
 50
90.0
  0
INSERT
  5
327
100
AcDbEntity
  8
0
100
AcDbBlockReference
 62
2
  6
CONTINUOUS
  2
_FILLED
 10
9.9015826689
 20
63.8740557058
 41
1.7201834862
 42
1.7201834862
 43
1.7201834862
 50
270.0
  0
ENDBLK
  5
328
100
AcDbEntity
  8
0
  6
BYBLOCK
 62
0
100
AcDbBlockEnd
  0
ENDSEC
  0
SECTION
  2
ENTITIES
  0
DIMENSION
  5
329
100
AcDbEntity
  8
0
100
AcDbDimension
 62
2
  6
CONTINUOUS
  2
*D0
 10
160.6814766716
 20
46.6546909853
 11
167.7213037826
 21
45.5795763064
 70
160
 71
1
 42
5.55
  3
DIMSTYLE_1
100
AcDbAlignedDimension
 13
155.1314766716
 23
56.6131612104
 14
160.6814766716
 24
56.6131612104
100
AcDbRotatedDimension
  0
DIMENSION
  5
32A
100
AcDbEntity
  8
0
100
AcDbDimension
 62
2
  6
CONTINUOUS
  2
*D1
 10
135.2758238759
 20
56.8740557058
 11
130.9980176158
 21
64.4450411065
 70
160
 71
3
 42
4.0
  3
DIMSTYLE_1
100
AcDbAlignedDimension
 13
154.8705821761
 23
60.8740557058
 14
154.8705821761
 24
56.8740557058
 50
270.0
100
AcDbRotatedDimension
  0
DIMENSION
  5
32B
100
AcDbEntity
  8
0
100
AcDbDimension
 62
2
  6
CONTINUOUS
  2
*D2
 10
112.1994496872
 20
86.5786379563
 11
97.1994496872
 21
85.5035232774
 70
160
 71
2
 42
30.0
  3
DIMSTYLE_1
100
AcDbAlignedDimension
 13
82.1994496872
 23
73.3849502012
 14
112.1994496872
 24
74.3849502012
100
AcDbRotatedDimension
  0
DIMENSION
  5
32C
100
AcDbEntity
  8
0
100
AcDbDimension
 62
2
  6
CONTINUOUS
  2
*D3
 10
106.6994496872
 20
79.3487441745
 11
97.4494496872
 21
78.2736294956
 70
160
 71
2
 42
18.5
  3
DIMSTYLE_1
100
AcDbAlignedDimension
 13
88.1994496872
 23
73.8923813939
 14
106.6994496872
 24
73.8923813939
100
AcDbRotatedDimension
  0
DIMENSION
  5
32D
100
AcDbEntity
  8
0
100
AcDbDimension
 62
2
  6
CONTINUOUS
  2
*D4
 10
77.642464733
 20
55.4990557058
 11
77.642464733
 21
62.7989410269
 70
160
 71
2
 42
16.75
  3
DIMSTYLE_1
100
AcDbAlignedDimension
 13
86.5561239992
 23
72.2490557058
 14
86.5561239992
 24
55.4990557058
 50
270.0
100
AcDbRotatedDimension
  0
DIMENSION
  5
32E
100
AcDbEntity
  8
0
100
AcDbDimension
 62
2
  6
CONTINUOUS
  2
*D5
 10
106.6994496872
 20
79.3487441745
 11
119.1361066559
 21
78.2736294956
 70
160
 71
1
 42
5.5
  3
DIMSTYLE_1
100
AcDbAlignedDimension
 13
112.1994496872
 23
74.3849502012
 14
106.6994496872
 24
73.8923813939
 50
180.0
100
AcDbRotatedDimension
  0
DIMENSION
  5
32F
100
AcDbEntity
  8
0
100
AcDbDimension
 62
2
  6
CONTINUOUS
  2
*D6
 10
89.1674496872
 20
44.7710692894
 11
97.1994496872
 21
43.6959546105
 70
160
 71
2
 42
16.064
  3
DIMSTYLE_1
100
AcDbAlignedDimension
 13
105.2314496872
 23
57.7814473121
 14
89.1674496872
 24
57.7181076764
 50
180.0
100
AcDbRotatedDimension
  0
DIMENSION
  5
330
100
AcDbEntity
  8
0
100
AcDbDimension
 62
2
  6
CONTINUOUS
  2
*D7
 10
105.2314496872
 20
44.7710692894
 11
109.9817659341
 21
43.6959546105
 70
160
 71
2
 42
6.968
  3
DIMSTYLE_1
100
AcDbAlignedDimension
 13
112.1994496872
 23
53.3631612104
 14
105.2314496872
 24
57.7814473121
 50
180.0
100
AcDbRotatedDimension
  0
DIMENSION
  5
331
100
AcDbEntity
  8
0
100
AcDbDimension
 62
2
  6
CONTINUOUS
  2
*D8
 10
114.549162394
 20
63.3040557058
 11
118.4298144255
 21
55.6671059169
 70
160
 71
1
 42
0.57
  3
DIMSTYLE_1
100
AcDbAlignedDimension
 13
115.7584513848
 23
63.8740557058
 14
108.7847753753
 24
63.3040557058
 50
270.0
100
AcDbRotatedDimension
  0
DIMENSION
  5
332
100
AcDbEntity
  8
0
100
AcDbDimension
 62
2
  6
CONTINUOUS
  2
*D9
 10
59.585637734
 20
102.3489122002
 11
37.625337734
 21
101.2737975213
 70
160
 71
2
 42
43.9206
  3
DIMSTYLE_1
100
AcDbAlignedDimension
 13
15.665037734
 23
110.8289358176
 14
59.585637734
 24
110.8289358176
100
AcDbRotatedDimension
  0
DIMENSION
  5
333
100
AcDbEntity
  8
0
100
AcDbDimension
 62
2
  6
CONTINUOUS
  2
*D10
 10
68.480234821
 20
130.9722615057
 11
68.480234821
 21
120.6471468268
 70
160
 71
2
 42
18.5
  3
DIMSTYLE_1
100
AcDbAlignedDimension
 13
61.2289634221
 23
112.4722615057
 14
61.2289634221
 24
130.9722615057
 50
90.0
100
AcDbRotatedDimension
  0
DIMENSION
  5
334
100
AcDbEntity
  8
0
100
AcDbDimension
 62
2
  6
CONTINUOUS
  2
*D11
 10
68.480234821
 20
136.4722615057
 11
68.480234821
 21
133.6782602325
 70
160
 71
2
 42
5.5
  3
DIMSTYLE_1
100
AcDbAlignedDimension
 13
61.2289634221
 23
130.9722615057
 14
61.7302322294
 24
136.4722615057
 50
90.0
100
AcDbRotatedDimension
  0
DIMENSION
  5
335
100
AcDbEntity
  8
0
100
AcDbDimension
 62
2
  6
CONTINUOUS
  2
*D12
 10
61.219337734
 20
95.5803759788
 11
37.625337734
 21
94.5052612999
 70
160
 71
2
 42
47.188
  3
DIMSTYLE_1
100
AcDbAlignedDimension
 13
14.031337734
 23
106.9613670103
 14
61.219337734
 24
106.9613670103
100
AcDbRotatedDimension
  0
DIMENSION
  5
336
100
AcDbEntity
  8
0
100
AcDbDimension
 62
2
  6
CONTINUOUS
  2
*D13
 10
66.87801562
 20
53.1240557058
 11
66.87801562
 21
62.4239410269
 70
160
 71
2
 42
20.75
  3
DIMSTYLE_1
100
AcDbAlignedDimension
 13
61.7302322294
 23
73.8740557058
 14
60.0422322294
 24
53.1240557058
 50
270.0
100
AcDbRotatedDimension
  0
DIMENSION
  5
337
100
AcDbEntity
  8
0
100
AcDbDimension
 62
2
  6
CONTINUOUS
  2
*D14
 10
9.3172675251
 20
120.7222615057
 11
9.3172675251
 21
127.5221468268
 70
160
 71
2
 42
15.75
  3
DIMSTYLE_1
100
AcDbAlignedDimension
 13
13.5204432386
 23
136.4722615057
 14
35.1848113385
 24
120.7222615057
 50
270.0
100
AcDbRotatedDimension
  0
DIMENSION
  5
338
100
AcDbEntity
  8
0
100
AcDbDimension
 62
2
  6
CONTINUOUS
  2
*D15
 10
122.4415216123
 20
59.2490557058
 11
122.4415216123
 21
64.0233860991
 70
160
 71
2
 42
9.25
  3
DIMSTYLE_1
100
AcDbAlignedDimension
 13
108.5373441827
 23
68.4990557058
 14
108.5373441827
 24
59.2490557058
 50
270.0
100
AcDbRotatedDimension
  0
DIMENSION
  5
339
100
AcDbEntity
  8
0
100
AcDbDimension
 62
2
  6
CONTINUOUS
  2
*D16
 10
101.7564496872
 20
50.9641519926
 11
94.565309172
 21
49.8890373137
 70
160
 71
3
 42
6.95
  3
DIMSTYLE_1
100
AcDbAlignedDimension
 13
108.7064496872
 23
59.4181612104
 14
101.7564496872
 24
59.4181612104
 50
180.0
100
AcDbRotatedDimension
  0
DIMENSION
  5
33A
100
AcDbEntity
  8
0
100
AcDbDimension
 62
2
  6
CONTINUOUS
  2
*D17
 10
77.642464733
 20
72.2490557058
 11
74.0405080724
 21
77.4249735637
 70
160
 71
3
 42
1.625
  3
DIMSTYLE_1
100
AcDbAlignedDimension
 13
82.6885551918
 23
73.8740557058
 14
86.5561239992
 24
72.2490557058
 50
270.0
100
AcDbRotatedDimension
  0
DIMENSION
  5
33B
100
AcDbEntity
  8
0
100
AcDbDimension
 62
2
  6
CONTINUOUS
  2
*D18
 10
139.1667258568
 20
56.8740557058
 11
134.3303907305
 21
48.0759058554
 70
160
 71
3
 42
3.0
  3
DIMSTYLE_1
100
AcDbAlignedDimension
 13
142.4115821761
 23
53.8740557058
 14
154.8705821761
 24
56.8740557058
 50
90.0
100
AcDbRotatedDimension
  0
DIMENSION
  5
33C
100
AcDbEntity
  8
0
100
AcDbDimension
 62
2
  6
CONTINUOUS
  2
*D19
 10
155.1314766716
 20
46.6546909853
 11
148.6719766716
 21
45.5795763064
 70
160
 71
2
 42
12.919
  3
DIMSTYLE_1
100
AcDbAlignedDimension
 13
142.2124766716
 23
53.6131612104
 14
155.1314766716
 24
56.6131612104
100
AcDbRotatedDimension
  0
DIMENSION
  5
33D
100
AcDbEntity
  8
0
100
AcDbDimension
 62
2
  6
CONTINUOUS
  2
*D20
 10
37.625337734
 20
78.173591464
 11
49.422337734
 21
77.0984767851
 70
160
 71
2
 42
23.594
  3
DIMSTYLE_1
100
AcDbAlignedDimension
 13
61.219337734
 23
73.9237073371
 14
37.625337734
 24
75.0854699924
 50
180.0
100
AcDbRotatedDimension
  0
DIMENSION
  5
33E
100
AcDbEntity
  8
0
100
AcDbDimension
 62
2
  6
CONTINUOUS
  2
*D21
 10
9.9015826689
 20
63.8740557058
 11
9.9015826689
 21
68.9400371348
 70
160
 71
2
 42
10.0
  3
DIMSTYLE_1
100
AcDbAlignedDimension
 13
14.2304432386
 23
73.8740557058
 14
12.2231792345
 24
63.8740557058
 50
270.0
100
AcDbRotatedDimension
  0
LWPOLYLINE
  5
33F
100
AcDbEntity
  8
0
100
AcDbPolyline
 62
2
  6
CONTINUOUS
 90
2
 70
0
 43
0.1834862385
 10
192.6751841096
 20
151.3194922115
 10
100.1751841096
 20
151.3194922115
  0
LWPOLYLINE
  5
340
100
AcDbEntity
  8
0
100
AcDbPolyline
 62
2
  6
CONTINUOUS
 90
2
 70
0
 43
0.1834862385
 10
192.5834409904
 20
151.3194922115
 10
192.5834409904
 20
136.9846298262
  0
LWPOLYLINE
  5
341
100
AcDbEntity
  8
0
100
AcDbPolyline
 62
2
  6
CONTINUOUS
 90
2
 70
0
 43
0.1834862385
 10
192.5834409904
 20
148.4525197344
 10
100.2669272289
 20
148.4525197344
  0
LWPOLYLINE
  5
342
100
AcDbEntity
  8
0
100
AcDbPolyline
 62
2
  6
CONTINUOUS
 90
2
 70
0
 43
0.1834862385
 10
192.5834409904
 20
145.5855472574
 10
100.2669272289
 20
145.5855472574
  0
LWPOLYLINE
  5
343
100
AcDbEntity
  8
0
100
AcDbPolyline
 62
2
  6
CONTINUOUS
 90
2
 70
0
 43
0.1834862385
 10
192.5834409904
 20
142.7185747803
 10
100.2669272289
 20
142.7185747803
  0
LWPOLYLINE
  5
344
100
AcDbEntity
  8
0
100
AcDbPolyline
 62
2
  6
CONTINUOUS
 90
2
 70
0
 43
0.1834862385
 10
192.5834409904
 20
139.8516023032
 10
100.2669272289
 20
139.8516023032
  0
LWPOLYLINE
  5
345
100
AcDbEntity
  8
0
100
AcDbPolyline
 62
2
  6
CONTINUOUS
 90
2
 70
0
 43
0.1834862385
 10
192.6751841096
 20
136.9846298262
 10
100.1751841096
 20
136.9846298262
  0
LWPOLYLINE
  5
346
100
AcDbEntity
  8
0
100
AcDbPolyline
 62
2
  6
CONTINUOUS
 90
2
 70
0
 43
0.1834862385
 10
185.7027070454
 20
148.4525197344
 10
185.7027070454
 20
136.9846298262
  0
LWPOLYLINE
  5
347
100
AcDbEntity
  8
0
100
AcDbPolyline
 62
2
  6
CONTINUOUS
 90
2
 70
0
 43
0.1834862385
 10
175.381606128
 20
148.4525197344
 10
175.381606128
 20
136.9846298262
  0
LWPOLYLINE
  5
348
100
AcDbEntity
  8
0
100
AcDbPolyline
 62
2
  6
CONTINUOUS
 90
2
 70
0
 43
0.1834862385
 10
170.7944501647
 20
148.4525197344
 10
170.7944501647
 20
136.9846298262
  0
LWPOLYLINE
  5
349
100
AcDbEntity
  8
0
100
AcDbPolyline
 62
2
  6
CONTINUOUS
 90
2
 70
0
 43
0.1834862385
 10
112.3082116326
 20
148.4525197344
 10
112.3082116326
 20
136.9846298262
  0
LWPOLYLINE
  5
34A
100
AcDbEntity
  8
0
100
AcDbPolyline
 62
2
  6
CONTINUOUS
 90
2
 70
0
 43
0.1834862385
 10
104.8540831922
 20
148.4525197344
 10
104.8540831922
 20
136.9846298262
  0
LWPOLYLINE
  5
34B
100
AcDbEntity
  8
0
100
AcDbPolyline
 62
2
  6
CONTINUOUS
 90
2
 70
0
 43
0.1834862385
 10
100.2669272289
 20
151.3194922115
 10
100.2669272289
 20
136.9846298262
  0
MTEXT
  5
34C
100
AcDbEntity
  8
0
100
AcDbMText
 62
2
  6
CONTINUOUS
  7
STANDARD
 71
2
 72
1
 10
146.4251841096
 20
150.6027490922
 30
0.0
 11
1.0
 21
0.0
 31
0.0
 44
0.9
  1
REVISIONS
 40
1.4334862385
 41
14.5396461337
  0
MTEXT
  5
34D
100
AcDbEntity
  8
0
100
AcDbMText
 62
2
  6
CONTINUOUS
  7
STANDARD
 71
2
 72
1
 10
189.1430740179
 20
147.7346298262
 30
0.0
 11
1.0
 21
0.0
 31
0.0
 44
0.9
  1
ISSUED
 40
1.4311926606
 41
9.9161205767
  0
MTEXT
  5
34E
100
AcDbEntity
  8
0
100
AcDbMText
 62
2
  6
CONTINUOUS
  7
STANDARD
 71
2
 72
1
 10
180.5421565867
 20
147.7346298262
 30
0.0
 11
1.0
 21
0.0
 31
0.0
 44
0.9
  1
EFF DATE
 40
1.4311926606
 41
13.4429882045
  0
MTEXT
  5
34F
100
AcDbEntity
  8
0
100
AcDbMText
 62
2
  6
CONTINUOUS
  7
STANDARD
 71
2
 72
1
 10
173.0880281463
 20
147.7357766152
 30
0.0
 11
1.0
 21
0.0
 31
0.0
 44
0.9
  1
BY
 40
1.4334862385
 41
3.5325196592
  0
MTEXT
  5
350
100
AcDbEntity
  8
0
100
AcDbMText
 62
2
  6
CONTINUOUS
  7
STANDARD
 71
2
 72
1
 10
141.5513308986
 20
147.7346298262
 30
0.0
 11
1.0
 21
0.0
 31
0.0
 44
0.9
  1
DESCRIPTION
 40
1.4311926606
 41
18.2988204456
  0
MTEXT
  5
351
100
AcDbEntity
  8
0
100
AcDbMText
 62
2
  6
CONTINUOUS
  7
STANDARD
 71
2
 72
1
 10
108.5811474124
 20
147.7357766152
 30
0.0
 11
1.0
 21
0.0
 31
0.0
 44
0.9
  1
ECO
 40
1.4334862385
 41
5.0172018349
  0
MTEXT
  5
352
100
AcDbEntity
  8
0
100
AcDbMText
 62
2
  6
CONTINUOUS
  7
STANDARD
 71
2
 72
1
 10
102.5605052105
 20
147.7346298262
 30
0.0
 11
1.0
 21
0.0
 31
0.0
 44
0.9
  1
REV
 40
1.4311926606
 41
5.0091743119
  0
MTEXT
  5
353
100
AcDbEntity
  8
0
100
AcDbMText
 62
2
  6
CONTINUOUS
  7
STANDARD
 71
2
 72
1
 10
189.1430740179
 20
144.8688041381
 30
0.0
 11
1.0
 21
0.0
 31
0.0
 44
0.9
  1
-
 40
1.4334862385
 41
1.5358781127
  0
MTEXT
  5
354
100
AcDbEntity
  8
0
100
AcDbMText
 62
2
  6
CONTINUOUS
  7
STANDARD
 71
2
 72
1
 10
180.5421565867
 20
144.8688041381
 30
0.0
 11
1.0
 21
0.0
 31
0.0
 44
0.9
  1
-
 40
1.4334862385
 41
1.5358781127
  0
MTEXT
  5
355
100
AcDbEntity
  8
0
100
AcDbMText
 62
2
  6
CONTINUOUS
  7
STANDARD
 71
2
 72
1
 10
173.0880281463
 20
144.8688041381
 30
0.0
 11
1.0
 21
0.0
 31
0.0
 44
0.9
  1
 JD 
 40
1.4334862385
 41
7.1162352556
  0
MTEXT
  5
356
100
AcDbEntity
  8
0
100
AcDbMText
 62
2
  6
CONTINUOUS
  7
STANDARD
 71
1
 72
1
 10
112.881606128
 20
144.8688041381
 30
0.0
 11
1.0
 21
0.0
 31
0.0
 44
0.9
  1
RELEASE
 40
1.4334862385
 41
11.6214777195
  0
MTEXT
  5
357
100
AcDbEntity
  8
0
100
AcDbMText
 62
2
  6
CONTINUOUS
  7
STANDARD
 71
2
 72
1
 10
108.5811474124
 20
144.8688041381
 30
0.0
 11
1.0
 21
0.0
 31
0.0
 44
0.9
  1
-
 40
1.4334862385
 41
1.5358781127
  0
MTEXT
  5
358
100
AcDbEntity
  8
0
100
AcDbMText
 62
2
  6
CONTINUOUS
  7
STANDARD
 71
2
 72
1
 10
102.5605052105
 20
144.8688041381
 30
0.0
 11
1.0
 21
0.0
 31
0.0
 44
0.9
  1
A
 40
1.4334862385
 41
2.252621232
  0
LINE
  5
359
100
AcDbEntity
  8
0
100
AcDbLine
 62
2
  6
CONTINUOUS
 10
102.0642201835
 20
16.0550458716
 11
122.7064220183
 21
16.0550458716
  0
LINE
  5
35A
100
AcDbEntity
  8
0
100
AcDbLine
 62
2
  6
CONTINUOUS
 10
102.0642201835
 20
16.0550458716
 11
102.0642201835
 21
10.3211009174
  0
LINE
  5
35B
100
AcDbEntity
  8
0
100
AcDbLine
 62
2
  6
CONTINUOUS
 10
102.0642201835
 20
10.3211009174
 11
122.7064220183
 21
10.3211009174
  0
LINE
  5
35C
100
AcDbEntity
  8
0
100
AcDbLine
 62
2
  6
CONTINUOUS
 10
122.7064220183
 20
16.0550458716
 11
122.7064220183
 21
10.3211009174
  0
LINE
  5
35D
100
AcDbEntity
  8
0
100
AcDbLine
 62
2
  6
CONTINUOUS
 10
102.0642201835
 20
10.3211009174
 11
122.7064220183
 21
10.3211009174
  0
LINE
  5
35E
100
AcDbEntity
  8
0
100
AcDbLine
 62
2
  6
CONTINUOUS
 10
102.0642201835
 20
10.3211009174
 11
102.0642201835
 21
4.5871559633
  0
LINE
  5
35F
100
AcDbEntity
  8
0
100
AcDbLine
 62
2
  6
CONTINUOUS
 10
102.0642201835
 20
4.5871559633
 11
122.7064220183
 21
4.5871559633
  0
LINE
  5
360
100
AcDbEntity
  8
0
100
AcDbLine
 62
2
  6
CONTINUOUS
 10
122.7064220183
 20
10.3211009174
 11
122.7064220183
 21
4.5871559633
  0
LINE
  5
361
100
AcDbEntity
  8
0
100
AcDbLine
 62
2
  6
CONTINUOUS
 10
122.7064220183
 20
25.2293577982
 11
138.7614678899
 21
25.2293577982
  0
LINE
  5
362
100
AcDbEntity
  8
0
100
AcDbLine
 62
2
  6
CONTINUOUS
 10
122.7064220183
 20
25.2293577982
 11
122.7064220183
 21
21.2872706422
  0
LINE
  5
363
100
AcDbEntity
  8
0
100
AcDbLine
 62
2
  6
CONTINUOUS
 10
122.7064220183
 20
21.2872706422
 11
138.7614678899
 21
21.2872706422
  0
LINE
  5
364
100
AcDbEntity
  8
0
100
AcDbLine
 62
2
  6
CONTINUOUS
 10
138.7614678899
 20
25.2293577982
 11
138.7614678899
 21
21.2872706422
  0
MTEXT
  5
365
100
AcDbEntity
  8
0
100
AcDbMText
 62
2
  6
CONTINUOUS
  7
STANDARD
 71
1
 72
1
 10
123.2798165138
 20
23.4375
 30
0.0
 11
1.0
 21
0.0
 31
0.0
 44
0.9
  1
J. DELARM 
 40
1.4334862385
 41
16.2291120577
  0
LINE
  5
366
100
AcDbEntity
  8
0
100
AcDbLine
 62
2
  6
CONTINUOUS
 10
122.7064220183
 20
21.2155963303
 11
138.7614678899
 21
21.2155963303
  0
LINE
  5
367
100
AcDbEntity
  8
0
100
AcDbLine
 62
2
  6
CONTINUOUS
 10
122.7064220183
 20
21.2155963303
 11
122.7064220183
 21
17.1788990826
  0
LINE
  5
368
100
AcDbEntity
  8
0
100
AcDbLine
 62
2
  6
CONTINUOUS
 10
122.7064220183
 20
17.1788990826
 11
138.7614678899
 21
17.1788990826
  0
LINE
  5
369
100
AcDbEntity
  8
0
100
AcDbLine
 62
2
  6
CONTINUOUS
 10
138.7614678899
 20
21.2155963303
 11
138.7614678899
 21
17.1788990826
  0
MTEXT
  5
36A
100
AcDbEntity
  8
0
100
AcDbMText
 62
2
  6
CONTINUOUS
  7
STANDARD
 71
1
 72
1
 10
123.2798165138
 20
19.3291284404
 30
0.0
 11
1.0
 21
0.0
 31
0.0
 44
0.9
  1
- 
 40
1.4334862385
 41
3.2253440367
  0
LINE
  5
36B
100
AcDbEntity
  8
0
100
AcDbLine
 62
2
  6
CONTINUOUS
 10
122.7064220183
 20
17.2018348624
 11
138.7614678899
 21
17.2018348624
  0
LINE
  5
36C
100
AcDbEntity
  8
0
100
AcDbLine
 62
2
  6
CONTINUOUS
 10
122.7064220183
 20
17.2018348624
 11
122.7064220183
 21
13.2597477064
  0
LINE
  5
36D
100
AcDbEntity
  8
0
100
AcDbLine
 62
2
  6
CONTINUOUS
 10
122.7064220183
 20
13.2597477064
 11
138.7614678899
 21
13.2597477064
  0
LINE
  5
36E
100
AcDbEntity
  8
0
100
AcDbLine
 62
2
  6
CONTINUOUS
 10
138.7614678899
 20
17.2018348624
 11
138.7614678899
 21
13.2597477064
  0
MTEXT
  5
36F
100
AcDbEntity
  8
0
100
AcDbMText
 62
2
  6
CONTINUOUS
  7
STANDARD
 71
1
 72
1
 10
123.2798165138
 20
15.4099770642
 30
0.0
 11
1.0
 21
0.0
 31
0.0
 44
0.9
  1
-
 40
1.4334862385
 41
1.5358781127
  0
LINE
  5
370
100
AcDbEntity
  8
0
100
AcDbLine
 62
2
  6
CONTINUOUS
 10
122.7064220183
 20
13.1880733945
 11
138.7614678899
 21
13.1880733945
  0
LINE
  5
371
100
AcDbEntity
  8
0
100
AcDbLine
 62
2
  6
CONTINUOUS
 10
122.7064220183
 20
13.1880733945
 11
122.7064220183
 21
9.1513761468
  0
LINE
  5
372
100
AcDbEntity
  8
0
100
AcDbLine
 62
2
  6
CONTINUOUS
 10
122.7064220183
 20
9.1513761468
 11
138.7614678899
 21
9.1513761468
  0
LINE
  5
373
100
AcDbEntity
  8
0
100
AcDbLine
 62
2
  6
CONTINUOUS
 10
138.7614678899
 20
13.1880733945
 11
138.7614678899
 21
9.1513761468
  0
MTEXT
  5
374
100
AcDbEntity
  8
0
100
AcDbMText
 62
2
  6
CONTINUOUS
  7
STANDARD
 71
1
 72
1
 10
123.2798165138
 20
11.3016055046
 30
0.0
 11
1.0
 21
0.0
 31
0.0
 44
0.9
  1
-
 40
1.4334862385
 41
1.5358781127
  0
LINE
  5
375
100
AcDbEntity
  8
0
100
AcDbLine
 62
2
  6
CONTINUOUS
 10
138.7614678899
 20
25.2293577982
 11
146.7889908257
 21
25.2293577982
  0
LINE
  5
376
100
AcDbEntity
  8
0
100
AcDbLine
 62
2
  6
CONTINUOUS
 10
138.7614678899
 20
25.2293577982
 11
138.7614678899
 21
21.1926605505
  0
LINE
  5
377
100
AcDbEntity
  8
0
100
AcDbLine
 62
2
  6
CONTINUOUS
 10
138.7614678899
 20
21.1926605505
 11
146.7889908257
 21
21.1926605505
  0
LINE
  5
378
100
AcDbEntity
  8
0
100
AcDbLine
 62
2
  6
CONTINUOUS
 10
146.7889908257
 20
25.2293577982
 11
146.7889908257
 21
21.1926605505
  0
MTEXT
  5
379
100
AcDbEntity
  8
0
100
AcDbMText
 62
2
  6
CONTINUOUS
  7
STANDARD
 71
2
 72
1
 10
142.7752293578
 20
23.0103211009
 30
0.0
 11
1.0
 21
0.0
 31
0.0
 44
0.9
  1
13-MAY-12
 40
1.1009174312
 41
10.9698558322
  0
LINE
  5
37A
100
AcDbEntity
  8
0
100
AcDbLine
 62
2
  6
CONTINUOUS
 10
138.7614678899
 20
21.2155963303
 11
146.7889908257
 21
21.2155963303
  0
LINE
  5
37B
100
AcDbEntity
  8
0
100
AcDbLine
 62
2
  6
CONTINUOUS
 10
138.7614678899
 20
21.2155963303
 11
138.7614678899
 21
17.1788990826
  0
LINE
  5
37C
100
AcDbEntity
  8
0
100
AcDbLine
 62
2
  6
CONTINUOUS
 10
138.7614678899
 20
17.1788990826
 11
146.7889908257
 21
17.1788990826
  0
LINE
  5
37D
100
AcDbEntity
  8
0
100
AcDbLine
 62
2
  6
CONTINUOUS
 10
146.7889908257
 20
21.2155963303
 11
146.7889908257
 21
17.1788990826
  0
MTEXT
  5
37E
100
AcDbEntity
  8
0
100
AcDbMText
 62
2
  6
CONTINUOUS
  7
STANDARD
 71
2
 72
1
 10
142.7752293578
 20
18.996559633
 30
0.0
 11
1.0
 21
0.0
 31
0.0
 44
0.9
  1
-
 40
1.1009174312
 41
1.1795543906
  0
LINE
  5
37F
100
AcDbEntity
  8
0
100
AcDbLine
 62
2
  6
CONTINUOUS
 10
138.7614678899
 20
17.2018348624
 11
146.7889908257
 21
17.2018348624
  0
LINE
  5
380
100
AcDbEntity
  8
0
100
AcDbLine
 62
2
  6
CONTINUOUS
 10
138.7614678899
 20
17.2018348624
 11
138.7614678899
 21
13.1651376147
  0
LINE
  5
381
100
AcDbEntity
  8
0
100
AcDbLine
 62
2
  6
CONTINUOUS
 10
138.7614678899
 20
13.1651376147
 11
146.7889908257
 21
13.1651376147
  0
LINE
  5
382
100
AcDbEntity
  8
0
100
AcDbLine
 62
2
  6
CONTINUOUS
 10
146.7889908257
 20
17.2018348624
 11
146.7889908257
 21
13.1651376147
  0
MTEXT
  5
383
100
AcDbEntity
  8
0
100
AcDbMText
 62
2
  6
CONTINUOUS
  7
STANDARD
 71
2
 72
1
 10
142.7752293578
 20
14.9827981651
 30
0.0
 11
1.0
 21
0.0
 31
0.0
 44
0.9
  1
-
 40
1.1009174312
 41
1.1795543906
  0
LINE
  5
384
100
AcDbEntity
  8
0
100
AcDbLine
 62
2
  6
CONTINUOUS
 10
138.7614678899
 20
13.1880733945
 11
146.7889908257
 21
13.1880733945
  0
LINE
  5
385
100
AcDbEntity
  8
0
100
AcDbLine
 62
2
  6
CONTINUOUS
 10
138.7614678899
 20
13.1880733945
 11
138.7614678899
 21
9.2459862385
  0
LINE
  5
386
100
AcDbEntity
  8
0
100
AcDbLine
 62
2
  6
CONTINUOUS
 10
138.7614678899
 20
9.2459862385
 11
146.7889908257
 21
9.2459862385
  0
LINE
  5
387
100
AcDbEntity
  8
0
100
AcDbLine
 62
2
  6
CONTINUOUS
 10
146.7889908257
 20
13.1880733945
 11
146.7889908257
 21
9.2459862385
  0
MTEXT
  5
388
100
AcDbEntity
  8
0
100
AcDbMText
 62
2
  6
CONTINUOUS
  7
STANDARD
 71
2
 72
1
 10
142.7752293578
 20
11.063646789
 30
0.0
 11
1.0
 21
0.0
 31
0.0
 44
0.9
  1
-
 40
1.1009174312
 41
1.1795543906
  0
LINE
  5
389
100
AcDbEntity
  8
0
100
AcDbLine
 62
2
  6
CONTINUOUS
 10
122.7064220183
 20
9.1743119266
 11
146.7889908257
 21
9.1743119266
  0
LINE
  5
38A
100
AcDbEntity
  8
0
100
AcDbLine
 62
2
  6
CONTINUOUS
 10
122.7064220183
 20
9.1743119266
 11
122.7064220183
 21
6.880733945
  0
LINE
  5
38B
100
AcDbEntity
  8
0
100
AcDbLine
 62
2
  6
CONTINUOUS
 10
122.7064220183
 20
6.880733945
 11
146.7889908257
 21
6.880733945
  0
LINE
  5
38C
100
AcDbEntity
  8
0
100
AcDbLine
 62
2
  6
CONTINUOUS
 10
146.7889908257
 20
9.1743119266
 11
146.7889908257
 21
6.880733945
  0
MTEXT
  5
38D
100
AcDbEntity
  8
0
100
AcDbMText
 62
2
  6
CONTINUOUS
  7
STANDARD
 71
3
 72
1
 10
146.2155963303
 20
8.6066513761
 30
0.0
 11
1.0
 21
0.0
 31
0.0
 44
0.9
  1
FG-002182-2D.1.4
 40
1.0091743119
 41
17.5884665793
  0
LINE
  5
38E
100
AcDbEntity
  8
0
100
AcDbLine
 62
2
  6
CONTINUOUS
 10
122.7064220183
 20
6.880733945
 11
146.7889908257
 21
6.880733945
  0
LINE
  5
38F
100
AcDbEntity
  8
0
100
AcDbLine
 62
2
  6
CONTINUOUS
 10
122.7064220183
 20
6.880733945
 11
122.7064220183
 21
4.5871559633
  0
LINE
  5
390
100
AcDbEntity
  8
0
100
AcDbLine
 62
2
  6
CONTINUOUS
 10
122.7064220183
 20
4.5871559633
 11
146.7889908257
 21
4.5871559633
  0
LINE
  5
391
100
AcDbEntity
  8
0
100
AcDbLine
 62
2
  6
CONTINUOUS
 10
146.7889908257
 20
6.880733945
 11
146.7889908257
 21
4.5871559633
  0
MTEXT
  5
392
100
AcDbEntity
  8
0
100
AcDbMText
 62
2
  6
CONTINUOUS
  7
STANDARD
 71
3
 72
1
 10
146.2155963303
 20
6.3130733945
 30
0.0
 11
1.0
 21
0.0
 31
0.0
 44
0.9
  1
FG-002182-3D.1.2
 40
1.0091743119
 41
17.4803407602
  0
LINE
  5
393
100
AcDbEntity
  8
0
100
AcDbLine
 62
2
  6
CONTINUOUS
 10
146.7889908257
 20
21.7889908257
 11
192.6605504587
 21
21.7889908257
  0
LINE
  5
394
100
AcDbEntity
  8
0
100
AcDbLine
 62
2
  6
CONTINUOUS
 10
146.7889908257
 20
21.7889908257
 11
146.7889908257
 21
11.4678899083
  0
LINE
  5
395
100
AcDbEntity
  8
0
100
AcDbLine
 62
2
  6
CONTINUOUS
 10
146.7889908257
 20
11.4678899083
 11
192.6605504587
 21
11.4678899083
  0
LINE
  5
396
100
AcDbEntity
  8
0
100
AcDbLine
 62
2
  6
CONTINUOUS
 10
192.6605504587
 20
21.7889908257
 11
192.6605504587
 21
11.4678899083
  0
MTEXT
  5
397
100
AcDbEntity
  8
0
100
AcDbMText
 62
2
  6
CONTINUOUS
  7
STANDARD
 71
2
 72
1
 10
169.7247706422
 20
17.8669724771
 30
0.0
 11
1.0
 21
0.0
 31
0.0
 44
1.02
  1
SPEAKER, FINISHED, GP218-SW
 40
1.8348623853
 41
56.9462647444
  0
LINE
  5
398
100
AcDbEntity
  8
0
100
AcDbLine
 62
2
  6
CONTINUOUS
 10
146.7990119536
 20
11.4489951146
 11
151.3861679169
 21
11.4489951146
  0
LINE
  5
399
100
AcDbEntity
  8
0
100
AcDbLine
 62
2
  6
CONTINUOUS
 10
146.7990119536
 20
11.4489951146
 11
146.7990119536
 21
6.8618391513
  0
LINE
  5
39A
100
AcDbEntity
  8
0
100
AcDbLine
 62
2
  6
CONTINUOUS
 10
146.7990119536
 20
6.8618391513
 11
151.3861679169
 21
6.8618391513
  0
LINE
  5
39B
100
AcDbEntity
  8
0
100
AcDbLine
 62
2
  6
CONTINUOUS
 10
151.3861679169
 20
11.4489951146
 11
151.3861679169
 21
6.8618391513
  0
MTEXT
  5
39C
100
AcDbEntity
  8
0
100
AcDbMText
 62
2
  6
CONTINUOUS
  7
STANDARD
 71
2
 72
1
 10
149.0925899352
 20
9.4134446559
 30
0.0
 11
1.0
 21
0.0
 31
0.0
 44
0.9
  1
C
 40
1.8348623853
 41
2.2935779817
  0
LINE
  5
39D
100
AcDbEntity
  8
0
100
AcDbLine
 62
2
  6
CONTINUOUS
 10
160.5552063999
 20
11.4217852213
 11
188.0781421797
 21
11.4217852213
  0
LINE
  5
39E
100
AcDbEntity
  8
0
100
AcDbLine
 62
2
  6
CONTINUOUS
 10
160.5552063999
 20
11.4217852213
 11
160.5552063999
 21
6.834629258
  0
LINE
  5
39F
100
AcDbEntity
  8
0
100
AcDbLine
 62
2
  6
CONTINUOUS
 10
160.5552063999
 20
6.834629258
 11
188.0781421797
 21
6.834629258
  0
LINE
  5
3A0
100
AcDbEntity
  8
0
100
AcDbLine
 62
2
  6
CONTINUOUS
 10
188.0781421797
 20
11.4217852213
 11
188.0781421797
 21
6.834629258
  0
MTEXT
  5
3A1
100
AcDbEntity
  8
0
100
AcDbMText
 62
2
  6
CONTINUOUS
  7
STANDARD
 71
2
 72
1
 10
174.3166742898
 20
9.6614641204
 30
0.0
 11
1.0
 21
0.0
 31
0.0
 44
0.9
  1
FG-002182-2D
 40
2.1100917431
 41
28.8630406291
  0
LINE
  5
3A2
100
AcDbEntity
  8
0
100
AcDbLine
 62
2
  6
CONTINUOUS
 10
188.0614669382
 20
11.4521818589
 11
192.6486229015
 21
11.4521818589
  0
LINE
  5
3A3
100
AcDbEntity
  8
0
100
AcDbLine
 62
2
  6
CONTINUOUS
 10
188.0614669382
 20
11.4521818589
 11
188.0614669382
 21
6.8650258956
  0
LINE
  5
3A4
100
AcDbEntity
  8
0
100
AcDbLine
 62
2
  6
CONTINUOUS
 10
188.0614669382
 20
6.8650258956
 11
192.6486229015
 21
6.8650258956
  0
LINE
  5
3A5
100
AcDbEntity
  8
0
100
AcDbLine
 62
2
  6
CONTINUOUS
 10
192.6486229015
 20
11.4521818589
 11
192.6486229015
 21
6.8650258956
  0
MTEXT
  5
3A6
100
AcDbEntity
  8
0
100
AcDbMText
 62
2
  6
CONTINUOUS
  7
STANDARD
 71
2
 72
1
 10
190.3550449199
 20
9.2331451616
 30
0.0
 11
1.0
 21
0.0
 31
0.0
 44
0.9
  1
1
 40
1.6513761468
 41
1.4154652687
  0
LINE
  5
3A7
100
AcDbEntity
  8
0
100
AcDbLine
 62
2
  6
CONTINUOUS
 10
177.7579873337
 20
6.8158613177
 11
192.6662442144
 21
6.8158613177
  0
LINE
  5
3A8
100
AcDbEntity
  8
0
100
AcDbLine
 62
2
  6
CONTINUOUS
 10
177.7579873337
 20
6.8158613177
 11
177.7579873337
 21
4.5222833361
  0
LINE
  5
3A9
100
AcDbEntity
  8
0
100
AcDbLine
 62
2
  6
CONTINUOUS
 10
177.7579873337
 20
4.5222833361
 11
192.6662442144
 21
4.5222833361
  0
LINE
  5
3AA
100
AcDbEntity
  8
0
100
AcDbLine
 62
2
  6
CONTINUOUS
 10
192.6662442144
 20
6.8158613177
 11
192.6662442144
 21
4.5222833361
  0
MTEXT
  5
3AB
100
AcDbEntity
  8
0
100
AcDbMText
 62
2
  6
CONTINUOUS
  7
STANDARD
 71
3
 72
1
 10
192.092849719
 20
6.523430125
 30
0.0
 11
1.0
 21
0.0
 31
0.0
 44
0.9
  1
1 OF 1
 40
1.2844036697
 41
8.119266055
  0
LINE
  5
3AC
100
AcDbEntity
  8
0
100
AcDbLine
 62
2
  6
CONTINUOUS
 10
146.7730257991
 20
6.8699377698
 11
157.6721083679
 21
6.8699377698
  0
LINE
  5
3AD
100
AcDbEntity
  8
0
100
AcDbLine
 62
2
  6
CONTINUOUS
 10
146.7730257991
 20
6.8699377698
 11
146.7730257991
 21
4.5405226322
  0
LINE
  5
3AE
100
AcDbEntity
  8
0
100
AcDbLine
 62
2
  6
CONTINUOUS
 10
146.7730257991
 20
4.5405226322
 11
157.6721083679
 21
4.5405226322
  0
LINE
  5
3AF
100
AcDbEntity
  8
0
100
AcDbLine
 62
2
  6
CONTINUOUS
 10
157.6721083679
 20
6.8699377698
 11
157.6721083679
 21
4.5405226322
  0
MTEXT
  5
3B0
100
AcDbEntity
  8
0
100
AcDbMText
 62
2
  6
CONTINUOUS
  7
STANDARD
 71
3
 72
1
 10
157.0987138725
 20
6.3581831827
 30
0.0
 11
1.0
 21
0.0
 31
0.0
 44
0.9
  1
0.109
 40
1.1009174312
 41
5.7798165138
  0
MTEXT
  5
3B1
100
AcDbEntity
  8
0
100
AcDbMText
 62
2
  6
CONTINUOUS
  7
STANDARD
 71
1
 72
1
 10
134.0207804739
 20
100.7791965361
 30
0.0
 11
1.0
 21
0.0
 31
0.0
 44
0.9
  1
GP218-sw
 40
2.2935779817
 41
21.7889908257
  0
MTEXT
  5
3B2
100
AcDbEntity
  8
0
100
AcDbMText
 62
2
  6
CONTINUOUS
  7
STANDARD
 71
1
 72
1
 10
6.2357711667
 20
25.7868472391
 30
0.0
 11
1.0
 21
0.0
 31
0.0
 44
1.2
  3
5. PARTS ARE SYMMETRICAL ABOUT CENTER LINES \P   UNLESS OTHERWISE NOTED.\P4. SYMBOL    INDICATES CENTER OF BALANCE.\P3. SYMBOL \Fgdt;{\Fgdt;r}\Ftxt; INDICATES SUSPENSION POINT, \P   16 TOTAL:  M10-1.5 THD. \P2. TOLERANCES (INCHES): .X \Fgdt;{\Fgdt;`}
  1
\Ftxt; .13, ANGLES: \Fgdt;{\Fgdt;`}\Ftxt; 1\Fgdt;{\Fgdt;~}\Ftxt;.\P1. NET WEIGHT APPROX. 191 LBS (86.6 KG)\PNOTE:  UNLESS OTHERWISE SPECIFIED
 40
1.2844036697
 41
66.3302752294
  0
INSERT
  5
3B3
100
AcDbEntity
  8
0
100
AcDbBlockReference
 62
2
  6
CONTINUOUS
  2
CG_3D_BL0
 10
17.1960130504
 20
20.0432470928
  0
INSERT
  5
3B4
100
AcDbEntity
  8
0
100
AcDbBlockReference
 62
2
  6
CONTINUOUS
  2
CG_3D_BL1
 10
37.6277608019
 20
63.8750771315
  0
INSERT
  5
3B5
100
AcDbEntity
  8
0
100
AcDbBlockReference
 62
2
  6
CONTINUOUS
  2
CG_3D_BL2
 10
37.6284010374
 20
120.7192252535
  0
LINE
  5
3B6
100
AcDbEntity
  8
0
100
AcDbLine
 62
7
  6
CONTINUOUS
 10
0.0
 20
-0.0
 11
0.0
 21
155.9633027523
  0
LINE
  5
3B7
100
AcDbEntity
  8
0
100
AcDbLine
 62
7
  6
CONTINUOUS
 10
0.0
 20
-0.0
 11
201.8348623853
 21
-0.0
  0
LINE
  5
3B8
100
AcDbEntity
  8
0
100
AcDbLine
 62
7
  6
CONTINUOUS
 10
122.6427200953
 20
10.2827961215
 11
102.1264677562
 21
4.747538779
  0
LINE
  5
3B9
100
AcDbEntity
  8
0
100
AcDbLine
 62
7
  6
CONTINUOUS
 10
122.6814677573
 20
16.0017229756
 11
102.130792176
 21
10.3563112581
  0
LINE
  5
3BA
100
AcDbEntity
  8
0
100
AcDbLine
 62
7
  6
CONTINUOUS
 10
102.1021993704
 20
28.0424352269
 11
122.7561446783
 21
16.0631469483
  0
LINE
  5
3BB
100
AcDbEntity
  8
0
100
AcDbLine
 62
7
  6
CONTINUOUS
 10
122.6872981939
 20
28.0768584691
 11
102.0677761283
 21
16.1664166749
  0
LINE
  5
3BC
100
AcDbEntity
  8
0
100
AcDbLine
 62
7
  6
CONTINUOUS
 10
0.0
 20
155.9633027523
 11
201.8348623853
 21
155.9633027523
  0
LINE
  5
3BD
100
AcDbEntity
  8
0
100
AcDbLine
 62
7
  6
CONTINUOUS
 10
201.8348623853
 20
-0.0
 11
201.8348623853
 21
155.9633027523
  0
LINE
  5
3BE
100
AcDbEntity
  8
7_ALL_ROUNDS
100
AcDbLine
 62
7
  6
CONTINUOUS
 10
134.6951526658
 20
124.0947778318
 11
134.1746570813
 21
123.1932530497
  0
LINE
  5
3BF
100
AcDbEntity
  8
7_ALL_ROUNDS
100
AcDbLine
 62
7
  6
CONTINUOUS
 10
134.7740663989
 20
124.0491843651
 11
134.2535708143
 21
123.147659583
  0
LINE
  5
3C0
100
AcDbEntity
  8
7_ALL_ROUNDS
100
AcDbLine
 62
7
  6
CONTINUOUS
 10
134.1457726492
 20
123.085454894
 11
134.1457726492
 21
110.5585027355
  0
LINE
  5
3C1
100
AcDbEntity
  8
7_ALL_ROUNDS
100
AcDbLine
 62
7
  6
CONTINUOUS
 10
134.2089193523
 20
122.9974150006
 11
134.2089193523
 21
110.4704628529
  0
LINE
  5
3C2
100
AcDbEntity
  8
7_ALL_ROUNDS
100
AcDbLine
 62
7
  6
CONTINUOUS
 10
134.4894266663
 20
122.8354216167
 11
134.4894266663
 21
110.308469469
  0
LINE
  5
3C3
100
AcDbEntity
  8
7_ALL_ROUNDS
100
AcDbLine
 62
7
  6
CONTINUOUS
 10
134.5340781283
 20
122.985666199
 11
135.0545737128
 21
123.8871909811
  0
LINE
  5
3C4
100
AcDbEntity
  8
7_ALL_ROUNDS
100
AcDbLine
 62
7
  6
CONTINUOUS
 10
135.1083721524
 20
109.8889629586
 11
135.1083721524
 21
123.9698119736
  0
LINE
  5
3C5
100
AcDbEntity
  8
7_ALL_ROUNDS
100
AcDbLine
 62
7
  6
CONTINUOUS
 10
152.2426056464
 20
134.2617985235
 11
134.7740452288
 21
124.1736793401
  0
LINE
  5
3C6
100
AcDbEntity
  8
7_ALL_ROUNDS
100
AcDbLine
 62
7
  6
CONTINUOUS
 10
152.3504249816
 20
134.2511094614
 11
134.881864564
 21
124.162990278
  0
LINE
  5
3C7
100
AcDbEntity
  8
7_ALL_ROUNDS
100
AcDbLine
 62
7
  6
CONTINUOUS
 10
135.1623718779
 20
124.000996894
 11
135.1083721524
 21
123.9698119736
  0
LINE
  5
3C8
100
AcDbEntity
  8
0
100
AcDbLine
 62
7
  6
CONTINUOUS
 10
150.2574135607
 20
131.7621515489
 11
150.2573044446
 21
131.7620897959
  0
LINE
  5
3C9
100
AcDbEntity
  8
0
100
AcDbLine
 62
7
  6
CONTINUOUS
 10
138.9761411526
 20
125.2472002379
 11
138.9760320365
 21
125.247138485
  0
LINE
  5
3CA
100
AcDbEntity
  8
3_ALL_AXES
100
AcDbLine
 62
7
  6
CONTINUOUS
 10
138.3159370264
 20
119.4578112032
 11
138.3152852373
 21
119.4574346805
  0
LINE
  5
3CB
100
AcDbEntity
  8
3_ALL_AXES
100
AcDbLine
 62
7
  6
CONTINUOUS
 10
138.3465258861
 20
119.4057658983
 11
138.3459933631
 21
119.4054584426
  0
LINE
  5
3CC
100
AcDbEntity
  8
7_ALL_ROUNDS
100
AcDbLine
 62
7
  6
CONTINUOUS
 10
163.5045869581
 20
93.7284878414
 11
162.9840913736
 21
94.0288387012
  0
LINE
  5
3CD
100
AcDbEntity
  8
7_ALL_ROUNDS
100
AcDbLine
 62
7
  6
CONTINUOUS
 10
134.2535496443
 20
110.3718030607
 11
135.0545737128
 21
109.909446596
  0
LINE
  5
3CE
100
AcDbEntity
  8
7_ALL_ROUNDS
100
AcDbLine
 62
7
  6
CONTINUOUS
 10
162.4433150973
 20
94.0921722929
 11
163.2443815226
 21
93.6297913767
  0
LINE
  5
3CF
100
AcDbEntity
  8
7_ALL_ROUNDS
100
AcDbLine
 62
7
  6
CONTINUOUS
 10
135.1083721524
 20
109.8889629586
 11
162.4176692103
 21
94.1178039765
  0
LINE
  5
3D0
100
AcDbEntity
  8
7_ALL_ROUNDS
100
AcDbLine
 62
7
  6
CONTINUOUS
 10
134.2089193523
 20
110.4704628529
 11
134.4894266663
 21
110.308469469
  0
LINE
  5
3D1
100
AcDbEntity
  8
7_ALL_ROUNDS
100
AcDbLine
 62
7
  6
CONTINUOUS
 10
162.3986848054
 20
94.1908320851
 11
162.6791921193
 21
94.0288387012
  0
LINE
  5
3D2
100
AcDbEntity
  8
3_AXES_OTHER
100
AcDbLine
 62
7
  6
CONTINUOUS
 10
147.0171272258
 20
103.511509631
 11
148.8465227515
 21
102.45503104
  0
LINE
  5
3D3
100
AcDbEntity
  8
3_AXES_OTHER
100
AcDbLine
 62
7
  6
CONTINUOUS
 10
149.2794796925
 20
102.2049977735
 11
151.1088752182
 21
101.1485191825
  0
LINE
  5
3D4
100
AcDbEntity
  8
7_ALL_ROUNDS
100
AcDbLine
 62
7
  6
CONTINUOUS
 10
134.5340565803
 20
110.2098101114
 11
134.5340781283
 21
110.2097974558
  0
LINE
  5
3D5
100
AcDbEntity
  8
3_AXES_OTHER
100
AcDbLine
 62
7
  6
CONTINUOUS
 10
147.0171272258
 20
116.5926183659
 11
147.0171272258
 21
103.511509631
  0
LINE
  5
3D6
100
AcDbEntity
  8
3_AXES_OTHER
100
AcDbLine
 62
7
  6
CONTINUOUS
 10
148.8465227515
 20
102.45503104
 11
148.8465227515
 21
115.5361397749
  0
LINE
  5
3D7
100
AcDbEntity
  8
3_AXES_OTHER
100
AcDbLine
 62
7
  6
CONTINUOUS
 10
149.2794796925
 20
115.2861065084
 11
149.2794796925
 21
102.2049977735
  0
LINE
  5
3D8
100
AcDbEntity
  8
7_ALL_ROUNDS
100
AcDbLine
 62
7
  6
CONTINUOUS
 10
165.3763309226
 20
98.4176402778
 11
165.2726651762
 21
98.4775073979
  0
LINE
  5
3D9
100
AcDbEntity
  8
7_ALL_ROUNDS
100
AcDbLine
 62
7
  6
CONTINUOUS
 10
165.0561867056
 20
98.806587081
 11
165.0317947653
 21
98.8206734622
  0
LINE
  5
3DA
100
AcDbEntity
  8
3_AXES_OTHER
100
AcDbLine
 62
7
  6
CONTINUOUS
 10
151.1088752182
 20
101.1485191825
 11
151.1088752182
 21
114.2296279174
  0
LINE
  5
3DB
100
AcDbEntity
  8
7_ALL_ROUNDS
100
AcDbLine
 62
7
  6
CONTINUOUS
 10
168.7851045854
 20
100.3862120523
 11
168.6814388389
 21
100.4460791724
  0
LINE
  5
3DC
100
AcDbEntity
  8
7_ALL_ROUNDS
100
AcDbLine
 62
7
  6
CONTINUOUS
 10
169.1997675712
 20
101.1044293994
 11
169.0961018248
 21
101.1642965196
  0
LINE
  5
3DD
100
AcDbEntity
  8
7_ALL_ROUNDS
100
AcDbLine
 62
7
  6
CONTINUOUS
 10
165.0561867056
 20
104.3544415929
 11
165.0317947653
 21
104.3685279741
  0
LINE
  5
3DE
100
AcDbEntity
  8
7_ALL_ROUNDS
100
AcDbLine
 62
7
  6
CONTINUOUS
 10
165.294008124
 20
104.7663603655
 11
165.2696161836
 21
104.7804467467
  0
LINE
  5
3DF
100
AcDbEntity
  8
7_ALL_ROUNDS
100
AcDbLine
 62
7
  6
CONTINUOUS
 10
162.6791921193
 20
106.5557908489
 11
162.3986848054
 21
106.7177842328
  0
LINE
  5
3E0
100
AcDbEntity
  8
7_ALL_ROUNDS
100
AcDbLine
 62
7
  6
CONTINUOUS
 10
134.4894266663
 20
122.8354216167
 11
134.2089193523
 21
122.9974150006
  0
LINE
  5
3E1
100
AcDbEntity
  8
7_ALL_ROUNDS
100
AcDbLine
 62
7
  6
CONTINUOUS
 10
162.9840913736
 20
106.5557908489
 11
162.4433362674
 21
106.8680288152
  0
LINE
  5
3E2
100
AcDbEntity
  8
3_AXES_OTHER
100
AcDbLine
 62
7
  6
CONTINUOUS
 10
151.1088752182
 20
114.2296279174
 11
149.2794796925
 21
115.2861065084
  0
LINE
  5
3E3
100
AcDbEntity
  8
3_AXES_OTHER
100
AcDbLine
 62
7
  6
CONTINUOUS
 10
148.8465227515
 20
115.5361397749
 11
147.0171272258
 21
116.5926183659
  0
LINE
  5
3E4
100
AcDbEntity
  8
7_ALL_ROUNDS
100
AcDbLine
 62
7
  6
CONTINUOUS
 10
162.9638318519
 20
107.7695535973
 11
163.5045869581
 21
107.457315631
  0
LINE
  5
3E5
100
AcDbEntity
  8
7_ALL_ROUNDS
100
AcDbLine
 62
7
  6
CONTINUOUS
 10
135.1083721524
 20
123.9698119736
 11
163.0176302916
 21
107.8521745897
  0
LINE
  5
3E6
100
AcDbEntity
  8
7_ALL_ROUNDS
100
AcDbLine
 62
7
  6
CONTINUOUS
 10
134.881864564
 20
124.162990278
 11
135.1623718779
 21
124.000996894
  0
LINE
  5
3E7
100
AcDbEntity
  8
7_ALL_ROUNDS
100
AcDbLine
 62
7
  6
CONTINUOUS
 10
163.0716300171
 20
107.8833595102
 11
163.352137331
 21
107.7213661262
  0
LINE
  5
3E8
100
AcDbEntity
  8
7_ALL_ROUNDS
100
AcDbLine
 62
7
  6
CONTINUOUS
 10
134.5340781283
 20
122.985666199
 11
134.1746570814
 21
123.1932530499
  0
LINE
  5
3E9
100
AcDbEntity
  8
7_ALL_ROUNDS
100
AcDbLine
 62
7
  6
CONTINUOUS
 10
135.0545737128
 20
123.8871909811
 11
134.6951526659
 21
124.094777832
  0
LINE
  5
3EA
100
AcDbEntity
  8
7_ALL_ROUNDS
100
AcDbLine
 62
7
  6
CONTINUOUS
 10
168.7088797718
 20
106.7384537353
 11
168.6844878315
 21
106.7525401165
  0
LINE
  5
3EB
100
AcDbEntity
  8
7_ALL_ROUNDS
100
AcDbLine
 62
7
  6
CONTINUOUS
 10
169.1997675712
 20
106.6593243358
 11
169.0961018248
 21
106.719191456
  0
LINE
  5
3EC
100
AcDbEntity
  8
7_ALL_ROUNDS
100
AcDbLine
 62
7
  6
CONTINUOUS
 10
175.1721341639
 20
104.0747309729
 11
175.0684684175
 21
104.134598093
  0
LINE
  5
3ED
100
AcDbEntity
  8
3_ALL_AXES
100
AcDbLine
 62
7
  6
CONTINUOUS
 10
154.0487228015
 20
110.3720862286
 11
154.0482106959
 21
110.3717904168
  0
LINE
  5
3EE
100
AcDbEntity
  8
3_ALL_AXES
100
AcDbLine
 62
7
  6
CONTINUOUS
 10
154.0792101931
 20
110.319982359
 11
154.0788107311
 21
110.3197517129
  0
LINE
  5
3EF
100
AcDbEntity
  8
7_ALL_ROUNDS
100
AcDbLine
 62
7
  6
CONTINUOUS
 10
174.8519899469
 20
104.4636777761
 11
174.8275980066
 21
104.4777641573
  0
LINE
  5
3F0
100
AcDbEntity
  8
3_AXES_OTHER
100
AcDbLine
 62
7
  6
CONTINUOUS
 10
147.0171272258
 20
103.511509631
 11
148.8465227515
 21
104.5679882219
  0
LINE
  5
3F1
100
AcDbEntity
  8
7_ALL_ROUNDS
100
AcDbLine
 62
7
  6
CONTINUOUS
 10
178.5809078267
 20
106.0433027474
 11
178.4772420802
 21
106.1031698676
  0
LINE
  5
3F2
100
AcDbEntity
  8
7_ALL_ROUNDS
100
AcDbLine
 62
7
  6
CONTINUOUS
 10
162.3986848054
 20
106.7177842328
 11
162.3986848054
 21
94.1908320851
  0
LINE
  5
3F3
100
AcDbEntity
  8
7_ALL_ROUNDS
100
AcDbLine
 62
7
  6
CONTINUOUS
 10
162.6791921193
 20
94.0288387012
 11
162.6791921193
 21
106.5557908489
  0
LINE
  5
3F4
100
AcDbEntity
  8
7_ALL_ROUNDS
100
AcDbLine
 62
7
  6
CONTINUOUS
 10
162.9840913736
 20
94.0288387012
 11
162.9840913736
 21
106.5557908489
  0
LINE
  5
3F5
100
AcDbEntity
  8
7_ALL_ROUNDS
100
AcDbLine
 62
7
  6
CONTINUOUS
 10
163.0176302916
 20
107.840762864
 11
163.0176302916
 21
107.8521745897
  0
LINE
  5
3F6
100
AcDbEntity
  8
3_AXES_OTHER
100
AcDbLine
 62
7
  6
CONTINUOUS
 10
149.2794796925
 20
102.2049977735
 11
151.1088752182
 21
103.2614763644
  0
LINE
  5
3F7
100
AcDbEntity
  8
7_ALL_ROUNDS
100
AcDbLine
 62
7
  6
CONTINUOUS
 10
178.9955708125
 20
106.7615200945
 11
178.891905066
 21
106.8213872147
  0
LINE
  5
3F8
100
AcDbEntity
  8
7_ALL_ROUNDS
100
AcDbLine
 62
7
  6
CONTINUOUS
 10
174.8519899469
 20
110.011532288
 11
174.8275980066
 21
110.0256186692
  0
LINE
  5
3F9
100
AcDbEntity
  8
7_ALL_ROUNDS
100
AcDbLine
 62
7
  6
CONTINUOUS
 10
175.0898113653
 20
110.4234510606
 11
175.0654194249
 21
110.4375374418
  0
LINE
  5
3FA
100
AcDbEntity
  8
7_ALL_ROUNDS
100
AcDbLine
 62
7
  6
CONTINUOUS
 10
164.9616679368
 20
104.2118156001
 11
164.9616679368
 21
98.6569206637
  0
LINE
  5
3FB
100
AcDbEntity
  8
7_ALL_ROUNDS
100
AcDbLine
 62
7
  6
CONTINUOUS
 10
165.0317947653
 20
104.3685279741
 11
165.0317947653
 21
98.8206734622
  0
LINE
  5
3FC
100
AcDbEntity
  8
7_ALL_ROUNDS
100
AcDbLine
 62
7
  6
CONTINUOUS
 10
165.0561867056
 20
104.3544415929
 11
165.0561867056
 21
98.806587081
  0
LINE
  5
3FD
100
AcDbEntity
  8
3_ALL_AXES
100
AcDbLine
 62
7
  6
CONTINUOUS
 10
165.7056221172
 20
99.6234236186
 11
165.7056221172
 21
104.2877048549
  0
LINE
  5
3FE
100
AcDbEntity
  8
7_ALL_ROUNDS
100
AcDbLine
 62
7
  6
CONTINUOUS
 10
162.9638318519
 20
107.7695535973
 11
162.4433362674
 21
106.8680288152
  0
LINE
  5
3FF
100
AcDbEntity
  8
7_ALL_ROUNDS
100
AcDbLine
 62
7
  6
CONTINUOUS
 10
162.7238435813
 20
106.7060354313
 11
163.2443391659
 21
107.6075602133
  0
LINE
  5
400
100
AcDbEntity
  8
7_ALL_ROUNDS
100
AcDbLine
 62
7
  6
CONTINUOUS
 10
162.9840913736
 20
106.5557908489
 11
163.5045869581
 21
107.457315631
  0
LINE
  5
401
100
AcDbEntity
  8
7_ALL_ROUNDS
100
AcDbLine
 62
7
  6
CONTINUOUS
 10
163.0716300171
 20
107.8833595102
 11
163.0176302916
 21
107.8521745897
  0
LINE
  5
402
100
AcDbEntity
  8
7_ALL_ROUNDS
100
AcDbLine
 62
7
  6
CONTINUOUS
 10
163.352137331
 20
107.7213661262
 11
180.8206977486
 21
117.8094853096
  0
LINE
  5
403
100
AcDbEntity
  8
0
100
AcDbLine
 62
7
  6
CONTINUOUS
 10
177.0401299351
 20
116.2950936814
 11
177.040020819
 21
116.2950319284
  0
LINE
  5
404
100
AcDbEntity
  8
0
100
AcDbLine
 62
7
  6
CONTINUOUS
 10
165.758857527
 20
109.7801423704
 11
165.7587484109
 21
109.7800806174
  0
LINE
  5
405
100
AcDbEntity
  8
7_ALL_ROUNDS
100
AcDbLine
 62
7
  6
CONTINUOUS
 10
163.5045869581
 20
107.457315631
 11
180.9731473757
 21
117.5454348144
  0
LINE
  5
406
100
AcDbEntity
  8
7_ALL_ROUNDS
100
AcDbLine
 62
7
  6
CONTINUOUS
 10
178.5046830131
 20
112.3955444304
 11
178.4802910728
 21
112.4096308117
  0
LINE
  5
407
100
AcDbEntity
  8
7_ALL_ROUNDS
100
AcDbLine
 62
7
  6
CONTINUOUS
 10
178.9955708125
 20
112.3164150309
 11
178.891905066
 21
112.3762821511
  0
LINE
  5
408
100
AcDbEntity
  8
3_ALL_AXES
100
AcDbLine
 62
7
  6
CONTINUOUS
 10
168.2972657786
 20
101.1201016225
 11
168.2972657786
 21
105.7843828587
  0
LINE
  5
409
100
AcDbEntity
  8
7_ALL_ROUNDS
100
AcDbLine
 62
7
  6
CONTINUOUS
 10
168.9467011902
 20
101.0533648845
 11
168.9467011902
 21
106.6012193964
  0
LINE
  5
40A
100
AcDbEntity
  8
7_ALL_ROUNDS
100
AcDbLine
 62
7
  6
CONTINUOUS
 10
169.0961018248
 20
101.1642965196
 11
169.0961018248
 21
106.719191456
  0
LINE
  5
40B
100
AcDbEntity
  8
7_ALL_ROUNDS
100
AcDbLine
 62
7
  6
CONTINUOUS
 10
169.1997675712
 20
101.1044293994
 11
169.1997675712
 21
106.6593243358
  0
LINE
  5
40C
100
AcDbEntity
  8
7_ALL_ROUNDS
100
AcDbLine
 62
7
  6
CONTINUOUS
 10
178.5809078267
 20
112.5556954168
 11
175.1721341639
 21
110.5871236423
  0
LINE
  5
40D
100
AcDbEntity
  8
7_ALL_ROUNDS
100
AcDbLine
 62
7
  6
CONTINUOUS
 10
168.7851045854
 20
106.8986047217
 11
165.3763309226
 21
104.9300329472
  0
LINE
  5
40E
100
AcDbEntity
  8
7_ALL_ROUNDS
100
AcDbLine
 62
7
  6
CONTINUOUS
 10
178.4802910728
 20
112.4096308117
 11
175.0654194249
 21
110.4375374418
  0
LINE
  5
40F
100
AcDbEntity
  8
7_ALL_ROUNDS
100
AcDbLine
 62
7
  6
CONTINUOUS
 10
168.6844878315
 20
106.7525401165
 11
165.2696161836
 21
104.7804467467
  0
LINE
  5
410
100
AcDbEntity
  8
7_ALL_ROUNDS
100
AcDbLine
 62
7
  6
CONTINUOUS
 10
178.5046830131
 20
112.3955444304
 11
175.0898113653
 21
110.4234510606
  0
LINE
  5
411
100
AcDbEntity
  8
7_ALL_ROUNDS
100
AcDbLine
 62
7
  6
CONTINUOUS
 10
168.7088797718
 20
106.7384537353
 11
165.294008124
 21
104.7663603655
  0
LINE
  5
412
100
AcDbEntity
  8
3_ALL_AXES
100
AcDbLine
 62
7
  6
CONTINUOUS
 10
178.0930690198
 20
111.4414735538
 11
175.5014253585
 21
109.94479555
  0
LINE
  5
413
100
AcDbEntity
  8
3_ALL_AXES
100
AcDbLine
 62
7
  6
CONTINUOUS
 10
168.2972657786
 20
105.7843828587
 11
165.7056221172
 21
104.2877048549
  0
LINE
  5
414
100
AcDbEntity
  8
3_ALL_AXES
100
AcDbLine
 62
7
  6
CONTINUOUS
 10
177.420081468
 20
109.3455477362
 11
175.5014253585
 21
108.2375210276
  0
LINE
  5
415
100
AcDbEntity
  8
3_ALL_AXES
100
AcDbLine
 62
7
  6
CONTINUOUS
 10
167.6242782267
 20
103.6884570411
 11
165.7056221172
 21
102.5804303324
  0
LINE
  5
416
100
AcDbEntity
  8
3_ALL_AXES
100
AcDbLine
 62
7
  6
CONTINUOUS
 10
177.8513588089
 20
108.5987490369
 11
175.5014253585
 21
107.2416590333
  0
LINE
  5
417
100
AcDbEntity
  8
3_ALL_AXES
100
AcDbLine
 62
7
  6
CONTINUOUS
 10
168.0555555676
 20
102.9416583418
 11
165.7056221172
 21
101.5845683382
  0
LINE
  5
418
100
AcDbEntity
  8
3_ALL_AXES
100
AcDbLine
 62
7
  6
CONTINUOUS
 10
178.0930690198
 20
106.7771923176
 11
175.5014253585
 21
105.2805143138
  0
LINE
  5
419
100
AcDbEntity
  8
3_ALL_AXES
100
AcDbLine
 62
7
  6
CONTINUOUS
 10
168.2972657786
 20
101.1201016225
 11
165.7056221172
 21
99.6234236186
  0
LINE
  5
41A
100
AcDbEntity
  8
7_ALL_ROUNDS
100
AcDbLine
 62
7
  6
CONTINUOUS
 10
180.8206977486
 20
117.8094853096
 11
152.3504249816
 21
134.2511094614
  0
LINE
  5
41B
100
AcDbEntity
  8
7_ALL_ROUNDS
100
AcDbLine
 62
7
  6
CONTINUOUS
 10
180.9285171411
 20
117.8201743387
 11
152.4582443168
 21
134.2617985235
  0
LINE
  5
41C
100
AcDbEntity
  8
7_ALL_ROUNDS
100
AcDbLine
 62
7
  6
CONTINUOUS
 10
174.7574711781
 20
109.8689062952
 11
174.7574711781
 21
104.3140113588
  0
LINE
  5
41D
100
AcDbEntity
  8
7_ALL_ROUNDS
100
AcDbLine
 62
7
  6
CONTINUOUS
 10
174.8275980066
 20
110.0256186692
 11
174.8275980066
 21
104.4777641573
  0
LINE
  5
41E
100
AcDbEntity
  8
7_ALL_ROUNDS
100
AcDbLine
 62
7
  6
CONTINUOUS
 10
174.8519899469
 20
110.011532288
 11
174.8519899469
 21
104.4636777761
  0
LINE
  5
41F
100
AcDbEntity
  8
3_ALL_AXES
100
AcDbLine
 62
7
  6
CONTINUOUS
 10
175.5014253585
 20
105.2805143138
 11
175.5014253585
 21
109.94479555
  0
LINE
  5
420
100
AcDbEntity
  8
7_ALL_ROUNDS
100
AcDbLine
 62
7
  6
CONTINUOUS
 10
165.294008124
 20
98.669352742
 11
168.7088797718
 21
100.6414461119
  0
LINE
  5
421
100
AcDbEntity
  8
7_ALL_ROUNDS
100
AcDbLine
 62
7
  6
CONTINUOUS
 10
175.0898113653
 20
104.3264434372
 11
178.5046830131
 21
106.298536807
  0
LINE
  5
422
100
AcDbEntity
  8
7_ALL_ROUNDS
100
AcDbLine
 62
7
  6
CONTINUOUS
 10
165.2726651762
 20
98.4775073979
 11
168.6814388389
 21
100.4460791724
  0
LINE
  5
423
100
AcDbEntity
  8
7_ALL_ROUNDS
100
AcDbLine
 62
7
  6
CONTINUOUS
 10
175.0684684175
 20
104.134598093
 11
178.4772420802
 21
106.1031698676
  0
LINE
  5
424
100
AcDbEntity
  8
7_ALL_ROUNDS
100
AcDbLine
 62
7
  6
CONTINUOUS
 10
165.3763309226
 20
98.4176402778
 11
168.7851045854
 21
100.3862120523
  0
LINE
  5
425
100
AcDbEntity
  8
7_ALL_ROUNDS
100
AcDbLine
 62
7
  6
CONTINUOUS
 10
175.1721341639
 20
104.0747309729
 11
178.5809078267
 21
106.0433027474
  0
LINE
  5
426
100
AcDbEntity
  8
3_ALL_AXES
100
AcDbLine
 62
7
  6
CONTINUOUS
 10
178.0930690198
 20
106.7771923176
 11
178.0930690198
 21
111.4414735538
  0
LINE
  5
427
100
AcDbEntity
  8
7_ALL_ROUNDS
100
AcDbLine
 62
7
  6
CONTINUOUS
 10
180.9731473757
 20
103.8166070248
 11
163.5045869581
 21
93.7284878414
  0
LINE
  5
428
100
AcDbEntity
  8
7_ALL_ROUNDS
100
AcDbLine
 62
7
  6
CONTINUOUS
 10
180.9285170838
 20
103.7179472325
 11
163.4599566662
 21
93.6298280491
  0
LINE
  5
429
100
AcDbEntity
  8
7_ALL_ROUNDS
100
AcDbLine
 62
7
  6
CONTINUOUS
 10
178.7425044315
 20
106.7104555796
 11
178.7425044315
 21
112.2583100915
  0
LINE
  5
42A
100
AcDbEntity
  8
7_ALL_ROUNDS
100
AcDbLine
 62
7
  6
CONTINUOUS
 10
178.891905066
 20
106.8213872147
 11
178.891905066
 21
112.3762821511
  0
LINE
  5
42B
100
AcDbEntity
  8
7_ALL_ROUNDS
100
AcDbLine
 62
7
  6
CONTINUOUS
 10
178.9955708125
 20
106.7615200945
 11
178.9955708125
 21
112.3164150309
  0
LINE
  5
42C
100
AcDbEntity
  8
7_ALL_ROUNDS
100
AcDbLine
 62
7
  6
CONTINUOUS
 10
180.9731473757
 20
117.5454348144
 11
180.9731473757
 21
103.8166070248
  0
LINE
  5
42D
100
AcDbEntity
  8
7_ALL_ROUNDS
100
AcDbLine
 62
7
  6
CONTINUOUS
 10
181.0362940789
 20
117.6334746969
 11
181.0362940789
 21
103.9046469074
  0
LINE
  5
42E
100
AcDbEntity
  8
7_ALL_ROUNDS
100
AcDbLine
 62
7
  6
CONTINUOUS
 10
14.031337734
 20
73.6240557058
 11
14.031337734
 21
54.1240557058
  0
LINE
  5
42F
100
AcDbEntity
  8
7_ALL_ROUNDS
100
AcDbLine
 62
7
  6
CONTINUOUS
 10
14.741337734
 20
53.8740557058
 11
14.741337734
 21
73.8740557058
  0
LINE
  5
430
100
AcDbEntity
  8
3_ALL_AXES
100
AcDbLine
 62
7
  6
CONTINUOUS
 10
15.719337734
 20
53.8740557058
 11
15.719337734
 21
53.1240557058
  0
LINE
  5
431
100
AcDbEntity
  8
3_ALL_AXES
100
AcDbLine
 62
7
  6
CONTINUOUS
 10
17.719337734
 20
53.8740557058
 11
17.719337734
 21
53.1240557058
  0
LINE
  5
432
100
AcDbEntity
  8
3_ALL_AXES
100
AcDbLine
 62
7
  6
CONTINUOUS
 10
59.531337734
 20
53.1240557058
 11
57.531337734
 21
53.1240557058
  0
LINE
  5
433
100
AcDbEntity
  8
3_ALL_AXES
100
AcDbLine
 62
7
  6
CONTINUOUS
 10
17.719337734
 20
53.1240557058
 11
15.719337734
 21
53.1240557058
  0
LINE
  5
434
100
AcDbEntity
  8
7_ALL_ROUNDS
100
AcDbLine
 62
7
  6
CONTINUOUS
 10
14.281337734
 20
53.8740557058
 11
60.969337734
 21
53.8740557058
  0
LINE
  5
435
100
AcDbEntity
  8
3_AXES_OTHER
100
AcDbLine
 62
7
  6
CONTINUOUS
 10
34.270337734
 20
54.5840557058
 11
37.270337734
 21
54.5840557058
  0
LINE
  5
436
100
AcDbEntity
  8
3_AXES_OTHER
100
AcDbLine
 62
7
  6
CONTINUOUS
 10
37.980337734
 20
54.5840557058
 11
40.980337734
 21
54.5840557058
  0
LINE
  5
437
100
AcDbEntity
  8
3_AXES_OTHER
100
AcDbLine
 62
7
  6
CONTINUOUS
 10
34.270337734
 20
73.1640557058
 11
34.270337734
 21
54.5840557058
  0
LINE
  5
438
100
AcDbEntity
  8
3_AXES_OTHER
100
AcDbLine
 62
7
  6
CONTINUOUS
 10
37.270337734
 20
54.5840557058
 11
37.270337734
 21
73.1640557058
  0
LINE
  5
439
100
AcDbEntity
  8
3_ALL_AXES
100
AcDbLine
 62
7
  6
CENTER
 10
37.625337734
 20
63.8740557058
 11
37.625337734
 21
52.8458598007
  0
LINE
  5
43A
100
AcDbEntity
  8
3_ALL_AXES
100
AcDbLine
 62
7
  6
CENTER
 10
37.625337734
 20
63.8740557058
 11
37.625337734
 21
74.574575497
  0
LINE
  5
43B
100
AcDbEntity
  8
3_AXES_OTHER
100
AcDbLine
 62
7
  6
CONTINUOUS
 10
37.980337734
 20
73.1640557058
 11
37.980337734
 21
54.5840557058
  0
LINE
  5
43C
100
AcDbEntity
  8
3_ALL_AXES
100
AcDbLine
 62
7
  6
CENTER
 10
37.625337734
 20
63.8740557058
 11
12.7340737299
 21
63.8740557058
  0
LINE
  5
43D
100
AcDbEntity
  8
3_ALL_AXES
100
AcDbLine
 62
7
  6
CENTER
 10
37.625337734
 20
63.8740557058
 11
62.546939753
 21
63.8740557058
  0
LINE
  5
43E
100
AcDbEntity
  8
3_AXES_OTHER
100
AcDbLine
 62
7
  6
CONTINUOUS
 10
40.980337734
 20
54.5840557058
 11
40.980337734
 21
73.1640557058
  0
LINE
  5
43F
100
AcDbEntity
  8
3_AXES_OTHER
100
AcDbLine
 62
7
  6
CONTINUOUS
 10
40.980337734
 20
73.1640557058
 11
37.980337734
 21
73.1640557058
  0
LINE
  5
440
100
AcDbEntity
  8
3_AXES_OTHER
100
AcDbLine
 62
7
  6
CONTINUOUS
 10
37.270337734
 20
73.1640557058
 11
34.270337734
 21
73.1640557058
  0
LINE
  5
441
100
AcDbEntity
  8
7_ALL_ROUNDS
100
AcDbLine
 62
7
  6
CONTINUOUS
 10
14.281337734
 20
73.8740557058
 11
60.969337734
 21
73.8740557058
  0
LINE
  5
442
100
AcDbEntity
  8
3_ALL_AXES
100
AcDbLine
 62
7
  6
CONTINUOUS
 10
57.531337734
 20
53.8740557058
 11
57.531337734
 21
53.1240557058
  0
LINE
  5
443
100
AcDbEntity
  8
3_ALL_AXES
100
AcDbLine
 62
7
  6
CONTINUOUS
 10
59.531337734
 20
53.8740557058
 11
59.531337734
 21
53.1240557058
  0
LINE
  5
444
100
AcDbEntity
  8
7_ALL_ROUNDS
100
AcDbLine
 62
7
  6
CONTINUOUS
 10
60.509337734
 20
53.8740557058
 11
60.509337734
 21
73.8740557058
  0
LINE
  5
445
100
AcDbEntity
  8
7_ALL_ROUNDS
100
AcDbLine
 62
7
  6
CONTINUOUS
 10
61.219337734
 20
54.1240557058
 11
61.219337734
 21
73.6240557058
  0
LINE
  5
446
100
AcDbEntity
  8
7_ALL_ROUNDS
100
AcDbLine
 62
7
  6
CONTINUOUS
 10
14.031337734
 20
136.2222615057
 11
14.031337734
 21
106.7222615057
  0
LINE
  5
447
100
AcDbEntity
  8
7_ALL_ROUNDS
100
AcDbLine
 62
7
  6
CONTINUOUS
 10
14.741337734
 20
106.4722615057
 11
14.741337734
 21
107.5758148963
  0
LINE
  5
448
100
AcDbEntity
  8
3_ALL_AXES
100
AcDbLine
 62
7
  6
CENTER
 10
15.665037734
 20
130.9722615057
 11
15.665037734
 21
129.839830313
  0
LINE
  5
449
100
AcDbEntity
  8
3_ALL_AXES
100
AcDbLine
 62
7
  6
CENTER
 10
15.665037734
 20
112.4722615057
 11
15.665037734
 21
111.339830313
  0
LINE
  5
44A
100
AcDbEntity
  8
3_ALL_AXES
100
AcDbLine
 62
7
  6
CENTER
 10
15.665037734
 20
112.4722615057
 11
15.665037734
 21
113.6046926983
  0
LINE
  5
44B
100
AcDbEntity
  8
3_ALL_AXES
100
AcDbLine
 62
7
  6
CENTER
 10
15.665037734
 20
130.9722615057
 11
15.665037734
 21
132.1046926983
  0
LINE
  5
44C
100
AcDbEntity
  8
7_ALL_ROUNDS
100
AcDbLine
 62
7
  6
CONTINUOUS
 10
60.969337734
 20
106.4722615057
 11
60.509337734
 21
106.4722615057
  0
LINE
  5
44D
100
AcDbEntity
  8
7_ALL_ROUNDS
100
AcDbLine
 62
7
  6
CONTINUOUS
 10
14.741337734
 20
106.4722615057
 11
14.281337734
 21
106.4722615057
  0
LINE
  5
44E
100
AcDbEntity
  8
7_ALL_ROUNDS
100
AcDbLine
 62
7
  6
CONTINUOUS
 10
14.741337734
 20
107.4872615057
 11
60.509337734
 21
107.4872615057
  0
LINE
  5
44F
100
AcDbEntity
  8
3_ALL_AXES
100
AcDbLine
 62
7
  6
CENTER
 10
59.585637734
 20
112.4722615057
 11
58.4532065414
 21
112.4722615057
  0
LINE
  5
450
100
AcDbEntity
  8
3_ALL_AXES
100
AcDbLine
 62
7
  6
CENTER
 10
15.665037734
 20
112.4722615057
 11
14.5326065414
 21
112.4722615057
  0
LINE
  5
451
100
AcDbEntity
  8
3_ALL_AXES
100
AcDbLine
 62
7
  6
CENTER
 10
15.665037734
 20
112.4722615057
 11
16.7974689267
 21
112.4722615057
  0
LINE
  5
452
100
AcDbEntity
  8
3_ALL_AXES
100
AcDbLine
 62
7
  6
CENTER
 10
59.585637734
 20
112.4722615057
 11
60.7180689267
 21
112.4722615057
  0
LINE
  5
453
100
AcDbEntity
  8
3_ALL_AXES
100
AcDbLine
 62
7
  6
CENTER
 10
37.625337734
 20
105.554830313
 11
37.625337734
 21
137.3896926983
  0
LINE
  5
454
100
AcDbEntity
  8
3_ALL_AXES
100
AcDbLine
 62
7
  6
CENTER
 10
37.625337734
 20
120.7222615057
 11
35.6957058339
 21
120.7222615057
  0
LINE
  5
455
100
AcDbEntity
  8
3_ALL_AXES
100
AcDbLine
 62
7
  6
CENTER
 10
37.625337734
 20
120.7222615057
 11
39.4719520577
 21
120.7222615057
  0
LINE
  5
456
100
AcDbEntity
  8
3_ALL_AXES
100
AcDbLine
 62
7
  6
CENTER
 10
59.585637734
 20
130.9722615057
 11
58.4532065414
 21
130.9722615057
  0
LINE
  5
457
100
AcDbEntity
  8
3_ALL_AXES
100
AcDbLine
 62
7
  6
CENTER
 10
15.665037734
 20
130.9722615057
 11
14.5326065414
 21
130.9722615057
  0
LINE
  5
458
100
AcDbEntity
  8
3_ALL_AXES
100
AcDbLine
 62
7
  6
CENTER
 10
15.665037734
 20
130.9722615057
 11
16.7974689267
 21
130.9722615057
  0
LINE
  5
459
100
AcDbEntity
  8
3_ALL_AXES
100
AcDbLine
 62
7
  6
CENTER
 10
59.585637734
 20
130.9722615057
 11
60.7180689267
 21
130.9722615057
  0
LINE
  5
45A
100
AcDbEntity
  8
7_ALL_ROUNDS
100
AcDbLine
 62
7
  6
CONTINUOUS
 10
60.969337734
 20
136.4722615057
 11
14.281337734
 21
136.4722615057
  0
LINE
  5
45B
100
AcDbEntity
  8
3_ALL_AXES
100
AcDbLine
 62
7
  6
CENTER
 10
59.585637734
 20
130.9722615057
 11
59.585637734
 21
129.839830313
  0
LINE
  5
45C
100
AcDbEntity
  8
3_ALL_AXES
100
AcDbLine
 62
7
  6
CENTER
 10
59.585637734
 20
112.4722615057
 11
59.585637734
 21
111.339830313
  0
LINE
  5
45D
100
AcDbEntity
  8
3_ALL_AXES
100
AcDbLine
 62
7
  6
CENTER
 10
59.585637734
 20
112.4722615057
 11
59.585637734
 21
113.6046926983
  0
LINE
  5
45E
100
AcDbEntity
  8
3_ALL_AXES
100
AcDbLine
 62
7
  6
CENTER
 10
59.585637734
 20
130.9722615057
 11
59.585637734
 21
132.1046926983
  0
LINE
  5
45F
100
AcDbEntity
  8
7_ALL_ROUNDS
100
AcDbLine
 62
7
  6
CONTINUOUS
 10
60.509337734
 20
106.4722615057
 11
60.509337734
 21
107.5758148963
  0
LINE
  5
460
100
AcDbEntity
  8
7_ALL_ROUNDS
100
AcDbLine
 62
7
  6
CONTINUOUS
 10
61.219337734
 20
106.7222615057
 11
61.219337734
 21
136.2222615057
  0
LINE
  5
461
100
AcDbEntity
  8
7_ALL_ROUNDS
100
AcDbLine
 62
7
  6
CONTINUOUS
 10
82.2726729919
 20
72.9472790105
 11
83.1262263825
 21
73.8008324011
  0
LINE
  5
462
100
AcDbEntity
  8
7_ALL_ROUNDS
100
AcDbLine
 62
7
  6
CONTINUOUS
 10
83.1262263825
 20
53.9472790105
 11
82.2726729919
 21
54.8008324011
  0
LINE
  5
463
100
AcDbEntity
  8
7_ALL_ROUNDS
100
AcDbLine
 62
7
  6
CONTINUOUS
 10
82.1994496872
 20
54.9776090964
 11
82.1994496872
 21
72.7705023152
  0
LINE
  5
464
100
AcDbEntity
  8
7_ALL_ROUNDS
100
AcDbLine
 62
7
  6
CONTINUOUS
 10
83.2144496872
 20
53.8740557058
 11
83.2144496872
 21
53.8902645661
  0
LINE
  5
465
100
AcDbEntity
  8
7_ALL_ROUNDS
100
AcDbLine
 62
7
  6
CONTINUOUS
 10
83.2144496872
 20
73.8578468455
 11
83.2144496872
 21
73.8740557058
  0
LINE
  5
466
100
AcDbEntity
  8
3_ALL_AXES
100
AcDbLine
 62
7
  6
CONTINUOUS
 10
84.2144496872
 20
53.8740557058
 11
84.2144496872
 21
53.1240557058
  0
LINE
  5
467
100
AcDbEntity
  8
7_ALL_ROUNDS
100
AcDbLine
 62
7
  6
CONTINUOUS
 10
85.6924496872
 20
67.8190557058
 11
85.6924496872
 21
59.9290557058
  0
LINE
  5
468
100
AcDbEntity
  8
7_ALL_ROUNDS
100
AcDbLine
 62
7
  6
CONTINUOUS
 10
85.9774496872
 20
67.8140557058
 11
85.9774496872
 21
59.9340557058
  0
LINE
  5
469
100
AcDbEntity
  8
3_ALL_AXES
100
AcDbLine
 62
7
  6
CONTINUOUS
 10
86.2144496872
 20
53.8740557058
 11
86.2144496872
 21
53.1240557058
  0
LINE
  5
46A
100
AcDbEntity
  8
3_ALL_AXES
100
AcDbLine
 62
7
  6
CONTINUOUS
 10
87.0424496872
 20
60.5615557058
 11
87.0424496872
 21
67.1865557058
  0
LINE
  5
46B
100
AcDbEntity
  8
3_ALL_AXES
100
AcDbLine
 62
7
  6
CONTINUOUS
 10
110.5264496872
 20
53.1240557058
 11
108.5264496872
 21
53.1240557058
  0
LINE
  5
46C
100
AcDbEntity
  8
3_ALL_AXES
100
AcDbLine
 62
7
  6
CONTINUOUS
 10
86.2144496872
 20
53.1240557058
 11
84.2144496872
 21
53.1240557058
  0
LINE
  5
46D
100
AcDbEntity
  8
7_ALL_ROUNDS
100
AcDbLine
 62
7
  6
CONTINUOUS
 10
111.9494496872
 20
53.8740557058
 11
83.2144496872
 21
53.8740557058
  0
LINE
  5
46E
100
AcDbEntity
  8
3_ALL_AXES
100
AcDbLine
 62
7
  6
CENTER
 10
88.1994496872
 20
72.2490557058
 11
88.1994496872
 21
71.1166245131
  0
LINE
  5
46F
100
AcDbEntity
  8
3_ALL_AXES
100
AcDbLine
 62
7
  6
CENTER
 10
88.1994496872
 20
55.4990557058
 11
88.1994496872
 21
54.3666245131
  0
LINE
  5
470
100
AcDbEntity
  8
3_ALL_AXES
100
AcDbLine
 62
7
  6
CENTER
 10
88.1994496872
 20
55.4990557058
 11
88.1994496872
 21
56.6314868984
  0
LINE
  5
471
100
AcDbEntity
  8
3_ALL_AXES
100
AcDbLine
 62
7
  6
CENTER
 10
88.1994496872
 20
72.2490557058
 11
88.1994496872
 21
73.3814868984
  0
LINE
  5
472
100
AcDbEntity
  8
3_ALL_AXES
100
AcDbLine
 62
7
  6
CENTER
 10
89.1674496872
 20
68.4990557058
 11
89.1674496872
 21
58.2290021718
  0
LINE
  5
473
100
AcDbEntity
  8
3_ALL_AXES
100
AcDbLine
 62
7
  6
CENTER
 10
89.1674496872
 20
68.4990557058
 11
89.1674496872
 21
69.4165868984
  0
LINE
  5
474
100
AcDbEntity
  8
3_ALL_AXES
100
AcDbLine
 62
7
  6
CENTER
 10
106.6994496872
 20
55.4990557058
 11
105.5670184946
 21
55.4990557058
  0
LINE
  5
475
100
AcDbEntity
  8
3_ALL_AXES
100
AcDbLine
 62
7
  6
CENTER
 10
88.1994496872
 20
55.4990557058
 11
87.0670184946
 21
55.4990557058
  0
LINE
  5
476
100
AcDbEntity
  8
3_ALL_AXES
100
AcDbLine
 62
7
  6
CENTER
 10
88.1994496872
 20
55.4990557058
 11
89.3318808799
 21
55.4990557058
  0
LINE
  5
477
100
AcDbEntity
  8
3_ALL_AXES
100
AcDbLine
 62
7
  6
CENTER
 10
106.6994496872
 20
55.4990557058
 11
107.8318808799
 21
55.4990557058
  0
LINE
  5
478
100
AcDbEntity
  8
3_ALL_AXES
100
AcDbLine
 62
7
  6
CONTINUOUS
 10
91.2924496872
 20
60.5615557058
 11
91.2924496872
 21
67.1865557058
  0
LINE
  5
479
100
AcDbEntity
  8
7_ALL_ROUNDS
100
AcDbLine
 62
7
  6
CONTINUOUS
 10
92.3574496872
 20
59.9340557058
 11
92.3574496872
 21
67.8140557058
  0
LINE
  5
47A
100
AcDbEntity
  8
7_ALL_ROUNDS
100
AcDbLine
 62
7
  6
CONTINUOUS
 10
92.6424496872
 20
59.9290557058
 11
92.6424496872
 21
67.8190557058
  0
LINE
  5
47B
100
AcDbEntity
  8
7_ALL_ROUNDS
100
AcDbLine
 62
7
  6
CONTINUOUS
 10
86.3724496872
 20
59.2490557058
 11
91.9624496872
 21
59.2490557058
  0
LINE
  5
47C
100
AcDbEntity
  8
7_ALL_ROUNDS
100
AcDbLine
 62
7
  6
CONTINUOUS
 10
102.4364496872
 20
59.2490557058
 11
108.0264496872
 21
59.2490557058
  0
LINE
  5
47D
100
AcDbEntity
  8
7_ALL_ROUNDS
100
AcDbLine
 62
7
  6
CONTINUOUS
 10
86.3674496872
 20
59.5440557058
 11
91.9674496872
 21
59.5440557058
  0
LINE
  5
47E
100
AcDbEntity
  8
7_ALL_ROUNDS
100
AcDbLine
 62
7
  6
CONTINUOUS
 10
102.4314496872
 20
59.5440557058
 11
108.0314496872
 21
59.5440557058
  0
LINE
  5
47F
100
AcDbEntity
  8
3_ALL_AXES
100
AcDbLine
 62
7
  6
CONTINUOUS
 10
107.3564496872
 20
60.5615557058
 11
103.1064496872
 21
60.5615557058
  0
LINE
  5
480
100
AcDbEntity
  8
3_ALL_AXES
100
AcDbLine
 62
7
  6
CONTINUOUS
 10
91.2924496872
 20
60.5615557058
 11
87.0424496872
 21
60.5615557058
  0
LINE
  5
481
100
AcDbEntity
  8
3_ALL_AXES
100
AcDbLine
 62
7
  6
CONTINUOUS
 10
107.3564496872
 20
62.8040557058
 11
103.1064496872
 21
62.8040557058
  0
LINE
  5
482
100
AcDbEntity
  8
3_ALL_AXES
100
AcDbLine
 62
7
  6
CONTINUOUS
 10
91.2924496872
 20
62.8040557058
 11
87.0424496872
 21
62.8040557058
  0
LINE
  5
483
100
AcDbEntity
  8
3_ALL_AXES
100
AcDbLine
 62
7
  6
CENTER
 10
86.1250184946
 20
63.3040557058
 11
92.2098808799
 21
63.3040557058
  0
LINE
  5
484
100
AcDbEntity
  8
3_ALL_AXES
100
AcDbLine
 62
7
  6
CENTER
 10
102.1890184946
 20
63.3040557058
 11
108.2738808799
 21
63.3040557058
  0
LINE
  5
485
100
AcDbEntity
  8
3_ALL_AXES
100
AcDbLine
 62
7
  6
CONTINUOUS
 10
107.3564496872
 20
63.8040557058
 11
103.1064496872
 21
63.8040557058
  0
LINE
  5
486
100
AcDbEntity
  8
3_ALL_AXES
100
AcDbLine
 62
7
  6
CONTINUOUS
 10
91.2924496872
 20
63.8040557058
 11
87.0424496872
 21
63.8040557058
  0
LINE
  5
487
100
AcDbEntity
  8
3_ALL_AXES
100
AcDbLine
 62
7
  6
CENTER
 10
81.2820184946
 20
63.8740557058
 11
113.1168808799
 21
63.8740557058
  0
LINE
  5
488
100
AcDbEntity
  8
3_ALL_AXES
100
AcDbLine
 62
7
  6
CONTINUOUS
 10
107.3564496872
 20
67.1865557058
 11
103.1064496872
 21
67.1865557058
  0
LINE
  5
489
100
AcDbEntity
  8
3_ALL_AXES
100
AcDbLine
 62
7
  6
CONTINUOUS
 10
91.2924496872
 20
67.1865557058
 11
87.0424496872
 21
67.1865557058
  0
LINE
  5
48A
100
AcDbEntity
  8
7_ALL_ROUNDS
100
AcDbLine
 62
7
  6
CONTINUOUS
 10
101.7564496872
 20
67.8190557058
 11
101.7564496872
 21
59.9290557058
  0
LINE
  5
48B
100
AcDbEntity
  8
7_ALL_ROUNDS
100
AcDbLine
 62
7
  6
CONTINUOUS
 10
102.0414496872
 20
67.8140557058
 11
102.0414496872
 21
59.9340557058
  0
LINE
  5
48C
100
AcDbEntity
  8
7_ALL_ROUNDS
100
AcDbLine
 62
7
  6
CONTINUOUS
 10
108.0314496872
 20
68.2040557058
 11
102.4314496872
 21
68.2040557058
  0
LINE
  5
48D
100
AcDbEntity
  8
7_ALL_ROUNDS
100
AcDbLine
 62
7
  6
CONTINUOUS
 10
91.9674496872
 20
68.2040557058
 11
86.3674496872
 21
68.2040557058
  0
LINE
  5
48E
100
AcDbEntity
  8
7_ALL_ROUNDS
100
AcDbLine
 62
7
  6
CONTINUOUS
 10
108.0264496872
 20
68.4990557058
 11
102.4364496872
 21
68.4990557058
  0
LINE
  5
48F
100
AcDbEntity
  8
7_ALL_ROUNDS
100
AcDbLine
 62
7
  6
CONTINUOUS
 10
91.9624496872
 20
68.4990557058
 11
86.3724496872
 21
68.4990557058
  0
LINE
  5
490
100
AcDbEntity
  8
3_ALL_AXES
100
AcDbLine
 62
7
  6
CONTINUOUS
 10
103.1064496872
 20
60.5615557058
 11
103.1064496872
 21
67.1865557058
  0
LINE
  5
491
100
AcDbEntity
  8
3_ALL_AXES
100
AcDbLine
 62
7
  6
CENTER
 10
105.2314496872
 20
68.4990557058
 11
105.2314496872
 21
58.2923418075
  0
LINE
  5
492
100
AcDbEntity
  8
3_ALL_AXES
100
AcDbLine
 62
7
  6
CENTER
 10
105.2314496872
 20
68.4990557058
 11
105.2314496872
 21
69.4165868984
  0
LINE
  5
493
100
AcDbEntity
  8
3_ALL_AXES
100
AcDbLine
 62
7
  6
CENTER
 10
106.6994496872
 20
72.2490557058
 11
106.6994496872
 21
71.1166245131
  0
LINE
  5
494
100
AcDbEntity
  8
3_ALL_AXES
100
AcDbLine
 62
7
  6
CENTER
 10
106.6994496872
 20
55.4990557058
 11
106.6994496872
 21
54.3666245131
  0
LINE
  5
495
100
AcDbEntity
  8
3_ALL_AXES
100
AcDbLine
 62
7
  6
CENTER
 10
106.6994496872
 20
55.4990557058
 11
106.6994496872
 21
56.6314868984
  0
LINE
  5
496
100
AcDbEntity
  8
3_ALL_AXES
100
AcDbLine
 62
7
  6
CENTER
 10
106.6994496872
 20
72.2490557058
 11
106.6994496872
 21
73.3814868984
  0
LINE
  5
497
100
AcDbEntity
  8
3_ALL_AXES
100
AcDbLine
 62
7
  6
CENTER
 10
106.6994496872
 20
72.2490557058
 11
105.5670184946
 21
72.2490557058
  0
LINE
  5
498
100
AcDbEntity
  8
3_ALL_AXES
100
AcDbLine
 62
7
  6
CENTER
 10
88.1994496872
 20
72.2490557058
 11
87.0670184946
 21
72.2490557058
  0
LINE
  5
499
100
AcDbEntity
  8
3_ALL_AXES
100
AcDbLine
 62
7
  6
CENTER
 10
88.1994496872
 20
72.2490557058
 11
89.3318808799
 21
72.2490557058
  0
LINE
  5
49A
100
AcDbEntity
  8
3_ALL_AXES
100
AcDbLine
 62
7
  6
CENTER
 10
106.6994496872
 20
72.2490557058
 11
107.8318808799
 21
72.2490557058
  0
LINE
  5
49B
100
AcDbEntity
  8
3_ALL_AXES
100
AcDbLine
 62
7
  6
CONTINUOUS
 10
107.3564496872
 20
60.5615557058
 11
107.3564496872
 21
67.1865557058
  0
LINE
  5
49C
100
AcDbEntity
  8
7_ALL_ROUNDS
100
AcDbLine
 62
7
  6
CONTINUOUS
 10
83.2144496872
 20
73.8740557058
 11
111.9494496872
 21
73.8740557058
  0
LINE
  5
49D
100
AcDbEntity
  8
7_ALL_ROUNDS
100
AcDbLine
 62
7
  6
CONTINUOUS
 10
108.4214496872
 20
59.9340557058
 11
108.4214496872
 21
67.8140557058
  0
LINE
  5
49E
100
AcDbEntity
  8
3_ALL_AXES
100
AcDbLine
 62
7
  6
CONTINUOUS
 10
108.5264496872
 20
53.8740557058
 11
108.5264496872
 21
53.1240557058
  0
LINE
  5
49F
100
AcDbEntity
  8
7_ALL_ROUNDS
100
AcDbLine
 62
7
  6
CONTINUOUS
 10
108.7064496872
 20
59.9290557058
 11
108.7064496872
 21
67.8190557058
  0
LINE
  5
4A0
100
AcDbEntity
  8
3_ALL_AXES
100
AcDbLine
 62
7
  6
CONTINUOUS
 10
110.5264496872
 20
53.8740557058
 11
110.5264496872
 21
53.1240557058
  0
LINE
  5
4A1
100
AcDbEntity
  8
7_ALL_ROUNDS
100
AcDbLine
 62
7
  6
CONTINUOUS
 10
112.1994496872
 20
73.6240557058
 11
112.1994496872
 21
54.1240557058
  0
LINE
  5
4A2
100
AcDbEntity
  8
7_ALL_ROUNDS
100
AcDbLine
 62
7
  6
CONTINUOUS
 10
142.2124766716
 20
73.6240557058
 11
142.2124766716
 21
54.1240557058
  0
LINE
  5
4A3
100
AcDbEntity
  8
3_ALL_AXES
100
AcDbLine
 62
7
  6
CONTINUOUS
 10
143.9004766716
 20
53.8740557058
 11
143.9004766716
 21
53.1240557058
  0
LINE
  5
4A4
100
AcDbEntity
  8
3_ALL_AXES
100
AcDbLine
 62
7
  6
CONTINUOUS
 10
145.9004766716
 20
53.8740557058
 11
145.9004766716
 21
53.1240557058
  0
LINE
  5
4A5
100
AcDbEntity
  8
7_ALL_ROUNDS
100
AcDbLine
 62
7
  6
CONTINUOUS
 10
155.1314766716
 20
60.6240557058
 11
155.1314766716
 21
57.1240557058
  0
LINE
  5
4A6
100
AcDbEntity
  8
3_ALL_AXES
100
AcDbLine
 62
7
  6
CONTINUOUS
 10
187.7124766716
 20
53.1240557058
 11
185.7124766716
 21
53.1240557058
  0
LINE
  5
4A7
100
AcDbEntity
  8
3_ALL_AXES
100
AcDbLine
 62
7
  6
CONTINUOUS
 10
145.9004766716
 20
53.1240557058
 11
143.9004766716
 21
53.1240557058
  0
LINE
  5
4A8
100
AcDbEntity
  8
3_AXES_OTHER
100
AcDbLine
 62
7
  6
CONTINUOUS
 10
156.4814766716
 20
58.9390557058
 11
156.4814766716
 21
58.8090557058
  0
LINE
  5
4A9
100
AcDbEntity
  8
3_AXES_OTHER
100
AcDbLine
 62
7
  6
CONTINUOUS
 10
157.3014766716
 20
58.8090557058
 11
157.3014766716
 21
58.9390557058
  0
LINE
  5
4AA
100
AcDbEntity
  8
7_ALL_ROUNDS
100
AcDbLine
 62
7
  6
CONTINUOUS
 10
189.1504766716
 20
53.8740557058
 11
142.4624766716
 21
53.8740557058
  0
LINE
  5
4AB
100
AcDbEntity
  8
3_AXES_OTHER
100
AcDbLine
 62
7
  6
CONTINUOUS
 10
158.5114766716
 20
58.9390557058
 11
158.5114766716
 21
58.8090557058
  0
LINE
  5
4AC
100
AcDbEntity
  8
3_AXES_OTHER
100
AcDbLine
 62
7
  6
CONTINUOUS
 10
159.3314766716
 20
58.8090557058
 11
159.3314766716
 21
58.9390557058
  0
LINE
  5
4AD
100
AcDbEntity
  8
7_ALL_ROUNDS
100
AcDbLine
 62
7
  6
CONTINUOUS
 10
160.6814766716
 20
57.1240557058
 11
160.6814766716
 21
60.6240557058
  0
LINE
  5
4AE
100
AcDbEntity
  8
7_ALL_ROUNDS
100
AcDbLine
 62
7
  6
CONTINUOUS
 10
155.3814766716
 20
56.8740557058
 11
160.4314766716
 21
56.8740557058
  0
LINE
  5
4AF
100
AcDbEntity
  8
3_AXES_OTHER
100
AcDbLine
 62
7
  6
CONTINUOUS
 10
156.4814766716
 20
58.8090557058
 11
156.5475653458
 21
58.8090557058
  0
LINE
  5
4B0
100
AcDbEntity
  8
3_AXES_OTHER
100
AcDbLine
 62
7
  6
CONTINUOUS
 10
157.2353879973
 20
58.8090557058
 11
157.3014766716
 21
58.8090557058
  0
LINE
  5
4B1
100
AcDbEntity
  8
3_AXES_OTHER
100
AcDbLine
 62
7
  6
CONTINUOUS
 10
158.5114766716
 20
58.8090557058
 11
158.5775653458
 21
58.8090557058
  0
LINE
  5
4B2
100
AcDbEntity
  8
3_AXES_OTHER
100
AcDbLine
 62
7
  6
CONTINUOUS
 10
159.2653879973
 20
58.8090557058
 11
159.3314766716
 21
58.8090557058
  0
LINE
  5
4B3
100
AcDbEntity
  8
3_AXES_OTHER
100
AcDbLine
 62
7
  6
CONTINUOUS
 10
159.3314766716
 20
58.9390557058
 11
159.2653879973
 21
58.9390557058
  0
LINE
  5
4B4
100
AcDbEntity
  8
3_AXES_OTHER
100
AcDbLine
 62
7
  6
CONTINUOUS
 10
158.5775653458
 20
58.9390557058
 11
158.5114766716
 21
58.9390557058
  0
LINE
  5
4B5
100
AcDbEntity
  8
3_AXES_OTHER
100
AcDbLine
 62
7
  6
CONTINUOUS
 10
157.3014766716
 20
58.9390557058
 11
157.2353879973
 21
58.9390557058
  0
LINE
  5
4B6
100
AcDbEntity
  8
3_AXES_OTHER
100
AcDbLine
 62
7
  6
CONTINUOUS
 10
156.5475653458
 20
58.9390557058
 11
156.4814766716
 21
58.9390557058
  0
LINE
  5
4B7
100
AcDbEntity
  8
7_ALL_ROUNDS
100
AcDbLine
 62
7
  6
CONTINUOUS
 10
160.4314766716
 20
60.8740557058
 11
155.3814766716
 21
60.8740557058
  0
LINE
  5
4B8
100
AcDbEntity
  8
7_ALL_ROUNDS
100
AcDbLine
 62
7
  6
CONTINUOUS
 10
142.4624766716
 20
73.8740557058
 11
189.1504766716
 21
73.8740557058
  0
LINE
  5
4B9
100
AcDbEntity
  8
3_ALL_AXES
100
AcDbLine
 62
7
  6
CONTINUOUS
 10
185.7124766716
 20
53.8740557058
 11
185.7124766716
 21
53.1240557058
  0
LINE
  5
4BA
100
AcDbEntity
  8
3_ALL_AXES
100
AcDbLine
 62
7
  6
CONTINUOUS
 10
187.7124766716
 20
53.8740557058
 11
187.7124766716
 21
53.1240557058
  0
LINE
  5
4BB
100
AcDbEntity
  8
7_ALL_ROUNDS
100
AcDbLine
 62
7
  6
CONTINUOUS
 10
189.4004766716
 20
73.6240557058
 11
189.4004766716
 21
54.1240557058
  0
ARC
  5
4BC
100
AcDbEntity
  8
3_ALL_AXES
100
AcDbCircle
 62
7
  6
CONTINUOUS
 10
137.2485507401
 20
112.9646564698
 40
7.8806301197
100
AcDbArc
 50
56.1775327089
 51
59.9350446946
  0
ARC
  5
4BD
100
AcDbEntity
  8
3_ALL_AXES
100
AcDbCircle
 62
7
  6
CONTINUOUS
 10
153.0647432728
 20
104.0126863048
 40
7.7231031942
100
AcDbArc
 50
56.1391978536
 51
59.9733795499
  0
ARC
  5
4BE
100
AcDbEntity
  8
3_ALL_AXES
100
AcDbCircle
 62
7
  6
CONTINUOUS
 10
138.3408790097
 20
113.5881159173
 40
6.3824599932
100
AcDbArc
 50
58.9466090668
 51
59.9887764786
  0
ARC
  5
4BF
100
AcDbEntity
  8
3_ALL_AXES
100
AcDbCircle
 62
7
  6
CONTINUOUS
 10
154.0930482523
 20
104.5352362081
 40
6.3443391128
100
AcDbArc
 50
58.9434040948
 51
59.9919137186
  0
ARC
  5
4C0
100
AcDbEntity
  8
3_ALL_AXES
100
AcDbCircle
 62
7
  6
CONTINUOUS
 10
144.6041120109
 20
113.5828248102
 40
6.1403388188
100
AcDbArc
 50
239.991908902
 51
241.1993124962
  0
ARC
  5
4C1
100
AcDbEntity
  8
3_ALL_AXES
100
AcDbCircle
 62
7
  6
CONTINUOUS
 10
154.3150581281
 20
105.1496374848
 40
6.1131466316
100
AcDbArc
 50
62.2377520086
 51
64.8845635407
  0
ARC
  5
4C2
100
AcDbEntity
  8
3_ALL_AXES
100
AcDbCircle
 62
7
  6
CONTINUOUS
 10
138.5822566076
 20
114.2353533673
 40
6.1131466315
100
AcDbArc
 50
62.2377520086
 51
64.8845635407
  0
ARC
  5
4C3
100
AcDbEntity
  8
3_ALL_AXES
100
AcDbCircle
 62
7
  6
CONTINUOUS
 10
160.3207755925
 20
104.4684780176
 40
6.1074748118
100
AcDbArc
 50
239.9886795831
 51
241.2026909495
  0
ARC
  5
4C4
100
AcDbEntity
  8
3_ALL_AXES
100
AcDbCircle
 62
7
  6
CONTINUOUS
 10
142.231395319
 20
110.7285211501
 40
4.0797751618
100
AcDbArc
 50
342.6730008686
 51
347.2248461609
  0
ARC
  5
4C5
100
AcDbEntity
  8
3_ALL_AXES
100
AcDbCircle
 62
7
  6
CONTINUOUS
 10
157.965629385
 20
101.6424481731
 40
4.0782989955
100
AcDbArc
 50
342.6458206596
 51
347.2212171802
  0
ARC
  5
4C6
100
AcDbEntity
  8
3_ALL_AXES
100
AcDbCircle
 62
7
  6
CONTINUOUS
 10
143.8444610131
 20
111.2689743099
 40
3.6896428464
100
AcDbArc
 50
258.5540949884
 51
259.5720427104
  0
ARC
  5
4C7
100
AcDbEntity
  8
3_ALL_AXES
100
AcDbCircle
 62
7
  6
CONTINUOUS
 10
159.572481184
 20
102.1579172954
 40
3.6638548266
100
AcDbArc
 50
259.0785583099
 51
259.6175004518
  0
ARC
  5
4C8
100
AcDbEntity
  8
3_ALL_AXES
100
AcDbCircle
 62
7
  6
CONTINUOUS
 10
156.2357687955
 20
107.7509080614
 40
3.5197705174
100
AcDbArc
 50
158.315233078
 51
159.5044958797
  0
ARC
  5
4C9
100
AcDbEntity
  8
3_ALL_AXES
100
AcDbCircle
 62
7
  6
CONTINUOUS
 10
140.4949146533
 20
116.8397402358
 40
3.5111360887
100
AcDbArc
 50
158.2135357302
 51
159.3911989716
  0
ARC
  5
4CA
100
AcDbEntity
  8
3_ALL_AXES
100
AcDbCircle
 62
7
  6
CONTINUOUS
 10
144.5881318256
 20
115.3753650493
 40
3.2390077563
100
AcDbArc
 50
240.000612617
 51
249.063890807
  0
ARC
  5
4CB
100
AcDbEntity
  8
3_ALL_AXES
100
AcDbCircle
 62
7
  6
CONTINUOUS
 10
160.3209333461
 20
106.289649167
 40
3.2390077563
100
AcDbArc
 50
240.000612617
 51
249.063890807
  0
ARC
  5
4CC
100
AcDbEntity
  8
3_ALL_AXES
100
AcDbCircle
 62
7
  6
CONTINUOUS
 10
160.3187663531
 20
106.2850720061
 40
3.2339582275
100
AcDbArc
 50
170.9421807654
 51
239.9933158106
  0
ARC
  5
4CD
100
AcDbEntity
  8
3_ALL_AXES
100
AcDbCircle
 62
7
  6
CONTINUOUS
 10
144.5859596847
 20
115.3707786446
 40
3.2339505463
100
AcDbArc
 50
170.9420046768
 51
239.9933128878
  0
ARC
  5
4CE
100
AcDbEntity
  8
3_ALL_AXES
100
AcDbCircle
 62
7
  6
CONTINUOUS
 10
144.2262350947
 20
109.2404089762
 40
2.6763109681
100
AcDbArc
 50
288.8572895293
 51
291.3661429608
  0
ARC
  5
4CF
100
AcDbEntity
  8
3_ALL_AXES
100
AcDbCircle
 62
7
  6
CONTINUOUS
 10
159.9590366152
 20
100.1546930938
 40
2.6763109681
100
AcDbArc
 50
288.8572895293
 51
291.3661429608
  0
ARC
  5
4D0
100
AcDbEntity
  8
3_ALL_AXES
100
AcDbCircle
 62
7
  6
CONTINUOUS
 10
139.0835788416
 20
118.1386527341
 40
2.6562310741
100
AcDbArc
 50
126.8404255991
 51
131.1796478737
  0
ARC
  5
4D1
100
AcDbEntity
  8
3_ALL_AXES
100
AcDbCircle
 62
7
  6
CONTINUOUS
 10
154.8163803621
 20
109.0529368517
 40
2.6562310741
100
AcDbArc
 50
126.8404255992
 51
131.1796478737
  0
ARC
  5
4D2
100
AcDbEntity
  8
3_ALL_AXES
100
AcDbCircle
 62
7
  6
CONTINUOUS
 10
144.2390209143
 20
109.2074965346
 40
2.6410023448
100
AcDbArc
 50
291.3679611873
 51
293.9317355861
  0
ARC
  5
4D3
100
AcDbEntity
  8
3_ALL_AXES
100
AcDbCircle
 62
7
  6
CONTINUOUS
 10
159.9718224348
 20
100.1217806522
 40
2.6410023448
100
AcDbArc
 50
291.3679611873
 51
293.9317355861
  0
ARC
  5
4D4
100
AcDbEntity
  8
7_ALL_ROUNDS
100
AcDbCircle
 62
7
  6
CONTINUOUS
 10
178.0544781481
 20
106.7792047911
 40
0.7989213574
100
AcDbArc
 50
312.0305052626
 51
314.1942389684
  0
ARC
  5
4D5
100
AcDbEntity
  8
7_ALL_ROUNDS
100
AcDbCircle
 62
7
  6
CONTINUOUS
 10
168.2586749068
 20
101.1221140961
 40
0.7989213575
100
AcDbArc
 50
312.0305052628
 51
314.1942389683
  0
ARC
  5
4D6
100
AcDbEntity
  8
7_ALL_ROUNDS
100
AcDbCircle
 62
7
  6
CONTINUOUS
 10
135.373581734
 20
123.7031832941
 40
0.3682729239
100
AcDbArc
 50
142.9430951015
 51
150.0231314564
  0
ARC
  5
4D7
100
AcDbEntity
  8
7_ALL_ROUNDS
100
AcDbCircle
 62
7
  6
CONTINUOUS
 10
134.8822106558
 20
123.9868537909
 40
0.2159512403
100
AcDbArc
 50
144.3584859512
 51
150.0170373451
  0
ARC
  5
4D8
100
AcDbEntity
  8
7_ALL_ROUNDS
100
AcDbCircle
 62
7
  6
CONTINUOUS
 10
180.8206932362
 20
117.6334673324
 40
0.2156008428
100
AcDbArc
 50
0.0019571135
 51
60.0030240964
  0
ARC
  5
4D9
100
AcDbEntity
  8
7_ALL_ROUNDS
100
AcDbCircle
 62
7
  6
CONTINUOUS
 10
152.3504249816
 20
134.0750988487
 40
0.2155963303
100
AcDbArc
 50
60.0231922885
 51
119.9768076012
  0
ARC
  5
4DA
100
AcDbEntity
  8
7_ALL_ROUNDS
100
AcDbCircle
 62
7
  6
CONTINUOUS
 10
180.8208471212
 20
103.9046135326
 40
0.2154469602
100
AcDbArc
 50
300.0359885722
 51
0.0088756494
  0
ARC
  5
4DB
100
AcDbEntity
  8
7_ALL_ROUNDS
100
AcDbCircle
 62
7
  6
CONTINUOUS
 10
163.3520965193
 20
93.8162594157
 40
0.2153435629
100
AcDbArc
 50
239.9867221183
 51
300.1766647216
  0
ARC
  5
4DC
100
AcDbEntity
  8
7_ALL_ROUNDS
100
AcDbCircle
 62
7
  6
CONTINUOUS
 10
134.3610496398
 20
123.085541812
 40
0.2152685615
100
AcDbArc
 50
149.9774789974
 51
180.0582639445
  0
ARC
  5
4DD
100
AcDbEntity
  8
7_ALL_ROUNDS
100
AcDbCircle
 62
7
  6
CONTINUOUS
 10
14.281337734
 20
54.1240557058
 40
0.25
100
AcDbArc
 50
180.0
 51
270.0
  0
CIRCLE
  5
4DE
100
AcDbEntity
  8
3_ALL_AXES
100
AcDbCircle
 62
7
  6
CONTINUOUS
 10
24.725337734
 20
63.8740557058
 40
9.05
  0
CIRCLE
  5
4DF
100
AcDbEntity
  8
3_ALL_AXES
100
AcDbCircle
 62
7
  6
CONTINUOUS
 10
24.725337734
 20
63.8740557058
 40
8.3
  0
CIRCLE
  5
4E0
100
AcDbEntity
  8
3_ALL_AXES
100
AcDbCircle
 62
7
  6
CONTINUOUS
 10
24.725337734
 20
63.8740557058
 40
7.74
  0
CIRCLE
  5
4E1
100
AcDbEntity
  8
3_ALL_AXES
100
AcDbCircle
 62
7
  6
CONTINUOUS
 10
24.725337734
 20
63.8740557058
 40
7.67
  0
CIRCLE
  5
4E2
100
AcDbEntity
  8
3_ALL_AXES
100
AcDbCircle
 62
7
  6
CONTINUOUS
 10
24.725337734
 20
63.8740557058
 40
7.11
  0
CIRCLE
  5
4E3
100
AcDbEntity
  8
3_ALL_AXES
100
AcDbCircle
 62
7
  6
CONTINUOUS
 10
24.725337734
 20
63.8740557058
 40
2.9
  0
ARC
  5
4E4
100
AcDbEntity
  8
7_ALL_ROUNDS
100
AcDbCircle
 62
7
  6
CONTINUOUS
 10
14.281337734
 20
73.6240557058
 40
0.25
100
AcDbArc
 50
90.0
 51
180.0
  0
ARC
  5
4E5
100
AcDbEntity
  8
7_ALL_ROUNDS
100
AcDbCircle
 62
7
  6
CONTINUOUS
 10
60.969337734
 20
54.1240557058
 40
0.25
100
AcDbArc
 50
270.0
 51
360.0
  0
CIRCLE
  5
4E6
100
AcDbEntity
  8
3_ALL_AXES
100
AcDbCircle
 62
7
  6
CONTINUOUS
 10
50.525337734
 20
63.8740557058
 40
9.05
  0
CIRCLE
  5
4E7
100
AcDbEntity
  8
3_ALL_AXES
100
AcDbCircle
 62
7
  6
CONTINUOUS
 10
50.525337734
 20
63.8740557058
 40
8.3
  0
CIRCLE
  5
4E8
100
AcDbEntity
  8
3_ALL_AXES
100
AcDbCircle
 62
7
  6
CONTINUOUS
 10
50.525337734
 20
63.8740557058
 40
7.74
  0
CIRCLE
  5
4E9
100
AcDbEntity
  8
3_ALL_AXES
100
AcDbCircle
 62
7
  6
CONTINUOUS
 10
50.525337734
 20
63.8740557058
 40
7.67
  0
CIRCLE
  5
4EA
100
AcDbEntity
  8
3_ALL_AXES
100
AcDbCircle
 62
7
  6
CONTINUOUS
 10
50.525337734
 20
63.8740557058
 40
7.11
  0
CIRCLE
  5
4EB
100
AcDbEntity
  8
3_ALL_AXES
100
AcDbCircle
 62
7
  6
CONTINUOUS
 10
50.525337734
 20
63.8740557058
 40
2.9
  0
ARC
  5
4EC
100
AcDbEntity
  8
7_ALL_ROUNDS
100
AcDbCircle
 62
7
  6
CONTINUOUS
 10
60.969337734
 20
73.6240557058
 40
0.25
100
AcDbArc
 50
0.0
 51
90.0
  0
CIRCLE
  5
4ED
100
AcDbEntity
  8
3_ALL_AXES
100
AcDbCircle
 62
7
  6
CONTINUOUS
 10
16.719337734
 20
109.4872615057
 40
1.0
  0
CIRCLE
  5
4EE
100
AcDbEntity
  8
0
100
AcDbCircle
 62
7
  6
CONTINUOUS
 10
15.665037734
 20
112.4722615057
 40
0.434
  0
ARC
  5
4EF
100
AcDbEntity
  8
7_ALL_ROUNDS
100
AcDbCircle
 62
7
  6
CONTINUOUS
 10
14.281337734
 20
106.7222615057
 40
0.25
100
AcDbArc
 50
180.0
 51
270.0
  0
CIRCLE
  5
4F0
100
AcDbEntity
  8
0
100
AcDbCircle
 62
7
  6
CONTINUOUS
 10
15.665037734
 20
112.4722615057
 40
0.215
  0
CIRCLE
  5
4F1
100
AcDbEntity
  8
3_ALL_AXES
100
AcDbCircle
 62
7
  6
CONTINUOUS
 10
16.719337734
 20
133.7992615057
 40
1.0
  0
CIRCLE
  5
4F2
100
AcDbEntity
  8
0
100
AcDbCircle
 62
7
  6
CONTINUOUS
 10
15.665037734
 20
130.9722615057
 40
0.434
  0
ARC
  5
4F3
100
AcDbEntity
  8
7_ALL_ROUNDS
100
AcDbCircle
 62
7
  6
CONTINUOUS
 10
14.281337734
 20
136.2222615057
 40
0.25
100
AcDbArc
 50
90.0
 51
180.0
  0
CIRCLE
  5
4F4
100
AcDbEntity
  8
0
100
AcDbCircle
 62
7
  6
CONTINUOUS
 10
15.665037734
 20
130.9722615057
 40
0.215
  0
CIRCLE
  5
4F5
100
AcDbEntity
  8
3_ALL_AXES
100
AcDbCircle
 62
7
  6
CONTINUOUS
 10
58.531337734
 20
109.4872615057
 40
1.0
  0
CIRCLE
  5
4F6
100
AcDbEntity
  8
0
100
AcDbCircle
 62
7
  6
CONTINUOUS
 10
59.585637734
 20
112.4722615057
 40
0.434
  0
ARC
  5
4F7
100
AcDbEntity
  8
7_ALL_ROUNDS
100
AcDbCircle
 62
7
  6
CONTINUOUS
 10
60.969337734
 20
106.7222615057
 40
0.25
100
AcDbArc
 50
270.0
 51
360.0
  0
CIRCLE
  5
4F8
100
AcDbEntity
  8
0
100
AcDbCircle
 62
7
  6
CONTINUOUS
 10
59.585637734
 20
112.4722615057
 40
0.215
  0
CIRCLE
  5
4F9
100
AcDbEntity
  8
3_ALL_AXES
100
AcDbCircle
 62
7
  6
CONTINUOUS
 10
58.531337734
 20
133.7992615057
 40
1.0
  0
CIRCLE
  5
4FA
100
AcDbEntity
  8
0
100
AcDbCircle
 62
7
  6
CONTINUOUS
 10
59.585637734
 20
130.9722615057
 40
0.434
  0
ARC
  5
4FB
100
AcDbEntity
  8
7_ALL_ROUNDS
100
AcDbCircle
 62
7
  6
CONTINUOUS
 10
60.969337734
 20
136.2222615057
 40
0.25
100
AcDbArc
 50
0.0
 51
90.0
  0
CIRCLE
  5
4FC
100
AcDbEntity
  8
0
100
AcDbCircle
 62
7
  6
CONTINUOUS
 10
59.585637734
 20
130.9722615057
 40
0.215
  0
ARC
  5
4FD
100
AcDbEntity
  8
7_ALL_ROUNDS
100
AcDbCircle
 62
7
  6
CONTINUOUS
 10
86.3724496872
 20
59.9290557058
 40
0.68
100
AcDbArc
 50
180.0
 51
270.0
  0
ARC
  5
4FE
100
AcDbEntity
  8
7_ALL_ROUNDS
100
AcDbCircle
 62
7
  6
CONTINUOUS
 10
91.9624496872
 20
59.9290557058
 40
0.68
100
AcDbArc
 50
270.0
 51
360.0
  0
CIRCLE
  5
4FF
100
AcDbEntity
  8
0
100
AcDbCircle
 62
7
  6
CONTINUOUS
 10
88.1994496872
 20
55.4990557058
 40
0.434
  0
ARC
  5
500
100
AcDbEntity
  8
7_ALL_ROUNDS
100
AcDbCircle
 62
7
  6
CONTINUOUS
 10
91.9674496872
 20
59.9340557058
 40
0.39
100
AcDbArc
 50
270.0
 51
360.0
  0
ARC
  5
501
100
AcDbEntity
  8
7_ALL_ROUNDS
100
AcDbCircle
 62
7
  6
CONTINUOUS
 10
86.3674496872
 20
59.9340557058
 40
0.39
100
AcDbArc
 50
180.0
 51
270.0
  0
ARC
  5
502
100
AcDbEntity
  8
7_ALL_ROUNDS
100
AcDbCircle
 62
7
  6
CONTINUOUS
 10
83.3030030778
 20
54.1240557058
 40
0.25
100
AcDbArc
 50
225.0
 51
270.0
  0
ARC
  5
503
100
AcDbEntity
  8
7_ALL_ROUNDS
100
AcDbCircle
 62
7
  6
CONTINUOUS
 10
82.4494496872
 20
54.9776090964
 40
0.25
100
AcDbArc
 50
180.0
 51
225.0
  0
CIRCLE
  5
504
100
AcDbEntity
  8
0
100
AcDbCircle
 62
7
  6
CONTINUOUS
 10
88.1994496872
 20
55.4990557058
 40
0.215
  0
ARC
  5
505
100
AcDbEntity
  8
7_ALL_ROUNDS
100
AcDbCircle
 62
7
  6
CONTINUOUS
 10
86.3724496872
 20
67.8190557058
 40
0.68
100
AcDbArc
 50
90.0
 51
180.0
  0
ARC
  5
506
100
AcDbEntity
  8
7_ALL_ROUNDS
100
AcDbCircle
 62
7
  6
CONTINUOUS
 10
91.9624496872
 20
67.8190557058
 40
0.68
100
AcDbArc
 50
0.0
 51
90.0
  0
CIRCLE
  5
507
100
AcDbEntity
  8
0
100
AcDbCircle
 62
7
  6
CONTINUOUS
 10
88.1994496872
 20
72.2490557058
 40
0.434
  0
ARC
  5
508
100
AcDbEntity
  8
7_ALL_ROUNDS
100
AcDbCircle
 62
7
  6
CONTINUOUS
 10
86.3674496872
 20
67.8140557058
 40
0.39
100
AcDbArc
 50
90.0
 51
180.0
  0
ARC
  5
509
100
AcDbEntity
  8
7_ALL_ROUNDS
100
AcDbCircle
 62
7
  6
CONTINUOUS
 10
91.9674496872
 20
67.8140557058
 40
0.39
100
AcDbArc
 50
0.0
 51
90.0
  0
ARC
  5
50A
100
AcDbEntity
  8
7_ALL_ROUNDS
100
AcDbCircle
 62
7
  6
CONTINUOUS
 10
82.4494496872
 20
72.7705023152
 40
0.25
100
AcDbArc
 50
135.0
 51
180.0
  0
ARC
  5
50B
100
AcDbEntity
  8
7_ALL_ROUNDS
100
AcDbCircle
 62
7
  6
CONTINUOUS
 10
83.3030030778
 20
73.6240557058
 40
0.25
100
AcDbArc
 50
90.0
 51
135.0
  0
CIRCLE
  5
50C
100
AcDbEntity
  8
0
100
AcDbCircle
 62
7
  6
CONTINUOUS
 10
88.1994496872
 20
72.2490557058
 40
0.215
  0
ARC
  5
50D
100
AcDbEntity
  8
7_ALL_ROUNDS
100
AcDbCircle
 62
7
  6
CONTINUOUS
 10
102.4364496872
 20
59.9290557058
 40
0.68
100
AcDbArc
 50
180.0
 51
270.0
  0
ARC
  5
50E
100
AcDbEntity
  8
7_ALL_ROUNDS
100
AcDbCircle
 62
7
  6
CONTINUOUS
 10
108.0264496872
 20
59.9290557058
 40
0.68
100
AcDbArc
 50
270.0
 51
360.0
  0
CIRCLE
  5
50F
100
AcDbEntity
  8
0
100
AcDbCircle
 62
7
  6
CONTINUOUS
 10
106.6994496872
 20
55.4990557058
 40
0.434
  0
ARC
  5
510
100
AcDbEntity
  8
7_ALL_ROUNDS
100
AcDbCircle
 62
7
  6
CONTINUOUS
 10
108.0314496872
 20
59.9340557058
 40
0.39
100
AcDbArc
 50
270.0
 51
360.0
  0
ARC
  5
511
100
AcDbEntity
  8
7_ALL_ROUNDS
100
AcDbCircle
 62
7
  6
CONTINUOUS
 10
102.4314496872
 20
59.9340557058
 40
0.39
100
AcDbArc
 50
180.0
 51
270.0
  0
ARC
  5
512
100
AcDbEntity
  8
7_ALL_ROUNDS
100
AcDbCircle
 62
7
  6
CONTINUOUS
 10
111.9494496872
 20
54.1240557058
 40
0.25
100
AcDbArc
 50
270.0
 51
360.0
  0
CIRCLE
  5
513
100
AcDbEntity
  8
0
100
AcDbCircle
 62
7
  6
CONTINUOUS
 10
106.6994496872
 20
55.4990557058
 40
0.215
  0
ARC
  5
514
100
AcDbEntity
  8
7_ALL_ROUNDS
100
AcDbCircle
 62
7
  6
CONTINUOUS
 10
102.4364496872
 20
67.8190557058
 40
0.68
100
AcDbArc
 50
90.0
 51
180.0
  0
ARC
  5
515
100
AcDbEntity
  8
7_ALL_ROUNDS
100
AcDbCircle
 62
7
  6
CONTINUOUS
 10
108.0264496872
 20
67.8190557058
 40
0.68
100
AcDbArc
 50
0.0
 51
90.0
  0
CIRCLE
  5
516
100
AcDbEntity
  8
0
100
AcDbCircle
 62
7
  6
CONTINUOUS
 10
106.6994496872
 20
72.2490557058
 40
0.434
  0
ARC
  5
517
100
AcDbEntity
  8
7_ALL_ROUNDS
100
AcDbCircle
 62
7
  6
CONTINUOUS
 10
102.4314496872
 20
67.8140557058
 40
0.39
100
AcDbArc
 50
90.0
 51
180.0
  0
ARC
  5
518
100
AcDbEntity
  8
7_ALL_ROUNDS
100
AcDbCircle
 62
7
  6
CONTINUOUS
 10
108.0314496872
 20
67.8140557058
 40
0.39
100
AcDbArc
 50
0.0
 51
90.0
  0
ARC
  5
519
100
AcDbEntity
  8
7_ALL_ROUNDS
100
AcDbCircle
 62
7
  6
CONTINUOUS
 10
111.9494496872
 20
73.6240557058
 40
0.25
100
AcDbArc
 50
0.0
 51
90.0
  0
CIRCLE
  5
51A
100
AcDbEntity
  8
0
100
AcDbCircle
 62
7
  6
CONTINUOUS
 10
106.6994496872
 20
72.2490557058
 40
0.215
  0
ARC
  5
51B
100
AcDbEntity
  8
7_ALL_ROUNDS
100
AcDbCircle
 62
7
  6
CONTINUOUS
 10
142.4624766716
 20
54.1240557058
 40
0.25
100
AcDbArc
 50
180.0
 51
270.0
  0
ARC
  5
51C
100
AcDbEntity
  8
7_ALL_ROUNDS
100
AcDbCircle
 62
7
  6
CONTINUOUS
 10
155.3814766716
 20
57.1240557058
 40
0.25
100
AcDbArc
 50
180.0
 51
270.0
  0
ARC
  5
51D
100
AcDbEntity
  8
7_ALL_ROUNDS
100
AcDbCircle
 62
7
  6
CONTINUOUS
 10
160.4314766716
 20
57.1240557058
 40
0.25
100
AcDbArc
 50
270.0
 51
360.0
  0
CIRCLE
  5
51E
100
AcDbEntity
  8
3_ALL_AXES
100
AcDbCircle
 62
7
  6
CONTINUOUS
 10
156.8914766716
 20
58.8740557058
 40
0.45
  0
ARC
  5
51F
100
AcDbEntity
  8
3_AXES_OTHER
100
AcDbCircle
 62
7
  6
CONTINUOUS
 10
156.8914766716
 20
58.8740557058
 40
0.35
100
AcDbArc
 50
190.7027796515
 51
349.2972203485
  0
ARC
  5
520
100
AcDbEntity
  8
3_AXES_OTHER
100
AcDbCircle
 62
7
  6
CONTINUOUS
 10
156.8914766716
 20
58.8740557058
 40
0.35
100
AcDbArc
 50
10.7027796515
 51
169.2972203485
  0
CIRCLE
  5
521
100
AcDbEntity
  8
3_ALL_AXES
100
AcDbCircle
 62
7
  6
CONTINUOUS
 10
156.8914766716
 20
58.8740557058
 40
0.235
  0
CIRCLE
  5
522
100
AcDbEntity
  8
3_AXES_OTHER
100
AcDbCircle
 62
7
  6
CONTINUOUS
 10
156.8914766716
 20
58.8740557058
 40
0.1
  0
ARC
  5
523
100
AcDbEntity
  8
7_ALL_ROUNDS
100
AcDbCircle
 62
7
  6
CONTINUOUS
 10
155.3814766716
 20
60.6240557058
 40
0.25
100
AcDbArc
 50
90.0
 51
180.0
  0
CIRCLE
  5
524
100
AcDbEntity
  8
3_ALL_AXES
100
AcDbCircle
 62
7
  6
CONTINUOUS
 10
158.9214766716
 20
58.8740557058
 40
0.45
  0
ARC
  5
525
100
AcDbEntity
  8
3_AXES_OTHER
100
AcDbCircle
 62
7
  6
CONTINUOUS
 10
158.9214766716
 20
58.8740557058
 40
0.35
100
AcDbArc
 50
10.7027796515
 51
169.2972203485
  0
ARC
  5
526
100
AcDbEntity
  8
3_AXES_OTHER
100
AcDbCircle
 62
7
  6
CONTINUOUS
 10
158.9214766716
 20
58.8740557058
 40
0.35
100
AcDbArc
 50
190.7027796515
 51
349.2972203485
  0
CIRCLE
  5
527
100
AcDbEntity
  8
3_ALL_AXES
100
AcDbCircle
 62
7
  6
CONTINUOUS
 10
158.9214766716
 20
58.8740557058
 40
0.235
  0
CIRCLE
  5
528
100
AcDbEntity
  8
3_AXES_OTHER
100
AcDbCircle
 62
7
  6
CONTINUOUS
 10
158.9214766716
 20
58.8740557058
 40
0.1
  0
ARC
  5
529
100
AcDbEntity
  8
7_ALL_ROUNDS
100
AcDbCircle
 62
7
  6
CONTINUOUS
 10
160.4314766716
 20
60.6240557058
 40
0.25
100
AcDbArc
 50
0.0
 51
90.0
  0
ARC
  5
52A
100
AcDbEntity
  8
7_ALL_ROUNDS
100
AcDbCircle
 62
7
  6
CONTINUOUS
 10
142.4624766716
 20
73.6240557058
 40
0.25
100
AcDbArc
 50
90.0
 51
180.0
  0
ARC
  5
52B
100
AcDbEntity
  8
7_ALL_ROUNDS
100
AcDbCircle
 62
7
  6
CONTINUOUS
 10
189.1504766716
 20
54.1240557058
 40
0.25
100
AcDbArc
 50
270.0
 51
360.0
  0
ARC
  5
52C
100
AcDbEntity
  8
7_ALL_ROUNDS
100
AcDbCircle
 62
7
  6
CONTINUOUS
 10
189.1504766716
 20
73.6240557058
 40
0.25
100
AcDbArc
 50
0.0
 51
90.0
  0
SPLINE
  5
52D
100
AcDbEntity
  8
7_ALL_ROUNDS
100
AcDbSpline
 62
7
  6
CONTINUOUS
 70
0
 71
3
 72
9
 73
5
 74
0
 42
0.0000001
 43
0.0000001
 44
0.0000000001
 40
0.0
 40
0.0
 40
0.0
 40
0.0
 40
0.5003676522
 40
1.0
 40
1.0
 40
1.0
 40
1.0
 10
134.1458144242
 20
110.5589729589
 30
0.0
 10
134.1457748528
 20
110.5365711192
 30
0.0
 10
134.1526541799
 20
110.491497657
 30
0.0
 10
134.173238978
 20
110.4507902576
 30
0.0
 10
134.1863210968
 20
110.4326456085
 30
0.0
  0
SPLINE
  5
52E
100
AcDbEntity
  8
7_ALL_ROUNDS
100
AcDbSpline
 62
7
  6
CONTINUOUS
 70
0
 71
3
 72
8
 73
4
 74
0
 42
0.0000001
 43
0.0000001
 44
0.0000000001
 40
0.0
 40
0.0
 40
0.0
 40
0.0
 40
1.0
 40
1.0
 40
1.0
 40
1.0
 10
134.1863210968
 20
110.4326456085
 30
0.0
 10
134.2039971989
 20
110.4081291924
 30
0.0
 10
134.2273764762
 20
110.3869181035
 30
0.0
 10
134.2535496443
 20
110.3718030607
 30
0.0
  0
SPLINE
  5
52F
100
AcDbEntity
  8
7_ALL_ROUNDS
100
AcDbSpline
 62
7
  6
CONTINUOUS
 70
0
 71
3
 72
8
 73
4
 74
0
 42
0.0000001
 43
0.0000001
 44
0.0000000001
 40
0.0
 40
0.0
 40
0.0
 40
0.0
 40
1.0
 40
1.0
 40
1.0
 40
1.0
 10
134.7067116682
 20
124.1126911604
 30
0.0
 10
134.7243859264
 20
124.137333139
 30
0.0
 10
134.7478966556
 20
124.1585834785
 30
0.0
 10
134.7741635926
 20
124.1737378353
 30
0.0
  0
SPLINE
  5
530
100
AcDbEntity
  8
3_ALL_AXES
100
AcDbSpline
 62
7
  6
CONTINUOUS
 70
0
 71
3
 72
11
 73
7
 74
0
 42
0.0000001
 43
0.0000001
 44
0.0000000001
 40
0.0
 40
0.0
 40
0.0
 40
0.0
 40
0.2896255282
 40
0.5490783037
 40
0.7822055329
 40
1.0
 40
1.0
 40
1.0
 40
1.0
 10
178.4662657071
 20
117.4626081723
 30
0.0
 10
178.5041150473
 20
117.4844662216
 30
0.0
 10
178.572789868
 20
117.5318007674
 30
0.0
 10
178.6548722099
 20
117.6180858449
 30
0.0
 10
178.7067908031
 20
117.7135654
 30
0.0
 10
178.7188473579
 20
117.7820824396
 30
0.0
 10
178.718840424
 20
117.8149498972
 30
0.0
  0
SPLINE
  5
531
100
AcDbEntity
  8
3_ALL_AXES
100
AcDbSpline
 62
7
  6
CONTINUOUS
 70
0
 71
3
 72
11
 73
7
 74
0
 42
0.0000001
 43
0.0000001
 44
0.0000000001
 40
0.0
 40
0.0
 40
0.0
 40
0.0
 40
0.2896255282
 40
0.5490783037
 40
0.7822055329
 40
1.0
 40
1.0
 40
1.0
 40
1.0
 10
163.6408443673
 20
108.900905671
 30
0.0
 10
163.6786937076
 20
108.9227637204
 30
0.0
 10
163.7473685282
 20
108.9700982662
 30
0.0
 10
163.8294508701
 20
109.0563833437
 30
0.0
 10
163.8813694633
 20
109.1518628988
 30
0.0
 10
163.8934260182
 20
109.2203799384
 30
0.0
 10
163.8934190842
 20
109.2532473959
 30
0.0
  0
SPLINE
  5
532
100
AcDbEntity
  8
3_ALL_AXES
100
AcDbSpline
 62
7
  6
CONTINUOUS
 70
0
 71
3
 72
11
 73
7
 74
0
 42
0.0000001
 43
0.0000001
 44
0.0000000001
 40
0.0
 40
0.0
 40
0.0
 40
0.0
 40
0.2896255282
 40
0.5490783037
 40
0.7822055329
 40
1.0
 40
1.0
 40
1.0
 40
1.0
 10
152.9693704677
 20
132.1871024541
 30
0.0
 10
153.007219808
 20
132.2089605035
 30
0.0
 10
153.0758946287
 20
132.2562950493
 30
0.0
 10
153.1579769706
 20
132.3425801268
 30
0.0
 10
153.2098955638
 20
132.4380596819
 30
0.0
 10
153.2219521186
 20
132.5065767215
 30
0.0
 10
153.2219451847
 20
132.539444179
 30
0.0
  0
SPLINE
  5
533
100
AcDbEntity
  8
3_ALL_AXES
100
AcDbSpline
 62
7
  6
CONTINUOUS
 70
0
 71
3
 72
11
 73
7
 74
0
 42
0.0000001
 43
0.0000001
 44
0.0000000001
 40
0.0
 40
0.0
 40
0.0
 40
0.0
 40
0.2896255282
 40
0.5490783037
 40
0.7822055329
 40
1.0
 40
1.0
 40
1.0
 40
1.0
 10
138.143949128
 20
123.6253999529
 30
0.0
 10
138.1817984682
 20
123.6472580023
 30
0.0
 10
138.2504732889
 20
123.694592548
 30
0.0
 10
138.3325556308
 20
123.7808776256
 30
0.0
 10
138.384474224
 20
123.8763571807
 30
0.0
 10
138.3965307788
 20
123.9448742203
 30
0.0
 10
138.3965238449
 20
123.9777416778
 30
0.0
  0
SPLINE
  5
534
100
AcDbEntity
  8
7_ALL_ROUNDS
100
AcDbSpline
 62
7
  6
CONTINUOUS
 70
0
 71
3
 72
11
 73
7
 74
0
 42
0.0000001
 43
0.0000001
 44
0.0000000001
 40
0.0
 40
0.0
 40
0.0
 40
0.0
 40
0.2177183424
 40
0.4509415978
 40
0.7102941446
 40
1.0
 40
1.0
 40
1.0
 40
1.0
 10
162.4433146258
 20
94.0921725653
 30
0.0
 10
162.4362083918
 20
94.0962765388
 30
0.0
 10
162.4229120488
 20
94.107463413
 30
0.0
 10
162.4087439874
 20
94.1306103503
 30
0.0
 10
162.4003426671
 20
94.1591482943
 30
0.0
 10
162.3986848054
 20
94.1799125903
 30
0.0
 10
162.3986848054
 20
94.1908320851
 30
0.0
  0
SPLINE
  5
535
100
AcDbEntity
  8
3_ALL_AXES
100
AcDbSpline
 62
7
  6
CONTINUOUS
 70
0
 71
3
 72
15
 73
11
 74
0
 42
0.0000001
 43
0.0000001
 44
0.0000000001
 40
0.0
 40
0.0
 40
0.0
 40
0.0
 40
0.1157876988
 40
0.2387796492
 40
0.3669767107
 40
0.4979936166
 40
0.6292837954
 40
0.7582816943
 40
0.8825613727
 40
1.0
 40
1.0
 40
1.0
 40
1.0
 10
157.3678798291
 20
110.4259022473
 30
0.0
 10
157.6946413406
 20
110.2071196047
 30
0.0
 10
158.3370108942
 20
109.7078074466
 30
0.0
 10
159.2251949847
 20
108.8300261719
 30
0.0
 10
160.0470853845
 20
107.8222457584
 30
0.0
 10
160.7787930636
 20
106.7135218172
 30
0.0
 10
161.3992930184
 20
105.5358787125
 30
0.0
 10
161.890641846
 20
104.32323148
 30
0.0
 10
162.2386511907
 20
103.1108077999
 30
0.0
 10
162.3728573985
 20
102.2983550749
 30
0.0
 10
162.4108157987
 20
101.9013169345
 30
0.0
  0
SPLINE
  5
536
100
AcDbEntity
  8
3_ALL_AXES
100
AcDbSpline
 62
7
  6
CONTINUOUS
 70
0
 71
3
 72
13
 73
9
 74
0
 42
0.0000001
 43
0.0000001
 44
0.0000000001
 40
0.0
 40
0.0
 40
0.0
 40
0.0
 40
0.2824098061
 40
0.539021431
 40
0.6592976128
 40
0.7753564943
 40
0.8884466561
 40
1.0
 40
1.0
 40
1.0
 40
1.0
 10
162.4108157987
 20
100.4230557438
 30
0.0
 10
162.3767994683
 20
100.1065399157
 30
0.0
 10
162.2650657645
 20
99.5057416803
 30
0.0
 10
161.9862159114
 20
98.8098807801
 30
0.0
 10
161.6886897808
 20
98.3389994249
 30
0.0
 10
161.4363760295
 20
98.0349750203
 30
0.0
 10
161.1519561212
 20
97.7751168673
 30
0.0
 10
160.9416217555
 20
97.6322414508
 30
0.0
 10
160.8327338951
 20
97.5693500562
 30
0.0
  0
SPLINE
  5
537
100
AcDbEntity
  8
3_ALL_AXES
100
AcDbSpline
 62
7
  6
CONTINUOUS
 70
0
 71
3
 72
14
 73
10
 74
0
 42
0.0000001
 43
0.0000001
 44
0.0000000001
 40
0.0
 40
0.0
 40
0.0
 40
0.0
 40
0.2893055839
 40
0.4225726938
 40
0.5485244552
 40
0.6679214864
 40
0.7818884422
 40
0.8919626762
 40
1.0
 40
1.0
 40
1.0
 40
1.0
 10
141.1966004618
 20
119.7850108946
 30
0.0
 10
140.8539028729
 20
119.9829192533
 30
0.0
 10
140.3277764409
 20
120.2334030949
 30
0.0
 10
139.6062372166
 20
120.4438640042
 30
0.0
 10
139.0941086945
 20
120.5297688429
 30
0.0
 10
138.6013468545
 20
120.5469633639
 30
0.0
 10
138.1326195046
 20
120.4946303983
 30
0.0
 10
137.692940477
 20
120.3730255867
 30
0.0
 10
137.4212400827
 20
120.245701225
 30
0.0
 10
137.2932685489
 20
120.1717874922
 30
0.0
  0
SPLINE
  5
538
100
AcDbEntity
  8
0
100
AcDbSpline
 62
7
  6
CONTINUOUS
 70
0
 71
3
 72
11
 73
7
 74
0
 42
0.0000001
 43
0.0000001
 44
0.0000000001
 40
0.0
 40
0.0
 40
0.0
 40
0.0
 40
0.2372397713
 40
0.4999990829
 40
0.7627975559
 40
1.0
 40
1.0
 40
1.0
 40
1.0
 10
177.5070526531
 20
102.7829906242
 30
0.0
 10
177.5070526536
 20
102.8263845068
 30
0.0
 10
177.5233281561
 20
102.9179009941
 30
0.0
 10
177.5800902863
 20
103.0464876219
 30
0.0
 10
177.6630984192
 20
103.1599079097
 30
0.0
 10
177.7342299894
 20
103.2197442032
 30
0.0
 10
177.7718091575
 20
103.2414292825
 30
0.0
  0
SPLINE
  5
539
100
AcDbEntity
  8
0
100
AcDbSpline
 62
7
  6
CONTINUOUS
 70
0
 71
3
 72
11
 73
7
 74
0
 42
0.0000001
 43
0.0000001
 44
0.0000000001
 40
0.0
 40
0.0
 40
0.0
 40
0.0
 40
0.2372397713
 40
0.4999990829
 40
0.7627975559
 40
1.0
 40
1.0
 40
1.0
 40
1.0
 10
166.225780245
 20
96.2680393132
 30
0.0
 10
166.2257802455
 20
96.3114331958
 30
0.0
 10
166.242055748
 20
96.4029496832
 30
0.0
 10
166.2988178782
 20
96.5315363109
 30
0.0
 10
166.3818260111
 20
96.6449565988
 30
0.0
 10
166.4529575813
 20
96.7047928922
 30
0.0
 10
166.4905367494
 20
96.7264779715
 30
0.0
  0
SPLINE
  5
53A
100
AcDbEntity
  8
0
100
AcDbSpline
 62
7
  6
CONTINUOUS
 70
0
 71
3
 72
11
 73
7
 74
0
 42
0.0000001
 43
0.0000001
 44
0.0000000001
 40
0.0
 40
0.0
 40
0.0
 40
0.0
 40
0.2372397713
 40
0.4999990829
 40
0.7627975559
 40
1.0
 40
1.0
 40
1.0
 40
1.0
 10
177.5070526531
 20
114.5757016742
 30
0.0
 10
177.5070526536
 20
114.6190955568
 30
0.0
 10
177.5233281561
 20
114.7106120442
 30
0.0
 10
177.5800902863
 20
114.8391986719
 30
0.0
 10
177.6630984192
 20
114.9526189598
 30
0.0
 10
177.7342299894
 20
115.0124552532
 30
0.0
 10
177.7718091575
 20
115.0341403325
 30
0.0
  0
SPLINE
  5
53B
100
AcDbEntity
  8
0
100
AcDbSpline
 62
7
  6
CONTINUOUS
 70
0
 71
3
 72
11
 73
7
 74
0
 42
0.0000001
 43
0.0000001
 44
0.0000000001
 40
0.0
 40
0.0
 40
0.0
 40
0.0
 40
0.2372397713
 40
0.4999990829
 40
0.7627975559
 40
1.0
 40
1.0
 40
1.0
 40
1.0
 10
166.225780245
 20
108.0607503632
 30
0.0
 10
166.2257802455
 20
108.1041442458
 30
0.0
 10
166.242055748
 20
108.1956607332
 30
0.0
 10
166.2988178782
 20
108.3242473609
 30
0.0
 10
166.3818260111
 20
108.4376676488
 30
0.0
 10
166.4529575813
 20
108.4975039422
 30
0.0
 10
166.4905367494
 20
108.5191890215
 30
0.0
  0
SPLINE
  5
53C
100
AcDbEntity
  8
7_ALL_ROUNDS
100
AcDbSpline
 62
7
  6
CONTINUOUS
 70
0
 71
3
 72
9
 73
5
 74
0
 42
0.0000001
 43
0.0000001
 44
0.0000000001
 40
0.0
 40
0.0
 40
0.0
 40
0.0
 40
0.2547532518
 40
1.0
 40
1.0
 40
1.0
 40
1.0
 10
162.9638318519
 20
107.7695535973
 30
0.0
 10
162.9676267622
 20
107.7761265745
 30
0.0
 10
162.9833066741
 20
107.8014619965
 30
0.0
 10
163.0020462301
 20
107.8249479763
 30
0.0
 10
163.0176302916
 20
107.840762864
 30
0.0
  0
SPLINE
  5
53D
100
AcDbEntity
  8
7_ALL_ROUNDS
100
AcDbSpline
 62
7
  6
CONTINUOUS
 70
0
 71
3
 72
9
 73
5
 74
0
 42
0.0000001
 43
0.0000001
 44
0.0000000001
 40
0.0
 40
0.0
 40
0.0
 40
0.0
 40
0.4744167928
 40
1.0
 40
1.0
 40
1.0
 40
1.0
 10
162.3986848054
 20
106.7177842328
 30
0.0
 10
162.3986848054
 20
106.7427713194
 30
0.0
 10
162.408046137
 20
106.7954584005
 30
0.0
 10
162.4294952805
 20
106.844055523
 30
0.0
 10
162.4433362674
 20
106.8680288152
 30
0.0
  0
SPLINE
  5
53E
100
AcDbEntity
  8
3_ALL_AXES
100
AcDbSpline
 62
7
  6
CONTINUOUS
 70
0
 71
3
 72
23
 73
19
 74
0
 42
0.0000001
 43
0.0000001
 44
0.0000000001
 40
0.0
 40
0.0
 40
0.0
 40
0.0
 40
0.0427688512
 40
0.087192418
 40
0.1346301339
 40
0.1859873437
 40
0.2417009055
 40
0.3018020139
 40
0.3659977829
 40
0.4337467278
 40
0.5043224131
 40
0.5768667898
 40
0.6504368747
 40
0.7240469846
 40
0.7967098996
 40
0.8674781795
 40
0.935479244
 40
1.0
 40
1.0
 40
1.0
 40
1.0
 10
145.0999323746
 20
106.6550659385
 30
0.0
 10
145.2857304008
 20
106.7623790673
 30
0.0
 10
145.6383640544
 20
107.0299308152
 30
0.0
 10
146.0672675648
 20
107.5588653702
 30
0.0
 10
146.3933247708
 20
108.2044754645
 30
0.0
 10
146.6119560097
 20
108.9519147838
 30
0.0
 10
146.7208731495
 20
109.7863391833
 30
0.0
 10
146.7189580563
 20
110.6916619582
 30
0.0
 10
146.6067544182
 20
111.6504220998
 30
0.0
 10
146.386672166
 20
112.6439164495
 30
0.0
 10
146.0631368276
 20
113.6525819332
 30
0.0
 10
145.6425918696
 20
114.6564291293
 30
0.0
 10
145.1334097024
 20
115.6354864303
 30
0.0
 10
144.545734804
 20
116.5702441362
 30
0.0
 10
143.8912896649
 20
117.4420676965
 30
0.0
 10
143.1830475125
 20
118.2335916807
 30
0.0
 10
142.4351793752
 20
118.9291261353
 30
0.0
 10
141.9040440177
 20
119.3315325733
 30
0.0
 10
141.6350783086
 20
119.5116181296
 30
0.0
  0
SPLINE
  5
53F
100
AcDbEntity
  8
7_ALL_ROUNDS
100
AcDbSpline
 62
7
  6
CONTINUOUS
 70
0
 71
3
 72
9
 73
5
 74
0
 42
0.0000001
 43
0.0000001
 44
0.0000000001
 40
0.0
 40
0.0
 40
0.0
 40
0.0
 40
0.480490708
 40
1.0
 40
1.0
 40
1.0
 40
1.0
 10
135.0545737128
 20
109.909446596
 30
0.0
 10
135.0622497699
 20
109.9050171437
 30
0.0
 10
135.0801152946
 20
109.8988215156
 30
0.0
 10
135.0988828846
 20
109.8990443722
 30
0.0
 10
135.1083721524
 20
109.9003746843
 30
0.0
  0
LINE
  5
540
100
AcDbEntity
  8
3_ALL_AXES
100
AcDbLine
 62
7
  6
CONTINUOUS
 10
144.9925946089
 20
107.8976043075
 11
144.996188485
 21
107.8996858303
  0
SPLINE
  5
541
100
AcDbEntity
  8
3_ALL_AXES
100
AcDbSpline
 62
7
  6
CONTINUOUS
 70
0
 71
3
 72
23
 73
19
 74
0
 42
0.0000001
 43
0.0000001
 44
0.0000000001
 40
0.0
 40
0.0
 40
0.0
 40
0.0
 40
0.0402461641
 40
0.0826551796
 40
0.1288678905
 40
0.1798140112
 40
0.2358118361
 40
0.2967207653
 40
0.3620707988
 40
0.4311562133
 40
0.5031034422
 40
0.5769231782
 40
0.6515555393
 40
0.7259108738
 40
0.7989112914
 40
0.8695243089
 40
0.9368189536
 40
1.0
 40
1.0
 40
1.0
 40
1.0
 10
144.996188485
 20
107.8996858303
 30
0.0
 10
145.1489764581
 20
107.9883843831
 30
0.0
 10
145.440068033
 20
108.2126455483
 30
0.0
 10
145.7926708036
 20
108.6612599634
 30
0.0
 10
146.059831972
 20
109.21726571
 30
0.0
 10
146.2354285995
 20
109.8695298156
 30
0.0
 10
146.3149696818
 20
110.604555689
 30
0.0
 10
146.2957397199
 20
111.4063624435
 30
0.0
 10
146.1774323792
 20
112.2573206382
 30
0.0
 10
145.9621089074
 20
113.1387658316
 30
0.0
 10
145.6540975782
 20
114.0315187892
 30
0.0
 10
145.2598228644
 20
114.9163020075
 30
0.0
 10
144.7876359704
 20
115.7741203856
 30
0.0
 10
144.2476166725
 20
116.5866419688
 30
0.0
 10
143.6513690392
 20
117.3364950639
 30
0.0
 10
143.0117792426
 20
118.0077511064
 30
0.0
 10
142.3429771304
 20
118.5859954417
 30
0.0
 10
141.8707871836
 20
118.9128280905
 30
0.0
 10
141.6331854751
 20
119.0558863681
 30
0.0
  0
SPLINE
  5
542
100
AcDbEntity
  8
3_ALL_AXES
100
AcDbSpline
 62
7
  6
CONTINUOUS
 70
0
 71
3
 72
14
 73
10
 74
0
 42
0.0000001
 43
0.0000001
 44
0.0000000001
 40
0.0
 40
0.0
 40
0.0
 40
0.0
 40
0.2834860738
 40
0.4152472812
 40
0.5407611604
 40
0.6608116411
 40
0.7764638294
 40
0.8890213508
 40
1.0
 40
1.0
 40
1.0
 40
1.0
 10
141.5331916877
 20
107.8220222723
 30
0.0
 10
141.8513143565
 20
107.6383059659
 30
0.0
 10
142.3413480797
 20
107.405573315
 30
0.0
 10
143.0154783749
 20
107.2098836699
 30
0.0
 10
143.4991238283
 20
107.1295577396
 30
0.0
 10
143.9684360609
 20
107.113998612
 30
0.0
 10
144.4186323665
 20
107.1649549627
 30
0.0
 10
144.843952992
 20
107.2830119528
 30
0.0
 10
145.1077437213
 20
107.4065956901
 30
0.0
 10
145.2323323906
 20
107.4784290458
 30
0.0
  0
SPLINE
  5
543
100
AcDbEntity
  8
3_ALL_AXES
100
AcDbSpline
 62
7
  6
CONTINUOUS
 70
0
 71
3
 72
23
 73
19
 74
0
 42
0.0000001
 43
0.0000001
 44
0.0000000001
 40
0.0
 40
0.0
 40
0.0
 40
0.0
 40
0.0400287006
 40
0.0822838693
 40
0.1284548812
 40
0.1794796849
 40
0.2356597089
 40
0.2968259173
 40
0.3624755702
 40
0.4318691625
 40
0.5040997912
 40
0.5781462411
 40
0.6529188203
 40
0.727301141
 40
0.8001928301
 40
0.8705433508
 40
0.9374163209
 40
1.0
 40
1.0
 40
1.0
 40
1.0
 10
144.7208922689
 20
108.3680859647
 30
0.0
 10
144.8618980238
 20
108.4495678674
 30
0.0
 10
145.1306570169
 20
108.6564006971
 30
0.0
 10
145.4556069831
 20
109.0715936479
 30
0.0
 10
145.7010453973
 20
109.5874819919
 30
0.0
 10
145.8610578428
 20
110.193700636
 30
0.0
 10
145.9312442655
 20
110.8774553446
 30
0.0
 10
145.9089709011
 20
111.6234945111
 30
0.0
 10
145.7939693632
 20
112.4149922731
 30
0.0
 10
145.5882724112
 20
113.2341687937
 30
0.0
 10
145.2960961553
 20
114.0627974291
 30
0.0
 10
144.9236580287
 20
114.8825998849
 30
0.0
 10
144.479009134
 20
115.6756061785
 30
0.0
 10
143.9718463602
 20
116.4245201337
 30
0.0
 10
143.4133108314
 20
117.1129916169
 30
0.0
 10
142.81575795
 20
117.7261189522
 30
0.0
 10
142.1927376261
 20
118.2503879278
 30
0.0
 10
141.7536844322
 20
118.543981556
 30
0.0
 10
141.5331916877
 20
118.6713164383
 30
0.0
  0
SPLINE
  5
544
100
AcDbEntity
  8
3_ALL_AXES
100
AcDbSpline
 62
7
  6
CONTINUOUS
 70
0
 71
3
 72
14
 73
10
 74
0
 42
0.0000001
 43
0.0000001
 44
0.0000000001
 40
0.0
 40
0.0
 40
0.0
 40
0.0
 40
0.2817952497
 40
0.4131000702
 40
0.5384893895
 40
0.6587459
 40
0.7749006882
 40
0.8881793944
 40
1.0
 40
1.0
 40
1.0
 40
1.0
 10
141.6459166594
 20
108.2020403811
 30
0.0
 10
141.9318529448
 20
108.0448727426
 30
0.0
 10
142.3715715656
 20
107.8470851701
 30
0.0
 10
142.9745957688
 20
107.684524387
 30
0.0
 10
143.4074752369
 20
107.6204728916
 30
0.0
 10
143.8276054248
 20
107.6129910176
 30
0.0
 10
144.2308433682
 20
107.6636451221
 30
0.0
 10
144.6122651168
 20
107.7727120628
 30
0.0
 10
144.8491782677
 20
107.8846343754
 30
0.0
 10
144.9613196903
 20
107.9493485265
 30
0.0
  0
SPLINE
  5
545
100
AcDbEntity
  8
3_ALL_AXES
100
AcDbSpline
 62
7
  6
CONTINUOUS
 70
0
 71
3
 72
14
 73
10
 74
0
 42
0.0000001
 43
0.0000001
 44
0.0000000001
 40
0.0
 40
0.0
 40
0.0
 40
0.0
 40
0.2962404083
 40
0.4313372628
 40
0.5578511777
 40
0.6765016841
 40
0.7884664455
 40
0.8955458547
 40
1.0
 40
1.0
 40
1.0
 40
1.0
 10
141.5331916877
 20
119.1148631823
 30
0.0
 10
141.244250221
 20
119.2817273018
 30
0.0
 10
140.8023265436
 20
119.4927340066
 30
0.0
 10
140.1984258479
 20
119.6700159801
 30
0.0
 10
139.7750916878
 20
119.7421045865
 30
0.0
 10
139.3718733114
 20
119.7573068033
 30
0.0
 10
138.9922325001
 20
119.7162589806
 30
0.0
 10
138.6392630999
 20
119.6197701816
 30
0.0
 10
138.421974492
 20
119.5187645175
 30
0.0
 10
138.3199557718
 20
119.4601682713
 30
0.0
  0
LINE
  5
546
100
AcDbEntity
  8
3_ALL_AXES
100
AcDbLine
 62
7
  6
CONTINUOUS
 10
138.3199557718
 20
119.4601682713
 11
138.3153040775
 21
119.4574884186
  0
SPLINE
  5
547
100
AcDbEntity
  8
3_ALL_AXES
100
AcDbSpline
 62
7
  6
CONTINUOUS
 70
0
 71
3
 72
23
 73
19
 74
0
 42
0.0000001
 43
0.0000001
 44
0.0000000001
 40
0.0
 40
0.0
 40
0.0
 40
0.0
 40
0.0450477781
 40
0.0915028751
 40
0.1405986698
 40
0.1932350877
 40
0.2499029569
 40
0.3106897848
 40
0.3753339524
 40
0.4432962737
 40
0.51382911
 40
0.5860391164
 40
0.6589447431
 40
0.731528395
 40
0.8027911049
 40
0.8717955731
 40
0.9377456307
 40
1.0
 40
1.0
 40
1.0
 40
1.0
 10
138.0755662958
 20
119.8766636804
 30
0.0
 10
137.8895253785
 20
119.7693991637
 30
0.0
 10
137.5382487587
 20
119.5016867882
 30
0.0
 10
137.116305741
 20
118.9735237915
 30
0.0
 10
136.8030859881
 20
118.3348886027
 30
0.0
 10
136.6009910302
 20
117.6035427344
 30
0.0
 10
136.5096426198
 20
116.7950229298
 30
0.0
 10
136.528049904
 20
115.9249107161
 30
0.0
 10
136.6542501764
 20
115.0098222566
 30
0.0
 10
136.8848745204
 20
114.0676950697
 30
0.0
 10
137.214780343
 20
113.117494981
 30
0.0
 10
137.6369217777
 20
112.1787308719
 30
0.0
 10
138.1424008285
 20
111.2709237586
 30
0.0
 10
138.7206204357
 20
110.4130397783
 30
0.0
 10
139.3595715382
 20
109.6230833228
 30
0.0
 10
140.0461968328
 20
108.9174297054
 30
0.0
 10
140.7666111815
 20
108.3109689795
 30
0.0
 10
141.2761942994
 20
107.9704386398
 30
0.0
 10
141.5331916877
 20
107.8220222723
 30
0.0
  0
SPLINE
  5
548
100
AcDbEntity
  8
3_ALL_AXES
100
AcDbSpline
 62
7
  6
CONTINUOUS
 70
0
 71
3
 72
14
 73
10
 74
0
 42
0.0000001
 43
0.0000001
 44
0.0000000001
 40
0.0
 40
0.0
 40
0.0
 40
0.0
 40
0.2969620346
 40
0.432233717
 40
0.558785527
 40
0.6773391791
 40
0.7890862827
 40
0.8958688201
 40
1.0
 40
1.0
 40
1.0
 40
1.0
 10
141.5331916877
 20
118.6713164383
 30
0.0
 10
141.2675737396
 20
118.8247111918
 30
0.0
 10
140.861444697
 20
119.0186007127
 30
0.0
 10
140.3066404591
 20
119.1812194448
 30
0.0
 10
139.9182547626
 20
119.2470811665
 30
0.0
 10
139.5487510825
 20
119.260626675
 30
0.0
 10
139.2012796099
 20
119.2225486265
 30
0.0
 10
138.8785951864
 20
119.1336546127
 30
0.0
 10
138.6801320873
 20
119.0408205705
 30
0.0
 10
138.5870064174
 20
118.9870067614
 30
0.0
  0
SPLINE
  5
549
100
AcDbEntity
  8
3_ALL_AXES
100
AcDbSpline
 62
7
  6
CONTINUOUS
 70
0
 71
3
 72
24
 73
20
 74
0
 42
0.0000001
 43
0.0000001
 44
0.0000000001
 40
0.0
 40
0.0
 40
0.0
 40
0.0
 40
0.0225673748
 40
0.0453081925
 40
0.0919121868
 40
0.1411121583
 40
0.1938052485
 40
0.2504896612
 40
0.311260557
 40
0.3758643482
 40
0.4437691221
 40
0.514233528
 40
0.586369725
 40
0.659200012
 40
0.7317103772
 40
0.8029064413
 40
0.8718526115
 40
0.9377662304
 40
1.0
 40
1.0
 40
1.0
 40
1.0
 10
138.3465789961
 20
119.4057441997
 30
0.0
 10
138.2604576371
 20
119.3560456093
 30
0.0
 10
138.0936462816
 20
119.2452153387
 30
0.0
 10
137.7863936989
 20
118.9800739642
 30
0.0
 10
137.4567883847
 20
118.5682037826
 30
0.0
 10
137.1667826667
 20
117.9769086802
 30
0.0
 10
136.9794878735
 20
117.3002311343
 30
0.0
 10
136.8948198312
 20
116.5527375317
 30
0.0
 10
136.9116089683
 20
115.7487001815
 30
0.0
 10
137.0279906663
 20
114.9033979786
 30
0.0
 10
137.2407997114
 20
114.0333039065
 30
0.0
 10
137.5452819366
 20
113.1558597473
 30
0.0
 10
137.9349416517
 20
112.2890276896
 30
0.0
 10
138.4015789672
 20
111.4507980735
 30
0.0
 10
138.9354190844
 20
110.6586481897
 30
0.0
 10
139.5254010485
 20
109.9291914437
 30
0.0
 10
140.1594971709
 20
109.2774757397
 30
0.0
 10
140.8249657914
 20
108.717294159
 30
0.0
 10
141.2957396065
 20
108.4026979403
 30
0.0
 10
141.5331916877
 20
108.2655690162
 30
0.0
  0
SPLINE
  5
54A
100
AcDbEntity
  8
3_ALL_AXES
100
AcDbSpline
 62
7
  6
CONTINUOUS
 70
0
 71
3
 72
14
 73
10
 74
0
 42
0.0000001
 43
0.0000001
 44
0.0000000001
 40
0.0
 40
0.0
 40
0.0
 40
0.0
 40
0.1080373238
 40
0.2181115578
 40
0.3320785136
 40
0.4514755448
 40
0.5774273062
 40
0.7106944161
 40
1.0
 40
1.0
 40
1.0
 40
1.0
 10
153.0260700694
 20
111.0860716098
 30
0.0
 10
153.1540416032
 20
111.1599853427
 30
0.0
 10
153.4257419975
 20
111.2873097043
 30
0.0
 10
153.865421025
 20
111.4089145159
 30
0.0
 10
154.334148375
 20
111.4612474816
 30
0.0
 10
154.826910215
 20
111.4440529606
 30
0.0
 10
155.3390387371
 20
111.3581481219
 30
0.0
 10
156.0605779614
 20
111.1476872126
 30
0.0
 10
156.5867043934
 20
110.8972033709
 30
0.0
 10
156.9294019822
 20
110.6992950123
 30
0.0
  0
SPLINE
  5
54B
100
AcDbEntity
  8
3_ALL_AXES
100
AcDbSpline
 62
7
  6
CONTINUOUS
 70
0
 71
3
 72
23
 73
19
 74
0
 42
0.0000001
 43
0.0000001
 44
0.0000000001
 40
0.0
 40
0.0
 40
0.0
 40
0.0
 40
0.0622546602
 40
0.1282052561
 40
0.1972102251
 40
0.2684734327
 40
0.341057441
 40
0.4139632882
 40
0.4861733832
 40
0.5567061607
 40
0.6246682769
 40
0.6893121175
 40
0.7500985323
 40
0.8067659308
 40
0.8594018838
 40
0.9084973405
 40
0.9549522962
 40
1.0
 40
1.0
 40
1.0
 40
1.0
 10
157.2659932082
 20
98.7363063899
 30
0.0
 10
157.0089944045
 20
98.8847235749
 30
0.0
 10
156.4994077632
 20
99.2252567172
 30
0.0
 10
155.778988406
 20
99.8317226222
 30
0.0
 10
155.0923588804
 20
100.5373835371
 30
0.0
 10
154.4534047231
 20
101.3273469341
 30
0.0
 10
153.8751839958
 20
102.1852374108
 30
0.0
 10
153.3697056508
 20
103.0930495563
 30
0.0
 10
152.9475665262
 20
104.0318169726
 30
0.0
 10
152.6176643449
 20
104.9820183449
 30
0.0
 10
152.3870444804
 20
105.9241445639
 30
0.0
 10
152.2608486886
 20
106.8392298692
 30
0.0
 10
152.2424454861
 20
107.7093371115
 30
0.0
 10
152.3337971574
 20
108.5178507735
 30
0.0
 10
152.5358943847
 20
109.2491902705
 30
0.0
 10
152.8491148977
 20
109.8878207945
 30
0.0
 10
153.2710602779
 20
110.4159792377
 30
0.0
 10
153.6223377729
 20
110.6836894143
 30
0.0
 10
153.8083793782
 20
110.790952388
 30
0.0
  0
LINE
  5
54C
100
AcDbEntity
  8
3_ALL_AXES
100
AcDbLine
 62
7
  6
CONTINUOUS
 10
154.0482211692
 20
110.3718397755
 11
154.0527260171
 21
110.3744349375
  0
SPLINE
  5
54D
100
AcDbEntity
  8
3_ALL_AXES
100
AcDbSpline
 62
7
  6
CONTINUOUS
 70
0
 71
3
 72
14
 73
10
 74
0
 42
0.0000001
 43
0.0000001
 44
0.0000000001
 40
0.0
 40
0.0
 40
0.0
 40
0.0
 40
0.1044537342
 40
0.211534011
 40
0.3234980689
 40
0.4421485063
 40
0.5686618665
 40
0.7037583423
 40
1.0
 40
1.0
 40
1.0
 40
1.0
 10
154.0527260171
 20
110.3744349375
 30
0.0
 10
154.1547439057
 20
110.4330342016
 30
0.0
 10
154.372034396
 20
110.5340437557
 30
0.0
 10
154.7250062501
 20
110.6305361428
 30
0.0
 10
155.1046504119
 20
110.6715928534
 30
0.0
 10
155.5078716968
 20
110.6563896692
 30
0.0
 10
155.9312099364
 20
110.5843055677
 30
0.0
 10
156.5351177557
 20
110.4070221573
 30
0.0
 10
156.9770474651
 20
110.1960138891
 30
0.0
 10
157.2659932082
 20
110.0291472999
 30
0.0
  0
SPLINE
  5
54E
100
AcDbEntity
  8
3_ALL_AXES
100
AcDbSpline
 62
7
  6
CONTINUOUS
 70
0
 71
3
 72
24
 73
20
 74
0
 42
0.0000001
 43
0.0000001
 44
0.0000000001
 40
0.0
 40
0.0
 40
0.0
 40
0.0
 40
0.0622337838
 40
0.1281476571
 40
0.1970939881
 40
0.2682901998
 40
0.3408005963
 40
0.4136308131
 40
0.4857668877
 40
0.5562311465
 40
0.6241357788
 40
0.6887394451
 40
0.7495102359
 40
0.8061945977
 40
0.8588876774
 40
0.908087617
 40
0.9546917238
 40
0.9774324744
 40
1.0
 40
1.0
 40
1.0
 40
1.0
 10
157.2659932082
 20
99.1798531339
 30
0.0
 10
157.0285436436
 20
99.3169806047
 30
0.0
 10
156.5577738618
 20
99.6315738939
 30
0.0
 10
155.8923100321
 20
100.1917494685
 30
0.0
 10
155.2582179906
 20
100.8434588502
 30
0.0
 10
154.6682393587
 20
101.572907116
 30
0.0
 10
154.1344021157
 20
102.3650470359
 30
0.0
 10
153.6677669829
 20
103.2032651397
 30
0.0
 10
153.2781077707
 20
104.070084451
 30
0.0
 10
152.9736233692
 20
104.9475152291
 30
0.0
 10
152.7608091464
 20
105.8175960993
 30
0.0
 10
152.6444189084
 20
106.6628860462
 30
0.0
 10
152.6276174174
 20
107.4669130416
 30
0.0
 10
152.7122682938
 20
108.214399361
 30
0.0
 10
152.8995407296
 20
108.8910745124
 30
0.0
 10
153.1895198368
 20
109.4823741944
 30
0.0
 10
153.5190981475
 20
109.894258465
 30
0.0
 10
153.8263349777
 20
110.159412988
 30
0.0
 10
153.9931389497
 20
110.2702506861
 30
0.0
 10
154.0792562079
 20
110.319955558
 30
0.0
  0
SPLINE
  5
54F
100
AcDbEntity
  8
3_ALL_AXES
100
AcDbSpline
 62
7
  6
CONTINUOUS
 70
0
 71
3
 72
14
 73
10
 74
0
 42
0.0000001
 43
0.0000001
 44
0.0000000001
 40
0.0
 40
0.0
 40
0.0
 40
0.0
 40
0.1041301275
 40
0.2109141115
 40
0.322661336
 40
0.4412157833
 40
0.5677674977
 40
0.7030387145
 40
1.0
 40
1.0
 40
1.0
 40
1.0
 10
154.3199220113
 20
109.9013573752
 30
0.0
 10
154.4130460017
 20
109.9551628023
 30
0.0
 10
154.611507907
 20
110.047978745
 30
0.0
 10
154.9341840516
 20
110.1368492018
 30
0.0
 10
155.2816442275
 20
110.1749156553
 30
0.0
 10
155.6511324644
 20
110.1613549018
 30
0.0
 10
156.0395006362
 20
110.0954903334
 30
0.0
 10
156.5942774161
 20
109.9328696986
 30
0.0
 10
157.0003871929
 20
109.7389884182
 30
0.0
 10
157.2659932082
 20
109.585600556
 30
0.0
  0
SPLINE
  5
550
100
AcDbEntity
  8
3_ALL_AXES
100
AcDbSpline
 62
7
  6
CONTINUOUS
 70
0
 71
3
 72
14
 73
10
 74
0
 42
0.0000001
 43
0.0000001
 44
0.0000000001
 40
0.0
 40
0.0
 40
0.0
 40
0.0
 40
0.1109783022
 40
0.223535423
 40
0.3391879819
 40
0.4592387934
 40
0.584752868
 40
0.7165145538
 40
1.0
 40
1.0
 40
1.0
 40
1.0
 10
160.9651223491
 20
98.3927085735
 30
0.0
 10
160.8405339015
 20
98.3208766446
 30
0.0
 10
160.5767469587
 20
98.1972890412
 30
0.0
 10
160.151425703
 20
98.0792403342
 30
0.0
 10
159.701231089
 20
98.0282815473
 30
0.0
 10
159.2319190395
 20
98.0438431902
 30
0.0
 10
158.7482738935
 20
98.1241686797
 30
0.0
 10
158.0741460338
 20
98.3198593015
 30
0.0
 10
157.5841141664
 20
98.5525910714
 30
0.0
 10
157.2659932082
 20
98.7363063899
 30
0.0
  0
SPLINE
  5
551
100
AcDbEntity
  8
3_ALL_AXES
100
AcDbSpline
 62
7
  6
CONTINUOUS
 70
0
 71
3
 72
23
 73
19
 74
0
 42
0.0000001
 43
0.0000001
 44
0.0000000001
 40
0.0
 40
0.0
 40
0.0
 40
0.0
 40
0.063180644
 40
0.1304746527
 40
0.2010870365
 40
0.2740868374
 40
0.3484417095
 40
0.4230737674
 40
0.4968933681
 40
0.5688406502
 40
0.6379263001
 40
0.7032767326
 40
0.7641861867
 40
0.820184611
 40
0.8711313362
 40
0.9173444569
 40
0.9597535844
 40
1.0
 40
1.0
 40
1.0
 40
1.0
 10
157.3659945928
 20
109.9701659252
 30
0.0
 10
157.6035938524
 20
109.827108739
 30
0.0
 10
158.0757783074
 20
109.5002794819
 30
0.0
 10
158.7445729507
 20
108.9220421766
 30
0.0
 10
159.3841562896
 20
108.2507955963
 30
0.0
 10
159.9803989261
 20
107.500952108
 30
0.0
 10
160.5204156253
 20
106.688439901
 30
0.0
 10
160.9926023274
 20
105.8306295636
 30
0.0
 10
161.3868792211
 20
104.9458526197
 30
0.0
 10
161.6948946901
 20
104.053103616
 30
0.0
 10
161.9102233697
 20
103.1716596042
 30
0.0
 10
162.0285366649
 20
102.3206999321
 30
0.0
 10
162.0477729953
 20
101.5188892067
 30
0.0
 10
161.9682380168
 20
100.7838576098
 30
0.0
 10
161.7926481214
 20
100.1315863213
 30
0.0
 10
161.5254896823
 20
99.575576402
 30
0.0
 10
161.1728954317
 20
99.1269531214
 30
0.0
 10
160.881805605
 20
98.9026892104
 30
0.0
 10
160.7290193806
 20
98.813986581
 30
0.0
  0
LINE
  5
552
100
AcDbEntity
  8
3_ALL_AXES
100
AcDbLine
 62
7
  6
CONTINUOUS
 10
160.7290193806
 20
98.813986581
 11
160.7252805581
 21
98.811821186
  0
SPLINE
  5
553
100
AcDbEntity
  8
7_ALL_ROUNDS
100
AcDbSpline
 62
7
  6
CONTINUOUS
 70
0
 71
3
 72
11
 73
7
 74
0
 42
0.0000001
 43
0.0000001
 44
0.0000000001
 40
0.0
 40
0.0
 40
0.0
 40
0.0
 40
0.2372271621
 40
0.4999751797
 40
0.762736697
 40
1.0
 40
1.0
 40
1.0
 40
1.0
 10
174.7574711781
 20
109.8689062952
 30
0.0
 10
174.7574711781
 20
109.9368795761
 30
0.0
 10
174.782959135
 20
110.0802351635
 30
0.0
 10
174.8718634668
 20
110.2816519848
 30
0.0
 10
175.0018506659
 20
110.4593613722
 30
0.0
 10
175.1132624623
 20
110.5531251486
 30
0.0
 10
175.1721341639
 20
110.5871236423
 30
0.0
  0
SPLINE
  5
554
100
AcDbEntity
  8
7_ALL_ROUNDS
100
AcDbSpline
 62
7
  6
CONTINUOUS
 70
0
 71
3
 72
10
 73
6
 74
0
 42
0.0000001
 43
0.0000001
 44
0.0000000001
 40
0.0
 40
0.0
 40
0.0
 40
0.0
 40
0.2838330222
 40
0.5445168622
 40
1.0
 40
1.0
 40
1.0
 40
1.0
 10
178.5809078267
 20
112.5556954168
 30
0.0
 10
178.6017016975
 20
112.5677039076
 30
0.0
 10
178.643258769
 20
112.5881533629
 30
0.0
 10
178.7240696956
 20
112.6133913059
 30
0.0
 10
178.787362524
 20
112.6147757333
 30
0.0
 10
178.8246406144
 20
112.6050185607
 30
0.0
  0
SPLINE
  5
555
100
AcDbEntity
  8
7_ALL_ROUNDS
100
AcDbSpline
 62
7
  6
CONTINUOUS
 70
0
 71
3
 72
9
 73
5
 74
0
 42
0.0000001
 43
0.0000001
 44
0.0000000001
 40
0.0
 40
0.0
 40
0.0
 40
0.0
 40
0.2528738598
 40
1.0
 40
1.0
 40
1.0
 40
1.0
 10
178.8246406144
 20
112.6050185607
 30
0.0
 10
178.8290115199
 20
112.6038745192
 30
0.0
 10
178.8461451773
 20
112.5987925896
 30
0.0
 10
178.8626034196
 20
112.5914216405
 30
0.0
 10
178.874163272
 20
112.5847457973
 30
0.0
  0
SPLINE
  5
556
100
AcDbEntity
  8
7_ALL_ROUNDS
100
AcDbSpline
 62
7
  6
CONTINUOUS
 70
0
 71
3
 72
11
 73
7
 74
0
 42
0.0000001
 43
0.0000001
 44
0.0000000001
 40
0.0
 40
0.0
 40
0.0
 40
0.0
 40
0.2372271621
 40
0.4999751797
 40
0.762736697
 40
1.0
 40
1.0
 40
1.0
 40
1.0
 10
164.9616679368
 20
104.2118156001
 30
0.0
 10
164.9616679368
 20
104.279788881
 30
0.0
 10
164.9871558937
 20
104.4231444684
 30
0.0
 10
165.0760602255
 20
104.6245612897
 30
0.0
 10
165.2060474246
 20
104.802270677
 30
0.0
 10
165.317459221
 20
104.8960344534
 30
0.0
 10
165.3763309226
 20
104.9300329472
 30
0.0
  0
SPLINE
  5
557
100
AcDbEntity
  8
7_ALL_ROUNDS
100
AcDbSpline
 62
7
  6
CONTINUOUS
 70
0
 71
3
 72
10
 73
6
 74
0
 42
0.0000001
 43
0.0000001
 44
0.0000000001
 40
0.0
 40
0.0
 40
0.0
 40
0.0
 40
0.2838330222
 40
0.5445168622
 40
1.0
 40
1.0
 40
1.0
 40
1.0
 10
168.7851045854
 20
106.8986047217
 30
0.0
 10
168.8058984562
 20
106.9106132125
 30
0.0
 10
168.8474555278
 20
106.9310626678
 30
0.0
 10
168.9282664543
 20
106.9563006108
 30
0.0
 10
168.9915592827
 20
106.9576850382
 30
0.0
 10
169.0288373731
 20
106.9479278655
 30
0.0
  0
SPLINE
  5
558
100
AcDbEntity
  8
7_ALL_ROUNDS
100
AcDbSpline
 62
7
  6
CONTINUOUS
 70
0
 71
3
 72
9
 73
5
 74
0
 42
0.0000001
 43
0.0000001
 44
0.0000000001
 40
0.0
 40
0.0
 40
0.0
 40
0.0
 40
0.2528738598
 40
1.0
 40
1.0
 40
1.0
 40
1.0
 10
169.0288373731
 20
106.9479278655
 30
0.0
 10
169.0332082786
 20
106.9467838241
 30
0.0
 10
169.050341936
 20
106.9417018945
 30
0.0
 10
169.0668001783
 20
106.9343309454
 30
0.0
 10
169.0783600307
 20
106.9276551022
 30
0.0
  0
SPLINE
  5
559
100
AcDbEntity
  8
7_ALL_ROUNDS
100
AcDbSpline
 62
7
  6
CONTINUOUS
 70
0
 71
3
 72
11
 73
7
 74
0
 42
0.0000001
 43
0.0000001
 44
0.0000000001
 40
0.0
 40
0.0
 40
0.0
 40
0.0
 40
0.2895362536
 40
0.5491069103
 40
0.7822494613
 40
1.0
 40
1.0
 40
1.0
 40
1.0
 10
168.9467011902
 20
106.6012193964
 30
0.0
 10
168.9467011902
 20
106.618243698
 30
0.0
 10
168.9441031415
 20
106.6506379006
 30
0.0
 10
168.9310091252
 20
106.6951540343
 30
0.0
 10
168.9089225752
 20
106.7312912272
 30
0.0
 10
168.8881577409
 20
106.7487120134
 30
0.0
 10
168.8770703949
 20
106.755114983
 30
0.0
  0
SPLINE
  5
55A
100
AcDbEntity
  8
7_ALL_ROUNDS
100
AcDbSpline
 62
7
  6
CONTINUOUS
 70
0
 71
3
 72
11
 73
7
 74
0
 42
0.0000001
 43
0.0000001
 44
0.0000000001
 40
0.0
 40
0.0
 40
0.0
 40
0.0
 40
0.237263303
 40
0.5000248203
 40
0.7627728379
 40
1.0
 40
1.0
 40
1.0
 40
1.0
 10
168.7088797718
 20
100.6414461119
 30
0.0
 10
168.7426444242
 20
100.660945248
 30
0.0
 10
168.8065423663
 20
100.7147215315
 30
0.0
 10
168.8810938481
 20
100.8166430919
 30
0.0
 10
168.9320830972
 20
100.932161563
 30
0.0
 10
168.9467011902
 20
101.0143802086
 30
0.0
 10
168.9467011902
 20
101.0533648845
 30
0.0
  0
SPLINE
  5
55B
100
AcDbEntity
  8
7_ALL_ROUNDS
100
AcDbSpline
 62
7
  6
CONTINUOUS
 70
0
 71
3
 72
11
 73
7
 74
0
 42
0.0000001
 43
0.0000001
 44
0.0000000001
 40
0.0
 40
0.0
 40
0.0
 40
0.0
 40
0.2895362536
 40
0.5491069103
 40
0.7822494613
 40
1.0
 40
1.0
 40
1.0
 40
1.0
 10
178.7425044315
 20
112.2583100915
 30
0.0
 10
178.7425044315
 20
112.2753343931
 30
0.0
 10
178.7399063828
 20
112.3077285957
 30
0.0
 10
178.7268123664
 20
112.3522447294
 30
0.0
 10
178.7047258165
 20
112.3883819224
 30
0.0
 10
178.6839609822
 20
112.4058027085
 30
0.0
 10
178.6728736362
 20
112.4122056781
 30
0.0
  0
SPLINE
  5
55C
100
AcDbEntity
  8
7_ALL_ROUNDS
100
AcDbSpline
 62
7
  6
CONTINUOUS
 70
0
 71
3
 72
11
 73
7
 74
0
 42
0.0000001
 43
0.0000001
 44
0.0000000001
 40
0.0
 40
0.0
 40
0.0
 40
0.0
 40
0.237263303
 40
0.5000248203
 40
0.7627728379
 40
1.0
 40
1.0
 40
1.0
 40
1.0
 10
178.5046830131
 20
106.298536807
 30
0.0
 10
178.5384476655
 20
106.3180359431
 30
0.0
 10
178.6023456075
 20
106.3718122266
 30
0.0
 10
178.6768970894
 20
106.473733787
 30
0.0
 10
178.7278863385
 20
106.5892522581
 30
0.0
 10
178.7425044315
 20
106.6714709038
 30
0.0
 10
178.7425044315
 20
106.7104555796
 30
0.0
  0
SPLINE
  5
55D
100
AcDbEntity
  8
3_ALL_AXES
100
AcDbSpline
 62
7
  6
CONTINUOUS
 70
0
 71
3
 72
14
 73
10
 74
0
 42
0.0000001
 43
0.0000001
 44
0.0000000001
 40
0.0
 40
0.0
 40
0.0
 40
0.0
 40
0.111819703
 40
0.2250984868
 40
0.3412530002
 40
0.4615095927
 40
0.5868987798
 40
0.7182040587
 40
1.0
 40
1.0
 40
1.0
 40
1.0
 10
160.6942455194
 20
98.8637054035
 30
0.0
 10
160.5821056278
 20
98.7989808748
 30
0.0
 10
160.3451904665
 20
98.6870408607
 30
0.0
 10
159.96376036
 20
98.5779529302
 30
0.0
 10
159.5605092831
 20
98.5272796121
 30
0.0
 10
159.1403631238
 20
98.5347492641
 30
0.0
 10
158.7074651204
 20
98.5987928775
 30
0.0
 10
158.1044145549
 20
98.761352117
 30
0.0
 10
157.6646767547
 20
98.9591456133
 30
0.0
 10
157.3787285284
 20
99.11631886
 30
0.0
  0
SPLINE
  5
55E
100
AcDbEntity
  8
3_ALL_AXES
100
AcDbSpline
 62
7
  6
CONTINUOUS
 70
0
 71
3
 72
23
 73
19
 74
0
 42
0.0000001
 43
0.0000001
 44
0.0000000001
 40
0.0
 40
0.0
 40
0.0
 40
0.0
 40
0.0625837974
 40
0.1294566861
 40
0.1998072023
 40
0.2726989093
 40
0.3470813699
 40
0.4218541701
 40
0.4959008718
 40
0.5681317495
 40
0.6375255465
 40
0.7031753194
 40
0.7643415231
 40
0.8205213959
 40
0.8715459119
 40
0.9177164475
 40
0.9599710734
 40
1.0
 40
1.0
 40
1.0
 40
1.0
 10
157.2659932082
 20
109.585600556
 30
0.0
 10
157.4864887427
 20
109.4582640624
 30
0.0
 10
157.92554668
 20
109.1646669615
 30
0.0
 10
158.5485727713
 20
108.6403909993
 30
0.0
 10
159.1461305971
 20
108.0272559758
 30
0.0
 10
159.704670117
 20
107.3387746019
 30
0.0
 10
160.2118361738
 20
106.5898492317
 30
0.0
 10
160.6564871066
 20
105.7968299732
 30
0.0
 10
161.0289255485
 20
104.9770137472
 30
0.0
 10
161.3210993428
 20
104.1483711056
 30
0.0
 10
161.5267904488
 20
103.3291812465
 30
0.0
 10
161.6417824187
 20
102.5376719858
 30
0.0
 10
161.6640424474
 20
101.791624327
 30
0.0
 10
161.5938386965
 20
101.107865696
 30
0.0
 10
161.4338064827
 20
100.5016484682
 30
0.0
 10
161.1883418131
 20
99.9857716122
 30
0.0
 10
160.8633695269
 20
99.5705920996
 30
0.0
 10
160.5945926461
 20
99.3637784125
 30
0.0
 10
160.453579716
 20
99.2823035863
 30
0.0
  0
SPLINE
  5
55F
100
AcDbEntity
  8
0
100
AcDbSpline
 62
7
  6
CONTINUOUS
 70
0
 71
3
 72
11
 73
7
 74
0
 42
0.0000001
 43
0.0000001
 44
0.0000000001
 40
0.0
 40
0.0
 40
0.0
 40
0.0
 40
0.2372662132
 40
0.5000002516
 40
0.7627732083
 40
1.0
 40
1.0
 40
1.0
 40
1.0
 10
138.976033106
 20
125.2471378668
 30
0.0
 10
138.938467223
 20
125.2254615797
 30
0.0
 10
138.8511308856
 20
125.1938213878
 30
0.0
 10
138.7114852417
 20
125.1786846391
 30
0.0
 10
138.5718482349
 20
125.1938316991
 30
0.0
 10
138.4845127682
 20
125.225472215
 30
0.0
 10
138.4469534573
 20
125.2471454733
 30
0.0
  0
SPLINE
  5
560
100
AcDbEntity
  8
0
100
AcDbSpline
 62
7
  6
CONTINUOUS
 70
0
 71
3
 72
9
 73
5
 74
0
 42
0.0000001
 43
0.0000001
 44
0.0000000001
 40
0.0
 40
0.0
 40
0.0
 40
0.0
 40
0.2615588321
 40
1.0
 40
1.0
 40
1.0
 40
1.0
 10
138.5358330609
 20
125.2115840608
 30
0.0
 10
138.5342568148
 20
125.2142842861
 30
0.0
 10
138.5288166057
 20
125.2249299613
 30
0.0
 10
138.5260806241
 20
125.2370249999
 30
0.0
 10
138.5260757637
 20
125.245852178
 30
0.0
  0
SPLINE
  5
561
100
AcDbEntity
  8
0
100
AcDbSpline
 62
7
  6
CONTINUOUS
 70
0
 71
3
 72
11
 73
7
 74
0
 42
0.0000001
 43
0.0000001
 44
0.0000000001
 40
0.0
 40
0.0
 40
0.0
 40
0.0
 40
0.2372662132
 40
0.5000002516
 40
0.7627732083
 40
1.0
 40
1.0
 40
1.0
 40
1.0
 10
150.2573055141
 20
131.7620891778
 30
0.0
 10
150.2197396311
 20
131.7404128907
 30
0.0
 10
150.1324032937
 20
131.7087726988
 30
0.0
 10
149.9927576498
 20
131.6936359501
 30
0.0
 10
149.853120643
 20
131.7087830101
 30
0.0
 10
149.7657851763
 20
131.740423526
 30
0.0
 10
149.7282258654
 20
131.7620967843
 30
0.0
  0
SPLINE
  5
562
100
AcDbEntity
  8
0
100
AcDbSpline
 62
7
  6
CONTINUOUS
 70
0
 71
3
 72
9
 73
5
 74
0
 42
0.0000001
 43
0.0000001
 44
0.0000000001
 40
0.0
 40
0.0
 40
0.0
 40
0.0
 40
0.2615588321
 40
1.0
 40
1.0
 40
1.0
 40
1.0
 10
149.817105469
 20
131.7265353718
 30
0.0
 10
149.8155292229
 20
131.729235597
 30
0.0
 10
149.8100890138
 20
131.7398812723
 30
0.0
 10
149.8073530322
 20
131.7519763109
 30
0.0
 10
149.8073481718
 20
131.760803489
 30
0.0
  0
SPLINE
  5
563
100
AcDbEntity
  8
0
100
AcDbSpline
 62
7
  6
CONTINUOUS
 70
0
 71
3
 72
11
 73
7
 74
0
 42
0.0000001
 43
0.0000001
 44
0.0000000001
 40
0.0
 40
0.0
 40
0.0
 40
0.0
 40
0.2372662132
 40
0.5000002516
 40
0.7627732083
 40
1.0
 40
1.0
 40
1.0
 40
1.0
 10
165.7587494804
 20
109.7800799993
 30
0.0
 10
165.7211835975
 20
109.7584037122
 30
0.0
 10
165.63384726
 20
109.7267635203
 30
0.0
 10
165.4942016161
 20
109.7116267716
 30
0.0
 10
165.3545646094
 20
109.7267738316
 30
0.0
 10
165.2672291427
 20
109.7584143475
 30
0.0
 10
165.2296698317
 20
109.7800876058
 30
0.0
  0
SPLINE
  5
564
100
AcDbEntity
  8
0
100
AcDbSpline
 62
7
  6
CONTINUOUS
 70
0
 71
3
 72
9
 73
5
 74
0
 42
0.0000001
 43
0.0000001
 44
0.0000000001
 40
0.0
 40
0.0
 40
0.0
 40
0.0
 40
0.2615588321
 40
1.0
 40
1.0
 40
1.0
 40
1.0
 10
165.3185494353
 20
109.7445261933
 30
0.0
 10
165.3169731892
 20
109.7472264185
 30
0.0
 10
165.3115329802
 20
109.7578720938
 30
0.0
 10
165.3087969986
 20
109.7699671324
 30
0.0
 10
165.3087921382
 20
109.7787943105
 30
0.0
  0
SPLINE
  5
565
100
AcDbEntity
  8
0
100
AcDbSpline
 62
7
  6
CONTINUOUS
 70
0
 71
3
 72
11
 73
7
 74
0
 42
0.0000001
 43
0.0000001
 44
0.0000000001
 40
0.0
 40
0.0
 40
0.0
 40
0.0
 40
0.2372662132
 40
0.5000002516
 40
0.7627732083
 40
1.0
 40
1.0
 40
1.0
 40
1.0
 10
177.0400218885
 20
116.2950313103
 30
0.0
 10
177.0024560056
 20
116.2733550232
 30
0.0
 10
176.9151196681
 20
116.2417148313
 30
0.0
 10
176.7754740242
 20
116.2265780826
 30
0.0
 10
176.6358370175
 20
116.2417251426
 30
0.0
 10
176.5485015508
 20
116.2733656584
 30
0.0
 10
176.5109422398
 20
116.2950389167
 30
0.0
  0
SPLINE
  5
566
100
AcDbEntity
  8
0
100
AcDbSpline
 62
7
  6
CONTINUOUS
 70
0
 71
3
 72
9
 73
5
 74
0
 42
0.0000001
 43
0.0000001
 44
0.0000000001
 40
0.0
 40
0.0
 40
0.0
 40
0.0
 40
0.2615588321
 40
1.0
 40
1.0
 40
1.0
 40
1.0
 10
176.5998218434
 20
116.2594775043
 30
0.0
 10
176.5982455973
 20
116.2621777295
 30
0.0
 10
176.5928053883
 20
116.2728234048
 30
0.0
 10
176.5900694067
 20
116.2849184433
 30
0.0
 10
176.5900645463
 20
116.2937456215
 30
0.0
  0
SPLINE
  5
567
100
AcDbEntity
  8
0
100
AcDbSpline
 62
7
  6
CONTINUOUS
 70
0
 71
3
 72
9
 73
5
 74
0
 42
0.0000001
 43
0.0000001
 44
0.0000000001
 40
0.0
 40
0.0
 40
0.0
 40
0.0
 40
0.2615136462
 40
1.0
 40
1.0
 40
1.0
 40
1.0
 10
177.6964469304
 20
103.1821941132
 30
0.0
 10
177.6995627588
 20
103.1822051376
 30
0.0
 10
177.711462514
 20
103.1815819193
 30
0.0
 10
177.723262055
 20
103.177908625
 30
0.0
 10
177.7308839629
 20
103.1735125209
 30
0.0
  0
SPLINE
  5
568
100
AcDbEntity
  8
0
100
AcDbSpline
 62
7
  6
CONTINUOUS
 70
0
 71
3
 72
9
 73
5
 74
0
 42
0.0000001
 43
0.0000001
 44
0.0000000001
 40
0.0
 40
0.0
 40
0.0
 40
0.0
 40
0.2615136462
 40
1.0
 40
1.0
 40
1.0
 40
1.0
 10
166.4151745223
 20
96.6672428022
 30
0.0
 10
166.4182903507
 20
96.6672538266
 30
0.0
 10
166.4301901059
 20
96.6666306083
 30
0.0
 10
166.4419896469
 20
96.662957314
 30
0.0
 10
166.4496115547
 20
96.6585612099
 30
0.0
  0
SPLINE
  5
569
100
AcDbEntity
  8
0
100
AcDbSpline
 62
7
  6
CONTINUOUS
 70
0
 71
3
 72
9
 73
5
 74
0
 42
0.0000001
 43
0.0000001
 44
0.0000000001
 40
0.0
 40
0.0
 40
0.0
 40
0.0
 40
0.2615136462
 40
1.0
 40
1.0
 40
1.0
 40
1.0
 10
177.6964469304
 20
114.9749051633
 30
0.0
 10
177.6995627588
 20
114.9749161876
 30
0.0
 10
177.711462514
 20
114.9742929693
 30
0.0
 10
177.723262055
 20
114.970619675
 30
0.0
 10
177.7308839629
 20
114.9662235709
 30
0.0
  0
SPLINE
  5
56A
100
AcDbEntity
  8
0
100
AcDbSpline
 62
7
  6
CONTINUOUS
 70
0
 71
3
 72
9
 73
5
 74
0
 42
0.0000001
 43
0.0000001
 44
0.0000000001
 40
0.0
 40
0.0
 40
0.0
 40
0.0
 40
0.2615136462
 40
1.0
 40
1.0
 40
1.0
 40
1.0
 10
166.4151745223
 20
108.4599538523
 30
0.0
 10
166.4182903507
 20
108.4599648766
 30
0.0
 10
166.4301901059
 20
108.4593416583
 30
0.0
 10
166.4419896469
 20
108.455668364
 30
0.0
 10
166.4496115547
 20
108.4512722599
 30
0.0
  0
SPLINE
  5
56B
100
AcDbEntity
  8
0
100
AcDbSpline
 62
7
  6
CONTINUOUS
 70
0
 71
3
 72
9
 73
5
 74
0
 42
0.0000001
 43
0.0000001
 44
0.0000000001
 40
0.0
 40
0.0
 40
0.0
 40
0.0
 40
0.2427177267
 40
1.0
 40
1.0
 40
1.0
 40
1.0
 10
177.5454347021
 20
102.8523890741
 30
0.0
 10
177.5427918584
 20
102.8539133927
 30
0.0
 10
177.5323676919
 20
102.8610007899
 30
0.0
 10
177.5242583819
 20
102.8712247541
 30
0.0
 10
177.5197372637
 20
102.8796014866
 30
0.0
  0
SPLINE
  5
56C
100
AcDbEntity
  8
0
100
AcDbSpline
 62
7
  6
CONTINUOUS
 70
0
 71
3
 72
9
 73
5
 74
0
 42
0.0000001
 43
0.0000001
 44
0.0000000001
 40
0.0
 40
0.0
 40
0.0
 40
0.0
 40
0.2427177267
 40
1.0
 40
1.0
 40
1.0
 40
1.0
 10
166.264162294
 20
96.3374377631
 30
0.0
 10
166.2615194503
 20
96.3389620817
 30
0.0
 10
166.2510952838
 20
96.3460494789
 30
0.0
 10
166.2429859738
 20
96.3562734431
 30
0.0
 10
166.2384648556
 20
96.3646501756
 30
0.0
  0
SPLINE
  5
56D
100
AcDbEntity
  8
0
100
AcDbSpline
 62
7
  6
CONTINUOUS
 70
0
 71
3
 72
9
 73
5
 74
0
 42
0.0000001
 43
0.0000001
 44
0.0000000001
 40
0.0
 40
0.0
 40
0.0
 40
0.0
 40
0.2427177267
 40
1.0
 40
1.0
 40
1.0
 40
1.0
 10
177.5454347021
 20
114.6451001241
 30
0.0
 10
177.5427918584
 20
114.6466244427
 30
0.0
 10
177.5323676919
 20
114.6537118399
 30
0.0
 10
177.5242583819
 20
114.6639358042
 30
0.0
 10
177.5197372637
 20
114.6723125366
 30
0.0
  0
SPLINE
  5
56E
100
AcDbEntity
  8
0
100
AcDbSpline
 62
7
  6
CONTINUOUS
 70
0
 71
3
 72
9
 73
5
 74
0
 42
0.0000001
 43
0.0000001
 44
0.0000000001
 40
0.0
 40
0.0
 40
0.0
 40
0.0
 40
0.2427177267
 40
1.0
 40
1.0
 40
1.0
 40
1.0
 10
166.264162294
 20
108.1301488132
 30
0.0
 10
166.2615194503
 20
108.1316731317
 30
0.0
 10
166.2510952838
 20
108.1387605289
 30
0.0
 10
166.2429859738
 20
108.1489844932
 30
0.0
 10
166.2384648556
 20
108.1573612256
 30
0.0
  0
SPLINE
  5
56F
100
AcDbEntity
  8
0
100
AcDbSpline
 62
7
  6
CONTINUOUS
 70
0
 71
3
 72
9
 73
5
 74
0
 42
0.0000001
 43
0.0000001
 44
0.0000000001
 40
0.0
 40
0.0
 40
0.0
 40
0.0
 40
0.2426867118
 40
1.0
 40
1.0
 40
1.0
 40
1.0
 10
138.896901436
 20
125.2458521767
 30
0.0
 10
138.8969031215
 20
125.242791109
 30
0.0
 10
138.8959732269
 20
125.2301762585
 30
0.0
 10
138.8911459802
 20
125.2180016393
 30
0.0
 10
138.8861254284
 20
125.2098752479
 30
0.0
  0
SPLINE
  5
570
100
AcDbEntity
  8
0
100
AcDbSpline
 62
7
  6
CONTINUOUS
 70
0
 71
3
 72
9
 73
5
 74
0
 42
0.0000001
 43
0.0000001
 44
0.0000000001
 40
0.0
 40
0.0
 40
0.0
 40
0.0
 40
0.2426867118
 40
1.0
 40
1.0
 40
1.0
 40
1.0
 10
150.1781738442
 20
131.7608034877
 30
0.0
 10
150.1781755296
 20
131.75774242
 30
0.0
 10
150.177245635
 20
131.7451275695
 30
0.0
 10
150.1724183883
 20
131.7329529502
 30
0.0
 10
150.1673978365
 20
131.7248265589
 30
0.0
  0
SPLINE
  5
571
100
AcDbEntity
  8
0
100
AcDbSpline
 62
7
  6
CONTINUOUS
 70
0
 71
3
 72
9
 73
5
 74
0
 42
0.0000001
 43
0.0000001
 44
0.0000000001
 40
0.0
 40
0.0
 40
0.0
 40
0.0
 40
0.2426867118
 40
1.0
 40
1.0
 40
1.0
 40
1.0
 10
165.6796178105
 20
109.7787943092
 30
0.0
 10
165.679619496
 20
109.7757332415
 30
0.0
 10
165.6786896013
 20
109.763118391
 30
0.0
 10
165.6738623547
 20
109.7509437717
 30
0.0
 10
165.6688418028
 20
109.7428173804
 30
0.0
  0
SPLINE
  5
572
100
AcDbEntity
  8
0
100
AcDbSpline
 62
7
  6
CONTINUOUS
 70
0
 71
3
 72
9
 73
5
 74
0
 42
0.0000001
 43
0.0000001
 44
0.0000000001
 40
0.0
 40
0.0
 40
0.0
 40
0.0
 40
0.2426867118
 40
1.0
 40
1.0
 40
1.0
 40
1.0
 10
176.9608902186
 20
116.2937456202
 30
0.0
 10
176.9608919041
 20
116.2906845525
 30
0.0
 10
176.9599620094
 20
116.2780697019
 30
0.0
 10
176.9551347628
 20
116.2658950827
 30
0.0
 10
176.9501142109
 20
116.2577686914
 30
0.0
  0
SPLINE
  5
573
100
AcDbEntity
  8
7_ALL_ROUNDS
100
AcDbSpline
 62
7
  6
CONTINUOUS
 70
0
 71
3
 72
11
 73
7
 74
0
 42
0.0000001
 43
0.0000001
 44
0.0000000001
 40
0.0
 40
0.0
 40
0.0
 40
0.0
 40
0.2177289906
 40
0.4508621686
 40
0.7104408338
 40
1.0
 40
1.0
 40
1.0
 40
1.0
 10
174.9216207422
 20
104.3097821895
 30
0.0
 10
174.9327137698
 20
104.3033759388
 30
0.0
 10
174.9581960829
 20
104.2940946367
 30
0.0
 10
175.0005600401
 20
104.2930354044
 30
0.0
 10
175.0456872966
 20
104.3039641104
 30
0.0
 10
175.0750586712
 20
104.3179237347
 30
0.0
 10
175.0898113653
 20
104.3264434372
 30
0.0
  0
SPLINE
  5
574
100
AcDbEntity
  8
7_ALL_ROUNDS
100
AcDbSpline
 62
7
  6
CONTINUOUS
 70
0
 71
3
 72
11
 73
7
 74
0
 42
0.0000001
 43
0.0000001
 44
0.0000000001
 40
0.0
 40
0.0
 40
0.0
 40
0.0
 40
0.2177289906
 40
0.4508621686
 40
0.7104408338
 40
1.0
 40
1.0
 40
1.0
 40
1.0
 10
165.1258175009
 20
98.6526914944
 30
0.0
 10
165.1369105285
 20
98.6462852437
 30
0.0
 10
165.1623928416
 20
98.6370039416
 30
0.0
 10
165.2047567988
 20
98.6359447093
 30
0.0
 10
165.2498840553
 20
98.6468734153
 30
0.0
 10
165.2792554299
 20
98.6608330396
 30
0.0
 10
165.294008124
 20
98.669352742
 30
0.0
  0
SPLINE
  5
575
100
AcDbEntity
  8
7_ALL_ROUNDS
100
AcDbSpline
 62
7
  6
CONTINUOUS
 70
0
 71
3
 72
9
 73
5
 74
0
 42
0.0000001
 43
0.0000001
 44
0.0000000001
 40
0.0
 40
0.0
 40
0.0
 40
0.0
 40
0.4765123816
 40
1.0
 40
1.0
 40
1.0
 40
1.0
 10
165.0830754773
 20
98.3885898973
 30
0.0
 10
165.0598033462
 20
98.4020296102
 30
0.0
 10
165.0166964625
 20
98.4410406849
 30
0.0
 10
164.991355113
 20
98.4927099241
 30
0.0
 10
164.9819629879
 20
98.5206995496
 30
0.0
  0
SPLINE
  5
576
100
AcDbEntity
  8
7_ALL_ROUNDS
100
AcDbSpline
 62
7
  6
CONTINUOUS
 70
0
 71
3
 72
9
 73
5
 74
0
 42
0.0000001
 43
0.0000001
 44
0.0000000001
 40
0.0
 40
0.0
 40
0.0
 40
0.0
 40
0.2343695312
 40
1.0
 40
1.0
 40
1.0
 40
1.0
 10
164.9819629879
 20
98.5206995496
 30
0.0
 10
164.9785314728
 20
98.5309258638
 30
0.0
 10
164.9660661053
 20
98.5752864279
 30
0.0
 10
164.9616679368
 20
98.6216830511
 30
0.0
 10
164.9616679368
 20
98.6569206637
 30
0.0
  0
SPLINE
  5
577
100
AcDbEntity
  8
7_ALL_ROUNDS
100
AcDbSpline
 62
7
  6
CONTINUOUS
 70
0
 71
3
 72
9
 73
5
 74
0
 42
0.0000001
 43
0.0000001
 44
0.0000000001
 40
0.0
 40
0.0
 40
0.0
 40
0.0
 40
0.4765123816
 40
1.0
 40
1.0
 40
1.0
 40
1.0
 10
174.8788787186
 20
104.0456805924
 30
0.0
 10
174.8556065874
 20
104.0591203054
 30
0.0
 10
174.8124997038
 20
104.09813138
 30
0.0
 10
174.7871583543
 20
104.1498006192
 30
0.0
 10
174.7777662292
 20
104.1777902447
 30
0.0
  0
SPLINE
  5
578
100
AcDbEntity
  8
7_ALL_ROUNDS
100
AcDbSpline
 62
7
  6
CONTINUOUS
 70
0
 71
3
 72
9
 73
5
 74
0
 42
0.0000001
 43
0.0000001
 44
0.0000000001
 40
0.0
 40
0.0
 40
0.0
 40
0.0
 40
0.2343695312
 40
1.0
 40
1.0
 40
1.0
 40
1.0
 10
174.7777662292
 20
104.1777902447
 30
0.0
 10
174.7743347141
 20
104.188016559
 30
0.0
 10
174.7618693466
 20
104.232377123
 30
0.0
 10
174.7574711781
 20
104.2787737462
 30
0.0
 10
174.7574711781
 20
104.3140113588
 30
0.0
  0
SPLINE
  5
579
100
AcDbEntity
  8
3_ALL_AXES
100
AcDbSpline
 62
7
  6
CONTINUOUS
 70
0
 71
3
 72
17
 73
13
 74
0
 42
0.0000001
 43
0.0000001
 44
0.0000000001
 40
0.0
 40
0.0
 40
0.0
 40
0.0
 40
0.0428689013
 40
0.0875098379
 40
0.1353546886
 40
0.1873289325
 40
0.3046054973
 40
0.4382758367
 40
0.5826112013
 40
0.7297531327
 40
0.8713263151
 40
1.0
 40
1.0
 40
1.0
 40
1.0
 10
136.6717773939
 20
123.9773772887
 30
0.0
 10
136.671782574
 20
123.9528232383
 30
0.0
 10
136.678385907
 20
123.9024903783
 30
0.0
 10
136.7072789139
 20
123.8298225949
 30
0.0
 10
136.754148091
 20
123.7609354319
 30
0.0
 10
136.842335147
 20
123.6724539001
 30
0.0
 10
136.9925813517
 20
123.5810167478
 30
0.0
 10
137.2085859746
 20
123.5088782955
 30
0.0
 10
137.4509728365
 20
123.4748329364
 30
0.0
 10
137.7000947371
 20
123.4817486238
 30
0.0
 10
137.9356204465
 20
123.5288977188
 30
0.0
 10
138.0801267861
 20
123.5885424572
 30
0.0
 10
138.143949128
 20
123.6253999529
 30
0.0
  0
SPLINE
  5
57A
100
AcDbEntity
  8
3_ALL_AXES
100
AcDbSpline
 62
7
  6
CONTINUOUS
 70
0
 71
3
 72
17
 73
13
 74
0
 42
0.0000001
 43
0.0000001
 44
0.0000000001
 40
0.0
 40
0.0
 40
0.0
 40
0.0
 40
0.0428689013
 40
0.0875098379
 40
0.1353546886
 40
0.1873289325
 40
0.3046054973
 40
0.4382758367
 40
0.5826112013
 40
0.7297531327
 40
0.8713263151
 40
1.0
 40
1.0
 40
1.0
 40
1.0
 10
151.4971987337
 20
132.5390797899
 30
0.0
 10
151.4972039138
 20
132.5145257395
 30
0.0
 10
151.5038072468
 20
132.4641928795
 30
0.0
 10
151.5327002537
 20
132.3915250962
 30
0.0
 10
151.5795694308
 20
132.3226379331
 30
0.0
 10
151.6677564868
 20
132.2341564013
 30
0.0
 10
151.8180026915
 20
132.142719249
 30
0.0
 10
152.0340073144
 20
132.0705807967
 30
0.0
 10
152.2763941762
 20
132.0365354377
 30
0.0
 10
152.5255160769
 20
132.0434511251
 30
0.0
 10
152.7610417863
 20
132.09060022
 30
0.0
 10
152.9055481259
 20
132.1502449584
 30
0.0
 10
152.9693704677
 20
132.1871024541
 30
0.0
  0
SPLINE
  5
57B
100
AcDbEntity
  8
3_ALL_AXES
100
AcDbSpline
 62
7
  6
CONTINUOUS
 70
0
 71
3
 72
17
 73
13
 74
0
 42
0.0000001
 43
0.0000001
 44
0.0000000001
 40
0.0
 40
0.0
 40
0.0
 40
0.0
 40
0.0428689013
 40
0.0875098379
 40
0.1353546886
 40
0.1873289325
 40
0.3046054973
 40
0.4382758367
 40
0.5826112013
 40
0.7297531327
 40
0.8713263151
 40
1.0
 40
1.0
 40
1.0
 40
1.0
 10
162.1686726333
 20
109.2528830068
 30
0.0
 10
162.1686778134
 20
109.2283289564
 30
0.0
 10
162.1752811464
 20
109.1779960964
 30
0.0
 10
162.2041741533
 20
109.1053283131
 30
0.0
 10
162.2510433304
 20
109.03644115
 30
0.0
 10
162.3392303863
 20
108.9479596182
 30
0.0
 10
162.4894765911
 20
108.8565224659
 30
0.0
 10
162.705481214
 20
108.7843840136
 30
0.0
 10
162.9478680758
 20
108.7503386546
 30
0.0
 10
163.1969899765
 20
108.757254342
 30
0.0
 10
163.4325156858
 20
108.8044034369
 30
0.0
 10
163.5770220254
 20
108.8640481753
 30
0.0
 10
163.6408443673
 20
108.900905671
 30
0.0
  0
SPLINE
  5
57C
100
AcDbEntity
  8
3_ALL_AXES
100
AcDbSpline
 62
7
  6
CONTINUOUS
 70
0
 71
3
 72
17
 73
13
 74
0
 42
0.0000001
 43
0.0000001
 44
0.0000000001
 40
0.0
 40
0.0
 40
0.0
 40
0.0
 40
0.0428689013
 40
0.0875098379
 40
0.1353546886
 40
0.1873289325
 40
0.3046054973
 40
0.4382758367
 40
0.5826112013
 40
0.7297531327
 40
0.8713263151
 40
1.0
 40
1.0
 40
1.0
 40
1.0
 10
176.9940939731
 20
117.814585508
 30
0.0
 10
176.9940991531
 20
117.7900314576
 30
0.0
 10
177.0007024861
 20
117.7396985976
 30
0.0
 10
177.029595493
 20
117.6670308143
 30
0.0
 10
177.0764646701
 20
117.5981436512
 30
0.0
 10
177.1646517261
 20
117.5096621194
 30
0.0
 10
177.3148979308
 20
117.4182249671
 30
0.0
 10
177.5309025538
 20
117.3460865148
 30
0.0
 10
177.7732894156
 20
117.3120411558
 30
0.0
 10
178.0224113162
 20
117.3189568432
 30
0.0
 10
178.2579370256
 20
117.3661059382
 30
0.0
 10
178.4024433652
 20
117.4257506765
 30
0.0
 10
178.4662657071
 20
117.4626081723
 30
0.0
  0
SPLINE
  5
57D
100
AcDbEntity
  8
7_ALL_ROUNDS
100
AcDbSpline
 62
7
  6
CONTINUOUS
 70
0
 71
3
 72
11
 73
7
 74
0
 42
0.0000001
 43
0.0000001
 44
0.0000000001
 40
0.0
 40
0.0
 40
0.0
 40
0.0
 40
0.237263303
 40
0.5000248203
 40
0.7627728379
 40
1.0
 40
1.0
 40
1.0
 40
1.0
 10
165.294008124
 20
104.7663603655
 30
0.0
 10
165.2602434716
 20
104.7468612294
 30
0.0
 10
165.1963455295
 20
104.6930849459
 30
0.0
 10
165.1217940477
 20
104.5911633855
 30
0.0
 10
165.0708047986
 20
104.4756449144
 30
0.0
 10
165.0561867056
 20
104.3934262687
 30
0.0
 10
165.0561867056
 20
104.3544415929
 30
0.0
  0
SPLINE
  5
57E
100
AcDbEntity
  8
7_ALL_ROUNDS
100
AcDbSpline
 62
7
  6
CONTINUOUS
 70
0
 71
3
 72
11
 73
7
 74
0
 42
0.0000001
 43
0.0000001
 44
0.0000000001
 40
0.0
 40
0.0
 40
0.0
 40
0.0
 40
0.2895362536
 40
0.5491069103
 40
0.7822494613
 40
1.0
 40
1.0
 40
1.0
 40
1.0
 10
165.0561867056
 20
98.806587081
 30
0.0
 10
165.0561867056
 20
98.7895627794
 30
0.0
 10
165.0587847543
 20
98.7571685768
 30
0.0
 10
165.0718787706
 20
98.7126524431
 30
0.0
 10
165.0939653206
 20
98.6765152501
 30
0.0
 10
165.1147301549
 20
98.659094464
 30
0.0
 10
165.1258175009
 20
98.6526914944
 30
0.0
  0
SPLINE
  5
57F
100
AcDbEntity
  8
7_ALL_ROUNDS
100
AcDbSpline
 62
7
  6
CONTINUOUS
 70
0
 71
3
 72
11
 73
7
 74
0
 42
0.0000001
 43
0.0000001
 44
0.0000000001
 40
0.0
 40
0.0
 40
0.0
 40
0.0
 40
0.237263303
 40
0.5000248203
 40
0.7627728379
 40
1.0
 40
1.0
 40
1.0
 40
1.0
 10
175.0898113653
 20
110.4234510606
 30
0.0
 10
175.0560467129
 20
110.4039519245
 30
0.0
 10
174.9921487708
 20
110.350175641
 30
0.0
 10
174.917597289
 20
110.2482540806
 30
0.0
 10
174.8666080399
 20
110.1327356095
 30
0.0
 10
174.8519899469
 20
110.0505169638
 30
0.0
 10
174.8519899469
 20
110.011532288
 30
0.0
  0
SPLINE
  5
580
100
AcDbEntity
  8
7_ALL_ROUNDS
100
AcDbSpline
 62
7
  6
CONTINUOUS
 70
0
 71
3
 72
11
 73
7
 74
0
 42
0.0000001
 43
0.0000001
 44
0.0000000001
 40
0.0
 40
0.0
 40
0.0
 40
0.0
 40
0.2263014154
 40
0.467154825
 40
0.727197588
 40
1.0
 40
1.0
 40
1.0
 40
1.0
 10
162.723885869
 20
93.9301422766
 30
0.0
 10
162.7439012188
 20
93.9185926755
 30
0.0
 10
162.7918468102
 20
93.9049966492
 30
0.0
 10
162.8669599302
 20
93.9187615806
 30
0.0
 10
162.9352623881
 20
93.9615359574
 30
0.0
 10
162.9701628646
 20
94.0047138164
 30
0.0
 10
162.9840913736
 20
94.0288387012
 30
0.0
  0
SPLINE
  5
581
100
AcDbEntity
  8
7_ALL_ROUNDS
100
AcDbSpline
 62
7
  6
CONTINUOUS
 70
0
 71
3
 72
11
 73
7
 74
0
 42
0.0000001
 43
0.0000001
 44
0.0000000001
 40
0.0
 40
0.0
 40
0.0
 40
0.0
 40
0.2895362536
 40
0.5491069103
 40
0.7822494613
 40
1.0
 40
1.0
 40
1.0
 40
1.0
 10
174.8519899469
 20
104.4636777761
 30
0.0
 10
174.8519899469
 20
104.4466534745
 30
0.0
 10
174.8545879956
 20
104.4142592719
 30
0.0
 10
174.8676820119
 20
104.3697431382
 30
0.0
 10
174.8897685619
 20
104.3336059452
 30
0.0
 10
174.9105333962
 20
104.3161851591
 30
0.0
 10
174.9216207422
 20
104.3097821895
 30
0.0
  0
SPLINE
  5
582
100
AcDbEntity
  8
3_ALL_AXES
100
AcDbSpline
 62
7
  6
CONTINUOUS
 70
0
 71
3
 72
11
 73
7
 74
0
 42
0.0000001
 43
0.0000001
 44
0.0000000001
 40
0.0
 40
0.0
 40
0.0
 40
0.0
 40
0.2896255282
 40
0.5490783037
 40
0.7822055329
 40
1.0
 40
1.0
 40
1.0
 40
1.0
 10
177.24666869
 20
118.1669272329
 30
0.0
 10
177.2088193497
 20
118.1450691836
 30
0.0
 10
177.1401445291
 20
118.0977346378
 30
0.0
 10
177.0580621872
 20
118.0114495603
 30
0.0
 10
177.006143594
 20
117.9159700051
 30
0.0
 10
176.9940870391
 20
117.8474529656
 30
0.0
 10
176.9940939731
 20
117.814585508
 30
0.0
  0
SPLINE
  5
583
100
AcDbEntity
  8
7_ALL_ROUNDS
100
AcDbSpline
 62
7
  6
CONTINUOUS
 70
0
 71
3
 72
11
 73
7
 74
0
 42
0.0000001
 43
0.0000001
 44
0.0000000001
 40
0.0
 40
0.0
 40
0.0
 40
0.0
 40
0.2322312422
 40
0.4739184848
 40
0.7296329215
 40
1.0
 40
1.0
 40
1.0
 40
1.0
 10
163.2443815224
 20
93.629791377
 30
0.0
 10
163.2593593231
 20
93.6211486404
 30
0.0
 10
163.2934775871
 20
93.6090937456
 30
0.0
 10
163.3487710178
 20
93.6096712163
 30
0.0
 10
163.4037516258
 20
93.6280532417
 30
0.0
 10
163.4365626009
 20
93.6504018725
 30
0.0
 10
163.4516816099
 20
93.6636955424
 30
0.0
  0
SPLINE
  5
584
100
AcDbEntity
  8
7_ALL_ROUNDS
100
AcDbSpline
 62
7
  6
CONTINUOUS
 70
0
 71
3
 72
9
 73
5
 74
0
 42
0.0000001
 43
0.0000001
 44
0.0000000001
 40
0.0
 40
0.0
 40
0.0
 40
0.0
 40
0.2481758856
 40
1.0
 40
1.0
 40
1.0
 40
1.0
 10
163.4516816099
 20
93.6636955424
 30
0.0
 10
163.4568911686
 20
93.6682761438
 30
0.0
 10
163.4770779772
 20
93.6876311475
 30
0.0
 10
163.4940795438
 20
93.7102884662
 30
0.0
 10
163.5045869581
 20
93.7284878414
 30
0.0
  0
SPLINE
  5
585
100
AcDbEntity
  8
3_ALL_AXES
100
AcDbSpline
 62
7
  6
CONTINUOUS
 70
0
 71
3
 72
11
 73
7
 74
0
 42
0.0000001
 43
0.0000001
 44
0.0000000001
 40
0.0
 40
0.0
 40
0.0
 40
0.0
 40
0.2896255282
 40
0.5490783037
 40
0.7822055329
 40
1.0
 40
1.0
 40
1.0
 40
1.0
 10
162.4212473502
 20
109.6052247317
 30
0.0
 10
162.38339801
 20
109.5833666823
 30
0.0
 10
162.3147231893
 20
109.5360321366
 30
0.0
 10
162.2326408474
 20
109.449747059
 30
0.0
 10
162.1807222542
 20
109.3542675039
 30
0.0
 10
162.1686656993
 20
109.2857504643
 30
0.0
 10
162.1686726333
 20
109.2528830068
 30
0.0
  0
SPLINE
  5
586
100
AcDbEntity
  8
7_ALL_ROUNDS
100
AcDbSpline
 62
7
  6
CONTINUOUS
 70
0
 71
3
 72
11
 73
7
 74
0
 42
0.0000001
 43
0.0000001
 44
0.0000000001
 40
0.0
 40
0.0
 40
0.0
 40
0.0
 40
0.2177183417
 40
0.4509414853
 40
0.7102939937
 40
1.0
 40
1.0
 40
1.0
 40
1.0
 10
162.7238224113
 20
93.930178909
 30
0.0
 10
162.716716112
 20
93.9342828475
 30
0.0
 10
162.7034196311
 20
93.9454696883
 30
0.0
 10
162.6892514102
 20
93.96861668
 30
0.0
 10
162.6808499976
 20
93.9971547486
 30
0.0
 10
162.6791921193
 20
94.0179191487
 30
0.0
 10
162.6791921193
 20
94.0288387012
 30
0.0
  0
SPLINE
  5
587
100
AcDbEntity
  8
3_ALL_AXES
100
AcDbSpline
 62
7
  6
CONTINUOUS
 70
0
 71
3
 72
11
 73
7
 74
0
 42
0.0000001
 43
0.0000001
 44
0.0000000001
 40
0.0
 40
0.0
 40
0.0
 40
0.0
 40
0.2360868799
 40
0.4781467054
 40
0.7314458205
 40
1.0
 40
1.0
 40
1.0
 40
1.0
 10
160.7247726597
 20
98.8115855829
 30
0.0
 10
160.5975045497
 20
98.7380781654
 30
0.0
 10
160.3240883553
 20
98.6147438951
 30
0.0
 10
159.8781469608
 20
98.5106833199
 30
0.0
 10
159.4008817352
 20
98.4873335965
 30
0.0
 10
159.0766319208
 20
98.5239245714
 30
0.0
 10
158.9121859779
 20
98.5540523658
 30
0.0
  0
SPLINE
  5
588
100
AcDbEntity
  8
3_ALL_AXES
100
AcDbSpline
 62
7
  6
CONTINUOUS
 70
0
 71
3
 72
9
 73
5
 74
0
 42
0.0000001
 43
0.0000001
 44
0.0000000001
 40
0.0
 40
0.0
 40
0.0
 40
0.0
 40
0.2422062475
 40
1.0
 40
1.0
 40
1.0
 40
1.0
 10
158.8783166004
 20
98.5604226503
 30
0.0
 10
158.8231255133
 20
98.571071608
 30
0.0
 10
158.5962742752
 20
98.6202439992
 30
0.0
 10
158.3739205151
 20
98.6894579366
 30
0.0
 10
158.2091647382
 20
98.7509636782
 30
0.0
  0
SPLINE
  5
589
100
AcDbEntity
  8
3_ALL_AXES
100
AcDbSpline
 62
7
  6
CONTINUOUS
 70
0
 71
3
 72
14
 73
10
 74
0
 42
0.0000001
 43
0.0000001
 44
0.0000000001
 40
0.0
 40
0.0
 40
0.0
 40
0.0
 40
0.1080369472
 40
0.2181111879
 40
0.3320811406
 40
0.451471729
 40
0.5774171152
 40
0.7106951696
 40
1.0
 40
1.0
 40
1.0
 40
1.0
 10
160.4535861262
 20
99.282366981
 30
0.0
 10
160.3530557414
 20
99.2242638615
 30
0.0
 10
160.1395774283
 20
99.1242296033
 30
0.0
 10
159.7941400149
 20
99.0286026046
 30
0.0
 10
159.4258587619
 20
98.9875174537
 30
0.0
 10
159.0387043369
 20
99.0009395565
 30
0.0
 10
158.6363244058
 20
99.0684474179
 30
0.0
 10
158.0693984839
 20
99.2337777745
 30
0.0
 10
157.6560085235
 20
99.4305919637
 30
0.0
 10
157.3867508637
 20
99.5860886559
 30
0.0
  0
SPLINE
  5
58A
100
AcDbEntity
  8
3_ALL_AXES
100
AcDbSpline
 62
7
  6
CONTINUOUS
 70
0
 71
3
 72
11
 73
7
 74
0
 42
0.0000001
 43
0.0000001
 44
0.0000000001
 40
0.0
 40
0.0
 40
0.0
 40
0.0
 40
0.2896255282
 40
0.5490783037
 40
0.7822055329
 40
1.0
 40
1.0
 40
1.0
 40
1.0
 10
151.7497734507
 20
132.8914215148
 30
0.0
 10
151.7119241104
 20
132.8695634654
 30
0.0
 10
151.6432492897
 20
132.8222289197
 30
0.0
 10
151.5611669478
 20
132.7359438421
 30
0.0
 10
151.5092483546
 20
132.640464287
 30
0.0
 10
151.4971917998
 20
132.5719472474
 30
0.0
 10
151.4971987337
 20
132.5390797899
 30
0.0
  0
SPLINE
  5
58B
100
AcDbEntity
  8
7_ALL_ROUNDS
100
AcDbSpline
 62
7
  6
CONTINUOUS
 70
0
 71
3
 72
11
 73
7
 74
0
 42
0.0000001
 43
0.0000001
 44
0.0000000001
 40
0.0
 40
0.0
 40
0.0
 40
0.0
 40
0.2372271621
 40
0.4999751797
 40
0.762736697
 40
1.0
 40
1.0
 40
1.0
 40
1.0
 10
165.0317947653
 20
104.3685279741
 30
0.0
 10
165.0317947653
 20
104.4075126499
 30
0.0
 10
165.0464128582
 20
104.4897312956
 30
0.0
 10
165.0974021074
 20
104.6052497667
 30
0.0
 10
165.1719535892
 20
104.7071713271
 30
0.0
 10
165.2358515312
 20
104.7609476106
 30
0.0
 10
165.2696161836
 20
104.7804467467
 30
0.0
  0
SPLINE
  5
58C
100
AcDbEntity
  8
7_ALL_ROUNDS
100
AcDbSpline
 62
7
  6
CONTINUOUS
 70
0
 71
3
 72
11
 73
7
 74
0
 42
0.0000001
 43
0.0000001
 44
0.0000000001
 40
0.0
 40
0.0
 40
0.0
 40
0.0
 40
0.2176661421
 40
0.4510615623
 40
0.7109785677
 40
1.0
 40
1.0
 40
1.0
 40
1.0
 10
163.4603621854
 20
93.6300640196
 30
0.0
 10
163.4674102882
 20
93.6341964279
 30
0.0
 10
163.4805858198
 20
93.6454127382
 30
0.0
 10
163.4946359157
 20
93.6685273132
 30
0.0
 10
163.5029129545
 20
93.6969714418
 30
0.0
 10
163.5045869581
 20
93.7176392562
 30
0.0
 10
163.5045869581
 20
93.7284878414
 30
0.0
  0
SPLINE
  5
58D
100
AcDbEntity
  8
7_ALL_ROUNDS
100
AcDbSpline
 62
7
  6
CONTINUOUS
 70
0
 71
3
 72
11
 73
7
 74
0
 42
0.0000001
 43
0.0000001
 44
0.0000000001
 40
0.0
 40
0.0
 40
0.0
 40
0.0
 40
0.2895591662
 40
0.5491378314
 40
0.7822710094
 40
1.0
 40
1.0
 40
1.0
 40
1.0
 10
168.6844878315
 20
106.7525401165
 30
0.0
 10
168.6992405256
 20
106.7610598189
 30
0.0
 10
168.7286119002
 20
106.7750194433
 30
0.0
 10
168.7737391567
 20
106.7859481493
 30
0.0
 10
168.8161031139
 20
106.784888917
 30
0.0
 10
168.841585427
 20
106.7756076149
 30
0.0
 10
168.8526784545
 20
106.7692013642
 30
0.0
  0
SPLINE
  5
58E
100
AcDbEntity
  8
7_ALL_ROUNDS
100
AcDbSpline
 62
7
  6
CONTINUOUS
 70
0
 71
3
 72
11
 73
7
 74
0
 42
0.0000001
 43
0.0000001
 44
0.0000000001
 40
0.0
 40
0.0
 40
0.0
 40
0.0
 40
0.2372271621
 40
0.4999751797
 40
0.762736697
 40
1.0
 40
1.0
 40
1.0
 40
1.0
 10
174.8275980066
 20
110.0256186692
 30
0.0
 10
174.8275980066
 20
110.064603345
 30
0.0
 10
174.8422160995
 20
110.1468219907
 30
0.0
 10
174.8932053487
 20
110.2623404618
 30
0.0
 10
174.9677568305
 20
110.3642620222
 30
0.0
 10
175.0316547725
 20
110.4180383057
 30
0.0
 10
175.0654194249
 20
110.4375374418
 30
0.0
  0
SPLINE
  5
58F
100
AcDbEntity
  8
3_ALL_AXES
100
AcDbSpline
 62
7
  6
CONTINUOUS
 70
0
 71
3
 72
11
 73
7
 74
0
 42
0.0000001
 43
0.0000001
 44
0.0000000001
 40
0.0
 40
0.0
 40
0.0
 40
0.0
 40
0.2896255282
 40
0.5490783037
 40
0.7822055329
 40
1.0
 40
1.0
 40
1.0
 40
1.0
 10
136.9243521109
 20
124.3297190136
 30
0.0
 10
136.8865027706
 20
124.3078609642
 30
0.0
 10
136.8178279499
 20
124.2605264184
 30
0.0
 10
136.7357456081
 20
124.1742413409
 30
0.0
 10
136.6838270149
 20
124.0787617858
 30
0.0
 10
136.67177046
 20
124.0102447462
 30
0.0
 10
136.6717773939
 20
123.9773772887
 30
0.0
  0
SPLINE
  5
590
100
AcDbEntity
  8
0
100
AcDbSpline
 62
7
  6
CONTINUOUS
 70
0
 71
3
 72
15
 73
11
 74
0
 42
0.0000001
 43
0.0000001
 44
0.0000000001
 40
0.0
 40
0.0
 40
0.0
 40
0.0
 40
0.144924337
 40
0.2745547418
 40
0.3911596274
 40
0.5000618373
 40
0.6089101405
 40
0.7254921146
 40
0.855330883
 40
1.0
 40
1.0
 40
1.0
 40
1.0
 10
138.4469534573
 20
125.2471454733
 30
0.0
 10
138.4305124571
 20
125.2566326027
 30
0.0
 10
138.400677522
 20
125.2771370411
 30
0.0
 10
138.3650671078
 20
125.3145893349
 30
0.0
 10
138.342496117
 20
125.3560251582
 30
0.0
 10
138.3346913858
 20
125.3999903956
 30
0.0
 10
138.3424589625
 20
125.4439545155
 30
0.0
 10
138.3649898844
 20
125.4854402849
 30
0.0
 10
138.4006470512
 20
125.5228353419
 30
0.0
 10
138.4304272731
 20
125.5433986193
 30
0.0
 10
138.4468360472
 20
125.5528747102
 30
0.0
  0
SPLINE
  5
591
100
AcDbEntity
  8
7_ALL_ROUNDS
100
AcDbSpline
 62
7
  6
CONTINUOUS
 70
0
 71
3
 72
11
 73
7
 74
0
 42
0.0000001
 43
0.0000001
 44
0.0000000001
 40
0.0
 40
0.0
 40
0.0
 40
0.0
 40
0.2895591662
 40
0.5491378314
 40
0.7822710094
 40
1.0
 40
1.0
 40
1.0
 40
1.0
 10
178.4802910728
 20
112.4096308117
 30
0.0
 10
178.4950437669
 20
112.4181505141
 30
0.0
 10
178.5244151415
 20
112.4321101384
 30
0.0
 10
178.5695423979
 20
112.4430388444
 30
0.0
 10
178.6119063552
 20
112.4419796121
 30
0.0
 10
178.6373886683
 20
112.43269831
 30
0.0
 10
178.6484816958
 20
112.4262920593
 30
0.0
  0
SPLINE
  5
592
100
AcDbEntity
  8
7_ALL_ROUNDS
100
AcDbSpline
 62
7
  6
CONTINUOUS
 70
0
 71
3
 72
11
 73
7
 74
0
 42
0.0000001
 43
0.0000001
 44
0.0000000001
 40
0.0
 40
0.0
 40
0.0
 40
0.0
 40
0.2176925423
 40
0.450990563
 40
0.710868764
 40
1.0
 40
1.0
 40
1.0
 40
1.0
 10
181.0362940789
 20
103.9046469074
 30
0.0
 10
181.0362940788
 20
103.8964375131
 30
0.0
 10
181.0332526599
 20
103.8793196717
 30
0.0
 10
181.0202844306
 20
103.8554359518
 30
0.0
 10
180.9997286626
 20
103.8339089922
 30
0.0
 10
180.9825893926
 20
103.8220598033
 30
0.0
 10
180.9731473757
 20
103.8166070248
 30
0.0
  0
SPLINE
  5
593
100
AcDbEntity
  8
3_ALL_AXES
100
AcDbSpline
 62
7
  6
CONTINUOUS
 70
0
 71
3
 72
16
 73
12
 74
0
 42
0.0000001
 43
0.0000001
 44
0.0000000001
 40
0.0
 40
0.0
 40
0.0
 40
0.0
 40
0.128709776
 40
0.2704336726
 40
0.4176420034
 40
0.5620671985
 40
0.6957950267
 40
0.8131022715
 40
0.9124877222
 40
0.9571227586
 40
1.0
 40
1.0
 40
1.0
 40
1.0
 10
168.1448161514
 20
103.1389779263
 30
0.0
 10
168.1448161514
 20
103.1758327958
 30
0.0
 10
168.1344784011
 20
103.253353525
 30
0.0
 10
168.0960044013
 20
103.3671797873
 30
0.0
 10
168.0366186445
 20
103.4768150378
 30
0.0
 10
167.9612860969
 20
103.5732786348
 30
0.0
 10
167.8758631152
 20
103.648795875
 30
0.0
 10
167.7870151833
 20
103.6974962278
 30
0.0
 10
167.711592841
 20
103.7121890393
 30
0.0
 10
167.6581900995
 20
103.7042753752
 30
0.0
 10
167.6347708743
 20
103.6945046801
 30
0.0
 10
167.6241415126
 20
103.6883602646
 30
0.0
  0
SPLINE
  5
594
100
AcDbEntity
  8
0
100
AcDbSpline
 62
7
  6
CONTINUOUS
 70
0
 71
3
 72
15
 73
11
 74
0
 42
0.0000001
 43
0.0000001
 44
0.0000000001
 40
0.0
 40
0.0
 40
0.0
 40
0.0
 40
0.144924337
 40
0.2745547418
 40
0.3911596274
 40
0.5000618373
 40
0.6089101405
 40
0.7254921146
 40
0.855330883
 40
1.0
 40
1.0
 40
1.0
 40
1.0
 10
149.7282258654
 20
131.7620967843
 30
0.0
 10
149.7117848652
 20
131.7715839136
 30
0.0
 10
149.6819499301
 20
131.792088352
 30
0.0
 10
149.6463395159
 20
131.8295406459
 30
0.0
 10
149.6237685251
 20
131.8709764692
 30
0.0
 10
149.6159637939
 20
131.9149417066
 30
0.0
 10
149.6237313706
 20
131.9589058265
 30
0.0
 10
149.6462622925
 20
132.0003915959
 30
0.0
 10
149.6819194593
 20
132.0377866529
 30
0.0
 10
149.7116996812
 20
132.0583499303
 30
0.0
 10
149.7281084553
 20
132.0678260212
 30
0.0
  0
SPLINE
  5
595
100
AcDbEntity
  8
0
100
AcDbSpline
 62
7
  6
CONTINUOUS
 70
0
 71
3
 72
19
 73
15
 74
0
 42
0.0000001
 43
0.0000001
 44
0.0000000001
 40
0.0
 40
0.0
 40
0.0
 40
0.0
 40
0.1382596951
 40
0.2913770596
 40
0.444517226
 40
0.5827551884
 40
0.6432151197
 40
0.6972956428
 40
0.7459447418
 40
0.7913841982
 40
0.8368046275
 40
0.8854534837
 40
0.9396334222
 40
1.0
 40
1.0
 40
1.0
 40
1.0
 10
138.4468360472
 20
125.5528747102
 30
0.0
 10
138.4844085674
 20
125.5745728951
 30
0.0
 10
138.5717817614
 20
125.6062419466
 30
0.0
 10
138.7114835047
 20
125.6214033611
 30
0.0
 10
138.8512160542
 20
125.606206202
 30
0.0
 10
138.95663197
 20
125.5680633656
 30
0.0
 10
139.0223658381
 20
125.5228837236
 30
0.0
 10
139.0579566309
 20
125.4854213606
 30
0.0
 10
139.0804992189
 20
125.4439944523
 30
0.0
 10
139.0882846486
 20
125.4000390699
 30
0.0
 10
139.0805053459
 20
125.356088483
 30
0.0
 10
139.0579720073
 20
125.3146158169
 30
0.0
 10
139.0223196921
 20
125.277232047
 30
0.0
 10
138.9925459657
 20
125.2566740414
 30
0.0
 10
138.9761411526
 20
125.2472002379
 30
0.0
  0
SPLINE
  5
596
100
AcDbEntity
  8
0
100
AcDbSpline
 62
7
  6
CONTINUOUS
 70
0
 71
3
 72
15
 73
11
 74
0
 42
0.0000001
 43
0.0000001
 44
0.0000000001
 40
0.0
 40
0.0
 40
0.0
 40
0.0
 40
0.144924337
 40
0.2745547418
 40
0.3911596274
 40
0.5000618373
 40
0.6089101405
 40
0.7254921146
 40
0.855330883
 40
1.0
 40
1.0
 40
1.0
 40
1.0
 10
165.2296698317
 20
109.7800876058
 30
0.0
 10
165.2132288316
 20
109.7895747352
 30
0.0
 10
165.1833938964
 20
109.8100791735
 30
0.0
 10
165.1477834823
 20
109.8475314674
 30
0.0
 10
165.1252124915
 20
109.8889672907
 30
0.0
 10
165.1174077603
 20
109.9329325281
 30
0.0
 10
165.125175337
 20
109.976896648
 30
0.0
 10
165.1477062589
 20
110.0183824174
 30
0.0
 10
165.1833634256
 20
110.0557774744
 30
0.0
 10
165.2131436475
 20
110.0763407518
 30
0.0
 10
165.2295524216
 20
110.0858168427
 30
0.0
  0
SPLINE
  5
597
100
AcDbEntity
  8
0
100
AcDbSpline
 62
7
  6
CONTINUOUS
 70
0
 71
3
 72
15
 73
11
 74
0
 42
0.0000001
 43
0.0000001
 44
0.0000000001
 40
0.0
 40
0.0
 40
0.0
 40
0.0
 40
0.144924337
 40
0.2745547418
 40
0.3911596274
 40
0.5000618373
 40
0.6089101405
 40
0.7254921146
 40
0.855330883
 40
1.0
 40
1.0
 40
1.0
 40
1.0
 10
176.5109422398
 20
116.2950389167
 30
0.0
 10
176.4945012397
 20
116.3045260461
 30
0.0
 10
176.4646663045
 20
116.3250304845
 30
0.0
 10
176.4290558904
 20
116.3624827784
 30
0.0
 10
176.4064848996
 20
116.4039186017
 30
0.0
 10
176.3986801684
 20
116.4478838391
 30
0.0
 10
176.4064477451
 20
116.491847959
 30
0.0
 10
176.428978667
 20
116.5333337284
 30
0.0
 10
176.4646358337
 20
116.5707287854
 30
0.0
 10
176.4944160556
 20
116.5912920628
 30
0.0
 10
176.5108248297
 20
116.6007681537
 30
0.0
  0
SPLINE
  5
598
100
AcDbEntity
  8
3_ALL_AXES
100
AcDbSpline
 62
7
  6
CONTINUOUS
 70
0
 71
3
 72
16
 73
12
 74
0
 42
0.0000001
 43
0.0000001
 44
0.0000000001
 40
0.0
 40
0.0
 40
0.0
 40
0.0
 40
0.128709776
 40
0.2704336726
 40
0.4176420034
 40
0.5620671985
 40
0.6957950267
 40
0.8131022715
 40
0.9124877222
 40
0.9571227586
 40
1.0
 40
1.0
 40
1.0
 40
1.0
 10
177.9406193927
 20
108.7960686214
 30
0.0
 10
177.9406193927
 20
108.8329234909
 30
0.0
 10
177.9302816424
 20
108.9104442202
 30
0.0
 10
177.8918076426
 20
109.0242704824
 30
0.0
 10
177.8324218858
 20
109.133905733
 30
0.0
 10
177.7570893382
 20
109.2303693299
 30
0.0
 10
177.6716663565
 20
109.3058865701
 30
0.0
 10
177.5828184245
 20
109.3545869229
 30
0.0
 10
177.5073960823
 20
109.3692797344
 30
0.0
 10
177.4539933407
 20
109.3613660704
 30
0.0
 10
177.4305741156
 20
109.3515953752
 30
0.0
 10
177.4199447539
 20
109.3454509598
 30
0.0
  0
SPLINE
  5
599
100
AcDbEntity
  8
7_ALL_ROUNDS
100
AcDbSpline
 62
7
  6
CONTINUOUS
 70
0
 71
3
 72
9
 73
5
 74
0
 42
0.0000001
 43
0.0000001
 44
0.0000000001
 40
0.0
 40
0.0
 40
0.0
 40
0.0
 40
0.2453708723
 40
1.0
 40
1.0
 40
1.0
 40
1.0
 10
135.1083721524
 20
123.9584002479
 30
0.0
 10
135.1058482669
 20
123.9558389793
 30
0.0
 10
135.0957442124
 20
123.9452224056
 30
0.0
 10
135.0863549425
 20
123.9339293985
 30
0.0
 10
135.0796861648
 20
123.9251074723
 30
0.0
  0
SPLINE
  5
59A
100
AcDbEntity
  8
0
100
AcDbSpline
 62
7
  6
CONTINUOUS
 70
0
 71
3
 72
19
 73
15
 74
0
 42
0.0000001
 43
0.0000001
 44
0.0000000001
 40
0.0
 40
0.0
 40
0.0
 40
0.0
 40
0.1382596951
 40
0.2913770596
 40
0.444517226
 40
0.5827551884
 40
0.6432151197
 40
0.6972956428
 40
0.7459447418
 40
0.7913841982
 40
0.8368046275
 40
0.8854534837
 40
0.9396334222
 40
1.0
 40
1.0
 40
1.0
 40
1.0
 10
149.7281084553
 20
132.0678260212
 30
0.0
 10
149.7656809755
 20
132.0895242061
 30
0.0
 10
149.8530541695
 20
132.1211932575
 30
0.0
 10
149.9927559128
 20
132.136354672
 30
0.0
 10
150.1324884624
 20
132.121157513
 30
0.0
 10
150.2379043781
 20
132.0830146765
 30
0.0
 10
150.3036382462
 20
132.0378350345
 30
0.0
 10
150.339229039
 20
132.0003726715
 30
0.0
 10
150.361771627
 20
131.9589457633
 30
0.0
 10
150.3695570567
 20
131.9149903809
 30
0.0
 10
150.361777754
 20
131.871039794
 30
0.0
 10
150.3392444154
 20
131.8295671279
 30
0.0
 10
150.3035921002
 20
131.792183358
 30
0.0
 10
150.2738183738
 20
131.7716253524
 30
0.0
 10
150.2574135607
 20
131.7621515489
 30
0.0
  0
SPLINE
  5
59B
100
AcDbEntity
  8
7_ALL_ROUNDS
100
AcDbSpline
 62
7
  6
CONTINUOUS
 70
0
 71
3
 72
11
 73
7
 74
0
 42
0.0000001
 43
0.0000001
 44
0.0000000001
 40
0.0
 40
0.0
 40
0.0
 40
0.0
 40
0.2897058554
 40
0.5490584022
 40
0.7822816576
 40
1.0
 40
1.0
 40
1.0
 40
1.0
 10
134.4894266663
 20
110.308469469
 30
0.0
 10
134.4894266663
 20
110.2975499741
 30
0.0
 10
134.4910845279
 20
110.2767856781
 30
0.0
 10
134.4994858482
 20
110.2482477341
 30
0.0
 10
134.5136539096
 20
110.2251007969
 30
0.0
 10
134.5269502527
 20
110.2139139226
 30
0.0
 10
134.5340564866
 20
110.2098099491
 30
0.0
  0
SPLINE
  5
59C
100
AcDbEntity
  8
7_ALL_ROUNDS
100
AcDbSpline
 62
7
  6
CONTINUOUS
 70
0
 71
3
 72
9
 73
5
 74
0
 42
0.0000001
 43
0.0000001
 44
0.0000000001
 40
0.0
 40
0.0
 40
0.0
 40
0.0
 40
0.5255832072
 40
1.0
 40
1.0
 40
1.0
 40
1.0
 10
134.5340781283
 20
122.985666199
 30
0.0
 10
134.5202371413
 20
122.9616929068
 30
0.0
 10
134.4987879979
 20
122.9130957844
 30
0.0
 10
134.4894266663
 20
122.8604087032
 30
0.0
 10
134.4894266663
 20
122.8354216167
 30
0.0
  0
SPLINE
  5
59D
100
AcDbEntity
  8
0
100
AcDbSpline
 62
7
  6
CONTINUOUS
 70
0
 71
3
 72
15
 73
11
 74
0
 42
0.0000001
 43
0.0000001
 44
0.0000000001
 40
0.0
 40
0.0
 40
0.0
 40
0.0
 40
0.1449141048
 40
0.2745301443
 40
0.3911213875
 40
0.500015795
 40
0.6088645756
 40
0.7254553583
 40
0.8553097124
 40
1.0
 40
1.0
 40
1.0
 40
1.0
 10
177.7718091575
 20
103.2414292825
 30
0.0
 10
177.7882347723
 20
103.2509076924
 30
0.0
 10
177.8208855758
 20
103.2664636307
 30
0.0
 10
177.8710827198
 20
103.2785429932
 30
0.0
 10
177.9182068386
 20
103.2773507362
 30
0.0
 10
177.9601381164
 20
103.2621212465
 30
0.0
 10
177.9942858836
 20
103.2334216347
 30
0.0
 10
178.0189141517
 20
103.1931899672
 30
0.0
 10
178.0334472369
 20
103.1436460553
 30
0.0
 10
178.0363577586
 20
103.1076000117
 30
0.0
 10
178.0363577586
 20
103.0886650965
 30
0.0
  0
SPLINE
  5
59E
100
AcDbEntity
  8
0
100
AcDbSpline
 62
7
  6
CONTINUOUS
 70
0
 71
3
 72
15
 73
11
 74
0
 42
0.0000001
 43
0.0000001
 44
0.0000000001
 40
0.0
 40
0.0
 40
0.0
 40
0.0
 40
0.1449141048
 40
0.2745301443
 40
0.3911213875
 40
0.500015795
 40
0.6088645756
 40
0.7254553583
 40
0.8553097124
 40
1.0
 40
1.0
 40
1.0
 40
1.0
 10
166.4905367494
 20
96.7264779715
 30
0.0
 10
166.5069623642
 20
96.7359563814
 30
0.0
 10
166.5396131677
 20
96.7515123197
 30
0.0
 10
166.5898103117
 20
96.7635916822
 30
0.0
 10
166.6369344305
 20
96.7623994252
 30
0.0
 10
166.6788657083
 20
96.7471699355
 30
0.0
 10
166.7130134755
 20
96.7184703237
 30
0.0
 10
166.7376417436
 20
96.6782386562
 30
0.0
 10
166.7521748288
 20
96.6286947444
 30
0.0
 10
166.7550853505
 20
96.5926487008
 30
0.0
 10
166.7550853504
 20
96.5737137855
 30
0.0
  0
SPLINE
  5
59F
100
AcDbEntity
  8
0
100
AcDbSpline
 62
7
  6
CONTINUOUS
 70
0
 71
3
 72
15
 73
11
 74
0
 42
0.0000001
 43
0.0000001
 44
0.0000000001
 40
0.0
 40
0.0
 40
0.0
 40
0.0
 40
0.1449141048
 40
0.2745301443
 40
0.3911213875
 40
0.500015795
 40
0.6088645756
 40
0.7254553583
 40
0.8553097124
 40
1.0
 40
1.0
 40
1.0
 40
1.0
 10
177.7718091575
 20
115.0341403325
 30
0.0
 10
177.7882347723
 20
115.0436187424
 30
0.0
 10
177.8208855758
 20
115.0591746807
 30
0.0
 10
177.8710827198
 20
115.0712540432
 30
0.0
 10
177.9182068386
 20
115.0700617862
 30
0.0
 10
177.9601381164
 20
115.0548322965
 30
0.0
 10
177.9942858836
 20
115.0261326847
 30
0.0
 10
178.0189141517
 20
114.9859010172
 30
0.0
 10
178.0334472369
 20
114.9363571054
 30
0.0
 10
178.0363577586
 20
114.9003110618
 30
0.0
 10
178.0363577586
 20
114.8813761465
 30
0.0
  0
SPLINE
  5
5A0
100
AcDbEntity
  8
0
100
AcDbSpline
 62
7
  6
CONTINUOUS
 70
0
 71
3
 72
15
 73
11
 74
0
 42
0.0000001
 43
0.0000001
 44
0.0000000001
 40
0.0
 40
0.0
 40
0.0
 40
0.0
 40
0.1449141048
 40
0.2745301443
 40
0.3911213875
 40
0.500015795
 40
0.6088645756
 40
0.7254553583
 40
0.8553097124
 40
1.0
 40
1.0
 40
1.0
 40
1.0
 10
166.4905367494
 20
108.5191890215
 30
0.0
 10
166.5069623642
 20
108.5286674314
 30
0.0
 10
166.5396131677
 20
108.5442233697
 30
0.0
 10
166.5898103117
 20
108.5563027322
 30
0.0
 10
166.6369344305
 20
108.5551104752
 30
0.0
 10
166.6788657083
 20
108.5398809855
 30
0.0
 10
166.7130134755
 20
108.5111813737
 30
0.0
 10
166.7376417436
 20
108.4709497062
 30
0.0
 10
166.7521748288
 20
108.4214057944
 30
0.0
 10
166.7550853505
 20
108.3853597508
 30
0.0
 10
166.7550853504
 20
108.3664248356
 30
0.0
  0
SPLINE
  5
5A1
100
AcDbEntity
  8
0
100
AcDbSpline
 62
7
  6
CONTINUOUS
 70
0
 71
3
 72
19
 73
15
 74
0
 42
0.0000001
 43
0.0000001
 44
0.0000000001
 40
0.0
 40
0.0
 40
0.0
 40
0.0
 40
0.1382596951
 40
0.2913770596
 40
0.444517226
 40
0.5827551884
 40
0.6432151197
 40
0.6972956428
 40
0.7459447418
 40
0.7913841982
 40
0.8368046275
 40
0.8854534837
 40
0.9396334222
 40
1.0
 40
1.0
 40
1.0
 40
1.0
 10
165.2295524216
 20
110.0858168427
 30
0.0
 10
165.2671249419
 20
110.1075150276
 30
0.0
 10
165.3544981359
 20
110.139184079
 30
0.0
 10
165.4941998791
 20
110.1543454935
 30
0.0
 10
165.6339324287
 20
110.1391483345
 30
0.0
 10
165.7393483445
 20
110.101005498
 30
0.0
 10
165.8050822126
 20
110.055825856
 30
0.0
 10
165.8406730053
 20
110.018363493
 30
0.0
 10
165.8632155934
 20
109.9769365848
 30
0.0
 10
165.871001023
 20
109.9329812024
 30
0.0
 10
165.8632217203
 20
109.8890306155
 30
0.0
 10
165.8406883817
 20
109.8475579494
 30
0.0
 10
165.8050360666
 20
109.8101741795
 30
0.0
 10
165.7752623401
 20
109.7896161739
 30
0.0
 10
165.758857527
 20
109.7801423704
 30
0.0
  0
SPLINE
  5
5A2
100
AcDbEntity
  8
3_ALL_AXES
100
AcDbSpline
 62
7
  6
CONTINUOUS
 70
0
 71
3
 72
12
 73
8
 74
0
 42
0.0000001
 43
0.0000001
 44
0.0000000001
 40
0.0
 40
0.0
 40
0.0
 40
0.0
 40
0.1079286755
 40
0.2191329928
 40
0.4551935155
 40
0.7147267075
 40
1.0
 40
1.0
 40
1.0
 40
1.0
 10
145.0912511293
 20
106.7077448338
 30
0.0
 10
144.9690189524
 20
106.6659890773
 30
0.0
 10
144.7144039486
 20
106.5990081197
 30
0.0
 10
144.1723053003
 20
106.53272827
 30
0.0
 10
143.4405654908
 20
106.5853087898
 30
0.0
 10
142.5381844926
 20
106.8473807392
 30
0.0
 10
141.9496006387
 20
107.1352231284
 30
0.0
 10
141.6539493432
 20
107.3059621838
 30
0.0
  0
SPLINE
  5
5A3
100
AcDbEntity
  8
3_ALL_AXES
100
AcDbSpline
 62
7
  6
CONTINUOUS
 70
0
 71
3
 72
9
 73
5
 74
0
 42
0.0000001
 43
0.0000001
 44
0.0000000001
 40
0.0
 40
0.0
 40
0.0
 40
0.0
 40
0.2661919259
 40
1.0
 40
1.0
 40
1.0
 40
1.0
 10
177.24666869
 20
117.9909166202
 30
0.0
 10
177.2310661015
 20
117.9819061026
 30
0.0
 10
177.1736529251
 20
117.9461095686
 30
0.0
 10
177.1209521318
 20
117.9020884342
 30
0.0
 10
177.0880762511
 20
117.8648574264
 30
0.0
  0
SPLINE
  5
5A4
100
AcDbEntity
  8
3_ALL_AXES
100
AcDbSpline
 62
7
  6
CONTINUOUS
 70
0
 71
3
 72
9
 73
5
 74
0
 42
0.0000001
 43
0.0000001
 44
0.0000000001
 40
0.0
 40
0.0
 40
0.0
 40
0.0
 40
0.2646107185
 40
1.0
 40
1.0
 40
1.0
 40
1.0
 10
177.0880762511
 20
117.8648574264
 30
0.0
 10
177.0791017917
 20
117.8546941042
 30
0.0
 10
177.0468371659
 20
117.8149077662
 30
0.0
 10
177.021699166
 20
117.7689784899
 30
0.0
 10
177.0097426242
 20
117.733244731
 30
0.0
  0
SPLINE
  5
5A5
100
AcDbEntity
  8
3_ALL_AXES
100
AcDbSpline
 62
7
  6
CONTINUOUS
 70
0
 71
3
 72
9
 73
5
 74
0
 42
0.0000001
 43
0.0000001
 44
0.0000000001
 40
0.0
 40
0.0
 40
0.0
 40
0.0
 40
0.2661919259
 40
1.0
 40
1.0
 40
1.0
 40
1.0
 10
162.4212473502
 20
109.429214119
 30
0.0
 10
162.4056447617
 20
109.4202036013
 30
0.0
 10
162.3482315854
 20
109.3844070674
 30
0.0
 10
162.295530792
 20
109.340385933
 30
0.0
 10
162.2626549113
 20
109.3031549252
 30
0.0
  0
SPLINE
  5
5A6
100
AcDbEntity
  8
3_ALL_AXES
100
AcDbSpline
 62
7
  6
CONTINUOUS
 70
0
 71
3
 72
9
 73
5
 74
0
 42
0.0000001
 43
0.0000001
 44
0.0000000001
 40
0.0
 40
0.0
 40
0.0
 40
0.0
 40
0.2646107185
 40
1.0
 40
1.0
 40
1.0
 40
1.0
 10
162.2626549113
 20
109.3031549252
 30
0.0
 10
162.2536804519
 20
109.292991603
 30
0.0
 10
162.2214158261
 20
109.253205265
 30
0.0
 10
162.1962778262
 20
109.2072759887
 30
0.0
 10
162.1843212844
 20
109.1715422297
 30
0.0
  0
SPLINE
  5
5A7
100
AcDbEntity
  8
0
100
AcDbSpline
 62
7
  6
CONTINUOUS
 70
0
 71
3
 72
19
 73
15
 74
0
 42
0.0000001
 43
0.0000001
 44
0.0000000001
 40
0.0
 40
0.0
 40
0.0
 40
0.0
 40
0.1382596951
 40
0.2913770596
 40
0.444517226
 40
0.5827551884
 40
0.6432151197
 40
0.6972956428
 40
0.7459447418
 40
0.7913841982
 40
0.8368046275
 40
0.8854534837
 40
0.9396334222
 40
1.0
 40
1.0
 40
1.0
 40
1.0
 10
176.5108248297
 20
116.6007681537
 30
0.0
 10
176.54839735
 20
116.6224663386
 30
0.0
 10
176.635770544
 20
116.65413539
 30
0.0
 10
176.7754722872
 20
116.6692968045
 30
0.0
 10
176.9152048368
 20
116.6540996454
 30
0.0
 10
177.0206207526
 20
116.615956809
 30
0.0
 10
177.0863546207
 20
116.570777167
 30
0.0
 10
177.1219454134
 20
116.533314804
 30
0.0
 10
177.1444880015
 20
116.4918878958
 30
0.0
 10
177.1522734312
 20
116.4479325134
 30
0.0
 10
177.1444941284
 20
116.4039819265
 30
0.0
 10
177.1219607898
 20
116.3625092604
 30
0.0
 10
177.0863084747
 20
116.3251254905
 30
0.0
 10
177.0565347483
 20
116.3045674848
 30
0.0
 10
177.0401299351
 20
116.2950936814
 30
0.0
  0
SPLINE
  5
5A8
100
AcDbEntity
  8
3_ALL_AXES
100
AcDbSpline
 62
7
  6
CONTINUOUS
 70
0
 71
3
 72
9
 73
5
 74
0
 42
0.0000001
 43
0.0000001
 44
0.0000000001
 40
0.0
 40
0.0
 40
0.0
 40
0.0
 40
0.2661919259
 40
1.0
 40
1.0
 40
1.0
 40
1.0
 10
151.7497734507
 20
132.7154109021
 30
0.0
 10
151.7341708622
 20
132.7064003844
 30
0.0
 10
151.6767576858
 20
132.6706038505
 30
0.0
 10
151.6240568925
 20
132.6265827161
 30
0.0
 10
151.5911810117
 20
132.5893517083
 30
0.0
  0
SPLINE
  5
5A9
100
AcDbEntity
  8
3_ALL_AXES
100
AcDbSpline
 62
7
  6
CONTINUOUS
 70
0
 71
3
 72
9
 73
5
 74
0
 42
0.0000001
 43
0.0000001
 44
0.0000000001
 40
0.0
 40
0.0
 40
0.0
 40
0.0
 40
0.2646107185
 40
1.0
 40
1.0
 40
1.0
 40
1.0
 10
151.5911810117
 20
132.5893517083
 30
0.0
 10
151.5822065524
 20
132.5791883861
 30
0.0
 10
151.5499419265
 20
132.5394020481
 30
0.0
 10
151.5248039266
 20
132.4934727718
 30
0.0
 10
151.5128473849
 20
132.4577390128
 30
0.0
  0
SPLINE
  5
5AA
100
AcDbEntity
  8
3_ALL_AXES
100
AcDbSpline
 62
7
  6
CONTINUOUS
 70
0
 71
3
 72
11
 73
7
 74
0
 42
0.0000001
 43
0.0000001
 44
0.0000000001
 40
0.0
 40
0.0
 40
0.0
 40
0.0
 40
0.2360547797
 40
0.4780974243
 40
0.7314053616
 40
1.0
 40
1.0
 40
1.0
 40
1.0
 10
144.9919553946
 20
107.8972923716
 30
0.0
 10
144.8645156449
 20
107.8236872071
 30
0.0
 10
144.5906995936
 20
107.7002201418
 30
0.0
 10
144.1440756874
 20
107.5961866635
 30
0.0
 10
143.6660657791
 20
107.5730835989
 30
0.0
 10
143.3413301184
 20
107.6099691274
 30
0.0
 10
143.1766391474
 20
107.6402722982
 30
0.0
  0
SPLINE
  5
5AB
100
AcDbEntity
  8
3_ALL_AXES
100
AcDbSpline
 62
7
  6
CONTINUOUS
 70
0
 71
3
 72
9
 73
5
 74
0
 42
0.0000001
 43
0.0000001
 44
0.0000000001
 40
0.0
 40
0.0
 40
0.0
 40
0.0
 40
0.2425844455
 40
1.0
 40
1.0
 40
1.0
 40
1.0
 10
143.112278458
 20
107.6527092422
 30
0.0
 10
143.0597502837
 20
107.6633425622
 30
0.0
 10
142.8441683522
 20
107.7118321714
 30
0.0
 10
142.632750267
 20
107.7782829353
 30
0.0
 10
142.4759887323
 20
107.8368193795
 30
0.0
  0
SPLINE
  5
5AC
100
AcDbEntity
  8
3_ALL_AXES
100
AcDbSpline
 62
7
  6
CONTINUOUS
 70
0
 71
3
 72
9
 73
5
 74
0
 42
0.0000001
 43
0.0000001
 44
0.0000000001
 40
0.0
 40
0.0
 40
0.0
 40
0.0
 40
0.2661919259
 40
1.0
 40
1.0
 40
1.0
 40
1.0
 10
136.9243521109
 20
124.1537084009
 30
0.0
 10
136.9087495224
 20
124.1446978832
 30
0.0
 10
136.851336346
 20
124.1089013493
 30
0.0
 10
136.7986355527
 20
124.0648802149
 30
0.0
 10
136.765759672
 20
124.027649207
 30
0.0
  0
SPLINE
  5
5AD
100
AcDbEntity
  8
3_ALL_AXES
100
AcDbSpline
 62
7
  6
CONTINUOUS
 70
0
 71
3
 72
9
 73
5
 74
0
 42
0.0000001
 43
0.0000001
 44
0.0000000001
 40
0.0
 40
0.0
 40
0.0
 40
0.0
 40
0.2646107185
 40
1.0
 40
1.0
 40
1.0
 40
1.0
 10
136.765759672
 20
124.027649207
 30
0.0
 10
136.7567852126
 20
124.0174858849
 30
0.0
 10
136.7245205868
 20
123.9776995469
 30
0.0
 10
136.6993825869
 20
123.9317702706
 30
0.0
 10
136.6874260451
 20
123.8960365116
 30
0.0
  0
SPLINE
  5
5AE
100
AcDbEntity
  8
0
100
AcDbSpline
 62
7
  6
CONTINUOUS
 70
0
 71
3
 72
11
 73
7
 74
0
 42
0.0000001
 43
0.0000001
 44
0.0000000001
 40
0.0
 40
0.0
 40
0.0
 40
0.0
 40
0.2176880317
 40
0.4509726039
 40
0.7108534586
 40
1.0
 40
1.0
 40
1.0
 40
1.0
 10
177.7308839629
 20
103.1735125209
 30
0.0
 10
177.7369962737
 20
103.1699871103
 30
0.0
 10
177.74843159
 20
103.1603653634
 30
0.0
 10
177.7606269092
 20
103.1404423215
 30
0.0
 10
177.7678131993
 20
103.1158888251
 30
0.0
 10
177.7692660118
 20
103.0980374694
 30
0.0
 10
177.7692660118
 20
103.0886650965
 30
0.0
  0
SPLINE
  5
5AF
100
AcDbEntity
  8
3_ALL_AXES
100
AcDbSpline
 62
7
  6
CONTINUOUS
 70
0
 71
3
 72
14
 73
10
 74
0
 42
0.0000001
 43
0.0000001
 44
0.0000000001
 40
0.0
 40
0.0
 40
0.0
 40
0.0
 40
0.1080373252
 40
0.218111355
 40
0.3320807941
 40
0.4514708463
 40
0.5774158813
 40
0.710693918
 40
1.0
 40
1.0
 40
1.0
 40
1.0
 10
144.7209077688
 20
108.368154053
 30
0.0
 10
144.6203766585
 20
108.310041181
 30
0.0
 10
144.4068952307
 20
108.2099883608
 30
0.0
 10
144.0614479738
 20
108.1143384616
 30
0.0
 10
143.6931534318
 20
108.0732358754
 30
0.0
 10
143.3059828951
 20
108.0866463392
 30
0.0
 10
142.9035846142
 20
108.1541481958
 30
0.0
 10
142.3366304438
 20
108.3194782763
 30
0.0
 10
141.9232199996
 20
108.5163003404
 30
0.0
 10
141.6539493432
 20
108.6718045383
 30
0.0
  0
SPLINE
  5
5B0
100
AcDbEntity
  8
3_ALL_AXES
100
AcDbSpline
 62
7
  6
CONTINUOUS
 70
0
 71
3
 72
25
 73
21
 74
0
 42
0.0000001
 43
0.0000001
 44
0.0000000001
 40
0.0
 40
0.0
 40
0.0
 40
0.0
 40
0.0623857395
 40
0.1287326027
 40
0.1983267113
 40
0.2703066795
 40
0.3436853471
 40
0.4174180202
 40
0.4904427593
 40
0.5617292219
 40
0.6303259942
 40
0.6954126756
 40
0.75635897
 40
0.8127946041
 40
0.8646930953
 40
0.9124653084
 40
0.9351086176
 40
0.9571118989
 40
0.9786703422
 40
1.0
 40
1.0
 40
1.0
 40
1.0
 10
156.9294019822
 20
97.9561266537
 30
0.0
 10
156.6490411946
 20
98.1180354185
 30
0.0
 10
156.0920659339
 20
98.4903336764
 30
0.0
 10
155.3032964734
 20
99.1541733935
 30
0.0
 10
154.5493169983
 20
99.9283613393
 30
0.0
 10
153.8462195419
 20
100.7962616104
 30
0.0
 10
153.2089041656
 20
101.7395099773
 30
0.0
 10
152.6509542144
 20
102.7379584399
 30
0.0
 10
152.1842737177
 20
103.7703291052
 30
0.0
 10
151.818807254
 20
104.8146271219
 30
0.0
 10
151.5623393931
 20
105.8486828855
 30
0.0
 10
151.4203715935
 20
106.8506875972
 30
0.0
 10
151.3960613442
 20
107.7996858122
 30
0.0
 10
151.4904884371
 20
108.6761696972
 30
0.0
 10
151.7025506177
 20
109.4619040579
 30
0.0
 10
151.9808451657
 20
110.037824664
 30
0.0
 10
152.2588318062
 20
110.4298021089
 30
0.0
 10
152.4894340497
 20
110.6856355658
 30
0.0
 10
152.7444173304
 20
110.9068766222
 30
0.0
 10
152.9302180744
 20
111.0307094637
 30
0.0
 10
153.0260700694
 20
111.0860716098
 30
0.0
  0
SPLINE
  5
5B1
100
AcDbEntity
  8
3_ALL_AXES
100
AcDbSpline
 62
7
  6
CONTINUOUS
 70
0
 71
3
 72
14
 73
10
 74
0
 42
0.0000001
 43
0.0000001
 44
0.0000000001
 40
0.0
 40
0.0
 40
0.0
 40
0.0
 40
0.2893055839
 40
0.4225726938
 40
0.5485244552
 40
0.6679214864
 40
0.7818884422
 40
0.8919626762
 40
1.0
 40
1.0
 40
1.0
 40
1.0
 10
141.1966004618
 20
107.0418425361
 30
0.0
 10
141.5392980506
 20
106.8439341774
 30
0.0
 10
142.0654244826
 20
106.5934503358
 30
0.0
 10
142.7869637069
 20
106.3829894265
 30
0.0
 10
143.299092229
 20
106.2970845877
 30
0.0
 10
143.791854069
 20
106.2798900668
 30
0.0
 10
144.2605814189
 20
106.3322230324
 30
0.0
 10
144.7002604465
 20
106.453827844
 30
0.0
 10
144.9719608408
 20
106.5811522057
 30
0.0
 10
145.0999323746
 20
106.6550659385
 30
0.0
  0
SPLINE
  5
5B2
100
AcDbEntity
  8
0
100
AcDbSpline
 62
7
  6
CONTINUOUS
 70
0
 71
3
 72
11
 73
7
 74
0
 42
0.0000001
 43
0.0000001
 44
0.0000000001
 40
0.0
 40
0.0
 40
0.0
 40
0.0
 40
0.2176880317
 40
0.4509726039
 40
0.7108534586
 40
1.0
 40
1.0
 40
1.0
 40
1.0
 10
166.4496115547
 20
96.6585612099
 30
0.0
 10
166.4557238656
 20
96.6550357993
 30
0.0
 10
166.4671591819
 20
96.6454140524
 30
0.0
 10
166.4793545011
 20
96.6254910106
 30
0.0
 10
166.4865407912
 20
96.6009375141
 30
0.0
 10
166.4879936037
 20
96.5830861584
 30
0.0
 10
166.4879936037
 20
96.5737137855
 30
0.0
  0
SPLINE
  5
5B3
100
AcDbEntity
  8
0
100
AcDbSpline
 62
7
  6
CONTINUOUS
 70
0
 71
3
 72
11
 73
7
 74
0
 42
0.0000001
 43
0.0000001
 44
0.0000000001
 40
0.0
 40
0.0
 40
0.0
 40
0.0
 40
0.2176880317
 40
0.4509726039
 40
0.7108534586
 40
1.0
 40
1.0
 40
1.0
 40
1.0
 10
177.7308839629
 20
114.9662235709
 30
0.0
 10
177.7369962737
 20
114.9626981603
 30
0.0
 10
177.74843159
 20
114.9530764134
 30
0.0
 10
177.7606269092
 20
114.9331533716
 30
0.0
 10
177.7678131993
 20
114.9085998752
 30
0.0
 10
177.7692660118
 20
114.8907485194
 30
0.0
 10
177.7692660118
 20
114.8813761465
 30
0.0
  0
SPLINE
  5
5B4
100
AcDbEntity
  8
0
100
AcDbSpline
 62
7
  6
CONTINUOUS
 70
0
 71
3
 72
11
 73
7
 74
0
 42
0.0000001
 43
0.0000001
 44
0.0000000001
 40
0.0
 40
0.0
 40
0.0
 40
0.0
 40
0.2176880317
 40
0.4509726039
 40
0.7108534586
 40
1.0
 40
1.0
 40
1.0
 40
1.0
 10
166.4496115547
 20
108.4512722599
 30
0.0
 10
166.4557238656
 20
108.4477468494
 30
0.0
 10
166.4671591819
 20
108.4381251024
 30
0.0
 10
166.4793545011
 20
108.4182020606
 30
0.0
 10
166.4865407912
 20
108.3936485642
 30
0.0
 10
166.4879936037
 20
108.3757972084
 30
0.0
 10
166.4879936037
 20
108.3664248356
 30
0.0
  0
SPLINE
  5
5B5
100
AcDbEntity
  8
0
100
AcDbSpline
 62
7
  6
CONTINUOUS
 70
0
 71
3
 72
11
 73
7
 74
0
 42
0.0000001
 43
0.0000001
 44
0.0000000001
 40
0.0
 40
0.0
 40
0.0
 40
0.0
 40
0.2177063613
 40
0.4510002201
 40
0.7108758289
 40
1.0
 40
1.0
 40
1.0
 40
1.0
 10
138.5260757637
 20
125.245852178
 30
0.0
 10
138.526071876
 20
125.2529127852
 30
0.0
 10
138.5286864161
 20
125.2676362361
 30
0.0
 10
138.539845471
 20
125.2881731274
 30
0.0
 10
138.5575225329
 20
125.3066861586
 30
0.0
 10
138.5722618913
 20
125.3168771476
 30
0.0
 10
138.5803819205
 20
125.3215664764
 30
0.0
  0
SPLINE
  5
5B6
100
AcDbEntity
  8
0
100
AcDbSpline
 62
7
  6
CONTINUOUS
 70
0
 71
3
 72
11
 73
7
 74
0
 42
0.0000001
 43
0.0000001
 44
0.0000000001
 40
0.0
 40
0.0
 40
0.0
 40
0.0
 40
0.2177063613
 40
0.4510002201
 40
0.7108758289
 40
1.0
 40
1.0
 40
1.0
 40
1.0
 10
149.8073481718
 20
131.760803489
 30
0.0
 10
149.8073442841
 20
131.7678640962
 30
0.0
 10
149.8099588242
 20
131.782587547
 30
0.0
 10
149.8211178791
 20
131.8031244383
 30
0.0
 10
149.838794941
 20
131.8216374695
 30
0.0
 10
149.8535342994
 20
131.8318284586
 30
0.0
 10
149.8616543286
 20
131.8365177874
 30
0.0
  0
SPLINE
  5
5B7
100
AcDbEntity
  8
0
100
AcDbSpline
 62
7
  6
CONTINUOUS
 70
0
 71
3
 72
11
 73
7
 74
0
 42
0.0000001
 43
0.0000001
 44
0.0000000001
 40
0.0
 40
0.0
 40
0.0
 40
0.0
 40
0.2177063613
 40
0.4510002201
 40
0.7108758289
 40
1.0
 40
1.0
 40
1.0
 40
1.0
 10
165.3087921382
 20
109.7787943105
 30
0.0
 10
165.3087882504
 20
109.7858549177
 30
0.0
 10
165.3114027906
 20
109.8005783685
 30
0.0
 10
165.3225618454
 20
109.8211152598
 30
0.0
 10
165.3402389074
 20
109.839628291
 30
0.0
 10
165.3549782658
 20
109.8498192801
 30
0.0
 10
165.363098295
 20
109.8545086089
 30
0.0
  0
SPLINE
  5
5B8
100
AcDbEntity
  8
3_ALL_AXES
100
AcDbSpline
 62
7
  6
CONTINUOUS
 70
0
 71
3
 72
25
 73
21
 74
0
 42
0.0000001
 43
0.0000001
 44
0.0000000001
 40
0.0
 40
0.0
 40
0.0
 40
0.0
 40
0.0213296578
 40
0.0428881011
 40
0.0648913824
 40
0.0875346916
 40
0.1353069047
 40
0.1872053959
 40
0.24364103
 40
0.3045873244
 40
0.3696740058
 40
0.4382707781
 40
0.5095572407
 40
0.5825819798
 40
0.6563146529
 40
0.7296933205
 40
0.8016732887
 40
0.8712673973
 40
0.9376142605
 40
1.0
 40
1.0
 40
1.0
 40
1.0
 10
137.2932685489
 20
120.1717874922
 30
0.0
 10
137.1974165539
 20
120.116425346
 30
0.0
 10
137.0116158099
 20
119.9925925046
 30
0.0
 10
136.7566325292
 20
119.7713514481
 30
0.0
 10
136.5260302857
 20
119.5155179913
 30
0.0
 10
136.2480436452
 20
119.1235405464
 30
0.0
 10
135.9697490972
 20
118.5476199402
 30
0.0
 10
135.7576869166
 20
117.7618855795
 30
0.0
 10
135.6632598238
 20
116.8854016945
 30
0.0
 10
135.687570073
 20
115.9364034795
 30
0.0
 10
135.8295378726
 20
114.9343987678
 30
0.0
 10
136.0860057335
 20
113.9003430043
 30
0.0
 10
136.4514721972
 20
112.8560449875
 30
0.0
 10
136.9181526939
 20
111.8236743222
 30
0.0
 10
137.4761026451
 20
110.8252258597
 30
0.0
 10
138.1134180214
 20
109.8819774928
 30
0.0
 10
138.8165154778
 20
109.0140772216
 30
0.0
 10
139.5704949529
 20
108.2398892758
 30
0.0
 10
140.3592644134
 20
107.5760495587
 30
0.0
 10
140.9162396741
 20
107.2037513009
 30
0.0
 10
141.1966004618
 20
107.0418425361
 30
0.0
  0
SPLINE
  5
5B9
100
AcDbEntity
  8
0
100
AcDbSpline
 62
7
  6
CONTINUOUS
 70
0
 71
3
 72
11
 73
7
 74
0
 42
0.0000001
 43
0.0000001
 44
0.0000000001
 40
0.0
 40
0.0
 40
0.0
 40
0.0
 40
0.2177063613
 40
0.4510002201
 40
0.7108758289
 40
1.0
 40
1.0
 40
1.0
 40
1.0
 10
176.5900645463
 20
116.2937456215
 30
0.0
 10
176.5900606585
 20
116.3008062286
 30
0.0
 10
176.5926751987
 20
116.3155296795
 30
0.0
 10
176.6038342535
 20
116.3360665708
 30
0.0
 10
176.6215113155
 20
116.354579602
 30
0.0
 10
176.6362506739
 20
116.364770591
 30
0.0
 10
176.6443707031
 20
116.3694599198
 30
0.0
  0
SPLINE
  5
5BA
100
AcDbEntity
  8
3_ALL_AXES
100
AcDbSpline
 62
7
  6
CONTINUOUS
 70
0
 71
3
 72
23
 73
19
 74
0
 42
0.0000001
 43
0.0000001
 44
0.0000000001
 40
0.0
 40
0.0
 40
0.0
 40
0.0
 40
0.0432818041
 40
0.0892354077
 40
0.1388293718
 40
0.1925848107
 40
0.2506231708
 40
0.3127410064
 40
0.3784818688
 40
0.4471980924
 40
0.5181038237
 40
0.59031992
 40
0.6629137136
 40
0.7349370519
 40
0.8054665196
 40
0.8736314376
 40
0.9386898935
 40
1.0
 40
1.0
 40
1.0
 40
1.0
 10
137.3346574615
 20
120.137861959
 30
0.0
 10
137.1711350595
 20
119.9948826058
 30
0.0
 10
136.869075743
 20
119.6579760775
 30
0.0
 10
136.5247626149
 20
119.0471288531
 30
0.0
 10
136.2834524059
 20
118.333758921
 30
0.0
 10
136.1482554065
 20
117.5322702341
 30
0.0
 10
136.1204550521
 20
116.6576223164
 30
0.0
 10
136.2000599094
 20
115.7262037178
 30
0.0
 10
136.3853044546
 20
114.7556079838
 30
0.0
 10
136.6725309914
 20
113.764358489
 30
0.0
 10
137.0561731911
 20
112.7715016445
 30
0.0
 10
137.5288181696
 20
111.796198663
 30
0.0
 10
138.0813268957
 20
110.8573214106
 30
0.0
 10
138.703011954
 20
109.9730347498
 30
0.0
 10
139.3818408041
 20
109.1604959276
 30
0.0
 10
140.1047501714
 20
108.4352333578
 30
0.0
 10
140.8577671265
 20
107.8114942372
 30
0.0
 10
141.3874966125
 20
107.4598390254
 30
0.0
 10
141.6539493432
 20
107.3059621838
 30
0.0
  0
LINE
  5
5BB
100
AcDbEntity
  8
3_ALL_AXES
100
AcDbLine
 62
7
  6
CONTINUOUS
 10
138.3152915373
 20
119.4574237748
 11
138.3101373321
 21
119.4544353318
  0
SPLINE
  5
5BC
100
AcDbEntity
  8
3_ALL_AXES
100
AcDbSpline
 62
7
  6
CONTINUOUS
 70
0
 71
3
 72
11
 73
7
 74
0
 42
0.0000001
 43
0.0000001
 44
0.0000000001
 40
0.0
 40
0.0
 40
0.0
 40
0.0
 40
0.2376151276
 40
0.4805341618
 40
0.7334170994
 40
1.0
 40
1.0
 40
1.0
 40
1.0
 10
138.3101373321
 20
119.4544353318
 30
0.0
 10
138.1919396125
 20
119.3856919248
 30
0.0
 10
137.9652826345
 20
119.2241039528
 30
0.0
 10
137.6700952322
 20
118.9195505438
 30
0.0
 10
137.4211120545
 20
118.5560586586
 30
0.0
 10
137.2915088679
 20
118.2853373088
 30
0.0
 10
137.2345666069
 20
118.1428930472
 30
0.0
  0
SPLINE
  5
5BD
100
AcDbEntity
  8
3_ALL_AXES
100
AcDbSpline
 62
7
  6
CONTINUOUS
 70
0
 71
3
 72
9
 73
5
 74
0
 42
0.0000001
 43
0.0000001
 44
0.0000000001
 40
0.0
 40
0.0
 40
0.0
 40
0.0
 40
0.2437244297
 40
1.0
 40
1.0
 40
1.0
 40
1.0
 10
137.2084720354
 20
118.0756089799
 30
0.0
 10
137.1926981195
 20
118.0336685493
 30
0.0
 10
137.1312277294
 20
117.8603732436
 30
0.0
 10
137.0825795127
 20
117.6826042983
 30
0.0
 10
137.0523209133
 20
117.5468956931
 30
0.0
  0
SPLINE
  5
5BE
100
AcDbEntity
  8
0
100
AcDbSpline
 62
7
  6
CONTINUOUS
 70
0
 71
3
 72
15
 73
11
 74
0
 42
0.0000001
 43
0.0000001
 44
0.0000000001
 40
0.0
 40
0.0
 40
0.0
 40
0.0
 40
0.1287435512
 40
0.2706018764
 40
0.4178545637
 40
0.5623675088
 40
0.6961791293
 40
0.8135628097
 40
0.9130442263
 40
1.0
 40
1.0
 40
1.0
 40
1.0
 10
176.6443707031
 20
116.3694599198
 30
0.0
 10
176.6580861837
 20
116.3773806302
 30
0.0
 10
176.689171357
 20
116.3901894439
 30
0.0
 10
176.7398084736
 20
116.4003556516
 30
0.0
 10
176.7933916546
 20
116.4018168039
 30
0.0
 10
176.8454940987
 20
116.3945144931
 30
0.0
 10
176.8919749406
 20
116.3789718704
 30
0.0
 10
176.9292031027
 20
116.3562774694
 30
0.0
 10
176.9544256737
 20
116.3275862279
 30
0.0
 10
176.9608843284
 20
116.3044431058
 30
0.0
 10
176.9608902186
 20
116.2937456202
 30
0.0
  0
SPLINE
  5
5BF
100
AcDbEntity
  8
0
100
AcDbSpline
 62
7
  6
CONTINUOUS
 70
0
 71
3
 72
15
 73
11
 74
0
 42
0.0000001
 43
0.0000001
 44
0.0000000001
 40
0.0
 40
0.0
 40
0.0
 40
0.0
 40
0.1287435512
 40
0.2706018764
 40
0.4178545637
 40
0.5623675088
 40
0.6961791293
 40
0.8135628097
 40
0.9130442263
 40
1.0
 40
1.0
 40
1.0
 40
1.0
 10
165.363098295
 20
109.8545086089
 30
0.0
 10
165.3768137756
 20
109.8624293192
 30
0.0
 10
165.4078989489
 20
109.8752381329
 30
0.0
 10
165.4585360655
 20
109.8854043407
 30
0.0
 10
165.5121192465
 20
109.8868654929
 30
0.0
 10
165.5642216906
 20
109.8795631821
 30
0.0
 10
165.6107025325
 20
109.8640205594
 30
0.0
 10
165.6479306945
 20
109.8413261585
 30
0.0
 10
165.6731532656
 20
109.812634917
 30
0.0
 10
165.6796119203
 20
109.7894917948
 30
0.0
 10
165.6796178105
 20
109.7787943092
 30
0.0
  0
SPLINE
  5
5C0
100
AcDbEntity
  8
0
100
AcDbSpline
 62
7
  6
CONTINUOUS
 70
0
 71
3
 72
15
 73
11
 74
0
 42
0.0000001
 43
0.0000001
 44
0.0000000001
 40
0.0
 40
0.0
 40
0.0
 40
0.0
 40
0.1287435512
 40
0.2706018764
 40
0.4178545637
 40
0.5623675088
 40
0.6961791293
 40
0.8135628097
 40
0.9130442263
 40
1.0
 40
1.0
 40
1.0
 40
1.0
 10
149.8616543286
 20
131.8365177874
 30
0.0
 10
149.8753698093
 20
131.8444384977
 30
0.0
 10
149.9064549825
 20
131.8572473114
 30
0.0
 10
149.9570920992
 20
131.8674135192
 30
0.0
 10
150.0106752801
 20
131.8688746714
 30
0.0
 10
150.0627777242
 20
131.8615723606
 30
0.0
 10
150.1092585661
 20
131.8460297379
 30
0.0
 10
150.1464867282
 20
131.823335337
 30
0.0
 10
150.1717092992
 20
131.7946440955
 30
0.0
 10
150.1781679539
 20
131.7715009733
 30
0.0
 10
150.1781738442
 20
131.7608034877
 30
0.0
  0
SPLINE
  5
5C1
100
AcDbEntity
  8
0
100
AcDbSpline
 62
7
  6
CONTINUOUS
 70
0
 71
3
 72
15
 73
11
 74
0
 42
0.0000001
 43
0.0000001
 44
0.0000000001
 40
0.0
 40
0.0
 40
0.0
 40
0.0
 40
0.1287435512
 40
0.2706018764
 40
0.4178545637
 40
0.5623675088
 40
0.6961791293
 40
0.8135628097
 40
0.9130442263
 40
1.0
 40
1.0
 40
1.0
 40
1.0
 10
138.5803819205
 20
125.3215664764
 30
0.0
 10
138.5940974012
 20
125.3294871867
 30
0.0
 10
138.6251825744
 20
125.3422960004
 30
0.0
 10
138.6758196911
 20
125.3524622082
 30
0.0
 10
138.729402872
 20
125.3539233604
 30
0.0
 10
138.7815053161
 20
125.3466210496
 30
0.0
 10
138.827986158
 20
125.331078427
 30
0.0
 10
138.8652143201
 20
125.308384026
 30
0.0
 10
138.8904368911
 20
125.2796927845
 30
0.0
 10
138.8968955458
 20
125.2565496623
 30
0.0
 10
138.896901436
 20
125.2458521767
 30
0.0
  0
SPLINE
  5
5C2
100
AcDbEntity
  8
3_ALL_AXES
100
AcDbSpline
 62
7
  6
CONTINUOUS
 70
0
 71
3
 72
23
 73
19
 74
0
 42
0.0000001
 43
0.0000001
 44
0.0000000001
 40
0.0
 40
0.0
 40
0.0
 40
0.0
 40
0.0428097945
 40
0.0873893734
 40
0.1351714106
 40
0.1870802581
 40
0.243526466
 40
0.3044837359
 40
0.3695819286
 40
0.438190009
 40
0.5094873024
 40
0.5825228541
 40
0.656266291
 40
0.729655561
 40
0.8016460946
 40
0.871246632
 40
0.9376097538
 40
1.0
 40
1.0
 40
1.0
 40
1.0
 10
138.5869909176
 20
118.9869386732
 30
0.0
 10
138.4359110797
 20
118.8996056748
 30
0.0
 10
138.1495009985
 20
118.68023634
 30
0.0
 10
137.8049233852
 20
118.2441191038
 30
0.0
 10
137.547490522
 20
117.71084763
 30
0.0
 10
137.3808609802
 20
117.0934233752
 30
0.0
 10
137.3067577359
 20
116.4048585125
 30
0.0
 10
137.3258899869
 20
115.6592940793
 30
0.0
 10
137.4374730231
 20
114.872110363
 30
0.0
 10
137.6389962363
 20
114.0597544707
 30
0.0
 10
137.9261336419
 20
113.2393597825
 30
0.0
 10
138.2927734737
 20
112.4283382461
 30
0.0
 10
138.7311071814
 20
111.6439660089
 30
0.0
 10
139.2317976603
 20
110.9029644588
 30
0.0
 10
139.7841651011
 20
110.2211794235
 30
0.0
 10
140.3764884165
 20
109.6129625279
 30
0.0
 10
140.9961601798
 20
109.091483845
 30
0.0
 10
141.4337150844
 20
108.7989901447
 30
0.0
 10
141.6539493432
 20
108.6718045383
 30
0.0
  0
SPLINE
  5
5C3
100
AcDbEntity
  8
3_ALL_AXES
100
AcDbSpline
 62
7
  6
CONTINUOUS
 70
0
 71
3
 72
11
 73
7
 74
0
 42
0.0000001
 43
0.0000001
 44
0.0000000001
 40
0.0
 40
0.0
 40
0.0
 40
0.0
 40
0.2177014887
 40
0.4509077955
 40
0.7106317123
 40
1.0
 40
1.0
 40
1.0
 40
1.0
 10
177.851495523
 20
108.5988458133
 30
0.0
 10
177.8656929678
 20
108.6070527971
 30
0.0
 10
177.8922542375
 20
108.6294210047
 30
0.0
 10
177.9205476706
 20
108.6757267143
 30
0.0
 10
177.9372737079
 20
108.7327767077
 30
0.0
 10
177.9406193927
 20
108.7742713205
 30
0.0
 10
177.9406193927
 20
108.7960686214
 30
0.0
  0
SPLINE
  5
5C4
100
AcDbEntity
  8
3_ALL_AXES
100
AcDbSpline
 62
7
  6
CONTINUOUS
 70
0
 71
3
 72
11
 73
7
 74
0
 42
0.0000001
 43
0.0000001
 44
0.0000000001
 40
0.0
 40
0.0
 40
0.0
 40
0.0
 40
0.2194168946
 40
0.4604491827
 40
0.7217095193
 40
1.0
 40
1.0
 40
1.0
 40
1.0
 10
176.6547802769
 20
110.6275308628
 30
0.0
 10
176.619084229
 20
110.5087025279
 30
0.0
 10
176.5705781979
 20
110.2510780736
 30
0.0
 10
176.5624954281
 20
109.841634273
 30
0.0
 10
176.6150457417
 20
109.4021551804
 30
0.0
 10
176.6875853319
 20
109.1050153768
 30
0.0
 10
176.7329588401
 20
108.9543331575
 30
0.0
  0
SPLINE
  5
5C5
100
AcDbEntity
  8
3_ALL_AXES
100
AcDbSpline
 62
7
  6
CONTINUOUS
 70
0
 71
3
 72
9
 73
5
 74
0
 42
0.0000001
 43
0.0000001
 44
0.0000000001
 40
0.0
 40
0.0
 40
0.0
 40
0.0
 40
0.5103711516
 40
1.0
 40
1.0
 40
1.0
 40
1.0
 10
177.0613302436
 20
108.1445413925
 30
0.0
 10
177.1947968275
 20
107.8841980507
 30
0.0
 10
177.5000349249
 20
107.39545163
 30
0.0
 10
177.885143269
 20
106.9657209656
 30
0.0
 10
178.0930690198
 20
106.7771923176
 30
0.0
  0
SPLINE
  5
5C6
100
AcDbEntity
  8
3_ALL_AXES
100
AcDbSpline
 62
7
  6
CONTINUOUS
 70
0
 71
3
 72
11
 73
7
 74
0
 42
0.0000001
 43
0.0000001
 44
0.0000000001
 40
0.0
 40
0.0
 40
0.0
 40
0.0
 40
0.2177014887
 40
0.4509077955
 40
0.7106317123
 40
1.0
 40
1.0
 40
1.0
 40
1.0
 10
168.0556922817
 20
102.9417551182
 30
0.0
 10
168.0698897265
 20
102.949962102
 30
0.0
 10
168.0964509962
 20
102.9723303096
 30
0.0
 10
168.1247444293
 20
103.0186360192
 30
0.0
 10
168.1414704666
 20
103.0756860126
 30
0.0
 10
168.1448161514
 20
103.1171806254
 30
0.0
 10
168.1448161514
 20
103.1389779263
 30
0.0
  0
SPLINE
  5
5C7
100
AcDbEntity
  8
7_ALL_ROUNDS
100
AcDbSpline
 62
7
  6
CONTINUOUS
 70
0
 71
3
 72
9
 73
5
 74
0
 42
0.0000001
 43
0.0000001
 44
0.0000000001
 40
0.0
 40
0.0
 40
0.0
 40
0.0
 40
0.2662047348
 40
1.0
 40
1.0
 40
1.0
 40
1.0
 10
178.891905066
 20
112.3762821511
 30
0.0
 10
178.891905066
 20
112.388531427
 30
0.0
 10
178.8903505218
 20
112.4345008292
 30
0.0
 10
178.8823515672
 20
112.4804921899
 30
0.0
 10
178.871610015
 20
112.5125032652
 30
0.0
  0
SPLINE
  5
5C8
100
AcDbEntity
  8
7_ALL_ROUNDS
100
AcDbSpline
 62
7
  6
CONTINUOUS
 70
0
 71
3
 72
9
 73
5
 74
0
 42
0.0000001
 43
0.0000001
 44
0.0000000001
 40
0.0
 40
0.0
 40
0.0
 40
0.0
 40
0.2651969078
 40
1.0
 40
1.0
 40
1.0
 40
1.0
 10
178.871610015
 20
112.5125032652
 30
0.0
 10
178.8685504193
 20
112.5216212163
 30
0.0
 10
178.855526399
 20
112.5554538499
 30
0.0
 10
178.8358997891
 20
112.5869883285
 30
0.0
 10
178.8178374184
 20
112.6065812148
 30
0.0
  0
SPLINE
  5
5C9
100
AcDbEntity
  8
3_ALL_AXES
100
AcDbSpline
 62
7
  6
CONTINUOUS
 70
0
 71
3
 72
11
 73
7
 74
0
 42
0.0000001
 43
0.0000001
 44
0.0000000001
 40
0.0
 40
0.0
 40
0.0
 40
0.0
 40
0.2194168946
 40
0.4604491827
 40
0.7217095193
 40
1.0
 40
1.0
 40
1.0
 40
1.0
 10
166.8589770356
 20
104.9704401676
 30
0.0
 10
166.8232809877
 20
104.8516118328
 30
0.0
 10
166.7747749566
 20
104.5939873785
 30
0.0
 10
166.7666921868
 20
104.1845435779
 30
0.0
 10
166.8192425004
 20
103.7450644853
 30
0.0
 10
166.8917820906
 20
103.4479246817
 30
0.0
 10
166.9371555988
 20
103.2972424624
 30
0.0
  0
SPLINE
  5
5CA
100
AcDbEntity
  8
3_ALL_AXES
100
AcDbSpline
 62
7
  6
CONTINUOUS
 70
0
 71
3
 72
9
 73
5
 74
0
 42
0.0000001
 43
0.0000001
 44
0.0000000001
 40
0.0
 40
0.0
 40
0.0
 40
0.0
 40
0.5103711516
 40
1.0
 40
1.0
 40
1.0
 40
1.0
 10
167.2655270023
 20
102.4874506974
 30
0.0
 10
167.3989935862
 20
102.2271073556
 30
0.0
 10
167.7042316836
 20
101.7383609349
 30
0.0
 10
168.0893400277
 20
101.3086302705
 30
0.0
 10
168.2972657786
 20
101.1201016225
 30
0.0
  0
SPLINE
  5
5CB
100
AcDbEntity
  8
7_ALL_ROUNDS
100
AcDbSpline
 62
7
  6
CONTINUOUS
 70
0
 71
3
 72
11
 73
7
 74
0
 42
0.0000001
 43
0.0000001
 44
0.0000000001
 40
0.0
 40
0.0
 40
0.0
 40
0.0
 40
0.2177289906
 40
0.4508621686
 40
0.7104408338
 40
1.0
 40
1.0
 40
1.0
 40
1.0
 10
178.6728736362
 20
112.4122056781
 30
0.0
 10
178.6617806086
 20
112.4186119288
 30
0.0
 10
178.6362982955
 20
112.4278932309
 30
0.0
 10
178.5939343383
 20
112.4289524632
 30
0.0
 10
178.5488070818
 20
112.4180237572
 30
0.0
 10
178.5194357072
 20
112.4040641329
 30
0.0
 10
178.5046830131
 20
112.3955444304
 30
0.0
  0
SPLINE
  5
5CC
100
AcDbEntity
  8
7_ALL_ROUNDS
100
AcDbSpline
 62
7
  6
CONTINUOUS
 70
0
 71
3
 72
9
 73
5
 74
0
 42
0.0000001
 43
0.0000001
 44
0.0000000001
 40
0.0
 40
0.0
 40
0.0
 40
0.0
 40
0.2384904126
 40
1.0
 40
1.0
 40
1.0
 40
1.0
 10
178.4772420802
 20
106.1031698676
 30
0.0
 10
178.4868401518
 20
106.1087127679
 30
0.0
 10
178.5263712667
 20
106.133184043
 30
0.0
 10
178.563085861
 20
106.1620841776
 30
0.0
 10
178.5893769084
 20
106.1857752237
 30
0.0
  0
SPLINE
  5
5CD
100
AcDbEntity
  8
7_ALL_ROUNDS
100
AcDbSpline
 62
7
  6
CONTINUOUS
 70
0
 71
3
 72
11
 73
7
 74
0
 42
0.0000001
 43
0.0000001
 44
0.0000000001
 40
0.0
 40
0.0
 40
0.0
 40
0.0
 40
0.254454275
 40
0.5166913462
 40
0.7701370604
 40
1.0
 40
1.0
 40
1.0
 40
1.0
 10
178.6114006456
 20
106.2063935945
 30
0.0
 10
178.6534391642
 20
106.2472545163
 30
0.0
 10
178.7302105115
 20
106.3393389348
 30
0.0
 10
178.8185201773
 20
106.4942384968
 30
0.0
 10
178.8762622476
 20
106.6569560899
 30
0.0
 10
178.891905066
 20
106.7684282338
 30
0.0
 10
178.891905066
 20
106.8213872147
 30
0.0
  0
SPLINE
  5
5CE
100
AcDbEntity
  8
7_ALL_ROUNDS
100
AcDbSpline
 62
7
  6
CONTINUOUS
 70
0
 71
3
 72
8
 73
4
 74
0
 42
0.0000001
 43
0.0000001
 44
0.0000000001
 40
0.0
 40
0.0
 40
0.0
 40
0.0
 40
1.0
 40
1.0
 40
1.0
 40
1.0
 10
174.8972288019
 20
104.3238685707
 30
0.0
 10
174.888392358
 20
104.3289716388
 30
0.0
 10
174.8801943341
 20
104.3353480202
 30
0.0
 10
174.8730178559
 20
104.3426021366
 30
0.0
  0
SPLINE
  5
5CF
100
AcDbEntity
  8
7_ALL_ROUNDS
100
AcDbSpline
 62
7
  6
CONTINUOUS
 70
0
 71
3
 72
9
 73
5
 74
0
 42
0.0000001
 43
0.0000001
 44
0.0000000001
 40
0.0
 40
0.0
 40
0.0
 40
0.0
 40
0.4562867047
 40
1.0
 40
1.0
 40
1.0
 40
1.0
 10
174.8730178559
 20
104.3426021366
 30
0.0
 10
174.8574778973
 20
104.3583102129
 30
0.0
 10
174.8332544239
 20
104.4025259552
 30
0.0
 10
174.8275980066
 20
104.4514344436
 30
0.0
 10
174.8275980066
 20
104.4777641573
 30
0.0
  0
SPLINE
  5
5D0
100
AcDbEntity
  8
0
100
AcDbSpline
 62
7
  6
CONTINUOUS
 70
0
 71
3
 72
15
 73
11
 74
0
 42
0.0000001
 43
0.0000001
 44
0.0000000001
 40
0.0
 40
0.0
 40
0.0
 40
0.0
 40
0.1287372529
 40
0.2706006404
 40
0.4178656856
 40
0.5623928815
 40
0.696214853
 40
0.8135993868
 40
0.9130682786
 40
1.0
 40
1.0
 40
1.0
 40
1.0
 10
166.4879936037
 20
108.3664248356
 30
0.0
 10
166.4879936039
 20
108.3505873927
 30
0.0
 10
166.4835395936
 20
108.317263362
 30
0.0
 10
166.4670202252
 20
108.2683279342
 30
0.0
 10
166.4414900862
 20
108.22119117
 30
0.0
 10
166.4091126709
 20
108.1797168371
 30
0.0
 10
166.3724121922
 20
108.147230232
 30
0.0
 10
166.3341474432
 20
108.12633232
 30
0.0
 10
166.2966945562
 20
108.1188293446
 30
0.0
 10
166.2734262915
 20
108.1248055975
 30
0.0
 10
166.264162294
 20
108.1301488132
 30
0.0
  0
SPLINE
  5
5D1
100
AcDbEntity
  8
0
100
AcDbSpline
 62
7
  6
CONTINUOUS
 70
0
 71
3
 72
15
 73
11
 74
0
 42
0.0000001
 43
0.0000001
 44
0.0000000001
 40
0.0
 40
0.0
 40
0.0
 40
0.0
 40
0.1287372529
 40
0.2706006404
 40
0.4178656856
 40
0.5623928815
 40
0.696214853
 40
0.8135993868
 40
0.9130682786
 40
1.0
 40
1.0
 40
1.0
 40
1.0
 10
177.7692660118
 20
114.8813761465
 30
0.0
 10
177.769266012
 20
114.8655387037
 30
0.0
 10
177.7648120017
 20
114.832214673
 30
0.0
 10
177.7482926333
 20
114.7832792452
 30
0.0
 10
177.7227624943
 20
114.736142481
 30
0.0
 10
177.690385079
 20
114.6946681481
 30
0.0
 10
177.6536846003
 20
114.662181543
 30
0.0
 10
177.6154198513
 20
114.641283631
 30
0.0
 10
177.5779669643
 20
114.6337806556
 30
0.0
 10
177.5546986996
 20
114.6397569085
 30
0.0
 10
177.5454347021
 20
114.6451001241
 30
0.0
  0
SPLINE
  5
5D2
100
AcDbEntity
  8
0
100
AcDbSpline
 62
7
  6
CONTINUOUS
 70
0
 71
3
 72
15
 73
11
 74
0
 42
0.0000001
 43
0.0000001
 44
0.0000000001
 40
0.0
 40
0.0
 40
0.0
 40
0.0
 40
0.1287372529
 40
0.2706006404
 40
0.4178656856
 40
0.5623928815
 40
0.696214853
 40
0.8135993868
 40
0.9130682786
 40
1.0
 40
1.0
 40
1.0
 40
1.0
 10
166.4879936037
 20
96.5737137855
 30
0.0
 10
166.4879936039
 20
96.5578763427
 30
0.0
 10
166.4835395936
 20
96.524552312
 30
0.0
 10
166.4670202252
 20
96.4756168842
 30
0.0
 10
166.4414900862
 20
96.42848012
 30
0.0
 10
166.4091126709
 20
96.3870057871
 30
0.0
 10
166.3724121922
 20
96.354519182
 30
0.0
 10
166.3341474432
 20
96.33362127
 30
0.0
 10
166.2966945562
 20
96.3261182946
 30
0.0
 10
166.2734262915
 20
96.3320945475
 30
0.0
 10
166.264162294
 20
96.3374377631
 30
0.0
  0
SPLINE
  5
5D3
100
AcDbEntity
  8
7_ALL_ROUNDS
100
AcDbSpline
 62
7
  6
CONTINUOUS
 70
0
 71
3
 72
11
 73
7
 74
0
 42
0.0000001
 43
0.0000001
 44
0.0000000001
 40
0.0
 40
0.0
 40
0.0
 40
0.0
 40
0.2177289906
 40
0.4508621686
 40
0.7104408338
 40
1.0
 40
1.0
 40
1.0
 40
1.0
 10
168.8770703949
 20
106.755114983
 30
0.0
 10
168.8659773673
 20
106.7615212336
 30
0.0
 10
168.8404950542
 20
106.7708025358
 30
0.0
 10
168.798131097
 20
106.7718617681
 30
0.0
 10
168.7530038405
 20
106.760933062
 30
0.0
 10
168.7236324659
 20
106.7469734377
 30
0.0
 10
168.7088797718
 20
106.7384537353
 30
0.0
  0
SPLINE
  5
5D4
100
AcDbEntity
  8
0
100
AcDbSpline
 62
7
  6
CONTINUOUS
 70
0
 71
3
 72
15
 73
11
 74
0
 42
0.0000001
 43
0.0000001
 44
0.0000000001
 40
0.0
 40
0.0
 40
0.0
 40
0.0
 40
0.1287372529
 40
0.2706006404
 40
0.4178656856
 40
0.5623928815
 40
0.696214853
 40
0.8135993868
 40
0.9130682786
 40
1.0
 40
1.0
 40
1.0
 40
1.0
 10
177.7692660118
 20
103.0886650965
 30
0.0
 10
177.769266012
 20
103.0728276536
 30
0.0
 10
177.7648120017
 20
103.039503623
 30
0.0
 10
177.7482926333
 20
102.9905681951
 30
0.0
 10
177.7227624943
 20
102.943431431
 30
0.0
 10
177.690385079
 20
102.9019570981
 30
0.0
 10
177.6536846003
 20
102.869470493
 30
0.0
 10
177.6154198513
 20
102.848572581
 30
0.0
 10
177.5779669643
 20
102.8410696056
 30
0.0
 10
177.5546986996
 20
102.8470458585
 30
0.0
 10
177.5454347021
 20
102.8523890741
 30
0.0
  0
SPLINE
  5
5D5
100
AcDbEntity
  8
7_ALL_ROUNDS
100
AcDbSpline
 62
7
  6
CONTINUOUS
 70
0
 71
3
 72
8
 73
4
 74
0
 42
0.0000001
 43
0.0000001
 44
0.0000000001
 40
0.0
 40
0.0
 40
0.0
 40
0.0
 40
1.0
 40
1.0
 40
1.0
 40
1.0
 10
165.1014255606
 20
98.6667778756
 30
0.0
 10
165.0925891167
 20
98.6718809437
 30
0.0
 10
165.0843910928
 20
98.6782573251
 30
0.0
 10
165.0772146146
 20
98.6855114415
 30
0.0
  0
SPLINE
  5
5D6
100
AcDbEntity
  8
7_ALL_ROUNDS
100
AcDbSpline
 62
7
  6
CONTINUOUS
 70
0
 71
3
 72
9
 73
5
 74
0
 42
0.0000001
 43
0.0000001
 44
0.0000000001
 40
0.0
 40
0.0
 40
0.0
 40
0.0
 40
0.4562867047
 40
1.0
 40
1.0
 40
1.0
 40
1.0
 10
165.0772146146
 20
98.6855114415
 30
0.0
 10
165.061674656
 20
98.7012195178
 30
0.0
 10
165.0374511826
 20
98.7454352601
 30
0.0
 10
165.0317947653
 20
98.7943437485
 30
0.0
 10
165.0317947653
 20
98.8206734622
 30
0.0
  0
SPLINE
  5
5D7
100
AcDbEntity
  8
3_ALL_AXES
100
AcDbSpline
 62
7
  6
CONTINUOUS
 70
0
 71
3
 72
23
 73
19
 74
0
 42
0.0000001
 43
0.0000001
 44
0.0000000001
 40
0.0
 40
0.0
 40
0.0
 40
0.0
 40
0.0432818041
 40
0.0892354077
 40
0.1388293718
 40
0.1925848107
 40
0.2506231708
 40
0.3127410064
 40
0.3784818688
 40
0.4471980924
 40
0.5181038237
 40
0.59031992
 40
0.6629137136
 40
0.7349370519
 40
0.8054665196
 40
0.8736314376
 40
0.9386898935
 40
1.0
 40
1.0
 40
1.0
 40
1.0
 10
153.0674589819
 20
111.0521460767
 30
0.0
 10
152.90393658
 20
110.9091667235
 30
0.0
 10
152.6018772635
 20
110.5722601952
 30
0.0
 10
152.2575641354
 20
109.9614129707
 30
0.0
 10
152.0162539264
 20
109.2480430387
 30
0.0
 10
151.881056927
 20
108.4465543518
 30
0.0
 10
151.8532565726
 20
107.571906434
 30
0.0
 10
151.9328614299
 20
106.6404878354
 30
0.0
 10
152.1181059751
 20
105.6698921014
 30
0.0
 10
152.4053325119
 20
104.6786426066
 30
0.0
 10
152.7889747116
 20
103.6857857622
 30
0.0
 10
153.2616196901
 20
102.7104827807
 30
0.0
 10
153.8141284162
 20
101.7716055283
 30
0.0
 10
154.4358134745
 20
100.8873188674
 30
0.0
 10
155.1146423246
 20
100.0747800453
 30
0.0
 10
155.8375516919
 20
99.3495174755
 30
0.0
 10
156.590568647
 20
98.7257783549
 30
0.0
 10
157.120298133
 20
98.374123143
 30
0.0
 10
157.3867508637
 20
98.2202463015
 30
0.0
  0
SPLINE
  5
5D8
100
AcDbEntity
  8
7_ALL_ROUNDS
100
AcDbSpline
 62
7
  6
CONTINUOUS
 70
0
 71
3
 72
11
 73
7
 74
0
 42
0.0000001
 43
0.0000001
 44
0.0000000001
 40
0.0
 40
0.0
 40
0.0
 40
0.0
 40
0.2177505387
 40
0.4508930897
 40
0.7104637464
 40
1.0
 40
1.0
 40
1.0
 40
1.0
 10
169.0783600307
 20
106.9276551022
 30
0.0
 10
169.0976918135
 20
106.9164909501
 30
0.0
 10
169.1338971656
 20
106.8861162461
 30
0.0
 10
169.1724070476
 20
106.8231078071
 30
0.0
 10
169.1952376402
 20
106.745489933
 30
0.0
 10
169.1997675712
 20
106.6890077335
 30
0.0
 10
169.1997675712
 20
106.6593243358
 30
0.0
  0
SPLINE
  5
5D9
100
AcDbEntity
  8
7_ALL_ROUNDS
100
AcDbSpline
 62
7
  6
CONTINUOUS
 70
0
 71
3
 72
9
 73
5
 74
0
 42
0.0000001
 43
0.0000001
 44
0.0000000001
 40
0.0
 40
0.0
 40
0.0
 40
0.0
 40
0.2453541747
 40
1.0
 40
1.0
 40
1.0
 40
1.0
 10
165.0360697667
 20
98.4264489738
 30
0.0
 10
165.0396998933
 20
98.4256329033
 30
0.0
 10
165.0545809858
 20
98.4226940607
 30
0.0
 10
165.06975608
 20
98.4212948826
 30
0.0
 10
165.0811968952
 20
98.4210256183
 30
0.0
  0
SPLINE
  5
5DA
100
AcDbEntity
  8
7_ALL_ROUNDS
100
AcDbSpline
 62
7
  6
CONTINUOUS
 70
0
 71
3
 72
9
 73
5
 74
0
 42
0.0000001
 43
0.0000001
 44
0.0000000001
 40
0.0
 40
0.0
 40
0.0
 40
0.0
 40
0.2262056197
 40
1.0
 40
1.0
 40
1.0
 40
1.0
 10
165.0811968952
 20
98.4210256183
 30
0.0
 10
165.0963563127
 20
98.4206688352
 30
0.0
 10
165.1635464093
 20
98.4251986351
 30
0.0
 10
165.2277464802
 20
98.4515667853
 30
0.0
 10
165.2726651762
 20
98.4775073979
 30
0.0
  0
SPLINE
  5
5DB
100
AcDbEntity
  8
7_ALL_ROUNDS
100
AcDbSpline
 62
7
  6
CONTINUOUS
 70
0
 71
3
 72
9
 73
5
 74
0
 42
0.0000001
 43
0.0000001
 44
0.0000000001
 40
0.0
 40
0.0
 40
0.0
 40
0.0
 40
0.2662047348
 40
1.0
 40
1.0
 40
1.0
 40
1.0
 10
169.0961018248
 20
106.719191456
 30
0.0
 10
169.0961018248
 20
106.7314407319
 30
0.0
 10
169.0945472805
 20
106.7774101341
 30
0.0
 10
169.0865483259
 20
106.8234014948
 30
0.0
 10
169.0758067737
 20
106.8554125701
 30
0.0
  0
SPLINE
  5
5DC
100
AcDbEntity
  8
7_ALL_ROUNDS
100
AcDbSpline
 62
7
  6
CONTINUOUS
 70
0
 71
3
 72
9
 73
5
 74
0
 42
0.0000001
 43
0.0000001
 44
0.0000000001
 40
0.0
 40
0.0
 40
0.0
 40
0.0
 40
0.2651969078
 40
1.0
 40
1.0
 40
1.0
 40
1.0
 10
169.0758067737
 20
106.8554125701
 30
0.0
 10
169.072747178
 20
106.8645305212
 30
0.0
 10
169.0597231577
 20
106.8983631548
 30
0.0
 10
169.0400965478
 20
106.9298976334
 30
0.0
 10
169.0220341771
 20
106.9494905197
 30
0.0
  0
SPLINE
  5
5DD
100
AcDbEntity
  8
7_ALL_ROUNDS
100
AcDbSpline
 62
7
  6
CONTINUOUS
 70
0
 71
3
 72
11
 73
7
 74
0
 42
0.0000001
 43
0.0000001
 44
0.0000000001
 40
0.0
 40
0.0
 40
0.0
 40
0.0
 40
0.2177505387
 40
0.4508930897
 40
0.7104637464
 40
1.0
 40
1.0
 40
1.0
 40
1.0
 10
178.874163272
 20
112.5847457973
 30
0.0
 10
178.8934950548
 20
112.5735816452
 30
0.0
 10
178.9297004069
 20
112.5432069412
 30
0.0
 10
178.9682102889
 20
112.4801985022
 30
0.0
 10
178.9910408815
 20
112.4025806281
 30
0.0
 10
178.9955708125
 20
112.3460984286
 30
0.0
 10
178.9955708125
 20
112.3164150309
 30
0.0
  0
SPLINE
  5
5DE
100
AcDbEntity
  8
7_ALL_ROUNDS
100
AcDbSpline
 62
7
  6
CONTINUOUS
 70
0
 71
3
 72
9
 73
5
 74
0
 42
0.0000001
 43
0.0000001
 44
0.0000000001
 40
0.0
 40
0.0
 40
0.0
 40
0.0
 40
0.2453541747
 40
1.0
 40
1.0
 40
1.0
 40
1.0
 10
174.831873008
 20
104.0835396689
 30
0.0
 10
174.8355031346
 20
104.0827235984
 30
0.0
 10
174.8503842271
 20
104.0797847558
 30
0.0
 10
174.8655593213
 20
104.0783855777
 30
0.0
 10
174.8770001365
 20
104.0781163134
 30
0.0
  0
SPLINE
  5
5DF
100
AcDbEntity
  8
7_ALL_ROUNDS
100
AcDbSpline
 62
7
  6
CONTINUOUS
 70
0
 71
3
 72
9
 73
5
 74
0
 42
0.0000001
 43
0.0000001
 44
0.0000000001
 40
0.0
 40
0.0
 40
0.0
 40
0.0
 40
0.2262056197
 40
1.0
 40
1.0
 40
1.0
 40
1.0
 10
174.8770001365
 20
104.0781163134
 30
0.0
 10
174.892159554
 20
104.0777595303
 30
0.0
 10
174.9593496506
 20
104.0822893302
 30
0.0
 10
175.0235497215
 20
104.1086574805
 30
0.0
 10
175.0684684175
 20
104.134598093
 30
0.0
  0
SPLINE
  5
5E0
100
AcDbEntity
  8
7_ALL_ROUNDS
100
AcDbSpline
 62
7
  6
CONTINUOUS
 70
0
 71
3
 72
9
 73
5
 74
0
 42
0.0000001
 43
0.0000001
 44
0.0000000001
 40
0.0
 40
0.0
 40
0.0
 40
0.0
 40
0.2384904126
 40
1.0
 40
1.0
 40
1.0
 40
1.0
 10
168.6814388389
 20
100.4460791724
 30
0.0
 10
168.6910369105
 20
100.4516220728
 30
0.0
 10
168.7305680255
 20
100.4760933479
 30
0.0
 10
168.7672826198
 20
100.5049934825
 30
0.0
 10
168.7935736671
 20
100.5286845285
 30
0.0
  0
SPLINE
  5
5E1
100
AcDbEntity
  8
7_ALL_ROUNDS
100
AcDbSpline
 62
7
  6
CONTINUOUS
 70
0
 71
3
 72
11
 73
7
 74
0
 42
0.0000001
 43
0.0000001
 44
0.0000000001
 40
0.0
 40
0.0
 40
0.0
 40
0.0
 40
0.254454275
 40
0.5166913462
 40
0.7701370604
 40
1.0
 40
1.0
 40
1.0
 40
1.0
 10
168.8155974043
 20
100.5493028994
 30
0.0
 10
168.857635923
 20
100.5901638212
 30
0.0
 10
168.9344072702
 20
100.6822482397
 30
0.0
 10
169.022716936
 20
100.8371478017
 30
0.0
 10
169.0804590063
 20
100.9998653948
 30
0.0
 10
169.0961018248
 20
101.1113375387
 30
0.0
 10
169.0961018248
 20
101.1642965196
 30
0.0
  0
LINE
  5
5E2
100
AcDbEntity
  8
3_ALL_AXES
100
AcDbLine
 62
7
  6
CONTINUOUS
 10
154.0482169892
 20
110.371779522
 11
154.0428268732
 21
110.3686543183
  0
SPLINE
  5
5E3
100
AcDbEntity
  8
3_ALL_AXES
100
AcDbSpline
 62
7
  6
CONTINUOUS
 70
0
 71
3
 72
11
 73
7
 74
0
 42
0.0000001
 43
0.0000001
 44
0.0000000001
 40
0.0
 40
0.0
 40
0.0
 40
0.0
 40
0.2375451056
 40
0.4804266309
 40
0.7333283298
 40
1.0
 40
1.0
 40
1.0
 40
1.0
 10
154.0428268732
 20
110.3686543183
 30
0.0
 10
153.9242569284
 20
110.2996851897
 30
0.0
 10
153.6969106442
 20
110.1374835564
 30
0.0
 10
153.4010030764
 20
109.8316286501
 30
0.0
 10
153.1516208452
 20
109.4664925826
 30
0.0
 10
153.0219951111
 20
109.1945508503
 30
0.0
 10
152.9650894729
 20
109.0514622757
 30
0.0
  0
SPLINE
  5
5E4
100
AcDbEntity
  8
3_ALL_AXES
100
AcDbSpline
 62
7
  6
CONTINUOUS
 70
0
 71
3
 72
9
 73
5
 74
0
 42
0.0000001
 43
0.0000001
 44
0.0000000001
 40
0.0
 40
0.0
 40
0.0
 40
0.0
 40
0.2437994387
 40
1.0
 40
1.0
 40
1.0
 40
1.0
 10
152.938800926
 20
108.9832989746
 30
0.0
 10
152.9232928557
 20
108.9418167464
 30
0.0
 10
152.8628505742
 20
108.7704916205
 30
0.0
 10
152.8149074771
 20
108.5948277269
 30
0.0
 10
152.785027237
 20
108.4607527564
 30
0.0
  0
SPLINE
  5
5E5
100
AcDbEntity
  8
0
100
AcDbSpline
 62
7
  6
CONTINUOUS
 70
0
 71
3
 72
19
 73
15
 74
0
 42
0.0000001
 43
0.0000001
 44
0.0000000001
 40
0.0
 40
0.0
 40
0.0
 40
0.0
 40
0.1382585612
 40
0.2913894097
 40
0.4445509335
 40
0.5828088222
 40
0.6432745348
 40
0.6973561594
 40
0.7460006122
 40
0.7914298352
 40
0.8368366232
 40
0.8854717433
 40
0.93964055
 40
1.0
 40
1.0
 40
1.0
 40
1.0
 10
178.0363577586
 20
103.0886650965
 30
0.0
 10
178.0363577581
 20
103.0452827599
 30
0.0
 10
178.0200880107
 20
102.9537900861
 30
0.0
 10
177.9633641143
 20
102.8252331279
 30
0.0
 10
177.8803414931
 20
102.7118166993
 30
0.0
 10
177.794612034
 20
102.6395817522
 30
0.0
 10
177.7226285802
 20
102.6052261294
 30
0.0
 10
177.6723992811
 20
102.5931197295
 30
0.0
 10
177.6252607923
 20
102.5942934958
 30
0.0
 10
177.583309971
 20
102.6095111309
 30
0.0
 10
177.549145426
 20
102.6382075022
 30
0.0
 10
177.5245047194
 20
102.678443517
 30
0.0
 10
177.5099644759
 20
102.727997086
 30
0.0
 10
177.5070526531
 20
102.7640512243
 30
0.0
 10
177.5070526531
 20
102.7829906227
 30
0.0
  0
SPLINE
  5
5E6
100
AcDbEntity
  8
3_ALL_AXES
100
AcDbSpline
 62
7
  6
CONTINUOUS
 70
0
 71
3
 72
23
 73
19
 74
0
 42
0.0000001
 43
0.0000001
 44
0.0000000001
 40
0.0
 40
0.0
 40
0.0
 40
0.0
 40
0.0428097855
 40
0.0873889738
 40
0.1351704067
 40
0.1870785958
 40
0.243524211
 40
0.3044810298
 40
0.3695789517
 40
0.4381869526
 40
0.5094843491
 40
0.5825201624
 40
0.6562639848
 40
0.7296537226
 40
0.8016447626
 40
0.8712458011
 40
0.9376093769
 40
1.0
 40
1.0
 40
1.0
 40
1.0
 10
154.3199156011
 20
109.9012939805
 30
0.0
 10
154.1688279684
 20
109.8139705034
 30
0.0
 10
153.8824007588
 20
109.594618951
 30
0.0
 10
153.5377961558
 20
109.1585194849
 30
0.0
 10
153.2803383448
 20
108.6252594867
 30
0.0
 10
153.1136864903
 20
108.0078411142
 30
0.0
 10
153.0395638415
 20
107.3192770468
 30
0.0
 10
153.05867986
 20
106.5737087752
 30
0.0
 10
153.1702500581
 20
105.7865171378
 30
0.0
 10
153.3717639699
 20
104.9741499135
 30
0.0
 10
153.6588956683
 20
104.1537412711
 30
0.0
 10
154.0255333042
 20
103.3427040239
 30
0.0
 10
154.4638681175
 20
102.5583152331
 30
0.0
 10
154.9645626584
 20
101.8172971961
 30
0.0
 10
155.5169366712
 20
101.1354966218
 30
0.0
 10
156.1092685376
 20
100.5272659573
 30
0.0
 10
156.7289502229
 20
100.0057759991
 30
0.0
 10
157.1665127248
 20
99.7132765032
 30
0.0
 10
157.3867508637
 20
99.5860886559
 30
0.0
  0
SPLINE
  5
5E7
100
AcDbEntity
  8
0
100
AcDbSpline
 62
7
  6
CONTINUOUS
 70
0
 71
3
 72
19
 73
15
 74
0
 42
0.0000001
 43
0.0000001
 44
0.0000000001
 40
0.0
 40
0.0
 40
0.0
 40
0.0
 40
0.1382585612
 40
0.2913894097
 40
0.4445509335
 40
0.5828088222
 40
0.6432745348
 40
0.6973561594
 40
0.7460006122
 40
0.7914298352
 40
0.8368366232
 40
0.8854717433
 40
0.93964055
 40
1.0
 40
1.0
 40
1.0
 40
1.0
 10
166.7550853504
 20
96.5737137855
 30
0.0
 10
166.75508535
 20
96.530331449
 30
0.0
 10
166.7388156026
 20
96.4388387751
 30
0.0
 10
166.6820917062
 20
96.3102818169
 30
0.0
 10
166.599069085
 20
96.1968653883
 30
0.0
 10
166.5133396259
 20
96.1246304412
 30
0.0
 10
166.4413561721
 20
96.0902748184
 30
0.0
 10
166.391126873
 20
96.0781684185
 30
0.0
 10
166.3439883842
 20
96.0793421848
 30
0.0
 10
166.3020375629
 20
96.0945598199
 30
0.0
 10
166.2678730179
 20
96.1232561912
 30
0.0
 10
166.2432323113
 20
96.1634922061
 30
0.0
 10
166.2286920678
 20
96.213045775
 30
0.0
 10
166.225780245
 20
96.2490999133
 30
0.0
 10
166.225780245
 20
96.2680393117
 30
0.0
  0
SPLINE
  5
5E8
100
AcDbEntity
  8
7_ALL_ROUNDS
100
AcDbSpline
 62
7
  6
CONTINUOUS
 70
0
 71
3
 72
11
 73
7
 74
0
 42
0.0000001
 43
0.0000001
 44
0.0000000001
 40
0.0
 40
0.0
 40
0.0
 40
0.0
 40
0.217713306
 40
0.4510106213
 40
0.7108503282
 40
1.0
 40
1.0
 40
1.0
 40
1.0
 10
180.9285171497
 20
103.7179472506
 30
0.0
 10
180.9356229497
 20
103.722050931
 30
0.0
 10
180.9489159064
 20
103.7332430985
 30
0.0
 10
180.9631053696
 20
103.7564028642
 30
0.0
 10
180.9714623118
 20
103.7849531296
 30
0.0
 10
180.9731473757
 20
103.8057089351
 30
0.0
 10
180.9731473757
 20
103.8166070248
 30
0.0
  0
SPLINE
  5
5E9
100
AcDbEntity
  8
3_ALL_AXES
100
AcDbSpline
 62
7
  6
CONTINUOUS
 70
0
 71
3
 72
17
 73
13
 74
0
 42
0.0000001
 43
0.0000001
 44
0.0000000001
 40
0.0
 40
0.0
 40
0.0
 40
0.0
 40
0.0428689013
 40
0.0875098379
 40
0.1353546886
 40
0.1873289325
 40
0.3046054973
 40
0.4382758367
 40
0.5826112013
 40
0.7297531327
 40
0.8713263151
 40
1.0
 40
1.0
 40
1.0
 40
1.0
 10
138.3965238449
 20
123.9777416778
 30
0.0
 10
138.3965186648
 20
124.0022957282
 30
0.0
 10
138.3899153318
 20
124.0526285882
 30
0.0
 10
138.3610223249
 20
124.1252963715
 30
0.0
 10
138.3141531478
 20
124.1941835346
 30
0.0
 10
138.2259660918
 20
124.2826650664
 30
0.0
 10
138.0757198871
 20
124.3741022187
 30
0.0
 10
137.8597152642
 20
124.446240671
 30
0.0
 10
137.6173284024
 20
124.48028603
 30
0.0
 10
137.3682065017
 20
124.4733703426
 30
0.0
 10
137.1326807924
 20
124.4262212477
 30
0.0
 10
136.9881744527
 20
124.3665765093
 30
0.0
 10
136.9243521109
 20
124.3297190136
 30
0.0
  0
SPLINE
  5
5EA
100
AcDbEntity
  8
3_ALL_AXES
100
AcDbSpline
 62
7
  6
CONTINUOUS
 70
0
 71
3
 72
9
 73
5
 74
0
 42
0.0000001
 43
0.0000001
 44
0.0000000001
 40
0.0
 40
0.0
 40
0.0
 40
0.0
 40
0.2378151451
 40
1.0
 40
1.0
 40
1.0
 40
1.0
 10
138.3828343384
 20
123.8899720588
 30
0.0
 10
138.3790488438
 20
123.9020828809
 30
0.0
 10
138.3600455541
 20
123.952043323
 30
0.0
 10
138.3294470401
 20
123.9971556532
 30
0.0
 10
138.3025415669
 20
124.027649207
 30
0.0
  0
SPLINE
  5
5EB
100
AcDbEntity
  8
3_ALL_AXES
100
AcDbSpline
 62
7
  6
CONTINUOUS
 70
0
 71
3
 72
15
 73
11
 74
0
 42
0.0000001
 43
0.0000001
 44
0.0000000001
 40
0.0
 40
0.0
 40
0.0
 40
0.0
 40
0.1013151324
 40
0.2161580442
 40
0.3426647135
 40
0.4772000019
 40
0.615101374
 40
0.7512710757
 40
0.8810007826
 40
1.0
 40
1.0
 40
1.0
 40
1.0
 10
138.3025415669
 20
124.027649207
 30
0.0
 10
138.2697098839
 20
124.0648592827
 30
0.0
 10
138.1874285826
 20
124.1336218728
 30
0.0
 10
138.0376853437
 20
124.2113850966
 30
0.0
 10
137.8614013289
 20
124.2672040423
 30
0.0
 10
137.6678154632
 20
124.2981355295
 30
0.0
 10
137.4671331737
 20
124.3025797989
 30
0.0
 10
137.2699531898
 20
124.2803849107
 30
0.0
 10
137.0869174706
 20
124.2326147503
 30
0.0
 10
136.9748253191
 20
124.1828567525
 30
0.0
 10
136.9243521109
 20
124.1537084009
 30
0.0
  0
SPLINE
  5
5EC
100
AcDbEntity
  8
3_ALL_AXES
100
AcDbSpline
 62
7
  6
CONTINUOUS
 70
0
 71
3
 72
17
 73
13
 74
0
 42
0.0000001
 43
0.0000001
 44
0.0000000001
 40
0.0
 40
0.0
 40
0.0
 40
0.0
 40
0.0428689013
 40
0.0875098379
 40
0.1353546886
 40
0.1873289325
 40
0.3046054973
 40
0.4382758367
 40
0.5826112013
 40
0.7297531327
 40
0.8713263151
 40
1.0
 40
1.0
 40
1.0
 40
1.0
 10
153.2219451847
 20
132.539444179
 30
0.0
 10
153.2219400046
 20
132.5639982295
 30
0.0
 10
153.2153366716
 20
132.6143310894
 30
0.0
 10
153.1864436647
 20
132.6869988728
 30
0.0
 10
153.1395744876
 20
132.7558860358
 30
0.0
 10
153.0513874316
 20
132.8443675676
 30
0.0
 10
152.9011412269
 20
132.9358047199
 30
0.0
 10
152.685136604
 20
133.0079431722
 30
0.0
 10
152.4427497421
 20
133.0419885313
 30
0.0
 10
152.1936278415
 20
133.0350728439
 30
0.0
 10
151.9581021321
 20
132.9879237489
 30
0.0
 10
151.8135957925
 20
132.9282790105
 30
0.0
 10
151.7497734507
 20
132.8914215148
 30
0.0
  0
SPLINE
  5
5ED
100
AcDbEntity
  8
3_ALL_AXES
100
AcDbSpline
 62
7
  6
CONTINUOUS
 70
0
 71
3
 72
9
 73
5
 74
0
 42
0.0000001
 43
0.0000001
 44
0.0000000001
 40
0.0
 40
0.0
 40
0.0
 40
0.0
 40
0.2378151451
 40
1.0
 40
1.0
 40
1.0
 40
1.0
 10
153.2082556782
 20
132.4516745601
 30
0.0
 10
153.2044701835
 20
132.4637853821
 30
0.0
 10
153.1854668939
 20
132.5137458243
 30
0.0
 10
153.1548683798
 20
132.5588581544
 30
0.0
 10
153.1279629067
 20
132.5893517083
 30
0.0
  0
SPLINE
  5
5EE
100
AcDbEntity
  8
3_ALL_AXES
100
AcDbSpline
 62
7
  6
CONTINUOUS
 70
0
 71
3
 72
15
 73
11
 74
0
 42
0.0000001
 43
0.0000001
 44
0.0000000001
 40
0.0
 40
0.0
 40
0.0
 40
0.0
 40
0.1013151324
 40
0.2161580442
 40
0.3426647135
 40
0.4772000019
 40
0.615101374
 40
0.7512710757
 40
0.8810007826
 40
1.0
 40
1.0
 40
1.0
 40
1.0
 10
153.1279629067
 20
132.5893517083
 30
0.0
 10
153.0951312237
 20
132.6265617839
 30
0.0
 10
153.0128499224
 20
132.695324374
 30
0.0
 10
152.8631066835
 20
132.7730875978
 30
0.0
 10
152.6868226687
 20
132.8289065435
 30
0.0
 10
152.4932368029
 20
132.8598380307
 30
0.0
 10
152.2925545135
 20
132.8642823001
 30
0.0
 10
152.0953745296
 20
132.8420874119
 30
0.0
 10
151.9123388104
 20
132.7943172515
 30
0.0
 10
151.8002466589
 20
132.7445592537
 30
0.0
 10
151.7497734507
 20
132.7154109021
 30
0.0
  0
SPLINE
  5
5EF
100
AcDbEntity
  8
3_ALL_AXES
100
AcDbSpline
 62
7
  6
CONTINUOUS
 70
0
 71
3
 72
12
 73
8
 74
0
 42
0.0000001
 43
0.0000001
 44
0.0000000001
 40
0.0
 40
0.0
 40
0.0
 40
0.0
 40
0.1079286755
 40
0.2191329928
 40
0.4551935155
 40
0.7147267075
 40
1.0
 40
1.0
 40
1.0
 40
1.0
 10
160.8240526498
 20
97.6220289515
 30
0.0
 10
160.7018204729
 20
97.5802731949
 30
0.0
 10
160.4472054691
 20
97.5132922373
 30
0.0
 10
159.9051068208
 20
97.4470123877
 30
0.0
 10
159.1733670113
 20
97.4995929075
 30
0.0
 10
158.2709860131
 20
97.7616648568
 30
0.0
 10
157.6824021592
 20
98.049507246
 30
0.0
 10
157.3867508637
 20
98.2202463015
 30
0.0
  0
SPLINE
  5
5F0
100
AcDbEntity
  8
3_ALL_AXES
100
AcDbSpline
 62
7
  6
CONTINUOUS
 70
0
 71
3
 72
17
 73
13
 74
0
 42
0.0000001
 43
0.0000001
 44
0.0000000001
 40
0.0
 40
0.0
 40
0.0
 40
0.0
 40
0.0428689013
 40
0.0875098379
 40
0.1353546886
 40
0.1873289325
 40
0.3046054973
 40
0.4382758367
 40
0.5826112013
 40
0.7297531327
 40
0.8713263151
 40
1.0
 40
1.0
 40
1.0
 40
1.0
 10
163.8934190842
 20
109.2532473959
 30
0.0
 10
163.8934139042
 20
109.2778014464
 30
0.0
 10
163.8868105712
 20
109.3281343063
 30
0.0
 10
163.8579175643
 20
109.4008020897
 30
0.0
 10
163.8110483871
 20
109.4696892527
 30
0.0
 10
163.7228613312
 20
109.5581707845
 30
0.0
 10
163.5726151265
 20
109.6496079368
 30
0.0
 10
163.3566105035
 20
109.7217463891
 30
0.0
 10
163.1142236417
 20
109.7557917482
 30
0.0
 10
162.8651017411
 20
109.7488760608
 30
0.0
 10
162.6295760317
 20
109.7017269658
 30
0.0
 10
162.4850696921
 20
109.6420822274
 30
0.0
 10
162.4212473502
 20
109.6052247317
 30
0.0
  0
SPLINE
  5
5F1
100
AcDbEntity
  8
3_ALL_AXES
100
AcDbSpline
 62
7
  6
CONTINUOUS
 70
0
 71
3
 72
9
 73
5
 74
0
 42
0.0000001
 43
0.0000001
 44
0.0000000001
 40
0.0
 40
0.0
 40
0.0
 40
0.0
 40
0.2378151451
 40
1.0
 40
1.0
 40
1.0
 40
1.0
 10
163.8797295777
 20
109.165477777
 30
0.0
 10
163.8759440831
 20
109.177588599
 30
0.0
 10
163.8569407934
 20
109.2275490412
 30
0.0
 10
163.8263422794
 20
109.2726613713
 30
0.0
 10
163.7994368062
 20
109.3031549252
 30
0.0
  0
SPLINE
  5
5F2
100
AcDbEntity
  8
3_ALL_AXES
100
AcDbSpline
 62
7
  6
CONTINUOUS
 70
0
 71
3
 72
15
 73
11
 74
0
 42
0.0000001
 43
0.0000001
 44
0.0000000001
 40
0.0
 40
0.0
 40
0.0
 40
0.0
 40
0.1013151324
 40
0.2161580442
 40
0.3426647135
 40
0.4772000019
 40
0.615101374
 40
0.7512710757
 40
0.8810007826
 40
1.0
 40
1.0
 40
1.0
 40
1.0
 10
163.7994368062
 20
109.3031549252
 30
0.0
 10
163.7666051233
 20
109.3403650008
 30
0.0
 10
163.684323822
 20
109.4091275909
 30
0.0
 10
163.534580583
 20
109.4868908147
 30
0.0
 10
163.3582965682
 20
109.5427097604
 30
0.0
 10
163.1647107025
 20
109.5736412476
 30
0.0
 10
162.9640284131
 20
109.5780855171
 30
0.0
 10
162.7668484291
 20
109.5558906288
 30
0.0
 10
162.58381271
 20
109.5081204684
 30
0.0
 10
162.4717205585
 20
109.4583624706
 30
0.0
 10
162.4212473502
 20
109.429214119
 30
0.0
  0
SPLINE
  5
5F3
100
AcDbEntity
  8
3_ALL_AXES
100
AcDbSpline
 62
7
  6
CONTINUOUS
 70
0
 71
3
 72
14
 73
10
 74
0
 42
0.0000001
 43
0.0000001
 44
0.0000000001
 40
0.0
 40
0.0
 40
0.0
 40
0.0
 40
0.1080373238
 40
0.2181115578
 40
0.3320785136
 40
0.4514755448
 40
0.5774273062
 40
0.7106944161
 40
1.0
 40
1.0
 40
1.0
 40
1.0
 10
160.8327338951
 20
97.5693500562
 30
0.0
 10
160.7047623613
 20
97.4954363233
 30
0.0
 10
160.433061967
 20
97.3681119617
 30
0.0
 10
159.9933829394
 20
97.2465071501
 30
0.0
 10
159.5246555895
 20
97.1941741844
 30
0.0
 10
159.0318937495
 20
97.2113687054
 30
0.0
 10
158.5197652274
 20
97.2972735441
 30
0.0
 10
157.798226003
 20
97.5077344534
 30
0.0
 10
157.2720995711
 20
97.7582182951
 30
0.0
 10
156.9294019822
 20
97.9561266537
 30
0.0
  0
SPLINE
  5
5F4
100
AcDbEntity
  8
3_ALL_AXES
100
AcDbSpline
 62
7
  6
CONTINUOUS
 70
0
 71
3
 72
17
 73
13
 74
0
 42
0.0000001
 43
0.0000001
 44
0.0000000001
 40
0.0
 40
0.0
 40
0.0
 40
0.0
 40
0.0428689013
 40
0.0875098379
 40
0.1353546886
 40
0.1873289325
 40
0.3046054973
 40
0.4382758367
 40
0.5826112013
 40
0.7297531327
 40
0.8713263151
 40
1.0
 40
1.0
 40
1.0
 40
1.0
 10
178.718840424
 20
117.8149498972
 30
0.0
 10
178.7188352439
 20
117.8395039476
 30
0.0
 10
178.7122319109
 20
117.8898368075
 30
0.0
 10
178.683338904
 20
117.9625045909
 30
0.0
 10
178.6364697269
 20
118.0313917539
 30
0.0
 10
178.5482826709
 20
118.1198732858
 30
0.0
 10
178.3980364662
 20
118.211310438
 30
0.0
 10
178.1820318433
 20
118.2834488903
 30
0.0
 10
177.9396449815
 20
118.3174942494
 30
0.0
 10
177.6905230808
 20
118.310578562
 30
0.0
 10
177.4549973715
 20
118.263429467
 30
0.0
 10
177.3104910318
 20
118.2037847287
 30
0.0
 10
177.24666869
 20
118.1669272329
 30
0.0
  0
SPLINE
  5
5F5
100
AcDbEntity
  8
3_ALL_AXES
100
AcDbSpline
 62
7
  6
CONTINUOUS
 70
0
 71
3
 72
9
 73
5
 74
0
 42
0.0000001
 43
0.0000001
 44
0.0000000001
 40
0.0
 40
0.0
 40
0.0
 40
0.0
 40
0.2378151451
 40
1.0
 40
1.0
 40
1.0
 40
1.0
 10
178.7051509175
 20
117.7271802782
 30
0.0
 10
178.7013654229
 20
117.7392911002
 30
0.0
 10
178.6823621332
 20
117.7892515424
 30
0.0
 10
178.6517636192
 20
117.8343638725
 30
0.0
 10
178.624858146
 20
117.8648574264
 30
0.0
  0
SPLINE
  5
5F6
100
AcDbEntity
  8
3_ALL_AXES
100
AcDbSpline
 62
7
  6
CONTINUOUS
 70
0
 71
3
 72
15
 73
11
 74
0
 42
0.0000001
 43
0.0000001
 44
0.0000000001
 40
0.0
 40
0.0
 40
0.0
 40
0.0
 40
0.1013151324
 40
0.2161580442
 40
0.3426647135
 40
0.4772000019
 40
0.615101374
 40
0.7512710757
 40
0.8810007826
 40
1.0
 40
1.0
 40
1.0
 40
1.0
 10
178.624858146
 20
117.8648574264
 30
0.0
 10
178.5920264631
 20
117.902067502
 30
0.0
 10
178.5097451617
 20
117.9708300921
 30
0.0
 10
178.3600019228
 20
118.0485933159
 30
0.0
 10
178.183717908
 20
118.1044122616
 30
0.0
 10
177.9901320423
 20
118.1353437489
 30
0.0
 10
177.7894497528
 20
118.1397880183
 30
0.0
 10
177.5922697689
 20
118.11759313
 30
0.0
 10
177.4092340497
 20
118.0698229696
 30
0.0
 10
177.2971418983
 20
118.0200649718
 30
0.0
 10
177.24666869
 20
117.9909166202
 30
0.0
  0
SPLINE
  5
5F7
100
AcDbEntity
  8
7_ALL_ROUNDS
100
AcDbSpline
 62
7
  6
CONTINUOUS
 70
0
 71
3
 72
11
 73
7
 74
0
 42
0.0000001
 43
0.0000001
 44
0.0000000001
 40
0.0
 40
0.0
 40
0.0
 40
0.0
 40
0.2372277995
 40
0.5000198249
 40
0.7627993209
 40
1.0
 40
1.0
 40
1.0
 40
1.0
 10
163.352137331
 20
107.7213661262
 30
0.0
 10
163.3737781604
 20
107.7088685156
 30
0.0
 10
163.4147353444
 20
107.6743951837
 30
0.0
 10
163.4625404119
 20
107.6090675532
 30
0.0
 10
163.4952130302
 20
107.5350064259
 30
0.0
 10
163.5045869581
 20
107.4823030875
 30
0.0
 10
163.5045869581
 20
107.457315631
 30
0.0
  0
SPLINE
  5
5F8
100
AcDbEntity
  8
3_ALL_AXES
100
AcDbSpline
 62
7
  6
CONTINUOUS
 70
0
 71
3
 72
24
 73
20
 74
0
 42
0.0000001
 43
0.0000001
 44
0.0000000001
 40
0.0
 40
0.0
 40
0.0
 40
0.0
 40
0.0663191257
 40
0.1377116866
 40
0.2128099854
 40
0.2900687316
 40
0.3677256066
 40
0.4440055518
 40
0.5172320799
 40
0.5859585732
 40
0.649119224
 40
0.6784601597
 40
0.7062878381
 40
0.7576308276
 40
0.8045576911
 40
0.8494736912
 40
0.8953808813
 40
0.944964594
 40
1.0
 40
1.0
 40
1.0
 40
1.0
 10
158.8689543358
 20
107.4895282604
 30
0.0
 10
158.9832893192
 20
107.4234996403
 30
0.0
 10
159.209475467
 20
107.2664696987
 30
0.0
 10
159.5227881775
 20
106.9797711361
 30
0.0
 10
159.8140267785
 20
106.6414084204
 30
0.0
 10
160.0734265955
 20
106.2629806286
 30
0.0
 10
160.2922486493
 20
105.857051191
 30
0.0
 10
160.4631364144
 20
105.437348456
 30
0.0
 10
160.5803731992
 20
105.0179006257
 30
0.0
 10
160.6399901932
 20
104.6127429313
 30
0.0
 10
160.6398735256
 20
104.2901912869
 30
0.0
 10
160.607134134
 20
104.0525109579
 30
0.0
 10
160.5565819389
 20
103.8422210673
 30
0.0
 10
160.4586314373
 20
103.6082195959
 30
0.0
 10
160.2792551816
 20
103.3812852305
 30
0.0
 10
160.0459944446
 20
103.2277786334
 30
0.0
 10
159.7708808748
 20
103.1566878236
 30
0.0
 10
159.4680447147
 20
103.1681992204
 30
0.0
 10
159.2658756689
 20
103.2253616427
 30
0.0
 10
159.1635445172
 20
103.2645189301
 30
0.0
  0
SPLINE
  5
5F9
100
AcDbEntity
  8
3_ALL_AXES
100
AcDbSpline
 62
7
  6
CONTINUOUS
 70
0
 71
3
 72
11
 73
7
 74
0
 42
0.0000001
 43
0.0000001
 44
0.0000000001
 40
0.0
 40
0.0
 40
0.0
 40
0.0
 40
0.2706441943
 40
0.5243821254
 40
0.7655599051
 40
1.0
 40
1.0
 40
1.0
 40
1.0
 10
161.8582808361
 20
100.4259830576
 30
0.0
 10
161.8044799522
 20
100.2545739113
 30
0.0
 10
161.6765280837
 20
99.9290787439
 30
0.0
 10
161.4126021762
 20
99.4916853255
 30
0.0
 10
161.0867104071
 20
99.1294893873
 30
0.0
 10
160.829439769
 20
98.9417611927
 30
0.0
 10
160.6946847813
 20
98.8639200093
 30
0.0
  0
SPLINE
  5
5FA
100
AcDbEntity
  8
3_ALL_AXES
100
AcDbSpline
 62
7
  6
CONTINUOUS
 70
0
 71
3
 72
13
 73
9
 74
0
 42
0.0000001
 43
0.0000001
 44
0.0000000001
 40
0.0
 40
0.0
 40
0.0
 40
0.0
 40
0.2826786658
 40
0.5393618935
 40
0.6596020835
 40
0.7755815517
 40
0.8885652382
 40
1.0
 40
1.0
 40
1.0
 40
1.0
 10
162.4162589364
 20
101.0331706117
 30
0.0
 10
162.3859792913
 20
100.7402270924
 30
0.0
 10
162.2847695014
 20
100.184178097
 30
0.0
 10
162.0289905961
 20
99.5398638173
 30
0.0
 10
161.7550910824
 20
99.103999733
 30
0.0
 10
161.5224557384
 20
98.822823074
 30
0.0
 10
161.2600277294
 20
98.5826086785
 30
0.0
 10
161.0657589972
 20
98.4507551616
 30
0.0
 10
160.9651905904
 20
98.3927517116
 30
0.0
  0
SPLINE
  5
5FB
100
AcDbEntity
  8
3_ALL_AXES
100
AcDbSpline
 62
7
  6
CONTINUOUS
 70
0
 71
3
 72
13
 73
9
 74
0
 42
0.0000001
 43
0.0000001
 44
0.0000000001
 40
0.0
 40
0.0
 40
0.0
 40
0.0
 40
0.2838572911
 40
0.5408557424
 40
0.6609590555
 40
0.7766113837
 40
0.8891218781
 40
1.0
 40
1.0
 40
1.0
 40
1.0
 10
156.9097427652
 20
110.6848134868
 30
0.0
 10
156.6335369082
 20
110.8141351245
 30
0.0
 10
156.0866229497
 20
111.0204002036
 30
0.0
 10
155.3793203388
 20
111.1351308111
 30
0.0
 10
154.8487207056
 20
111.1217528059
 30
0.0
 10
154.4780026424
 20
111.0627018956
 30
0.0
 10
154.1287822557
 20
110.9548683919
 30
0.0
 10
153.9115068688
 20
110.8504280259
 30
0.0
 10
153.8083111369
 20
110.7909092499
 30
0.0
  0
SPLINE
  5
5FC
100
AcDbEntity
  8
7_ALL_ROUNDS
100
AcDbSpline
 62
7
  6
CONTINUOUS
 70
0
 71
3
 72
11
 73
7
 74
0
 42
0.0000001
 43
0.0000001
 44
0.0000000001
 40
0.0
 40
0.0
 40
0.0
 40
0.0
 40
0.2372154384
 40
0.4999950007
 40
0.7627755457
 40
1.0
 40
1.0
 40
1.0
 40
1.0
 10
162.6791921193
 20
106.5557908489
 30
0.0
 10
162.700832402
 20
106.543293554
 30
0.0
 10
162.7511624952
 20
106.5250525517
 30
0.0
 10
162.8316402465
 20
106.5163127014
 30
0.0
 10
162.9121189507
 20
106.5250521376
 30
0.0
 10
162.9624502685
 20
106.543293079
 30
0.0
 10
162.9840913736
 20
106.5557908489
 30
0.0
  0
SPLINE
  5
5FD
100
AcDbEntity
  8
3_ALL_AXES
100
AcDbSpline
 62
7
  6
CONTINUOUS
 70
0
 71
3
 72
15
 73
11
 74
0
 42
0.0000001
 43
0.0000001
 44
0.0000000001
 40
0.0
 40
0.0
 40
0.0
 40
0.0
 40
0.1486280558
 40
0.2833573817
 40
0.4054180194
 40
0.5186017377
 40
0.6286269985
 40
0.7421031981
 40
0.8647026056
 40
1.0
 40
1.0
 40
1.0
 40
1.0
 10
158.8689543358
 20
107.4895282604
 30
0.0
 10
158.7702932921
 20
107.5465051574
 30
0.0
 10
158.5738712552
 20
107.6418533284
 30
0.0
 10
158.272488013
 20
107.7255778851
 30
0.0
 10
157.9863132854
 20
107.7391322166
 30
0.0
 10
157.7245663129
 20
107.6795742446
 30
0.0
 10
157.4984154827
 20
107.546751623
 30
0.0
 10
157.3182688394
 20
107.3469103361
 30
0.0
 10
157.1894418008
 20
107.0899567101
 30
0.0
 10
157.1414793654
 20
106.8966108717
 30
0.0
 10
157.1251394679
 20
106.794193383
 30
0.0
  0
SPLINE
  5
5FE
100
AcDbEntity
  8
7_ALL_ROUNDS
100
AcDbSpline
 62
7
  6
CONTINUOUS
 70
0
 71
3
 72
11
 73
7
 74
0
 42
0.0000001
 43
0.0000001
 44
0.0000000001
 40
0.0
 40
0.0
 40
0.0
 40
0.0
 40
0.2372154384
 40
0.4999950007
 40
0.7627755457
 40
1.0
 40
1.0
 40
1.0
 40
1.0
 10
162.6791921193
 20
94.0288387012
 30
0.0
 10
162.700832402
 20
94.0163414063
 30
0.0
 10
162.7511624952
 20
93.9981004041
 30
0.0
 10
162.8316402465
 20
93.9893605537
 30
0.0
 10
162.9121189507
 20
93.9980999899
 30
0.0
 10
162.9624502685
 20
94.0163409313
 30
0.0
 10
162.9840913736
 20
94.0288387012
 30
0.0
  0
SPLINE
  5
5FF
100
AcDbEntity
  8
3_ALL_AXES
100
AcDbSpline
 62
7
  6
CONTINUOUS
 70
0
 71
3
 72
11
 73
7
 74
0
 42
0.0000001
 43
0.0000001
 44
0.0000000001
 40
0.0
 40
0.0
 40
0.0
 40
0.0
 40
0.2773529626
 40
0.5327204514
 40
0.7710665002
 40
1.0
 40
1.0
 40
1.0
 40
1.0
 10
156.4656465013
 20
110.4180259964
 30
0.0
 10
156.2507223333
 20
110.4923087914
 30
0.0
 10
155.8260394439
 20
110.6043561586
 30
0.0
 10
155.1912578181
 20
110.6500654685
 30
0.0
 10
154.5999953571
 20
110.5628244037
 30
0.0
 10
154.2417682568
 20
110.4138243369
 30
0.0
 10
154.0792163868
 20
110.3199716333
 30
0.0
  0
SPLINE
  5
600
100
AcDbEntity
  8
7_ALL_ROUNDS
100
AcDbSpline
 62
7
  6
CONTINUOUS
 70
0
 71
3
 72
11
 73
7
 74
0
 42
0.0000001
 43
0.0000001
 44
0.0000000001
 40
0.0
 40
0.0
 40
0.0
 40
0.0
 40
0.2891305258
 40
0.5490021484
 40
0.7823015224
 40
1.0
 40
1.0
 40
1.0
 40
1.0
 10
134.2089193523
 20
110.4704628529
 30
0.0
 10
134.1994773587
 20
110.4759156181
 30
0.0
 10
134.1823380503
 20
110.4877642485
 30
0.0
 10
134.1617825049
 20
110.509291241
 30
0.0
 10
134.1488147533
 20
110.5331751298
 30
0.0
 10
134.1457726839
 20
110.5502931283
 30
0.0
 10
134.1457726486
 20
110.5585027463
 30
0.0
  0
SPLINE
  5
601
100
AcDbEntity
  8
7_ALL_ROUNDS
100
AcDbSpline
 62
7
  6
CONTINUOUS
 70
0
 71
3
 72
11
 73
7
 74
0
 42
0.0000001
 43
0.0000001
 44
0.0000000001
 40
0.0
 40
0.0
 40
0.0
 40
0.0
 40
0.2890940924
 40
0.5489750099
 40
0.7823041476
 40
1.0
 40
1.0
 40
1.0
 40
1.0
 10
134.2089193523
 20
122.9974150006
 30
0.0
 10
134.1994894306
 20
123.0028607942
 30
0.0
 10
134.1823698786
 20
123.0146933028
 30
0.0
 10
134.1618293793
 20
123.0361860121
 30
0.0
 10
134.1488537886
 20
123.0600298213
 30
0.0
 10
134.1457879843
 20
123.0771229284
 30
0.0
 10
134.1457727713
 20
123.0853229704
 30
0.0
  0
SPLINE
  5
602
100
AcDbEntity
  8
3_ALL_AXES
100
AcDbSpline
 62
7
  6
CONTINUOUS
 70
0
 71
3
 72
15
 73
11
 74
0
 42
0.0000001
 43
0.0000001
 44
0.0000000001
 40
0.0
 40
0.0
 40
0.0
 40
0.0
 40
0.1486280558
 40
0.2833573817
 40
0.4054180194
 40
0.5186017377
 40
0.6286269985
 40
0.7421031981
 40
0.8647026056
 40
1.0
 40
1.0
 40
1.0
 40
1.0
 10
143.1361528153
 20
116.5752441427
 30
0.0
 10
143.0374917716
 20
116.6322210397
 30
0.0
 10
142.8410697348
 20
116.7275692107
 30
0.0
 10
142.5396864925
 20
116.8112937675
 30
0.0
 10
142.2535117649
 20
116.824848099
 30
0.0
 10
141.9917647924
 20
116.7652901269
 30
0.0
 10
141.7656139622
 20
116.6324675054
 30
0.0
 10
141.5854673189
 20
116.4326262185
 30
0.0
 10
141.4566402803
 20
116.1756725924
 30
0.0
 10
141.4086778449
 20
115.982326754
 30
0.0
 10
141.3923379474
 20
115.8799092653
 30
0.0
  0
SPLINE
  5
603
100
AcDbEntity
  8
3_ALL_AXES
100
AcDbSpline
 62
7
  6
CONTINUOUS
 70
0
 71
3
 72
11
 73
7
 74
0
 42
0.0000001
 43
0.0000001
 44
0.0000000001
 40
0.0
 40
0.0
 40
0.0
 40
0.0
 40
0.2773435721
 40
0.5327092486
 40
0.7710595994
 40
1.0
 40
1.0
 40
1.0
 40
1.0
 10
140.7322637107
 20
119.5039427349
 30
0.0
 10
140.5174019425
 20
119.5781711694
 30
0.0
 10
140.0928433409
 20
119.6901278961
 30
0.0
 10
139.4582574543
 20
119.7357623416
 30
0.0
 10
138.8671733867
 20
119.6485205908
 30
0.0
 10
138.5090452515
 20
119.4995722486
 30
0.0
 10
138.3465320735
 20
119.4057551829
 30
0.0
  0
SPLINE
  5
604
100
AcDbEntity
  8
3_ALL_AXES
100
AcDbSpline
 62
7
  6
CONTINUOUS
 70
0
 71
3
 72
13
 73
9
 74
0
 42
0.0000001
 43
0.0000001
 44
0.0000000001
 40
0.0
 40
0.0
 40
0.0
 40
0.0
 40
0.2838573688
 40
0.540855789
 40
0.6609590677
 40
0.7766113654
 40
0.8891218499
 40
1.0
 40
1.0
 40
1.0
 40
1.0
 10
141.1769412448
 20
119.7705293692
 30
0.0
 10
140.9007343136
 20
119.8998515098
 30
0.0
 10
140.3538182437
 20
120.1061172047
 30
0.0
 10
139.6465128492
 20
120.2208473413
 30
0.0
 10
139.1159114167
 20
120.2074680549
 30
0.0
 10
138.7451922619
 20
120.1484157987
 30
0.0
 10
138.3959710298
 20
120.0405805541
 30
0.0
 10
138.1786953134
 20
119.9361387947
 30
0.0
 10
138.0754994739
 20
119.8766192825
 30
0.0
  0
SPLINE
  5
605
100
AcDbEntity
  8
3_ALL_AXES
100
AcDbSpline
 62
7
  6
CONTINUOUS
 70
0
 71
3
 72
14
 73
10
 74
0
 42
0.0000001
 43
0.0000001
 44
0.0000000001
 40
0.0
 40
0.0
 40
0.0
 40
0.0
 40
0.2868165186
 40
0.4194080441
 40
0.5451583455
 40
0.6648322827
 40
0.7795288035
 40
0.8906860871
 40
1.0
 40
1.0
 40
1.0
 40
1.0
 10
146.7106567312
 20
110.5078448814
 30
0.0
 10
146.6979416314
 20
110.1719400889
 30
0.0
 10
146.6403728229
 20
109.6799023031
 30
0.0
 10
146.4671948624
 20
109.0638164307
 30
0.0
 10
146.2988331084
 20
108.6528182339
 30
0.0
 10
146.089978875
 20
108.2846288024
 30
0.0
 10
145.8420022898
 20
107.962635662
 30
0.0
 10
145.5571399079
 20
107.6899750352
 30
0.0
 10
145.343377878
 20
107.5424817998
 30
0.0
 10
145.2323992124
 20
107.4784734437
 30
0.0
  0
SPLINE
  5
606
100
AcDbEntity
  8
7_ALL_ROUNDS
100
AcDbSpline
 62
7
  6
CONTINUOUS
 70
0
 71
3
 72
11
 73
7
 74
0
 42
0.0000001
 43
0.0000001
 44
0.0000000001
 40
0.0
 40
0.0
 40
0.0
 40
0.0
 40
0.2891395116
 40
0.5490340644
 40
0.7823442941
 40
1.0
 40
1.0
 40
1.0
 40
1.0
 10
134.881864564
 20
124.162990278
 30
0.0
 10
134.8724326096
 20
124.1684372454
 30
0.0
 10
134.8536246568
 20
124.1773530043
 30
0.0
 10
134.8247396774
 20
124.1844031111
 30
0.0
 10
134.7976022841
 20
124.1837233304
 30
0.0
 10
134.7812670004
 20
124.1778322627
 30
0.0
 10
134.7741593273
 20
124.1737450921
 30
0.0
  0
SPLINE
  5
607
100
AcDbEntity
  8
3_ALL_AXES
100
AcDbSpline
 62
7
  6
CONTINUOUS
 70
0
 71
3
 72
24
 73
20
 74
0
 42
0.0000001
 43
0.0000001
 44
0.0000000001
 40
0.0
 40
0.0
 40
0.0
 40
0.0
 40
0.0663191257
 40
0.1377116866
 40
0.2128099854
 40
0.2900687316
 40
0.3677256066
 40
0.4440055518
 40
0.5172320799
 40
0.5859585732
 40
0.649119224
 40
0.6784601597
 40
0.7062878381
 40
0.7576308276
 40
0.8045576911
 40
0.8494736912
 40
0.8953808813
 40
0.944964594
 40
1.0
 40
1.0
 40
1.0
 40
1.0
 10
143.1361528153
 20
116.5752441427
 30
0.0
 10
143.2504877987
 20
116.5092155226
 30
0.0
 10
143.4766739465
 20
116.352185581
 30
0.0
 10
143.789986657
 20
116.0654870185
 30
0.0
 10
144.081225258
 20
115.7271243028
 30
0.0
 10
144.340625075
 20
115.3486965109
 30
0.0
 10
144.5594471288
 20
114.9427670733
 30
0.0
 10
144.7303348939
 20
114.5230643383
 30
0.0
 10
144.8475716787
 20
114.103616508
 30
0.0
 10
144.9071886727
 20
113.6984588136
 30
0.0
 10
144.9070720051
 20
113.3759071692
 30
0.0
 10
144.8743326135
 20
113.1382268403
 30
0.0
 10
144.8237804184
 20
112.9279369496
 30
0.0
 10
144.7258299168
 20
112.6939354783
 30
0.0
 10
144.5464536611
 20
112.4670011129
 30
0.0
 10
144.3131929241
 20
112.3134945157
 30
0.0
 10
144.0380793543
 20
112.2424037059
 30
0.0
 10
143.7352431942
 20
112.2539151027
 30
0.0
 10
143.5330741484
 20
112.311077525
 30
0.0
 10
143.4307429967
 20
112.3502348124
 30
0.0
  0
SPLINE
  5
608
100
AcDbEntity
  8
7_ALL_ROUNDS
100
AcDbSpline
 62
7
  6
CONTINUOUS
 70
0
 71
3
 72
11
 73
7
 74
0
 42
0.0000001
 43
0.0000001
 44
0.0000000001
 40
0.0
 40
0.0
 40
0.0
 40
0.0
 40
0.2891459341
 40
0.5490461058
 40
0.7823443236
 40
1.0
 40
1.0
 40
1.0
 40
1.0
 10
152.3504249816
 20
134.2511094614
 30
0.0
 10
152.3409866937
 20
134.2565600864
 30
0.0
 10
152.3221649547
 20
134.2654798979
 30
0.0
 10
152.2932594464
 20
134.2725284533
 30
0.0
 10
152.2661038673
 20
134.2718355134
 30
0.0
 10
152.2497633935
 20
134.2659245462
 30
0.0
 10
152.2426554067
 20
134.2618272538
 30
0.0
  0
SPLINE
  5
609
100
AcDbEntity
  8
3_ALL_AXES
100
AcDbSpline
 62
7
  6
CONTINUOUS
 70
0
 71
3
 72
11
 73
7
 74
0
 42
0.0000001
 43
0.0000001
 44
0.0000000001
 40
0.0
 40
0.0
 40
0.0
 40
0.0
 40
0.2706710954
 40
0.5244151954
 40
0.7655815824
 40
1.0
 40
1.0
 40
1.0
 40
1.0
 10
146.1260325825
 20
109.5134631447
 30
0.0
 10
146.0722605066
 20
109.3418537503
 30
0.0
 10
145.9443337357
 20
109.0159793493
 30
0.0
 10
145.6803249845
 20
108.5780689456
 30
0.0
 10
145.3542381096
 20
108.2154663695
 30
0.0
 10
145.0967644245
 20
108.0275514533
 30
0.0
 10
144.9618991076
 20
107.9496450456
 30
0.0
  0
SPLINE
  5
60A
100
AcDbEntity
  8
7_ALL_ROUNDS
100
AcDbSpline
 62
7
  6
CONTINUOUS
 70
0
 71
3
 72
11
 73
7
 74
0
 42
0.0000001
 43
0.0000001
 44
0.0000000001
 40
0.0
 40
0.0
 40
0.0
 40
0.0
 40
0.2891459342
 40
0.5490461059
 40
0.7823443236
 40
1.0
 40
1.0
 40
1.0
 40
1.0
 10
152.3504249816
 20
134.2511094614
 30
0.0
 10
152.3598632695
 20
134.2565600864
 30
0.0
 10
152.3786850085
 20
134.2654798979
 30
0.0
 10
152.4075905169
 20
134.2725284533
 30
0.0
 10
152.434746096
 20
134.2718355134
 30
0.0
 10
152.4510865698
 20
134.2659245461
 30
0.0
 10
152.4581945566
 20
134.2618272537
 30
0.0
  0
SPLINE
  5
60B
100
AcDbEntity
  8
7_ALL_ROUNDS
100
AcDbSpline
 62
7
  6
CONTINUOUS
 70
0
 71
3
 72
11
 73
7
 74
0
 42
0.0000001
 43
0.0000001
 44
0.0000000001
 40
0.0
 40
0.0
 40
0.0
 40
0.0
 40
0.2891519
 40
0.5490505554
 40
0.7823438862
 40
1.0
 40
1.0
 40
1.0
 40
1.0
 10
180.8206977486
 20
117.8094853096
 30
0.0
 10
180.8301380108
 20
117.8149370749
 30
0.0
 10
180.8489636486
 20
117.8238583662
 30
0.0
 10
180.8778752415
 20
117.8309062526
 30
0.0
 10
180.9050358558
 20
117.8302089203
 30
0.0
 10
180.9213779099
 20
117.8242925525
 30
0.0
 10
180.92848601
 20
117.8201923268
 30
0.0
  0
SPLINE
  5
60C
100
AcDbEntity
  8
7_ALL_ROUNDS
100
AcDbSpline
 62
7
  6
CONTINUOUS
 70
0
 71
3
 72
11
 73
7
 74
0
 42
0.0000001
 43
0.0000001
 44
0.0000000001
 40
0.0
 40
0.0
 40
0.0
 40
0.0
 40
0.2372474782
 40
0.5000612425
 40
0.7628471739
 40
1.0
 40
1.0
 40
1.0
 40
1.0
 10
180.8206977486
 20
117.8094853096
 30
0.0
 10
180.842340377
 20
117.7969866601
 30
0.0
 10
180.8833003864
 20
117.7625095768
 30
0.0
 10
180.9311068845
 20
117.6971767546
 30
0.0
 10
180.9637766103
 20
117.6231163284
 30
0.0
 10
180.9731473757
 20
117.5704172344
 30
0.0
 10
180.9731473757
 20
117.5454348144
 30
0.0
  0
SPLINE
  5
60D
100
AcDbEntity
  8
7_ALL_ROUNDS
100
AcDbSpline
 62
7
  6
CONTINUOUS
 70
0
 71
3
 72
11
 73
7
 74
0
 42
0.0000001
 43
0.0000001
 44
0.0000000001
 40
0.0
 40
0.0
 40
0.0
 40
0.0
 40
0.289706006
 40
0.5490585141
 40
0.782281658
 40
1.0
 40
1.0
 40
1.0
 40
1.0
 10
134.2089193523
 20
110.4704628529
 30
0.0
 10
134.2089193523
 20
110.4595433004
 30
0.0
 10
134.2105772306
 20
110.4387789004
 30
0.0
 10
134.2189786432
 20
110.4102408317
 30
0.0
 10
134.2331468641
 20
110.38709384
 30
0.0
 10
134.246443345
 20
110.3759069992
 30
0.0
 10
134.2535496443
 20
110.3718030607
 30
0.0
  0
SPLINE
  5
60E
100
AcDbEntity
  8
7_ALL_ROUNDS
100
AcDbSpline
 62
7
  6
CONTINUOUS
 70
0
 71
3
 72
9
 73
5
 74
0
 42
0.0000001
 43
0.0000001
 44
0.0000000001
 40
0.0
 40
0.0
 40
0.0
 40
0.0
 40
0.5255832069
 40
1.0
 40
1.0
 40
1.0
 40
1.0
 10
134.2535708143
 20
123.147659583
 30
0.0
 10
134.2397298274
 20
123.1236862908
 30
0.0
 10
134.2182806839
 20
123.0750891683
 30
0.0
 10
134.2089193523
 20
123.0224020872
 30
0.0
 10
134.2089193523
 20
122.9974150006
 30
0.0
  0
SPLINE
  5
60F
100
AcDbEntity
  8
7_ALL_ROUNDS
100
AcDbSpline
 62
7
  6
CONTINUOUS
 70
0
 71
3
 72
9
 73
5
 74
0
 42
0.0000001
 43
0.0000001
 44
0.0000000001
 40
0.0
 40
0.0
 40
0.0
 40
0.0
 40
0.4744419594
 40
1.0
 40
1.0
 40
1.0
 40
1.0
 10
134.881864564
 20
124.162990278
 30
0.0
 10
134.8602232324
 20
124.1504923773
 30
0.0
 10
134.81927328
 20
124.1160369892
 30
0.0
 10
134.7879080974
 20
124.0731588898
 30
0.0
 10
134.7740663989
 20
124.0491843651
 30
0.0
  0
SPLINE
  5
610
100
AcDbEntity
  8
7_ALL_ROUNDS
100
AcDbSpline
 62
7
  6
CONTINUOUS
 70
0
 71
3
 72
9
 73
5
 74
0
 42
0.0000001
 43
0.0000001
 44
0.0000000001
 40
0.0
 40
0.0
 40
0.0
 40
0.0
 40
0.4744167925
 40
1.0
 40
1.0
 40
1.0
 40
1.0
 10
162.6791921193
 20
106.5557908489
 30
0.0
 10
162.6791921193
 20
106.5807779354
 30
0.0
 10
162.6885534509
 20
106.6334650166
 30
0.0
 10
162.7100025944
 20
106.682062139
 30
0.0
 10
162.7238435813
 20
106.7060354313
 30
0.0
  0
SPLINE
  5
611
100
AcDbEntity
  8
0
100
AcDbSpline
 62
7
  6
CONTINUOUS
 70
0
 71
3
 72
19
 73
15
 74
0
 42
0.0000001
 43
0.0000001
 44
0.0000000001
 40
0.0
 40
0.0
 40
0.0
 40
0.0
 40
0.1382585612
 40
0.2913894097
 40
0.4445509335
 40
0.5828088222
 40
0.6432745348
 40
0.6973561594
 40
0.7460006122
 40
0.7914298352
 40
0.8368366232
 40
0.8854717433
 40
0.93964055
 40
1.0
 40
1.0
 40
1.0
 40
1.0
 10
178.0363577586
 20
114.8813761465
 30
0.0
 10
178.0363577581
 20
114.83799381
 30
0.0
 10
178.0200880107
 20
114.7465011361
 30
0.0
 10
177.9633641143
 20
114.6179441779
 30
0.0
 10
177.8803414931
 20
114.5045277493
 30
0.0
 10
177.794612034
 20
114.4322928023
 30
0.0
 10
177.7226285802
 20
114.3979371794
 30
0.0
 10
177.6723992811
 20
114.3858307795
 30
0.0
 10
177.6252607923
 20
114.3870045458
 30
0.0
 10
177.583309971
 20
114.4022221809
 30
0.0
 10
177.549145426
 20
114.4309185522
 30
0.0
 10
177.5245047194
 20
114.4711545671
 30
0.0
 10
177.5099644759
 20
114.520708136
 30
0.0
 10
177.5070526531
 20
114.5567622743
 30
0.0
 10
177.5070526531
 20
114.5757016727
 30
0.0
  0
SPLINE
  5
612
100
AcDbEntity
  8
7_ALL_ROUNDS
100
AcDbSpline
 62
7
  6
CONTINUOUS
 70
0
 71
3
 72
9
 73
5
 74
0
 42
0.0000001
 43
0.0000001
 44
0.0000000001
 40
0.0
 40
0.0
 40
0.0
 40
0.0
 40
0.2631093005
 40
1.0
 40
1.0
 40
1.0
 40
1.0
 10
163.0176302916
 20
107.840762864
 30
0.0
 10
163.0218709604
 20
107.8450663443
 30
0.0
 10
163.0384547748
 20
107.8609433007
 30
0.0
 10
163.0569767446
 20
107.8748972239
 30
0.0
 10
163.0716300171
 20
107.8833595102
 30
0.0
  0
SPLINE
  5
613
100
AcDbEntity
  8
7_ALL_ROUNDS
100
AcDbSpline
 62
7
  6
CONTINUOUS
 70
0
 71
3
 72
9
 73
5
 74
0
 42
0.0000001
 43
0.0000001
 44
0.0000000001
 40
0.0
 40
0.0
 40
0.0
 40
0.0
 40
0.5255580399
 40
1.0
 40
1.0
 40
1.0
 40
1.0
 10
163.2443391659
 20
107.6075602133
 30
0.0
 10
163.2581808644
 20
107.6315347381
 30
0.0
 10
163.2895460469
 20
107.6744128375
 30
0.0
 10
163.3304959993
 20
107.7088682256
 30
0.0
 10
163.352137331
 20
107.7213661262
 30
0.0
  0
SPLINE
  5
614
100
AcDbEntity
  8
7_ALL_ROUNDS
100
AcDbSpline
 62
7
  6
CONTINUOUS
 70
0
 71
3
 72
11
 73
7
 74
0
 42
0.0000001
 43
0.0000001
 44
0.0000000001
 40
0.0
 40
0.0
 40
0.0
 40
0.0
 40
0.2891312382
 40
0.5490094365
 40
0.7823074561
 40
1.0
 40
1.0
 40
1.0
 40
1.0
 10
180.9731473757
 20
117.5454348144
 30
0.0
 10
180.9825893927
 20
117.550887593
 30
0.0
 10
180.9997286627
 20
117.5627367816
 30
0.0
 10
181.0202844307
 20
117.5842637413
 30
0.0
 10
181.0332526598
 20
117.6081474612
 30
0.0
 10
181.0362940789
 20
117.6252653026
 30
0.0
 10
181.0362940789
 20
117.6334746969
 30
0.0
  0
SPLINE
  5
615
100
AcDbEntity
  8
0
100
AcDbSpline
 62
7
  6
CONTINUOUS
 70
0
 71
3
 72
19
 73
15
 74
0
 42
0.0000001
 43
0.0000001
 44
0.0000000001
 40
0.0
 40
0.0
 40
0.0
 40
0.0
 40
0.1382585612
 40
0.2913894097
 40
0.4445509335
 40
0.5828088222
 40
0.6432745348
 40
0.6973561594
 40
0.7460006122
 40
0.7914298352
 40
0.8368366232
 40
0.8854717433
 40
0.93964055
 40
1.0
 40
1.0
 40
1.0
 40
1.0
 10
166.7550853504
 20
108.3664248356
 30
0.0
 10
166.75508535
 20
108.323042499
 30
0.0
 10
166.7388156026
 20
108.2315498252
 30
0.0
 10
166.6820917062
 20
108.102992867
 30
0.0
 10
166.599069085
 20
107.9895764383
 30
0.0
 10
166.5133396259
 20
107.9173414913
 30
0.0
 10
166.4413561721
 20
107.8829858684
 30
0.0
 10
166.391126873
 20
107.8708794686
 30
0.0
 10
166.3439883842
 20
107.8720532348
 30
0.0
 10
166.3020375629
 20
107.88727087
 30
0.0
 10
166.2678730179
 20
107.9159672412
 30
0.0
 10
166.2432323113
 20
107.9562032561
 30
0.0
 10
166.2286920678
 20
108.005756825
 30
0.0
 10
166.225780245
 20
108.0418109634
 30
0.0
 10
166.225780245
 20
108.0607503618
 30
0.0
  0
SPLINE
  5
616
100
AcDbEntity
  8
7_ALL_ROUNDS
100
AcDbSpline
 62
7
  6
CONTINUOUS
 70
0
 71
3
 72
11
 73
7
 74
0
 42
0.0000001
 43
0.0000001
 44
0.0000000001
 40
0.0
 40
0.0
 40
0.0
 40
0.0
 40
0.2895591662
 40
0.5491378314
 40
0.7822710094
 40
1.0
 40
1.0
 40
1.0
 40
1.0
 10
175.1721341639
 20
104.0747309729
 30
0.0
 10
175.1464115178
 20
104.0598761072
 30
0.0
 10
175.0951998903
 20
104.0355362494
 30
0.0
 10
175.0165164687
 20
104.0164810697
 30
0.0
 10
174.9426511074
 20
104.0183279362
 30
0.0
 10
174.8982204077
 20
104.0345107194
 30
0.0
 10
174.8788787186
 20
104.0456805924
 30
0.0
  0
SPLINE
  5
617
100
AcDbEntity
  8
7_ALL_ROUNDS
100
AcDbSpline
 62
7
  6
CONTINUOUS
 70
0
 71
3
 72
11
 73
7
 74
0
 42
0.0000001
 43
0.0000001
 44
0.0000000001
 40
0.0
 40
0.0
 40
0.0
 40
0.0
 40
0.2372271621
 40
0.4999751797
 40
0.762736697
 40
1.0
 40
1.0
 40
1.0
 40
1.0
 10
178.9955708125
 20
106.7615200945
 30
0.0
 10
178.9955708125
 20
106.6935468136
 30
0.0
 10
178.9700828556
 20
106.5501912262
 30
0.0
 10
178.8811785238
 20
106.3487744049
 30
0.0
 10
178.7511913247
 20
106.1710650176
 30
0.0
 10
178.6397795283
 20
106.0773012412
 30
0.0
 10
178.5809078267
 20
106.0433027474
 30
0.0
  0
SPLINE
  5
618
100
AcDbEntity
  8
7_ALL_ROUNDS
100
AcDbSpline
 62
7
  6
CONTINUOUS
 70
0
 71
3
 72
11
 73
7
 74
0
 42
0.0000001
 43
0.0000001
 44
0.0000000001
 40
0.0
 40
0.0
 40
0.0
 40
0.0
 40
0.2895591662
 40
0.5491378314
 40
0.7822710094
 40
1.0
 40
1.0
 40
1.0
 40
1.0
 10
165.3763309226
 20
98.4176402778
 30
0.0
 10
165.3506082765
 20
98.402785412
 30
0.0
 10
165.299396649
 20
98.3784455543
 30
0.0
 10
165.2207132275
 20
98.3593903746
 30
0.0
 10
165.1468478661
 20
98.3612372411
 30
0.0
 10
165.1024171664
 20
98.3774200243
 30
0.0
 10
165.0830754773
 20
98.3885898973
 30
0.0
  0
SPLINE
  5
619
100
AcDbEntity
  8
7_ALL_ROUNDS
100
AcDbSpline
 62
7
  6
CONTINUOUS
 70
0
 71
3
 72
11
 73
7
 74
0
 42
0.0000001
 43
0.0000001
 44
0.0000000001
 40
0.0
 40
0.0
 40
0.0
 40
0.0
 40
0.2372271621
 40
0.4999751797
 40
0.762736697
 40
1.0
 40
1.0
 40
1.0
 40
1.0
 10
169.1997675712
 20
101.1044293994
 30
0.0
 10
169.1997675712
 20
101.0364561185
 30
0.0
 10
169.1742796143
 20
100.8931005311
 30
0.0
 10
169.0853752825
 20
100.6916837098
 30
0.0
 10
168.9553880834
 20
100.5139743224
 30
0.0
 10
168.843976287
 20
100.420210546
 30
0.0
 10
168.7851045854
 20
100.3862120523
 30
0.0
  0
ENDSEC
  0
SECTION
  2
OBJECTS
  0
DICTIONARY
  5
C
100
AcDbDictionary
280
0
281
1
  3
ACAD_GROUP
350
D
  3
ACAD_MLINESTYLE
350
17
  3
ACAD_LAYOUT
350
1A
  3
ACAD_PLOTSETTINGS
350
19
  3
ACAD_PLOTSTYLENAME
350
E
  0
DICTIONARY
  5
D
102
{ACAD_REACTORS
330
C
102
}
100
AcDbDictionary
280
0
281
1
  0
ACDBDICTIONARYWDFLT
  5
E
102
{ACAD_REACTORS
330
C
102
}
100
AcDbDictionary
281
1
  3
Normal
350
F
100
AcDbDictionaryWithDefault
340
F
  0
DICTIONARY
  5
17
102
{ACAD_REACTORS
330
C
102
}
100
AcDbDictionary
280
0
281
1
  3
Standard
350
18
  0
DICTIONARY
  5
19
102
{ACAD_REACTORS
330
C
102
}
100
AcDbDictionary
281
1
  0
DICTIONARY
  5
1A
102
{ACAD_REACTORS
330
C
102
}
100
AcDbDictionary
281
1
  3
Model
350
61A
  3
Layout1
350
61B
  0
ACDBPLACEHOLDER
  5
F
102
{ACAD_REACTORS
330
E
102
}
  0
MLINESTYLE
  5
18
102
{ACAD_REACTORS
330
17
102
}
100
AcDbMlineStyle
  2
STANDARD
 70
0
  3

 62
256
 51
90.0
 52
90.0
 71
2
 49
0.5
 62
256
  6
BYLAYER
 49
-0.5
 62
256
  6
BYLAYER
  0
LAYOUT
  5
61A
102
{ACAD_REACTORS
330
1A
102
}
100
AcDbPlotSettings
  1

  2
none_device
  4
ANSI_C_(22.00_x_17.00_Inches)
  6

 40
0.0
 41
0.0
 42
0.0
 43
0.0
 44
558.8
 45
431.8
 46
0.0
 47
0.0
 48
0.0
 49
0.0
140
0.0
141
0.0
142
1.0
143
1.0
 70
1024
 72
0
 73
0
 74
0
  7

 75
0
147
1.0
148
0.0
149
0.0
100
AcDbLayout
  1
Model
 70
0
 71
0
 10
0.0
 20
0.0
 11
22.0
 21
17.0
 12
0.0
 22
0.0
 32
0.0
 14
0.0
 24
0.0
 34
0.0
 15
0.0
 25
0.0
 35
0.0
146
0.0
 13
0.0
 23
0.0
 33
0.0
 16
1.0
 26
0.0
 36
0.0
 17
0.0
 27
1.0
 37
0.0
 76
0
330
211
345
0
346
0
  0
LAYOUT
  5
61B
102
{ACAD_REACTORS
330
1A
102
}
100
AcDbPlotSettings
  1

  2
none_device
  4
ANSI_C_(22.00_x_17.00_Inches)
  6

 40
0.0
 41
0.0
 42
0.0
 43
0.0
 44
558.8
 45
431.8
 46
0.0
 47
0.0
 48
0.0
 49
0.0
140
0.0
141
0.0
142
1.0
143
1.0
 70
0
 72
0
 73
0
 74
0
  7

 75
0
147
1.0
148
0.0
149
0.0
100
AcDbLayout
  1
Layout1
 70
0
 71
1
 10
0.0
 20
0.0
 11
22.0
 21
17.0
 12
0.0
 22
0.0
 32
0.0
 14
0.0
 24
0.0
 34
0.0
 15
0.0
 25
0.0
 35
0.0
146
0.0
 13
0.0
 23
0.0
 33
0.0
 16
1.0
 26
0.0
 36
0.0
 17
0.0
 27
1.0
 37
0.0
 76
0
330
212
345
0
346
0
  0
ENDSEC
  0
EOF
