999
DXF file: fg-008200-2d-B.dxf
999
Pro/ENGINEER 2016130 by Parametric Technology Corporation
  0
SECTION
  2
HEADER
  9
$ACADVER
  1
AC1015
  9
$DWGCODEPAGE
  3
ANSI_1252
  9
$EXTMAX
 10
102.0
 20
66.0
 30
0.0
  9
$EXTMIN
 10
0.0
 20
0.0
 30
0.0
  9
$LIMMIN
 10
0.0
 20
0.0
  9
$LIMMAX
 10
102.0
 20
66.0
  9
$VIEWCTR
 10
51.0
 20
33.0
  9
$VIEWSIZE
 40
66.0
  9
$CLAYER
  8
0
  9
$LTSCALE
 40
5.61
  9
$CELTYPE
  6
BYLAYER
  9
$DIMSCALE
 40
1.0
  9
$DIMASZ
 40
0.5625
  9
$DIMEXO
 40
0.0625
  9
$DIMDLI
 40
3.876
  9
$DIMEXE
 40
0.125
  9
$DIMCEN
 40
0.918
  9
$DIMLFAC
 40
1.0
  9
$DIMBLK
  1
_FILLED
  9
$DIMALT
 70
0
  9
$DIMALTF
 40
25.4
  9
$DIMTXT
 40
0.46875
  9
$DIMTOL
 70
1
  9
$DIMLIM
 70
0
  9
$DIMTFAC
 40
1.0
  9
$DIMTP
 40
0.01
  9
$DIMTM
 40
0.01
  9
$DIMGAP
 40
0.09
  9
$DIMDSEP
 70
46
  9
$AUNITS
 70
0
  9
$PDMODE
 70
3
  9
$PDSIZE
 40
0.3125
  9
$HANDSEED
  5
5BE
  9
$TILEMODE
 70
1
  9
$MEASUREMENT
 70
0
  9
$INSUNITS
 70
1
  0
ENDSEC
  0
SECTION
  2
CLASSES
  0
CLASS
  1
ACDBDICTIONARYWDFLT
  2
AcDbDictionaryWithDefault
  3
AutoCAD 2000
 90
0
280
0
281
0
  0
CLASS
  1
ACDBPLACEHOLDER
  2
AcDbPlaceHolder
  3
AutoCAD 2000
 90
0
280
0
281
0
  0
CLASS
  1
LAYOUT
  2
AcDbLayout
  3
AutoCAD 2000
 90
0
280
0
281
0
  0
ENDSEC
  0
SECTION
  2
TABLES
  0
TABLE
  2
VPORT
  5
8
100
AcDbSymbolTable
 70
2
  0
VPORT
  5
1F4
100
AcDbSymbolTableRecord
100
AcDbViewportTableRecord
  2
*ACTIVE
 70
0
 10
0.0
 20
0.0
 11
1.0
 21
1.0
 12
51.0
 22
33.0
 13
0.0
 23
0.0
 14
1.0
 24
1.0
 15
0.0
 25
0.0
 16
0.0
 26
0.0
 36
1.0
 17
0.0
 27
0.0
 37
0.0
 40
66.0
 41
1.5454545455
 42
50.0
 43
0.0
 44
0.0
 50
0.0
 51
0.0
 71
0
 72
100
 73
1
 74
1
 75
0
 76
0
 77
0
 78
0
  0
ENDTAB
  0
TABLE
  2
LTYPE
  5
5
100
AcDbSymbolTable
 70
6
  0
LTYPE
  5
14
100
AcDbSymbolTableRecord
100
AcDbLinetypeTableRecord
  2
BYBLOCK
 70
0
  3

 72
65
 73
0
 40
0.0
  0
LTYPE
  5
15
100
AcDbSymbolTableRecord
100
AcDbLinetypeTableRecord
  2
BYLAYER
 70
0
  3

 72
65
 73
0
 40
0.0
  0
LTYPE
  5
16
100
AcDbSymbolTableRecord
100
AcDbLinetypeTableRecord
  2
CONTINUOUS
 70
64
  3
Solid line
 72
65
 73
0
 40
0.0
  0
LTYPE
  5
1F5
100
AcDbSymbolTableRecord
100
AcDbLinetypeTableRecord
  2
CENTER
 70
64
  3
____ _ ____ _ ____ _ ____ _ ____ _ ____ _ ____
 72
65
 73
4
 40
0.6
 49
0.375
 74
0
 49
-0.075
 74
0
 49
0.075
 74
0
 49
-0.075
 74
0
  0
LTYPE
  5
1F6
100
AcDbSymbolTableRecord
100
AcDbLinetypeTableRecord
  2
HIDDEN
 70
64
  3
- - - - - - - - - - - - - - - - - - - -
 72
65
 73
2
 40
0.2
 49
0.1
 74
0
 49
-0.1
 74
0
  0
LTYPE
  5
1F7
100
AcDbSymbolTableRecord
100
AcDbLinetypeTableRecord
  2
PHANTOM
 70
64
  3
_____ _ _ _____ _ _ _____ _ _ _____
 72
65
 73
6
 40
0.8
 49
0.45
 74
0
 49
-0.05
 74
0
 49
0.1
 74
0
 49
-0.05
 74
0
 49
0.1
 74
0
 49
-0.05
 74
0
  0
LTYPE
  5
1F8
100
AcDbSymbolTableRecord
100
AcDbLinetypeTableRecord
  2
DOT
 70
64
  3
. . . . . . . . . . . . . . . . . . . .
 72
65
 73
2
 40
0.2
 49
0.1
 74
0
 49
-0.1
 74
0
  0
LTYPE
  5
1F9
100
AcDbSymbolTableRecord
100
AcDbLinetypeTableRecord
  2
DASHED
 70
64
  3
- - - - - - - - - - - - - - - - - - - -
 72
65
 73
2
 40
0.2
 49
0.1
 74
0
 49
-0.1
 74
0
  0
ENDTAB
  0
TABLE
  2
LAYER
  5
2
100
AcDbSymbolTable
 70
36
  0
LAYER
  5
10
100
AcDbSymbolTableRecord
100
AcDbLayerTableRecord
  2
0
 70
0
 62
7
  6
CONTINUOUS
370
-3
390
F
  0
LAYER
  5
1FA
100
AcDbSymbolTableRecord
100
AcDbLayerTableRecord
  2
DEFAULT_1
 70
0
 62
7
  6
CENTER
370
-3
390
F
  0
LAYER
  5
1FB
100
AcDbSymbolTableRecord
100
AcDbLayerTableRecord
  2
DEFAULT_2
 70
0
 62
8
  6
HIDDEN
370
-3
390
F
  0
LAYER
  5
1FC
100
AcDbSymbolTableRecord
100
AcDbLayerTableRecord
  2
DEFAULT_3
 70
0
 62
7
  6
PHANTOM
370
-3
390
F
  0
LAYER
  5
1FD
100
AcDbSymbolTableRecord
100
AcDbLayerTableRecord
  2
1_ALL_PLANES
 70
0
 62
7
  6
CONTINUOUS
370
-3
390
F
  0
LAYER
  5
1FE
100
AcDbSymbolTableRecord
100
AcDbLayerTableRecord
  2
1__DEF_PLANES
 70
0
 62
7
  6
CONTINUOUS
370
-3
390
F
  0
LAYER
  5
1FF
100
AcDbSymbolTableRecord
100
AcDbLayerTableRecord
  2
2_ALL_CSYS
 70
0
 62
7
  6
CONTINUOUS
370
-3
390
F
  0
LAYER
  5
200
100
AcDbSymbolTableRecord
100
AcDbLayerTableRecord
  2
2__DEF_CSYS
 70
0
 62
7
  6
CONTINUOUS
370
-3
390
F
  0
LAYER
  5
201
100
AcDbSymbolTableRecord
100
AcDbLayerTableRecord
  2
3_ALL_AXES
 70
0
 62
7
  6
CONTINUOUS
370
-3
390
F
  0
LAYER
  5
202
100
AcDbSymbolTableRecord
100
AcDbLayerTableRecord
  2
3_AXES_OTHER
 70
0
 62
7
  6
CONTINUOUS
370
-3
390
F
  0
LAYER
  5
203
100
AcDbSymbolTableRecord
100
AcDbLayerTableRecord
  2
3_HOLES
 70
0
 62
7
  6
CONTINUOUS
370
-3
390
F
  0
LAYER
  5
204
100
AcDbSymbolTableRecord
100
AcDbLayerTableRecord
  2
4_ALL_POINTS
 70
0
 62
7
  6
CONTINUOUS
370
-3
390
F
  0
LAYER
  5
205
100
AcDbSymbolTableRecord
100
AcDbLayerTableRecord
  2
5_ALL_CURVES
 70
0
 62
7
  6
CONTINUOUS
370
-3
390
F
  0
LAYER
  5
206
100
AcDbSymbolTableRecord
100
AcDbLayerTableRecord
  2
6_ALL_SURFS
 70
0
 62
7
  6
CONTINUOUS
370
-3
390
F
  0
LAYER
  5
207
100
AcDbSymbolTableRecord
100
AcDbLayerTableRecord
  2
6_COPYGEOM
 70
0
 62
7
  6
CONTINUOUS
370
-3
390
F
  0
LAYER
  5
208
100
AcDbSymbolTableRecord
100
AcDbLayerTableRecord
  2
7_ALL_ROUNDS
 70
0
 62
7
  6
CONTINUOUS
370
-3
390
F
  0
LAYER
  5
209
100
AcDbSymbolTableRecord
100
AcDbLayerTableRecord
  2
7_MERGES
 70
0
 62
7
  6
CONTINUOUS
370
-3
390
F
  0
LAYER
  5
20A
100
AcDbSymbolTableRecord
100
AcDbLayerTableRecord
  2
8_GDT
 70
0
 62
7
  6
CONTINUOUS
370
-3
390
F
  0
LAYER
  5
20B
100
AcDbSymbolTableRecord
100
AcDbLayerTableRecord
  2
8_SET_DATUMS
 70
0
 62
7
  6
CONTINUOUS
370
-3
390
F
  0
LAYER
  5
20C
100
AcDbSymbolTableRecord
100
AcDbLayerTableRecord
  2
9_COSMETICS
 70
0
 62
7
  6
CONTINUOUS
370
-3
390
F
  0
LAYER
  5
20D
100
AcDbSymbolTableRecord
100
AcDbLayerTableRecord
  2
9_THREADS
 70
0
 62
7
  6
CONTINUOUS
370
-3
390
F
  0
ENDTAB
  0
TABLE
  2
STYLE
  5
3
100
AcDbSymbolTable
 70
1
  0
STYLE
  5
11
100
AcDbSymbolTableRecord
100
AcDbTextStyleTableRecord
  2
STANDARD
 70
0
 40
0.0
 41
0.8
 50
0.0
 71
0
 42
0.2
  3
txt
  4

  0
STYLE
  5
20E
100
AcDbSymbolTableRecord
100
AcDbTextStyleTableRecord
  2
TEXTSTYLE_1
 70
0
 40
0.0
 41
0.8
 50
0.0
 71
0
 42
0.2
  3
gdt
  4

  0
ENDTAB
  0
TABLE
  2
VIEW
  5
6
100
AcDbSymbolTable
 70
0
  0
ENDTAB
  0
TABLE
  2
UCS
  5
7
100
AcDbSymbolTable
 70
0
  0
ENDTAB
  0
TABLE
  2
APPID
  5
9
100
AcDbSymbolTable
 70
1
  0
APPID
  5
20F
100
AcDbSymbolTableRecord
100
AcDbRegAppTableRecord
  2
ACAD
 70
0
  0
ENDTAB
  0
TABLE
  2
BLOCK_RECORD
  5
1
100
AcDbSymbolTable
 70
0
  0
BLOCK_RECORD
  5
210
100
AcDbSymbolTableRecord
100
AcDbBlockTableRecord
  2
*Model_Space
  0
BLOCK_RECORD
  5
211
100
AcDbSymbolTableRecord
100
AcDbBlockTableRecord
  2
*Paper_Space
  0
BLOCK_RECORD
  5
212
100
AcDbSymbolTableRecord
100
AcDbBlockTableRecord
  2
_FILLED
  0
BLOCK_RECORD
  5
213
100
AcDbSymbolTableRecord
100
AcDbBlockTableRecord
  2
*D0
  0
BLOCK_RECORD
  5
214
100
AcDbSymbolTableRecord
100
AcDbBlockTableRecord
  2
*D1
  0
BLOCK_RECORD
  5
215
100
AcDbSymbolTableRecord
100
AcDbBlockTableRecord
  2
*D2
  0
BLOCK_RECORD
  5
216
100
AcDbSymbolTableRecord
100
AcDbBlockTableRecord
  2
*D3
  0
BLOCK_RECORD
  5
217
100
AcDbSymbolTableRecord
100
AcDbBlockTableRecord
  2
*D4
  0
BLOCK_RECORD
  5
218
100
AcDbSymbolTableRecord
100
AcDbBlockTableRecord
  2
*D5
  0
BLOCK_RECORD
  5
219
100
AcDbSymbolTableRecord
100
AcDbBlockTableRecord
  2
*D6
  0
BLOCK_RECORD
  5
21A
100
AcDbSymbolTableRecord
100
AcDbBlockTableRecord
  2
*D7
  0
BLOCK_RECORD
  5
21B
100
AcDbSymbolTableRecord
100
AcDbBlockTableRecord
  2
*D8
  0
BLOCK_RECORD
  5
21C
100
AcDbSymbolTableRecord
100
AcDbBlockTableRecord
  2
*D9
  0
BLOCK_RECORD
  5
21D
100
AcDbSymbolTableRecord
100
AcDbBlockTableRecord
  2
*D10
  0
BLOCK_RECORD
  5
21E
100
AcDbSymbolTableRecord
100
AcDbBlockTableRecord
  2
*D11
  0
BLOCK_RECORD
  5
21F
100
AcDbSymbolTableRecord
100
AcDbBlockTableRecord
  2
*D12
  0
BLOCK_RECORD
  5
220
100
AcDbSymbolTableRecord
100
AcDbBlockTableRecord
  2
*D13
  0
BLOCK_RECORD
  5
221
100
AcDbSymbolTableRecord
100
AcDbBlockTableRecord
  2
*D14
  0
BLOCK_RECORD
  5
222
100
AcDbSymbolTableRecord
100
AcDbBlockTableRecord
  2
*D15
  0
BLOCK_RECORD
  5
223
100
AcDbSymbolTableRecord
100
AcDbBlockTableRecord
  2
*D16
  0
BLOCK_RECORD
  5
224
100
AcDbSymbolTableRecord
100
AcDbBlockTableRecord
  2
*D17
  0
BLOCK_RECORD
  5
225
100
AcDbSymbolTableRecord
100
AcDbBlockTableRecord
  2
*D18
  0
BLOCK_RECORD
  5
226
100
AcDbSymbolTableRecord
100
AcDbBlockTableRecord
  2
CG_3D_BL3
  0
BLOCK_RECORD
  5
227
100
AcDbSymbolTableRecord
100
AcDbBlockTableRecord
  2
CG_3D_BL2
  0
BLOCK_RECORD
  5
228
100
AcDbSymbolTableRecord
100
AcDbBlockTableRecord
  2
CG_3D_BL1
  0
BLOCK_RECORD
  5
229
100
AcDbSymbolTableRecord
100
AcDbBlockTableRecord
  2
RD010411_BL0
  0
ENDTAB
  0
TABLE
  2
DIMSTYLE
  5
A
100
AcDbSymbolTable
 70
1
100
AcDbDimStyleTable
 71
0
  0
DIMSTYLE
105
22A
100
AcDbSymbolTableRecord
100
AcDbDimStyleTableRecord
  2
STANDARD
 70
0
  3

  4

 40
1.0
 41
0.5625
 42
0.0625
 43
0.38
 44
0.125
 45
0.0
 46
0.0
 47
0.01
 48
0.01
140
0.46875
141
0.09
142
0.0
143
25.4
144
1.0
145
0.0
146
1.0
147
0.09
 71
1.0
 72
0.0
 73
1
 74
1
 75
0
 76
0
 77
0
 78
4
170
0
171
2
172
0
173
0
174
0
175
0
176
0
177
0
178
0
270
2
271
3
272
3
273
2
274
2
275
0
280
0
281
0
282
0
283
1
284
4
285
0
286
0
287
3
288
0
340
11
278
46
341
212
342
212
343
212
344
212
  0
DIMSTYLE
105
22B
100
AcDbSymbolTableRecord
100
AcDbDimStyleTableRecord
  2
DIMSTYLE_1
 70
0
  3

  4

 40
1.0
 41
0.5625
 42
0.0625
 43
0.38
 44
0.125
 45
0.0
 46
0.0
 47
0.01
 48
0.01
140
0.46875
141
0.09
142
0.0
143
25.4
144
1.0
145
0.0
146
1.0
147
0.078125
 71
0.0
 72
0.0
 73
1
 74
1
 75
0
 76
0
 77
0
 78
4
170
0
171
2
172
0
173
0
174
0
175
0
176
0
177
0
178
0
270
2
271
0
272
0
273
2
274
2
275
0
280
0
281
0
282
0
283
1
284
4
285
0
286
0
287
3
288
0
340
11
278
46
341
212
342
212
343
212
344
212
  0
DIMSTYLE
105
22C
100
AcDbSymbolTableRecord
100
AcDbDimStyleTableRecord
  2
DIMSTYLE_2
 70
0
  3

  4

 40
1.0
 41
0.5625
 42
0.0625
 43
0.38
 44
0.125
 45
0.0
 46
0.0
 47
0.01
 48
0.01
140
0.46875
141
0.09
142
0.0
143
25.4
144
1.0
145
0.0
146
1.0
147
0.078125
 71
0.0
 72
0.0
 73
1
 74
1
 75
0
 76
0
 77
0
 78
4
170
0
171
2
172
0
173
0
174
0
175
0
176
0
177
0
178
0
270
2
271
2
272
2
273
2
274
2
275
0
280
0
281
0
282
0
283
1
284
4
285
0
286
0
287
3
288
0
340
11
278
46
341
212
342
212
343
212
344
212
  0
DIMSTYLE
105
22D
100
AcDbSymbolTableRecord
100
AcDbDimStyleTableRecord
  2
DIMSTYLE_3
 70
0
  3

  4

 40
1.0
 41
0.5625
 42
0.0625
 43
0.38
 44
0.125
 45
0.0
 46
0.0
 47
0.01
 48
0.01
140
0.46875
141
0.09
142
0.0
143
25.4
144
1.0
145
0.0
146
1.0
147
0.078125
 71
0.0
 72
0.0
 73
1
 74
1
 75
0
 76
0
 77
0
 78
4
170
0
171
2
172
0
173
0
174
0
175
0
176
0
177
0
178
0
270
2
271
3
272
3
273
2
274
2
275
0
280
0
281
0
282
0
283
1
284
4
285
0
286
0
287
3
288
0
340
11
278
46
341
212
342
212
343
212
344
212
  0
ENDTAB
  0
ENDSEC
  0
SECTION
  2
BLOCKS
  0
BLOCK
  5
20
100
AcDbEntity
  8
0
100
AcDbBlockBegin
  2
*Model_Space
 70
0
 10
0.0
 20
0.0
 30
0.0
  3
*Model_Space
  1

  0
ENDBLK
  5
21
100
AcDbEntity
  8
0
100
AcDbBlockEnd
  0
BLOCK
  5
1C
100
AcDbEntity
  8
0
100
AcDbBlockBegin
  2
*Paper_Space
 70
0
 10
0.0
 20
0.0
 30
0.0
  3
*Paper_Space
  1

  0
ENDBLK
  5
1D
100
AcDbEntity
  8
0
100
AcDbBlockEnd
  0
BLOCK
  5
22E
100
AcDbEntity
  8
0
100
AcDbBlockBegin
 62
2
  6
CONTINUOUS
  2
CG_3D_BL3
 70
64
 10
49.4228218194
 20
27.6587708618
  3
CG_3D_BL3
  1

  0
ARC
  5
22F
100
AcDbEntity
  8
0
100
AcDbCircle
 62
7
  6
CONTINUOUS
 10
49.4228218194
 20
27.6587708618
 40
0.5625
100
AcDbArc
 50
90.0
 51
180.0
  0
ARC
  5
230
100
AcDbEntity
  8
0
100
AcDbCircle
 62
7
  6
CONTINUOUS
 10
49.4228218194
 20
27.6587708618
 40
0.5625
100
AcDbArc
 50
180.0
 51
270.0
  0
ARC
  5
231
100
AcDbEntity
  8
0
100
AcDbCircle
 62
7
  6
CONTINUOUS
 10
49.4228218194
 20
27.6587708618
 40
0.5625
100
AcDbArc
 50
270.0
 51
360.0
  0
ARC
  5
232
100
AcDbEntity
  8
0
100
AcDbCircle
 62
7
  6
CONTINUOUS
 10
49.4228218194
 20
27.6587708618
 40
0.5625
100
AcDbArc
 50
0.0
 51
90.0
  0
LINE
  5
233
100
AcDbEntity
  8
0
100
AcDbLine
 62
7
  6
CONTINUOUS
 10
49.4228218194
 20
27.6587708618
 11
49.9853218194
 21
27.6587708618
  0
LINE
  5
234
100
AcDbEntity
  8
0
100
AcDbLine
 62
7
  6
CONTINUOUS
 10
49.4228218194
 20
27.6587708618
 11
49.4228218194
 21
27.0962708618
  0
LINE
  5
235
100
AcDbEntity
  8
0
100
AcDbLine
 62
7
  6
CONTINUOUS
 10
48.8603218194
 20
27.6587708618
 11
49.4228218194
 21
27.6587708618
  0
LINE
  5
236
100
AcDbEntity
  8
0
100
AcDbLine
 62
7
  6
CONTINUOUS
 10
49.4228218194
 20
28.2212708618
 11
49.4228218194
 21
27.6587708618
  0
LINE
  5
237
100
AcDbEntity
  8
0
100
AcDbLine
 62
2
  6
CONTINUOUS
 10
49.4228218194
 20
27.6550636159
 11
49.4265290653
 21
27.6587708618
  0
LWPOLYLINE
  5
238
100
AcDbEntity
  8
0
100
AcDbPolyline
 62
7
  6
CONTINUOUS
 90
8
 70
0
 10
49.4228218194
 20
27.6587708618
 10
49.4228218194
 20
27.0962708618
 10
49.5966438787
 20
27.1238015713
 10
49.7534510238
 20
27.2036988024
 10
49.8778938787
 20
27.3281416573
 10
49.9577911098
 20
27.4849488024
 10
49.9853218194
 20
27.6587708618
 10
49.4228218194
 20
27.6587708618
  0
HATCH
  5
239
100
AcDbEntity
  8
0
100
AcDbHatch
 62
7
  6
CONTINUOUS
 10
0.0
 20
0.0
 30
0.0
210
0.0
220
0.0
230
1.0
  2
SOLID
 70
1
 71
1
 91
1
 92
1
 93
7
 72
1
 10
49.4228218194
 20
27.6587708618
 11
49.4228218194
 21
27.0962708618
 72
1
 10
49.4228218194
 20
27.0962708618
 11
49.5966438787
 21
27.1238015713
 72
1
 10
49.5966438787
 20
27.1238015713
 11
49.7534510238
 21
27.2036988024
 72
1
 10
49.7534510238
 20
27.2036988024
 11
49.8778938787
 21
27.3281416573
 72
1
 10
49.8778938787
 20
27.3281416573
 11
49.9577911098
 21
27.4849488024
 72
1
 10
49.9577911098
 20
27.4849488024
 11
49.9853218194
 21
27.6587708618
 72
1
 10
49.9853218194
 20
27.6587708618
 11
49.4228218194
 21
27.6587708618
 97
1
330
238
 75
0
 76
1
 98
1
 10
0.0
 20
0.0
  0
LWPOLYLINE
  5
23A
100
AcDbEntity
  8
0
100
AcDbPolyline
 62
7
  6
CONTINUOUS
 90
8
 70
0
 10
49.4228218194
 20
27.6587708618
 10
48.8603218194
 20
27.6587708618
 10
48.887852529
 20
27.8325929211
 10
48.96774976
 20
27.9894000662
 10
49.092192615
 20
28.1138429211
 10
49.24899976
 20
28.1937401522
 10
49.4228218194
 20
28.2212708618
 10
49.4228218194
 20
27.6587708618
  0
HATCH
  5
23B
100
AcDbEntity
  8
0
100
AcDbHatch
 62
7
  6
CONTINUOUS
 10
0.0
 20
0.0
 30
0.0
210
0.0
220
0.0
230
1.0
  2
SOLID
 70
1
 71
1
 91
1
 92
1
 93
7
 72
1
 10
49.4228218194
 20
27.6587708618
 11
48.8603218194
 21
27.6587708618
 72
1
 10
48.8603218194
 20
27.6587708618
 11
48.887852529
 21
27.8325929211
 72
1
 10
48.887852529
 20
27.8325929211
 11
48.96774976
 21
27.9894000662
 72
1
 10
48.96774976
 20
27.9894000662
 11
49.092192615
 21
28.1138429211
 72
1
 10
49.092192615
 20
28.1138429211
 11
49.24899976
 21
28.1937401522
 72
1
 10
49.24899976
 20
28.1937401522
 11
49.4228218194
 21
28.2212708618
 72
1
 10
49.4228218194
 20
28.2212708618
 11
49.4228218194
 21
27.6587708618
 97
1
330
23A
 75
0
 76
1
 98
1
 10
0.0
 20
0.0
  0
ENDBLK
  5
23C
100
AcDbEntity
  8
0
  6
BYBLOCK
 62
0
100
AcDbBlockEnd
  0
BLOCK
  5
23D
100
AcDbEntity
  8
0
100
AcDbBlockBegin
 62
2
  6
CONTINUOUS
  2
CG_3D_BL2
 70
64
 10
20.1352829292
 20
27.6564177222
  3
CG_3D_BL2
  1

  0
ARC
  5
23E
100
AcDbEntity
  8
0
100
AcDbCircle
 62
7
  6
CONTINUOUS
 10
20.1352829292
 20
27.6564177222
 40
0.5625
100
AcDbArc
 50
90.0
 51
180.0
  0
ARC
  5
23F
100
AcDbEntity
  8
0
100
AcDbCircle
 62
7
  6
CONTINUOUS
 10
20.1352829292
 20
27.6564177222
 40
0.5625
100
AcDbArc
 50
180.0
 51
270.0
  0
ARC
  5
240
100
AcDbEntity
  8
0
100
AcDbCircle
 62
7
  6
CONTINUOUS
 10
20.1352829292
 20
27.6564177222
 40
0.5625
100
AcDbArc
 50
270.0
 51
360.0
  0
ARC
  5
241
100
AcDbEntity
  8
0
100
AcDbCircle
 62
7
  6
CONTINUOUS
 10
20.1352829292
 20
27.6564177222
 40
0.5625
100
AcDbArc
 50
0.0
 51
90.0
  0
LINE
  5
242
100
AcDbEntity
  8
0
100
AcDbLine
 62
7
  6
CONTINUOUS
 10
20.1352829292
 20
27.6564177222
 11
20.6977829292
 21
27.6564177222
  0
LINE
  5
243
100
AcDbEntity
  8
0
100
AcDbLine
 62
7
  6
CONTINUOUS
 10
20.1352829292
 20
27.6564177222
 11
20.1352829292
 21
27.0939177222
  0
LINE
  5
244
100
AcDbEntity
  8
0
100
AcDbLine
 62
7
  6
CONTINUOUS
 10
19.5727829292
 20
27.6564177222
 11
20.1352829292
 21
27.6564177222
  0
LINE
  5
245
100
AcDbEntity
  8
0
100
AcDbLine
 62
7
  6
CONTINUOUS
 10
20.1352829292
 20
28.2189177222
 11
20.1352829292
 21
27.6564177222
  0
LINE
  5
246
100
AcDbEntity
  8
0
100
AcDbLine
 62
2
  6
CONTINUOUS
 10
20.1352829292
 20
27.6527104763
 11
20.138990175
 21
27.6564177222
  0
LWPOLYLINE
  5
247
100
AcDbEntity
  8
0
100
AcDbPolyline
 62
7
  6
CONTINUOUS
 90
8
 70
0
 10
20.1352829292
 20
27.6564177222
 10
20.1352829292
 20
27.0939177222
 10
20.3091049885
 20
27.1214484318
 10
20.4659121336
 20
27.2013456628
 10
20.5903549885
 20
27.3257885178
 10
20.6702522196
 20
27.4825956628
 10
20.6977829292
 20
27.6564177222
 10
20.1352829292
 20
27.6564177222
  0
HATCH
  5
248
100
AcDbEntity
  8
0
100
AcDbHatch
 62
7
  6
CONTINUOUS
 10
0.0
 20
0.0
 30
0.0
210
0.0
220
0.0
230
1.0
  2
SOLID
 70
1
 71
1
 91
1
 92
1
 93
7
 72
1
 10
20.1352829292
 20
27.6564177222
 11
20.1352829292
 21
27.0939177222
 72
1
 10
20.1352829292
 20
27.0939177222
 11
20.3091049885
 21
27.1214484318
 72
1
 10
20.3091049885
 20
27.1214484318
 11
20.4659121336
 21
27.2013456628
 72
1
 10
20.4659121336
 20
27.2013456628
 11
20.5903549885
 21
27.3257885178
 72
1
 10
20.5903549885
 20
27.3257885178
 11
20.6702522196
 21
27.4825956628
 72
1
 10
20.6702522196
 20
27.4825956628
 11
20.6977829292
 21
27.6564177222
 72
1
 10
20.6977829292
 20
27.6564177222
 11
20.1352829292
 21
27.6564177222
 97
1
330
247
 75
0
 76
1
 98
1
 10
0.0
 20
0.0
  0
LWPOLYLINE
  5
249
100
AcDbEntity
  8
0
100
AcDbPolyline
 62
7
  6
CONTINUOUS
 90
8
 70
0
 10
20.1352829292
 20
27.6564177222
 10
19.5727829292
 20
27.6564177222
 10
19.6003136387
 20
27.8302397815
 10
19.6802108698
 20
27.9870469266
 10
19.8046537247
 20
28.1114897815
 10
19.9614608698
 20
28.1913870126
 10
20.1352829292
 20
28.2189177222
 10
20.1352829292
 20
27.6564177222
  0
HATCH
  5
24A
100
AcDbEntity
  8
0
100
AcDbHatch
 62
7
  6
CONTINUOUS
 10
0.0
 20
0.0
 30
0.0
210
0.0
220
0.0
230
1.0
  2
SOLID
 70
1
 71
1
 91
1
 92
1
 93
7
 72
1
 10
20.1352829292
 20
27.6564177222
 11
19.5727829292
 21
27.6564177222
 72
1
 10
19.5727829292
 20
27.6564177222
 11
19.6003136387
 21
27.8302397815
 72
1
 10
19.6003136387
 20
27.8302397815
 11
19.6802108698
 21
27.9870469266
 72
1
 10
19.6802108698
 20
27.9870469266
 11
19.8046537247
 21
28.1114897815
 72
1
 10
19.8046537247
 20
28.1114897815
 11
19.9614608698
 21
28.1913870126
 72
1
 10
19.9614608698
 20
28.1913870126
 11
20.1352829292
 21
28.2189177222
 72
1
 10
20.1352829292
 20
28.2189177222
 11
20.1352829292
 21
27.6564177222
 97
1
330
249
 75
0
 76
1
 98
1
 10
0.0
 20
0.0
  0
ENDBLK
  5
24B
100
AcDbEntity
  8
0
  6
BYBLOCK
 62
0
100
AcDbBlockEnd
  0
BLOCK
  5
24C
100
AcDbEntity
  8
0
100
AcDbBlockBegin
 62
2
  6
CONTINUOUS
  2
CG_3D_BL1
 70
64
 10
6.9975450281
 20
6.2323746141
  3
CG_3D_BL1
  1

  0
ARC
  5
24D
100
AcDbEntity
  8
0
100
AcDbCircle
 62
7
  6
CONTINUOUS
 10
6.9975450281
 20
6.2323746141
 40
0.375
100
AcDbArc
 50
90.0
 51
180.0
  0
ARC
  5
24E
100
AcDbEntity
  8
0
100
AcDbCircle
 62
7
  6
CONTINUOUS
 10
6.9975450281
 20
6.2323746141
 40
0.375
100
AcDbArc
 50
180.0
 51
270.0
  0
ARC
  5
24F
100
AcDbEntity
  8
0
100
AcDbCircle
 62
7
  6
CONTINUOUS
 10
6.9975450281
 20
6.2323746141
 40
0.375
100
AcDbArc
 50
270.0
 51
360.0
  0
ARC
  5
250
100
AcDbEntity
  8
0
100
AcDbCircle
 62
7
  6
CONTINUOUS
 10
6.9975450281
 20
6.2323746141
 40
0.375
100
AcDbArc
 50
0.0
 51
90.0
  0
LINE
  5
251
100
AcDbEntity
  8
0
100
AcDbLine
 62
7
  6
CONTINUOUS
 10
6.9975450281
 20
6.2323746141
 11
7.3725450281
 21
6.2323746141
  0
LINE
  5
252
100
AcDbEntity
  8
0
100
AcDbLine
 62
7
  6
CONTINUOUS
 10
6.9975450281
 20
6.2323746141
 11
6.9975450281
 21
5.8573746141
  0
LINE
  5
253
100
AcDbEntity
  8
0
100
AcDbLine
 62
7
  6
CONTINUOUS
 10
6.6225450281
 20
6.2323746141
 11
6.9975450281
 21
6.2323746141
  0
LINE
  5
254
100
AcDbEntity
  8
0
100
AcDbLine
 62
7
  6
CONTINUOUS
 10
6.9975450281
 20
6.6073746141
 11
6.9975450281
 21
6.2323746141
  0
LINE
  5
255
100
AcDbEntity
  8
0
100
AcDbLine
 62
2
  6
CONTINUOUS
 10
6.9975450281
 20
6.2299031169
 11
7.0000165254
 21
6.2323746141
  0
LWPOLYLINE
  5
256
100
AcDbEntity
  8
0
100
AcDbPolyline
 62
7
  6
CONTINUOUS
 90
8
 70
0
 10
6.9975450281
 20
6.2323746141
 10
6.9975450281
 20
5.8573746141
 10
7.113426401
 20
5.8757284205
 10
7.2179644977
 20
5.9289932412
 10
7.300926401
 20
6.0119551445
 10
7.3541912217
 20
6.1164932412
 10
7.3725450281
 20
6.2323746141
 10
6.9975450281
 20
6.2323746141
  0
HATCH
  5
257
100
AcDbEntity
  8
0
100
AcDbHatch
 62
7
  6
CONTINUOUS
 10
0.0
 20
0.0
 30
0.0
210
0.0
220
0.0
230
1.0
  2
SOLID
 70
1
 71
1
 91
1
 92
1
 93
7
 72
1
 10
6.9975450281
 20
6.2323746141
 11
6.9975450281
 21
5.8573746141
 72
1
 10
6.9975450281
 20
5.8573746141
 11
7.113426401
 21
5.8757284205
 72
1
 10
7.113426401
 20
5.8757284205
 11
7.2179644977
 21
5.9289932412
 72
1
 10
7.2179644977
 20
5.9289932412
 11
7.300926401
 21
6.0119551445
 72
1
 10
7.300926401
 20
6.0119551445
 11
7.3541912217
 21
6.1164932412
 72
1
 10
7.3541912217
 20
6.1164932412
 11
7.3725450281
 21
6.2323746141
 72
1
 10
7.3725450281
 20
6.2323746141
 11
6.9975450281
 21
6.2323746141
 97
1
330
256
 75
0
 76
1
 98
1
 10
0.0
 20
0.0
  0
LWPOLYLINE
  5
258
100
AcDbEntity
  8
0
100
AcDbPolyline
 62
7
  6
CONTINUOUS
 90
8
 70
0
 10
6.9975450281
 20
6.2323746141
 10
6.6225450281
 20
6.2323746141
 10
6.6408988345
 20
6.348255987
 10
6.6941636552
 20
6.4527940837
 10
6.7771255585
 20
6.535755987
 10
6.8816636552
 20
6.5890208077
 10
6.9975450281
 20
6.6073746141
 10
6.9975450281
 20
6.2323746141
  0
HATCH
  5
259
100
AcDbEntity
  8
0
100
AcDbHatch
 62
7
  6
CONTINUOUS
 10
0.0
 20
0.0
 30
0.0
210
0.0
220
0.0
230
1.0
  2
SOLID
 70
1
 71
1
 91
1
 92
1
 93
7
 72
1
 10
6.9975450281
 20
6.2323746141
 11
6.6225450281
 21
6.2323746141
 72
1
 10
6.6225450281
 20
6.2323746141
 11
6.6408988345
 21
6.348255987
 72
1
 10
6.6408988345
 20
6.348255987
 11
6.6941636552
 21
6.4527940837
 72
1
 10
6.6941636552
 20
6.4527940837
 11
6.7771255585
 21
6.535755987
 72
1
 10
6.7771255585
 20
6.535755987
 11
6.8816636552
 21
6.5890208077
 72
1
 10
6.8816636552
 20
6.5890208077
 11
6.9975450281
 21
6.6073746141
 72
1
 10
6.9975450281
 20
6.6073746141
 11
6.9975450281
 21
6.2323746141
 97
1
330
258
 75
0
 76
1
 98
1
 10
0.0
 20
0.0
  0
ENDBLK
  5
25A
100
AcDbEntity
  8
0
  6
BYBLOCK
 62
0
100
AcDbBlockEnd
  0
BLOCK
  5
25B
100
AcDbEntity
  8
0
100
AcDbBlockBegin
 62
7
  6
CONTINUOUS
  2
RD010411_BL0
 70
64
 10
86.6664608964
 20
8.1033319955
  3
RD010411_BL0
  1

  0
ARC
  5
25C
100
AcDbEntity
  8
0
100
AcDbCircle
 62
7
  6
CONTINUOUS
 10
88.6229456053
 20
8.4044628681
 40
0.0371145398
100
AcDbArc
 50
270.0
 51
360.0
  0
LINE
  5
25D
100
AcDbEntity
  8
0
100
AcDbLine
 62
7
  6
CONTINUOUS
 10
88.6600601452
 20
8.4044628681
 11
88.6600601452
 21
8.4787174557
  0
ARC
  5
25E
100
AcDbEntity
  8
0
100
AcDbCircle
 62
7
  6
CONTINUOUS
 10
88.6229456053
 20
8.4787174557
 40
0.0371145398
100
AcDbArc
 50
0.0
 51
90.0
  0
LINE
  5
25F
100
AcDbEntity
  8
0
100
AcDbLine
 62
7
  6
CONTINUOUS
 10
88.6229456053
 20
8.5158319955
 11
87.6251656087
 21
8.5158319955
  0
SPLINE
  5
260
100
AcDbEntity
  8
0
100
AcDbSpline
 62
7
  6
CONTINUOUS
 70
0
 71
3
 72
13
 73
9
 74
0
 42
0.0000001
 43
0.0000001
 44
0.0000000001
 40
0.0
 40
0.0
 40
0.0
 40
0.0
 40
0.1310616762
 40
0.2699656353
 40
0.4157607805
 40
0.5899807757
 40
0.76586761
 40
0.9948829976
 40
0.9948829976
 40
0.9948829976
 40
0.9948829976
 10
87.6251656087
 20
8.5158319955
 30
0.0
 10
87.6041913651
 20
8.51426982
 30
0.0
 10
87.5609878516
 20
8.511051994
 30
0.0
 10
87.5024384871
 20
8.4747714704
 30
0.0
 10
87.4604070302
 20
8.4138630058
 30
0.0
 10
87.4330760053
 20
8.339385361
 30
0.0
 10
87.4176815034
 20
8.2483427176
 30
0.0
 10
87.416264086
 20
8.1840103871
 30
0.0
 10
87.4155294716
 20
8.1476188139
 30
0.0
  0
LINE
  5
261
100
AcDbEntity
  8
0
100
AcDbLine
 62
7
  6
CONTINUOUS
 10
87.4155294716
 20
8.1476188139
 11
87.4155946117
 21
8.1419715272
  0
SPLINE
  5
262
100
AcDbEntity
  8
0
100
AcDbSpline
 62
7
  6
CONTINUOUS
 70
0
 71
3
 72
13
 73
9
 74
0
 42
0.0000001
 43
0.0000001
 44
0.0000000001
 40
0.0
 40
0.0
 40
0.0
 40
0.0
 40
0.2222860645
 40
0.3981728988
 40
0.572392894
 40
0.7181880393
 40
0.8570919984
 40
0.9881536746
 40
0.9881536746
 40
0.9881536746
 40
0.9881536746
 10
87.4155946117
 20
8.1419715272
 30
0.0
 10
87.4163147479
 20
8.1066497413
 30
0.0
 10
87.4178600689
 20
8.0433983415
 30
0.0
 10
87.4330759927
 20
7.9534110472
 30
0.0
 10
87.4604073448
 20
7.878941732
 30
0.0
 10
87.5024374907
 20
7.818007418
 30
0.0
 10
87.5609913238
 20
7.7818136203
 30
0.0
 10
87.6041843042
 20
7.7783915826
 30
0.0
 10
87.6251656087
 20
7.7768288818
 30
0.0
  0
LINE
  5
263
100
AcDbEntity
  8
0
100
AcDbLine
 62
7
  6
CONTINUOUS
 10
87.6251656087
 20
7.7768288818
 11
88.6230266115
 21
7.7790068149
  0
ARC
  5
264
100
AcDbEntity
  8
0
100
AcDbCircle
 62
7
  6
CONTINUOUS
 10
88.6229456053
 20
7.8161212662
 40
0.0371145397
100
AcDbArc
 50
270.125053868
 51
360.0
  0
LINE
  5
265
100
AcDbEntity
  8
0
100
AcDbLine
 62
7
  6
CONTINUOUS
 10
88.6600601452
 20
7.8161212662
 11
88.6600601452
 21
7.887476804
  0
ARC
  5
266
100
AcDbEntity
  8
0
100
AcDbCircle
 62
7
  6
CONTINUOUS
 10
88.6229456053
 20
7.887476804
 40
0.0371145398
100
AcDbArc
 50
0.0
 51
90.0
  0
LINE
  5
267
100
AcDbEntity
  8
0
100
AcDbLine
 62
7
  6
CONTINUOUS
 10
88.6229456053
 20
7.9245913438
 11
87.7677117757
 21
7.9245913438
  0
LINE
  5
268
100
AcDbEntity
  8
0
100
AcDbLine
 62
7
  6
CONTINUOUS
 10
87.7305972359
 20
7.9617058836
 11
87.7305972359
 21
8.3302337885
  0
ARC
  5
269
100
AcDbEntity
  8
0
100
AcDbCircle
 62
7
  6
CONTINUOUS
 10
87.7677117761
 20
8.3302337885
 40
0.0371145398
100
AcDbArc
 50
90.0
 51
180.0
  0
LINE
  5
26A
100
AcDbEntity
  8
0
100
AcDbLine
 62
7
  6
CONTINUOUS
 10
87.7677117757
 20
8.3673483283
 11
88.6229456053
 21
8.3673483283
  0
LINE
  5
26B
100
AcDbEntity
  8
0
100
AcDbLine
 62
7
  6
CONTINUOUS
 10
86.242753899
 20
8.0713893017
 11
86.9555897017
 21
8.0713893017
  0
ARC
  5
26C
100
AcDbEntity
  8
0
100
AcDbCircle
 62
7
  6
CONTINUOUS
 10
86.9555897016
 20
8.034274762
 40
0.0371145398
100
AcDbArc
 50
0.0
 51
90.0
  0
LINE
  5
26D
100
AcDbEntity
  8
0
100
AcDbLine
 62
7
  6
CONTINUOUS
 10
86.9927042415
 20
8.0342747619
 11
86.9927042415
 21
7.9584907053
  0
LINE
  5
26E
100
AcDbEntity
  8
0
100
AcDbLine
 62
7
  6
CONTINUOUS
 10
86.9555897017
 20
7.9213761655
 11
86.1246492821
 21
7.9213761655
  0
ARC
  5
26F
100
AcDbEntity
  8
0
100
AcDbCircle
 62
7
  6
CONTINUOUS
 10
86.1246492821
 20
7.8842616257
 40
0.0371145398
100
AcDbArc
 50
90.0
 51
180.0
  0
LINE
  5
270
100
AcDbEntity
  8
0
100
AcDbLine
 62
7
  6
CONTINUOUS
 10
86.0875347422
 20
7.8842616257
 11
86.0875347422
 21
7.813943047
  0
ARC
  5
271
100
AcDbEntity
  8
0
100
AcDbCircle
 62
7
  6
CONTINUOUS
 10
86.1246492821
 20
7.813943047
 40
0.0371145398
100
AcDbArc
 50
180.0
 51
270.0
  0
LINE
  5
272
100
AcDbEntity
  8
0
100
AcDbLine
 62
7
  6
CONTINUOUS
 10
86.1246492821
 20
7.7768285072
 11
87.1562194332
 21
7.7768285072
  0
SPLINE
  5
273
100
AcDbEntity
  8
0
100
AcDbSpline
 62
7
  6
CONTINUOUS
 70
0
 71
3
 72
13
 73
9
 74
0
 42
0.0000001
 43
0.0000001
 44
0.0000000001
 40
0.0
 40
0.0
 40
0.0
 40
0.0
 40
0.1604571392
 40
0.3334692485
 40
0.4767982758
 40
0.6242014838
 40
0.7505998515
 40
1.0
 40
1.0
 40
1.0
 40
1.0
 10
87.1562194332
 20
7.7768285072
 30
0.0
 10
87.1736118347
 20
7.7776659203
 30
0.0
 10
87.2097575058
 20
7.779406269
 30
0.0
 10
87.2583631947
 20
7.8005086302
 30
0.0
 10
87.2949891827
 20
7.8359799381
 30
0.0
 10
87.3156293674
 20
7.8766464221
 30
0.0
 10
87.3314538892
 20
7.9312009272
 30
0.0
 10
87.332096049
 20
7.9720269307
 30
0.0
 10
87.3325222204
 20
7.9991212665
 30
0.0
  0
SPLINE
  5
274
100
AcDbEntity
  8
0
100
AcDbSpline
 62
7
  6
CONTINUOUS
 70
0
 71
3
 72
13
 73
9
 74
0
 42
0.0000001
 43
0.0000001
 44
0.0000000001
 40
0.0
 40
0.0
 40
0.0
 40
0.0
 40
0.2494001485
 40
0.3757985162
 40
0.5232017242
 40
0.6665307515
 40
0.8395428608
 40
1.0
 40
1.0
 40
1.0
 40
1.0
 10
87.3325222204
 20
7.9991212665
 30
0.0
 10
87.332096049
 20
8.0262156028
 30
0.0
 10
87.3314538892
 20
8.0670416058
 30
0.0
 10
87.3156293674
 20
8.1215961114
 30
0.0
 10
87.2949891827
 20
8.1622625954
 30
0.0
 10
87.2583631947
 20
8.1977339027
 30
0.0
 10
87.2097575058
 20
8.2188362639
 30
0.0
 10
87.1736118347
 20
8.2205766132
 30
0.0
 10
87.1562194332
 20
8.2214140257
 30
0.0
  0
LINE
  5
275
100
AcDbEntity
  8
0
100
AcDbLine
 62
7
  6
CONTINUOUS
 10
87.1562194332
 20
8.2214140257
 11
86.45288526
 21
8.2214140257
  0
LINE
  5
276
100
AcDbEntity
  8
0
100
AcDbLine
 62
7
  6
CONTINUOUS
 10
86.4157707201
 20
8.2585285655
 11
86.4157707201
 21
8.3287529983
  0
ARC
  5
277
100
AcDbEntity
  8
0
100
AcDbCircle
 62
7
  6
CONTINUOUS
 10
86.4528852596
 20
8.3287529983
 40
0.0371145398
100
AcDbArc
 50
90.0
 51
180.0
  0
LINE
  5
278
100
AcDbEntity
  8
0
100
AcDbLine
 62
7
  6
CONTINUOUS
 10
86.45288526
 20
8.3658675381
 11
87.284953559
 21
8.3658675381
  0
ARC
  5
279
100
AcDbEntity
  8
0
100
AcDbCircle
 62
7
  6
CONTINUOUS
 10
87.284953559
 20
8.4029820779
 40
0.0371145398
100
AcDbArc
 50
270.0
 51
360.0
  0
LINE
  5
27A
100
AcDbEntity
  8
0
100
AcDbLine
 62
7
  6
CONTINUOUS
 10
87.3220680989
 20
8.4029820779
 11
87.3220680989
 21
8.4787174557
  0
ARC
  5
27B
100
AcDbEntity
  8
0
100
AcDbCircle
 62
7
  6
CONTINUOUS
 10
87.284953559
 20
8.4787174557
 40
0.0371145398
100
AcDbArc
 50
0.0
 51
90.0
  0
LINE
  5
27C
100
AcDbEntity
  8
0
100
AcDbLine
 62
7
  6
CONTINUOUS
 10
87.284953559
 20
8.5158319955
 11
86.242753899
 21
8.5158319955
  0
SPLINE
  5
27D
100
AcDbEntity
  8
0
100
AcDbSpline
 62
7
  6
CONTINUOUS
 70
0
 71
3
 72
13
 73
9
 74
0
 42
0.0000001
 43
0.0000001
 44
0.0000000001
 40
0.0
 40
0.0
 40
0.0
 40
0.0
 40
0.1133740464
 40
0.2392044088
 40
0.3655787964
 40
0.4912154373
 40
0.7445390876
 40
1.0
 40
1.0
 40
1.0
 40
1.0
 10
86.242753899
 20
8.5158319955
 30
0.0
 10
86.2308480206
 20
8.5152455755
 30
0.0
 10
86.2057281749
 20
8.5140083052
 30
0.0
 10
86.1684151288
 20
8.5028602817
 30
0.0
 10
86.1350349729
 20
8.4803489504
 30
0.0
 10
86.100936846
 20
8.4388822191
 30
0.0
 10
86.0794801414
 20
8.3737849682
 30
0.0
 10
86.0771531585
 20
8.3204101597
 30
0.0
 10
86.0759847803
 20
8.2936106486
 30
0.0
  0
SPLINE
  5
27E
100
AcDbEntity
  8
0
100
AcDbSpline
 62
7
  6
CONTINUOUS
 70
0
 71
3
 72
13
 73
9
 74
0
 42
0.0000001
 43
0.0000001
 44
0.0000000001
 40
0.0
 40
0.0
 40
0.0
 40
0.0
 40
0.2554609124
 40
0.5087845627
 40
0.6344212036
 40
0.7607955912
 40
0.8866259536
 40
1.0
 40
1.0
 40
1.0
 40
1.0
 10
86.0759847803
 20
8.2936106486
 30
0.0
 10
86.0771531585
 20
8.2668111376
 30
0.0
 10
86.0794801414
 20
8.2134363285
 30
0.0
 10
86.100936846
 20
8.1483390781
 30
0.0
 10
86.1350349729
 20
8.1068723469
 30
0.0
 10
86.1684151288
 20
8.0843610155
 30
0.0
 10
86.2057281749
 20
8.073212992
 30
0.0
 10
86.2308480206
 20
8.0719757217
 30
0.0
 10
86.242753899
 20
8.0713893017
 30
0.0
  0
LINE
  5
27F
100
AcDbEntity
  8
0
100
AcDbLine
 62
7
  6
CONTINUOUS
 10
84.8714124174
 20
7.7768285072
 11
85.448094908
 21
7.7768285072
  0
LINE
  5
280
100
AcDbEntity
  8
0
100
AcDbLine
 62
7
  6
CONTINUOUS
 10
85.448094908
 20
7.7768285072
 11
85.448094908
 21
7.7051068185
  0
ARC
  5
281
100
AcDbEntity
  8
0
100
AcDbCircle
 62
7
  6
CONTINUOUS
 10
85.462369731
 20
7.7051068185
 40
0.014274823
100
AcDbArc
 50
180.0
 51
270.0
  0
LINE
  5
282
100
AcDbEntity
  8
0
100
AcDbLine
 62
7
  6
CONTINUOUS
 10
85.462369731
 20
7.6908319955
 11
85.6846432438
 21
7.6908319955
  0
ARC
  5
283
100
AcDbEntity
  8
0
100
AcDbCircle
 62
7
  6
CONTINUOUS
 10
85.6846432438
 20
7.7051068185
 40
0.014274823
100
AcDbArc
 50
270.0
 51
360.0
  0
LINE
  5
284
100
AcDbEntity
  8
0
100
AcDbLine
 62
7
  6
CONTINUOUS
 10
85.6989180668
 20
7.7051068185
 11
85.6989180668
 21
7.7768285072
  0
LINE
  5
285
100
AcDbEntity
  8
0
100
AcDbLine
 62
7
  6
CONTINUOUS
 10
85.6989180668
 20
7.7768285072
 11
85.8123154279
 21
7.7768285072
  0
SPLINE
  5
286
100
AcDbEntity
  8
0
100
AcDbSpline
 62
7
  6
CONTINUOUS
 70
0
 71
3
 72
12
 73
8
 74
0
 42
0.0000001
 43
0.0000001
 44
0.0000000001
 40
0.0
 40
0.0
 40
0.0
 40
0.0
 40
0.2415790084
 40
0.4893269843
 40
0.7378634303
 40
0.8656387112
 40
1.0
 40
1.0
 40
1.0
 40
1.0
 10
85.8123154279
 20
7.7768285072
 30
0.0
 10
85.8326486919
 20
7.7774606455
 30
0.0
 10
85.8738344512
 20
7.7787410646
 30
0.0
 10
85.9341055124
 20
7.8002353279
 30
0.0
 10
85.9707093144
 20
7.8408108088
 30
0.0
 10
85.9868357344
 20
7.8813532201
 30
0.0
 10
85.9871263561
 20
7.9035622673
 30
0.0
 10
85.9872753179
 20
7.9149457842
 30
0.0
  0
LINE
  5
287
100
AcDbEntity
  8
0
100
AcDbLine
 62
7
  6
CONTINUOUS
 10
85.9872753179
 20
7.9149457842
 11
85.9872753179
 21
8.3768479558
  0
SPLINE
  5
288
100
AcDbEntity
  8
0
100
AcDbSpline
 62
7
  6
CONTINUOUS
 70
0
 71
3
 72
12
 73
8
 74
0
 42
0.0000001
 43
0.0000001
 44
0.0000000001
 40
0.0
 40
0.0
 40
0.0
 40
0.0
 40
0.1343612888
 40
0.2621365697
 40
0.5106730157
 40
0.7584209916
 40
1.0
 40
1.0
 40
1.0
 40
1.0
 10
85.9872753179
 20
8.3768479558
 30
0.0
 10
85.9871263561
 20
8.3882314734
 30
0.0
 10
85.9868357344
 20
8.4104405205
 30
0.0
 10
85.9707093144
 20
8.4509829318
 30
0.0
 10
85.9341055124
 20
8.4915584127
 30
0.0
 10
85.8738344512
 20
8.5130526755
 30
0.0
 10
85.8326486919
 20
8.5143330946
 30
0.0
 10
85.8123154279
 20
8.5149652328
 30
0.0
  0
LINE
  5
289
100
AcDbEntity
  8
0
100
AcDbLine
 62
7
  6
CONTINUOUS
 10
85.8123154279
 20
8.5149652328
 11
84.8714124174
 21
8.5149652328
  0
SPLINE
  5
28A
100
AcDbEntity
  8
0
100
AcDbSpline
 62
7
  6
CONTINUOUS
 70
0
 71
3
 72
12
 73
8
 74
0
 42
0.0000001
 43
0.0000001
 44
0.0000000001
 40
0.0
 40
0.0
 40
0.0
 40
0.0
 40
0.1341799809
 40
0.290831959
 40
0.5815217441
 40
0.760783857
 40
1.0
 40
1.0
 40
1.0
 40
1.0
 10
84.8714124174
 20
8.5149652328
 30
0.0
 10
84.8508896523
 20
8.5114576976
 30
0.0
 10
84.8064070409
 20
8.5038551963
 30
0.0
 10
84.7315277037
 20
8.4479130175
 30
0.0
 10
84.6960610495
 20
8.3537959193
 30
0.0
 10
84.6753098272
 20
8.2471055141
 30
0.0
 10
84.673752098
 20
8.1825742942
 30
0.0
 10
84.6728616477
 20
8.1456860943
 30
0.0
  0
SPLINE
  5
28B
100
AcDbEntity
  8
0
100
AcDbSpline
 62
7
  6
CONTINUOUS
 70
0
 71
3
 72
12
 73
8
 74
0
 42
0.0000001
 43
0.0000001
 44
0.0000000001
 40
0.0
 40
0.0
 40
0.0
 40
0.0
 40
0.2392679579
 40
0.4185688994
 40
0.7093216488
 40
0.8660075581
 40
1.0
 40
1.0
 40
1.0
 40
1.0
 10
84.6728616477
 20
8.1456860943
 30
0.0
 10
84.6737524537
 20
8.1087993321
 30
0.0
 10
84.6753108048
 20
8.0442706274
 30
0.0
 10
84.6960575493
 20
7.9375621172
 30
0.0
 10
84.7315458727
 20
7.8435326407
 30
0.0
 10
84.80634725
 20
7.7874088062
 30
0.0
 10
84.8508830076
 20
7.780166811
 30
0.0
 10
84.8714124174
 20
7.7768285072
 30
0.0
  0
LINE
  5
28C
100
AcDbEntity
  8
0
100
AcDbLine
 62
7
  6
CONTINUOUS
 10
85.7972134548
 20
7.9668673753
 11
85.7972134548
 21
8.3369563702
  0
ARC
  5
28D
100
AcDbEntity
  8
0
100
AcDbCircle
 62
7
  6
CONTINUOUS
 10
85.0185636441
 20
7.9668673753
 40
0.0371145398
100
AcDbArc
 50
180.0
 51
270.0
  0
LINE
  5
28E
100
AcDbEntity
  8
0
100
AcDbLine
 62
7
  6
CONTINUOUS
 10
85.0185636441
 20
7.9297528355
 11
85.4448483233
 21
7.9297528355
  0
LINE
  5
28F
100
AcDbEntity
  8
0
100
AcDbLine
 62
7
  6
CONTINUOUS
 10
85.4448483233
 20
7.9297528355
 11
85.4448483233
 21
8.0012522988
  0
ARC
  5
290
100
AcDbEntity
  8
0
100
AcDbCircle
 62
7
  6
CONTINUOUS
 10
85.4591231466
 20
8.0012522988
 40
0.014274823
100
AcDbArc
 50
90.0
 51
180.0
  0
LINE
  5
291
100
AcDbEntity
  8
0
100
AcDbLine
 62
7
  6
CONTINUOUS
 10
85.4591231463
 20
8.0155271218
 11
85.6802639034
 21
8.0155271218
  0
ARC
  5
292
100
AcDbEntity
  8
0
100
AcDbCircle
 62
7
  6
CONTINUOUS
 10
85.6802639029
 20
8.0012522994
 40
0.014274823
100
AcDbArc
 50
0.0
 51
90.0
  0
LINE
  5
293
100
AcDbEntity
  8
0
100
AcDbLine
 62
7
  6
CONTINUOUS
 10
85.6945387264
 20
7.9297528355
 11
85.760098915
 21
7.9297528355
  0
ARC
  5
294
100
AcDbEntity
  8
0
100
AcDbCircle
 62
7
  6
CONTINUOUS
 10
85.760098915
 20
7.9668673753
 40
0.0371145398
100
AcDbArc
 50
270.0
 51
360.0
  0
LINE
  5
295
100
AcDbEntity
  8
0
100
AcDbLine
 62
7
  6
CONTINUOUS
 10
85.6945387264
 20
7.9297528355
 11
85.6945387264
 21
8.0012522988
  0
LINE
  5
296
100
AcDbEntity
  8
0
100
AcDbLine
 62
7
  6
CONTINUOUS
 10
84.9814491043
 20
7.9668673753
 11
84.9814491043
 21
8.3369563702
  0
ARC
  5
297
100
AcDbEntity
  8
0
100
AcDbCircle
 62
7
  6
CONTINUOUS
 10
85.0185636446
 20
8.3369563702
 40
0.0371145398
100
AcDbArc
 50
90.0
 51
180.0
  0
LINE
  5
298
100
AcDbEntity
  8
0
100
AcDbLine
 62
7
  6
CONTINUOUS
 10
85.0185636441
 20
8.37407091
 11
85.760098915
 21
8.37407091
  0
ARC
  5
299
100
AcDbEntity
  8
0
100
AcDbCircle
 62
7
  6
CONTINUOUS
 10
85.7600989153
 20
8.3369563699
 40
0.0371145398
100
AcDbArc
 50
0.0000000277
 51
90.0000000277
  0
ARC
  5
29A
100
AcDbEntity
  8
0
100
AcDbCircle
 62
7
  6
CONTINUOUS
 10
86.45288526
 20
8.2585285655
 40
0.0371145398
100
AcDbArc
 50
180.0
 51
270.0
  0
ARC
  5
29B
100
AcDbEntity
  8
0
100
AcDbCircle
 62
7
  6
CONTINUOUS
 10
86.9555897017
 20
7.9584907053
 40
0.0371145398
100
AcDbArc
 50
270.0
 51
360.0
  0
ARC
  5
29C
100
AcDbEntity
  8
0
100
AcDbCircle
 62
7
  6
CONTINUOUS
 10
87.7677117757
 20
7.9617058836
 40
0.0371145398
100
AcDbArc
 50
180.0
 51
270.0
  0
ENDBLK
  5
29D
100
AcDbEntity
  8
0
  6
BYBLOCK
 62
0
100
AcDbBlockEnd
  0
BLOCK
  5
29E
100
AcDbEntity
  8
0
100
AcDbBlockBegin
  2
_FILLED
 70
64
 10
0.0
 20
0.0
  3
_FILLED
  1

  0
SOLID
  5
29F
100
AcDbEntity
  8
0
  6
BYBLOCK
 62
0
100
AcDbTrace
 10
0.0
 20
0.0
 11
-1.0
 21
0.1666666667
 12
-1.0
 22
-0.1666666667
 13
-1.0
 23
-0.1666666667
  0
ENDBLK
  5
2A0
100
AcDbEntity
  8
0
  6
BYBLOCK
 62
0
100
AcDbBlockEnd
  0
BLOCK
  5
2A1
100
AcDbEntity
  8
0
100
AcDbBlockBegin
 62
2
  6
CONTINUOUS
  2
*D0
 70
65
 10
0.0
 20
0.0
  3
*D0
  1

  0
MTEXT
  5
2A2
100
AcDbEntity
  8
0
100
AcDbMText
 62
2
  6
CONTINUOUS
  7
STANDARD
 71
3
 72
1
 10
17.8730759327
 20
57.3826094982
 30
0.0
 11
1.0
 21
0.0
 31
0.0
 44
0.9
  1
1.0\P[25]
 40
0.46875
 41
1.6573660714
  0
LINE
  5
2A3
100
AcDbEntity
  8
0
100
AcDbLine
 62
2
  6
CONTINUOUS
 10
19.1344078109
 20
55.7573040393
 11
19.1344078109
 21
57.5232344982
  0
LINE
  5
2A4
100
AcDbEntity
  8
0
100
AcDbLine
 62
2
  6
CONTINUOUS
 10
20.1344078109
 20
56.1476887403
 11
20.1344078109
 21
57.5232344982
  0
LINE
  5
2A5
100
AcDbEntity
  8
0
100
AcDbLine
 62
2
  6
CONTINUOUS
 10
19.1344078109
 20
57.1482344982
 11
18.3083437899
 21
57.1482344982
  0
LINE
  5
2A6
100
AcDbEntity
  8
0
100
AcDbLine
 62
2
  6
CONTINUOUS
 10
20.1344078109
 20
57.1482344982
 11
21.6344078109
 21
57.1482344982
  0
INSERT
  5
2A7
100
AcDbEntity
  8
0
100
AcDbBlockReference
 62
2
  6
CONTINUOUS
  2
_FILLED
 10
19.1344078109
 20
57.1482344982
 41
0.5625
 42
0.5625
 43
0.5625
  0
INSERT
  5
2A8
100
AcDbEntity
  8
0
100
AcDbBlockReference
 62
2
  6
CONTINUOUS
  2
_FILLED
 10
20.1344078109
 20
57.1482344982
 41
0.5625
 42
0.5625
 43
0.5625
 50
180.0
  0
ENDBLK
  5
2A9
100
AcDbEntity
  8
0
  6
BYBLOCK
 62
0
100
AcDbBlockEnd
  0
BLOCK
  5
2AA
100
AcDbEntity
  8
0
100
AcDbBlockBegin
 62
2
  6
CONTINUOUS
  2
*D1
 70
65
 10
0.0
 20
0.0
  3
*D1
  1

  0
MTEXT
  5
2AB
100
AcDbEntity
  8
0
100
AcDbMText
 62
2
  6
CONTINUOUS
  7
STANDARD
 71
2
 72
1
 10
20.1344078109
 20
58.8898271218
 30
0.0
 11
1.0
 21
0.0
 31
0.0
 44
0.9
  1
2.0\P[51]
 40
0.46875
 41
1.5066964286
  0
LINE
  5
2AC
100
AcDbEntity
  8
0
100
AcDbLine
 62
2
  6
CONTINUOUS
 10
19.1344078109
 20
55.7573040393
 11
19.1344078109
 21
59.0304521218
  0
LINE
  5
2AD
100
AcDbEntity
  8
0
100
AcDbLine
 62
2
  6
CONTINUOUS
 10
21.1344078109
 20
55.7573040393
 11
21.1344078109
 21
59.0304521218
  0
LINE
  5
2AE
100
AcDbEntity
  8
0
100
AcDbLine
 62
2
  6
CONTINUOUS
 10
19.1344078109
 20
58.6554521218
 11
17.6344078109
 21
58.6554521218
  0
LINE
  5
2AF
100
AcDbEntity
  8
0
100
AcDbLine
 62
2
  6
CONTINUOUS
 10
21.1344078109
 20
58.6554521218
 11
22.6344078109
 21
58.6554521218
  0
INSERT
  5
2B0
100
AcDbEntity
  8
0
100
AcDbBlockReference
 62
2
  6
CONTINUOUS
  2
_FILLED
 10
19.1344078109
 20
58.6554521218
 41
0.5625
 42
0.5625
 43
0.5625
  0
INSERT
  5
2B1
100
AcDbEntity
  8
0
100
AcDbBlockReference
 62
2
  6
CONTINUOUS
  2
_FILLED
 10
21.1344078109
 20
58.6554521218
 41
0.5625
 42
0.5625
 43
0.5625
 50
180.0
  0
ENDBLK
  5
2B2
100
AcDbEntity
  8
0
  6
BYBLOCK
 62
0
100
AcDbBlockEnd
  0
BLOCK
  5
2B3
100
AcDbEntity
  8
0
100
AcDbBlockBegin
 62
2
  6
CONTINUOUS
  2
*D2
 70
65
 10
0.0
 20
0.0
  3
*D2
  1

  0
MTEXT
  5
2B4
100
AcDbEntity
  8
0
100
AcDbMText
 62
2
  6
CONTINUOUS
  7
STANDARD
 71
2
 72
1
 10
20.2352341473
 20
60.7000319015
 30
0.0
 11
1.0
 21
0.0
 31
0.0
 44
0.9
  1
6.9\P[175]
 40
0.46875
 41
2.0591517857
  0
LINE
  5
2B5
100
AcDbEntity
  8
0
100
AcDbLine
 62
2
  6
CONTINUOUS
 10
16.6836204093
 20
54.9155717559
 11
16.6836204093
 21
60.8406569015
  0
LINE
  5
2B6
100
AcDbEntity
  8
0
100
AcDbLine
 62
2
  6
CONTINUOUS
 10
23.5851952125
 20
54.9155717559
 11
23.5851952125
 21
60.8406569015
  0
LINE
  5
2B7
100
AcDbEntity
  8
0
100
AcDbLine
 62
2
  6
CONTINUOUS
 10
16.6836204093
 20
60.4656569015
 11
19.4986270044
 21
60.4656569015
  0
LINE
  5
2B8
100
AcDbEntity
  8
0
100
AcDbLine
 62
2
  6
CONTINUOUS
 10
23.5851952125
 20
60.4656569015
 11
21.3401448616
 21
60.4656569015
  0
INSERT
  5
2B9
100
AcDbEntity
  8
0
100
AcDbBlockReference
 62
2
  6
CONTINUOUS
  2
_FILLED
 10
16.6836204093
 20
60.4656569015
 41
0.5625
 42
0.5625
 43
0.5625
 50
180.0
  0
INSERT
  5
2BA
100
AcDbEntity
  8
0
100
AcDbBlockReference
 62
2
  6
CONTINUOUS
  2
_FILLED
 10
23.5851952125
 20
60.4656569015
 41
0.5625
 42
0.5625
 43
0.5625
  0
ENDBLK
  5
2BB
100
AcDbEntity
  8
0
  6
BYBLOCK
 62
0
100
AcDbBlockEnd
  0
BLOCK
  5
2BC
100
AcDbEntity
  8
0
100
AcDbBlockBegin
 62
2
  6
CONTINUOUS
  2
*D3
 70
65
 10
0.0
 20
0.0
  3
*D3
  1

  0
MTEXT
  5
2BD
100
AcDbEntity
  8
0
100
AcDbMText
 62
2
  6
CONTINUOUS
  7
STANDARD
 71
3
 72
1
 10
9.4672291033
 20
56.8810143394
 30
0.0
 11
1.0
 21
0.0
 31
0.0
 44
0.9
  1
.9\P[24]
 40
0.46875
 41
1.7075892857
  0
LINE
  5
2BE
100
AcDbEntity
  8
0
100
AcDbLine
 62
2
  6
CONTINUOUS
 10
12.8012385196
 20
54.1099615196
 11
10.4530790537
 21
54.1099615196
  0
LINE
  5
2BF
100
AcDbEntity
  8
0
100
AcDbLine
 62
2
  6
CONTINUOUS
 10
18.8032070235
 20
55.0511032519
 11
10.4530790537
 21
55.0511032519
  0
LINE
  5
2C0
100
AcDbEntity
  8
0
100
AcDbLine
 62
2
  6
CONTINUOUS
 10
10.8280790537
 20
54.1099615196
 11
10.8280790537
 21
52.6099615196
  0
LINE
  5
2C1
100
AcDbEntity
  8
0
100
AcDbLine
 62
2
  6
CONTINUOUS
 10
10.8280790537
 20
55.0511032519
 11
10.8280790537
 21
56.6466393394
  0
LINE
  5
2C2
100
AcDbEntity
  8
0
100
AcDbLine
 62
2
  6
CONTINUOUS
 10
10.8280790537
 20
56.6466393394
 11
10.2038362462
 21
56.6466393394
  0
INSERT
  5
2C3
100
AcDbEntity
  8
0
100
AcDbBlockReference
 62
2
  6
CONTINUOUS
  2
_FILLED
 10
10.8280790537
 20
54.1099615196
 41
0.5625
 42
0.5625
 43
0.5625
 50
90.0
  0
INSERT
  5
2C4
100
AcDbEntity
  8
0
100
AcDbBlockReference
 62
2
  6
CONTINUOUS
  2
_FILLED
 10
10.8280790537
 20
55.0511032519
 41
0.5625
 42
0.5625
 43
0.5625
 50
270.0
  0
ENDBLK
  5
2C5
100
AcDbEntity
  8
0
  6
BYBLOCK
 62
0
100
AcDbBlockEnd
  0
BLOCK
  5
2C6
100
AcDbEntity
  8
0
100
AcDbBlockBegin
 62
2
  6
CONTINUOUS
  2
*D4
 70
65
 10
0.0
 20
0.0
  3
*D4
  1

  0
MTEXT
  5
2C7
100
AcDbEntity
  8
0
100
AcDbMText
 62
2
  6
CONTINUOUS
  7
STANDARD
 71
1
 72
1
 10
30.4954314478
 20
57.1226880023
 30
0.0
 11
1.0
 21
0.0
 31
0.0
 44
0.9
  1
1.3\P[33]
 40
0.46875
 41
1.6071428571
  0
LINE
  5
2C8
100
AcDbEntity
  8
0
100
AcDbLine
 62
2
  6
CONTINUOUS
 10
27.4675771022
 20
54.1099615196
 11
30.1204314478
 21
54.1099615196
  0
LINE
  5
2C9
100
AcDbEntity
  8
0
100
AcDbLine
 62
2
  6
CONTINUOUS
 10
22.2313566298
 20
55.4091741181
 11
30.1204314478
 21
55.4091741181
  0
LINE
  5
2CA
100
AcDbEntity
  8
0
100
AcDbLine
 62
2
  6
CONTINUOUS
 10
29.7454314478
 20
54.1099615196
 11
29.7454314478
 21
52.6099615196
  0
LINE
  5
2CB
100
AcDbEntity
  8
0
100
AcDbLine
 62
2
  6
CONTINUOUS
 10
29.7454314478
 20
55.4091741181
 11
29.7454314478
 21
56.8883130023
  0
LINE
  5
2CC
100
AcDbEntity
  8
0
100
AcDbLine
 62
2
  6
CONTINUOUS
 10
29.7454314478
 20
56.8883130023
 11
30.2610564478
 21
56.8883130023
  0
INSERT
  5
2CD
100
AcDbEntity
  8
0
100
AcDbBlockReference
 62
2
  6
CONTINUOUS
  2
_FILLED
 10
29.7454314478
 20
54.1099615196
 41
0.5625
 42
0.5625
 43
0.5625
 50
90.0
  0
INSERT
  5
2CE
100
AcDbEntity
  8
0
100
AcDbBlockReference
 62
2
  6
CONTINUOUS
  2
_FILLED
 10
29.7454314478
 20
55.4091741181
 41
0.5625
 42
0.5625
 43
0.5625
 50
270.0
  0
ENDBLK
  5
2CF
100
AcDbEntity
  8
0
  6
BYBLOCK
 62
0
100
AcDbBlockEnd
  0
BLOCK
  5
2D0
100
AcDbEntity
  8
0
100
AcDbBlockBegin
 62
2
  6
CONTINUOUS
  2
*D5
 70
65
 10
0.0
 20
0.0
  3
*D5
  1

  0
MTEXT
  5
2D1
100
AcDbEntity
  8
0
100
AcDbMText
 62
2
  6
CONTINUOUS
  7
STANDARD
 71
2
 72
1
 10
20.0339613823
 20
38.5241143529
 30
0.0
 11
1.0
 21
0.0
 31
0.0
 44
0.9
  1
14.3\P[363]
 40
0.46875
 41
2.1595982143
  0
LINE
  5
2D2
100
AcDbEntity
  8
0
100
AcDbLine
 62
2
  6
CONTINUOUS
 10
12.9887385196
 20
36.1584156431
 11
12.9887385196
 21
38.6647393529
  0
LINE
  5
2D3
100
AcDbEntity
  8
0
100
AcDbLine
 62
2
  6
CONTINUOUS
 10
27.2800771022
 20
36.1584156431
 11
27.2800771022
 21
38.6647393529
  0
LINE
  5
2D4
100
AcDbEntity
  8
0
100
AcDbLine
 62
2
  6
CONTINUOUS
 10
12.9887385196
 20
38.2897393529
 11
19.1801667395
 21
38.2897393529
  0
LINE
  5
2D5
100
AcDbEntity
  8
0
100
AcDbLine
 62
2
  6
CONTINUOUS
 10
27.2800771022
 20
38.2897393529
 11
21.0886488823
 21
38.2897393529
  0
INSERT
  5
2D6
100
AcDbEntity
  8
0
100
AcDbBlockReference
 62
2
  6
CONTINUOUS
  2
_FILLED
 10
12.9887385196
 20
38.2897393529
 41
0.5625
 42
0.5625
 43
0.5625
 50
180.0
  0
INSERT
  5
2D7
100
AcDbEntity
  8
0
100
AcDbBlockReference
 62
2
  6
CONTINUOUS
  2
_FILLED
 10
27.2800771022
 20
38.2897393529
 41
0.5625
 42
0.5625
 43
0.5625
  0
ENDBLK
  5
2D8
100
AcDbEntity
  8
0
  6
BYBLOCK
 62
0
100
AcDbBlockEnd
  0
BLOCK
  5
2D9
100
AcDbEntity
  8
0
100
AcDbBlockBegin
 62
2
  6
CONTINUOUS
  2
*D6
 70
65
 10
0.0
 20
0.0
  3
*D6
  1

  0
MTEXT
  5
2DA
100
AcDbEntity
  8
0
100
AcDbMText
 62
2
  6
CONTINUOUS
  7
STANDARD
 71
2
 72
1
 10
51.0618705994
 20
15.0453172571
 30
0.0
 11
1.0
 21
0.0
 31
0.0
 44
0.9
  1
3.4\P[87]
 40
0.46875
 41
1.7075892857
  0
LINE
  5
2DB
100
AcDbEntity
  8
0
100
AcDbLine
 62
2
  6
CONTINUOUS
 10
52.8643259565
 20
16.3345967455
 11
52.8643259565
 21
14.4359422571
  0
LINE
  5
2DC
100
AcDbEntity
  8
0
100
AcDbLine
 62
2
  6
CONTINUOUS
 10
49.4268259565
 20
26.526496974
 11
49.4268259565
 21
14.4359422571
  0
LINE
  5
2DD
100
AcDbEntity
  8
0
100
AcDbLine
 62
2
  6
CONTINUOUS
 10
52.8643259565
 20
14.8109422571
 11
54.3643259565
 21
14.8109422571
  0
LINE
  5
2DE
100
AcDbEntity
  8
0
100
AcDbLine
 62
2
  6
CONTINUOUS
 10
49.4268259565
 20
14.8109422571
 11
47.9268259565
 21
14.8109422571
  0
INSERT
  5
2DF
100
AcDbEntity
  8
0
100
AcDbBlockReference
 62
2
  6
CONTINUOUS
  2
_FILLED
 10
52.8643259565
 20
14.8109422571
 41
0.5625
 42
0.5625
 43
0.5625
 50
180.0
  0
INSERT
  5
2E0
100
AcDbEntity
  8
0
100
AcDbBlockReference
 62
2
  6
CONTINUOUS
  2
_FILLED
 10
49.4268259565
 20
14.8109422571
 41
0.5625
 42
0.5625
 43
0.5625
  0
ENDBLK
  5
2E1
100
AcDbEntity
  8
0
  6
BYBLOCK
 62
0
100
AcDbBlockEnd
  0
BLOCK
  5
2E2
100
AcDbEntity
  8
0
100
AcDbBlockBegin
 62
2
  6
CONTINUOUS
  2
*D7
 70
65
 10
0.0
 20
0.0
  3
*D7
  1

  0
MTEXT
  5
2E3
100
AcDbEntity
  8
0
100
AcDbMText
 62
2
  6
CONTINUOUS
  7
STANDARD
 71
2
 72
1
 10
50.448071879
 20
12.7431541514
 30
0.0
 11
1.0
 21
0.0
 31
0.0
 44
0.9
  1
4.5\P[115]
 40
0.46875
 41
1.9084821429
  0
LINE
  5
2E4
100
AcDbEntity
  8
0
100
AcDbLine
 62
2
  6
CONTINUOUS
 10
48.3331570871
 20
16.3345967455
 11
48.3331570871
 21
12.1337791514
  0
LINE
  5
2E5
100
AcDbEntity
  8
0
100
AcDbLine
 62
2
  6
CONTINUOUS
 10
52.8643259565
 20
16.3345967455
 11
52.8643259565
 21
12.1337791514
  0
LINE
  5
2E6
100
AcDbEntity
  8
0
100
AcDbLine
 62
2
  6
CONTINUOUS
 10
48.3331570871
 20
12.5087791514
 11
49.7282058075
 21
12.5087791514
  0
LINE
  5
2E7
100
AcDbEntity
  8
0
100
AcDbLine
 62
2
  6
CONTINUOUS
 10
52.8643259565
 20
12.5087791514
 11
51.4692772361
 21
12.5087791514
  0
INSERT
  5
2E8
100
AcDbEntity
  8
0
100
AcDbBlockReference
 62
2
  6
CONTINUOUS
  2
_FILLED
 10
48.3331570871
 20
12.5087791514
 41
0.5625
 42
0.5625
 43
0.5625
 50
180.0
  0
INSERT
  5
2E9
100
AcDbEntity
  8
0
100
AcDbBlockReference
 62
2
  6
CONTINUOUS
  2
_FILLED
 10
52.8643259565
 20
12.5087791514
 41
0.5625
 42
0.5625
 43
0.5625
  0
ENDBLK
  5
2EA
100
AcDbEntity
  8
0
  6
BYBLOCK
 62
0
100
AcDbBlockEnd
  0
BLOCK
  5
2EB
100
AcDbEntity
  8
0
100
AcDbBlockBegin
 62
2
  6
CONTINUOUS
  2
*D8
 70
65
 10
0.0
 20
0.0
  3
*D8
  1

  0
MTEXT
  5
2EC
100
AcDbEntity
  8
0
100
AcDbMText
 62
2
  6
CONTINUOUS
  7
STANDARD
 71
2
 72
1
 10
38.1247034538
 20
32.0490406431
 30
0.0
 11
1.0
 21
0.0
 31
0.0
 44
0.9
  1
8.3\P[211]
 40
0.46875
 41
1.9587053571
  0
LINE
  5
2ED
100
AcDbEntity
  8
0
100
AcDbLine
 62
2
  6
CONTINUOUS
 10
43.4642275314
 20
35.9709156431
 11
37.9171141681
 21
35.9709156431
  0
LINE
  5
2EE
100
AcDbEntity
  8
0
100
AcDbLine
 62
2
  6
CONTINUOUS
 10
48.2628452817
 20
27.6584156431
 11
37.9171141681
 21
27.6584156431
  0
LINE
  5
2EF
100
AcDbEntity
  8
0
100
AcDbLine
 62
2
  6
CONTINUOUS
 10
38.2921141681
 20
35.9709156431
 11
38.2921141681
 21
32.2834156431
  0
LINE
  5
2F0
100
AcDbEntity
  8
0
100
AcDbLine
 62
2
  6
CONTINUOUS
 10
38.2921141681
 20
27.6584156431
 11
38.2921141681
 21
30.6427906431
  0
INSERT
  5
2F1
100
AcDbEntity
  8
0
100
AcDbBlockReference
 62
2
  6
CONTINUOUS
  2
_FILLED
 10
38.2921141681
 20
35.9709156431
 41
0.5625
 42
0.5625
 43
0.5625
 50
90.0
  0
INSERT
  5
2F2
100
AcDbEntity
  8
0
100
AcDbBlockReference
 62
2
  6
CONTINUOUS
  2
_FILLED
 10
38.2921141681
 20
27.6584156431
 41
0.5625
 42
0.5625
 43
0.5625
 50
270.0
  0
ENDBLK
  5
2F3
100
AcDbEntity
  8
0
  6
BYBLOCK
 62
0
100
AcDbBlockEnd
  0
BLOCK
  5
2F4
100
AcDbEntity
  8
0
100
AcDbBlockBegin
 62
2
  6
CONTINUOUS
  2
*D9
 70
65
 10
0.0
 20
0.0
  3
*D9
  1

  0
MTEXT
  5
2F5
100
AcDbEntity
  8
0
100
AcDbMText
 62
2
  6
CONTINUOUS
  7
STANDARD
 71
2
 72
1
 10
55.8801357131
 20
35.4456313661
 30
0.0
 11
1.0
 21
0.0
 31
0.0
 44
0.9
  1
2.0\P[52]
 40
0.46875
 41
1.6573660714
  0
LINE
  5
2F6
100
AcDbEntity
  8
0
100
AcDbLine
 62
2
  6
CONTINUOUS
 10
49.2722983975
 20
35.9709156431
 11
56.3053589274
 21
35.9709156431
  0
LINE
  5
2F7
100
AcDbEntity
  8
0
100
AcDbLine
 62
2
  6
CONTINUOUS
 10
54.351038555
 20
33.9234746982
 11
56.3053589274
 21
33.9234746982
  0
LINE
  5
2F8
100
AcDbEntity
  8
0
100
AcDbLine
 62
2
  6
CONTINUOUS
 10
55.9303589274
 20
35.9709156431
 11
55.9303589274
 21
37.4709156431
  0
LINE
  5
2F9
100
AcDbEntity
  8
0
100
AcDbLine
 62
2
  6
CONTINUOUS
 10
55.9303589274
 20
33.9234746982
 11
55.9303589274
 21
32.4234746982
  0
INSERT
  5
2FA
100
AcDbEntity
  8
0
100
AcDbBlockReference
 62
2
  6
CONTINUOUS
  2
_FILLED
 10
55.9303589274
 20
35.9709156431
 41
0.5625
 42
0.5625
 43
0.5625
 50
270.0
  0
INSERT
  5
2FB
100
AcDbEntity
  8
0
100
AcDbBlockReference
 62
2
  6
CONTINUOUS
  2
_FILLED
 10
55.9303589274
 20
33.9234746982
 41
0.5625
 42
0.5625
 43
0.5625
 50
90.0
  0
ENDBLK
  5
2FC
100
AcDbEntity
  8
0
  6
BYBLOCK
 62
0
100
AcDbBlockEnd
  0
BLOCK
  5
2FD
100
AcDbEntity
  8
0
100
AcDbBlockBegin
 62
2
  6
CONTINUOUS
  2
*D10
 70
65
 10
0.0
 20
0.0
  3
*D10
  1

  0
MTEXT
  5
2FE
100
AcDbEntity
  8
0
100
AcDbMText
 62
2
  6
CONTINUOUS
  7
STANDARD
 71
2
 72
1
 10
55.7250231821
 20
31.6547907172
 30
0.0
 11
1.0
 21
0.0
 31
0.0
 44
0.9
  1
6.5\P[165]
 40
0.46875
 41
2.0591517857
  0
LINE
  5
2FF
100
AcDbEntity
  8
0
100
AcDbLine
 62
2
  6
CONTINUOUS
 10
54.351038555
 20
33.9234746982
 11
56.3009160393
 21
33.9234746982
  0
LINE
  5
300
100
AcDbEntity
  8
0
100
AcDbLine
 62
2
  6
CONTINUOUS
 10
53.6699361928
 20
27.4285928085
 11
56.3009160393
 21
27.4285928085
  0
LINE
  5
301
100
AcDbEntity
  8
0
100
AcDbLine
 62
2
  6
CONTINUOUS
 10
55.9259160393
 20
33.9234746982
 11
55.9259160393
 21
31.8891657172
  0
LINE
  5
302
100
AcDbEntity
  8
0
100
AcDbLine
 62
2
  6
CONTINUOUS
 10
55.9259160393
 20
27.4285928085
 11
55.9259160393
 21
30.2485407172
  0
INSERT
  5
303
100
AcDbEntity
  8
0
100
AcDbBlockReference
 62
2
  6
CONTINUOUS
  2
_FILLED
 10
55.9259160393
 20
33.9234746982
 41
0.5625
 42
0.5625
 43
0.5625
 50
90.0
  0
INSERT
  5
304
100
AcDbEntity
  8
0
100
AcDbBlockReference
 62
2
  6
CONTINUOUS
  2
_FILLED
 10
55.9259160393
 20
27.4285928085
 41
0.5625
 42
0.5625
 43
0.5625
 50
270.0
  0
ENDBLK
  5
305
100
AcDbEntity
  8
0
  6
BYBLOCK
 62
0
100
AcDbBlockEnd
  0
BLOCK
  5
306
100
AcDbEntity
  8
0
100
AcDbBlockBegin
 62
2
  6
CONTINUOUS
  2
*D11
 70
65
 10
0.0
 20
0.0
  3
*D11
  1

  0
MTEXT
  5
307
100
AcDbEntity
  8
0
100
AcDbMText
 62
2
  6
CONTINUOUS
  7
STANDARD
 71
2
 72
1
 10
47.7597249296
 20
41.5877872163
 30
0.0
 11
1.0
 21
0.0
 31
0.0
 44
0.9
  1
9.7\P[247]
 40
0.46875
 41
2.2600446429
  0
LINE
  5
308
100
AcDbEntity
  8
0
100
AcDbLine
 62
2
  6
CONTINUOUS
 10
52.8643259565
 20
34.3959929981
 11
52.8643259565
 21
41.7284122163
  0
LINE
  5
309
100
AcDbEntity
  8
0
100
AcDbLine
 62
2
  6
CONTINUOUS
 10
43.1573560455
 20
36.0259492027
 11
43.1573560455
 21
41.7284122163
  0
LINE
  5
30A
100
AcDbEntity
  8
0
100
AcDbLine
 62
2
  6
CONTINUOUS
 10
52.8643259565
 20
41.3534122163
 11
48.9985642153
 21
41.3534122163
  0
LINE
  5
30B
100
AcDbEntity
  8
0
100
AcDbLine
 62
2
  6
CONTINUOUS
 10
43.1573560455
 20
41.3534122163
 11
47.0231177867
 21
41.3534122163
  0
INSERT
  5
30C
100
AcDbEntity
  8
0
100
AcDbBlockReference
 62
2
  6
CONTINUOUS
  2
_FILLED
 10
52.8643259565
 20
41.3534122163
 41
0.5625
 42
0.5625
 43
0.5625
  0
INSERT
  5
30D
100
AcDbEntity
  8
0
100
AcDbBlockReference
 62
2
  6
CONTINUOUS
  2
_FILLED
 10
43.1573560455
 20
41.3534122163
 41
0.5625
 42
0.5625
 43
0.5625
 50
180.0
  0
ENDBLK
  5
30E
100
AcDbEntity
  8
0
  6
BYBLOCK
 62
0
100
AcDbBlockEnd
  0
BLOCK
  5
30F
100
AcDbEntity
  8
0
100
AcDbBlockBegin
 62
2
  6
CONTINUOUS
  2
*D12
 70
65
 10
0.0
 20
0.0
  3
*D12
  1

  0
MTEXT
  5
310
100
AcDbEntity
  8
0
100
AcDbMText
 62
2
  6
CONTINUOUS
  7
STANDARD
 71
2
 72
1
 10
35.4067461307
 20
26.4808811943
 30
0.0
 11
1.0
 21
0.0
 31
0.0
 44
0.9
  1
19.4\P[494]
 40
0.46875
 41
2.2600446429
  0
LINE
  5
311
100
AcDbEntity
  8
0
100
AcDbLine
 62
2
  6
CONTINUOUS
 10
43.4642275314
 20
35.9709156431
 11
35.1489336307
 21
35.9709156431
  0
LINE
  5
312
100
AcDbEntity
  8
0
100
AcDbLine
 62
2
  6
CONTINUOUS
 10
48.1456570871
 20
16.5220967455
 11
35.1489336307
 21
16.5220967455
  0
LINE
  5
313
100
AcDbEntity
  8
0
100
AcDbLine
 62
2
  6
CONTINUOUS
 10
35.5239336307
 20
35.9709156431
 11
35.5239336307
 21
26.7152561943
  0
LINE
  5
314
100
AcDbEntity
  8
0
100
AcDbLine
 62
2
  6
CONTINUOUS
 10
35.5239336307
 20
16.5220967455
 11
35.5239336307
 21
25.0746311943
  0
INSERT
  5
315
100
AcDbEntity
  8
0
100
AcDbBlockReference
 62
2
  6
CONTINUOUS
  2
_FILLED
 10
35.5239336307
 20
35.9709156431
 41
0.5625
 42
0.5625
 43
0.5625
 50
90.0
  0
INSERT
  5
316
100
AcDbEntity
  8
0
100
AcDbBlockReference
 62
2
  6
CONTINUOUS
  2
_FILLED
 10
35.5239336307
 20
16.5220967455
 41
0.5625
 42
0.5625
 43
0.5625
 50
270.0
  0
ENDBLK
  5
317
100
AcDbEntity
  8
0
  6
BYBLOCK
 62
0
100
AcDbBlockEnd
  0
BLOCK
  5
318
100
AcDbEntity
  8
0
100
AcDbBlockBegin
 62
2
  6
CONTINUOUS
  2
*D13
 70
65
 10
0.0
 20
0.0
  3
*D13
  1

  0
MTEXT
  5
319
100
AcDbEntity
  8
0
100
AcDbMText
 62
2
  6
CONTINUOUS
  7
STANDARD
 71
2
 72
1
 10
51.0601481585
 20
39.425434718
 30
0.0
 11
1.0
 21
0.0
 31
0.0
 44
0.9
  1
3.4\P[87]
 40
0.46875
 41
1.7075892857
  0
LINE
  5
31A
100
AcDbEntity
  8
0
100
AcDbLine
 62
2
  6
CONTINUOUS
 10
52.8643259565
 20
34.3959929981
 11
52.8643259565
 21
39.566059718
  0
LINE
  5
31B
100
AcDbEntity
  8
0
100
AcDbLine
 62
2
  6
CONTINUOUS
 10
49.4233810747
 20
28.979872336
 11
49.4233810747
 21
39.566059718
  0
LINE
  5
31C
100
AcDbEntity
  8
0
100
AcDbLine
 62
2
  6
CONTINUOUS
 10
52.8643259565
 20
39.191059718
 11
51.9474249442
 21
39.191059718
  0
LINE
  5
31D
100
AcDbEntity
  8
0
100
AcDbLine
 62
2
  6
CONTINUOUS
 10
49.4233810747
 20
39.191059718
 11
50.340282087
 21
39.191059718
  0
INSERT
  5
31E
100
AcDbEntity
  8
0
100
AcDbBlockReference
 62
2
  6
CONTINUOUS
  2
_FILLED
 10
52.8643259565
 20
39.191059718
 41
0.5625
 42
0.5625
 43
0.5625
  0
INSERT
  5
31F
100
AcDbEntity
  8
0
100
AcDbBlockReference
 62
2
  6
CONTINUOUS
  2
_FILLED
 10
49.4233810747
 20
39.191059718
 41
0.5625
 42
0.5625
 43
0.5625
 50
180.0
  0
ENDBLK
  5
320
100
AcDbEntity
  8
0
  6
BYBLOCK
 62
0
100
AcDbBlockEnd
  0
BLOCK
  5
321
100
AcDbEntity
  8
0
100
AcDbBlockBegin
 62
2
  6
CONTINUOUS
  2
*D14
 70
65
 10
0.0
 20
0.0
  3
*D14
  1

  0
MTEXT
  5
322
100
AcDbEntity
  8
0
100
AcDbMText
 62
2
  6
CONTINUOUS
  7
STANDARD
 71
2
 72
1
 10
40.8064177149
 20
32.3293063911
 30
0.0
 11
1.0
 21
0.0
 31
0.0
 44
0.9
  1
7.8\P[197]
 40
0.46875
 41
2.109375
  0
LINE
  5
323
100
AcDbEntity
  8
0
100
AcDbLine
 62
2
  6
CONTINUOUS
 10
43.4642275314
 20
35.9709156431
 11
40.6323105721
 21
35.9709156431
  0
LINE
  5
324
100
AcDbEntity
  8
0
100
AcDbLine
 62
2
  6
CONTINUOUS
 10
48.6624558778
 20
28.2189471392
 11
40.6323105721
 21
28.2189471392
  0
LINE
  5
325
100
AcDbEntity
  8
0
100
AcDbLine
 62
2
  6
CONTINUOUS
 10
41.0073105721
 20
35.9709156431
 11
41.0073105721
 21
32.5636813911
  0
LINE
  5
326
100
AcDbEntity
  8
0
100
AcDbLine
 62
2
  6
CONTINUOUS
 10
41.0073105721
 20
28.2189471392
 11
41.0073105721
 21
30.9230563911
  0
INSERT
  5
327
100
AcDbEntity
  8
0
100
AcDbBlockReference
 62
2
  6
CONTINUOUS
  2
_FILLED
 10
41.0073105721
 20
35.9709156431
 41
0.5625
 42
0.5625
 43
0.5625
 50
90.0
  0
INSERT
  5
328
100
AcDbEntity
  8
0
100
AcDbBlockReference
 62
2
  6
CONTINUOUS
  2
_FILLED
 10
41.0073105721
 20
28.2189471392
 41
0.5625
 42
0.5625
 43
0.5625
 50
270.0
  0
ENDBLK
  5
329
100
AcDbEntity
  8
0
  6
BYBLOCK
 62
0
100
AcDbBlockEnd
  0
BLOCK
  5
32A
100
AcDbEntity
  8
0
100
AcDbBlockBegin
 62
2
  6
CONTINUOUS
  2
*D15
 70
65
 10
0.0
 20
0.0
  3
*D15
  1

  0
MTEXT
  5
32B
100
AcDbEntity
  8
0
100
AcDbMText
 62
2
  6
CONTINUOUS
  7
STANDARD
 71
1
 72
1
 10
77.4502906621
 20
38.9971000145
 30
0.0
 11
1.0
 21
0.0
 31
0.0
 44
0.9
  1
1.375\P[34,93]
 40
0.46875
 41
3.1138392857
  0
LINE
  5
32C
100
AcDbEntity
  8
0
100
AcDbLine
 62
2
  6
CONTINUOUS
 10
74.1802917605
 20
37.002039332
 11
74.1802917605
 21
39.1377250145
  0
LINE
  5
32D
100
AcDbEntity
  8
0
100
AcDbLine
 62
2
  6
CONTINUOUS
 10
75.5552917605
 20
33.6660928085
 11
75.5552917605
 21
39.1377250145
  0
LINE
  5
32E
100
AcDbEntity
  8
0
100
AcDbLine
 62
2
  6
CONTINUOUS
 10
74.1802917605
 20
38.7627250145
 11
74.8677917605
 21
38.7627250145
  0
LINE
  5
32F
100
AcDbEntity
  8
0
100
AcDbLine
 62
2
  6
CONTINUOUS
 10
75.5552917605
 20
38.7627250145
 11
74.8677917605
 21
38.7627250145
  0
LINE
  5
330
100
AcDbEntity
  8
0
100
AcDbLine
 62
2
  6
CONTINUOUS
 10
74.8677917605
 20
38.7627250145
 11
77.2159156621
 21
38.7627250145
  0
INSERT
  5
331
100
AcDbEntity
  8
0
100
AcDbBlockReference
 62
2
  6
CONTINUOUS
  2
_FILLED
 10
74.1802917605
 20
38.7627250145
 41
0.5625
 42
0.5625
 43
0.5625
 50
180.0
  0
INSERT
  5
332
100
AcDbEntity
  8
0
100
AcDbBlockReference
 62
2
  6
CONTINUOUS
  2
_FILLED
 10
75.5552917605
 20
38.7627250145
 41
0.5625
 42
0.5625
 43
0.5625
  0
ENDBLK
  5
333
100
AcDbEntity
  8
0
  6
BYBLOCK
 62
0
100
AcDbBlockEnd
  0
BLOCK
  5
334
100
AcDbEntity
  8
0
100
AcDbBlockBegin
 62
2
  6
CONTINUOUS
  2
*D16
 70
65
 10
0.0
 20
0.0
  3
*D16
  1

  0
MTEXT
  5
335
100
AcDbEntity
  8
0
100
AcDbMText
 62
2
  6
CONTINUOUS
  7
STANDARD
 71
1
 72
1
 10
77.2620535794
 20
41.0566351546
 30
0.0
 11
1.0
 21
0.0
 31
0.0
 44
0.9
  1
2.750\P[69,85]
 40
0.46875
 41
3.1640625
  0
LINE
  5
336
100
AcDbEntity
  8
0
100
AcDbLine
 62
2
  6
CONTINUOUS
 10
72.8052917605
 20
33.6660928085
 11
72.8052917605
 21
41.1972601546
  0
LINE
  5
337
100
AcDbEntity
  8
0
100
AcDbLine
 62
2
  6
CONTINUOUS
 10
75.5552917605
 20
33.6660928085
 11
75.5552917605
 21
41.1972601546
  0
LINE
  5
338
100
AcDbEntity
  8
0
100
AcDbLine
 62
2
  6
CONTINUOUS
 10
72.8052917605
 20
40.8222601546
 11
74.1802917605
 21
40.8222601546
  0
LINE
  5
339
100
AcDbEntity
  8
0
100
AcDbLine
 62
2
  6
CONTINUOUS
 10
75.5552917605
 20
40.8222601546
 11
74.1802917605
 21
40.8222601546
  0
LINE
  5
33A
100
AcDbEntity
  8
0
100
AcDbLine
 62
2
  6
CONTINUOUS
 10
74.1802917605
 20
40.8222601546
 11
77.0276785794
 21
40.8222601546
  0
INSERT
  5
33B
100
AcDbEntity
  8
0
100
AcDbBlockReference
 62
2
  6
CONTINUOUS
  2
_FILLED
 10
72.8052917605
 20
40.8222601546
 41
0.5625
 42
0.5625
 43
0.5625
 50
180.0
  0
INSERT
  5
33C
100
AcDbEntity
  8
0
100
AcDbBlockReference
 62
2
  6
CONTINUOUS
  2
_FILLED
 10
75.5552917605
 20
40.8222601546
 41
0.5625
 42
0.5625
 43
0.5625
  0
ENDBLK
  5
33D
100
AcDbEntity
  8
0
  6
BYBLOCK
 62
0
100
AcDbBlockEnd
  0
BLOCK
  5
33E
100
AcDbEntity
  8
0
100
AcDbBlockBegin
 62
2
  6
CONTINUOUS
  2
*D17
 70
65
 10
0.0
 20
0.0
  3
*D17
  1

  0
MTEXT
  5
33F
100
AcDbEntity
  8
0
100
AcDbMText
 62
2
  6
CONTINUOUS
  7
STANDARD
 71
2
 72
1
 10
84.6254453438
 20
35.1434772872
 30
0.0
 11
1.0
 21
0.0
 31
0.0
 44
0.9
  1
2.92\P[74]
 40
0.46875
 41
2.0591517857
  0
LINE
  5
340
100
AcDbEntity
  8
0
100
AcDbLine
 62
2
  6
CONTINUOUS
 10
81.5134610518
 20
35.9709156431
 11
85.0004453438
 21
35.9709156431
  0
LINE
  5
341
100
AcDbEntity
  8
0
100
AcDbLine
 62
2
  6
CONTINUOUS
 10
76.1677917605
 20
33.0535928085
 11
85.0004453438
 21
33.0535928085
  0
LINE
  5
342
100
AcDbEntity
  8
0
100
AcDbLine
 62
2
  6
CONTINUOUS
 10
84.6254453438
 20
35.9709156431
 11
84.6254453438
 21
37.4709156431
  0
LINE
  5
343
100
AcDbEntity
  8
0
100
AcDbLine
 62
2
  6
CONTINUOUS
 10
84.6254453438
 20
33.0535928085
 11
84.6254453438
 21
31.5535928085
  0
INSERT
  5
344
100
AcDbEntity
  8
0
100
AcDbBlockReference
 62
2
  6
CONTINUOUS
  2
_FILLED
 10
84.6254453438
 20
35.9709156431
 41
0.5625
 42
0.5625
 43
0.5625
 50
270.0
  0
INSERT
  5
345
100
AcDbEntity
  8
0
100
AcDbBlockReference
 62
2
  6
CONTINUOUS
  2
_FILLED
 10
84.6254453438
 20
33.0535928085
 41
0.5625
 42
0.5625
 43
0.5625
 50
90.0
  0
ENDBLK
  5
346
100
AcDbEntity
  8
0
  6
BYBLOCK
 62
0
100
AcDbBlockEnd
  0
BLOCK
  5
347
100
AcDbEntity
  8
0
100
AcDbBlockBegin
 62
2
  6
CONTINUOUS
  2
*D18
 70
65
 10
0.0
 20
0.0
  3
*D18
  1

  0
MTEXT
  5
348
100
AcDbEntity
  8
0
100
AcDbMText
 62
2
  6
CONTINUOUS
  7
STANDARD
 71
2
 72
1
 10
84.6254453438
 20
31.2982010303
 30
0.0
 11
1.0
 21
0.0
 31
0.0
 44
0.9
  1
5.000\P[127]
 40
0.46875
 41
2.5613839286
  0
LINE
  5
349
100
AcDbEntity
  8
0
100
AcDbLine
 62
2
  6
CONTINUOUS
 10
76.1677917605
 20
33.0535928085
 11
85.0004453438
 21
33.0535928085
  0
LINE
  5
34A
100
AcDbEntity
  8
0
100
AcDbLine
 62
2
  6
CONTINUOUS
 10
76.1677917605
 20
28.0535928085
 11
85.0004453438
 21
28.0535928085
  0
LINE
  5
34B
100
AcDbEntity
  8
0
100
AcDbLine
 62
2
  6
CONTINUOUS
 10
84.6254453438
 20
33.0535928085
 11
84.6254453438
 21
31.5325760303
  0
LINE
  5
34C
100
AcDbEntity
  8
0
100
AcDbLine
 62
2
  6
CONTINUOUS
 10
84.6254453438
 20
28.0535928085
 11
84.6254453438
 21
29.8919510303
  0
INSERT
  5
34D
100
AcDbEntity
  8
0
100
AcDbBlockReference
 62
2
  6
CONTINUOUS
  2
_FILLED
 10
84.6254453438
 20
33.0535928085
 41
0.5625
 42
0.5625
 43
0.5625
 50
90.0
  0
INSERT
  5
34E
100
AcDbEntity
  8
0
100
AcDbBlockReference
 62
2
  6
CONTINUOUS
  2
_FILLED
 10
84.6254453438
 20
28.0535928085
 41
0.5625
 42
0.5625
 43
0.5625
 50
270.0
  0
ENDBLK
  5
34F
100
AcDbEntity
  8
0
  6
BYBLOCK
 62
0
100
AcDbBlockEnd
  0
ENDSEC
  0
SECTION
  2
ENTITIES
  0
MTEXT
  5
350
100
AcDbEntity
  8
0
100
AcDbMText
 62
2
  6
CONTINUOUS
  7
STANDARD
 71
1
 72
1
 10
7.3887232342
 20
1.0947500507
 30
0.0
 11
1.0
 21
0.0
 31
0.0
 44
0.9
  1
8
 40
0.46875
 41
0.5524553571
  0
MTEXT
  5
351
100
AcDbEntity
  8
0
100
AcDbMText
 62
2
  6
CONTINUOUS
  7
STANDARD
 71
1
 72
1
 10
19.5762232342
 20
1.0947500507
 30
0.0
 11
1.0
 21
0.0
 31
0.0
 44
0.9
  1
7
 40
0.46875
 41
0.5524553571
  0
MTEXT
  5
352
100
AcDbEntity
  8
0
100
AcDbMText
 62
2
  6
CONTINUOUS
  7
STANDARD
 71
1
 72
1
 10
31.7637232342
 20
1.0947500507
 30
0.0
 11
1.0
 21
0.0
 31
0.0
 44
0.9
  1
6
 40
0.46875
 41
0.5524553571
  0
MTEXT
  5
353
100
AcDbEntity
  8
0
100
AcDbMText
 62
2
  6
CONTINUOUS
  7
STANDARD
 71
1
 72
1
 10
43.9512232342
 20
1.0947500507
 30
0.0
 11
1.0
 21
0.0
 31
0.0
 44
0.9
  1
5
 40
0.46875
 41
0.5022321429
  0
MTEXT
  5
354
100
AcDbEntity
  8
0
100
AcDbMText
 62
2
  6
CONTINUOUS
  7
STANDARD
 71
1
 72
1
 10
56.1387232342
 20
1.0947500507
 30
0.0
 11
1.0
 21
0.0
 31
0.0
 44
0.9
  1
4
 40
0.46875
 41
0.5524553571
  0
MTEXT
  5
355
100
AcDbEntity
  8
0
100
AcDbMText
 62
2
  6
CONTINUOUS
  7
STANDARD
 71
1
 72
1
 10
68.3262232342
 20
1.0947500507
 30
0.0
 11
1.0
 21
0.0
 31
0.0
 44
0.9
  1
3
 40
0.46875
 41
0.5022321429
  0
MTEXT
  5
356
100
AcDbEntity
  8
0
100
AcDbMText
 62
2
  6
CONTINUOUS
  7
STANDARD
 71
1
 72
1
 10
80.5137232342
 20
1.0947500507
 30
0.0
 11
1.0
 21
0.0
 31
0.0
 44
0.9
  1
2
 40
0.46875
 41
0.5524553571
  0
MTEXT
  5
357
100
AcDbEntity
  8
0
100
AcDbMText
 62
2
  6
CONTINUOUS
  7
STANDARD
 71
1
 72
1
 10
92.7012232342
 20
1.0947500507
 30
0.0
 11
1.0
 21
0.0
 31
0.0
 44
0.9
  1
1
 40
0.46875
 41
0.4017857143
  0
MTEXT
  5
358
100
AcDbEntity
  8
0
100
AcDbMText
 62
2
  6
CONTINUOUS
  7
STANDARD
 71
1
 72
1
 10
7.3887232342
 20
65.5947500507
 30
0.0
 11
1.0
 21
0.0
 31
0.0
 44
0.9
  1
8
 40
0.46875
 41
0.6863839286
  0
MTEXT
  5
359
100
AcDbEntity
  8
0
100
AcDbMText
 62
2
  6
CONTINUOUS
  7
STANDARD
 71
1
 72
1
 10
19.5762232342
 20
65.5947500507
 30
0.0
 11
1.0
 21
0.0
 31
0.0
 44
0.9
  1
7
 40
0.46875
 41
0.5524553571
  0
MTEXT
  5
35A
100
AcDbEntity
  8
0
100
AcDbMText
 62
2
  6
CONTINUOUS
  7
STANDARD
 71
1
 72
1
 10
31.7637232342
 20
65.5947500507
 30
0.0
 11
1.0
 21
0.0
 31
0.0
 44
0.9
  1
6
 40
0.46875
 41
0.5524553571
  0
MTEXT
  5
35B
100
AcDbEntity
  8
0
100
AcDbMText
 62
2
  6
CONTINUOUS
  7
STANDARD
 71
1
 72
1
 10
43.9512232342
 20
65.5947500507
 30
0.0
 11
1.0
 21
0.0
 31
0.0
 44
0.9
  1
5
 40
0.46875
 41
0.5022321429
  0
MTEXT
  5
35C
100
AcDbEntity
  8
0
100
AcDbMText
 62
2
  6
CONTINUOUS
  7
STANDARD
 71
1
 72
1
 10
56.1387232342
 20
65.5947500507
 30
0.0
 11
1.0
 21
0.0
 31
0.0
 44
0.9
  1
4
 40
0.46875
 41
0.5524553571
  0
MTEXT
  5
35D
100
AcDbEntity
  8
0
100
AcDbMText
 62
2
  6
CONTINUOUS
  7
STANDARD
 71
1
 72
1
 10
68.3262232342
 20
65.5947500507
 30
0.0
 11
1.0
 21
0.0
 31
0.0
 44
0.9
  1
3
 40
0.46875
 41
0.5022321429
  0
MTEXT
  5
35E
100
AcDbEntity
  8
0
100
AcDbMText
 62
2
  6
CONTINUOUS
  7
STANDARD
 71
1
 72
1
 10
80.5137232342
 20
65.5947500507
 30
0.0
 11
1.0
 21
0.0
 31
0.0
 44
0.9
  1
2
 40
0.46875
 41
0.5524553571
  0
MTEXT
  5
35F
100
AcDbEntity
  8
0
100
AcDbMText
 62
2
  6
CONTINUOUS
  7
STANDARD
 71
1
 72
1
 10
92.7012232342
 20
65.5947500507
 30
0.0
 11
1.0
 21
0.0
 31
0.0
 44
0.9
  1
1
 40
0.46875
 41
0.4017857143
  0
MTEXT
  5
360
100
AcDbEntity
  8
0
100
AcDbMText
 62
2
  6
CONTINUOUS
  7
STANDARD
 71
1
 72
1
 10
0.5946579278
 20
9.6584698477
 30
0.0
 11
1.0
 21
0.0
 31
0.0
 44
0.9
  1
A
 40
0.46875
 41
0.6026785714
  0
MTEXT
  5
361
100
AcDbEntity
  8
0
100
AcDbMText
 62
2
  6
CONTINUOUS
  7
STANDARD
 71
1
 72
1
 10
0.5946579278
 20
25.4084698477
 30
0.0
 11
1.0
 21
0.0
 31
0.0
 44
0.9
  1
B
 40
0.46875
 41
0.5524553571
  0
MTEXT
  5
362
100
AcDbEntity
  8
0
100
AcDbMText
 62
2
  6
CONTINUOUS
  7
STANDARD
 71
1
 72
1
 10
0.5946579278
 20
41.1584698477
 30
0.0
 11
1.0
 21
0.0
 31
0.0
 44
0.9
  1
C
 40
0.46875
 41
0.5859375
  0
MTEXT
  5
363
100
AcDbEntity
  8
0
100
AcDbMText
 62
2
  6
CONTINUOUS
  7
STANDARD
 71
1
 72
1
 10
0.5946579278
 20
56.9084698477
 30
0.0
 11
1.0
 21
0.0
 31
0.0
 44
0.9
  1
D
 40
0.46875
 41
0.6361607143
  0
MTEXT
  5
364
100
AcDbEntity
  8
0
100
AcDbMText
 62
2
  6
CONTINUOUS
  7
STANDARD
 71
1
 72
1
 10
99.5946579278
 20
9.6584698477
 30
0.0
 11
1.0
 21
0.0
 31
0.0
 44
0.9
  1
A
 40
0.46875
 41
0.6026785714
  0
MTEXT
  5
365
100
AcDbEntity
  8
0
100
AcDbMText
 62
2
  6
CONTINUOUS
  7
STANDARD
 71
1
 72
1
 10
99.5946579278
 20
25.4084698477
 30
0.0
 11
1.0
 21
0.0
 31
0.0
 44
0.9
  1
B
 40
0.46875
 41
0.5524553571
  0
MTEXT
  5
366
100
AcDbEntity
  8
0
100
AcDbMText
 62
2
  6
CONTINUOUS
  7
STANDARD
 71
1
 72
1
 10
99.5946579278
 20
41.1584698477
 30
0.0
 11
1.0
 21
0.0
 31
0.0
 44
0.9
  1
C
 40
0.46875
 41
0.5859375
  0
MTEXT
  5
367
100
AcDbEntity
  8
0
100
AcDbMText
 62
2
  6
CONTINUOUS
  7
STANDARD
 71
1
 72
1
 10
99.5946579278
 20
56.9084698477
 30
0.0
 11
1.0
 21
0.0
 31
0.0
 44
0.9
  1
D
 40
0.46875
 41
0.6361607143
  0
MTEXT
  5
368
100
AcDbEntity
  8
0
100
AcDbMText
 62
5
  6
CONTINUOUS
  7
STANDARD
 71
1
 72
1
 10
1.6988688318
 20
64.3685463461
 30
0.0
 11
1.0
 21
0.0
 31
0.0
 44
0.9
  1
THIS DOCUMENT CONTAINS PROPRIETARY INFORMATION\PWHICH IS THE PROPERTY OF QSC, LLC, THAT MAY NOT BE\PDISCLOSED, REPRODUCED OR USED WITHOUT EXPRESS\PWRITTEN CONSENT FROM QSC, LLC.
 40
0.225
 41
13.33125
  0
MTEXT
  5
369
100
AcDbEntity
  8
0
100
AcDbMText
 62
2
  6
CONTINUOUS
  7
STANDARD
 71
2
 72
1
 10
72.6850277561
 20
8.9347723959
 30
0.0
 11
1.0
 21
0.0
 31
0.0
 44
0.9
  1
UNLESS OTHERWISE SPECIFIED\PDIMENSIONS IN INCHES [MM]
 40
0.3
 41
9.1928571429
  0
MTEXT
  5
36A
100
AcDbEntity
  8
0
100
AcDbMText
 62
2
  6
CONTINUOUS
  7
STANDARD
 71
2
 72
1
 10
72.7048418375
 20
7.7759564959
 30
0.0
 11
1.0
 21
0.0
 31
0.0
 44
0.9
  1
TOLERANCES ARE:
 40
0.27
 41
4.6382142857
  0
MTEXT
  5
36B
100
AcDbEntity
  8
0
100
AcDbMText
 62
2
  6
CONTINUOUS
  7
STANDARD
 71
2
 72
1
 10
70.4978299226
 20
7.0911167182
 30
0.0
 11
1.0
 21
0.0
 31
0.0
 44
0.9
  1
DECIMALS\P.XX\Fgdt;{\Fgdt;`}\Ftxt;.02[.5]
 40
0.27
 41
3.1339285714
  0
MTEXT
  5
36C
100
AcDbEntity
  8
0
100
AcDbMText
 62
2
  6
CONTINUOUS
  7
STANDARD
 71
2
 72
1
 10
73.125
 20
7.0725
 30
0.0
 11
1.0
 21
0.0
 31
0.0
 44
0.9
  1
DECIMALS\P.XXX\Fgdt;{\Fgdt;`}\Ftxt;.010[.25]
 40
0.27
 41
4.0307142857
  0
MTEXT
  5
36D
100
AcDbEntity
  8
0
100
AcDbMText
 62
2
  6
CONTINUOUS
  7
STANDARD
 71
2
 72
1
 10
75.3878909831
 20
7.0875020839
 30
0.0
 11
1.0
 21
0.0
 31
0.0
 44
0.9
  1
ANGLES\P\Fgdt;{\Fgdt;`}\Ftxt; 1/2
 40
0.27
 41
1.9285714286
  0
MTEXT
  5
36E
100
AcDbEntity
  8
0
100
AcDbMText
 62
2
  6
CONTINUOUS
  7
STANDARD
 71
2
 72
1
 10
72.75
 20
5.9475
 30
0.0
 11
1.0
 21
0.0
 31
0.0
 44
0.9
  1
DEBURR EDGES .010 [.25] R MAX
 40
0.27
 41
8.8232142857
  0
MTEXT
  5
36F
100
AcDbEntity
  8
0
100
AcDbMText
 62
2
  6
CONTINUOUS
  7
STANDARD
 71
2
 72
1
 10
70.3767734424
 20
5.0586597527
 30
0.0
 11
1.0
 21
0.0
 31
0.0
 44
0.9
  1
MATERIAL
 40
0.27
 41
2.5939285714
  0
MTEXT
  5
370
100
AcDbEntity
  8
0
100
AcDbMText
 62
2
  6
CONTINUOUS
  7
STANDARD
 71
2
 72
1
 10
70.0894191481
 20
3.2314398808
 30
0.0
 11
1.0
 21
0.0
 31
0.0
 44
0.9
  1
FINISH
 40
0.27
 41
1.8417857143
  0
MTEXT
  5
371
100
AcDbEntity
  8
0
100
AcDbMText
 62
2
  6
CONTINUOUS
  7
STANDARD
 71
2
 72
1
 10
90.8093769444
 20
2.0427076852
 30
0.0
 11
1.0
 21
0.0
 31
0.0
 44
0.9
  1
DO NOT SCALE DRAWING
 40
0.375
 41
9.3482142857
  0
MTEXT
  5
372
100
AcDbEntity
  8
0
100
AcDbMText
 62
2
  6
CONTINUOUS
  7
STANDARD
 71
2
 72
1
 10
76.8718403833
 20
8.1529997057
 30
0.0
 11
1.0
 21
0.0
 31
0.0
 44
0.9
  1
DRAWN
 40
0.27
 41
1.9767857143
  0
MTEXT
  5
373
100
AcDbEntity
  8
0
100
AcDbMText
 62
2
  6
CONTINUOUS
  7
STANDARD
 71
2
 72
1
 10
76.9772126356
 20
6.8232164832
 30
0.0
 11
1.0
 21
0.0
 31
0.0
 44
0.9
  1
CHECKED
 40
0.27
 41
2.3335714286
  0
MTEXT
  5
374
100
AcDbEntity
  8
0
100
AcDbMText
 62
2
  6
CONTINUOUS
  7
STANDARD
 71
2
 72
1
 10
76.9585953789
 20
5.5143277336
 30
0.0
 11
1.0
 21
0.0
 31
0.0
 44
0.9
  1
MFG ENG
 40
0.27
 41
2.2757142857
  0
MTEXT
  5
375
100
AcDbEntity
  8
0
100
AcDbMText
 62
2
  6
CONTINUOUS
  7
STANDARD
 71
2
 72
1
 10
77.0939480476
 20
4.1963530404
 30
0.0
 11
1.0
 21
0.0
 31
0.0
 44
0.9
  1
QA CHECK
 40
0.27
 41
2.6903571429
  0
MTEXT
  5
376
100
AcDbEntity
  8
0
100
AcDbMText
 62
2
  6
CONTINUOUS
  7
STANDARD
 71
2
 72
1
 10
77.8695705011
 20
2.0280074066
 30
0.0
 11
1.0
 21
0.0
 31
0.0
 44
0.9
  1
MODEL INFO:
 40
0.27
 41
3.3075
  0
MTEXT
  5
377
100
AcDbEntity
  8
0
100
AcDbMText
 62
2
  6
CONTINUOUS
  7
STANDARD
 71
2
 72
1
 10
77.5915526799
 20
2.7550831245
 30
0.0
 11
1.0
 21
0.0
 31
0.0
 44
0.9
  1
DRAWING INFO:
 40
0.27
 41
4.2042857143
  0
MTEXT
  5
378
100
AcDbEntity
  8
0
100
AcDbMText
 62
2
  6
CONTINUOUS
  7
STANDARD
 71
2
 72
1
 10
78.7239697367
 20
8.8687597942
 30
0.0
 11
1.0
 21
0.0
 31
0.0
 44
0.9
  1
APPROVALS
 40
0.27
 41
2.9603571429
  0
MTEXT
  5
379
100
AcDbEntity
  8
0
100
AcDbMText
 62
2
  6
CONTINUOUS
  7
STANDARD
 71
2
 72
1
 10
82.6321879336
 20
9.1054725154
 30
0.0
 11
1.0
 21
0.0
 31
0.0
 44
0.9
  1
DATE\P(DD-MMM-YY)
 40
0.27
 41
3.3942857143
  0
MTEXT
  5
37A
100
AcDbEntity
  8
0
100
AcDbMText
 62
2
  6
CONTINUOUS
  7
STANDARD
 71
2
 72
1
 10
84.7180937442
 20
2.0010609907
 30
0.0
 11
1.0
 21
0.0
 31
0.0
 44
0.9
  1
SCALE:
 40
0.27
 41
1.7742857143
  0
MTEXT
  5
37B
100
AcDbEntity
  8
0
100
AcDbMText
 62
2
  6
CONTINUOUS
  7
STANDARD
 71
2
 72
1
 10
94.8487282029
 20
2.0060426595
 30
0.0
 11
1.0
 21
0.0
 31
0.0
 44
0.9
  1
SHEET
 40
0.27
 41
1.6392857143
  0
MTEXT
  5
37C
100
AcDbEntity
  8
0
100
AcDbMText
 62
2
  6
CONTINUOUS
  7
STANDARD
 71
2
 72
1
 10
84.7259383523
 20
3.630989002
 30
0.0
 11
1.0
 21
0.0
 31
0.0
 44
0.9
  1
SIZE
 40
0.27
 41
1.2632142857
  0
MTEXT
  5
37D
100
AcDbEntity
  8
0
100
AcDbMText
 62
2
  6
CONTINUOUS
  7
STANDARD
 71
2
 72
1
 10
86.951092826
 20
3.6342493293
 30
0.0
 11
1.0
 21
0.0
 31
0.0
 44
0.9
  1
CAGE CODE
 40
0.27
 41
2.9989285714
  0
MTEXT
  5
37E
100
AcDbEntity
  8
0
100
AcDbMText
 62
2
  6
CONTINUOUS
  7
STANDARD
 71
2
 72
1
 10
89.8228492441
 20
3.6279988972
 30
0.0
 11
1.0
 21
0.0
 31
0.0
 44
0.9
  1
DRAWING NO.
 40
0.27
 41
3.7414285714
  0
MTEXT
  5
37F
100
AcDbEntity
  8
0
100
AcDbMText
 62
2
  6
CONTINUOUS
  7
STANDARD
 71
2
 72
1
 10
98.2863979783
 20
3.63202172
 30
0.0
 11
1.0
 21
0.0
 31
0.0
 44
0.9
  1
REV
 40
0.27
 41
1.0221428571
  0
MTEXT
  5
380
100
AcDbEntity
  8
0
100
AcDbMText
 62
2
  6
CONTINUOUS
  7
STANDARD
 71
2
 72
1
 10
91.2489057495
 20
8.9618953025
 30
0.0
 11
1.0
 21
0.0
 31
0.0
 44
0.9
  1
QSC, LLC
 40
0.46875
 41
4.3191964286
  0
MTEXT
  5
381
100
AcDbEntity
  8
0
100
AcDbMText
 62
2
  6
CONTINUOUS
  7
STANDARD
 71
1
 72
1
 10
89.7363972414
 20
8.2628704917
 30
0.0
 11
1.0
 21
0.0
 31
0.0
 44
0.9
  1
1675 MACARTHUR BOULEVARD\PCOSTA MESA, CA  92626
 40
0.375
 41
10.7544642857
  0
MTEXT
  5
382
100
AcDbEntity
  8
0
100
AcDbMText
 62
2
  6
CONTINUOUS
  7
STANDARD
 71
1
 72
1
 10
85.8903254667
 20
2.9888294753
 30
0.0
 11
1.0
 21
0.0
 31
0.0
 44
0.9
  1
00PW4
 40
0.46875
 41
3.2979910714
  0
INSERT
  5
383
100
AcDbEntity
  8
0
100
AcDbBlockReference
 62
7
  6
CONTINUOUS
  2
RD010411_BL0
 10
86.6664608964
 20
8.1033319955
  0
DIMENSION
  5
384
100
AcDbEntity
  8
0
100
AcDbDimension
 62
2
  6
CONTINUOUS
  2
*D0
 10
20.1344078109
 20
57.1482344982
 11
17.5215134327
 21
56.7966719982
 70
160
 71
3
 42
25.4
  3
DIMSTYLE_1
100
AcDbAlignedDimension
 13
19.1344078109
 23
55.6948040393
 14
20.1344078109
 24
56.0851887403
100
AcDbRotatedDimension
  0
DIMENSION
  5
385
100
AcDbEntity
  8
0
100
AcDbDimension
 62
2
  6
CONTINUOUS
  2
*D1
 10
21.1344078109
 20
58.6554521218
 11
20.1344078109
 21
58.3038896218
 70
160
 71
2
 42
50.8
  3
DIMSTYLE_1
100
AcDbAlignedDimension
 13
19.1344078109
 23
55.6948040393
 14
21.1344078109
 24
55.6948040393
100
AcDbRotatedDimension
  0
DIMENSION
  5
386
100
AcDbEntity
  8
0
100
AcDbDimension
 62
2
  6
CONTINUOUS
  2
*D2
 10
23.5851952125
 20
60.4656569015
 11
20.419385933
 21
60.1140944015
 70
160
 71
2
 42
175.3
  3
DIMSTYLE_1
100
AcDbAlignedDimension
 13
16.6836204093
 23
54.8530717559
 14
23.5851952125
 24
54.8530717559
100
AcDbRotatedDimension
  0
DIMENSION
  5
387
100
AcDbEntity
  8
0
100
AcDbDimension
 62
2
  6
CONTINUOUS
  2
*D3
 10
10.8280790537
 20
55.0511032519
 11
9.4002648176
 21
56.2950768394
 70
160
 71
3
 42
23.905
  3
DIMSTYLE_1
100
AcDbAlignedDimension
 13
12.8637385196
 23
54.1099615196
 14
18.8657070235
 24
55.0511032519
 50
90.0
100
AcDbRotatedDimension
  0
DIMENSION
  5
388
100
AcDbEntity
  8
0
100
AcDbDimension
 62
2
  6
CONTINUOUS
  2
*D4
 10
29.7454314478
 20
55.4091741181
 11
31.0311457335
 21
56.5367505023
 70
160
 71
1
 42
33.0
  3
DIMSTYLE_1
100
AcDbAlignedDimension
 13
27.4050771022
 23
54.1099615196
 14
22.1688566298
 24
55.4091741181
 50
90.0
100
AcDbRotatedDimension
  0
DIMENSION
  5
389
100
AcDbEntity
  8
0
100
AcDbDimension
 62
2
  6
CONTINUOUS
  2
*D5
 10
27.2800771022
 20
38.2897393529
 11
20.1344078109
 21
37.9381768529
 70
160
 71
2
 42
363.0
  3
DIMSTYLE_1
100
AcDbAlignedDimension
 13
12.9887385196
 23
36.0959156431
 14
27.2800771022
 24
36.0959156431
100
AcDbRotatedDimension
  0
DIMENSION
  5
38A
100
AcDbEntity
  8
0
100
AcDbDimension
 62
2
  6
CONTINUOUS
  2
*D6
 10
49.4268259565
 20
14.8109422571
 11
51.1455759565
 21
14.4593797571
 70
160
 71
2
 42
87.3125
  3
DIMSTYLE_1
100
AcDbAlignedDimension
 13
52.8643259565
 23
16.3970967455
 14
49.4268259565
 24
26.588996974
 50
180.0
100
AcDbRotatedDimension
  0
DIMENSION
  5
38B
100
AcDbEntity
  8
0
100
AcDbDimension
 62
2
  6
CONTINUOUS
  2
*D7
 10
52.8643259565
 20
12.5087791514
 11
50.5987415218
 21
12.1572166514
 70
160
 71
2
 42
115.0916892844
  3
DIMSTYLE_1
100
AcDbAlignedDimension
 13
48.3331570871
 23
16.3970967455
 14
52.8643259565
 24
16.3970967455
100
AcDbRotatedDimension
  0
DIMENSION
  5
38C
100
AcDbEntity
  8
0
100
AcDbDimension
 62
2
  6
CONTINUOUS
  2
*D8
 10
38.2921141681
 20
27.6584156431
 11
38.2921141681
 21
31.4631031431
 70
160
 71
2
 42
211.1375
  3
DIMSTYLE_1
100
AcDbAlignedDimension
 13
43.5267275314
 23
35.9709156431
 14
48.3253452817
 24
27.6584156431
 50
270.0
100
AcDbRotatedDimension
  0
DIMENSION
  5
38D
100
AcDbEntity
  8
0
100
AcDbDimension
 62
2
  6
CONTINUOUS
  2
*D9
 10
55.9303589274
 20
33.9234746982
 11
55.9303589274
 21
34.8596938661
 70
160
 71
2
 42
52.005
  3
DIMSTYLE_1
100
AcDbAlignedDimension
 13
49.2097983975
 23
35.9709156431
 14
54.288538555
 24
33.9234746982
 50
270.0
100
AcDbRotatedDimension
  0
DIMENSION
  5
38E
100
AcDbEntity
  8
0
100
AcDbDimension
 62
2
  6
CONTINUOUS
  2
*D10
 10
55.9259160393
 20
27.4285928085
 11
55.9259160393
 21
31.0688532172
 70
160
 71
2
 42
164.97
  3
DIMSTYLE_1
100
AcDbAlignedDimension
 13
54.288538555
 23
33.9234746982
 14
53.6074361928
 24
27.4285928085
 50
270.0
100
AcDbRotatedDimension
  0
DIMENSION
  5
38F
100
AcDbEntity
  8
0
100
AcDbDimension
 62
2
  6
CONTINUOUS
  2
*D11
 10
43.1573560455
 20
41.3534122163
 11
48.010841001
 21
41.0018497163
 70
160
 71
2
 42
246.5570357418
  3
DIMSTYLE_1
100
AcDbAlignedDimension
 13
52.8643259565
 23
34.3334929981
 14
43.1573560455
 24
35.9634492027
 50
180.0
100
AcDbRotatedDimension
  0
DIMENSION
  5
390
100
AcDbEntity
  8
0
100
AcDbDimension
 62
2
  6
CONTINUOUS
  2
*D12
 10
35.5239336307
 20
16.5220967455
 11
35.5239336307
 21
25.8949436943
 70
160
 71
2
 42
494.0
  3
DIMSTYLE_1
100
AcDbAlignedDimension
 13
43.5267275314
 23
35.9709156431
 14
48.2081570871
 24
16.5220967455
 50
270.0
100
AcDbRotatedDimension
  0
DIMENSION
  5
391
100
AcDbEntity
  8
0
100
AcDbDimension
 62
2
  6
CONTINUOUS
  2
*D13
 10
49.4233810747
 20
39.191059718
 11
51.1438535156
 21
38.839497218
 70
160
 71
2
 42
87.4
  3
DIMSTYLE_1
100
AcDbAlignedDimension
 13
52.8643259565
 23
34.3334929981
 14
49.4233810747
 24
28.917372336
 50
180.0
100
AcDbRotatedDimension
  0
DIMENSION
  5
392
100
AcDbEntity
  8
0
100
AcDbDimension
 62
2
  6
CONTINUOUS
  2
*D14
 10
41.0073105721
 20
28.2189471392
 11
41.0073105721
 21
31.7433688911
 70
160
 71
2
 42
196.9
  3
DIMSTYLE_1
100
AcDbAlignedDimension
 13
43.5267275314
 23
35.9709156431
 14
48.7249558778
 24
28.2189471392
 50
270.0
100
AcDbRotatedDimension
  0
DIMENSION
  5
393
100
AcDbEntity
  8
0
100
AcDbDimension
 62
2
  6
CONTINUOUS
  2
*D15
 10
75.5552917605
 20
38.7627250145
 11
78.4882370907
 21
38.4111625145
 70
160
 71
1
 42
34.925
  3
DIMSTYLE_2
100
AcDbAlignedDimension
 13
74.1802917605
 23
36.939539332
 14
75.5552917605
 24
33.6035928085
100
AcDbRotatedDimension
  0
DIMENSION
  5
394
100
AcDbEntity
  8
0
100
AcDbDimension
 62
2
  6
CONTINUOUS
  2
*D16
 10
75.5552917605
 20
40.8222601546
 11
78.3167410794
 21
40.4706976546
 70
160
 71
1
 42
69.85
  3
DIMSTYLE_2
100
AcDbAlignedDimension
 13
72.8052917605
 23
33.6035928085
 14
75.5552917605
 24
33.6035928085
100
AcDbRotatedDimension
  0
DIMENSION
  5
395
100
AcDbEntity
  8
0
100
AcDbDimension
 62
2
  6
CONTINUOUS
  2
*D17
 10
84.6254453438
 20
33.0535928085
 11
84.6254453438
 21
34.5575397872
 70
160
 71
2
 42
74.1
  3
DIMSTYLE_1
100
AcDbAlignedDimension
 13
81.4509610518
 23
35.9709156431
 14
76.1052917605
 24
33.0535928085
 50
270.0
100
AcDbRotatedDimension
  0
DIMENSION
  5
396
100
AcDbEntity
  8
0
100
AcDbDimension
 62
2
  6
CONTINUOUS
  2
*D18
 10
84.6254453438
 20
28.0535928085
 11
84.6254453438
 21
30.7122635303
 70
160
 71
2
 42
127.0
  3
DIMSTYLE_3
100
AcDbAlignedDimension
 13
76.1052917605
 23
33.0535928085
 14
76.1052917605
 24
28.0535928085
 50
270.0
100
AcDbRotatedDimension
  0
LWPOLYLINE
  5
397
100
AcDbEntity
  8
0
100
AcDbPolyline
 62
2
  6
CONTINUOUS
 90
2
 70
0
 43
0.06
 10
99.0301046906
 20
64.4981218332
 10
68.7826046906
 20
64.4981218332
  0
LWPOLYLINE
  5
398
100
AcDbEntity
  8
0
100
AcDbPolyline
 62
2
  6
CONTINUOUS
 90
2
 70
0
 43
0.06
 10
99.0001046906
 20
64.4981218332
 10
99.0001046906
 20
60.7481218332
  0
LWPOLYLINE
  5
399
100
AcDbEntity
  8
0
100
AcDbPolyline
 62
2
  6
CONTINUOUS
 90
2
 70
0
 43
0.06
 10
99.0001046906
 20
63.5606218332
 10
68.8126046906
 20
63.5606218332
  0
LWPOLYLINE
  5
39A
100
AcDbEntity
  8
0
100
AcDbPolyline
 62
2
  6
CONTINUOUS
 90
2
 70
0
 43
0.06
 10
99.0001046906
 20
62.6231218332
 10
68.8126046906
 20
62.6231218332
  0
LWPOLYLINE
  5
39B
100
AcDbEntity
  8
0
100
AcDbPolyline
 62
2
  6
CONTINUOUS
 90
2
 70
0
 43
0.06
 10
99.0001046906
 20
61.6856218332
 10
68.8126046906
 20
61.6856218332
  0
LWPOLYLINE
  5
39C
100
AcDbEntity
  8
0
100
AcDbPolyline
 62
2
  6
CONTINUOUS
 90
2
 70
0
 43
0.06
 10
99.0301046906
 20
60.7481218332
 10
68.7826046906
 20
60.7481218332
  0
LWPOLYLINE
  5
39D
100
AcDbEntity
  8
0
100
AcDbPolyline
 62
2
  6
CONTINUOUS
 90
2
 70
0
 43
0.06
 10
96.7501046906
 20
63.5606218332
 10
96.7501046906
 20
60.7481218332
  0
LWPOLYLINE
  5
39E
100
AcDbEntity
  8
0
100
AcDbPolyline
 62
2
  6
CONTINUOUS
 90
2
 70
0
 43
0.06
 10
93.3751046906
 20
63.5606218332
 10
93.3751046906
 20
60.7481218332
  0
LWPOLYLINE
  5
39F
100
AcDbEntity
  8
0
100
AcDbPolyline
 62
2
  6
CONTINUOUS
 90
2
 70
0
 43
0.06
 10
91.8751046906
 20
63.5606218332
 10
91.8751046906
 20
60.7481218332
  0
LWPOLYLINE
  5
3A0
100
AcDbEntity
  8
0
100
AcDbPolyline
 62
2
  6
CONTINUOUS
 90
2
 70
0
 43
0.06
 10
72.7501046906
 20
63.5606218332
 10
72.7501046906
 20
60.7481218332
  0
LWPOLYLINE
  5
3A1
100
AcDbEntity
  8
0
100
AcDbPolyline
 62
2
  6
CONTINUOUS
 90
2
 70
0
 43
0.06
 10
70.3126046906
 20
63.5606218332
 10
70.3126046906
 20
60.7481218332
  0
LWPOLYLINE
  5
3A2
100
AcDbEntity
  8
0
100
AcDbPolyline
 62
2
  6
CONTINUOUS
 90
2
 70
0
 43
0.06
 10
68.8126046906
 20
64.4981218332
 10
68.8126046906
 20
60.7481218332
  0
MTEXT
  5
3A3
100
AcDbEntity
  8
0
100
AcDbMText
 62
2
  6
CONTINUOUS
  7
STANDARD
 71
2
 72
1
 10
83.9063546906
 20
64.2637468332
 30
0.0
 11
1.0
 21
0.0
 31
0.0
 44
0.9
  1
REVISIONS
 40
0.46875
 41
4.7544642857
  0
MTEXT
  5
3A4
100
AcDbEntity
  8
0
100
AcDbMText
 62
2
  6
CONTINUOUS
  7
STANDARD
 71
2
 72
1
 10
97.8751046906
 20
63.3258718332
 30
0.0
 11
1.0
 21
0.0
 31
0.0
 44
0.9
  1
ISSUED
 40
0.468
 41
3.2425714286
  0
MTEXT
  5
3A5
100
AcDbEntity
  8
0
100
AcDbMText
 62
2
  6
CONTINUOUS
  7
STANDARD
 71
2
 72
1
 10
95.0626046906
 20
63.3258718332
 30
0.0
 11
1.0
 21
0.0
 31
0.0
 44
0.9
  1
EFF DATE
 40
0.468
 41
4.3958571429
  0
MTEXT
  5
3A6
100
AcDbEntity
  8
0
100
AcDbMText
 62
2
  6
CONTINUOUS
  7
STANDARD
 71
2
 72
1
 10
92.6251046906
 20
63.3262468332
 30
0.0
 11
1.0
 21
0.0
 31
0.0
 44
0.9
  1
BY
 40
0.46875
 41
1.1551339286
  0
MTEXT
  5
3A7
100
AcDbEntity
  8
0
100
AcDbMText
 62
2
  6
CONTINUOUS
  7
STANDARD
 71
2
 72
1
 10
82.3126046906
 20
63.3258718332
 30
0.0
 11
1.0
 21
0.0
 31
0.0
 44
0.9
  1
DESCRIPTION
 40
0.468
 41
5.9837142857
  0
MTEXT
  5
3A8
100
AcDbEntity
  8
0
100
AcDbMText
 62
2
  6
CONTINUOUS
  7
STANDARD
 71
2
 72
1
 10
71.5313546906
 20
63.3262468332
 30
0.0
 11
1.0
 21
0.0
 31
0.0
 44
0.9
  1
ECO
 40
0.46875
 41
1.640625
  0
MTEXT
  5
3A9
100
AcDbEntity
  8
0
100
AcDbMText
 62
2
  6
CONTINUOUS
  7
STANDARD
 71
2
 72
1
 10
69.5626046906
 20
63.3258718332
 30
0.0
 11
1.0
 21
0.0
 31
0.0
 44
0.9
  1
REV
 40
0.468
 41
1.638
  0
MTEXT
  5
3AA
100
AcDbEntity
  8
0
100
AcDbMText
 62
2
  6
CONTINUOUS
  7
STANDARD
 71
2
 72
1
 10
97.8751046906
 20
62.3887468332
 30
0.0
 11
1.0
 21
0.0
 31
0.0
 44
0.9
  1
DD
 40
0.46875
 41
1.40625
  0
MTEXT
  5
3AB
100
AcDbEntity
  8
0
100
AcDbMText
 62
2
  6
CONTINUOUS
  7
STANDARD
 71
2
 72
1
 10
95.0626046906
 20
62.3887468332
 30
0.0
 11
1.0
 21
0.0
 31
0.0
 44
0.9
  1
14-AUG-12
 40
0.46875
 41
4.7544642857
  0
MTEXT
  5
3AC
100
AcDbEntity
  8
0
100
AcDbMText
 62
2
  6
CONTINUOUS
  7
STANDARD
 71
2
 72
1
 10
92.6251046906
 20
62.3887468332
 30
0.0
 11
1.0
 21
0.0
 31
0.0
 44
0.9
  1
VU
 40
0.46875
 41
1.2723214286
  0
MTEXT
  5
3AD
100
AcDbEntity
  8
0
100
AcDbMText
 62
2
  6
CONTINUOUS
  7
STANDARD
 71
1
 72
1
 10
72.9376046906
 20
62.3887468332
 30
0.0
 11
1.0
 21
0.0
 31
0.0
 44
0.9
  1
RELEASE FOR MARKETING DATA
 40
0.46875
 41
14.4810267857
  0
MTEXT
  5
3AE
100
AcDbEntity
  8
0
100
AcDbMText
 62
2
  6
CONTINUOUS
  7
STANDARD
 71
2
 72
1
 10
71.5313546906
 20
62.3887468332
 30
0.0
 11
1.0
 21
0.0
 31
0.0
 44
0.9
  1
-
 40
0.46875
 41
0.6361607143
  0
MTEXT
  5
3AF
100
AcDbEntity
  8
0
100
AcDbMText
 62
2
  6
CONTINUOUS
  7
STANDARD
 71
2
 72
1
 10
69.5626046906
 20
62.3887468332
 30
0.0
 11
1.0
 21
0.0
 31
0.0
 44
0.9
  1
A
 40
0.46875
 41
0.7366071429
  0
MTEXT
  5
3B0
100
AcDbEntity
  8
0
100
AcDbMText
 62
2
  6
CONTINUOUS
  7
STANDARD
 71
2
 72
1
 10
97.8751046906
 20
61.4512468332
 30
0.0
 11
1.0
 21
0.0
 31
0.0
 44
0.9
  1
DD
 40
0.46875
 41
1.40625
  0
MTEXT
  5
3B1
100
AcDbEntity
  8
0
100
AcDbMText
 62
2
  6
CONTINUOUS
  7
STANDARD
 71
2
 72
1
 10
95.0626046906
 20
61.4512468332
 30
0.0
 11
1.0
 21
0.0
 31
0.0
 44
0.9
  1
16-SEP-13
 40
0.46875
 41
4.6037946429
  0
MTEXT
  5
3B2
100
AcDbEntity
  8
0
100
AcDbMText
 62
2
  6
CONTINUOUS
  7
STANDARD
 71
2
 72
1
 10
92.6251046906
 20
61.4512468332
 30
0.0
 11
1.0
 21
0.0
 31
0.0
 44
0.9
  1
VU
 40
0.46875
 41
1.2723214286
  0
MTEXT
  5
3B3
100
AcDbEntity
  8
0
100
AcDbMText
 62
2
  6
CONTINUOUS
  7
STANDARD
 71
1
 72
1
 10
72.9376046906
 20
61.4512468332
 30
0.0
 11
1.0
 21
0.0
 31
0.0
 44
0.9
  1
ADD MOUNTING INFORMATION
 40
0.46875
 41
13.5100446429
  0
MTEXT
  5
3B4
100
AcDbEntity
  8
0
100
AcDbMText
 62
2
  6
CONTINUOUS
  7
STANDARD
 71
2
 72
1
 10
71.5313546906
 20
61.4512468332
 30
0.0
 11
1.0
 21
0.0
 31
0.0
 44
0.9
  1
13080
 40
0.46875
 41
2.6953125
  0
MTEXT
  5
3B5
100
AcDbEntity
  8
0
100
AcDbMText
 62
2
  6
CONTINUOUS
  7
STANDARD
 71
2
 72
1
 10
69.5626046906
 20
61.4512468332
 30
0.0
 11
1.0
 21
0.0
 31
0.0
 44
0.9
  1
B
 40
0.46875
 41
0.6863839286
  0
LINE
  5
3B6
100
AcDbEntity
  8
0
100
AcDbLine
 62
2
  6
CONTINUOUS
 10
69.375
 20
5.25
 11
76.125
 21
5.25
  0
LINE
  5
3B7
100
AcDbEntity
  8
0
100
AcDbLine
 62
2
  6
CONTINUOUS
 10
69.375
 20
5.25
 11
69.375
 21
3.375
  0
LINE
  5
3B8
100
AcDbEntity
  8
0
100
AcDbLine
 62
2
  6
CONTINUOUS
 10
69.375
 20
3.375
 11
76.125
 21
3.375
  0
LINE
  5
3B9
100
AcDbEntity
  8
0
100
AcDbLine
 62
2
  6
CONTINUOUS
 10
76.125
 20
5.25
 11
76.125
 21
3.375
  0
LINE
  5
3BA
100
AcDbEntity
  8
0
100
AcDbLine
 62
2
  6
CONTINUOUS
 10
69.375
 20
3.375
 11
76.125
 21
3.375
  0
LINE
  5
3BB
100
AcDbEntity
  8
0
100
AcDbLine
 62
2
  6
CONTINUOUS
 10
69.375
 20
3.375
 11
69.375
 21
1.5
  0
LINE
  5
3BC
100
AcDbEntity
  8
0
100
AcDbLine
 62
2
  6
CONTINUOUS
 10
69.375
 20
1.5
 11
76.125
 21
1.5
  0
LINE
  5
3BD
100
AcDbEntity
  8
0
100
AcDbLine
 62
2
  6
CONTINUOUS
 10
76.125
 20
3.375
 11
76.125
 21
1.5
  0
LINE
  5
3BE
100
AcDbEntity
  8
0
100
AcDbLine
 62
2
  6
CONTINUOUS
 10
76.125
 20
8.25
 11
81.375
 21
8.25
  0
LINE
  5
3BF
100
AcDbEntity
  8
0
100
AcDbLine
 62
2
  6
CONTINUOUS
 10
76.125
 20
8.25
 11
76.125
 21
6.9609375
  0
LINE
  5
3C0
100
AcDbEntity
  8
0
100
AcDbLine
 62
2
  6
CONTINUOUS
 10
76.125
 20
6.9609375
 11
81.375
 21
6.9609375
  0
LINE
  5
3C1
100
AcDbEntity
  8
0
100
AcDbLine
 62
2
  6
CONTINUOUS
 10
81.375
 20
8.25
 11
81.375
 21
6.9609375
  0
MTEXT
  5
3C2
100
AcDbEntity
  8
0
100
AcDbMText
 62
2
  6
CONTINUOUS
  7
STANDARD
 71
1
 72
1
 10
76.3125
 20
7.6640625
 30
0.0
 11
1.0
 21
0.0
 31
0.0
 44
0.9
  1
V. VU 
 40
0.46875
 41
3.2310267857
  0
LINE
  5
3C3
100
AcDbEntity
  8
0
100
AcDbLine
 62
2
  6
CONTINUOUS
 10
76.125
 20
6.9375
 11
81.375
 21
6.9375
  0
LINE
  5
3C4
100
AcDbEntity
  8
0
100
AcDbLine
 62
2
  6
CONTINUOUS
 10
76.125
 20
6.9375
 11
76.125
 21
5.6175
  0
LINE
  5
3C5
100
AcDbEntity
  8
0
100
AcDbLine
 62
2
  6
CONTINUOUS
 10
76.125
 20
5.6175
 11
81.375
 21
5.6175
  0
LINE
  5
3C6
100
AcDbEntity
  8
0
100
AcDbLine
 62
2
  6
CONTINUOUS
 10
81.375
 20
6.9375
 11
81.375
 21
5.6175
  0
MTEXT
  5
3C7
100
AcDbEntity
  8
0
100
AcDbMText
 62
2
  6
CONTINUOUS
  7
STANDARD
 71
1
 72
1
 10
76.3125
 20
6.320625
 30
0.0
 11
1.0
 21
0.0
 31
0.0
 44
0.9
  1
B. HAWKINS 
 40
0.46875
 41
6.2779017857
  0
LINE
  5
3C8
100
AcDbEntity
  8
0
100
AcDbLine
 62
2
  6
CONTINUOUS
 10
76.125
 20
5.625
 11
81.375
 21
5.625
  0
LINE
  5
3C9
100
AcDbEntity
  8
0
100
AcDbLine
 62
2
  6
CONTINUOUS
 10
76.125
 20
5.625
 11
76.125
 21
4.3359375
  0
LINE
  5
3CA
100
AcDbEntity
  8
0
100
AcDbLine
 62
2
  6
CONTINUOUS
 10
76.125
 20
4.3359375
 11
81.375
 21
4.3359375
  0
LINE
  5
3CB
100
AcDbEntity
  8
0
100
AcDbLine
 62
2
  6
CONTINUOUS
 10
81.375
 20
5.625
 11
81.375
 21
4.3359375
  0
MTEXT
  5
3CC
100
AcDbEntity
  8
0
100
AcDbMText
 62
2
  6
CONTINUOUS
  7
STANDARD
 71
1
 72
1
 10
76.3125
 20
5.0390625
 30
0.0
 11
1.0
 21
0.0
 31
0.0
 44
0.9
  1
N/A
 40
0.46875
 41
1.6908482143
  0
LINE
  5
3CD
100
AcDbEntity
  8
0
100
AcDbLine
 62
2
  6
CONTINUOUS
 10
76.125
 20
4.3125
 11
81.375
 21
4.3125
  0
LINE
  5
3CE
100
AcDbEntity
  8
0
100
AcDbLine
 62
2
  6
CONTINUOUS
 10
76.125
 20
4.3125
 11
76.125
 21
2.9925
  0
LINE
  5
3CF
100
AcDbEntity
  8
0
100
AcDbLine
 62
2
  6
CONTINUOUS
 10
76.125
 20
2.9925
 11
81.375
 21
2.9925
  0
LINE
  5
3D0
100
AcDbEntity
  8
0
100
AcDbLine
 62
2
  6
CONTINUOUS
 10
81.375
 20
4.3125
 11
81.375
 21
2.9925
  0
MTEXT
  5
3D1
100
AcDbEntity
  8
0
100
AcDbMText
 62
2
  6
CONTINUOUS
  7
STANDARD
 71
1
 72
1
 10
76.3125
 20
3.695625
 30
0.0
 11
1.0
 21
0.0
 31
0.0
 44
0.9
  1
N/A
 40
0.46875
 41
1.6908482143
  0
LINE
  5
3D2
100
AcDbEntity
  8
0
100
AcDbLine
 62
2
  6
CONTINUOUS
 10
81.375
 20
8.25
 11
84.0
 21
8.25
  0
LINE
  5
3D3
100
AcDbEntity
  8
0
100
AcDbLine
 62
2
  6
CONTINUOUS
 10
81.375
 20
8.25
 11
81.375
 21
6.93
  0
LINE
  5
3D4
100
AcDbEntity
  8
0
100
AcDbLine
 62
2
  6
CONTINUOUS
 10
81.375
 20
6.93
 11
84.0
 21
6.93
  0
LINE
  5
3D5
100
AcDbEntity
  8
0
100
AcDbLine
 62
2
  6
CONTINUOUS
 10
84.0
 20
8.25
 11
84.0
 21
6.93
  0
MTEXT
  5
3D6
100
AcDbEntity
  8
0
100
AcDbMText
 62
2
  6
CONTINUOUS
  7
STANDARD
 71
2
 72
1
 10
82.6875
 20
7.524375
 30
0.0
 11
1.0
 21
0.0
 31
0.0
 44
0.9
  1
06-AUG-12
 40
0.36
 41
3.6642857143
  0
LINE
  5
3D7
100
AcDbEntity
  8
0
100
AcDbLine
 62
2
  6
CONTINUOUS
 10
81.375
 20
6.9375
 11
84.0
 21
6.9375
  0
LINE
  5
3D8
100
AcDbEntity
  8
0
100
AcDbLine
 62
2
  6
CONTINUOUS
 10
81.375
 20
6.9375
 11
81.375
 21
5.6175
  0
LINE
  5
3D9
100
AcDbEntity
  8
0
100
AcDbLine
 62
2
  6
CONTINUOUS
 10
81.375
 20
5.6175
 11
84.0
 21
5.6175
  0
LINE
  5
3DA
100
AcDbEntity
  8
0
100
AcDbLine
 62
2
  6
CONTINUOUS
 10
84.0
 20
6.9375
 11
84.0
 21
5.6175
  0
MTEXT
  5
3DB
100
AcDbEntity
  8
0
100
AcDbMText
 62
2
  6
CONTINUOUS
  7
STANDARD
 71
2
 72
1
 10
82.6875
 20
6.211875
 30
0.0
 11
1.0
 21
0.0
 31
0.0
 44
0.9
  1
14-AUG-12
 40
0.36
 41
3.5485714286
  0
LINE
  5
3DC
100
AcDbEntity
  8
0
100
AcDbLine
 62
2
  6
CONTINUOUS
 10
81.375
 20
5.625
 11
84.0
 21
5.625
  0
LINE
  5
3DD
100
AcDbEntity
  8
0
100
AcDbLine
 62
2
  6
CONTINUOUS
 10
81.375
 20
5.625
 11
81.375
 21
4.305
  0
LINE
  5
3DE
100
AcDbEntity
  8
0
100
AcDbLine
 62
2
  6
CONTINUOUS
 10
81.375
 20
4.305
 11
84.0
 21
4.305
  0
LINE
  5
3DF
100
AcDbEntity
  8
0
100
AcDbLine
 62
2
  6
CONTINUOUS
 10
84.0
 20
5.625
 11
84.0
 21
4.305
  0
LINE
  5
3E0
100
AcDbEntity
  8
0
100
AcDbLine
 62
2
  6
CONTINUOUS
 10
81.375
 20
4.3125
 11
84.0
 21
4.3125
  0
LINE
  5
3E1
100
AcDbEntity
  8
0
100
AcDbLine
 62
2
  6
CONTINUOUS
 10
81.375
 20
4.3125
 11
81.375
 21
3.0234375
  0
LINE
  5
3E2
100
AcDbEntity
  8
0
100
AcDbLine
 62
2
  6
CONTINUOUS
 10
81.375
 20
3.0234375
 11
84.0
 21
3.0234375
  0
LINE
  5
3E3
100
AcDbEntity
  8
0
100
AcDbLine
 62
2
  6
CONTINUOUS
 10
84.0
 20
4.3125
 11
84.0
 21
3.0234375
  0
LINE
  5
3E4
100
AcDbEntity
  8
0
100
AcDbLine
 62
2
  6
CONTINUOUS
 10
76.125
 20
3.0
 11
84.0
 21
3.0
  0
LINE
  5
3E5
100
AcDbEntity
  8
0
100
AcDbLine
 62
2
  6
CONTINUOUS
 10
76.125
 20
3.0
 11
76.125
 21
2.25
  0
LINE
  5
3E6
100
AcDbEntity
  8
0
100
AcDbLine
 62
2
  6
CONTINUOUS
 10
76.125
 20
2.25
 11
84.0
 21
2.25
  0
LINE
  5
3E7
100
AcDbEntity
  8
0
100
AcDbLine
 62
2
  6
CONTINUOUS
 10
84.0
 20
3.0
 11
84.0
 21
2.25
  0
MTEXT
  5
3E8
100
AcDbEntity
  8
0
100
AcDbMText
 62
2
  6
CONTINUOUS
  7
STANDARD
 71
3
 72
1
 10
83.8125
 20
2.814375
 30
0.0
 11
1.0
 21
0.0
 31
0.0
 44
0.9
  1
FG-008200-2D.B.1
 40
0.33
 41
5.8575
  0
LINE
  5
3E9
100
AcDbEntity
  8
0
100
AcDbLine
 62
2
  6
CONTINUOUS
 10
76.125
 20
2.25
 11
84.0
 21
2.25
  0
LINE
  5
3EA
100
AcDbEntity
  8
0
100
AcDbLine
 62
2
  6
CONTINUOUS
 10
76.125
 20
2.25
 11
76.125
 21
1.5
  0
LINE
  5
3EB
100
AcDbEntity
  8
0
100
AcDbLine
 62
2
  6
CONTINUOUS
 10
76.125
 20
1.5
 11
84.0
 21
1.5
  0
LINE
  5
3EC
100
AcDbEntity
  8
0
100
AcDbLine
 62
2
  6
CONTINUOUS
 10
84.0
 20
2.25
 11
84.0
 21
1.5
  0
MTEXT
  5
3ED
100
AcDbEntity
  8
0
100
AcDbMText
 62
2
  6
CONTINUOUS
  7
STANDARD
 71
3
 72
1
 10
83.8125
 20
2.064375
 30
0.0
 11
1.0
 21
0.0
 31
0.0
 44
0.9
  1
FG-008200-3D.B.0
 40
0.33
 41
5.9282142857
  0
LINE
  5
3EE
100
AcDbEntity
  8
0
100
AcDbLine
 62
2
  6
CONTINUOUS
 10
84.0
 20
7.125
 11
99.0
 21
7.125
  0
LINE
  5
3EF
100
AcDbEntity
  8
0
100
AcDbLine
 62
2
  6
CONTINUOUS
 10
84.0
 20
7.125
 11
84.0
 21
3.75
  0
LINE
  5
3F0
100
AcDbEntity
  8
0
100
AcDbLine
 62
2
  6
CONTINUOUS
 10
84.0
 20
3.75
 11
99.0
 21
3.75
  0
LINE
  5
3F1
100
AcDbEntity
  8
0
100
AcDbLine
 62
2
  6
CONTINUOUS
 10
99.0
 20
7.125
 11
99.0
 21
3.75
  0
MTEXT
  5
3F2
100
AcDbEntity
  8
0
100
AcDbMText
 62
2
  6
CONTINUOUS
  7
STANDARD
 71
2
 72
1
 10
91.5
 20
6.7575
 30
0.0
 11
1.0
 21
0.0
 31
0.0
 44
1.02
  1
SPEAKER, FINISHED, SR-8200\P \P 
 40
0.6
 41
17.5928571429
  0
LINE
  5
3F3
100
AcDbEntity
  8
0
100
AcDbLine
 62
2
  6
CONTINUOUS
 10
84.0032769088
 20
3.7438214025
 11
85.5032769088
 21
3.7438214025
  0
LINE
  5
3F4
100
AcDbEntity
  8
0
100
AcDbLine
 62
2
  6
CONTINUOUS
 10
84.0032769088
 20
3.7438214025
 11
84.0032769088
 21
2.2438214025
  0
LINE
  5
3F5
100
AcDbEntity
  8
0
100
AcDbLine
 62
2
  6
CONTINUOUS
 10
84.0032769088
 20
2.2438214025
 11
85.5032769088
 21
2.2438214025
  0
LINE
  5
3F6
100
AcDbEntity
  8
0
100
AcDbLine
 62
2
  6
CONTINUOUS
 10
85.5032769088
 20
3.7438214025
 11
85.5032769088
 21
2.2438214025
  0
MTEXT
  5
3F7
100
AcDbEntity
  8
0
100
AcDbMText
 62
2
  6
CONTINUOUS
  7
STANDARD
 71
2
 72
1
 10
84.7532769088
 20
3.0781964025
 30
0.0
 11
1.0
 21
0.0
 31
0.0
 44
0.9
  1
D
 40
0.6
 41
0.8142857143
  0
LINE
  5
3F8
100
AcDbEntity
  8
0
100
AcDbLine
 62
2
  6
CONTINUOUS
 10
88.5015524928
 20
3.7349237674
 11
97.5015524928
 21
3.7349237674
  0
LINE
  5
3F9
100
AcDbEntity
  8
0
100
AcDbLine
 62
2
  6
CONTINUOUS
 10
88.5015524928
 20
3.7349237674
 11
88.5015524928
 21
2.2349237674
  0
LINE
  5
3FA
100
AcDbEntity
  8
0
100
AcDbLine
 62
2
  6
CONTINUOUS
 10
88.5015524928
 20
2.2349237674
 11
97.5015524928
 21
2.2349237674
  0
LINE
  5
3FB
100
AcDbEntity
  8
0
100
AcDbLine
 62
2
  6
CONTINUOUS
 10
97.5015524928
 20
3.7349237674
 11
97.5015524928
 21
2.2349237674
  0
MTEXT
  5
3FC
100
AcDbEntity
  8
0
100
AcDbMText
 62
2
  6
CONTINUOUS
  7
STANDARD
 71
2
 72
1
 10
93.0015524928
 20
3.1592987674
 30
0.0
 11
1.0
 21
0.0
 31
0.0
 44
0.9
  1
FG-008200-2D
 40
0.69
 41
9.66
  0
LINE
  5
3FD
100
AcDbEntity
  8
0
100
AcDbLine
 62
2
  6
CONTINUOUS
 10
97.4960996888
 20
3.7448634679
 11
98.9960996888
 21
3.7448634679
  0
LINE
  5
3FE
100
AcDbEntity
  8
0
100
AcDbLine
 62
2
  6
CONTINUOUS
 10
97.4960996888
 20
3.7448634679
 11
97.4960996888
 21
2.2448634679
  0
LINE
  5
3FF
100
AcDbEntity
  8
0
100
AcDbLine
 62
2
  6
CONTINUOUS
 10
97.4960996888
 20
2.2448634679
 11
98.9960996888
 21
2.2448634679
  0
LINE
  5
400
100
AcDbEntity
  8
0
100
AcDbLine
 62
2
  6
CONTINUOUS
 10
98.9960996888
 20
3.7448634679
 11
98.9960996888
 21
2.2448634679
  0
MTEXT
  5
401
100
AcDbEntity
  8
0
100
AcDbMText
 62
2
  6
CONTINUOUS
  7
STANDARD
 71
2
 72
1
 10
98.2460996888
 20
3.0192384679
 30
0.0
 11
1.0
 21
0.0
 31
0.0
 44
0.9
  1
B
 40
0.54
 41
0.6364285714
  0
LINE
  5
402
100
AcDbEntity
  8
0
100
AcDbLine
 62
2
  6
CONTINUOUS
 10
94.1268618581
 20
2.2287866509
 11
99.0018618581
 21
2.2287866509
  0
LINE
  5
403
100
AcDbEntity
  8
0
100
AcDbLine
 62
2
  6
CONTINUOUS
 10
94.1268618581
 20
2.2287866509
 11
94.1268618581
 21
1.4787866509
  0
LINE
  5
404
100
AcDbEntity
  8
0
100
AcDbLine
 62
2
  6
CONTINUOUS
 10
94.1268618581
 20
1.4787866509
 11
99.0018618581
 21
1.4787866509
  0
LINE
  5
405
100
AcDbEntity
  8
0
100
AcDbLine
 62
2
  6
CONTINUOUS
 10
99.0018618581
 20
2.2287866509
 11
99.0018618581
 21
1.4787866509
  0
MTEXT
  5
406
100
AcDbEntity
  8
0
100
AcDbMText
 62
2
  6
CONTINUOUS
  7
STANDARD
 71
3
 72
1
 10
98.8143618581
 20
2.1331616509
 30
0.0
 11
1.0
 21
0.0
 31
0.0
 44
0.9
  1
1 OF 1
 40
0.42
 41
2.655
  0
LINE
  5
407
100
AcDbEntity
  8
0
100
AcDbLine
 62
2
  6
CONTINUOUS
 10
83.9947794363
 20
2.2464696507
 11
87.5587794363
 21
2.2464696507
  0
LINE
  5
408
100
AcDbEntity
  8
0
100
AcDbLine
 62
2
  6
CONTINUOUS
 10
83.9947794363
 20
2.2464696507
 11
83.9947794363
 21
1.4847509007
  0
LINE
  5
409
100
AcDbEntity
  8
0
100
AcDbLine
 62
2
  6
CONTINUOUS
 10
83.9947794363
 20
1.4847509007
 11
87.5587794363
 21
1.4847509007
  0
LINE
  5
40A
100
AcDbEntity
  8
0
100
AcDbLine
 62
2
  6
CONTINUOUS
 10
87.5587794363
 20
2.2464696507
 11
87.5587794363
 21
1.4847509007
  0
MTEXT
  5
40B
100
AcDbEntity
  8
0
100
AcDbMText
 62
2
  6
CONTINUOUS
  7
STANDARD
 71
3
 72
1
 10
87.3712794363
 20
2.0791259007
 30
0.0
 11
1.0
 21
0.0
 31
0.0
 44
0.9
  1
0.333
 40
0.36
 41
1.89
  0
MTEXT
  5
40C
100
AcDbEntity
  8
0
100
AcDbMText
 62
2
  6
CONTINUOUS
  7
STANDARD
 71
1
 72
1
 10
3.0314758339
 20
7.4248899474
 30
0.0
 11
1.0
 21
0.0
 31
0.0
 44
1.2
  3
5. PARTS ARE SYMMETRICAL ABOUT CENTER LINES UNLESS OTHERWISE NOTED.\P4. SYMBOL    INDICATES CENTER OF BALANCE.\P3. SYMBOL \Fgdt;{\Fgdt;r}\Ftxt; INDICATES SUSPENSION POINT OF 5/16-18 THREAD, 2 PLACES. \P2. TOLERANCES ARE IN INCHES: .X \Fgdt;{\Fgdt;`}\
  1
Ftxt; .13, ANGLES: \Fgdt;{\Fgdt;`}\Ftxt; 1\Fgdt;{\Fgdt;~}\Ftxt;.\P1. NET WEIGHT APPROX. 24.6 LBS (11.2 KG).\PNOTE:  UNLESS OTHERWISE SPECIFIED
 40
0.46875
 41
37.1651785714
  0
LEADER
  5
40D
100
AcDbEntity
  8
0
100
AcDbLeader
 62
2
  6
CONTINUOUS
  3
STANDARD
 71
1
 72
0
 73
0
 75
0
 40
0.46875
 41
12.7120535714
 76
3
 10
22.0438566298
 20
55.4001051843
 30
0.0
 10
25.5890947767
 20
58.7988149936
 30
0.0
 10
26.3390947767
 20
58.7988149936
 30
0.0
340
40E
1001
ACAD
1000
DSTYLE
1002
{
1070
77
1070
0
1002
}
  0
MTEXT
  5
40E
102
{ACAD_REACTORS
330
40D
102
}
100
AcDbEntity
  8
0
100
AcDbMText
 62
2
  6
CONTINUOUS
  7
STANDARD
 71
1
 72
1
 10
26.3390947767
 20
59.0331899936
 30
0.0
 11
1.0
 21
0.0
 31
0.0
 44
0.9
  1
REMOVE BRACKET FOR CUSTOM MOUNTING
 40
0.46875
 41
19.0680803571
  0
LEADER
  5
40F
100
AcDbEntity
  8
0
100
AcDbLeader
 62
2
  6
CONTINUOUS
  3
STANDARD
 71
1
 72
0
 73
0
 75
0
 40
0.46875
 41
4.8325892857
 76
3
 10
49.1991564596
 20
28.5974536891
 30
0.0
 10
43.9378536289
 20
38.6553147383
 30
0.0
 10
41.2519284539
 20
38.6553147383
 30
0.0
340
410
1001
ACAD
1000
DSTYLE
1002
{
1070
77
1070
0
1002
}
  0
MTEXT
  5
410
102
{ACAD_REACTORS
330
40F
102
}
100
AcDbEntity
  8
0
100
AcDbMText
 62
2
  6
CONTINUOUS
  7
STANDARD
 71
3
 72
1
 10
41.2519284539
 20
38.8896897383
 30
0.0
 11
1.0
 21
0.0
 31
0.0
 44
0.9
  1
SIDE MOUNTING\PUSES 5/16-18 FASTENER
 40
0.46875
 41
11.0825892857
  0
LEADER
  5
411
100
AcDbEntity
  8
0
100
AcDbLeader
 62
2
  6
CONTINUOUS
  3
STANDARD
 71
1
 72
0
 73
0
 75
0
 40
0.46875
 41
4.9330357143
 76
3
 10
75.6604695446
 20
27.9861705776
 30
0.0
 10
83.1724577317
 20
23.5640126209
 30
0.0
 10
83.9224577317
 20
23.5640126209
 30
0.0
340
412
1001
ACAD
1000
DSTYLE
1002
{
1070
77
1070
0
1002
}
  0
MTEXT
  5
412
102
{ACAD_REACTORS
330
411
102
}
100
AcDbEntity
  8
0
100
AcDbMText
 62
2
  6
CONTINUOUS
  7
STANDARD
 71
1
 72
1
 10
83.9224577317
 20
23.7983876209
 30
0.0
 11
1.0
 21
0.0
 31
0.0
 44
0.9
  1
BACK MOUNTING\PUSES M5 FASTENER
 40
0.46875
 41
8.7388392857
  0
INSERT
  5
413
100
AcDbEntity
  8
0
100
AcDbBlockReference
 62
2
  6
CONTINUOUS
  2
CG_3D_BL1
 10
6.9975450281
 20
6.2323746141
  0
INSERT
  5
414
100
AcDbEntity
  8
0
100
AcDbBlockReference
 62
2
  6
CONTINUOUS
  2
CG_3D_BL2
 10
20.1352829292
 20
27.6564177222
  0
INSERT
  5
415
100
AcDbEntity
  8
0
100
AcDbBlockReference
 62
2
  6
CONTINUOUS
  2
CG_3D_BL3
 10
49.4228218194
 20
27.6587708618
  0
LINE
  5
416
100
AcDbEntity
  8
DEFAULT_3
100
AcDbLine
 62
7
  6
PHANTOM
 10
0.0
 20
-0.0
 11
0.0
 21
66.0
  0
LWPOLYLINE
  5
417
100
AcDbEntity
  8
0
100
AcDbPolyline
 62
7
  6
CONTINUOUS
 90
2
 70
0
 43
0.0600000025
 10
0.7873881664
 20
32.494035332
 10
0.7873881664
 20
33.505964668
  0
LWPOLYLINE
  5
418
100
AcDbEntity
  8
0
100
AcDbPolyline
 62
7
  6
CONTINUOUS
 90
2
 70
0
 43
0.0900000007
 10
1.5
 20
64.5
 10
1.5
 20
1.5
  0
LWPOLYLINE
  5
419
100
AcDbEntity
  8
0
100
AcDbPolyline
 62
7
  6
CONTINUOUS
 90
2
 70
0
 43
0.0900000007
 10
10.6875
 20
64.5
 10
10.6875
 20
63.0
  0
LWPOLYLINE
  5
41A
100
AcDbEntity
  8
0
100
AcDbPolyline
 62
7
  6
CONTINUOUS
 90
2
 70
0
 43
0.0600000025
 10
13.6875
 20
1.5
 10
13.6875
 20
-0.0
  0
LWPOLYLINE
  5
41B
100
AcDbEntity
  8
0
100
AcDbPolyline
 62
7
  6
CONTINUOUS
 90
2
 70
0
 43
0.0600000025
 10
13.6875
 20
64.5
 10
13.6875
 20
66.0
  0
LINE
  5
41C
100
AcDbEntity
  8
0
100
AcDbLine
 62
7
  6
CONTINUOUS
 10
69.3735093036
 20
1.5009171649
 11
76.1247296715
 21
3.3743232379
  0
LINE
  5
41D
100
AcDbEntity
  8
0
100
AcDbLine
 62
7
  6
CONTINUOUS
 10
69.3753431982
 20
3.375225513
 11
76.1240711423
 21
5.2510213125
  0
LINE
  5
41E
100
AcDbEntity
  8
DEFAULT_3
100
AcDbLine
 62
7
  6
PHANTOM
 10
0.0
 20
-0.0
 11
102.0
 21
-0.0
  0
LWPOLYLINE
  5
41F
100
AcDbEntity
  8
0
100
AcDbPolyline
 62
7
  6
CONTINUOUS
 90
2
 70
0
 43
0.0600000025
 10
49.744035332
 20
0.7873881664
 10
50.755964668
 20
0.7873881664
  0
LWPOLYLINE
  5
420
100
AcDbEntity
  8
0
100
AcDbPolyline
 62
7
  6
CONTINUOUS
 90
2
 70
0
 43
0.0600000025
 10
1.5
 20
33.0
 10
0.7873881664
 20
32.494035332
  0
LWPOLYLINE
  5
421
100
AcDbEntity
  8
0
100
AcDbPolyline
 62
7
  6
CONTINUOUS
 90
2
 70
0
 43
0.0900000007
 10
1.5
 20
1.5
 10
99.0
 20
1.5
  0
LWPOLYLINE
  5
422
100
AcDbEntity
  8
0
100
AcDbPolyline
 62
7
  6
CONTINUOUS
 90
2
 70
0
 43
0.0600000025
 10
76.125
 20
2.25
 10
99.0
 20
2.25
  0
LWPOLYLINE
  5
423
100
AcDbEntity
  8
0
100
AcDbPolyline
 62
7
  6
CONTINUOUS
 90
2
 70
0
 43
0.0600000025
 10
76.125
 20
3.0
 10
84.0
 20
3.0
  0
LWPOLYLINE
  5
424
100
AcDbEntity
  8
0
100
AcDbPolyline
 62
7
  6
CONTINUOUS
 90
2
 70
0
 43
0.0600000025
 10
76.125
 20
3.375
 10
69.375
 20
3.375
  0
LWPOLYLINE
  5
425
100
AcDbEntity
  8
0
100
AcDbPolyline
 62
7
  6
CONTINUOUS
 90
2
 70
0
 43
0.0600000025
 10
84.0
 20
3.75
 10
99.0
 20
3.75
  0
LWPOLYLINE
  5
426
100
AcDbEntity
  8
0
100
AcDbPolyline
 62
7
  6
CONTINUOUS
 90
2
 70
0
 43
0.0600000025
 10
76.125
 20
4.3125
 10
84.0
 20
4.3125
  0
LWPOLYLINE
  5
427
100
AcDbEntity
  8
0
100
AcDbPolyline
 62
7
  6
CONTINUOUS
 90
2
 70
0
 43
0.0600000025
 10
1.5
 20
33.0
 10
0.7873881664
 20
33.505964668
  0
LWPOLYLINE
  5
428
100
AcDbEntity
  8
0
100
AcDbPolyline
 62
7
  6
CONTINUOUS
 90
2
 70
0
 43
0.0600000025
 10
25.875
 20
1.5
 10
25.875
 20
-0.0
  0
LWPOLYLINE
  5
429
100
AcDbEntity
  8
0
100
AcDbPolyline
 62
7
  6
CONTINUOUS
 90
2
 70
0
 43
0.0600000025
 10
25.875
 20
64.5
 10
25.875
 20
66.0
  0
LWPOLYLINE
  5
42A
100
AcDbEntity
  8
0
100
AcDbPolyline
 62
7
  6
CONTINUOUS
 90
2
 70
0
 43
0.0600000025
 10
69.375
 20
5.25
 10
76.125
 20
5.25
  0
LWPOLYLINE
  5
42B
100
AcDbEntity
  8
0
100
AcDbPolyline
 62
7
  6
CONTINUOUS
 90
2
 70
0
 43
0.0600000025
 10
76.125
 20
5.625
 10
84.0
 20
5.625
  0
LWPOLYLINE
  5
42C
100
AcDbEntity
  8
0
100
AcDbPolyline
 62
7
  6
CONTINUOUS
 90
2
 70
0
 43
0.0600000025
 10
76.125
 20
6.9375
 10
84.0
 20
6.9375
  0
LWPOLYLINE
  5
42D
100
AcDbEntity
  8
0
100
AcDbPolyline
 62
7
  6
CONTINUOUS
 90
2
 70
0
 43
0.0600000025
 10
84.0
 20
7.125
 10
99.0
 20
7.125
  0
LWPOLYLINE
  5
42E
100
AcDbEntity
  8
0
100
AcDbPolyline
 62
7
  6
CONTINUOUS
 90
2
 70
0
 43
0.0600000025
 10
76.125
 20
8.25
 10
84.0
 20
8.25
  0
LWPOLYLINE
  5
42F
100
AcDbEntity
  8
0
100
AcDbPolyline
 62
7
  6
CONTINUOUS
 90
2
 70
0
 43
0.0600000025
 10
69.375
 20
9.1875
 10
99.0
 20
9.1875
  0
LWPOLYLINE
  5
430
100
AcDbEntity
  8
0
100
AcDbPolyline
 62
7
  6
CONTINUOUS
 90
2
 70
0
 43
0.0600000025
 10
50.25
 20
64.5
 10
50.755964668
 20
65.2126118336
  0
LWPOLYLINE
  5
431
100
AcDbEntity
  8
0
100
AcDbPolyline
 62
7
  6
CONTINUOUS
 90
2
 70
0
 43
0.0600000025
 10
50.25
 20
1.5
 10
50.755964668
 20
0.7873881664
  0
LWPOLYLINE
  5
432
100
AcDbEntity
  8
0
100
AcDbPolyline
 62
7
  6
CONTINUOUS
 90
2
 70
0
 43
0.0600000025
 10
1.5
 20
17.25
 10
0.0
 20
17.25
  0
LWPOLYLINE
  5
433
100
AcDbEntity
  8
0
100
AcDbPolyline
 62
7
  6
CONTINUOUS
 90
2
 70
0
 43
0.0600000025
 10
99.0197815525
 20
17.2525231228
 10
100.5197815525
 20
17.2525231228
  0
LWPOLYLINE
  5
434
100
AcDbEntity
  8
0
100
AcDbPolyline
 62
7
  6
CONTINUOUS
 90
2
 70
0
 43
0.0600000025
 10
38.0625
 20
1.5
 10
38.0625
 20
-0.0
  0
LWPOLYLINE
  5
435
100
AcDbEntity
  8
0
100
AcDbPolyline
 62
7
  6
CONTINUOUS
 90
2
 70
0
 43
0.0600000025
 10
38.0625
 20
64.5
 10
38.0625
 20
66.0
  0
LINE
  5
436
100
AcDbEntity
  8
0
100
AcDbLine
 62
7
  6
CONTINUOUS
 10
76.1299879962
 20
5.2529017014
 11
69.3519057325
 21
9.1936472036
  0
LWPOLYLINE
  5
437
100
AcDbEntity
  8
0
100
AcDbPolyline
 62
7
  6
CONTINUOUS
 90
2
 70
0
 43
0.0600000025
 10
50.25
 20
1.5
 10
50.25
 20
-0.0
  0
LWPOLYLINE
  5
438
100
AcDbEntity
  8
0
100
AcDbPolyline
 62
7
  6
CONTINUOUS
 90
2
 70
0
 43
0.0600000025
 10
50.25
 20
64.5
 10
50.25
 20
66.0
  0
LWPOLYLINE
  5
439
100
AcDbEntity
  8
0
100
AcDbPolyline
 62
7
  6
CONTINUOUS
 90
2
 70
0
 43
0.0600000025
 10
1.5
 20
33.0
 10
-0.0
 20
33.0
  0
LWPOLYLINE
  5
43A
100
AcDbEntity
  8
0
100
AcDbPolyline
 62
7
  6
CONTINUOUS
 90
2
 70
0
 43
0.0600000025
 10
99.0032380379
 20
33.0040793944
 10
100.5032380379
 20
33.0040793944
  0
LWPOLYLINE
  5
43B
100
AcDbEntity
  8
0
100
AcDbPolyline
 62
7
  6
CONTINUOUS
 90
2
 70
0
 43
0.0600000025
 10
62.4375
 20
1.5
 10
62.4375
 20
-0.0
  0
LWPOLYLINE
  5
43C
100
AcDbEntity
  8
0
100
AcDbPolyline
 62
7
  6
CONTINUOUS
 90
2
 70
0
 43
0.0600000025
 10
62.4375
 20
64.5
 10
62.4375
 20
66.0
  0
LWPOLYLINE
  5
43D
100
AcDbEntity
  8
0
100
AcDbPolyline
 62
7
  6
CONTINUOUS
 90
2
 70
0
 43
0.0600000025
 10
50.25
 20
1.5
 10
49.744035332
 20
0.7873881664
  0
LWPOLYLINE
  5
43E
100
AcDbEntity
  8
0
100
AcDbPolyline
 62
7
  6
CONTINUOUS
 90
2
 70
0
 43
0.0600000025
 10
1.5
 20
48.75
 10
0.0
 20
48.75
  0
LWPOLYLINE
  5
43F
100
AcDbEntity
  8
0
100
AcDbPolyline
 62
7
  6
CONTINUOUS
 90
2
 70
0
 43
0.0600000025
 10
99.0
 20
48.75
 10
100.5
 20
48.75
  0
LWPOLYLINE
  5
440
100
AcDbEntity
  8
0
100
AcDbPolyline
 62
7
  6
CONTINUOUS
 90
2
 70
0
 43
0.0600000025
 10
50.25
 20
64.5
 10
49.744035332
 20
65.2126118336
  0
LWPOLYLINE
  5
441
100
AcDbEntity
  8
0
100
AcDbPolyline
 62
7
  6
CONTINUOUS
 90
2
 70
0
 43
0.0600000025
 10
69.375
 20
1.5
 10
69.375
 20
9.1875
  0
LWPOLYLINE
  5
442
100
AcDbEntity
  8
0
100
AcDbPolyline
 62
7
  6
CONTINUOUS
 90
2
 70
0
 43
0.0600000025
 10
74.625
 20
1.5
 10
74.625
 20
-0.0
  0
LWPOLYLINE
  5
443
100
AcDbEntity
  8
0
100
AcDbPolyline
 62
7
  6
CONTINUOUS
 90
2
 70
0
 43
0.0600000025
 10
74.625
 20
64.5
 10
74.625
 20
66.0
  0
LWPOLYLINE
  5
444
100
AcDbEntity
  8
0
100
AcDbPolyline
 62
7
  6
CONTINUOUS
 90
2
 70
0
 43
0.0600000025
 10
76.125
 20
1.5
 10
76.125
 20
9.1875
  0
LWPOLYLINE
  5
445
100
AcDbEntity
  8
0
100
AcDbPolyline
 62
7
  6
CONTINUOUS
 90
2
 70
0
 43
0.0600000025
 10
99.0032380379
 20
33.0040793944
 10
99.7158498715
 20
33.5100440624
  0
LWPOLYLINE
  5
446
100
AcDbEntity
  8
0
100
AcDbPolyline
 62
7
  6
CONTINUOUS
 90
2
 70
0
 43
0.0600000025
 10
99.0032380379
 20
33.0040793944
 10
99.7158498715
 20
32.4981147264
  0
LWPOLYLINE
  5
447
100
AcDbEntity
  8
0
100
AcDbPolyline
 62
7
  6
CONTINUOUS
 90
2
 70
0
 43
0.0600000025
 10
81.375
 20
3.0
 10
81.375
 20
9.1875
  0
LWPOLYLINE
  5
448
100
AcDbEntity
  8
0
100
AcDbPolyline
 62
7
  6
CONTINUOUS
 90
2
 70
0
 43
0.0900000007
 10
10.6875
 20
63.0
 10
1.5
 20
63.0
  0
LWPOLYLINE
  5
449
100
AcDbEntity
  8
0
100
AcDbPolyline
 62
7
  6
CONTINUOUS
 90
2
 70
0
 43
0.0900000007
 10
99.0
 20
64.5
 10
1.5
 20
64.5
  0
LWPOLYLINE
  5
44A
100
AcDbEntity
  8
0
100
AcDbPolyline
 62
7
  6
CONTINUOUS
 90
2
 70
0
 43
0.0600000025
 10
49.744035332
 20
65.2126118336
 10
50.755964668
 20
65.2126118336
  0
LWPOLYLINE
  5
44B
100
AcDbEntity
  8
0
100
AcDbPolyline
 62
7
  6
CONTINUOUS
 90
2
 70
0
 43
0.0600000025
 10
84.0
 20
1.5
 10
84.0
 20
9.1875
  0
LWPOLYLINE
  5
44C
100
AcDbEntity
  8
0
100
AcDbPolyline
 62
7
  6
CONTINUOUS
 90
2
 70
0
 43
0.0600000025
 10
85.5
 20
2.25
 10
85.5
 20
3.75
  0
LWPOLYLINE
  5
44D
100
AcDbEntity
  8
0
100
AcDbPolyline
 62
7
  6
CONTINUOUS
 90
2
 70
0
 43
0.0600000025
 10
86.8125
 20
1.5
 10
86.8125
 20
-0.0
  0
LWPOLYLINE
  5
44E
100
AcDbEntity
  8
0
100
AcDbPolyline
 62
7
  6
CONTINUOUS
 90
2
 70
0
 43
0.0600000025
 10
86.8125
 20
64.5
 10
86.8125
 20
66.0
  0
LINE
  5
44F
100
AcDbEntity
  8
0
100
AcDbLine
 62
7
  6
CONTINUOUS
 10
69.3834316965
 20
5.2844276655
 11
76.1457509782
 21
9.2094101856
  0
LINE
  5
450
100
AcDbEntity
  8
DEFAULT_3
100
AcDbLine
 62
7
  6
PHANTOM
 10
0.0
 20
66.0
 11
102.0
 21
66.0
  0
LWPOLYLINE
  5
451
100
AcDbEntity
  8
0
100
AcDbPolyline
 62
7
  6
CONTINUOUS
 90
2
 70
0
 43
0.0600000025
 10
87.5508868996
 20
1.5142504667
 10
87.5508868996
 20
2.2642504667
  0
LWPOLYLINE
  5
452
100
AcDbEntity
  8
0
100
AcDbPolyline
 62
7
  6
CONTINUOUS
 90
2
 70
0
 43
0.0600000025
 10
88.5
 20
2.25
 10
88.5
 20
3.75
  0
LWPOLYLINE
  5
453
100
AcDbEntity
  8
0
100
AcDbPolyline
 62
7
  6
CONTINUOUS
 90
2
 70
0
 43
0.0600000025
 10
94.125
 20
1.5
 10
94.125
 20
2.25
  0
LWPOLYLINE
  5
454
100
AcDbEntity
  8
0
100
AcDbPolyline
 62
7
  6
CONTINUOUS
 90
2
 70
0
 43
0.0600000025
 10
97.5
 20
2.25
 10
97.5
 20
3.75
  0
LWPOLYLINE
  5
455
100
AcDbEntity
  8
0
100
AcDbPolyline
 62
7
  6
CONTINUOUS
 90
2
 70
0
 43
0.0900000007
 10
99.0
 20
64.5
 10
99.0
 20
1.5
  0
LWPOLYLINE
  5
456
100
AcDbEntity
  8
0
100
AcDbPolyline
 62
7
  6
CONTINUOUS
 90
2
 70
0
 43
0.0600000025
 10
99.7158498715
 20
32.4981147264
 10
99.7158498715
 20
33.5100440624
  0
LINE
  5
457
100
AcDbEntity
  8
DEFAULT_3
100
AcDbLine
 62
7
  6
PHANTOM
 10
102.0
 20
-0.0
 11
102.0
 21
66.0
  0
LINE
  5
458
100
AcDbEntity
  8
3_AXES_OTHER
100
AcDbLine
 62
7
  6
CONTINUOUS
 10
50.3354020363
 20
61.2807565691
 11
50.6571842793
 21
61.5351788877
  0
LINE
  5
459
100
AcDbEntity
  8
3_AXES_OTHER
100
AcDbLine
 62
7
  6
CONTINUOUS
 10
50.6571842793
 20
61.5351788877
 11
54.1551283428
 21
62.9779637684
  0
LINE
  5
45A
100
AcDbEntity
  8
3_AXES_OTHER
100
AcDbLine
 62
7
  6
CONTINUOUS
 10
64.0870958911
 20
41.0456348172
 11
53.1582447371
 21
44.6990070931
  0
LINE
  5
45B
100
AcDbEntity
  8
3_AXES_OTHER
100
AcDbLine
 62
7
  6
CONTINUOUS
 10
54.6413697258
 20
44.7433192724
 11
62.4089829426
 21
42.1467075722
  0
LINE
  5
45C
100
AcDbEntity
  8
3_AXES_OTHER
100
AcDbLine
 62
7
  6
CONTINUOUS
 10
61.2224598551
 20
61.0218259779
 11
61.3751795138
 21
61.0848177269
  0
LINE
  5
45D
100
AcDbEntity
  8
3_AXES_OTHER
100
AcDbLine
 62
7
  6
CONTINUOUS
 10
54.9631519687
 20
44.997741591
 11
62.343639969
 21
42.5305407971
  0
LINE
  5
45E
100
AcDbEntity
  8
3_ALL_AXES
100
AcDbLine
 62
7
  6
CONTINUOUS
 10
54.8939233667
 20
45.1429381802
 11
62.3216078762
 21
42.6599602094
  0
LINE
  5
45F
100
AcDbEntity
  8
3_ALL_AXES
100
AcDbLine
 62
7
  6
CONTINUOUS
 10
61.5758488992
 20
43.5865745584
 11
55.4340151928
 21
45.6397093911
  0
LINE
  5
460
100
AcDbEntity
  8
3_ALL_AXES
100
AcDbLine
 62
7
  6
CONTINUOUS
 10
61.5424737188
 20
43.7826247594
 11
55.5983716615
 21
45.7696604831
  0
LINE
  5
461
100
AcDbEntity
  8
3_AXES_OTHER
100
AcDbLine
 62
7
  6
CONTINUOUS
 10
53.1582447371
 20
44.6990070931
 11
50.3354020363
 21
61.2807565691
  0
LINE
  5
462
100
AcDbEntity
  8
3_AXES_OTHER
100
AcDbLine
 62
7
  6
CONTINUOUS
 10
53.6328341728
 20
61.9379458904
 11
53.6375068719
 21
62.10263636
  0
LINE
  5
463
100
AcDbEntity
  8
3_AXES_OTHER
100
AcDbLine
 62
7
  6
CONTINUOUS
 10
63.8172627522
 20
59.9112901262
 11
64.2955612271
 21
60.1085722427
  0
LINE
  5
464
100
AcDbEntity
  8
3_AXES_OTHER
100
AcDbLine
 62
7
  6
CONTINUOUS
 10
63.8908851349
 20
59.8866791247
 11
64.2939828932
 21
60.0529434619
  0
LINE
  5
465
100
AcDbEntity
  8
3_AXES_OTHER
100
AcDbLine
 62
7
  6
CONTINUOUS
 10
63.9724189428
 20
59.8891353365
 11
63.9326308468
 21
59.8727240782
  0
LINE
  5
466
100
AcDbEntity
  8
3_AXES_OTHER
100
AcDbLine
 62
7
  6
CONTINUOUS
 10
64.2824163343
 20
59.7557953558
 11
64.3222044303
 21
59.7722066141
  0
LINE
  5
467
100
AcDbEntity
  8
3_AXES_OTHER
100
AcDbLine
 62
7
  6
CONTINUOUS
 10
54.6413697258
 20
44.7433192724
 11
52.0071623569
 21
60.2169999865
  0
LINE
  5
468
100
AcDbEntity
  8
3_ALL_AXES
100
AcDbLine
 62
7
  6
CONTINUOUS
 10
53.6379510769
 20
52.520684681
 11
54.8939233667
 21
45.1429381802
  0
LINE
  5
469
100
AcDbEntity
  8
3_AXES_OTHER
100
AcDbLine
 62
7
  6
CONTINUOUS
 10
54.9631519687
 20
44.997741591
 11
54.9411198759
 21
45.1271610033
  0
LINE
  5
46A
100
AcDbEntity
  8
3_AXES_OTHER
100
AcDbLine
 62
7
  6
CONTINUOUS
 10
53.6771812741
 20
52.5517026689
 11
52.3942875734
 21
60.0875890801
  0
LINE
  5
46B
100
AcDbEntity
  8
3_AXES_OTHER
100
AcDbLine
 62
7
  6
CONTINUOUS
 10
57.9372440763
 20
61.7262589637
 11
58.0071643118
 21
61.9517833866
  0
LINE
  5
46C
100
AcDbEntity
  8
3_ALL_AXES
100
AcDbLine
 62
7
  6
CONTINUOUS
 10
53.8023075456
 20
52.650635773
 11
53.6379510769
 21
52.520684681
  0
LINE
  5
46D
100
AcDbEntity
  8
3_AXES_OTHER
100
AcDbLine
 62
7
  6
CONTINUOUS
 10
61.5860354332
 20
57.8818066118
 11
65.0839794967
 21
59.3245914925
  0
LINE
  5
46E
100
AcDbEntity
  8
3_ALL_AXES
100
AcDbLine
 62
7
  6
CONTINUOUS
 10
55.4340151928
 20
45.6397093911
 11
54.4225684816
 21
51.581080467
  0
LINE
  5
46F
100
AcDbEntity
  8
3_ALL_AXES
100
AcDbLine
 62
7
  6
CONTINUOUS
 10
55.5983716615
 20
45.7696604831
 11
54.6203001306
 21
51.5149813579
  0
LINE
  5
470
100
AcDbEntity
  8
3_AXES_OTHER
100
AcDbLine
 62
7
  6
CONTINUOUS
 10
61.2642531902
 20
57.6273842932
 11
61.5860354332
 21
57.8818066118
  0
LINE
  5
471
100
AcDbEntity
  8
3_AXES_OTHER
100
AcDbLine
 62
7
  6
CONTINUOUS
 10
56.6237565451
 20
61.8530856047
 11
56.6284292443
 21
62.0177760742
  0
LINE
  5
472
100
AcDbEntity
  8
3_ALL_AXES
100
AcDbLine
 62
7
  6
CONTINUOUS
 10
54.4225684816
 20
51.581080467
 11
60.5644021879
 21
49.5279456342
  0
LINE
  5
473
100
AcDbEntity
  8
3_ALL_AXES
100
AcDbLine
 62
7
  6
CONTINUOUS
 10
59.8285315956
 20
49.6569547021
 11
57.7973075194
 21
50.4529492604
  0
LINE
  5
474
100
AcDbEntity
  8
3_AXES_OTHER
100
AcDbLine
 62
7
  6
CONTINUOUS
 10
60.2202963693
 20
61.3302810678
 11
60.1950550148
 21
61.2488662691
  0
LINE
  5
475
100
AcDbEntity
  8
3_ALL_AXES
100
AcDbLine
 62
7
  6
CONTINUOUS
 10
56.5260142744
 20
51.6371082679
 11
56.4532419826
 21
51.579569682
  0
LINE
  5
476
100
AcDbEntity
  8
3_ALL_AXES
100
AcDbLine
 62
7
  6
CONTINUOUS
 10
61.0656355864
 20
50.0377067102
 11
58.2892031084
 21
50.9658318442
  0
LINE
  5
477
100
AcDbEntity
  8
3_ALL_AXES
100
AcDbLine
 62
7
  6
CONTINUOUS
 10
56.4532419826
 20
51.579569682
 11
53.6379510769
 21
52.520684681
  0
LINE
  5
478
100
AcDbEntity
  8
3_ALL_AXES
100
AcDbLine
 62
7
  6
CONTINUOUS
 10
61.0322604061
 20
50.2337569113
 11
58.5947532691
 21
51.0485837281
  0
LINE
  5
479
100
AcDbEntity
  8
3_ALL_AXES
100
AcDbLine
 62
7
  6
CONTINUOUS
 10
56.2560411745
 20
51.8303846518
 11
53.8023075456
 21
52.650635773
  0
LWPOLYLINE
  5
47A
100
AcDbEntity
  8
3_AXES_OTHER
100
AcDbPolyline
 62
7
  6
CONTINUOUS
 90
17
 70
0
 10
60.0457613065
 20
49.7013199976
 10
60.0596505846
 20
49.6947684128
 10
60.0803553156
 20
49.6847273617
 10
60.1041490938
 20
49.6727970729
 10
60.127522418
 20
49.660646626
 10
60.1493299161
 20
49.648879597
 10
60.1691430757
 20
49.6377739894
 10
60.1869128799
 20
49.6274210947
 10
60.2029375394
 20
49.6177091978
 10
60.2176460626
 20
49.6084218602
 10
60.2312070009
 20
49.5994793803
 10
60.2435182207
 20
49.5909786238
 10
60.2546120632
 20
49.5829371389
 10
60.2645536342
 20
49.5753520073
 10
60.2734245706
 20
49.5682076054
 10
60.2813120957
 20
49.5614813916
 10
60.2854961746
 20
49.557738287
  0
LINE
  5
47B
100
AcDbEntity
  8
3_AXES_OTHER
100
AcDbLine
 62
7
  6
CONTINUOUS
 10
60.3607536867
 20
49.4790398047
 11
60.2854827865
 21
49.5577121803
  0
LINE
  5
47C
100
AcDbEntity
  8
3_AXES_OTHER
100
AcDbLine
 62
7
  6
CONTINUOUS
 10
60.4459746478
 20
49.3554422944
 11
60.3607536867
 21
49.4790398047
  0
LWPOLYLINE
  5
47D
100
AcDbEntity
  8
3_AXES_OTHER
100
AcDbPolyline
 62
7
  6
CONTINUOUS
 90
11
 70
0
 10
60.4459748188
 20
49.3554423375
 10
60.4505497826
 20
49.347093582
 10
60.4578103936
 20
49.3331778861
 10
60.4658612373
 20
49.3167735653
 10
60.4742237554
 20
49.2986097997
 10
60.4821596766
 20
49.2802463099
 10
60.4885479882
 20
49.264585001
 10
60.4931923326
 20
49.2526272611
 10
60.4961642482
 20
49.2446602842
 10
60.4977595629
 20
49.2402422242
 10
60.497986496
 20
49.2396015625
  0
LINE
  5
47E
100
AcDbEntity
  8
3_AXES_OTHER
100
AcDbLine
 62
7
  6
CONTINUOUS
 10
61.6705155448
 20
60.4782750457
 11
61.7404357803
 21
60.7037994686
  0
LINE
  5
47F
100
AcDbEntity
  8
3_ALL_AXES
100
AcDbLine
 62
7
  6
CONTINUOUS
 10
58.3619754002
 20
51.0233704301
 11
58.2892031084
 21
50.9658318442
  0
LINE
  5
480
100
AcDbEntity
  8
3_ALL_AXES
100
AcDbLine
 62
7
  6
CONTINUOUS
 10
60.4589955587
 20
48.901954121
 11
61.1405896111
 21
46.1433448914
  0
LINE
  5
481
100
AcDbEntity
  8
3_AXES_OTHER
100
AcDbLine
 62
7
  6
CONTINUOUS
 10
60.5875576344
 20
59.6130726239
 11
60.5922303335
 21
59.7777630935
  0
LINE
  5
482
100
AcDbEntity
  8
3_ALL_AXES
100
AcDbLine
 62
7
  6
CONTINUOUS
 10
65.1914657687
 20
51.8886752286
 11
65.0108236009
 21
51.9490615472
  0
LINE
  5
483
100
AcDbEntity
  8
3_ALL_AXES
100
AcDbLine
 62
7
  6
CONTINUOUS
 10
57.5684011106
 20
54.1565284782
 11
57.7852129702
 21
54.0605259874
  0
LINE
  5
484
100
AcDbEntity
  8
3_ALL_AXES
100
AcDbLine
 62
7
  6
CONTINUOUS
 10
60.5644021879
 20
49.5279456342
 11
61.5758488992
 21
43.5865745584
  0
LINE
  5
485
100
AcDbEntity
  8
3_AXES_OTHER
100
AcDbLine
 62
7
  6
CONTINUOUS
 10
62.4089829426
 20
42.1467075722
 11
59.7747755737
 21
57.6203882863
  0
LINE
  5
486
100
AcDbEntity
  8
3_AXES_OTHER
100
AcDbLine
 62
7
  6
CONTINUOUS
 10
63.7886859279
 20
59.9150722563
 11
63.8586061634
 21
60.1405966792
  0
LINE
  5
487
100
AcDbEntity
  8
3_ALL_AXES
100
AcDbLine
 62
7
  6
CONTINUOUS
 10
55.5983716615
 20
45.7696604831
 11
55.4340151928
 21
45.6397093911
  0
LINE
  5
488
100
AcDbEntity
  8
3_ALL_AXES
100
AcDbLine
 62
7
  6
CONTINUOUS
 10
65.3648401063
 20
52.4073144984
 11
65.1841979385
 21
52.467700817
  0
LINE
  5
489
100
AcDbEntity
  8
3_AXES_OTHER
100
AcDbLine
 62
7
  6
CONTINUOUS
 10
54.6413697258
 20
44.7433192724
 11
54.9631519687
 21
44.997741591
  0
LINE
  5
48A
100
AcDbEntity
  8
3_ALL_AXES
100
AcDbLine
 62
7
  6
CONTINUOUS
 10
59.9267734677
 20
49.0798690185
 11
55.5983716615
 21
45.7696604831
  0
LINE
  5
48B
100
AcDbEntity
  8
3_ALL_AXES
100
AcDbLine
 62
7
  6
CONTINUOUS
 10
60.3607536867
 20
49.4790398047
 11
60.5033627387
 21
49.5483503253
  0
LINE
  5
48C
100
AcDbEntity
  8
3_AXES_OTHER
100
AcDbLine
 62
7
  6
CONTINUOUS
 10
64.0870958911
 20
41.0456348172
 11
61.2642531902
 21
57.6273842932
  0
LINE
  5
48D
100
AcDbEntity
  8
3_AXES_OTHER
100
AcDbLine
 62
7
  6
CONTINUOUS
 10
63.5784800067
 20
59.5282123382
 11
63.5831527058
 21
59.6929028078
  0
LINE
  5
48E
100
AcDbEntity
  8
3_AXES_OTHER
100
AcDbLine
 62
7
  6
CONTINUOUS
 10
64.2955612271
 20
60.1085722427
 11
64.2939828932
 21
60.0529434619
  0
LINE
  5
48F
100
AcDbEntity
  8
3_AXES_OTHER
100
AcDbLine
 62
7
  6
CONTINUOUS
 10
52.0071623569
 20
60.2169999865
 11
59.7747755737
 21
57.6203882863
  0
LINE
  5
490
100
AcDbEntity
  8
3_AXES_OTHER
100
AcDbLine
 62
7
  6
CONTINUOUS
 10
64.3222044303
 20
59.7722066141
 11
64.3248477986
 21
59.7416110712
  0
LINE
  5
491
100
AcDbEntity
  8
3_AXES_OTHER
100
AcDbLine
 62
7
  6
CONTINUOUS
 10
61.2642531902
 20
57.6273842932
 11
50.3354020363
 21
61.2807565691
  0
LINE
  5
492
100
AcDbEntity
  8
3_AXES_OTHER
100
AcDbLine
 62
7
  6
CONTINUOUS
 10
61.5860354332
 20
57.8818066118
 11
50.6571842793
 21
61.5351788877
  0
LINE
  5
493
100
AcDbEntity
  8
3_AXES_OTHER
100
AcDbLine
 62
7
  6
CONTINUOUS
 10
67.4708483606
 20
58.6899441511
 11
67.0043733642
 21
42.2489141591
  0
LINE
  5
494
100
AcDbEntity
  8
3_AXES_OTHER
100
AcDbLine
 62
7
  6
CONTINUOUS
 10
65.0839794967
 20
59.3245914925
 11
67.4708483606
 21
58.6899441511
  0
LINE
  5
495
100
AcDbEntity
  8
3_AXES_OTHER
100
AcDbLine
 62
7
  6
CONTINUOUS
 10
61.6705155448
 20
60.4782750457
 11
62.5514825888
 21
60.2440336927
  0
LINE
  5
496
100
AcDbEntity
  8
3_AXES_OTHER
100
AcDbLine
 62
7
  6
CONTINUOUS
 10
63.1966538999
 20
60.0724883416
 11
63.7886859279
 21
59.9150722563
  0
LINE
  5
497
100
AcDbEntity
  8
3_AXES_OTHER
100
AcDbLine
 62
7
  6
CONTINUOUS
 10
61.7404357803
 20
60.7037994686
 11
63.8586061634
 21
60.1405966792
  0
LINE
  5
498
100
AcDbEntity
  8
3_AXES_OTHER
100
AcDbLine
 62
7
  6
CONTINUOUS
 10
61.6734159279
 20
60.7546695143
 11
62.98713224
 21
60.4053639545
  0
LINE
  5
499
100
AcDbEntity
  8
3_AXES_OTHER
100
AcDbLine
 62
7
  6
CONTINUOUS
 10
60.2202963693
 20
61.3302810678
 11
58.9065800573
 21
61.6795866277
  0
LINE
  5
49A
100
AcDbEntity
  8
3_AXES_OTHER
100
AcDbLine
 62
7
  6
CONTINUOUS
 10
60.1253346948
 20
61.3885805971
 11
58.0071643118
 21
61.9517833866
  0
LINE
  5
49B
100
AcDbEntity
  8
3_AXES_OTHER
100
AcDbLine
 62
7
  6
CONTINUOUS
 10
54.1551283428
 20
62.9779637684
 11
56.5419972067
 21
62.343316427
  0
LINE
  5
49C
100
AcDbEntity
  8
3_AXES_OTHER
100
AcDbLine
 62
7
  6
CONTINUOUS
 10
65.0839794967
 20
59.3245914925
 11
63.520055265
 21
59.8473909477
  0
LINE
  5
49D
100
AcDbEntity
  8
3_AXES_OTHER
100
AcDbLine
 62
7
  6
CONTINUOUS
 10
62.2378540328
 20
60.2760140819
 11
56.5653318034
 21
62.1722642142
  0
LINE
  5
49E
100
AcDbEntity
  8
3_AXES_OTHER
100
AcDbLine
 62
7
  6
CONTINUOUS
 10
55.2831305712
 20
62.6008873483
 11
54.1551283428
 21
62.9779637684
  0
LINE
  5
49F
100
AcDbEntity
  8
3_AXES_OTHER
100
AcDbLine
 62
7
  6
CONTINUOUS
 10
57.9372440763
 20
61.7262589637
 11
61.6705155448
 21
60.4782750457
  0
LINE
  5
4A0
100
AcDbEntity
  8
3_AXES_OTHER
100
AcDbLine
 62
7
  6
CONTINUOUS
 10
67.4708483606
 20
58.6899441511
 11
63.7904211052
 21
59.9202629385
  0
LINE
  5
4A1
100
AcDbEntity
  8
3_AXES_OTHER
100
AcDbLine
 62
7
  6
CONTINUOUS
 10
57.9795630819
 20
61.8627569209
 11
56.5419972067
 21
62.343316427
  0
LINE
  5
4A2
100
AcDbEntity
  8
3_AXES_OTHER
100
AcDbLine
 62
7
  6
CONTINUOUS
 10
63.9724189428
 20
59.8891353365
 11
64.3222044303
 21
59.7722066141
  0
LINE
  5
4A3
100
AcDbEntity
  8
3_AXES_OTHER
100
AcDbLine
 62
7
  6
CONTINUOUS
 10
58.0071643118
 20
61.9517833866
 11
61.7404357803
 21
60.7037994686
  0
LINE
  5
4A4
100
AcDbEntity
  8
3_AXES_OTHER
100
AcDbLine
 62
7
  6
CONTINUOUS
 10
58.9065800573
 20
61.6795866277
 11
61.6734159279
 21
60.7546695143
  0
LINE
  5
4A5
100
AcDbEntity
  8
3_AXES_OTHER
100
AcDbLine
 62
7
  6
CONTINUOUS
 10
62.98713224
 20
60.4053639545
 11
60.2202963693
 21
61.3302810678
  0
LINE
  5
4A6
100
AcDbEntity
  8
3_AXES_OTHER
100
AcDbLine
 62
7
  6
CONTINUOUS
 10
63.8586061634
 20
60.1405966792
 11
60.1253346948
 21
61.3885805971
  0
LINE
  5
4A7
100
AcDbEntity
  8
3_AXES_OTHER
100
AcDbLine
 62
7
  6
CONTINUOUS
 10
61.3751795138
 20
61.0848177269
 11
64.2955612271
 21
60.1085722427
  0
LINE
  5
4A8
100
AcDbEntity
  8
3_AXES_OTHER
100
AcDbLine
 62
7
  6
CONTINUOUS
 10
64.0870958911
 20
41.0456348172
 11
67.0043733642
 21
42.2489141591
  0
LINE
  5
4A9
100
AcDbEntity
  8
3_ALL_AXES
100
AcDbLine
 62
7
  6
CONTINUOUS
 10
12.7525180471
 20
50.3955914409
 11
12.7525180471
 21
50.9424418346
  0
LINE
  5
4AA
100
AcDbEntity
  8
3_AXES_OTHER
100
AcDbLine
 62
7
  6
CONTINUOUS
 10
12.9887385196
 20
44.4029916085
 11
12.9887385196
 21
54.1099615196
  0
LINE
  5
4AB
100
AcDbEntity
  8
3_AXES_OTHER
100
AcDbLine
 62
7
  6
CONTINUOUS
 10
27.2800771022
 20
44.4029916085
 11
12.9887385196
 21
44.4029916085
  0
LINE
  5
4AC
100
AcDbEntity
  8
3_AXES_OTHER
100
AcDbLine
 62
7
  6
CONTINUOUS
 10
27.2800771022
 20
44.8973630944
 11
12.9887385196
 21
44.8973630944
  0
LINE
  5
4AD
100
AcDbEntity
  8
3_ALL_AXES
100
AcDbLine
 62
7
  6
CENTER
 10
15.5871637164
 20
48.755630811
 11
15.5871637164
 21
47.4713788425
  0
LINE
  5
4AE
100
AcDbEntity
  8
3_ALL_AXES
100
AcDbLine
 62
7
  6
CENTER
 10
15.5871637164
 20
48.755630811
 11
15.5871637164
 21
50.0398827795
  0
LINE
  5
4AF
100
AcDbEntity
  8
3_AXES_OTHER
100
AcDbLine
 62
7
  6
CONTINUOUS
 10
16.6836204093
 20
54.1099615196
 11
16.6836204093
 21
54.7280717559
  0
LINE
  5
4B0
100
AcDbEntity
  8
3_AXES_OTHER
100
AcDbLine
 62
7
  6
CONTINUOUS
 10
17.6166912755
 20
54.1099615196
 11
17.6166912755
 21
54.7280717559
  0
LINE
  5
4B1
100
AcDbEntity
  8
3_AXES_OTHER
100
AcDbLine
 62
7
  6
CONTINUOUS
 10
17.693462929
 20
50.6223078857
 11
17.693462929
 21
54.0761914114
  0
LINE
  5
4B2
100
AcDbEntity
  8
3_AXES_OTHER
100
AcDbLine
 62
7
  6
CONTINUOUS
 10
18.0740955134
 20
54.7280717559
 11
18.0740955134
 21
54.5489378976
  0
LINE
  5
4B3
100
AcDbEntity
  8
3_AXES_OTHER
100
AcDbLine
 62
7
  6
CONTINUOUS
 10
18.224958992
 20
54.5489378976
 11
18.224958992
 21
55.4091741181
  0
LINE
  5
4B4
100
AcDbEntity
  8
3_AXES_OTHER
100
AcDbLine
 62
7
  6
CONTINUOUS
 10
18.3253526928
 20
53.4614007353
 11
18.3253526928
 21
51.3811745942
  0
LINE
  5
4B5
100
AcDbEntity
  8
3_ALL_AXES
100
AcDbLine
 62
7
  6
CENTER
 10
24.6816519054
 20
48.755630811
 11
23.3973999369
 21
48.755630811
  0
LINE
  5
4B6
100
AcDbEntity
  8
3_ALL_AXES
100
AcDbLine
 62
7
  6
CENTER
 10
15.5871637164
 20
48.755630811
 11
14.3029117479
 21
48.755630811
  0
LINE
  5
4B7
100
AcDbEntity
  8
3_ALL_AXES
100
AcDbLine
 62
7
  6
CENTER
 10
15.5871637164
 20
48.755630811
 11
16.8714156849
 21
48.755630811
  0
LINE
  5
4B8
100
AcDbEntity
  8
3_ALL_AXES
100
AcDbLine
 62
7
  6
CENTER
 10
24.6816519054
 20
48.755630811
 11
25.9659038739
 21
48.755630811
  0
LINE
  5
4B9
100
AcDbEntity
  8
3_ALL_AXES
100
AcDbLine
 62
7
  6
CONTINUOUS
 10
18.9907070235
 20
55.1261032519
 11
18.9907070235
 21
54.9761032519
  0
LINE
  5
4BA
100
AcDbEntity
  8
3_ALL_AXES
100
AcDbLine
 62
7
  6
CENTER
 10
19.1344078109
 20
55.1261032519
 11
19.1344078109
 21
54.6824024645
  0
LINE
  5
4BB
100
AcDbEntity
  8
3_ALL_AXES
100
AcDbLine
 62
7
  6
CENTER
 10
19.1344078109
 20
54.6824024645
 11
19.1344078109
 21
54.5324024645
  0
LINE
  5
4BC
100
AcDbEntity
  8
3_ALL_AXES
100
AcDbLine
 62
7
  6
CENTER
 10
19.1344078109
 20
55.1261032519
 11
19.1344078109
 21
55.4198040393
  0
LINE
  5
4BD
100
AcDbEntity
  8
3_ALL_AXES
100
AcDbLine
 62
7
  6
CENTER
 10
19.1344078109
 20
55.4198040393
 11
19.1344078109
 21
55.5698040393
  0
LINE
  5
4BE
100
AcDbEntity
  8
3_ALL_AXES
100
AcDbLine
 62
7
  6
CONTINUOUS
 10
19.2781085983
 20
54.9761032519
 11
19.2781085983
 21
55.1261032519
  0
LINE
  5
4BF
100
AcDbEntity
  8
3_ALL_AXES
100
AcDbLine
 62
7
  6
CENTER
 10
20.1344078109
 20
43.8608685656
 11
20.1344078109
 21
55.9601887403
  0
LINE
  5
4C0
100
AcDbEntity
  8
3_AXES_OTHER
100
AcDbLine
 62
7
  6
CONTINUOUS
 10
27.2800771022
 20
50.3304339606
 11
12.9887385196
 21
50.3304339606
  0
LINE
  5
4C1
100
AcDbEntity
  8
3_ALL_AXES
100
AcDbLine
 62
7
  6
CONTINUOUS
 10
27.5162975747
 20
50.3955914409
 11
27.2800771022
 21
50.3955914409
  0
LINE
  5
4C2
100
AcDbEntity
  8
3_ALL_AXES
100
AcDbLine
 62
7
  6
CONTINUOUS
 10
12.9887385196
 20
50.3955914409
 11
12.7525180471
 21
50.3955914409
  0
LINE
  5
4C3
100
AcDbEntity
  8
3_ALL_AXES
100
AcDbLine
 62
7
  6
CONTINUOUS
 10
20.9907070235
 20
55.1261032519
 11
20.9907070235
 21
54.9761032519
  0
LINE
  5
4C4
100
AcDbEntity
  8
3_ALL_AXES
100
AcDbLine
 62
7
  6
CENTER
 10
21.1344078109
 20
55.1261032519
 11
21.1344078109
 21
54.6824024645
  0
LINE
  5
4C5
100
AcDbEntity
  8
3_ALL_AXES
100
AcDbLine
 62
7
  6
CENTER
 10
21.1344078109
 20
54.6824024645
 11
21.1344078109
 21
54.5324024645
  0
LINE
  5
4C6
100
AcDbEntity
  8
3_ALL_AXES
100
AcDbLine
 62
7
  6
CENTER
 10
21.1344078109
 20
55.1261032519
 11
21.1344078109
 21
55.4198040393
  0
LINE
  5
4C7
100
AcDbEntity
  8
3_ALL_AXES
100
AcDbLine
 62
7
  6
CENTER
 10
21.1344078109
 20
55.4198040393
 11
21.1344078109
 21
55.5698040393
  0
LINE
  5
4C8
100
AcDbEntity
  8
3_ALL_AXES
100
AcDbLine
 62
7
  6
CONTINUOUS
 10
21.2781085983
 20
54.9761032519
 11
21.2781085983
 21
55.1261032519
  0
LINE
  5
4C9
100
AcDbEntity
  8
3_AXES_OTHER
100
AcDbLine
 62
7
  6
CONTINUOUS
 10
17.693462929
 20
50.6223078857
 11
22.5753526928
 21
50.6223078857
  0
LINE
  5
4CA
100
AcDbEntity
  8
3_AXES_OTHER
100
AcDbLine
 62
7
  6
CONTINUOUS
 10
17.693462929
 20
50.7221389711
 11
22.5753526928
 21
50.7221389711
  0
LINE
  5
4CB
100
AcDbEntity
  8
3_ALL_AXES
100
AcDbLine
 62
7
  6
CONTINUOUS
 10
27.5162975747
 20
50.9424418346
 11
27.2800771022
 21
50.9424418346
  0
LINE
  5
4CC
100
AcDbEntity
  8
3_ALL_AXES
100
AcDbLine
 62
7
  6
CONTINUOUS
 10
12.9887385196
 20
50.9424418346
 11
12.7525180471
 21
50.9424418346
  0
LINE
  5
4CD
100
AcDbEntity
  8
3_AXES_OTHER
100
AcDbLine
 62
7
  6
CONTINUOUS
 10
21.943462929
 20
51.3811745942
 11
21.943462929
 21
53.4614007353
  0
LINE
  5
4CE
100
AcDbEntity
  8
3_AXES_OTHER
100
AcDbLine
 62
7
  6
CONTINUOUS
 10
22.0438566298
 20
54.5489378976
 11
22.0438566298
 21
55.4091741181
  0
LINE
  5
4CF
100
AcDbEntity
  8
3_AXES_OTHER
100
AcDbLine
 62
7
  6
CONTINUOUS
 10
18.3253526928
 20
51.3811745942
 11
21.943462929
 21
51.3811745942
  0
LINE
  5
4D0
100
AcDbEntity
  8
3_AXES_OTHER
100
AcDbLine
 62
7
  6
CONTINUOUS
 10
22.1947201084
 20
54.7280717559
 11
22.1947201084
 21
54.5489378976
  0
LINE
  5
4D1
100
AcDbEntity
  8
3_AXES_OTHER
100
AcDbLine
 62
7
  6
CONTINUOUS
 10
22.5753526928
 20
50.6223078857
 11
22.5753526928
 21
54.0761914114
  0
LINE
  5
4D2
100
AcDbEntity
  8
3_AXES_OTHER
100
AcDbLine
 62
7
  6
CONTINUOUS
 10
22.6521243463
 20
54.1099615196
 11
22.6521243463
 21
54.7280717559
  0
LINE
  5
4D3
100
AcDbEntity
  8
3_AXES_OTHER
100
AcDbLine
 62
7
  6
CONTINUOUS
 10
23.5851952125
 20
54.1099615196
 11
23.5851952125
 21
54.7280717559
  0
LINE
  5
4D4
100
AcDbEntity
  8
3_AXES_OTHER
100
AcDbLine
 62
7
  6
CONTINUOUS
 10
21.943462929
 20
53.1286304505
 11
18.3253526928
 21
53.1286304505
  0
LINE
  5
4D5
100
AcDbEntity
  8
3_AXES_OTHER
100
AcDbLine
 62
7
  6
CONTINUOUS
 10
21.943462929
 20
53.4614007353
 11
18.3253526928
 21
53.4614007353
  0
LINE
  5
4D6
100
AcDbEntity
  8
3_AXES_OTHER
100
AcDbLine
 62
7
  6
CONTINUOUS
 10
22.5753526928
 20
54.0761914114
 11
17.693462929
 21
54.0761914114
  0
LINE
  5
4D7
100
AcDbEntity
  8
3_AXES_OTHER
100
AcDbLine
 62
7
  6
CONTINUOUS
 10
27.2800771022
 20
54.1099615196
 11
12.9887385196
 21
54.1099615196
  0
LINE
  5
4D8
100
AcDbEntity
  8
3_ALL_AXES
100
AcDbLine
 62
7
  6
CENTER
 10
24.6816519054
 20
48.755630811
 11
24.6816519054
 21
47.4713788425
  0
LINE
  5
4D9
100
AcDbEntity
  8
3_ALL_AXES
100
AcDbLine
 62
7
  6
CENTER
 10
24.6816519054
 20
48.755630811
 11
24.6816519054
 21
50.0398827795
  0
LINE
  5
4DA
100
AcDbEntity
  8
3_AXES_OTHER
100
AcDbLine
 62
7
  6
CONTINUOUS
 10
18.0740955134
 20
54.5489378976
 11
18.224958992
 21
54.5489378976
  0
LINE
  5
4DB
100
AcDbEntity
  8
3_AXES_OTHER
100
AcDbLine
 62
7
  6
CONTINUOUS
 10
22.0438566298
 20
54.5489378976
 11
22.1947201084
 21
54.5489378976
  0
LINE
  5
4DC
100
AcDbEntity
  8
3_AXES_OTHER
100
AcDbLine
 62
7
  6
CONTINUOUS
 10
16.6836204093
 20
54.7280717559
 11
18.0740955134
 21
54.7280717559
  0
LINE
  5
4DD
100
AcDbEntity
  8
3_AXES_OTHER
100
AcDbLine
 62
7
  6
CONTINUOUS
 10
22.1947201084
 20
54.7280717559
 11
23.5851952125
 21
54.7280717559
  0
LINE
  5
4DE
100
AcDbEntity
  8
3_ALL_AXES
100
AcDbLine
 62
7
  6
CENTER
 10
21.1344078109
 20
54.9761032519
 11
20.6907070235
 21
54.9761032519
  0
LINE
  5
4DF
100
AcDbEntity
  8
3_ALL_AXES
100
AcDbLine
 62
7
  6
CENTER
 10
19.1344078109
 20
54.9761032519
 11
18.6907070235
 21
54.9761032519
  0
LINE
  5
4E0
100
AcDbEntity
  8
3_ALL_AXES
100
AcDbLine
 62
7
  6
CENTER
 10
19.1344078109
 20
54.9761032519
 11
19.5781085983
 21
54.9761032519
  0
LINE
  5
4E1
100
AcDbEntity
  8
3_ALL_AXES
100
AcDbLine
 62
7
  6
CENTER
 10
21.1344078109
 20
54.9761032519
 11
21.5781085983
 21
54.9761032519
  0
LINE
  5
4E2
100
AcDbEntity
  8
3_ALL_AXES
100
AcDbLine
 62
7
  6
CENTER
 10
21.1344078109
 20
55.1261032519
 11
20.6907070235
 21
55.1261032519
  0
LINE
  5
4E3
100
AcDbEntity
  8
3_ALL_AXES
100
AcDbLine
 62
7
  6
CENTER
 10
19.1344078109
 20
55.1261032519
 11
18.6907070235
 21
55.1261032519
  0
LINE
  5
4E4
100
AcDbEntity
  8
3_ALL_AXES
100
AcDbLine
 62
7
  6
CENTER
 10
19.1344078109
 20
55.1261032519
 11
19.5781085983
 21
55.1261032519
  0
LINE
  5
4E5
100
AcDbEntity
  8
3_ALL_AXES
100
AcDbLine
 62
7
  6
CENTER
 10
21.1344078109
 20
55.1261032519
 11
21.5781085983
 21
55.1261032519
  0
LINE
  5
4E6
100
AcDbEntity
  8
3_AXES_OTHER
100
AcDbLine
 62
7
  6
CONTINUOUS
 10
18.224958992
 20
55.4091741181
 11
22.0438566298
 21
55.4091741181
  0
LINE
  5
4E7
100
AcDbEntity
  8
3_AXES_OTHER
100
AcDbLine
 62
7
  6
CONTINUOUS
 10
27.2800771022
 20
44.4029916085
 11
27.2800771022
 21
54.1099615196
  0
LINE
  5
4E8
100
AcDbEntity
  8
3_ALL_AXES
100
AcDbLine
 62
7
  6
CONTINUOUS
 10
27.5162975747
 20
50.3955914409
 11
27.5162975747
 21
50.9424418346
  0
LINE
  5
4E9
100
AcDbEntity
  8
3_AXES_OTHER
100
AcDbLine
 62
7
  6
CONTINUOUS
 10
27.2800771022
 20
16.5220967455
 11
12.9887385196
 21
16.5220967455
  0
LINE
  5
4EA
100
AcDbEntity
  8
3_AXES_OTHER
100
AcDbLine
 62
7
  6
CONTINUOUS
 10
15.0556676534
 20
17.1892356117
 11
25.2131479684
 21
17.1892356117
  0
LINE
  5
4EB
100
AcDbEntity
  8
3_AXES_OTHER
100
AcDbLine
 62
7
  6
CONTINUOUS
 10
15.0556676534
 20
17.3217020521
 11
25.2131479684
 21
17.3217020521
  0
LINE
  5
4EC
100
AcDbEntity
  8
3_ALL_AXES
100
AcDbLine
 62
7
  6
CONTINUOUS
 10
15.2525180471
 20
17.6331871713
 11
25.0162975747
 21
17.6331871713
  0
LINE
  5
4ED
100
AcDbEntity
  8
3_ALL_AXES
100
AcDbLine
 62
7
  6
CONTINUOUS
 10
12.7525180471
 20
27.9456161245
 11
12.7525180471
 21
28.4922781538
  0
LINE
  5
4EE
100
AcDbEntity
  8
3_ALL_AXES
100
AcDbLine
 62
7
  6
CONTINUOUS
 10
24.1501558424
 20
18.4698158398
 11
16.1186597794
 21
18.4698158398
  0
LINE
  5
4EF
100
AcDbEntity
  8
3_ALL_AXES
100
AcDbLine
 62
7
  6
CONTINUOUS
 10
24.1501558424
 20
18.5374756216
 11
16.1186597794
 21
18.5374756216
  0
LINE
  5
4F0
100
AcDbEntity
  8
3_AXES_OTHER
100
AcDbLine
 62
7
  6
CONTINUOUS
 10
12.9887385196
 20
16.5220967455
 11
12.9887385196
 21
35.9709156431
  0
LINE
  5
4F1
100
AcDbEntity
  8
3_AXES_OTHER
100
AcDbLine
 62
7
  6
CONTINUOUS
 10
14.0911007243
 20
35.9709156431
 11
14.0911007243
 21
36.1480809974
  0
LINE
  5
4F2
100
AcDbEntity
  8
3_AXES_OTHER
100
AcDbLine
 62
7
  6
CONTINUOUS
 10
15.0556676534
 20
17.1892356117
 11
15.0556676534
 21
35.214780559
  0
LINE
  5
4F3
100
AcDbEntity
  8
3_ALL_AXES
100
AcDbLine
 62
7
  6
CONTINUOUS
 10
15.2525180471
 20
26.2953050926
 11
15.2525180471
 21
17.6331871713
  0
LINE
  5
4F4
100
AcDbEntity
  8
3_ALL_AXES
100
AcDbLine
 62
7
  6
CONTINUOUS
 10
16.1186597794
 20
18.4698158398
 11
16.1186597794
 21
25.3910166423
  0
LINE
  5
4F5
100
AcDbEntity
  8
3_AXES_OTHER
100
AcDbLine
 62
7
  6
CONTINUOUS
 10
17.0832267085
 20
35.9709156431
 11
17.0832267085
 21
36.1480809974
  0
LINE
  5
4F6
100
AcDbEntity
  8
3_AXES_OTHER
100
AcDbLine
 62
7
  6
CONTINUOUS
 10
17.693462929
 20
35.9709156431
 11
17.693462929
 21
36.0489010502
  0
LINE
  5
4F7
100
AcDbEntity
  8
3_ALL_AXES
100
AcDbLine
 62
7
  6
CONTINUOUS
 10
19.7864221902
 20
23.1493824159
 11
16.2261211957
 21
25.3910166423
  0
LINE
  5
4F8
100
AcDbEntity
  8
3_ALL_AXES
100
AcDbLine
 62
7
  6
CONTINUOUS
 10
20.4823934316
 20
22.4771258195
 11
24.1501558424
 21
18.5374756216
  0
LINE
  5
4F9
100
AcDbEntity
  8
3_ALL_AXES
100
AcDbLine
 62
7
  6
CONTINUOUS
 10
18.9339915135
 20
26.2576031057
 11
18.9339915135
 21
26.2276453107
  0
LINE
  5
4FA
100
AcDbEntity
  8
3_ALL_AXES
100
AcDbLine
 62
7
  6
CONTINUOUS
 10
16.1186597794
 20
25.3910166423
 11
24.1501558424
 21
25.3910166423
  0
LINE
  5
4FB
100
AcDbEntity
  8
3_ALL_AXES
100
AcDbLine
 62
7
  6
CENTER
 10
20.1344078109
 20
16.2220967455
 11
20.1344078109
 21
36.4480809974
  0
LINE
  5
4FC
100
AcDbEntity
  8
3_ALL_AXES
100
AcDbLine
 62
7
  6
CONTINUOUS
 10
25.0162975747
 20
26.2276453107
 11
21.3348241083
 21
26.2276453107
  0
LINE
  5
4FD
100
AcDbEntity
  8
3_ALL_AXES
100
AcDbLine
 62
7
  6
CONTINUOUS
 10
18.9339915135
 20
26.2276453107
 11
15.2525180471
 21
26.2276453107
  0
LINE
  5
4FE
100
AcDbEntity
  8
3_ALL_AXES
100
AcDbLine
 62
7
  6
CONTINUOUS
 10
25.0162975747
 20
26.2953050926
 11
21.4322086102
 21
26.2953050926
  0
LINE
  5
4FF
100
AcDbEntity
  8
3_ALL_AXES
100
AcDbLine
 62
7
  6
CONTINUOUS
 10
18.8366070117
 20
26.2953050926
 11
15.2525180471
 21
26.2953050926
  0
LINE
  5
500
100
AcDbEntity
  8
3_ALL_AXES
100
AcDbLine
 62
7
  6
CONTINUOUS
 10
21.3348241083
 20
26.2576031057
 11
21.3348241083
 21
26.2276453107
  0
LINE
  5
501
100
AcDbEntity
  8
3_ALL_AXES
100
AcDbLine
 62
7
  6
CENTER
 10
20.1344078109
 20
27.6584156431
 11
19.3854911527
 21
27.6584156431
  0
LINE
  5
502
100
AcDbEntity
  8
3_ALL_AXES
100
AcDbLine
 62
7
  6
CENTER
 10
20.1344078109
 20
27.6584156431
 11
20.889859714
 21
27.6584156431
  0
LINE
  5
503
100
AcDbEntity
  8
3_ALL_AXES
100
AcDbLine
 62
7
  6
CONTINUOUS
 10
27.5162975747
 20
27.9455219423
 11
27.2800771022
 21
27.9455219423
  0
LINE
  5
504
100
AcDbEntity
  8
3_ALL_AXES
100
AcDbLine
 62
7
  6
CONTINUOUS
 10
12.9887385196
 20
27.9455219423
 11
12.7525180471
 21
27.9455219423
  0
LINE
  5
505
100
AcDbEntity
  8
3_AXES_OTHER
100
AcDbLine
 62
7
  6
CONTINUOUS
 10
22.5753526928
 20
35.9709156431
 11
22.5753526928
 21
36.0489010502
  0
LINE
  5
506
100
AcDbEntity
  8
3_ALL_AXES
100
AcDbLine
 62
7
  6
CONTINUOUS
 10
19.7864221902
 20
22.4771258195
 11
16.1186597794
 21
18.5374756216
  0
LINE
  5
507
100
AcDbEntity
  8
3_ALL_AXES
100
AcDbLine
 62
7
  6
CONTINUOUS
 10
27.5162975747
 20
28.492372336
 11
27.2800771022
 21
28.492372336
  0
LINE
  5
508
100
AcDbEntity
  8
3_ALL_AXES
100
AcDbLine
 62
7
  6
CONTINUOUS
 10
12.9887385196
 20
28.492372336
 11
12.7525180471
 21
28.492372336
  0
LINE
  5
509
100
AcDbEntity
  8
3_AXES_OTHER
100
AcDbLine
 62
7
  6
CONTINUOUS
 10
23.1855889133
 20
35.9709156431
 11
23.1855889133
 21
36.1480809974
  0
LINE
  5
50A
100
AcDbEntity
  8
3_ALL_AXES
100
AcDbLine
 62
7
  6
CONTINUOUS
 10
20.4823934316
 20
23.1493824159
 11
24.0426944262
 21
25.3910166423
  0
LINE
  5
50B
100
AcDbEntity
  8
3_ALL_AXES
100
AcDbLine
 62
7
  6
CONTINUOUS
 10
24.1501558424
 20
25.3910166423
 11
24.1501558424
 21
18.4698158398
  0
LINE
  5
50C
100
AcDbEntity
  8
3_ALL_AXES
100
AcDbLine
 62
7
  6
CONTINUOUS
 10
25.0162975747
 20
17.6331871713
 11
25.0162975747
 21
26.2953050926
  0
LINE
  5
50D
100
AcDbEntity
  8
3_AXES_OTHER
100
AcDbLine
 62
7
  6
CONTINUOUS
 10
25.2131479684
 20
17.1892356117
 11
25.2131479684
 21
35.214780559
  0
LINE
  5
50E
100
AcDbEntity
  8
3_AXES_OTHER
100
AcDbLine
 62
7
  6
CONTINUOUS
 10
26.1777148975
 20
35.9709156431
 11
26.1777148975
 21
36.1480809974
  0
LINE
  5
50F
100
AcDbEntity
  8
3_AXES_OTHER
100
AcDbLine
 62
7
  6
CONTINUOUS
 10
27.2800771022
 20
16.5220967455
 11
27.2800771022
 21
35.9709156431
  0
LINE
  5
510
100
AcDbEntity
  8
3_ALL_AXES
100
AcDbLine
 62
7
  6
CONTINUOUS
 10
27.5162975747
 20
27.9456161245
 11
27.5162975747
 21
28.4922781538
  0
LINE
  5
511
100
AcDbEntity
  8
3_AXES_OTHER
100
AcDbLine
 62
7
  6
CONTINUOUS
 10
15.0556676534
 20
35.214780559
 11
25.2131479684
 21
35.214780559
  0
LINE
  5
512
100
AcDbEntity
  8
3_AXES_OTHER
100
AcDbLine
 62
7
  6
CONTINUOUS
 10
27.2800771022
 20
35.8384492027
 11
12.9887385196
 21
35.8384492027
  0
LINE
  5
513
100
AcDbEntity
  8
3_AXES_OTHER
100
AcDbLine
 62
7
  6
CONTINUOUS
 10
27.2800771022
 20
35.9709156431
 11
12.9887385196
 21
35.9709156431
  0
LINE
  5
514
100
AcDbEntity
  8
3_AXES_OTHER
100
AcDbLine
 62
7
  6
CONTINUOUS
 10
17.693462929
 20
36.0489010502
 11
22.5753526928
 21
36.0489010502
  0
LINE
  5
515
100
AcDbEntity
  8
3_AXES_OTHER
100
AcDbLine
 62
7
  6
CONTINUOUS
 10
14.0911007243
 20
36.1480809974
 11
17.0832267085
 21
36.1480809974
  0
LINE
  5
516
100
AcDbEntity
  8
3_AXES_OTHER
100
AcDbLine
 62
7
  6
CONTINUOUS
 10
23.1855889133
 20
36.1480809974
 11
26.1777148975
 21
36.1480809974
  0
LINE
  5
517
100
AcDbEntity
  8
3_AXES_OTHER
100
AcDbLine
 62
7
  6
CONTINUOUS
 10
48.3331570871
 20
16.5220967455
 11
52.8643259565
 21
16.5220967455
  0
LINE
  5
518
100
AcDbEntity
  8
3_AXES_OTHER
100
AcDbLine
 62
7
  6
CONTINUOUS
 10
49.3766723226
 20
35.8348125966
 11
49.4765034081
 21
36.0489010502
  0
LINE
  5
519
100
AcDbEntity
  8
3_AXES_OTHER
100
AcDbLine
 62
7
  6
CONTINUOUS
 10
46.0139322558
 20
35.9709156431
 11
46.0139322558
 21
36.1480809974
  0
LINE
  5
51A
100
AcDbEntity
  8
3_AXES_OTHER
100
AcDbLine
 62
7
  6
CONTINUOUS
 10
48.3331570871
 20
16.5220967455
 11
43.1573560455
 21
35.8384492027
  0
LINE
  5
51B
100
AcDbEntity
  8
3_AXES_OTHER
100
AcDbLine
 62
7
  6
CONTINUOUS
 10
49.00605824
 20
35.9709156431
 11
49.00605824
 21
36.1480809974
  0
LINE
  5
51C
100
AcDbEntity
  8
3_ALL_AXES
100
AcDbLine
 62
7
  6
CENTER
 10
49.4233810747
 20
28.2189471392
 11
49.4233810747
 21
27.6455219423
  0
LINE
  5
51D
100
AcDbEntity
  8
3_ALL_AXES
100
AcDbLine
 62
7
  6
CENTER
 10
49.4233810747
 20
28.2189471392
 11
49.4233810747
 21
28.792372336
  0
LINE
  5
51E
100
AcDbEntity
  8
3_ALL_AXES
100
AcDbLine
 62
7
  6
CENTER
 10
49.4268259565
 20
26.713996974
 11
49.4268259565
 21
28.2744958265
  0
LINE
  5
51F
100
AcDbEntity
  8
3_AXES_OTHER
100
AcDbLine
 62
7
  6
CONTINUOUS
 10
52.7307247628
 20
34.2707922579
 11
52.8305558483
 21
34.4848807115
  0
LINE
  5
520
100
AcDbEntity
  8
3_AXES_OTHER
100
AcDbLine
 62
7
  6
CONTINUOUS
 10
52.8643259565
 20
27.4285928085
 11
53.4824361928
 21
27.4285928085
  0
LINE
  5
521
100
AcDbEntity
  8
3_ALL_AXES
100
AcDbLine
 62
7
  6
CENTER
 10
50.3854201918
 20
27.6584156431
 11
48.4503452817
 21
27.6584156431
  0
LINE
  5
522
100
AcDbEntity
  8
3_ALL_AXES
100
AcDbLine
 62
7
  6
CENTER
 10
49.4233810747
 20
28.2189471392
 11
48.8499558778
 21
28.2189471392
  0
LINE
  5
523
100
AcDbEntity
  8
3_ALL_AXES
100
AcDbLine
 62
7
  6
CENTER
 10
49.4233810747
 20
28.2189471392
 11
49.9968062715
 21
28.2189471392
  0
LINE
  5
524
100
AcDbEntity
  8
3_AXES_OTHER
100
AcDbLine
 62
7
  6
CONTINUOUS
 10
52.8643259565
 20
34.2084929981
 11
52.8643259565
 21
16.5220967455
  0
LINE
  5
525
100
AcDbEntity
  8
3_AXES_OTHER
100
AcDbLine
 62
7
  6
CONTINUOUS
 10
53.4824361928
 20
33.9234746982
 11
53.4824361928
 21
27.4285928085
  0
LINE
  5
526
100
AcDbEntity
  8
3_AXES_OTHER
100
AcDbLine
 62
7
  6
CONTINUOUS
 10
54.163538555
 20
33.9234746982
 11
54.163538555
 21
33.8636321785
  0
LINE
  5
527
100
AcDbEntity
  8
3_AXES_OTHER
100
AcDbLine
 62
7
  6
CONTINUOUS
 10
53.4824361928
 20
33.8636321785
 11
54.163538555
 21
33.8636321785
  0
LINE
  5
528
100
AcDbEntity
  8
3_AXES_OTHER
100
AcDbLine
 62
7
  6
CONTINUOUS
 10
52.8643259565
 20
33.9234746982
 11
54.163538555
 21
33.9234746982
  0
LINE
  5
529
100
AcDbEntity
  8
3_AXES_OTHER
100
AcDbLine
 62
7
  6
CONTINUOUS
 10
49.0847983975
 20
35.9709156431
 11
52.8643259565
 21
34.2084929981
  0
LINE
  5
52A
100
AcDbEntity
  8
3_AXES_OTHER
100
AcDbLine
 62
7
  6
CONTINUOUS
 10
43.6517275314
 20
35.9709156431
 11
49.0847983975
 21
35.9709156431
  0
LINE
  5
52B
100
AcDbEntity
  8
3_AXES_OTHER
100
AcDbLine
 62
7
  6
CONTINUOUS
 10
46.0139322558
 20
36.1480809974
 11
49.00605824
 21
36.1480809974
  0
LINE
  5
52C
100
AcDbEntity
  8
3_AXES_OTHER
100
AcDbLine
 62
7
  6
CONTINUOUS
 10
49.4765034081
 20
36.0489010502
 11
52.8305558483
 21
34.4848807115
  0
LINE
  5
52D
100
AcDbEntity
  8
3_AXES_OTHER
100
AcDbLine
 62
7
  6
CONTINUOUS
 10
43.1573560455
 20
35.8384492027
 11
43.6517275314
 21
35.9709156431
  0
LINE
  5
52E
100
AcDbEntity
  8
3_AXES_OTHER
100
AcDbLine
 62
7
  6
CONTINUOUS
 10
67.0346224692
 20
16.5220967455
 11
81.3259610518
 21
16.5220967455
  0
LINE
  5
52F
100
AcDbEntity
  8
3_ALL_AXES
100
AcDbLine
 62
7
  6
CONTINUOUS
 10
66.7984019967
 20
28.4922781538
 11
66.7984019967
 21
27.9456161245
  0
LINE
  5
530
100
AcDbEntity
  8
3_AXES_OTHER
100
AcDbLine
 62
7
  6
CONTINUOUS
 10
67.0346224692
 20
35.9709156431
 11
67.0346224692
 21
16.5220967455
  0
LINE
  5
531
100
AcDbEntity
  8
3_AXES_OTHER
100
AcDbLine
 62
7
  6
CONTINUOUS
 10
68.1369846739
 20
35.9709156431
 11
68.1369846739
 21
36.1480809974
  0
LINE
  5
532
100
AcDbEntity
  8
3_AXES_OTHER
100
AcDbLine
 62
7
  6
CONTINUOUS
 10
71.6625752251
 20
33.9234746982
 11
70.7295043589
 21
27.4285928085
  0
LINE
  5
533
100
AcDbEntity
  8
3_AXES_OTHER
100
AcDbLine
 62
7
  6
CONTINUOUS
 10
71.1291106581
 20
35.9709156431
 11
71.1291106581
 21
36.1480809974
  0
LINE
  5
534
100
AcDbEntity
  8
3_AXES_OTHER
100
AcDbLine
 62
7
  6
CONTINUOUS
 10
71.7393468786
 20
34.2707922579
 11
71.7393468786
 21
36.0489010502
  0
LINE
  5
535
100
AcDbEntity
  8
3_AXES_OTHER
100
AcDbLine
 62
7
  6
CONTINUOUS
 10
72.119979463
 20
33.9234746982
 11
71.1869085968
 21
27.4285928085
  0
LINE
  5
536
100
AcDbEntity
  8
3_AXES_OTHER
100
AcDbLine
 62
7
  6
CONTINUOUS
 10
72.2708429416
 20
27.4285928085
 11
72.2708429416
 21
33.9234746982
  0
LINE
  5
537
100
AcDbEntity
  8
3_AXES_OTHER
100
AcDbLine
 62
7
  6
CONTINUOUS
 10
72.3712366424
 20
35.7415876922
 11
72.3712366424
 21
34.7715623119
  0
LINE
  5
538
100
AcDbEntity
  8
3_ALL_AXES
100
AcDbLine
 62
7
  6
CENTER
 10
72.8052917605
 20
33.0535928085
 11
72.8052917605
 21
32.6285928085
  0
LINE
  5
539
100
AcDbEntity
  8
3_ALL_AXES
100
AcDbLine
 62
7
  6
CENTER
 10
72.8052917605
 20
28.0535928085
 11
72.8052917605
 21
27.6285928085
  0
LINE
  5
53A
100
AcDbEntity
  8
3_ALL_AXES
100
AcDbLine
 62
7
  6
CENTER
 10
72.8052917605
 20
28.0535928085
 11
72.8052917605
 21
28.4785928085
  0
LINE
  5
53B
100
AcDbEntity
  8
3_ALL_AXES
100
AcDbLine
 62
7
  6
CENTER
 10
72.8052917605
 20
33.0535928085
 11
72.8052917605
 21
33.4785928085
  0
LINE
  5
53C
100
AcDbEntity
  8
3_ALL_AXES
100
AcDbLine
 62
7
  6
CENTER
 10
74.1802917605
 20
15.9233373688
 11
74.1802917605
 21
36.814539332
  0
LINE
  5
53D
100
AcDbEntity
  8
3_ALL_AXES
100
AcDbLine
 62
7
  6
CENTER
 10
75.5552917605
 20
33.0535928085
 11
75.5552917605
 21
32.6285928085
  0
LINE
  5
53E
100
AcDbEntity
  8
3_ALL_AXES
100
AcDbLine
 62
7
  6
CENTER
 10
75.5552917605
 20
28.0535928085
 11
75.5552917605
 21
27.6285928085
  0
LINE
  5
53F
100
AcDbEntity
  8
3_ALL_AXES
100
AcDbLine
 62
7
  6
CENTER
 10
75.5552917605
 20
28.0535928085
 11
75.5552917605
 21
28.4785928085
  0
LINE
  5
540
100
AcDbEntity
  8
3_ALL_AXES
100
AcDbLine
 62
7
  6
CENTER
 10
75.5552917605
 20
33.0535928085
 11
75.5552917605
 21
33.4785928085
  0
LINE
  5
541
100
AcDbEntity
  8
3_AXES_OTHER
100
AcDbLine
 62
7
  6
CONTINUOUS
 10
70.7295043589
 20
27.4285928085
 11
77.6310791621
 21
27.4285928085
  0
LINE
  5
542
100
AcDbEntity
  8
3_ALL_AXES
100
AcDbLine
 62
7
  6
CONTINUOUS
 10
66.7984019967
 20
27.9455219423
 11
67.0346224692
 21
27.9455219423
  0
LINE
  5
543
100
AcDbEntity
  8
3_ALL_AXES
100
AcDbLine
 62
7
  6
CONTINUOUS
 10
81.3259610518
 20
27.9455219423
 11
81.5621815243
 21
27.9455219423
  0
LINE
  5
544
100
AcDbEntity
  8
3_ALL_AXES
100
AcDbLine
 62
7
  6
CENTER
 10
75.5552917605
 20
28.0535928085
 11
75.1302917605
 21
28.0535928085
  0
LINE
  5
545
100
AcDbEntity
  8
3_ALL_AXES
100
AcDbLine
 62
7
  6
CENTER
 10
72.8052917605
 20
28.0535928085
 11
72.3802917605
 21
28.0535928085
  0
LINE
  5
546
100
AcDbEntity
  8
3_ALL_AXES
100
AcDbLine
 62
7
  6
CENTER
 10
72.8052917605
 20
28.0535928085
 11
73.2302917605
 21
28.0535928085
  0
LINE
  5
547
100
AcDbEntity
  8
3_ALL_AXES
100
AcDbLine
 62
7
  6
CENTER
 10
75.5552917605
 20
28.0535928085
 11
75.9802917605
 21
28.0535928085
  0
LINE
  5
548
100
AcDbEntity
  8
3_AXES_OTHER
100
AcDbLine
 62
7
  6
CONTINUOUS
 10
75.9893468786
 20
34.7715623119
 11
75.9893468786
 21
35.7415876922
  0
LINE
  5
549
100
AcDbEntity
  8
3_AXES_OTHER
100
AcDbLine
 62
7
  6
CONTINUOUS
 10
76.0897405794
 20
27.4285928085
 11
76.0897405794
 21
33.9234746982
  0
LINE
  5
54A
100
AcDbEntity
  8
3_AXES_OTHER
100
AcDbLine
 62
7
  6
CONTINUOUS
 10
76.6212366424
 20
34.2707922579
 11
76.6212366424
 21
36.0489010502
  0
LINE
  5
54B
100
AcDbEntity
  8
3_ALL_AXES
100
AcDbLine
 62
7
  6
CONTINUOUS
 10
66.7984019967
 20
28.492372336
 11
67.0346224692
 21
28.492372336
  0
LINE
  5
54C
100
AcDbEntity
  8
3_ALL_AXES
100
AcDbLine
 62
7
  6
CONTINUOUS
 10
81.3259610518
 20
28.492372336
 11
81.5621815243
 21
28.492372336
  0
LINE
  5
54D
100
AcDbEntity
  8
3_AXES_OTHER
100
AcDbLine
 62
7
  6
CONTINUOUS
 10
77.2314728629
 20
35.9709156431
 11
77.2314728629
 21
36.1480809974
  0
LINE
  5
54E
100
AcDbEntity
  8
3_AXES_OTHER
100
AcDbLine
 62
7
  6
CONTINUOUS
 10
77.1736749242
 20
27.4285928085
 11
76.240604058
 21
33.9234746982
  0
LINE
  5
54F
100
AcDbEntity
  8
3_AXES_OTHER
100
AcDbLine
 62
7
  6
CONTINUOUS
 10
77.6310791621
 20
27.4285928085
 11
76.6980082959
 21
33.9234746982
  0
LINE
  5
550
100
AcDbEntity
  8
3_AXES_OTHER
100
AcDbLine
 62
7
  6
CONTINUOUS
 10
80.2235988471
 20
35.9709156431
 11
80.2235988471
 21
36.1480809974
  0
LINE
  5
551
100
AcDbEntity
  8
3_AXES_OTHER
100
AcDbLine
 62
7
  6
CONTINUOUS
 10
81.3259610518
 20
35.9709156431
 11
81.3259610518
 21
16.5220967455
  0
LINE
  5
552
100
AcDbEntity
  8
3_ALL_AXES
100
AcDbLine
 62
7
  6
CONTINUOUS
 10
81.5621815243
 20
28.4922781538
 11
81.5621815243
 21
27.9456161245
  0
LINE
  5
553
100
AcDbEntity
  8
3_ALL_AXES
100
AcDbLine
 62
7
  6
CENTER
 10
75.5552917605
 20
33.0535928085
 11
75.1302917605
 21
33.0535928085
  0
LINE
  5
554
100
AcDbEntity
  8
3_ALL_AXES
100
AcDbLine
 62
7
  6
CENTER
 10
72.8052917605
 20
33.0535928085
 11
72.3802917605
 21
33.0535928085
  0
LINE
  5
555
100
AcDbEntity
  8
3_ALL_AXES
100
AcDbLine
 62
7
  6
CENTER
 10
72.8052917605
 20
33.0535928085
 11
73.2302917605
 21
33.0535928085
  0
LINE
  5
556
100
AcDbEntity
  8
3_ALL_AXES
100
AcDbLine
 62
7
  6
CENTER
 10
75.5552917605
 20
33.0535928085
 11
75.9802917605
 21
33.0535928085
  0
LINE
  5
557
100
AcDbEntity
  8
3_AXES_OTHER
100
AcDbLine
 62
7
  6
CONTINUOUS
 10
72.2708429416
 20
33.8636321785
 11
76.0897405794
 21
33.8636321785
  0
LINE
  5
558
100
AcDbEntity
  8
3_AXES_OTHER
100
AcDbLine
 62
7
  6
CONTINUOUS
 10
76.6980082959
 20
33.9234746982
 11
71.6625752251
 21
33.9234746982
  0
LINE
  5
559
100
AcDbEntity
  8
3_AXES_OTHER
100
AcDbLine
 62
7
  6
CONTINUOUS
 10
67.0346224692
 20
34.2084929981
 11
81.3259610518
 21
34.2084929981
  0
LINE
  5
55A
100
AcDbEntity
  8
3_AXES_OTHER
100
AcDbLine
 62
7
  6
CONTINUOUS
 10
71.7393468786
 20
34.2707922579
 11
76.6212366424
 21
34.2707922579
  0
LINE
  5
55B
100
AcDbEntity
  8
3_AXES_OTHER
100
AcDbLine
 62
7
  6
CONTINUOUS
 10
71.7393468786
 20
34.4848807115
 11
76.6212366424
 21
34.4848807115
  0
LINE
  5
55C
100
AcDbEntity
  8
3_AXES_OTHER
100
AcDbLine
 62
7
  6
CONTINUOUS
 10
72.3712366424
 20
34.7715623119
 11
75.9893468786
 21
34.7715623119
  0
LINE
  5
55D
100
AcDbEntity
  8
3_AXES_OTHER
100
AcDbLine
 62
7
  6
CONTINUOUS
 10
75.9893468786
 20
35.0279595134
 11
72.3712366424
 21
35.0279595134
  0
LINE
  5
55E
100
AcDbEntity
  8
3_AXES_OTHER
100
AcDbLine
 62
7
  6
CONTINUOUS
 10
75.9893468786
 20
35.7415876922
 11
72.3712366424
 21
35.7415876922
  0
LINE
  5
55F
100
AcDbEntity
  8
3_AXES_OTHER
100
AcDbLine
 62
7
  6
CONTINUOUS
 10
67.0346224692
 20
35.9709156431
 11
71.7393468786
 21
35.9709156431
  0
LINE
  5
560
100
AcDbEntity
  8
3_AXES_OTHER
100
AcDbLine
 62
7
  6
CONTINUOUS
 10
76.6212366424
 20
35.9709156431
 11
81.3259610518
 21
35.9709156431
  0
LINE
  5
561
100
AcDbEntity
  8
3_AXES_OTHER
100
AcDbLine
 62
7
  6
CONTINUOUS
 10
76.6212366424
 20
36.0489010502
 11
71.7393468786
 21
36.0489010502
  0
LINE
  5
562
100
AcDbEntity
  8
3_AXES_OTHER
100
AcDbLine
 62
7
  6
CONTINUOUS
 10
68.1369846739
 20
36.1480809974
 11
71.1291106581
 21
36.1480809974
  0
LINE
  5
563
100
AcDbEntity
  8
3_AXES_OTHER
100
AcDbLine
 62
7
  6
CONTINUOUS
 10
77.2314728629
 20
36.1480809974
 11
80.2235988471
 21
36.1480809974
  0
CIRCLE
  5
564
100
AcDbEntity
  8
0
100
AcDbCircle
 62
7
  6
CONTINUOUS
 10
49.4233810747
 20
28.2189471392
 40
0.4399362299
  0
ARC
  5
565
100
AcDbEntity
  8
3_ALL_AXES
100
AcDbCircle
 62
7
  6
CONTINUOUS
 10
58.36653231
 20
53.2023578395
 40
2.1789921744
100
AcDbArc
 50
269.8801776856
 51
272.5637629204
  0
ARC
  5
566
100
AcDbEntity
  8
3_ALL_AXES
100
AcDbCircle
 62
7
  6
CONTINUOUS
 10
58.4964087396
 20
55.8451295266
 40
1.9268034825
100
AcDbArc
 50
195.4564126704
 51
241.2080428859
  0
ARC
  5
567
100
AcDbEntity
  8
3_ALL_AXES
100
AcDbCircle
 62
7
  6
CONTINUOUS
 10
55.77344306
 20
56.1791977467
 40
1.1002990972
100
AcDbArc
 50
131.9296905841
 51
134.3899095587
  0
ARC
  5
568
100
AcDbEntity
  8
3_ALL_AXES
100
AcDbCircle
 62
7
  6
CONTINUOUS
 10
58.1944368244
 20
53.1170745004
 40
1.0985233572
100
AcDbArc
 50
302.3216352964
 51
303.7968816687
  0
ARC
  5
569
100
AcDbEntity
  8
3_AXES_OTHER
100
AcDbCircle
 62
7
  6
CONTINUOUS
 10
59.9582152561
 20
49.3553045021
 40
0.3516699325
100
AcDbArc
 50
77.8417997195
 51
80.4951704546
  0
CIRCLE
  5
56A
100
AcDbEntity
  8
3_AXES_OTHER
100
AcDbCircle
 62
7
  6
CONTINUOUS
 10
24.6816519054
 20
48.755630811
 40
1.4960629921
  0
CIRCLE
  5
56B
100
AcDbEntity
  8
3_AXES_OTHER
100
AcDbCircle
 62
7
  6
CONTINUOUS
 10
15.5871637164
 20
48.755630811
 40
1.4960629921
  0
CIRCLE
  5
56C
100
AcDbEntity
  8
3_AXES_OTHER
100
AcDbCircle
 62
7
  6
CONTINUOUS
 10
24.6816519054
 20
48.755630811
 40
0.9842519685
  0
CIRCLE
  5
56D
100
AcDbEntity
  8
3_AXES_OTHER
100
AcDbCircle
 62
7
  6
CONTINUOUS
 10
15.5871637164
 20
48.755630811
 40
0.9842519685
  0
ARC
  5
56E
100
AcDbEntity
  8
3_ALL_AXES
100
AcDbCircle
 62
7
  6
CONTINUOUS
 10
21.1344078109
 20
55.1261032519
 40
0.1437007874
100
AcDbArc
 50
0.0
 51
180.0
  0
ARC
  5
56F
100
AcDbEntity
  8
3_ALL_AXES
100
AcDbCircle
 62
7
  6
CONTINUOUS
 10
19.1344078109
 20
54.9761032519
 40
0.1437007874
100
AcDbArc
 50
180.0
 51
360.0
  0
ARC
  5
570
100
AcDbEntity
  8
3_ALL_AXES
100
AcDbCircle
 62
7
  6
CONTINUOUS
 10
19.1344078109
 20
55.1261032519
 40
0.1437007874
100
AcDbArc
 50
0.0
 51
180.0
  0
ARC
  5
571
100
AcDbEntity
  8
3_ALL_AXES
100
AcDbCircle
 62
7
  6
CONTINUOUS
 10
21.1344078109
 20
54.9761032519
 40
0.1437007874
100
AcDbArc
 50
180.0
 51
360.0
  0
ARC
  5
572
100
AcDbEntity
  8
3_ALL_AXES
100
AcDbCircle
 62
7
  6
CONTINUOUS
 10
20.1344078109
 20
30.2865420106
 40
4.2326872915
100
AcDbArc
 50
253.5244484035
 51
286.4755515965
  0
ARC
  5
573
100
AcDbEntity
  8
3_ALL_AXES
100
AcDbCircle
 62
7
  6
CONTINUOUS
 10
20.1344078109
 20
30.3164998056
 40
4.2326872915
100
AcDbArc
 50
253.5244484035
 51
286.4755515965
  0
CIRCLE
  5
574
100
AcDbEntity
  8
3_ALL_AXES
100
AcDbCircle
 62
7
  6
CONTINUOUS
 10
49.4233810747
 20
28.2189471392
 40
0.2734251969
  0
CIRCLE
  5
575
100
AcDbEntity
  8
3_ALL_AXES
100
AcDbCircle
 62
7
  6
CONTINUOUS
 10
72.8052917605
 20
28.0535928085
 40
0.125
  0
CIRCLE
  5
576
100
AcDbEntity
  8
3_ALL_AXES
100
AcDbCircle
 62
7
  6
CONTINUOUS
 10
72.8052917605
 20
33.0535928085
 40
0.125
  0
CIRCLE
  5
577
100
AcDbEntity
  8
3_ALL_AXES
100
AcDbCircle
 62
7
  6
CONTINUOUS
 10
75.5552917605
 20
33.0535928085
 40
0.125
  0
CIRCLE
  5
578
100
AcDbEntity
  8
3_ALL_AXES
100
AcDbCircle
 62
7
  6
CONTINUOUS
 10
75.5552917605
 20
28.0535928085
 40
0.125
  0
SPLINE
  5
579
100
AcDbEntity
  8
3_ALL_AXES
100
AcDbSpline
 62
7
  6
CONTINUOUS
 70
0
 71
3
 72
11
 73
7
 74
0
 42
0.0000001
 43
0.0000001
 44
0.0000000001
 40
0.0
 40
0.0
 40
0.0
 40
0.0
 40
0.2226926496
 40
0.4581483494
 40
0.7157148822
 40
1.0
 40
1.0
 40
1.0
 40
1.0
 10
54.9990300913
 20
56.9695616668
 30
0.0
 10
55.0879263487
 20
57.0398490654
 30
0.0
 10
55.2951585204
 20
57.1558845942
 30
0.0
 10
55.6554701677
 20
57.2336824019
 30
0.0
 10
56.0540839948
 20
57.2186377935
 30
0.0
 10
56.3235172154
 20
57.1519672864
 30
0.0
 10
56.4607241416
 20
57.106100802
 30
0.0
  0
SPLINE
  5
57A
100
AcDbEntity
  8
3_ALL_AXES
100
AcDbSpline
 62
7
  6
CONTINUOUS
 70
0
 71
3
 72
16
 73
12
 74
0
 42
0.0000001
 43
0.0000001
 44
0.0000000001
 40
0.0
 40
0.0
 40
0.0
 40
0.0
 40
0.0440929322
 40
0.0895047345
 40
0.1881013569
 40
0.3013961849
 40
0.4295488558
 40
0.5692399967
 40
0.7150911171
 40
0.8607742047
 40
1.0
 40
1.0
 40
1.0
 40
1.0
 10
54.351995946
 20
57.7879868257
 30
0.0
 10
54.2675661549
 20
57.7212342069
 30
0.0
 10
54.1108045233
 20
57.5660763226
 30
0.0
 10
53.859426741
 20
57.1782035274
 30
0.0
 10
53.6871475056
 20
56.559217881
 30
0.0
 10
53.7112830755
 20
55.7211197613
 30
0.0
 10
53.9451795024
 20
54.8141089586
 30
0.0
 10
54.3728615341
 20
53.8940325114
 30
0.0
 10
54.966015401
 20
53.0191638461
 30
0.0
 10
55.6855172097
 20
52.2469752634
 30
0.0
 10
56.2386097308
 20
51.8184802354
 30
0.0
 10
56.5260142744
 20
51.6371082679
 30
0.0
  0
SPLINE
  5
57B
100
AcDbEntity
  8
3_ALL_AXES
100
AcDbSpline
 62
7
  6
CONTINUOUS
 70
0
 71
3
 72
11
 73
7
 74
0
 42
0.0000001
 43
0.0000001
 44
0.0000000001
 40
0.0
 40
0.0
 40
0.0
 40
0.0
 40
0.2899547426
 40
0.5762232358
 40
0.8158436853
 40
1.0
 40
1.0
 40
1.0
 40
1.0
 10
65.4541907746
 20
52.2206045809
 30
0.0
 10
65.4529035019
 20
52.1752343278
 30
0.0
 10
65.4344801082
 20
52.0850706297
 30
0.0
 10
65.3736551596
 20
51.9711602562
 30
0.0
 10
65.2914941517
 20
51.8915789783
 30
0.0
 10
65.2187052518
 20
51.8795529024
 30
0.0
 10
65.1913707228
 20
51.8887088021
 30
0.0
  0
SPLINE
  5
57C
100
AcDbEntity
  8
3_AXES_OTHER
100
AcDbSpline
 62
7
  6
CONTINUOUS
 70
0
 71
3
 72
11
 73
7
 74
0
 42
0.0000001
 43
0.0000001
 44
0.0000000001
 40
0.0
 40
0.0
 40
0.0
 40
0.0
 40
0.323465053
 40
0.5305322099
 40
0.7085713446
 40
1.0
 40
1.0
 40
1.0
 40
1.0
 10
60.9436244567
 20
60.1177796352
 30
0.0
 10
60.8926206921
 20
60.0967422889
 30
0.0
 10
60.810704229
 20
60.0573800742
 30
0.0
 10
60.7110868832
 20
59.9878024774
 30
0.0
 10
60.62911161
 20
59.906603151
 30
0.0
 10
60.5936518773
 20
59.8275097125
 30
0.0
 10
60.5922321859
 20
59.7778222611
 30
0.0
  0
SPLINE
  5
57D
100
AcDbEntity
  8
3_AXES_OTHER
100
AcDbSpline
 62
7
  6
CONTINUOUS
 70
0
 71
3
 72
11
 73
7
 74
0
 42
0.0000001
 43
0.0000001
 44
0.0000000001
 40
0.0
 40
0.0
 40
0.0
 40
0.0
 40
0.323465053
 40
0.5305322099
 40
0.7085713446
 40
1.0
 40
1.0
 40
1.0
 40
1.0
 10
53.9889009951
 20
62.4426529016
 30
0.0
 10
53.9378972305
 20
62.4216155554
 30
0.0
 10
53.8559807674
 20
62.3822533407
 30
0.0
 10
53.7563634216
 20
62.3126757438
 30
0.0
 10
53.6743881485
 20
62.2314764175
 30
0.0
 10
53.6389284157
 20
62.152382979
 30
0.0
 10
53.6375087243
 20
62.1026955276
 30
0.0
  0
SPLINE
  5
57E
100
AcDbEntity
  8
3_AXES_OTHER
100
AcDbSpline
 62
7
  6
CONTINUOUS
 70
0
 71
3
 72
15
 73
11
 74
0
 42
0.0000001
 43
0.0000001
 44
0.0000000001
 40
0.0
 40
0.0
 40
0.0
 40
0.0
 40
0.1258356261
 40
0.2739593553
 40
0.4332383956
 40
0.5909057655
 40
0.7344382864
 40
0.7975542437
 40
0.8535284181
 40
1.0
 40
1.0
 40
1.0
 40
1.0
 10
62.840367219
 20
59.4837232898
 30
0.0
 10
62.7676287207
 20
59.4537210932
 30
0.0
 10
62.6013865566
 20
59.4077666236
 30
0.0
 10
62.3321758406
 20
59.3731365467
 30
0.0
 10
62.0407957034
 20
59.36943459
 30
0.0
 10
61.7534476992
 20
59.397497126
 30
0.0
 10
61.5307880134
 20
59.4459447993
 30
0.0
 10
61.3745569681
 20
59.5016472731
 30
0.0
 10
61.228732078
 20
59.5690464085
 30
0.0
 10
61.1012647125
 20
59.6716298645
 30
0.0
 10
61.1038482676
 20
59.7631797977
 30
0.0
  0
SPLINE
  5
57F
100
AcDbEntity
  8
3_AXES_OTHER
100
AcDbSpline
 62
7
  6
CONTINUOUS
 70
0
 71
3
 72
15
 73
11
 74
0
 42
0.0000001
 43
0.0000001
 44
0.0000000001
 40
0.0
 40
0.0
 40
0.0
 40
0.0
 40
0.1258356261
 40
0.2739593553
 40
0.4332383956
 40
0.5909057655
 40
0.7344382864
 40
0.7975542437
 40
0.8535284181
 40
1.0
 40
1.0
 40
1.0
 40
1.0
 10
55.8856437574
 20
61.8085965562
 30
0.0
 10
55.8129052591
 20
61.7785943596
 30
0.0
 10
55.6466630951
 20
61.7326398901
 30
0.0
 10
55.377452379
 20
61.6980098132
 30
0.0
 10
55.0860722418
 20
61.6943078565
 30
0.0
 10
54.7987242376
 20
61.7223703925
 30
0.0
 10
54.5760645518
 20
61.7708180657
 30
0.0
 10
54.4198335065
 20
61.8265205396
 30
0.0
 10
54.2740086165
 20
61.893919675
 30
0.0
 10
54.1465412509
 20
61.996503131
 30
0.0
 10
54.149124806
 20
62.0880530642
 30
0.0
  0
SPLINE
  5
580
100
AcDbEntity
  8
3_AXES_OTHER
100
AcDbSpline
 62
7
  6
CONTINUOUS
 70
0
 71
3
 72
15
 73
11
 74
0
 42
0.0000001
 43
0.0000001
 44
0.0000000001
 40
0.0
 40
0.0
 40
0.0
 40
0.0
 40
0.1464415476
 40
0.2024063794
 40
0.2655198092
 40
0.4090511713
 40
0.5667267343
 40
0.7260154226
 40
0.874154812
 40
1.0
 40
1.0
 40
1.0
 40
1.0
 10
56.6284273918
 20
62.0177169067
 30
0.0
 10
56.6324027714
 20
62.1568503006
 30
0.0
 10
56.4387599734
 20
62.312851982
 30
0.0
 10
56.2171438883
 20
62.4153284969
 30
0.0
 10
55.9796790778
 20
62.5000159844
 30
0.0
 10
55.6412199388
 20
62.5736900235
 30
0.0
 10
55.2044138377
 20
62.6163719965
 30
0.0
 10
54.7614595164
 20
62.6107623543
 30
0.0
 10
54.3522050441
 20
62.558114749
 30
0.0
 10
54.0994778112
 20
62.4882621382
 30
0.0
 10
53.9889009951
 20
62.4426529016
 30
0.0
  0
SPLINE
  5
581
100
AcDbEntity
  8
3_AXES_OTHER
100
AcDbSpline
 62
7
  6
CONTINUOUS
 70
0
 71
3
 72
15
 73
11
 74
0
 42
0.0000001
 43
0.0000001
 44
0.0000000001
 40
0.0
 40
0.0
 40
0.0
 40
0.0
 40
0.1464415476
 40
0.2024063794
 40
0.2655198092
 40
0.4090511713
 40
0.5667267343
 40
0.7260154226
 40
0.874154812
 40
1.0
 40
1.0
 40
1.0
 40
1.0
 10
63.5831508534
 20
59.6928436402
 30
0.0
 10
63.587126233
 20
59.8319770341
 30
0.0
 10
63.3934834349
 20
59.9879787156
 30
0.0
 10
63.1718673499
 20
60.0904552304
 30
0.0
 10
62.9344025394
 20
60.1751427179
 30
0.0
 10
62.5959434004
 20
60.248816757
 30
0.0
 10
62.1591372993
 20
60.29149873
 30
0.0
 10
61.716182978
 20
60.2858890878
 30
0.0
 10
61.3069285056
 20
60.2332414825
 30
0.0
 10
61.0542012728
 20
60.1633888718
 30
0.0
 10
60.9436244567
 20
60.1177796352
 30
0.0
  0
LINE
  5
582
100
AcDbEntity
  8
3_ALL_AXES
100
AcDbLine
 62
7
  6
CONTINUOUS
 10
62.0222557192
 20
60.7546986415
 11
62.0253347677
 21
60.7578239276
  0
SPLINE
  5
583
100
AcDbEntity
  8
3_ALL_AXES
100
AcDbSpline
 62
7
  6
CONTINUOUS
 70
0
 71
3
 72
8
 73
4
 74
0
 42
0.0000001
 43
0.0000001
 44
0.0000000001
 40
0.0
 40
0.0
 40
0.0
 40
0.0
 40
1.0
 40
1.0
 40
1.0
 40
1.0
 10
62.0253347677
 20
60.7578239276
 30
0.0
 10
62.029022145
 20
60.7620020794
 30
0.0
 10
62.031902488
 20
60.7675637963
 30
0.0
 10
62.0320482215
 20
60.7731344754
 30
0.0
  0
LINE
  5
584
100
AcDbEntity
  8
3_ALL_AXES
100
AcDbLine
 62
7
  6
CONTINUOUS
 10
63.5516927402
 20
60.2434278107
 11
63.5547717887
 21
60.2465530968
  0
SPLINE
  5
585
100
AcDbEntity
  8
3_ALL_AXES
100
AcDbSpline
 62
7
  6
CONTINUOUS
 70
0
 71
3
 72
8
 73
4
 74
0
 42
0.0000001
 43
0.0000001
 44
0.0000000001
 40
0.0
 40
0.0
 40
0.0
 40
0.0
 40
1.0
 40
1.0
 40
1.0
 40
1.0
 10
63.5547717887
 20
60.2465530968
 30
0.0
 10
63.558459166
 20
60.2507312485
 30
0.0
 10
63.561339509
 20
60.2562929654
 30
0.0
 10
63.5614852425
 20
60.2618636445
 30
0.0
  0
SPLINE
  5
586
100
AcDbEntity
  8
3_AXES_OTHER
100
AcDbSpline
 62
7
  6
CONTINUOUS
 70
0
 71
3
 72
10
 73
6
 74
0
 42
0.0000001
 43
0.0000001
 44
0.0000000001
 40
0.0
 40
0.0
 40
0.0
 40
0.0
 40
0.1893175518
 40
0.5358735075
 40
1.0
 40
1.0
 40
1.0
 40
1.0
 10
63.0715347717
 20
59.7074861036
 30
0.0
 10
63.0709353163
 20
59.6862440165
 30
0.0
 10
63.0535470527
 20
59.6261605836
 30
0.0
 10
62.9701230226
 20
59.5448622425
 30
0.0
 10
62.8885285765
 20
59.5035882382
 30
0.0
 10
62.840367219
 20
59.4837232898
 30
0.0
  0
SPLINE
  5
587
100
AcDbEntity
  8
3_AXES_OTHER
100
AcDbSpline
 62
7
  6
CONTINUOUS
 70
0
 71
3
 72
10
 73
6
 74
0
 42
0.0000001
 43
0.0000001
 44
0.0000000001
 40
0.0
 40
0.0
 40
0.0
 40
0.0
 40
0.1893175518
 40
0.5358735075
 40
1.0
 40
1.0
 40
1.0
 40
1.0
 10
56.1168113101
 20
62.0323593701
 30
0.0
 10
56.1162118547
 20
62.011117283
 30
0.0
 10
56.0988235911
 20
61.9510338501
 30
0.0
 10
56.0153995611
 20
61.869735509
 30
0.0
 10
55.933805115
 20
61.8284615047
 30
0.0
 10
55.8856437574
 20
61.8085965562
 30
0.0
  0
SPLINE
  5
588
100
AcDbEntity
  8
3_ALL_AXES
100
AcDbSpline
 62
7
  6
CONTINUOUS
 70
0
 71
3
 72
9
 73
5
 74
0
 42
0.0000001
 43
0.0000001
 44
0.0000000001
 40
0.0
 40
0.0
 40
0.0
 40
0.0
 40
0.4298471014
 40
1.0
 40
1.0
 40
1.0
 40
1.0
 10
65.3649351522
 20
52.4072809249
 30
0.0
 10
65.3944452316
 20
52.3973963088
 30
0.0
 10
65.4483745809
 20
52.3364145062
 30
0.0
 10
65.4553615216
 20
52.261867858
 30
0.0
 10
65.4541907746
 20
52.2206045809
 30
0.0
  0
SPLINE
  5
589
100
AcDbEntity
  8
3_ALL_AXES
100
AcDbSpline
 62
7
  6
CONTINUOUS
 70
0
 71
3
 72
16
 73
12
 74
0
 42
0.0000001
 43
0.0000001
 44
0.0000000001
 40
0.0
 40
0.0
 40
0.0
 40
0.0
 40
0.1263728178
 40
0.2660663192
 40
0.4120761107
 40
0.5561229217
 40
0.6903105879
 40
0.8088346324
 40
0.9101181888
 40
0.955909003
 40
1.0
 40
1.0
 40
1.0
 40
1.0
 10
56.4607241416
 20
57.106100802
 30
0.0
 10
56.709825015
 20
57.0228296318
 30
0.0
 10
57.2095910636
 20
56.7714708718
 30
0.0
 10
57.8820447549
 20
56.2336635884
 30
0.0
 10
58.4711417814
 20
55.5559049016
 30
0.0
 10
58.9267667854
 20
54.7954697769
 30
0.0
 10
59.2106287318
 20
54.0148185204
 30
0.0
 10
59.2994258351
 20
53.2767474808
 30
0.0
 10
59.1903564692
 20
52.7205206855
 30
0.0
 10
58.9879357491
 20
52.3747182201
 30
0.0
 10
58.8556982803
 20
52.2395167493
 30
0.0
 10
58.7838151163
 20
52.182681054
 30
0.0
  0
SPLINE
  5
58A
100
AcDbEntity
  8
3_ALL_AXES
100
AcDbSpline
 62
7
  6
CONTINUOUS
 70
0
 71
3
 72
9
 73
5
 74
0
 42
0.0000001
 43
0.0000001
 44
0.0000000001
 40
0.0
 40
0.0
 40
0.0
 40
0.0
 40
0.5165282599
 40
1.0
 40
1.0
 40
1.0
 40
1.0
 10
58.4640011877
 20
51.0255467054
 30
0.0
 10
58.6424591188
 20
51.0335743036
 30
0.0
 10
58.9887914342
 20
51.0929644118
 30
0.0
 10
59.2998452257
 20
51.2606719826
 30
0.0
 10
59.4310033902
 20
51.3643801126
 30
0.0
  0
SPLINE
  5
58B
100
AcDbEntity
  8
3_ALL_AXES
100
AcDbSpline
 62
7
  6
CONTINUOUS
 70
0
 71
3
 72
11
 73
7
 74
0
 42
0.0000001
 43
0.0000001
 44
0.0000000001
 40
0.0
 40
0.0
 40
0.0
 40
0.0
 40
0.2899083527
 40
0.5761743628
 40
0.8158306533
 40
1.0
 40
1.0
 40
1.0
 40
1.0
 10
64.9214729326
 20
52.1357714647
 30
0.0
 10
64.9227597538
 20
52.1811258085
 30
0.0
 10
64.9411710872
 20
52.2712653451
 30
0.0
 10
65.0019748929
 20
52.3851561974
 30
0.0
 10
65.0840885497
 20
52.4647533399
 30
0.0
 10
65.1568620322
 20
52.4768322657
 30
0.0
 10
65.1841988209
 20
52.4676940149
 30
0.0
  0
SPLINE
  5
58C
100
AcDbEntity
  8
3_ALL_AXES
100
AcDbSpline
 62
7
  6
CONTINUOUS
 70
0
 71
3
 72
11
 73
7
 74
0
 42
0.0000001
 43
0.0000001
 44
0.0000000001
 40
0.0
 40
0.0
 40
0.0
 40
0.0
 40
0.2899547426
 40
0.5762232358
 40
0.8158436853
 40
1.0
 40
1.0
 40
1.0
 40
1.0
 10
65.1021151004
 20
52.0753851461
 30
0.0
 10
65.1034023731
 20
52.1207553992
 30
0.0
 10
65.1218257668
 20
52.2109190973
 30
0.0
 10
65.1826507154
 20
52.3248294708
 30
0.0
 10
65.2648117232
 20
52.4044107487
 30
0.0
 10
65.3376006232
 20
52.4164368246
 30
0.0
 10
65.3649351522
 20
52.4072809249
 30
0.0
  0
SPLINE
  5
58D
100
AcDbEntity
  8
3_ALL_AXES
100
AcDbSpline
 62
7
  6
CONTINUOUS
 70
0
 71
3
 72
19
 73
15
 74
0
 42
0.0000001
 43
0.0000001
 44
0.0000000001
 40
0.0
 40
0.0
 40
0.0
 40
0.0
 40
0.0465015664
 40
0.0959737099
 40
0.1505105668
 40
0.2110293119
 40
0.3484309386
 40
0.4999976937
 40
0.6515649735
 40
0.7889678719
 40
0.849487437
 40
0.9040251559
 40
0.9534978818
 40
1.0
 40
1.0
 40
1.0
 40
1.0
 10
54.4435804373
 20
57.8603995788
 30
0.0
 10
54.5701651102
 20
57.9604809964
 30
0.0
 10
54.868520967
 20
58.1235989033
 30
0.0
 10
55.3884931389
 20
58.2216469803
 30
0.0
 10
55.9631639147
 20
58.1797925785
 30
0.0
 10
56.8092860059
 20
57.9344416875
 30
0.0
 10
57.8647538006
 20
57.2982106305
 30
0.0
 10
58.9503446473
 20
56.20410887
 30
0.0
 10
59.7645740018
 20
54.8954411124
 30
0.0
 10
60.1402242504
 20
53.7216819676
 30
0.0
 10
60.1838203248
 20
52.84177515
 30
0.0
 10
60.0920157443
 20
52.2729349115
 30
0.0
 10
59.8766956337
 20
51.7895841559
 30
0.0
 10
59.6491682683
 20
51.5368812109
 30
0.0
 10
59.5225871137
 20
51.4367922563
 30
0.0
  0
SPLINE
  5
58E
100
AcDbEntity
  8
3_AXES_OTHER
100
AcDbSpline
 62
7
  6
CONTINUOUS
 70
0
 71
3
 72
15
 73
11
 74
0
 42
0.0000001
 43
0.0000001
 44
0.0000000001
 40
0.0
 40
0.0
 40
0.0
 40
0.0
 40
0.1464415476
 40
0.2024063794
 40
0.2655198092
 40
0.4090511713
 40
0.5667267343
 40
0.7260154226
 40
0.874154812
 40
1.0
 40
1.0
 40
1.0
 40
1.0
 10
53.6375087243
 20
62.1026955276
 30
0.0
 10
53.6335333448
 20
61.9635621336
 30
0.0
 10
53.8271761428
 20
61.8075604522
 30
0.0
 10
54.0487922278
 20
61.7050839374
 30
0.0
 10
54.2862570383
 20
61.6203964498
 30
0.0
 10
54.6247161774
 20
61.5467224108
 30
0.0
 10
55.0615222784
 20
61.5040404377
 30
0.0
 10
55.5044765997
 20
61.50965008
 30
0.0
 10
55.9137310721
 20
61.5622976853
 30
0.0
 10
56.166458305
 20
61.632150296
 30
0.0
 10
56.277035121
 20
61.6777595326
 30
0.0
  0
SPLINE
  5
58F
100
AcDbEntity
  8
3_AXES_OTHER
100
AcDbSpline
 62
7
  6
CONTINUOUS
 70
0
 71
3
 72
15
 73
11
 74
0
 42
0.0000001
 43
0.0000001
 44
0.0000000001
 40
0.0
 40
0.0
 40
0.0
 40
0.0
 40
0.1464375086
 40
0.2024003526
 40
0.2655162292
 40
0.4090459448
 40
0.5667233294
 40
0.7260129036
 40
0.8741555302
 40
1.0
 40
1.0
 40
1.0
 40
1.0
 10
53.6328402722
 20
61.9380185358
 30
0.0
 10
53.6288661404
 20
61.7988884593
 30
0.0
 10
53.8224886536
 20
61.6428843156
 30
0.0
 10
54.0440977024
 20
61.5403936636
 30
0.0
 10
54.2815666641
 20
61.4557191159
 30
0.0
 10
54.6200244994
 20
61.3820250227
 30
0.0
 10
55.0568353394
 20
61.3393578736
 30
0.0
 10
55.4997965943
 20
61.3449519931
 30
0.0
 10
55.9090551401
 20
61.3976086301
 30
0.0
 10
56.1617858498
 20
61.467459927
 30
0.0
 10
56.2723624219
 20
61.513069063
 30
0.0
  0
SPLINE
  5
590
100
AcDbEntity
  8
3_ALL_AXES
100
AcDbSpline
 62
7
  6
CONTINUOUS
 70
0
 71
3
 72
19
 73
15
 74
0
 42
0.0000001
 43
0.0000001
 44
0.0000000001
 40
0.0
 40
0.0
 40
0.0
 40
0.0
 40
0.0465021204
 40
0.0959748498
 40
0.1505125722
 40
0.2110321397
 40
0.3484350373
 40
0.5000023113
 40
0.6515690625
 40
0.7889706918
 40
0.8494894388
 40
0.9040262945
 40
0.9534984355
 40
1.0
 40
1.0
 40
1.0
 40
1.0
 10
59.4310033902
 20
51.3643801126
 30
0.0
 10
59.5575845068
 20
51.464469123
 30
0.0
 10
59.7851117836
 20
51.7171721639
 30
0.0
 10
60.0004317394
 20
52.2005230109
 30
0.0
 10
60.092236179
 20
52.769363292
 30
0.0
 10
60.0486399327
 20
53.6492701013
 30
0.0
 10
59.6729895571
 20
54.8230291579
 30
0.0
 10
58.8587601243
 20
56.1316967914
 30
0.0
 10
57.7731692332
 20
57.2257984334
 30
0.0
 10
56.7177013933
 20
57.8620293914
 30
0.0
 10
55.8715792684
 20
58.1073801607
 30
0.0
 10
55.296908498
 20
58.1492344545
 30
0.0
 10
54.776936377
 20
58.051186253
 30
0.0
 10
54.4785805815
 20
57.8880682756
 30
0.0
 10
54.351995946
 20
57.7879868257
 30
0.0
  0
SPLINE
  5
591
100
AcDbEntity
  8
3_AXES_OTHER
100
AcDbSpline
 62
7
  6
CONTINUOUS
 70
0
 71
3
 72
11
 73
7
 74
0
 42
0.0000001
 43
0.0000001
 44
0.0000000001
 40
0.0
 40
0.0
 40
0.0
 40
0.0
 40
0.323465053
 40
0.5305322099
 40
0.7085713446
 40
1.0
 40
1.0
 40
1.0
 40
1.0
 10
63.2317585826
 20
59.3528862661
 30
0.0
 10
63.2827623472
 20
59.3739236124
 30
0.0
 10
63.3646788104
 20
59.4132858271
 30
0.0
 10
63.4642961561
 20
59.4828634239
 30
0.0
 10
63.5462714293
 20
59.5640627503
 30
0.0
 10
63.581731162
 20
59.6431561888
 30
0.0
 10
63.5831508534
 20
59.6928436402
 30
0.0
  0
SPLINE
  5
592
100
AcDbEntity
  8
3_AXES_OTHER
100
AcDbSpline
 62
7
  6
CONTINUOUS
 70
0
 71
3
 72
11
 73
7
 74
0
 42
0.0000001
 43
0.0000001
 44
0.0000000001
 40
0.0
 40
0.0
 40
0.0
 40
0.0
 40
0.323465053
 40
0.5305322099
 40
0.7085713446
 40
1.0
 40
1.0
 40
1.0
 40
1.0
 10
56.277035121
 20
61.6777595326
 30
0.0
 10
56.3280388856
 20
61.6987968788
 30
0.0
 10
56.4099553488
 20
61.7381590935
 30
0.0
 10
56.5095726945
 20
61.8077366904
 30
0.0
 10
56.5915479677
 20
61.8889360167
 30
0.0
 10
56.6270077004
 20
61.9680294553
 30
0.0
 10
56.6284273918
 20
62.0177169067
 30
0.0
  0
SPLINE
  5
593
100
AcDbEntity
  8
3_AXES_OTHER
100
AcDbSpline
 62
7
  6
CONTINUOUS
 70
0
 71
3
 72
15
 73
11
 74
0
 42
0.0000001
 43
0.0000001
 44
0.0000000001
 40
0.0
 40
0.0
 40
0.0
 40
0.0
 40
0.1258356261
 40
0.2739593553
 40
0.4332383956
 40
0.5909057655
 40
0.7344382864
 40
0.7975542437
 40
0.8535284181
 40
1.0
 40
1.0
 40
1.0
 40
1.0
 10
61.3350158203
 20
59.9869426115
 30
0.0
 10
61.4077543186
 20
60.0169448081
 30
0.0
 10
61.5739964827
 20
60.0628992777
 30
0.0
 10
61.8432071987
 20
60.0975293546
 30
0.0
 10
62.1345873359
 20
60.1012313113
 30
0.0
 10
62.4219353401
 20
60.0731687753
 30
0.0
 10
62.6445950259
 20
60.024721102
 30
0.0
 10
62.8008260712
 20
59.9690186282
 30
0.0
 10
62.9466509613
 20
59.9016194927
 30
0.0
 10
63.0741183268
 20
59.7990360368
 30
0.0
 10
63.0715347717
 20
59.7074861036
 30
0.0
  0
SPLINE
  5
594
100
AcDbEntity
  8
3_AXES_OTHER
100
AcDbSpline
 62
7
  6
CONTINUOUS
 70
0
 71
3
 72
15
 73
11
 74
0
 42
0.0000001
 43
0.0000001
 44
0.0000000001
 40
0.0
 40
0.0
 40
0.0
 40
0.0
 40
0.1464415476
 40
0.2024063794
 40
0.2655198092
 40
0.4090511713
 40
0.5667267343
 40
0.7260154226
 40
0.874154812
 40
1.0
 40
1.0
 40
1.0
 40
1.0
 10
60.5922321859
 20
59.7778222611
 30
0.0
 10
60.5882568063
 20
59.6386888671
 30
0.0
 10
60.7818996044
 20
59.4826871857
 30
0.0
 10
61.0035156894
 20
59.3802106709
 30
0.0
 10
61.2409804999
 20
59.2955231833
 30
0.0
 10
61.579439639
 20
59.2218491443
 30
0.0
 10
62.01624574
 20
59.1791671712
 30
0.0
 10
62.4592000613
 20
59.1847768135
 30
0.0
 10
62.8684545337
 20
59.2374244188
 30
0.0
 10
63.1211817665
 20
59.3072770295
 30
0.0
 10
63.2317585826
 20
59.3528862661
 30
0.0
  0
SPLINE
  5
595
100
AcDbEntity
  8
3_AXES_OTHER
100
AcDbSpline
 62
7
  6
CONTINUOUS
 70
0
 71
3
 72
15
 73
11
 74
0
 42
0.0000001
 43
0.0000001
 44
0.0000000001
 40
0.0
 40
0.0
 40
0.0
 40
0.0
 40
0.1464375086
 40
0.2024003526
 40
0.2655162292
 40
0.4090459448
 40
0.5667233294
 40
0.7260129036
 40
0.8741555302
 40
1.0
 40
1.0
 40
1.0
 40
1.0
 10
60.5875637338
 20
59.6131452693
 30
0.0
 10
60.583589602
 20
59.4740151928
 30
0.0
 10
60.7772121152
 20
59.3180110492
 30
0.0
 10
60.998821164
 20
59.2155203971
 30
0.0
 10
61.2362901256
 20
59.1308458494
 30
0.0
 10
61.574747961
 20
59.0571517562
 30
0.0
 10
62.011558801
 20
59.0144846071
 30
0.0
 10
62.4545200559
 20
59.0200787266
 30
0.0
 10
62.8637786017
 20
59.0727353636
 30
0.0
 10
63.1165093114
 20
59.1425866606
 30
0.0
 10
63.2270858835
 20
59.1881957965
 30
0.0
  0
SPLINE
  5
596
100
AcDbEntity
  8
3_AXES_OTHER
100
AcDbSpline
 62
7
  6
CONTINUOUS
 70
0
 71
3
 72
15
 73
11
 74
0
 42
0.0000001
 43
0.0000001
 44
0.0000000001
 40
0.0
 40
0.0
 40
0.0
 40
0.0
 40
0.1258356261
 40
0.2739593553
 40
0.4332383956
 40
0.5909057655
 40
0.7344382864
 40
0.7975542437
 40
0.8535284181
 40
1.0
 40
1.0
 40
1.0
 40
1.0
 10
54.3802923588
 20
62.311815878
 30
0.0
 10
54.453030857
 20
62.3418180746
 30
0.0
 10
54.6192730211
 20
62.3877725442
 30
0.0
 10
54.8884837371
 20
62.422402621
 30
0.0
 10
55.1798638743
 20
62.4261045778
 30
0.0
 10
55.4672118785
 20
62.3980420418
 30
0.0
 10
55.6898715644
 20
62.3495943685
 30
0.0
 10
55.8461026096
 20
62.2938918947
 30
0.0
 10
55.9919274997
 20
62.2264927592
 30
0.0
 10
56.1193948652
 20
62.1239093032
 30
0.0
 10
56.1168113101
 20
62.0323593701
 30
0.0
  0
SPLINE
  5
597
100
AcDbEntity
  8
3_AXES_OTHER
100
AcDbSpline
 62
7
  6
CONTINUOUS
 70
0
 71
3
 72
8
 73
4
 74
0
 42
0.0000001
 43
0.0000001
 44
0.0000000001
 40
0.0
 40
0.0
 40
0.0
 40
0.0
 40
1.0
 40
1.0
 40
1.0
 40
1.0
 10
60.088999921
 20
49.6823054257
 30
0.0
 10
60.0705341495
 20
49.689215719
 30
0.0
 10
60.0515562768
 20
49.6949388232
 30
0.0
 10
60.0322810492
 20
49.6990864093
 30
0.0
  0
SPLINE
  5
598
100
AcDbEntity
  8
3_AXES_OTHER
100
AcDbSpline
 62
7
  6
CONTINUOUS
 70
0
 71
3
 72
9
 73
5
 74
0
 42
0.0000001
 43
0.0000001
 44
0.0000000001
 40
0.0
 40
0.0
 40
0.0
 40
0.0
 40
0.5306709568
 40
1.0
 40
1.0
 40
1.0
 40
1.0
 10
60.0162867726
 20
49.7021465993
 30
0.0
 10
59.9816726365
 20
49.7079327144
 30
0.0
 10
59.9135023633
 20
49.7092376709
 30
0.0
 10
59.8513756155
 20
49.6779664096
 30
0.0
 10
59.8285315956
 20
49.6569547021
 30
0.0
  0
SPLINE
  5
599
100
AcDbEntity
  8
3_AXES_OTHER
100
AcDbSpline
 62
7
  6
CONTINUOUS
 70
0
 71
3
 72
10
 73
6
 74
0
 42
0.0000001
 43
0.0000001
 44
0.0000000001
 40
0.0
 40
0.0
 40
0.0
 40
0.0
 40
0.1893175518
 40
0.5358735075
 40
1.0
 40
1.0
 40
1.0
 40
1.0
 10
61.1038482676
 20
59.7631797977
 30
0.0
 10
61.104447723
 20
59.7844218847
 30
0.0
 10
61.1218359866
 20
59.8445053177
 30
0.0
 10
61.2052600167
 20
59.9258036588
 30
0.0
 10
61.2868544628
 20
59.9670776631
 30
0.0
 10
61.3350158203
 20
59.9869426115
 30
0.0
  0
SPLINE
  5
59A
100
AcDbEntity
  8
3_AXES_OTHER
100
AcDbSpline
 62
7
  6
CONTINUOUS
 70
0
 71
3
 72
10
 73
6
 74
0
 42
0.0000001
 43
0.0000001
 44
0.0000000001
 40
0.0
 40
0.0
 40
0.0
 40
0.0
 40
0.1893175518
 40
0.5358735075
 40
1.0
 40
1.0
 40
1.0
 40
1.0
 10
54.149124806
 20
62.0880530642
 30
0.0
 10
54.1497242614
 20
62.1092951512
 30
0.0
 10
54.167112525
 20
62.1693785841
 30
0.0
 10
54.2505365551
 20
62.2506769253
 30
0.0
 10
54.3321310012
 20
62.2919509295
 30
0.0
 10
54.3802923588
 20
62.311815878
 30
0.0
  0
SPLINE
  5
59B
100
AcDbEntity
  8
3_ALL_AXES
100
AcDbSpline
 62
7
  6
CONTINUOUS
 70
0
 71
3
 72
11
 73
7
 74
0
 42
0.0000001
 43
0.0000001
 44
0.0000000001
 40
0.0
 40
0.0
 40
0.0
 40
0.0
 40
0.2226926496
 40
0.4581483494
 40
0.7157148822
 40
1.0
 40
1.0
 40
1.0
 40
1.0
 10
58.7838151163
 20
52.182681054
 30
0.0
 10
58.694918859
 20
52.1123936554
 30
0.0
 10
58.4876866873
 20
51.9963581265
 30
0.0
 10
58.1273750399
 20
51.9185603188
 30
0.0
 10
57.7287612128
 20
51.9336049273
 30
0.0
 10
57.4593279922
 20
52.0002754344
 30
0.0
 10
57.322121066
 20
52.0461419187
 30
0.0
  0
SPLINE
  5
59C
100
AcDbEntity
  8
3_AXES_OTHER
100
AcDbSpline
 62
7
  6
CONTINUOUS
 70
0
 71
3
 72
11
 73
7
 74
0
 42
0.0000001
 43
0.0000001
 44
0.0000000001
 40
0.0
 40
0.0
 40
0.0
 40
0.0
 40
0.3234960182
 40
0.5305257544
 40
0.7085647468
 40
1.0
 40
1.0
 40
1.0
 40
1.0
 10
63.2270858835
 20
59.1881957965
 30
0.0
 10
63.278093048
 20
59.2092345451
 30
0.0
 10
63.3600098132
 20
59.2485887489
 30
0.0
 10
63.4596179256
 20
59.3181717728
 30
0.0
 10
63.5415880952
 20
59.3993621609
 30
0.0
 10
63.5770546365
 20
59.4784525491
 30
0.0
 10
63.5784739073
 20
59.5281396928
 30
0.0
  0
SPLINE
  5
59D
100
AcDbEntity
  8
3_AXES_OTHER
100
AcDbSpline
 62
7
  6
CONTINUOUS
 70
0
 71
3
 72
11
 73
7
 74
0
 42
0.0000001
 43
0.0000001
 44
0.0000000001
 40
0.0
 40
0.0
 40
0.0
 40
0.0
 40
0.3234960182
 40
0.5305257544
 40
0.7085647468
 40
1.0
 40
1.0
 40
1.0
 40
1.0
 10
56.2723624219
 20
61.513069063
 30
0.0
 10
56.3233695864
 20
61.5341078116
 30
0.0
 10
56.4052863516
 20
61.5734620154
 30
0.0
 10
56.504894464
 20
61.6430450393
 30
0.0
 10
56.5868646336
 20
61.7242354274
 30
0.0
 10
56.6223311749
 20
61.8033258156
 30
0.0
 10
56.6237504458
 20
61.8530129593
 30
0.0
  0
SPLINE
  5
59E
100
AcDbEntity
  8
3_ALL_AXES
100
AcDbSpline
 62
7
  6
CONTINUOUS
 70
0
 71
3
 72
9
 73
5
 74
0
 42
0.0000001
 43
0.0000001
 44
0.0000000001
 40
0.0
 40
0.0
 40
0.0
 40
0.0
 40
0.429838602
 40
1.0
 40
1.0
 40
1.0
 40
1.0
 10
65.0108227185
 20
51.9490683493
 30
0.0
 10
64.9812952278
 20
51.9589389167
 30
0.0
 10
64.9272830947
 20
52.0198974435
 30
0.0
 10
64.9203016915
 20
52.0944907747
 30
0.0
 10
64.9214729326
 20
52.1357714647
 30
0.0
  0
SPLINE
  5
59F
100
AcDbEntity
  8
3_ALL_AXES
100
AcDbSpline
 62
7
  6
CONTINUOUS
 70
0
 71
3
 72
9
 73
5
 74
0
 42
0.0000001
 43
0.0000001
 44
0.0000000001
 40
0.0
 40
0.0
 40
0.0
 40
0.0
 40
0.4298471014
 40
1.0
 40
1.0
 40
1.0
 40
1.0
 10
65.1913707228
 20
51.8887088021
 30
0.0
 10
65.1618606434
 20
51.8985934182
 30
0.0
 10
65.1079312941
 20
51.9595752208
 30
0.0
 10
65.1009443534
 20
52.034121869
 30
0.0
 10
65.1021151004
 20
52.0753851461
 30
0.0
  0
SPLINE
  5
5A0
100
AcDbEntity
  8
3_ALL_AXES
100
AcDbSpline
 62
7
  6
CONTINUOUS
 70
0
 71
3
 72
9
 73
5
 74
0
 42
0.0000001
 43
0.0000001
 44
0.0000000001
 40
0.0
 40
0.0
 40
0.0
 40
0.0
 40
0.536184628
 40
1.0
 40
1.0
 40
1.0
 40
1.0
 10
56.5260142744
 20
51.6371082679
 30
0.0
 10
56.8213920382
 20
51.4507046519
 30
0.0
 10
57.4083731496
 20
51.1552357367
 30
0.0
 10
58.0598412417
 20
51.0239417622
 30
0.0
 10
58.3619754002
 20
51.0233704301
 30
0.0
  0
SPLINE
  5
5A1
100
AcDbEntity
  8
3_ALL_AXES
100
AcDbSpline
 62
7
  6
CONTINUOUS
 70
0
 71
3
 72
11
 73
7
 74
0
 42
0.0000001
 43
0.0000001
 44
0.0000000001
 40
0.0
 40
0.0
 40
0.0
 40
0.0
 40
0.2823333613
 40
0.5403011511
 40
0.7772045466
 40
1.0
 40
1.0
 40
1.0
 40
1.0
 10
57.4137052429
 20
52.1185544248
 30
0.0
 10
57.5398157836
 20
52.0763973173
 30
0.0
 10
57.7877849632
 20
52.013379186
 30
0.0
 10
58.1555209669
 20
51.9896832247
 30
0.0
 10
58.4924494338
 20
52.043118058
 30
0.0
 10
58.6931146614
 20
52.1326523738
 30
0.0
 10
58.7817859426
 20
52.1887563547
 30
0.0
  0
SPLINE
  5
5A2
100
AcDbEntity
  8
3_ALL_AXES
100
AcDbSpline
 62
7
  6
CONTINUOUS
 70
0
 71
3
 72
18
 73
14
 74
0
 42
0.0000001
 43
0.0000001
 44
0.0000000001
 40
0.0
 40
0.0
 40
0.0
 40
0.0
 40
0.1351727128
 40
0.2858920808
 40
0.4383241765
 40
0.5780314625
 40
0.639970207
 40
0.695868021
 40
0.7463860034
 40
0.7933556321
 40
0.8396131118
 40
0.8882106061
 40
1.0
 40
1.0
 40
1.0
 40
1.0
 10
57.4184246024
 20
56.2150891248
 30
0.0
 10
57.5594914424
 20
56.1679323217
 30
0.0
 10
57.8391127029
 20
56.0115171157
 30
0.0
 10
58.1903529304
 20
55.6753488109
 30
0.0
 10
58.4606574731
 20
55.2650669038
 30
0.0
 10
58.5927019198
 20
54.8922642291
 30
0.0
 10
58.6186037877
 20
54.6086025896
 30
0.0
 10
58.5984112577
 20
54.4229287712
 30
0.0
 10
58.5389370223
 20
54.2627111115
 30
0.0
 10
58.4405733093
 20
54.1353284487
 30
0.0
 10
58.3072189
 20
54.0486847125
 30
0.0
 10
58.0840584271
 20
53.9907734792
 30
0.0
 10
57.9018768753
 20
54.0215267669
 30
0.0
 10
57.7852129702
 20
54.0605259874
 30
0.0
  0
SPLINE
  5
5A3
100
AcDbEntity
  8
3_ALL_AXES
100
AcDbSpline
 62
7
  6
CONTINUOUS
 70
0
 71
3
 72
9
 73
5
 74
0
 42
0.0000001
 43
0.0000001
 44
0.0000000001
 40
0.0
 40
0.0
 40
0.0
 40
0.0
 40
0.463815372
 40
1.0
 40
1.0
 40
1.0
 40
1.0
 10
58.2892031084
 20
50.9658318442
 30
0.0
 10
57.9870689499
 20
50.9664031762
 30
0.0
 10
57.3356008578
 20
51.0976971508
 30
0.0
 10
56.7486197463
 20
51.3931660659
 30
0.0
 10
56.4532419826
 20
51.579569682
 30
0.0
  0
SPLINE
  5
5A4
100
AcDbEntity
  8
3_ALL_AXES
100
AcDbSpline
 62
7
  6
CONTINUOUS
 70
0
 71
3
 72
15
 73
11
 74
0
 42
0.0000001
 43
0.0000001
 44
0.0000000001
 40
0.0
 40
0.0
 40
0.0
 40
0.0
 40
0.1367621507
 40
0.2589748963
 40
0.3701637371
 40
0.4772497018
 40
0.5885807351
 40
0.7109904513
 40
0.8480170567
 40
1.0
 40
1.0
 40
1.0
 40
1.0
 10
57.4184246024
 20
56.2150891248
 30
0.0
 10
57.3520053653
 20
56.2372922087
 30
0.0
 10
57.2217999705
 20
56.2680338803
 30
0.0
 10
57.0300005342
 20
56.2663487382
 30
0.0
 10
56.8610064988
 20
56.2115838087
 30
0.0
 10
56.7259719962
 20
56.104162072
 30
0.0
 10
56.6344918698
 20
55.9517080461
 30
0.0
 10
56.5893492991
 20
55.7649216519
 30
0.0
 10
56.5898793403
 20
55.552708515
 30
0.0
 10
56.6185497846
 20
55.4066377744
 30
0.0
 10
56.6392911063
 20
55.3316263201
 30
0.0
  0
SPLINE
  5
5A5
100
AcDbEntity
  8
3_ALL_AXES
100
AcDbSpline
 62
7
  6
CONTINUOUS
 70
0
 71
3
 72
16
 73
12
 74
0
 42
0.0000001
 43
0.0000001
 44
0.0000000001
 40
0.0
 40
0.0
 40
0.0
 40
0.0
 40
0.1263728178
 40
0.2660663192
 40
0.4120761107
 40
0.5561229217
 40
0.6903105879
 40
0.8088346324
 40
0.9101181888
 40
0.955909003
 40
1.0
 40
1.0
 40
1.0
 40
1.0
 10
57.322121066
 20
52.0461419187
 30
0.0
 10
57.0730201926
 20
52.1294130889
 30
0.0
 10
56.573254144
 20
52.3807718489
 30
0.0
 10
55.9008004527
 20
52.9185791324
 30
0.0
 10
55.3117034263
 20
53.5963378192
 30
0.0
 10
54.8560784223
 20
54.3567729438
 30
0.0
 10
54.5722164758
 20
55.1374242003
 30
0.0
 10
54.4834193725
 20
55.8754952399
 30
0.0
 10
54.5924887384
 20
56.4317220352
 30
0.0
 10
54.7949094585
 20
56.7775245007
 30
0.0
 10
54.9271469273
 20
56.9127259714
 30
0.0
 10
54.9990300913
 20
56.9695616668
 30
0.0
  0
SPLINE
  5
5A6
100
AcDbEntity
  8
3_ALL_AXES
100
AcDbSpline
 62
7
  6
CONTINUOUS
 70
0
 71
3
 72
11
 73
7
 74
0
 42
0.0000001
 43
0.0000001
 44
0.0000000001
 40
0.0
 40
0.0
 40
0.0
 40
0.0
 40
0.1406006892
 40
0.382572811
 40
0.6928650577
 40
1.0
 40
1.0
 40
1.0
 40
1.0
 10
63.5614852425
 20
60.2618636445
 30
0.0
 10
63.5617753914
 20
60.2729546137
 30
0.0
 10
63.5358909935
 20
60.298143491
 30
0.0
 10
63.4845847748
 20
60.3126151305
 30
0.0
 10
63.4163817578
 20
60.3211881245
 30
0.0
 10
63.3674474809
 20
60.3176699843
 30
0.0
 10
63.343672365
 20
60.3129663066
 30
0.0
  0
SPLINE
  5
5A7
100
AcDbEntity
  8
3_AXES_OTHER
100
AcDbSpline
 62
7
  6
CONTINUOUS
 70
0
 71
3
 72
9
 73
5
 74
0
 42
0.0000001
 43
0.0000001
 44
0.0000000001
 40
0.0
 40
0.0
 40
0.0
 40
0.0
 40
0.4373515634
 40
1.0
 40
1.0
 40
1.0
 40
1.0
 10
60.4589955587
 20
48.901954121
 30
0.0
 10
60.4969302755
 20
48.9368461048
 30
0.0
 10
60.5436565593
 20
49.0576347842
 30
0.0
 10
60.5194134397
 20
49.1765619811
 30
0.0
 10
60.4980626343
 20
49.2393376928
 30
0.0
  0
SPLINE
  5
5A8
100
AcDbEntity
  8
3_AXES_OTHER
100
AcDbSpline
 62
7
  6
CONTINUOUS
 70
0
 71
3
 72
11
 73
7
 74
0
 42
0.0000001
 43
0.0000001
 44
0.0000000001
 40
0.0
 40
0.0
 40
0.0
 40
0.0
 40
0.3067455898
 40
0.5818239769
 40
0.8093191435
 40
1.0
 40
1.0
 40
1.0
 40
1.0
 10
59.9267734677
 20
49.0798690185
 30
0.0
 10
59.9670411066
 20
49.0316472444
 30
0.0
 10
60.054138352
 20
48.9482878122
 30
0.0
 10
60.2005436761
 20
48.8666032796
 30
0.0
 10
60.3447374388
 20
48.8408015153
 30
0.0
 10
60.430252364
 20
48.87551641
 30
0.0
 10
60.4589955587
 20
48.901954121
 30
0.0
  0
SPLINE
  5
5A9
100
AcDbEntity
  8
3_AXES_OTHER
100
AcDbSpline
 62
7
  6
CONTINUOUS
 70
0
 71
3
 72
11
 73
7
 74
0
 42
0.0000001
 43
0.0000001
 44
0.0000000001
 40
0.0
 40
0.0
 40
0.0
 40
0.0
 40
0.1906228849
 40
0.4224115574
 40
0.6986281662
 40
1.0
 40
1.0
 40
1.0
 40
1.0
 10
59.8285315956
 20
49.6569547021
 30
0.0
 10
59.7989536826
 20
49.6297492253
 30
0.0
 10
59.7558810638
 20
49.5448281691
 30
0.0
 10
59.7610656971
 20
49.3941203251
 30
0.0
 10
59.8182691324
 20
49.2314217667
 30
0.0
 10
59.8860499724
 20
49.128636695
 30
0.0
 10
59.9267734677
 20
49.0798690185
 30
0.0
  0
SPLINE
  5
5AA
100
AcDbEntity
  8
3_ALL_AXES
100
AcDbSpline
 62
7
  6
CONTINUOUS
 70
0
 71
3
 72
15
 73
11
 74
0
 42
0.0000001
 43
0.0000001
 44
0.0000000001
 40
0.0
 40
0.0
 40
0.0
 40
0.0
 40
0.0901489165
 40
0.1934622449
 40
0.3135823671
 40
0.4482884573
 40
0.591784927
 40
0.7365377772
 40
0.8747824294
 40
1.0
 40
1.0
 40
1.0
 40
1.0
 10
55.0037425772
 20
56.9654669563
 30
0.0
 10
54.8723783369
 20
56.8368765278
 30
0.0
 10
54.6619815213
 20
56.48419182
 30
0.0
 10
54.5778490554
 20
55.8385576159
 30
0.0
 10
54.6911996268
 20
55.1097212749
 30
0.0
 10
54.9891148316
 20
54.3483897992
 30
0.0
 10
55.4466342367
 20
53.6121409718
 30
0.0
 10
56.0277660959
 20
52.9591301575
 30
0.0
 10
56.685338777
 20
52.4417244487
 30
0.0
 10
57.1715415802
 20
52.199506576
 30
0.0
 10
57.4137052429
 20
52.1185544248
 30
0.0
  0
SPLINE
  5
5AB
100
AcDbEntity
  8
3_ALL_AXES
100
AcDbSpline
 62
7
  6
CONTINUOUS
 70
0
 71
3
 72
11
 73
7
 74
0
 42
0.0000001
 43
0.0000001
 44
0.0000000001
 40
0.0
 40
0.0
 40
0.0
 40
0.0
 40
0.1406006892
 40
0.382572811
 40
0.6928650577
 40
1.0
 40
1.0
 40
1.0
 40
1.0
 10
62.0320482215
 20
60.7731344754
 30
0.0
 10
62.0323383704
 20
60.7842254446
 30
0.0
 10
62.0064539725
 20
60.8094143219
 30
0.0
 10
61.9551477538
 20
60.8238859614
 30
0.0
 10
61.8869447368
 20
60.8324589554
 30
0.0
 10
61.8380104599
 20
60.8289408152
 30
0.0
 10
61.814235344
 20
60.8242371375
 30
0.0
  0
SPLINE
  5
5AC
100
AcDbEntity
  8
3_ALL_AXES
100
AcDbSpline
 62
7
  6
CONTINUOUS
 70
0
 71
3
 72
11
 73
7
 74
0
 42
0.0000001
 43
0.0000001
 44
0.0000000001
 40
0.0
 40
0.0
 40
0.0
 40
0.0
 40
0.2459836853
 40
0.4943391001
 40
0.7460112841
 40
1.0
 40
1.0
 40
1.0
 40
1.0
 10
17.0832360616
 20
30.0387844013
 30
0.0
 10
17.0832360616
 20
30.422622145
 30
0.0
 10
17.2440032915
 20
31.2028255068
 30
0.0
 10
17.9270260883
 20
32.1824592573
 30
0.0
 10
18.9408109789
 20
32.8344108851
 30
0.0
 10
19.7380788613
 20
32.9859990288
 30
0.0
 10
20.1344078109
 20
32.9859990288
 30
0.0
  0
SPLINE
  5
5AD
100
AcDbEntity
  8
3_ALL_AXES
100
AcDbSpline
 62
7
  6
CONTINUOUS
 70
0
 71
3
 72
11
 73
7
 74
0
 42
0.0000001
 43
0.0000001
 44
0.0000000001
 40
0.0
 40
0.0
 40
0.0
 40
0.0
 40
0.2468237567
 40
0.4952875724
 40
0.7463659746
 40
1.0
 40
1.0
 40
1.0
 40
1.0
 10
16.0399272177
 20
30.0389472958
 30
0.0
 10
16.0399183527
 20
29.62068974
 30
0.0
 10
16.1804361758
 20
28.7749942456
 30
0.0
 10
16.7902409456
 20
27.6422475803
 30
0.0
 10
17.7337700179
 20
26.7519116547
 30
0.0
 10
18.5218917582
 20
26.3796689881
 30
0.0
 10
18.9339915135
 20
26.2576031057
 30
0.0
  0
SPLINE
  5
5AE
100
AcDbEntity
  8
3_ALL_AXES
100
AcDbSpline
 62
7
  6
CONTINUOUS
 70
0
 71
3
 72
11
 73
7
 74
0
 42
0.0000001
 43
0.0000001
 44
0.0000000001
 40
0.0
 40
0.0
 40
0.0
 40
0.0
 40
0.2536340254
 40
0.5047124276
 40
0.7531762433
 40
1.0
 40
1.0
 40
1.0
 40
1.0
 10
21.3348241083
 20
26.2576031057
 30
0.0
 10
21.7469238636
 20
26.3796689881
 30
0.0
 10
22.535045604
 20
26.7519116547
 30
0.0
 10
23.4785746763
 20
27.6422475803
 30
0.0
 10
24.088379446
 20
28.7749942456
 30
0.0
 10
24.2288972691
 20
29.62068974
 30
0.0
 10
24.2288884042
 20
30.0389472958
 30
0.0
  0
SPLINE
  5
5AF
100
AcDbEntity
  8
3_ALL_AXES
100
AcDbSpline
 62
7
  6
CONTINUOUS
 70
0
 71
3
 72
11
 73
7
 74
0
 42
0.0000001
 43
0.0000001
 44
0.0000000001
 40
0.0
 40
0.0
 40
0.0
 40
0.0
 40
0.2539887159
 40
0.5056608999
 40
0.7540163147
 40
1.0
 40
1.0
 40
1.0
 40
1.0
 10
20.1344078109
 20
32.9859990288
 30
0.0
 10
20.5307367605
 20
32.9859990288
 30
0.0
 10
21.3280046429
 20
32.8344108851
 30
0.0
 10
22.3417895336
 20
32.1824592573
 30
0.0
 10
23.0248123303
 20
31.2028255068
 30
0.0
 10
23.1855795602
 20
30.422622145
 30
0.0
 10
23.1855795602
 20
30.0387844013
 30
0.0
  0
SPLINE
  5
5B0
100
AcDbEntity
  8
3_ALL_AXES
100
AcDbSpline
 62
7
  6
CONTINUOUS
 70
0
 71
3
 72
11
 73
7
 74
0
 42
0.0000001
 43
0.0000001
 44
0.0000000001
 40
0.0
 40
0.0
 40
0.0
 40
0.0
 40
0.2459866295
 40
0.494370106
 40
0.7460435828
 40
1.0
 40
1.0
 40
1.0
 40
1.0
 10
17.0834734751
 20
30.0390450889
 30
0.0
 10
17.0884923386
 20
29.658245206
 30
0.0
 10
17.2568301928
 20
28.8864155775
 30
0.0
 10
17.9419728688
 20
27.9202978445
 30
0.0
 10
18.9504010886
 20
27.2784178496
 30
0.0
 10
19.7412361451
 20
27.1292717607
 30
0.0
 10
20.1344078109
 20
27.1292717607
 30
0.0
  0
SPLINE
  5
5B1
100
AcDbEntity
  8
3_AXES_OTHER
100
AcDbSpline
 62
7
  6
CONTINUOUS
 70
0
 71
3
 72
11
 73
7
 74
0
 42
0.0000001
 43
0.0000001
 44
0.0000000001
 40
0.0
 40
0.0
 40
0.0
 40
0.0
 40
0.2511993541
 40
0.5
 40
0.7488006459
 40
1.0
 40
1.0
 40
1.0
 40
1.0
 10
19.7864221902
 20
23.1493824159
 30
0.0
 10
19.7414642123
 20
23.1059563439
 30
0.0
 10
19.6680876256
 20
23.0006917802
 30
0.0
 10
19.6294408278
 20
22.8132541177
 30
0.0
 10
19.6680876256
 20
22.6258164552
 30
0.0
 10
19.7414642123
 20
22.5205518915
 30
0.0
 10
19.7864221902
 20
22.4771258195
 30
0.0
  0
SPLINE
  5
5B2
100
AcDbEntity
  8
3_AXES_OTHER
100
AcDbSpline
 62
7
  6
CONTINUOUS
 70
0
 71
3
 72
9
 73
5
 74
0
 42
0.0000001
 43
0.0000001
 44
0.0000000001
 40
0.0
 40
0.0
 40
0.0
 40
0.0
 40
0.5
 40
1.0
 40
1.0
 40
1.0
 40
1.0
 10
19.7864221902
 20
22.4771258195
 30
0.0
 10
19.8762822283
 20
22.390327688
 30
0.0
 10
20.1344078109
 20
22.2854661515
 30
0.0
 10
20.3925333935
 20
22.390327688
 30
0.0
 10
20.4823934316
 20
22.4771258195
 30
0.0
  0
SPLINE
  5
5B3
100
AcDbEntity
  8
3_AXES_OTHER
100
AcDbSpline
 62
7
  6
CONTINUOUS
 70
0
 71
3
 72
11
 73
7
 74
0
 42
0.0000001
 43
0.0000001
 44
0.0000000001
 40
0.0
 40
0.0
 40
0.0
 40
0.0
 40
0.2511993541
 40
0.5
 40
0.7488006459
 40
1.0
 40
1.0
 40
1.0
 40
1.0
 10
20.4823934316
 20
22.4771258195
 30
0.0
 10
20.5273514095
 20
22.5205518915
 30
0.0
 10
20.6007279962
 20
22.6258164552
 30
0.0
 10
20.639374794
 20
22.8132541177
 30
0.0
 10
20.6007279962
 20
23.0006917802
 30
0.0
 10
20.5273514095
 20
23.1059563439
 30
0.0
 10
20.4823934316
 20
23.1493824159
 30
0.0
  0
SPLINE
  5
5B4
100
AcDbEntity
  8
3_AXES_OTHER
100
AcDbSpline
 62
7
  6
CONTINUOUS
 70
0
 71
3
 72
9
 73
5
 74
0
 42
0.0000001
 43
0.0000001
 44
0.0000000001
 40
0.0
 40
0.0
 40
0.0
 40
0.0
 40
0.5
 40
1.0
 40
1.0
 40
1.0
 40
1.0
 10
20.4823934316
 20
23.1493824159
 30
0.0
 10
20.3925333935
 20
23.2361805474
 30
0.0
 10
20.1344078109
 20
23.341042084
 30
0.0
 10
19.8762822283
 20
23.2361805474
 30
0.0
 10
19.7864221902
 20
23.1493824159
 30
0.0
  0
SPLINE
  5
5B5
100
AcDbEntity
  8
3_ALL_AXES
100
AcDbSpline
 62
7
  6
CONTINUOUS
 70
0
 71
3
 72
19
 73
15
 74
0
 42
0.0000001
 43
0.0000001
 44
0.0000000001
 40
0.0
 40
0.0
 40
0.0
 40
0.0
 40
0.0615764945
 40
0.1233177263
 40
0.1853621518
 40
0.2478004616
 40
0.3733220905
 40
0.5
 40
0.6266779095
 40
0.7521995384
 40
0.8146378482
 40
0.8766822737
 40
0.9384235055
 40
1.0
 40
1.0
 40
1.0
 40
1.0
 10
24.2288884042
 20
30.0389472958
 30
0.0
 10
24.2288829249
 20
30.2974661075
 30
0.0
 10
24.1758890319
 20
30.816727747
 30
0.0
 10
23.9408702044
 20
31.5638833339
 30
0.0
 10
23.5591324302
 20
32.2524568731
 30
0.0
 10
22.8756716767
 20
33.056661277
 30
0.0
 10
21.7342126857
 20
33.7909850907
 30
0.0
 10
20.1344078109
 20
34.0956067185
 30
0.0
 10
18.5346029362
 20
33.7909850907
 30
0.0
 10
17.3931439451
 20
33.056661277
 30
0.0
 10
16.7096831916
 20
32.2524568731
 30
0.0
 10
16.3279454175
 20
31.5638833339
 30
0.0
 10
16.0929265899
 20
30.816727747
 30
0.0
 10
16.0399326969
 20
30.2974661075
 30
0.0
 10
16.0399272177
 20
30.0389472958
 30
0.0
  0
SPLINE
  5
5B6
100
AcDbEntity
  8
3_ALL_AXES
100
AcDbSpline
 62
7
  6
CONTINUOUS
 70
0
 71
3
 72
19
 73
15
 74
0
 42
0.0000001
 43
0.0000001
 44
0.0000000001
 40
0.0
 40
0.0
 40
0.0
 40
0.0
 40
0.0615764983
 40
0.1233177337
 40
0.1853621622
 40
0.2478004741
 40
0.3733221018
 40
0.5
 40
0.6266778982
 40
0.7521995259
 40
0.8146378378
 40
0.8766822663
 40
0.9384235017
 40
1.0
 40
1.0
 40
1.0
 40
1.0
 10
16.0399272182
 20
30.0766491679
 30
0.0
 10
16.0399326881
 20
30.3351680001
 30
0.0
 10
16.0929265764
 20
30.854429682
 30
0.0
 10
16.3279454166
 20
31.6015853267
 30
0.0
 10
16.7096832198
 20
32.2901589094
 30
0.0
 10
17.3931440135
 20
33.0943633279
 30
0.0
 10
18.5346030099
 20
33.8286870968
 30
0.0
 10
20.1344078109
 20
34.1333086917
 30
0.0
 10
21.7342126119
 20
33.8286870968
 30
0.0
 10
22.8756716083
 20
33.0943633279
 30
0.0
 10
23.559132402
 20
32.2901589094
 30
0.0
 10
23.9408702052
 20
31.6015853267
 30
0.0
 10
24.1758890454
 20
30.854429682
 30
0.0
 10
24.2288829337
 20
30.3351680001
 30
0.0
 10
24.2288884036
 20
30.0766491679
 30
0.0
  0
SPLINE
  5
5B7
100
AcDbEntity
  8
3_ALL_AXES
100
AcDbSpline
 62
7
  6
CONTINUOUS
 70
0
 71
3
 72
11
 73
7
 74
0
 42
0.0000001
 43
0.0000001
 44
0.0000000001
 40
0.0
 40
0.0
 40
0.0
 40
0.0
 40
0.2539887159
 40
0.5056608999
 40
0.7540163147
 40
1.0
 40
1.0
 40
1.0
 40
1.0
 10
20.1344078109
 20
27.0915697739
 30
0.0
 10
19.7380788613
 20
27.0915697739
 30
0.0
 10
18.9408109789
 20
27.2431579175
 30
0.0
 10
17.9270260883
 20
27.8951095454
 30
0.0
 10
17.2440032915
 20
28.8747432958
 30
0.0
 10
17.0832360616
 20
29.6549466577
 30
0.0
 10
17.0832360616
 20
30.0387844013
 30
0.0
  0
SPLINE
  5
5B8
100
AcDbEntity
  8
3_ALL_AXES
100
AcDbSpline
 62
7
  6
CONTINUOUS
 70
0
 71
3
 72
15
 73
11
 74
0
 42
0.0000001
 43
0.0000001
 44
0.0000000001
 40
0.0
 40
0.0
 40
0.0
 40
0.0
 40
0.1270011081
 40
0.2528309035
 40
0.3770085828
 40
0.5
 40
0.6229914172
 40
0.7471690965
 40
0.8729988919
 40
1.0
 40
1.0
 40
1.0
 40
1.0
 10
20.1344078109
 20
31.5861725455
 30
0.0
 10
19.9656395549
 20
31.5861725455
 30
0.0
 10
19.6261550562
 20
31.5215845335
 30
0.0
 10
19.1944897332
 20
31.2441472999
 30
0.0
 10
18.9036484669
 20
30.8263809281
 30
0.0
 10
18.80115052
 20
30.3312295428
 30
0.0
 10
18.9036484669
 20
29.8360781575
 30
0.0
 10
19.1944897332
 20
29.4183117857
 30
0.0
 10
19.6261550562
 20
29.1408745522
 30
0.0
 10
19.9656395549
 20
29.0762865402
 30
0.0
 10
20.1344078109
 20
29.0762865402
 30
0.0
  0
SPLINE
  5
5B9
100
AcDbEntity
  8
3_ALL_AXES
100
AcDbSpline
 62
7
  6
CONTINUOUS
 70
0
 71
3
 72
15
 73
11
 74
0
 42
0.0000001
 43
0.0000001
 44
0.0000000001
 40
0.0
 40
0.0
 40
0.0
 40
0.0
 40
0.1270011081
 40
0.2528309035
 40
0.3770085828
 40
0.5
 40
0.6229914172
 40
0.7471690965
 40
0.8729988919
 40
1.0
 40
1.0
 40
1.0
 40
1.0
 10
20.1344078109
 20
31.5861725455
 30
0.0
 10
20.3031760669
 20
31.5861725455
 30
0.0
 10
20.6426605656
 20
31.5215845335
 30
0.0
 10
21.0743258886
 20
31.2441472999
 30
0.0
 10
21.3651671549
 20
30.8263809281
 30
0.0
 10
21.4676651018
 20
30.3312295428
 30
0.0
 10
21.3651671549
 20
29.8360781575
 30
0.0
 10
21.0743258886
 20
29.4183117857
 30
0.0
 10
20.6426605656
 20
29.1408745522
 30
0.0
 10
20.3031760669
 20
29.0762865402
 30
0.0
 10
20.1344078109
 20
29.0762865402
 30
0.0
  0
SPLINE
  5
5BA
100
AcDbEntity
  8
3_ALL_AXES
100
AcDbSpline
 62
7
  6
CONTINUOUS
 70
0
 71
3
 72
11
 73
7
 74
0
 42
0.0000001
 43
0.0000001
 44
0.0000000001
 40
0.0
 40
0.0
 40
0.0
 40
0.0
 40
0.2539564172
 40
0.505629894
 40
0.7540133705
 40
1.0
 40
1.0
 40
1.0
 40
1.0
 10
20.1344078109
 20
27.1292717607
 30
0.0
 10
20.5275794767
 20
27.1292717607
 30
0.0
 10
21.3184145332
 20
27.2784178496
 30
0.0
 10
22.326842753
 20
27.9202978445
 30
0.0
 10
23.011985429
 20
28.8864155775
 30
0.0
 10
23.1803232832
 20
29.658245206
 30
0.0
 10
23.1853421467
 20
30.0390450889
 30
0.0
  0
SPLINE
  5
5BB
100
AcDbEntity
  8
3_ALL_AXES
100
AcDbSpline
 62
7
  6
CONTINUOUS
 70
0
 71
3
 72
11
 73
7
 74
0
 42
0.0000001
 43
0.0000001
 44
0.0000000001
 40
0.0
 40
0.0
 40
0.0
 40
0.0
 40
0.2459836853
 40
0.4943391001
 40
0.7460112841
 40
1.0
 40
1.0
 40
1.0
 40
1.0
 10
23.1855795602
 20
30.0387844013
 30
0.0
 10
23.1855795602
 20
29.6549466577
 30
0.0
 10
23.0248123303
 20
28.8747432958
 30
0.0
 10
22.3417895336
 20
27.8951095454
 30
0.0
 10
21.3280046429
 20
27.2431579175
 30
0.0
 10
20.5307367605
 20
27.0915697739
 30
0.0
 10
20.1344078109
 20
27.0915697739
 30
0.0
  0
ENDSEC
  0
SECTION
  2
OBJECTS
  0
DICTIONARY
  5
C
100
AcDbDictionary
280
0
281
1
  3
ACAD_GROUP
350
D
  3
ACAD_MLINESTYLE
350
17
  3
ACAD_LAYOUT
350
1A
  3
ACAD_PLOTSETTINGS
350
19
  3
ACAD_PLOTSTYLENAME
350
E
  0
DICTIONARY
  5
D
102
{ACAD_REACTORS
330
C
102
}
100
AcDbDictionary
280
0
281
1
  0
ACDBDICTIONARYWDFLT
  5
E
102
{ACAD_REACTORS
330
C
102
}
100
AcDbDictionary
281
1
  3
Normal
350
F
100
AcDbDictionaryWithDefault
340
F
  0
DICTIONARY
  5
17
102
{ACAD_REACTORS
330
C
102
}
100
AcDbDictionary
280
0
281
1
  3
Standard
350
18
  0
DICTIONARY
  5
19
102
{ACAD_REACTORS
330
C
102
}
100
AcDbDictionary
281
1
  0
DICTIONARY
  5
1A
102
{ACAD_REACTORS
330
C
102
}
100
AcDbDictionary
281
1
  3
Model
350
5BC
  3
Layout1
350
5BD
  0
ACDBPLACEHOLDER
  5
F
102
{ACAD_REACTORS
330
E
102
}
  0
MLINESTYLE
  5
18
102
{ACAD_REACTORS
330
17
102
}
100
AcDbMlineStyle
  2
STANDARD
 70
0
  3

 62
256
 51
90.0
 52
90.0
 71
2
 49
0.5
 62
256
  6
BYLAYER
 49
-0.5
 62
256
  6
BYLAYER
  0
LAYOUT
  5
5BC
102
{ACAD_REACTORS
330
1A
102
}
100
AcDbPlotSettings
  1

  2
none_device
  4
ANSI_D_(34.00_x_22.00_Inches)
  6

 40
0.0
 41
0.0
 42
0.0
 43
0.0
 44
863.6
 45
558.8
 46
0.0
 47
0.0
 48
0.0
 49
0.0
140
0.0
141
0.0
142
1.0
143
1.0
 70
1024
 72
0
 73
0
 74
0
  7

 75
0
147
1.0
148
0.0
149
0.0
100
AcDbLayout
  1
Model
 70
0
 71
0
 10
0.0
 20
0.0
 11
34.0
 21
22.0
 12
0.0
 22
0.0
 32
0.0
 14
0.0
 24
0.0
 34
0.0
 15
0.0
 25
0.0
 35
0.0
146
0.0
 13
0.0
 23
0.0
 33
0.0
 16
1.0
 26
0.0
 36
0.0
 17
0.0
 27
1.0
 37
0.0
 76
0
330
210
345
0
346
0
  0
LAYOUT
  5
5BD
102
{ACAD_REACTORS
330
1A
102
}
100
AcDbPlotSettings
  1

  2
none_device
  4
ANSI_D_(34.00_x_22.00_Inches)
  6

 40
0.0
 41
0.0
 42
0.0
 43
0.0
 44
863.6
 45
558.8
 46
0.0
 47
0.0
 48
0.0
 49
0.0
140
0.0
141
0.0
142
1.0
143
1.0
 70
0
 72
0
 73
0
 74
0
  7

 75
0
147
1.0
148
0.0
149
0.0
100
AcDbLayout
  1
Layout1
 70
0
 71
1
 10
0.0
 20
0.0
 11
34.0
 21
22.0
 12
0.0
 22
0.0
 32
0.0
 14
0.0
 24
0.0
 34
0.0
 15
0.0
 25
0.0
 35
0.0
146
0.0
 13
0.0
 23
0.0
 33
0.0
 16
1.0
 26
0.0
 36
0.0
 17
0.0
 27
1.0
 37
0.0
 76
0
330
211
345
0
346
0
  0
ENDSEC
  0
EOF
