999
DXF file: FG-901316-2D-A.dxf
999
Pro/ENGINEER 2018260 by Parametric Technology Corporation
  0
SECTION
  2
HEADER
  9
$ACADVER
  1
AC1015
  9
$DWGCODEPAGE
  3
ANSI_1252
  9
$EXTMAX
 10
2159.0
 20
1397.0
 30
0.0
  9
$EXTMIN
 10
0.0
 20
0.0
 30
0.0
  9
$LIMMIN
 10
0.0
 20
0.0
  9
$LIMMAX
 10
2159.0
 20
1397.0
  9
$VIEWCTR
 10
1079.5
 20
698.5
  9
$VIEWSIZE
 40
1397.0
  9
$CLAYER
  8
0
  9
$LTSCALE
 40
118.745
  9
$CELTYPE
  6
BYLAYER
  9
$DIMSCALE
 40
1.0
  9
$DIMASZ
 40
10.0
  9
$DIMEXO
 40
1.5875
  9
$DIMDLI
 40
82.042
  9
$DIMEXE
 40
3.175
  9
$DIMCEN
 40
19.431
  9
$DIMLFAC
 40
1.0
  9
$DIMBLK
  1
_FILLED
  9
$DIMALT
 70
1
  9
$DIMALTD
 70
1
  9
$DIMALTTD
 70
2
  9
$DIMALTF
 40
0.0393700787
  9
$DIMTXT
 40
11.43
  9
$DIMTOL
 70
1
  9
$DIMLIM
 70
0
  9
$DIMTFAC
 40
1.0
  9
$DIMTP
 40
0.01
  9
$DIMTM
 40
0.01
  9
$DIMGAP
 40
0.625
  9
$DIMDSEP
 70
46
  9
$AUNITS
 70
0
  9
$PDMODE
 70
3
  9
$PDSIZE
 40
7.9375
  9
$HANDSEED
  5
70D
  9
$TILEMODE
 70
1
  9
$MEASUREMENT
 70
1
  9
$INSUNITS
 70
4
  0
ENDSEC
  0
SECTION
  2
CLASSES
  0
CLASS
  1
ACDBDICTIONARYWDFLT
  2
AcDbDictionaryWithDefault
  3
AutoCAD 2000
 90
0
280
0
281
0
  0
CLASS
  1
ACDBPLACEHOLDER
  2
AcDbPlaceHolder
  3
AutoCAD 2000
 90
0
280
0
281
0
  0
CLASS
  1
LAYOUT
  2
AcDbLayout
  3
AutoCAD 2000
 90
0
280
0
281
0
  0
ENDSEC
  0
SECTION
  2
TABLES
  0
TABLE
  2
VPORT
  5
8
100
AcDbSymbolTable
 70
2
  0
VPORT
  5
1F4
100
AcDbSymbolTableRecord
100
AcDbViewportTableRecord
  2
*ACTIVE
 70
0
 10
0.0
 20
0.0
 11
1.0
 21
1.0
 12
1079.5
 22
698.5
 13
0.0
 23
0.0
 14
1.0
 24
1.0
 15
0.0
 25
0.0
 16
0.0
 26
0.0
 36
1.0
 17
0.0
 27
0.0
 37
0.0
 40
1397.0
 41
1.5454545455
 42
50.0
 43
0.0
 44
0.0
 50
0.0
 51
0.0
 71
0
 72
100
 73
1
 74
1
 75
0
 76
0
 77
0
 78
0
  0
ENDTAB
  0
TABLE
  2
LTYPE
  5
5
100
AcDbSymbolTable
 70
6
  0
LTYPE
  5
14
100
AcDbSymbolTableRecord
100
AcDbLinetypeTableRecord
  2
BYBLOCK
 70
0
  3

 72
65
 73
0
 40
0.0
  0
LTYPE
  5
15
100
AcDbSymbolTableRecord
100
AcDbLinetypeTableRecord
  2
BYLAYER
 70
0
  3

 72
65
 73
0
 40
0.0
  0
LTYPE
  5
16
100
AcDbSymbolTableRecord
100
AcDbLinetypeTableRecord
  2
CONTINUOUS
 70
64
  3
Solid line
 72
65
 73
0
 40
0.0
  0
LTYPE
  5
1F5
100
AcDbSymbolTableRecord
100
AcDbLinetypeTableRecord
  2
CENTER
 70
64
  3
____ _ ____ _ ____ _ ____ _ ____ _ ____ _ ____
 72
65
 73
4
 40
0.6
 49
0.375
 74
0
 49
-0.075
 74
0
 49
0.075
 74
0
 49
-0.075
 74
0
  0
LTYPE
  5
1F6
100
AcDbSymbolTableRecord
100
AcDbLinetypeTableRecord
  2
HIDDEN
 70
64
  3
- - - - - - - - - - - - - - - - - - - -
 72
65
 73
2
 40
0.2
 49
0.1
 74
0
 49
-0.1
 74
0
  0
LTYPE
  5
1F7
100
AcDbSymbolTableRecord
100
AcDbLinetypeTableRecord
  2
PHANTOM
 70
64
  3
_____ _ _ _____ _ _ _____ _ _ _____
 72
65
 73
6
 40
0.8
 49
0.45
 74
0
 49
-0.05
 74
0
 49
0.1
 74
0
 49
-0.05
 74
0
 49
0.1
 74
0
 49
-0.05
 74
0
  0
LTYPE
  5
1F8
100
AcDbSymbolTableRecord
100
AcDbLinetypeTableRecord
  2
DOT
 70
64
  3
. . . . . . . . . . . . . . . . . . . .
 72
65
 73
2
 40
0.2
 49
0.1
 74
0
 49
-0.1
 74
0
  0
LTYPE
  5
1F9
100
AcDbSymbolTableRecord
100
AcDbLinetypeTableRecord
  2
DASHED
 70
64
  3
- - - - - - - - - - - - - - - - - - - -
 72
65
 73
2
 40
0.2
 49
0.1
 74
0
 49
-0.1
 74
0
  0
ENDTAB
  0
TABLE
  2
LAYER
  5
2
100
AcDbSymbolTable
 70
36
  0
LAYER
  5
10
100
AcDbSymbolTableRecord
100
AcDbLayerTableRecord
  2
0
 70
0
 62
7
  6
CONTINUOUS
370
-3
390
F
  0
LAYER
  5
1FA
100
AcDbSymbolTableRecord
100
AcDbLayerTableRecord
  2
DEFAULT_1
 70
0
 62
7
  6
CENTER
370
-3
390
F
  0
LAYER
  5
1FB
100
AcDbSymbolTableRecord
100
AcDbLayerTableRecord
  2
DEFAULT_2
 70
0
 62
8
  6
HIDDEN
370
-3
390
F
  0
LAYER
  5
1FC
100
AcDbSymbolTableRecord
100
AcDbLayerTableRecord
  2
DEFAULT_3
 70
0
 62
7
  6
PHANTOM
370
-3
390
F
  0
LAYER
  5
1FD
100
AcDbSymbolTableRecord
100
AcDbLayerTableRecord
  2
CG_SYMBOLS
 70
0
 62
7
  6
CONTINUOUS
370
-3
390
F
  0
LAYER
  5
1FE
100
AcDbSymbolTableRecord
100
AcDbLayerTableRecord
  2
QUILT
 70
0
 62
7
  6
CONTINUOUS
370
-3
390
F
  0
LAYER
  5
1FF
100
AcDbSymbolTableRecord
100
AcDbLayerTableRecord
  2
SHELL_
 70
0
 62
7
  6
CONTINUOUS
370
-3
390
F
  0
ENDTAB
  0
TABLE
  2
STYLE
  5
3
100
AcDbSymbolTable
 70
1
  0
STYLE
  5
11
100
AcDbSymbolTableRecord
100
AcDbTextStyleTableRecord
  2
STANDARD
 70
0
 40
0.0
 41
1.0
 50
0.0
 71
0
 42
0.2
  3
gothic.ttf
  4

  0
STYLE
  5
200
100
AcDbSymbolTableRecord
100
AcDbTextStyleTableRecord
  2
TEXTSTYLE_1
 70
0
 40
0.0
 41
0.8
 50
0.0
 71
0
 42
0.2
  3
gdt
  4

  0
STYLE
  5
201
100
AcDbSymbolTableRecord
100
AcDbTextStyleTableRecord
  2
TEXTSTYLE_2
 70
0
 40
0.0
 41
1.0
 50
0.0
 71
0
 42
0.2
  3
gothic.ttf
  4

  0
STYLE
  5
202
100
AcDbSymbolTableRecord
100
AcDbTextStyleTableRecord
  2
TEXTSTYLE_3
 70
0
 40
0.0
 41
1.0
 50
0.0
 71
0
 42
0.2
  3
symbol_asme.ttf
  4

  0
ENDTAB
  0
TABLE
  2
VIEW
  5
6
100
AcDbSymbolTable
 70
0
  0
ENDTAB
  0
TABLE
  2
UCS
  5
7
100
AcDbSymbolTable
 70
0
  0
ENDTAB
  0
TABLE
  2
APPID
  5
9
100
AcDbSymbolTable
 70
1
  0
APPID
  5
203
100
AcDbSymbolTableRecord
100
AcDbRegAppTableRecord
  2
ACAD
 70
0
  0
ENDTAB
  0
TABLE
  2
BLOCK_RECORD
  5
1
100
AcDbSymbolTable
 70
0
  0
BLOCK_RECORD
  5
204
100
AcDbSymbolTableRecord
100
AcDbBlockTableRecord
  2
*Model_Space
  0
BLOCK_RECORD
  5
205
100
AcDbSymbolTableRecord
100
AcDbBlockTableRecord
  2
*Paper_Space
  0
BLOCK_RECORD
  5
206
100
AcDbSymbolTableRecord
100
AcDbBlockTableRecord
  2
_FILLED
  0
BLOCK_RECORD
  5
207
100
AcDbSymbolTableRecord
100
AcDbBlockTableRecord
  2
*D0
  0
BLOCK_RECORD
  5
208
100
AcDbSymbolTableRecord
100
AcDbBlockTableRecord
  2
*D1
  0
BLOCK_RECORD
  5
209
100
AcDbSymbolTableRecord
100
AcDbBlockTableRecord
  2
*D2
  0
BLOCK_RECORD
  5
20A
100
AcDbSymbolTableRecord
100
AcDbBlockTableRecord
  2
*D3
  0
BLOCK_RECORD
  5
20B
100
AcDbSymbolTableRecord
100
AcDbBlockTableRecord
  2
*D4
  0
BLOCK_RECORD
  5
20C
100
AcDbSymbolTableRecord
100
AcDbBlockTableRecord
  2
*D5
  0
BLOCK_RECORD
  5
20D
100
AcDbSymbolTableRecord
100
AcDbBlockTableRecord
  2
*D6
  0
BLOCK_RECORD
  5
20E
100
AcDbSymbolTableRecord
100
AcDbBlockTableRecord
  2
*D7
  0
BLOCK_RECORD
  5
20F
100
AcDbSymbolTableRecord
100
AcDbBlockTableRecord
  2
*D8
  0
BLOCK_RECORD
  5
210
100
AcDbSymbolTableRecord
100
AcDbBlockTableRecord
  2
*D9
  0
BLOCK_RECORD
  5
211
100
AcDbSymbolTableRecord
100
AcDbBlockTableRecord
  2
*D10
  0
BLOCK_RECORD
  5
212
100
AcDbSymbolTableRecord
100
AcDbBlockTableRecord
  2
*D11
  0
BLOCK_RECORD
  5
213
100
AcDbSymbolTableRecord
100
AcDbBlockTableRecord
  2
*D12
  0
BLOCK_RECORD
  5
214
100
AcDbSymbolTableRecord
100
AcDbBlockTableRecord
  2
*D13
  0
BLOCK_RECORD
  5
215
100
AcDbSymbolTableRecord
100
AcDbBlockTableRecord
  2
*D14
  0
BLOCK_RECORD
  5
216
100
AcDbSymbolTableRecord
100
AcDbBlockTableRecord
  2
*D15
  0
BLOCK_RECORD
  5
217
100
AcDbSymbolTableRecord
100
AcDbBlockTableRecord
  2
*D16
  0
BLOCK_RECORD
  5
218
100
AcDbSymbolTableRecord
100
AcDbBlockTableRecord
  2
*D17
  0
BLOCK_RECORD
  5
219
100
AcDbSymbolTableRecord
100
AcDbBlockTableRecord
  2
*D18
  0
BLOCK_RECORD
  5
21A
100
AcDbSymbolTableRecord
100
AcDbBlockTableRecord
  2
*D19
  0
BLOCK_RECORD
  5
21B
100
AcDbSymbolTableRecord
100
AcDbBlockTableRecord
  2
*D20
  0
ENDTAB
  0
TABLE
  2
DIMSTYLE
  5
A
100
AcDbSymbolTable
 70
1
100
AcDbDimStyleTable
 71
0
  0
DIMSTYLE
105
21C
100
AcDbSymbolTableRecord
100
AcDbDimStyleTableRecord
  2
STANDARD
 70
0
  3

  4

 40
1.0
 41
10.0
 42
1.5875
 43
0.38
 44
3.175
 45
0.0
 46
0.0
 47
0.01
 48
0.01
140
11.43
141
0.09
142
0.0
143
0.0393700787
144
1.0
145
0.0
146
1.0
147
0.625
 71
1.0
 72
0.0
 73
1
 74
1
 75
0
 76
0
 77
0
 78
4
 79
1
170
1
171
1
172
0
173
0
174
0
175
0
176
0
177
0
178
0
270
2
179
2
271
2
272
2
273
2
274
2
275
0
280
0
281
0
282
0
283
1
284
4
285
0
286
0
287
3
288
0
340
11
278
46
341
206
342
206
343
206
344
206
  0
DIMSTYLE
105
21D
100
AcDbSymbolTableRecord
100
AcDbDimStyleTableRecord
  2
DIMSTYLE_1
 70
0
  3

  4

 40
1.0
 41
10.0
 42
1.5875
 43
0.38
 44
3.175
 45
0.0
 46
0.0
 47
0.01
 48
0.01
140
11.43
141
0.09
142
0.0
143
0.0393700787
144
1.0
145
0.0
146
1.0
147
1.143
 71
0.0
 72
0.0
 73
1
 74
1
 75
0
 76
0
 77
0
 78
4
 79
1
170
1
171
1
172
0
173
0
174
0
175
0
176
0
177
0
178
0
270
2
179
2
271
0
272
0
273
2
274
1
275
0
280
0
281
0
282
0
283
1
284
4
285
0
286
0
287
3
288
0
340
11
278
46
341
206
342
206
343
206
344
206
  0
DIMSTYLE
105
21E
100
AcDbSymbolTableRecord
100
AcDbDimStyleTableRecord
  2
DIMSTYLE_2
 70
0
  3

  4

 40
1.0
 41
10.0
 42
1.5875
 43
0.38
 44
3.175
 45
0.0
 46
0.0
 47
0.01
 48
0.01
140
11.43
141
0.09
142
0.0
143
0.0393700787
144
1.0
145
0.0
146
1.0
147
1.143
 71
0.0
 72
0.0
 73
1
 74
1
 75
0
 76
0
 77
0
 78
4
 79
1
170
1
171
3
172
0
173
0
174
0
175
0
176
0
177
0
178
0
270
2
179
2
271
2
272
2
273
2
274
1
275
0
280
0
281
0
282
0
283
1
284
4
285
0
286
0
287
3
288
0
340
11
278
46
341
206
342
206
343
206
344
206
  0
DIMSTYLE
105
21F
100
AcDbSymbolTableRecord
100
AcDbDimStyleTableRecord
  2
DIMSTYLE_3
 70
0
  3

  4

 40
1.0
 41
10.0
 42
1.5875
 43
0.38
 44
3.175
 45
0.0
 46
0.0
 47
0.01
 48
0.01
140
11.43
141
0.09
142
0.0
143
0.0393700787
144
1.0
145
0.0
146
1.0
147
1.143
 71
0.0
 72
0.0
 73
1
 74
1
 75
0
 76
0
 77
0
 78
4
 79
1
170
1
171
3
172
0
173
0
174
0
175
0
176
0
177
0
178
0
270
2
179
2
271
2
272
2
273
2
274
-1
275
0
280
0
281
0
282
0
283
1
284
4
285
0
286
0
287
3
288
0
340
11
278
46
341
206
342
206
343
206
344
206
  0
DIMSTYLE
105
220
100
AcDbSymbolTableRecord
100
AcDbDimStyleTableRecord
  2
DIMSTYLE_4
 70
0
  3

  4

 40
1.0
 41
10.0
 42
1.5875
 43
0.38
 44
3.175
 45
0.0
 46
0.0
 47
0.5
 48
0.5
140
11.43
141
0.09
142
0.0
143
0.0393700787
144
1.0
145
0.0
146
1.0
147
1.143
 71
0.0
 72
0.0
 73
1
 74
1
 75
0
 76
0
 77
0
 78
4
 79
1
170
0
171
1
172
0
173
0
174
0
175
0
176
0
177
0
178
0
270
2
179
2
271
0
272
0
273
2
274
2
275
0
280
0
281
0
282
0
283
1
284
4
285
0
286
0
287
3
288
0
340
11
278
46
341
206
342
206
343
206
344
206
  0
DIMSTYLE
105
221
100
AcDbSymbolTableRecord
100
AcDbDimStyleTableRecord
  2
DIMSTYLE_5
 70
0
  3

  4

 40
1.0
 41
10.0
 42
1.5875
 43
0.38
 44
3.175
 45
0.0
 46
0.0
 47
0.01
 48
0.01
140
11.43
141
0.09
142
0.0
143
0.0393700787
144
1.0
145
0.0
146
1.0
147
1.143
 71
0.0
 72
0.0
 73
1
 74
1
 75
0
 76
0
 77
0
 78
4
 79
1
170
1
171
2
172
0
173
0
174
0
175
0
176
0
177
0
178
0
270
2
179
2
271
1
272
1
273
2
274
2
275
0
280
0
281
0
282
0
283
1
284
4
285
0
286
0
287
3
288
0
340
11
278
46
341
206
342
206
343
206
344
206
  0
ENDTAB
  0
ENDSEC
  0
SECTION
  2
BLOCKS
  0
BLOCK
  5
20
100
AcDbEntity
  8
0
100
AcDbBlockBegin
  2
*Model_Space
 70
0
 10
0.0
 20
0.0
 30
0.0
  3
*Model_Space
  1

  0
ENDBLK
  5
21
100
AcDbEntity
  8
0
100
AcDbBlockEnd
  0
BLOCK
  5
1C
100
AcDbEntity
  8
0
100
AcDbBlockBegin
  2
*Paper_Space
 70
0
 10
0.0
 20
0.0
 30
0.0
  3
*Paper_Space
  1

  0
ENDBLK
  5
1D
100
AcDbEntity
  8
0
100
AcDbBlockEnd
  0
BLOCK
  5
222
100
AcDbEntity
  8
0
100
AcDbBlockBegin
  2
_FILLED
 70
64
 10
0.0
 20
0.0
  3
_FILLED
  1

  0
SOLID
  5
223
100
AcDbEntity
  8
0
  6
BYBLOCK
 62
0
100
AcDbTrace
 10
0.0
 20
0.0
 11
-1.0
 21
0.1275
 12
-1.0
 22
-0.1275
 13
-1.0
 23
-0.1275
  0
ENDBLK
  5
224
100
AcDbEntity
  8
0
  6
BYBLOCK
 62
0
100
AcDbBlockEnd
  0
BLOCK
  5
225
100
AcDbEntity
  8
0
100
AcDbBlockBegin
 62
2
  6
CONTINUOUS
  2
*D0
 70
65
 10
0.0
 20
0.0
  3
*D0
  1

  0
MTEXT
  5
226
100
AcDbEntity
  8
0
100
AcDbMText
 62
2
  6
CONTINUOUS
  7
STANDARD
 71
2
 72
1
 10
847.7588172325
 20
1266.7262048735
 30
0.0
 11
1.0
 21
0.0
 31
0.0
 73
2
 44
0.9
  1
298\P[11.7]
 40
11.43
 41
42.1507806691
  0
LINE
  5
227
100
AcDbEntity
  8
0
100
AcDbLine
 62
2
  6
CONTINUOUS
 10
716.1414235606
 20
1224.5761046123
 11
716.1414235606
 21
1276.8862048735
  0
LINE
  5
228
100
AcDbEntity
  8
0
100
AcDbLine
 62
2
  6
CONTINUOUS
 10
1014.1414235606
 20
1224.5761046123
 11
1014.1414235606
 21
1276.8862048735
  0
LINE
  5
229
100
AcDbEntity
  8
0
100
AcDbLine
 62
2
  6
CONTINUOUS
 10
716.1414235606
 20
1261.0112048735
 11
828.7867168607
 21
1261.0112048735
  0
LINE
  5
22A
100
AcDbEntity
  8
0
100
AcDbLine
 62
2
  6
CONTINUOUS
 10
1014.1414235606
 20
1261.0112048735
 11
882.3674975299
 21
1261.0112048735
  0
INSERT
  5
22B
100
AcDbEntity
  8
0
100
AcDbBlockReference
 62
2
  6
CONTINUOUS
  2
_FILLED
 10
716.1414235606
 20
1261.0112048735
 41
10.0
 42
10.0
 43
10.0
 50
180.0
  0
INSERT
  5
22C
100
AcDbEntity
  8
0
100
AcDbBlockReference
 62
2
  6
CONTINUOUS
  2
_FILLED
 10
1014.1414235606
 20
1261.0112048735
 41
10.0
 42
10.0
 43
10.0
  0
ENDBLK
  5
22D
100
AcDbEntity
  8
0
  6
BYBLOCK
 62
0
100
AcDbBlockEnd
  0
BLOCK
  5
22E
100
AcDbEntity
  8
0
100
AcDbBlockBegin
 62
2
  6
CONTINUOUS
  2
*D1
 70
65
 10
0.0
 20
0.0
  3
*D1
  1

  0
MTEXT
  5
22F
100
AcDbEntity
  8
0
100
AcDbMText
 62
2
  6
CONTINUOUS
  7
STANDARD
 71
2
 72
1
 10
862.2516529352
 20
1308.195583515
 30
0.0
 11
1.0
 21
0.0
 31
0.0
 73
2
 44
0.9
  1
(328,36{\ftxt.shx;\W0.981413;\H11.430000; })\P[12.928]
 40
11.43
 41
71.5543494424
  0
LINE
  5
230
100
AcDbEntity
  8
0
100
AcDbLine
 62
2
  6
CONTINUOUS
 10
700.9614235617
 20
1100.8362236564
 11
700.9614235617
 21
1318.355583515
  0
LINE
  5
231
100
AcDbEntity
  8
0
100
AcDbLine
 62
2
  6
CONTINUOUS
 10
1029.3214235595
 20
1100.8362236564
 11
1029.3214235595
 21
1318.355583515
  0
LINE
  5
232
100
AcDbEntity
  8
0
100
AcDbLine
 62
2
  6
CONTINUOUS
 10
700.9614235617
 20
1302.480583515
 11
820.759478214
 21
1302.480583515
  0
LINE
  5
233
100
AcDbEntity
  8
0
100
AcDbLine
 62
2
  6
CONTINUOUS
 10
1029.3214235595
 20
1302.480583515
 11
903.7438276564
 21
1302.480583515
  0
INSERT
  5
234
100
AcDbEntity
  8
0
100
AcDbBlockReference
 62
2
  6
CONTINUOUS
  2
_FILLED
 10
700.9614235617
 20
1302.480583515
 41
10.0
 42
10.0
 43
10.0
 50
180.0
  0
INSERT
  5
235
100
AcDbEntity
  8
0
100
AcDbBlockReference
 62
2
  6
CONTINUOUS
  2
_FILLED
 10
1029.3214235595
 20
1302.480583515
 41
10.0
 42
10.0
 43
10.0
 50
0.0
  0
ENDBLK
  5
236
100
AcDbEntity
  8
0
  6
BYBLOCK
 62
0
100
AcDbBlockEnd
  0
BLOCK
  5
237
100
AcDbEntity
  8
0
100
AcDbBlockBegin
 62
2
  6
CONTINUOUS
  2
*D2
 70
65
 10
0.0
 20
0.0
  3
*D2
  1

  0
MTEXT
  5
238
100
AcDbEntity
  8
0
100
AcDbMText
 62
2
  6
CONTINUOUS
  7
STANDARD
 71
2
 72
1
 10
98.4386100763
 20
565.401555692
 30
0.0
 11
1.0
 21
0.0
 31
0.0
 73
2
 44
0.9
  1
365\P[14.4]
 40
11.43
 41
42.1507806691
  0
LINE
  5
239
100
AcDbEntity
  8
0
100
AcDbLine
 62
2
  6
CONTINUOUS
 10
224.4735088713
 20
742.186555692
 11
90.3819000392
 21
742.186555692
  0
LINE
  5
23A
100
AcDbEntity
  8
0
100
AcDbLine
 62
2
  6
CONTINUOUS
 10
322.2749641087
 20
377.186555692
 11
90.3819000392
 21
377.186555692
  0
LINE
  5
23B
100
AcDbEntity
  8
0
100
AcDbLine
 62
2
  6
CONTINUOUS
 10
106.2569000392
 20
742.186555692
 11
106.2569000392
 21
571.116555692
  0
LINE
  5
23C
100
AcDbEntity
  8
0
100
AcDbLine
 62
2
  6
CONTINUOUS
 10
106.2569000392
 20
377.186555692
 11
106.2569000392
 21
531.111555692
  0
INSERT
  5
23D
100
AcDbEntity
  8
0
100
AcDbBlockReference
 62
2
  6
CONTINUOUS
  2
_FILLED
 10
106.2569000392
 20
742.186555692
 41
10.0
 42
10.0
 43
10.0
 50
90.0
  0
INSERT
  5
23E
100
AcDbEntity
  8
0
100
AcDbBlockReference
 62
2
  6
CONTINUOUS
  2
_FILLED
 10
106.2569000392
 20
377.186555692
 41
10.0
 42
10.0
 43
10.0
 50
270.0
  0
ENDBLK
  5
23F
100
AcDbEntity
  8
0
  6
BYBLOCK
 62
0
100
AcDbBlockEnd
  0
BLOCK
  5
240
100
AcDbEntity
  8
0
100
AcDbBlockBegin
 62
2
  6
CONTINUOUS
  2
*D3
 70
65
 10
0.0
 20
0.0
  3
*D3
  1

  0
MTEXT
  5
241
100
AcDbEntity
  8
0
100
AcDbMText
 62
2
  6
CONTINUOUS
  7
STANDARD
 71
2
 72
1
 10
204.9933286357
 20
684.1212933612
 30
0.0
 11
1.0
 21
0.0
 31
0.0
 73
2
 44
0.9
  1
133\P[5.2]
 40
11.43
 41
33.3127137546
  0
LINE
  5
242
100
AcDbEntity
  8
0
100
AcDbLine
 62
2
  6
CONTINUOUS
 10
224.4735088713
 20
742.186555692
 11
192.5175851413
 21
742.186555692
  0
LINE
  5
243
100
AcDbEntity
  8
0
100
AcDbLine
 62
2
  6
CONTINUOUS
 10
362.414451905
 20
609.186555692
 11
192.5175851413
 21
609.186555692
  0
LINE
  5
244
100
AcDbEntity
  8
0
100
AcDbLine
 62
2
  6
CONTINUOUS
 10
208.3925851413
 20
742.186555692
 11
208.3925851413
 21
689.8362933612
  0
LINE
  5
245
100
AcDbEntity
  8
0
100
AcDbLine
 62
2
  6
CONTINUOUS
 10
208.3925851413
 20
609.186555692
 11
208.3925851413
 21
649.8312933612
  0
INSERT
  5
246
100
AcDbEntity
  8
0
100
AcDbBlockReference
 62
2
  6
CONTINUOUS
  2
_FILLED
 10
208.3925851413
 20
742.186555692
 41
10.0
 42
10.0
 43
10.0
 50
90.0
  0
INSERT
  5
247
100
AcDbEntity
  8
0
100
AcDbBlockReference
 62
2
  6
CONTINUOUS
  2
_FILLED
 10
208.3925851413
 20
609.186555692
 41
10.0
 42
10.0
 43
10.0
 50
270.0
  0
ENDBLK
  5
248
100
AcDbEntity
  8
0
  6
BYBLOCK
 62
0
100
AcDbBlockEnd
  0
BLOCK
  5
249
100
AcDbEntity
  8
0
100
AcDbBlockBegin
 62
2
  6
CONTINUOUS
  2
*D4
 70
65
 10
0.0
 20
0.0
  3
*D4
  1

  0
MTEXT
  5
24A
100
AcDbEntity
  8
0
100
AcDbMText
 62
2
  6
CONTINUOUS
  7
STANDARD
 71
2
 72
1
 10
406.7171954246
 20
803.3419796605
 30
0.0
 11
1.0
 21
0.0
 31
0.0
 73
2
 44
0.9
  1
90\P[3.5]
 40
11.43
 41
33.3127137546
  0
LINE
  5
24B
100
AcDbEntity
  8
0
100
AcDbLine
 62
2
  6
CONTINUOUS
 10
460.351951905
 20
673.124055692
 11
460.351951905
 21
813.5019796605
  0
LINE
  5
24C
100
AcDbEntity
  8
0
100
AcDbLine
 62
2
  6
CONTINUOUS
 10
370.351951905
 20
617.124055692
 11
370.351951905
 21
813.5019796605
  0
LINE
  5
24D
100
AcDbEntity
  8
0
100
AcDbLine
 62
2
  6
CONTINUOUS
 10
460.351951905
 20
797.6269796605
 11
480.351951905
 21
797.6269796605
  0
LINE
  5
24E
100
AcDbEntity
  8
0
100
AcDbLine
 62
2
  6
CONTINUOUS
 10
370.351951905
 20
797.6269796605
 11
350.351951905
 21
797.6269796605
  0
INSERT
  5
24F
100
AcDbEntity
  8
0
100
AcDbBlockReference
 62
2
  6
CONTINUOUS
  2
_FILLED
 10
460.351951905
 20
797.6269796605
 41
10.0
 42
10.0
 43
10.0
 50
180.0
  0
INSERT
  5
250
100
AcDbEntity
  8
0
100
AcDbBlockReference
 62
2
  6
CONTINUOUS
  2
_FILLED
 10
370.351951905
 20
797.6269796605
 41
10.0
 42
10.0
 43
10.0
  0
ENDBLK
  5
251
100
AcDbEntity
  8
0
  6
BYBLOCK
 62
0
100
AcDbBlockEnd
  0
BLOCK
  5
252
100
AcDbEntity
  8
0
100
AcDbBlockBegin
 62
2
  6
CONTINUOUS
  2
*D5
 70
65
 10
0.0
 20
0.0
  3
*D5
  1

  0
MTEXT
  5
253
100
AcDbEntity
  8
0
100
AcDbMText
 62
2
  6
CONTINUOUS
  7
STANDARD
 71
2
 72
1
 10
346.9759191212
 20
852.9969980843
 30
0.0
 11
1.0
 21
0.0
 31
0.0
 73
2
 44
0.9
  1
(227,94{\ftxt.shx;\W0.208178;\H11.430000; })\P[8.974]
 40
11.43
 41
62.7162825279
  0
LINE
  5
254
100
AcDbEntity
  8
0
100
AcDbLine
 62
2
  6
CONTINUOUS
 10
460.351951905
 20
673.124055692
 11
460.351951905
 21
863.1569980843
  0
LINE
  5
255
100
AcDbEntity
  8
0
100
AcDbLine
 62
2
  6
CONTINUOUS
 10
232.4110088713
 20
750.124055692
 11
232.4110088713
 21
863.1569980843
  0
LINE
  5
256
100
AcDbEntity
  8
0
100
AcDbLine
 62
2
  6
CONTINUOUS
 10
460.351951905
 20
847.2819980843
 11
384.0490603852
 21
847.2819980843
  0
LINE
  5
257
100
AcDbEntity
  8
0
100
AcDbLine
 62
2
  6
CONTINUOUS
 10
232.4110088713
 20
847.2819980843
 11
309.9027778573
 21
847.2819980843
  0
INSERT
  5
258
100
AcDbEntity
  8
0
100
AcDbBlockReference
 62
2
  6
CONTINUOUS
  2
_FILLED
 10
460.351951905
 20
847.2819980843
 41
10.0
 42
10.0
 43
10.0
  0
INSERT
  5
259
100
AcDbEntity
  8
0
100
AcDbBlockReference
 62
2
  6
CONTINUOUS
  2
_FILLED
 10
232.4110088713
 20
847.2819980843
 41
10.0
 42
10.0
 43
10.0
 50
180.0
  0
ENDBLK
  5
25A
100
AcDbEntity
  8
0
  6
BYBLOCK
 62
0
100
AcDbBlockEnd
  0
BLOCK
  5
25B
100
AcDbEntity
  8
0
100
AcDbBlockBegin
 62
2
  6
CONTINUOUS
  2
*D6
 70
65
 10
0.0
 20
0.0
  3
*D6
  1

  0
MTEXT
  5
25C
100
AcDbEntity
  8
0
100
AcDbMText
 62
2
  6
CONTINUOUS
  7
STANDARD
 71
2
 72
1
 10
392.3061518257
 20
346.4907483392
 30
0.0
 11
1.0
 21
0.0
 31
0.0
 73
2
 44
0.9
  1
130,14\P[5.124]
 40
11.43
 41
50.9888475836
  0
LINE
  5
25D
100
AcDbEntity
  8
0
100
AcDbLine
 62
2
  6
CONTINUOUS
 10
460.351951905
 20
369.249055692
 11
460.351951905
 21
324.9007483392
  0
LINE
  5
25E
100
AcDbEntity
  8
0
100
AcDbLine
 62
2
  6
CONTINUOUS
 10
330.2124641087
 20
369.249055692
 11
330.2124641087
 21
324.9007483392
  0
LINE
  5
25F
100
AcDbEntity
  8
0
100
AcDbLine
 62
2
  6
CONTINUOUS
 10
460.351951905
 20
340.7757483392
 11
480.351951905
 21
340.7757483392
  0
LINE
  5
260
100
AcDbEntity
  8
0
100
AcDbLine
 62
2
  6
CONTINUOUS
 10
330.2124641087
 20
340.7757483392
 11
310.2124641087
 21
340.7757483392
  0
INSERT
  5
261
100
AcDbEntity
  8
0
100
AcDbBlockReference
 62
2
  6
CONTINUOUS
  2
_FILLED
 10
460.351951905
 20
340.7757483392
 41
10.0
 42
10.0
 43
10.0
 50
180.0
  0
INSERT
  5
262
100
AcDbEntity
  8
0
100
AcDbBlockReference
 62
2
  6
CONTINUOUS
  2
_FILLED
 10
330.2124641087
 20
340.7757483392
 41
10.0
 42
10.0
 43
10.0
  0
ENDBLK
  5
263
100
AcDbEntity
  8
0
  6
BYBLOCK
 62
0
100
AcDbBlockEnd
  0
BLOCK
  5
264
100
AcDbEntity
  8
0
100
AcDbBlockBegin
 62
2
  6
CONTINUOUS
  2
*D7
 70
65
 10
0.0
 20
0.0
  3
*D7
  1

  0
MTEXT
  5
265
100
AcDbEntity
  8
0
100
AcDbMText
 62
2
  6
CONTINUOUS
  7
STANDARD
 71
2
 72
1
 10
392.5023075783
 20
449.9591948786
 30
0.0
 11
1.0
 21
0.0
 31
0.0
 73
2
 44
0.9
  1
105\fSymbol_ASME;°
 40
11.43
 41
32.7944205237
  0
ARC
  5
266
100
AcDbEntity
  8
0
100
AcDbCircle
 62
2
  6
CONTINUOUS
 10
330.2124845378
 20
377.186555692
 40
91.5245815489
100
AcDbArc
 50
0.0
 51
37.4298085695
  0
ARC
  5
267
100
AcDbEntity
  8
0
100
AcDbCircle
 62
2
  6
CONTINUOUS
 10
330.2124845378
 20
377.186555692
 40
91.5245815489
100
AcDbArc
 50
59.0434936331
 51
105.0
  0
SOLID
  5
268
100
AcDbEntity
  8
0
100
AcDbTrace
 62
2
  6
CONTINUOUS
 10
419.9179385726
 20
387.1020183684
 11
421.7370660867
 21
377.186555692
 12
422.4641343434
 22
387.2412559237
 13
422.4641343434
 23
387.2412559237
  0
SOLID
  5
269
100
AcDbEntity
  8
0
100
AcDbTrace
 62
2
  6
CONTINUOUS
 10
316.0480952554
 20
468.8971546697
 11
306.5241797379
 21
465.5925127503
 12
316.5726060628
 22
466.4016810848
 13
316.5726060628
 23
466.4016810848
  0
ENDBLK
  5
26A
100
AcDbEntity
  8
0
  6
BYBLOCK
 62
0
100
AcDbBlockEnd
  0
BLOCK
  5
26B
100
AcDbEntity
  8
0
100
AcDbBlockBegin
 62
2
  6
CONTINUOUS
  2
*D8
 70
65
 10
0.0
 20
0.0
  3
*D8
  1

  0
MTEXT
  5
26C
100
AcDbEntity
  8
0
100
AcDbMText
 62
2
  6
CONTINUOUS
  7
STANDARD
 71
2
 72
1
 10
609.4199706842
 20
588.4442103681
 30
0.0
 11
1.0
 21
0.0
 31
0.0
 73
2
 44
0.9
  1
164,2\P[6.46]
 40
11.43
 41
42.1507806691
  0
LINE
  5
26D
100
AcDbEntity
  8
0
100
AcDbLine
 62
2
  6
CONTINUOUS
 10
811.6539235606
 20
665.186555692
 11
594.7347104612
 21
665.186555692
  0
LINE
  5
26E
100
AcDbEntity
  8
0
100
AcDbLine
 62
2
  6
CONTINUOUS
 10
771.7139235606
 20
500.986555692
 11
594.7347104612
 21
500.986555692
  0
LINE
  5
26F
100
AcDbEntity
  8
0
100
AcDbLine
 62
2
  6
CONTINUOUS
 10
610.6097104612
 20
665.186555692
 11
610.6097104612
 21
594.1592103681
  0
LINE
  5
270
100
AcDbEntity
  8
0
100
AcDbLine
 62
2
  6
CONTINUOUS
 10
610.6097104612
 20
500.986555692
 11
610.6097104612
 21
554.1542103681
  0
INSERT
  5
271
100
AcDbEntity
  8
0
100
AcDbBlockReference
 62
2
  6
CONTINUOUS
  2
_FILLED
 10
610.6097104612
 20
665.186555692
 41
10.0
 42
10.0
 43
10.0
 50
90.0
  0
INSERT
  5
272
100
AcDbEntity
  8
0
100
AcDbBlockReference
 62
2
  6
CONTINUOUS
  2
_FILLED
 10
610.6097104612
 20
500.986555692
 41
10.0
 42
10.0
 43
10.0
 50
270.0
  0
ENDBLK
  5
273
100
AcDbEntity
  8
0
  6
BYBLOCK
 62
0
100
AcDbBlockEnd
  0
BLOCK
  5
274
100
AcDbEntity
  8
0
100
AcDbBlockBegin
 62
2
  6
CONTINUOUS
  2
*D9
 70
65
 10
0.0
 20
0.0
  3
*D9
  1

  0
MTEXT
  5
275
100
AcDbEntity
  8
0
100
AcDbMText
 62
2
  6
CONTINUOUS
  7
STANDARD
 71
1
 72
1
 10
1067.0345204298
 20
1056.4264131625
 30
0.0
 11
1.0
 21
0.0
 31
0.0
 73
2
 44
0.9
  1
34,9\P[1.37]
 40
11.43
 41
42.1507806691
  0
LINE
  5
276
100
AcDbEntity
  8
0
100
AcDbLine
 62
2
  6
CONTINUOUS
 10
1022.0789235606
 20
1001.6386046123
 11
1051.1595204298
 21
1001.6386046123
  0
LINE
  5
277
100
AcDbEntity
  8
0
100
AcDbLine
 62
2
  6
CONTINUOUS
 10
913.6289235606
 20
966.7386046123
 11
1051.1595204298
 21
966.7386046123
  0
LINE
  5
278
100
AcDbEntity
  8
0
100
AcDbLine
 62
2
  6
CONTINUOUS
 10
1035.2845204298
 20
1001.6386046123
 11
1035.2845204298
 21
1050.7114131625
  0
LINE
  5
279
100
AcDbEntity
  8
0
100
AcDbLine
 62
2
  6
CONTINUOUS
 10
1035.2845204298
 20
1050.7114131625
 11
1061.3195204298
 21
1050.7114131625
  0
LINE
  5
27A
100
AcDbEntity
  8
0
100
AcDbLine
 62
2
  6
CONTINUOUS
 10
1035.2845204298
 20
966.7386046123
 11
1035.2845204298
 21
946.7386046123
  0
INSERT
  5
27B
100
AcDbEntity
  8
0
100
AcDbBlockReference
 62
2
  6
CONTINUOUS
  2
_FILLED
 10
1035.2845204298
 20
1001.6386046123
 41
10.0
 42
10.0
 43
10.0
 50
270.0
  0
INSERT
  5
27C
100
AcDbEntity
  8
0
100
AcDbBlockReference
 62
2
  6
CONTINUOUS
  2
_FILLED
 10
1035.2845204298
 20
966.7386046123
 41
10.0
 42
10.0
 43
10.0
 50
90.0
  0
ENDBLK
  5
27D
100
AcDbEntity
  8
0
  6
BYBLOCK
 62
0
100
AcDbBlockEnd
  0
BLOCK
  5
27E
100
AcDbEntity
  8
0
100
AcDbBlockBegin
 62
2
  6
CONTINUOUS
  2
*D10
 70
65
 10
0.0
 20
0.0
  3
*D10
  1

  0
MTEXT
  5
27F
100
AcDbEntity
  8
0
100
AcDbMText
 62
2
  6
CONTINUOUS
  7
STANDARD
 71
1
 72
1
 10
1166.9377263219
 20
1055.4650865934
 30
0.0
 11
1.0
 21
0.0
 31
0.0
 73
2
 44
0.9
  1
24,5\P[.96]
 40
11.43
 41
33.3127137546
  0
LINE
  5
280
100
AcDbEntity
  8
0
100
AcDbLine
 62
2
  6
CONTINUOUS
 10
1022.0789235606
 20
1001.6386046123
 11
1151.0627263219
 21
1001.6386046123
  0
LINE
  5
281
100
AcDbEntity
  8
0
100
AcDbLine
 62
2
  6
CONTINUOUS
 10
902.1289235606
 20
977.1386046123
 11
1151.0627263219
 21
977.1386046123
  0
LINE
  5
282
100
AcDbEntity
  8
0
100
AcDbLine
 62
2
  6
CONTINUOUS
 10
1135.1877263219
 20
1001.6386046123
 11
1135.1877263219
 21
1049.7500865934
  0
LINE
  5
283
100
AcDbEntity
  8
0
100
AcDbLine
 62
2
  6
CONTINUOUS
 10
1135.1877263219
 20
1049.7500865934
 11
1161.2227263219
 21
1049.7500865934
  0
LINE
  5
284
100
AcDbEntity
  8
0
100
AcDbLine
 62
2
  6
CONTINUOUS
 10
1135.1877263219
 20
977.1386046123
 11
1135.1877263219
 21
957.1386046123
  0
INSERT
  5
285
100
AcDbEntity
  8
0
100
AcDbBlockReference
 62
2
  6
CONTINUOUS
  2
_FILLED
 10
1135.1877263219
 20
1001.6386046123
 41
10.0
 42
10.0
 43
10.0
 50
270.0
  0
INSERT
  5
286
100
AcDbEntity
  8
0
100
AcDbBlockReference
 62
2
  6
CONTINUOUS
  2
_FILLED
 10
1135.1877263219
 20
977.1386046123
 41
10.0
 42
10.0
 43
10.0
 50
90.0
  0
ENDBLK
  5
287
100
AcDbEntity
  8
0
  6
BYBLOCK
 62
0
100
AcDbBlockEnd
  0
BLOCK
  5
288
100
AcDbEntity
  8
0
100
AcDbBlockBegin
 62
2
  6
CONTINUOUS
  2
*D11
 70
65
 10
0.0
 20
0.0
  3
*D11
  1

  0
MTEXT
  5
289
100
AcDbEntity
  8
0
100
AcDbMText
 62
2
  6
CONTINUOUS
  7
STANDARD
 71
3
 72
1
 10
781.2478955187
 20
955.9902021624
 30
0.0
 11
1.0
 21
0.0
 31
0.0
 73
2
 44
0.9
  1
50,8\P[2.00]
 40
11.43
 41
42.1507806691
  0
LINE
  5
28A
100
AcDbEntity
  8
0
100
AcDbLine
 62
2
  6
CONTINUOUS
 10
839.7414235606
 20
967.3511046123
 11
839.7414235606
 21
934.4002021624
  0
LINE
  5
28B
100
AcDbEntity
  8
0
100
AcDbLine
 62
2
  6
CONTINUOUS
 10
890.5414235606
 20
967.3511046123
 11
890.5414235606
 21
934.4002021624
  0
LINE
  5
28C
100
AcDbEntity
  8
0
100
AcDbLine
 62
2
  6
CONTINUOUS
 10
839.7414235606
 20
950.2752021624
 11
798.1804419871
 21
950.2752021624
  0
LINE
  5
28D
100
AcDbEntity
  8
0
100
AcDbLine
 62
2
  6
CONTINUOUS
 10
890.5414235606
 20
950.2752021624
 11
910.5414235606
 21
950.2752021624
  0
INSERT
  5
28E
100
AcDbEntity
  8
0
100
AcDbBlockReference
 62
2
  6
CONTINUOUS
  2
_FILLED
 10
839.7414235606
 20
950.2752021624
 41
10.0
 42
10.0
 43
10.0
  0
INSERT
  5
28F
100
AcDbEntity
  8
0
100
AcDbBlockReference
 62
2
  6
CONTINUOUS
  2
_FILLED
 10
890.5414235606
 20
950.2752021624
 41
10.0
 42
10.0
 43
10.0
 50
180.0
  0
ENDBLK
  5
290
100
AcDbEntity
  8
0
  6
BYBLOCK
 62
0
100
AcDbBlockEnd
  0
BLOCK
  5
291
100
AcDbEntity
  8
0
100
AcDbBlockBegin
 62
2
  6
CONTINUOUS
  2
*D12
 70
65
 10
0.0
 20
0.0
  3
*D12
  1

  0
MTEXT
  5
292
100
AcDbEntity
  8
0
100
AcDbMText
 62
2
  6
CONTINUOUS
  7
STANDARD
 71
2
 72
1
 10
863.9516837836
 20
327.3958194539
 30
0.0
 11
1.0
 21
0.0
 31
0.0
 73
2
 44
0.9
  1
176,93\P[6.966]
 40
11.43
 41
50.9888475836
  0
LINE
  5
293
100
AcDbEntity
  8
0
100
AcDbLine
 62
2
  6
CONTINUOUS
 10
776.6744858119
 20
493.4939620195
 11
776.6744858119
 21
305.8058194539
  0
LINE
  5
294
100
AcDbEntity
  8
0
100
AcDbLine
 62
2
  6
CONTINUOUS
 10
953.6083613093
 20
493.4939620195
 11
953.6083613093
 21
305.8058194539
  0
LINE
  5
295
100
AcDbEntity
  8
0
100
AcDbLine
 62
2
  6
CONTINUOUS
 10
776.6744858119
 20
321.6808194539
 11
833.9319997688
 21
321.6808194539
  0
LINE
  5
296
100
AcDbEntity
  8
0
100
AcDbLine
 62
2
  6
CONTINUOUS
 10
953.6083613093
 20
321.6808194539
 11
896.3508473524
 21
321.6808194539
  0
INSERT
  5
297
100
AcDbEntity
  8
0
100
AcDbBlockReference
 62
2
  6
CONTINUOUS
  2
_FILLED
 10
776.6744858119
 20
321.6808194539
 41
10.0
 42
10.0
 43
10.0
 50
180.0
  0
INSERT
  5
298
100
AcDbEntity
  8
0
100
AcDbBlockReference
 62
2
  6
CONTINUOUS
  2
_FILLED
 10
953.6083613093
 20
321.6808194539
 41
10.0
 42
10.0
 43
10.0
  0
ENDBLK
  5
299
100
AcDbEntity
  8
0
  6
BYBLOCK
 62
0
100
AcDbBlockEnd
  0
BLOCK
  5
29A
100
AcDbEntity
  8
0
100
AcDbBlockBegin
 62
2
  6
CONTINUOUS
  2
*D13
 70
65
 10
0.0
 20
0.0
  3
*D13
  1

  0
MTEXT
  5
29B
100
AcDbEntity
  8
0
100
AcDbMText
 62
2
  6
CONTINUOUS
  7
STANDARD
 71
3
 72
1
 10
800.5428139591
 20
836.0159487114
 30
0.0
 11
1.0
 21
0.0
 31
0.0
 73
2
 44
0.9
  1
69,85\P[2.750]
 40
11.43
 41
50.9888475836
  0
LINE
  5
29C
100
AcDbEntity
  8
0
100
AcDbLine
 62
2
  6
CONTINUOUS
 10
830.2164235606
 20
654.394055692
 11
830.2164235606
 21
846.1759487114
  0
LINE
  5
29D
100
AcDbEntity
  8
0
100
AcDbLine
 62
2
  6
CONTINUOUS
 10
900.0664235606
 20
654.394055692
 11
900.0664235606
 21
846.1759487114
  0
LINE
  5
29E
100
AcDbEntity
  8
0
100
AcDbLine
 62
2
  6
CONTINUOUS
 10
830.2164235606
 20
830.3009487114
 11
865.1414235606
 21
830.3009487114
  0
LINE
  5
29F
100
AcDbEntity
  8
0
100
AcDbLine
 62
2
  6
CONTINUOUS
 10
865.1414235606
 20
830.3009487114
 11
817.4753604275
 21
830.3009487114
  0
LINE
  5
2A0
100
AcDbEntity
  8
0
100
AcDbLine
 62
2
  6
CONTINUOUS
 10
900.0664235606
 20
830.3009487114
 11
865.1414235606
 21
830.3009487114
  0
INSERT
  5
2A1
100
AcDbEntity
  8
0
100
AcDbBlockReference
 62
2
  6
CONTINUOUS
  2
_FILLED
 10
830.2164235606
 20
830.3009487114
 41
10.0
 42
10.0
 43
10.0
 50
180.0
  0
INSERT
  5
2A2
100
AcDbEntity
  8
0
100
AcDbBlockReference
 62
2
  6
CONTINUOUS
  2
_FILLED
 10
900.0664235606
 20
830.3009487114
 41
10.0
 42
10.0
 43
10.0
  0
ENDBLK
  5
2A3
100
AcDbEntity
  8
0
  6
BYBLOCK
 62
0
100
AcDbBlockEnd
  0
BLOCK
  5
2A4
100
AcDbEntity
  8
0
100
AcDbBlockBegin
 62
2
  6
CONTINUOUS
  2
*D14
 70
65
 10
0.0
 20
0.0
  3
*D14
  1

  0
MTEXT
  5
2A5
100
AcDbEntity
  8
0
100
AcDbMText
 62
2
  6
CONTINUOUS
  7
STANDARD
 71
3
 72
1
 10
750.7001775972
 20
787.6281533571
 30
0.0
 11
1.0
 21
0.0
 31
0.0
 73
2
 44
0.9
  1
129,54\P[5.100]
 40
11.43
 41
50.9888475836
  0
LINE
  5
2A6
100
AcDbEntity
  8
0
100
AcDbLine
 62
2
  6
CONTINUOUS
 10
800.3707033302
 20
667.924055692
 11
800.3707033302
 21
797.7881533571
  0
LINE
  5
2A7
100
AcDbEntity
  8
0
100
AcDbLine
 62
2
  6
CONTINUOUS
 10
929.912143791
 20
667.924055692
 11
929.912143791
 21
797.7881533571
  0
LINE
  5
2A8
100
AcDbEntity
  8
0
100
AcDbLine
 62
2
  6
CONTINUOUS
 10
800.3707033302
 20
781.9131533571
 11
758.7946571511
 21
781.9131533571
  0
LINE
  5
2A9
100
AcDbEntity
  8
0
100
AcDbLine
 62
2
  6
CONTINUOUS
 10
929.912143791
 20
781.9131533571
 11
949.912143791
 21
781.9131533571
  0
INSERT
  5
2AA
100
AcDbEntity
  8
0
100
AcDbBlockReference
 62
2
  6
CONTINUOUS
  2
_FILLED
 10
800.3707033302
 20
781.9131533571
 41
10.0
 42
10.0
 43
10.0
  0
INSERT
  5
2AB
100
AcDbEntity
  8
0
100
AcDbBlockReference
 62
2
  6
CONTINUOUS
  2
_FILLED
 10
929.912143791
 20
781.9131533571
 41
10.0
 42
10.0
 43
10.0
 50
180.0
  0
ENDBLK
  5
2AC
100
AcDbEntity
  8
0
  6
BYBLOCK
 62
0
100
AcDbBlockEnd
  0
BLOCK
  5
2AD
100
AcDbEntity
  8
0
100
AcDbBlockBegin
 62
2
  6
CONTINUOUS
  2
*D15
 70
65
 10
0.0
 20
0.0
  3
*D15
  1

  0
MTEXT
  5
2AE
100
AcDbEntity
  8
0
100
AcDbMText
 62
2
  6
CONTINUOUS
  7
STANDARD
 71
2
 72
1
 10
602.7914204984
 20
721.7238211489
 30
0.0
 11
1.0
 21
0.0
 31
0.0
 73
2
 44
0.9
  1
77\P[3.0]
 40
11.43
 41
33.3127137546
  0
LINE
  5
2AF
100
AcDbEntity
  8
0
100
AcDbLine
 62
2
  6
CONTINUOUS
 10
708.2039235606
 20
665.186555692
 11
594.7347104612
 21
665.186555692
  0
LINE
  5
2B0
100
AcDbEntity
  8
0
100
AcDbLine
 62
2
  6
CONTINUOUS
 10
708.2039235606
 20
742.186555692
 11
594.7347104612
 21
742.186555692
  0
LINE
  5
2B1
100
AcDbEntity
  8
0
100
AcDbLine
 62
2
  6
CONTINUOUS
 10
610.6097104612
 20
665.186555692
 11
610.6097104612
 21
645.186555692
  0
LINE
  5
2B2
100
AcDbEntity
  8
0
100
AcDbLine
 62
2
  6
CONTINUOUS
 10
610.6097104612
 20
742.186555692
 11
610.6097104612
 21
762.186555692
  0
INSERT
  5
2B3
100
AcDbEntity
  8
0
100
AcDbBlockReference
 62
2
  6
CONTINUOUS
  2
_FILLED
 10
610.6097104612
 20
665.186555692
 41
10.0
 42
10.0
 43
10.0
 50
90.0
  0
INSERT
  5
2B4
100
AcDbEntity
  8
0
100
AcDbBlockReference
 62
2
  6
CONTINUOUS
  2
_FILLED
 10
610.6097104612
 20
742.186555692
 41
10.0
 42
10.0
 43
10.0
 50
270.0
  0
ENDBLK
  5
2B5
100
AcDbEntity
  8
0
  6
BYBLOCK
 62
0
100
AcDbBlockEnd
  0
BLOCK
  5
2B6
100
AcDbEntity
  8
0
100
AcDbBlockBegin
 62
2
  6
CONTINUOUS
  2
*D16
 70
65
 10
0.0
 20
0.0
  3
*D16
  1

  0
MTEXT
  5
2B7
100
AcDbEntity
  8
0
100
AcDbMText
 62
2
  6
CONTINUOUS
  7
STANDARD
 71
2
 72
1
 10
148.3364200533
 20
664.4353936299
 30
0.0
 11
1.0
 21
0.0
 31
0.0
 73
2
 44
0.9
  1
153\P[6.0]
 40
11.43
 41
33.3127137546
  0
LINE
  5
2B8
100
AcDbEntity
  8
0
100
AcDbLine
 62
2
  6
CONTINUOUS
 10
224.4735088713
 20
742.186555692
 11
135.8606765588
 21
742.186555692
  0
LINE
  5
2B9
100
AcDbEntity
  8
0
100
AcDbLine
 62
2
  6
CONTINUOUS
 10
351.414451905
 20
589.186555692
 11
135.8606765588
 21
589.186555692
  0
LINE
  5
2BA
100
AcDbEntity
  8
0
100
AcDbLine
 62
2
  6
CONTINUOUS
 10
151.7356765588
 20
742.186555692
 11
151.7356765588
 21
670.1503936299
  0
LINE
  5
2BB
100
AcDbEntity
  8
0
100
AcDbLine
 62
2
  6
CONTINUOUS
 10
151.7356765588
 20
589.186555692
 11
151.7356765588
 21
630.1453936299
  0
INSERT
  5
2BC
100
AcDbEntity
  8
0
100
AcDbBlockReference
 62
2
  6
CONTINUOUS
  2
_FILLED
 10
151.7356765588
 20
742.186555692
 41
10.0
 42
10.0
 43
10.0
 50
90.0
  0
INSERT
  5
2BD
100
AcDbEntity
  8
0
100
AcDbBlockReference
 62
2
  6
CONTINUOUS
  2
_FILLED
 10
151.7356765588
 20
589.186555692
 41
10.0
 42
10.0
 43
10.0
 50
270.0
  0
ENDBLK
  5
2BE
100
AcDbEntity
  8
0
  6
BYBLOCK
 62
0
100
AcDbBlockEnd
  0
BLOCK
  5
2BF
100
AcDbEntity
  8
0
100
AcDbBlockBegin
 62
2
  6
CONTINUOUS
  2
*D17
 70
65
 10
0.0
 20
0.0
  3
*D17
  1

  0
MTEXT
  5
2C0
100
AcDbEntity
  8
0
100
AcDbMText
 62
2
  6
CONTINUOUS
  7
STANDARD
 71
2
 72
1
 10
1610.1730337115
 20
958.3229611907
 30
0.0
 11
1.0
 21
0.0
 31
0.0
 73
2
 44
0.9
  1
48,8\P[1.92]
 40
11.43
 41
42.1507806691
  0
LINE
  5
2C1
100
AcDbEntity
  8
0
100
AcDbLine
 62
2
  6
CONTINUOUS
 10
1780.1431080344
 20
966.8109247233
 11
1599.9068069457
 21
966.8109247233
  0
LINE
  5
2C2
100
AcDbEntity
  8
0
100
AcDbLine
 62
2
  6
CONTINUOUS
 10
1780.1431080344
 20
918.0109247233
 11
1599.9068069457
 21
918.0109247233
  0
LINE
  5
2C3
100
AcDbEntity
  8
0
100
AcDbLine
 62
2
  6
CONTINUOUS
 10
1615.7818069457
 20
966.8109247233
 11
1615.7818069457
 21
986.8109247233
  0
LINE
  5
2C4
100
AcDbEntity
  8
0
100
AcDbLine
 62
2
  6
CONTINUOUS
 10
1615.7818069457
 20
918.0109247233
 11
1615.7818069457
 21
898.0109247233
  0
INSERT
  5
2C5
100
AcDbEntity
  8
0
100
AcDbBlockReference
 62
2
  6
CONTINUOUS
  2
_FILLED
 10
1615.7818069457
 20
966.8109247233
 41
10.0
 42
10.0
 43
10.0
 50
270.0
  0
INSERT
  5
2C6
100
AcDbEntity
  8
0
100
AcDbBlockReference
 62
2
  6
CONTINUOUS
  2
_FILLED
 10
1615.7818069457
 20
918.0109247233
 41
10.0
 42
10.0
 43
10.0
 50
90.0
  0
ENDBLK
  5
2C7
100
AcDbEntity
  8
0
  6
BYBLOCK
 62
0
100
AcDbBlockEnd
  0
BLOCK
  5
2C8
100
AcDbEntity
  8
0
100
AcDbBlockBegin
 62
2
  6
CONTINUOUS
  2
*D18
 70
65
 10
0.0
 20
0.0
  3
*D18
  1

  0
MTEXT
  5
2C9
100
AcDbEntity
  8
0
100
AcDbMText
 62
2
  6
CONTINUOUS
  7
STANDARD
 71
3
 72
1
 10
1738.2700705017
 20
758.6147435563
 30
0.0
 11
1.0
 21
0.0
 31
0.0
 73
2
 44
0.9
  1
68,7\P[2.70]
 40
11.43
 41
42.1507806691
  0
LINE
  5
2CA
100
AcDbEntity
  8
0
100
AcDbLine
 62
2
  6
CONTINUOUS
 10
1784.0806080344
 20
914.0734247233
 11
1784.0806080344
 21
737.0247435563
  0
LINE
  5
2CB
100
AcDbEntity
  8
0
100
AcDbLine
 62
2
  6
CONTINUOUS
 10
1852.7806080344
 20
914.0734247233
 11
1852.7806080344
 21
737.0247435563
  0
LINE
  5
2CC
100
AcDbEntity
  8
0
100
AcDbLine
 62
2
  6
CONTINUOUS
 10
1784.0806080344
 20
752.8997435563
 11
1818.4306080344
 21
752.8997435563
  0
LINE
  5
2CD
100
AcDbEntity
  8
0
100
AcDbLine
 62
2
  6
CONTINUOUS
 10
1818.4306080344
 20
752.8997435563
 11
1755.2026169701
 21
752.8997435563
  0
LINE
  5
2CE
100
AcDbEntity
  8
0
100
AcDbLine
 62
2
  6
CONTINUOUS
 10
1852.7806080344
 20
752.8997435563
 11
1818.4306080344
 21
752.8997435563
  0
INSERT
  5
2CF
100
AcDbEntity
  8
0
100
AcDbBlockReference
 62
2
  6
CONTINUOUS
  2
_FILLED
 10
1784.0806080344
 20
752.8997435563
 41
10.0
 42
10.0
 43
10.0
 50
180.0
  0
INSERT
  5
2D0
100
AcDbEntity
  8
0
100
AcDbBlockReference
 62
2
  6
CONTINUOUS
  2
_FILLED
 10
1852.7806080344
 20
752.8997435563
 41
10.0
 42
10.0
 43
10.0
  0
ENDBLK
  5
2D1
100
AcDbEntity
  8
0
  6
BYBLOCK
 62
0
100
AcDbBlockEnd
  0
BLOCK
  5
2D2
100
AcDbEntity
  8
0
100
AcDbBlockBegin
 62
2
  6
CONTINUOUS
  2
*D19
 70
65
 10
0.0
 20
0.0
  3
*D19
  1

  0
MTEXT
  5
2D3
100
AcDbEntity
  8
0
100
AcDbMText
 62
2
  6
CONTINUOUS
  7
STANDARD
 71
1
 72
1
 10
1085.4874290708
 20
708.3698544443
 30
0.0
 11
1.0
 21
0.0
 31
0.0
 73
2
 44
0.9
  1
18,73\P[.737]
 40
11.43
 41
42.1507806691
  0
LINE
  5
2D4
100
AcDbEntity
  8
0
100
AcDbLine
 62
2
  6
CONTINUOUS
 10
1022.0789235606
 20
665.186555692
 11
1069.6124290708
 21
665.186555692
  0
LINE
  5
2D5
100
AcDbEntity
  8
0
100
AcDbLine
 62
2
  6
CONTINUOUS
 10
908.0039235606
 20
646.456555692
 11
1069.6124290708
 21
646.456555692
  0
LINE
  5
2D6
100
AcDbEntity
  8
0
100
AcDbLine
 62
2
  6
CONTINUOUS
 10
1053.7374290708
 20
665.186555692
 11
1053.7374290708
 21
702.6548544443
  0
LINE
  5
2D7
100
AcDbEntity
  8
0
100
AcDbLine
 62
2
  6
CONTINUOUS
 10
1053.7374290708
 20
702.6548544443
 11
1079.7724290708
 21
702.6548544443
  0
LINE
  5
2D8
100
AcDbEntity
  8
0
100
AcDbLine
 62
2
  6
CONTINUOUS
 10
1053.7374290708
 20
646.456555692
 11
1053.7374290708
 21
626.456555692
  0
INSERT
  5
2D9
100
AcDbEntity
  8
0
100
AcDbBlockReference
 62
2
  6
CONTINUOUS
  2
_FILLED
 10
1053.7374290708
 20
665.186555692
 41
10.0
 42
10.0
 43
10.0
 50
270.0
  0
INSERT
  5
2DA
100
AcDbEntity
  8
0
100
AcDbBlockReference
 62
2
  6
CONTINUOUS
  2
_FILLED
 10
1053.7374290708
 20
646.456555692
 41
10.0
 42
10.0
 43
10.0
 50
90.0
  0
ENDBLK
  5
2DB
100
AcDbEntity
  8
0
  6
BYBLOCK
 62
0
100
AcDbBlockEnd
  0
BLOCK
  5
2DC
100
AcDbEntity
  8
0
100
AcDbBlockBegin
 62
2
  6
CONTINUOUS
  2
*D20
 70
65
 10
0.0
 20
0.0
  3
*D20
  1

  0
MTEXT
  5
2DD
100
AcDbEntity
  8
0
100
AcDbMText
 62
2
  6
CONTINUOUS
  7
STANDARD
 71
1
 72
1
 10
1085.4874290708
 20
500.927200866
 30
0.0
 11
1.0
 21
0.0
 31
0.0
 73
2
 44
0.9
  1
127\P[5.0]
 40
11.43
 41
33.3127137546
  0
LINE
  5
2DE
100
AcDbEntity
  8
0
100
AcDbLine
 62
2
  6
CONTINUOUS
 10
908.0039235606
 20
646.456555692
 11
1069.6124290708
 21
646.456555692
  0
LINE
  5
2DF
100
AcDbEntity
  8
0
100
AcDbLine
 62
2
  6
CONTINUOUS
 10
908.0039235606
 20
519.456555692
 11
1069.6124290708
 21
519.456555692
  0
LINE
  5
2E0
100
AcDbEntity
  8
0
100
AcDbLine
 62
2
  6
CONTINUOUS
 10
1053.7374290708
 20
646.456555692
 11
1053.7374290708
 21
582.956555692
  0
LINE
  5
2E1
100
AcDbEntity
  8
0
100
AcDbLine
 62
2
  6
CONTINUOUS
 10
1053.7374290708
 20
519.456555692
 11
1053.7374290708
 21
582.956555692
  0
LINE
  5
2E2
100
AcDbEntity
  8
0
100
AcDbLine
 62
2
  6
CONTINUOUS
 10
1053.7374290708
 20
582.956555692
 11
1053.7374290708
 21
495.212200866
  0
LINE
  5
2E3
100
AcDbEntity
  8
0
100
AcDbLine
 62
2
  6
CONTINUOUS
 10
1053.7374290708
 20
495.212200866
 11
1079.7724290708
 21
495.212200866
  0
INSERT
  5
2E4
100
AcDbEntity
  8
0
100
AcDbBlockReference
 62
2
  6
CONTINUOUS
  2
_FILLED
 10
1053.7374290708
 20
646.456555692
 41
10.0
 42
10.0
 43
10.0
 50
90.0
  0
INSERT
  5
2E5
100
AcDbEntity
  8
0
100
AcDbBlockReference
 62
2
  6
CONTINUOUS
  2
_FILLED
 10
1053.7374290708
 20
519.456555692
 41
10.0
 42
10.0
 43
10.0
 50
270.0
  0
ENDBLK
  5
2E6
100
AcDbEntity
  8
0
  6
BYBLOCK
 62
0
100
AcDbBlockEnd
  0
ENDSEC
  0
SECTION
  2
ENTITIES
  0
MTEXT
  5
2E7
100
AcDbEntity
  8
0
100
AcDbMText
 62
2
  6
CONTINUOUS
  7
TEXTSTYLE_2
 71
1
 72
1
 10
28.8389310383
 20
216.8976369672
 30
0.0
 11
1.0
 21
0.0
 31
0.0
 73
2
 44
1.0
  1
A
 40
11.90625
 41
12.2603392193
  0
MTEXT
  5
2E8
100
AcDbEntity
  8
0
100
AcDbMText
 62
2
  6
CONTINUOUS
  7
TEXTSTYLE_2
 71
1
 72
1
 10
28.7918938038
 20
543.7583575302
 30
0.0
 11
1.0
 21
0.0
 31
0.0
 73
2
 44
1.0
  1
B
 40
11.90625
 41
9.5161477695
  0
MTEXT
  5
2E9
100
AcDbEntity
  8
0
100
AcDbMText
 62
2
  6
CONTINUOUS
  7
TEXTSTYLE_2
 71
1
 72
1
 10
28.7941724273
 20
870.6792752012
 30
0.0
 11
1.0
 21
0.0
 31
0.0
 73
2
 44
1.0
  1
C
 40
11.90625
 41
13.499651487
  0
MTEXT
  5
2EA
100
AcDbEntity
  8
0
100
AcDbMText
 62
2
  6
CONTINUOUS
  7
TEXTSTYLE_2
 71
1
 72
1
 10
28.7696380663
 20
1197.7257623847
 30
0.0
 11
1.0
 21
0.0
 31
0.0
 73
2
 44
1.0
  1
D
 40
11.90625
 41
12.3488615242
  0
MTEXT
  5
2EB
100
AcDbEntity
  8
0
100
AcDbMText
 62
2
  6
CONTINUOUS
  7
TEXTSTYLE_2
 71
1
 72
1
 10
1823.541324033
 20
59.0832561593
 30
0.0
 11
1.0
 21
0.0
 31
0.0
 73
2
 44
1.0000002
  1
SCALE:  
 40
6.614585
 41
35.7777738848
  0
MTEXT
  5
2EC
100
AcDbEntity
  8
0
100
AcDbMText
 62
2
  6
CONTINUOUS
  7
TEXTSTYLE_2
 71
1
 72
1
 10
1824.0886376291
 20
92.844686536
 30
0.0
 11
1.0
 21
0.0
 31
0.0
 73
2
 44
1.0000002
  1
SIZE
 40
6.614585
 41
16.0569665613
  0
MTEXT
  5
2ED
100
AcDbEntity
  8
0
100
AcDbMText
 62
2
  6
CONTINUOUS
  7
TEXTSTYLE_2
 71
1
 72
1
 10
1882.592633459
 20
58.6096449393
 30
0.0
 11
1.0
 21
0.0
 31
0.0
 73
2
 44
1.0000002
  1
CAD FILE:                   
 40
6.66
 41
91.259330855
  0
MTEXT
  5
2EE
100
AcDbEntity
  8
0
100
AcDbMText
 62
2
  6
CONTINUOUS
  7
TEXTSTYLE_2
 71
1
 72
1
 10
1907.3416075835
 20
92.613836703
 30
0.0
 11
1.0
 21
0.0
 31
0.0
 73
2
 44
1.0000002
  1
DWG. NO.
 40
6.614585
 41
46.2529159294
  0
MTEXT
  5
2EF
100
AcDbEntity
  8
0
100
AcDbMText
 62
2
  6
CONTINUOUS
  7
TEXTSTYLE_2
 71
1
 72
1
 10
1828.0884379228
 20
78.2681838544
 30
0.0
 11
1.0
 21
0.0
 31
0.0
 73
2
 44
1.0000002
  1
B
 40
9.260415
 41
7.4014469331
  0
MTEXT
  5
2F0
100
AcDbEntity
  8
0
100
AcDbMText
 62
2
  6
CONTINUOUS
  7
TEXTSTYLE_2
 71
1
 72
1
 10
2030.574392081
 20
58.8547920191
 30
0.0
 11
1.0
 21
0.0
 31
0.0
 73
2
 44
1.0000002
  1
SHEET:
 40
6.614585
 41
27.2697946654
  0
MTEXT
  5
2F1
100
AcDbEntity
  8
0
100
AcDbMText
 62
2
  6
CONTINUOUS
  7
TEXTSTYLE_2
 71
1
 72
1
 10
1651.7154840621
 20
177.2595654902
 30
0.0
 11
1.0
 21
0.0
 31
0.0
 73
2
 44
1.0000002
  1
DRAWN BY
 40
6.614585
 41
48.24466829
  0
MTEXT
  5
2F2
100
AcDbEntity
  8
0
100
AcDbMText
 62
2
  6
CONTINUOUS
  7
TEXTSTYLE_2
 71
1
 72
1
 10
1652.3864510223
 20
143.7114300849
 30
0.0
 11
1.0
 21
0.0
 31
0.0
 73
2
 44
1.0000002
  1
MECH ENGINEER
 40
6.614585
 41
73.9653222305
  0
MTEXT
  5
2F3
100
AcDbEntity
  8
0
100
AcDbMText
 62
2
  6
CONTINUOUS
  7
TEXTSTYLE_2
 71
1
 72
1
 10
1652.3864510223
 20
110.1390117499
 30
0.0
 11
1.0
 21
0.0
 31
0.0
 73
2
 44
1.0000002
  1
TECH DIRECTOR
 40
6.614585
 41
69.7851012268
  0
MTEXT
  5
2F4
100
AcDbEntity
  8
0
100
AcDbMText
 62
2
  6
CONTINUOUS
  7
TEXTSTYLE_2
 71
1
 72
1
 10
1652.3864510223
 20
76.0267560349
 30
0.0
 11
1.0
 21
0.0
 31
0.0
 73
2
 44
1.0000002
  1
MFG ENGINEER
 40
6.614585
 41
67.7441697955
  0
MTEXT
  5
2F5
100
AcDbEntity
  8
0
100
AcDbMText
 62
2
  6
CONTINUOUS
  7
TEXTSTYLE_2
 71
1
 72
1
 10
1499.2508362047
 20
186.69633691
 30
0.0
 11
1.0
 21
0.0
 31
0.0
 73
2
 44
1.0000002
  1
DECIMALS                    ANGLES
 40
6.614585
 41
132.1441627881
  0
MTEXT
  5
2F6
100
AcDbEntity
  8
0
100
AcDbMText
 62
2
  6
CONTINUOUS
  7
TEXTSTYLE_2
 71
1
 72
1
 10
1482.4438977356
 20
135.3939039217
 30
0.0
 11
1.0
 21
0.0
 31
0.0
 73
2
 44
1.0000002
  1
MATERIAL
 40
6.614585
 41
42.9333286617
  0
MTEXT
  5
2F7
100
AcDbEntity
  8
0
100
AcDbMText
 62
2
  6
CONTINUOUS
  7
TEXTSTYLE_2
 71
1
 72
1
 10
1482.8976510681
 20
112.2502701621
 30
0.0
 11
1.0
 21
0.0
 31
0.0
 73
2
 44
1.0000002
  1
FINISH
 40
6.614585
 41
26.3599818587
  0
MTEXT
  5
2F8
100
AcDbEntity
  8
0
100
AcDbMText
 62
2
  6
CONTINUOUS
  7
TEXTSTYLE_2
 71
1
 72
1
 10
1491.5402698579
 20
85.9451449608
 30
0.0
 11
1.0
 21
0.0
 31
0.0
 73
2
 44
1.0000002
  1
DO  NOT  SCALE  DRAWING
 40
7.9375
 41
146.592936803
  0
MTEXT
  5
2F9
100
AcDbEntity
  8
0
100
AcDbMText
 62
2
  6
CONTINUOUS
  7
TEXTSTYLE_2
 71
1
 72
1
 10
1981.0744012948
 20
43.8550177682
 30
0.0
 11
1.0
 21
0.0
 31
0.0
 73
2
 44
1.0
  1
1
 40
11.90625
 41
9.2063197026
  0
MTEXT
  5
2FA
100
AcDbEntity
  8
0
100
AcDbMText
 62
2
  6
CONTINUOUS
  7
TEXTSTYLE_2
 71
1
 72
1
 10
1722.2540564033
 20
44.2685848932
 30
0.0
 11
1.0
 21
0.0
 31
0.0
 73
2
 44
1.0
  1
2
 40
11.90625
 41
9.2063197026
  0
MTEXT
  5
2FB
100
AcDbEntity
  8
0
100
AcDbMText
 62
2
  6
CONTINUOUS
  7
TEXTSTYLE_2
 71
1
 72
1
 10
1463.2625185208
 20
44.0049076457
 30
0.0
 11
1.0
 21
0.0
 31
0.0
 73
2
 44
1.0
  1
3
 40
11.90625
 41
9.2063197026
  0
MTEXT
  5
2FC
100
AcDbEntity
  8
0
100
AcDbMText
 62
2
  6
CONTINUOUS
  7
TEXTSTYLE_2
 71
1
 72
1
 10
1204.6860000723
 20
44.1592369727
 30
0.0
 11
1.0
 21
0.0
 31
0.0
 73
2
 44
1.0
  1
4
 40
11.90625
 41
9.2063197026
  0
MTEXT
  5
2FD
100
AcDbEntity
  8
0
100
AcDbMText
 62
2
  6
CONTINUOUS
  7
TEXTSTYLE_2
 71
1
 72
1
 10
946.1355027423
 20
44.0279034312
 30
0.0
 11
1.0
 21
0.0
 31
0.0
 73
2
 44
1.0
  1
5
 40
11.90625
 41
9.2063197026
  0
MTEXT
  5
2FE
100
AcDbEntity
  8
0
100
AcDbMText
 62
2
  6
CONTINUOUS
  7
TEXTSTYLE_2
 71
1
 72
1
 10
687.3417858883
 20
44.3812321822
 30
0.0
 11
1.0
 21
0.0
 31
0.0
 73
2
 44
1.0
  1
6
 40
11.90625
 41
9.2063197026
  0
MTEXT
  5
2FF
100
AcDbEntity
  8
0
100
AcDbMText
 62
2
  6
CONTINUOUS
  7
TEXTSTYLE_2
 71
1
 72
1
 10
428.4925764818
 20
44.1776620192
 30
0.0
 11
1.0
 21
0.0
 31
0.0
 73
2
 44
1.0
  1
7
 40
11.90625
 41
9.2063197026
  0
MTEXT
  5
300
100
AcDbEntity
  8
0
100
AcDbMText
 62
2
  6
CONTINUOUS
  7
TEXTSTYLE_2
 71
1
 72
1
 10
169.5359198278
 20
43.9969534497
 30
0.0
 11
1.0
 21
0.0
 31
0.0
 73
2
 44
1.0
  1
8
 40
11.90625
 41
9.2063197026
  0
MTEXT
  5
301
100
AcDbEntity
  8
0
100
AcDbMText
 62
2
  6
CONTINUOUS
  7
TEXTSTYLE_2
 71
1
 72
1
 10
173.1311341102
 20
1368.0924877276
 30
0.0
 11
1.0
 21
0.0
 31
0.0
 73
2
 44
1.0000002
  1
8
 40
11.90625
 41
9.2063197026
  0
MTEXT
  5
302
100
AcDbEntity
  8
0
100
AcDbMText
 62
2
  6
CONTINUOUS
  7
TEXTSTYLE_2
 71
1
 72
1
 10
1482.0627778742
 20
62.0422504496
 30
0.0
 11
1.0
 21
0.0
 31
0.0
 73
2
 44
1.0000002
  1
PROJECTION SYMBOL
 40
7.85
 41
113.3143122677
  0
MTEXT
  5
303
100
AcDbEntity
  8
0
100
AcDbMText
 62
2
  6
CONTINUOUS
  7
TEXTSTYLE_2
 71
1
 72
1
 10
1705.7777884799
 20
191.21132077
 30
0.0
 11
1.0
 21
0.0
 31
0.0
 73
2
 44
1.0000002
  1
APPROVALS
 40
6.614585
 41
53.4822393123
  0
MTEXT
  5
304
100
AcDbEntity
  8
0
100
AcDbMText
 62
2
  6
CONTINUOUS
  7
TEXTSTYLE_2
 71
1
 72
1
 10
428.9077843403
 20
1368.2042634772
 30
0.0
 11
1.0
 21
0.0
 31
0.0
 73
2
 44
1.0000002
  1
7
 40
11.90625
 41
9.2063197026
  0
MTEXT
  5
305
100
AcDbEntity
  8
0
100
AcDbMText
 62
2
  6
CONTINUOUS
  7
TEXTSTYLE_2
 71
1
 72
1
 10
946.1616529848
 20
1367.7046865142
 30
0.0
 11
1.0
 21
0.0
 31
0.0
 73
2
 44
1.0
  1
5
 40
11.90625
 41
9.2063197026
  0
MTEXT
  5
306
100
AcDbEntity
  8
0
100
AcDbMText
 62
2
  6
CONTINUOUS
  7
TEXTSTYLE_2
 71
1
 72
1
 10
1204.8815189153
 20
1367.7472285362
 30
0.0
 11
1.0
 21
0.0
 31
0.0
 73
2
 44
1.0
  1
4
 40
11.90625
 41
9.2063197026
  0
MTEXT
  5
307
100
AcDbEntity
  8
0
100
AcDbMText
 62
2
  6
CONTINUOUS
  7
TEXTSTYLE_2
 71
1
 72
1
 10
1463.4982225403
 20
1367.7164981037
 30
0.0
 11
1.0
 21
0.0
 31
0.0
 73
2
 44
1.0
  1
3
 40
11.90625
 41
9.2063197026
  0
MTEXT
  5
308
100
AcDbEntity
  8
0
100
AcDbMText
 62
2
  6
CONTINUOUS
  7
TEXTSTYLE_2
 71
1
 72
1
 10
1722.3327256088
 20
1367.9803145297
 30
0.0
 11
1.0
 21
0.0
 31
0.0
 73
2
 44
1.0
  1
2
 40
11.90625
 41
9.2063197026
  0
MTEXT
  5
309
100
AcDbEntity
  8
0
100
AcDbMText
 62
2
  6
CONTINUOUS
  7
TEXTSTYLE_2
 71
1
 72
1
 10
1981.5530706833
 20
1368.0838742972
 30
0.0
 11
1.0
 21
0.0
 31
0.0
 73
2
 44
1.0
  1
1
 40
11.90625
 41
9.2063197026
  0
MTEXT
  5
30A
100
AcDbEntity
  8
0
100
AcDbMText
 62
2
  6
CONTINUOUS
  7
TEXTSTYLE_2
 71
1
 72
1
 10
2119.1970627348
 20
1197.3739405177
 30
0.0
 11
1.0
 21
0.0
 31
0.0
 73
2
 44
1.0
  1
D
 40
11.90625
 41
12.3488615242
  0
MTEXT
  5
30B
100
AcDbEntity
  8
0
100
AcDbMText
 62
2
  6
CONTINUOUS
  7
TEXTSTYLE_2
 71
1
 72
1
 10
2117.8796401948
 20
870.6016373667
 30
0.0
 11
1.0
 21
0.0
 31
0.0
 73
2
 44
1.0
  1
C
 40
11.90625
 41
13.499651487
  0
MTEXT
  5
30C
100
AcDbEntity
  8
0
100
AcDbMText
 62
2
  6
CONTINUOUS
  7
TEXTSTYLE_2
 71
1
 72
1
 10
2121.5137787523
 20
543.2768106757
 30
0.0
 11
1.0
 21
0.0
 31
0.0
 73
2
 44
1.0
  1
B
 40
11.90625
 41
9.5161477695
  0
MTEXT
  5
30D
100
AcDbEntity
  8
0
100
AcDbMText
 62
2
  6
CONTINUOUS
  7
TEXTSTYLE_2
 71
1
 72
1
 10
2118.8994160843
 20
216.4523346397
 30
0.0
 11
1.0
 21
0.0
 31
0.0
 73
2
 44
1.0
  1
A
 40
11.90625
 41
12.2603392193
  0
MTEXT
  5
30E
100
AcDbEntity
  8
0
100
AcDbMText
 62
2
  6
CONTINUOUS
  7
TEXTSTYLE_2
 71
1
 72
1
 10
1483.2735458462
 20
232.4940634897
 30
0.0
 11
1.0
 21
0.0
 31
0.0
 73
2
 44
1.2
  1
UNLESS  OTHERWISE  SPECIFIED\PDIMENSIONS ARE IN MM [IN]\PTOLERANCES ARE:
 40
7.9375
 41
160.4614312268
  0
MTEXT
  5
30F
100
AcDbEntity
  8
0
100
AcDbMText
 62
2
  6
CONTINUOUS
  7
TEXTSTYLE_2
 71
1
 72
1
 10
1655.9345379806
 20
228.7371411549
 30
0.0
 11
1.0
 21
0.0
 31
0.0
 73
2
 44
1.0000002
  1
CAD GENERATED DRAWING\PDO NOT MANUALLY UPDATE
 40
7.9375
 41
149.1600836431
  0
MTEXT
  5
310
100
AcDbEntity
  8
0
100
AcDbMText
 62
2
  6
CONTINUOUS
  7
TEXTSTYLE_2
 71
1
 72
1
 10
50.1144391862
 20
1340.1918467834
 30
0.0
 11
1.0
 21
0.0
 31
0.0
 73
2
 44
1.0000002
  1
PROPERTY OF QSC, LLC, THAT MAY NOT BE DISCLOSED, REPRODUCED OR
 40
6.614585
 41
322.2704498513
  0
MTEXT
  5
311
100
AcDbEntity
  8
0
100
AcDbMText
 62
2
  6
CONTINUOUS
  7
TEXTSTYLE_2
 71
1
 72
1
 10
50.1144391862
 20
1349.7489904089
 30
0.0
 11
1.0
 21
0.0
 31
0.0
 73
2
 44
1.0000002
  1
THIS DOCUMENT CONTAINS PROPRIETARY INFORMATION WHICH IS THE
 40
6.614585
 41
309.016690316
  0
MTEXT
  5
312
100
AcDbEntity
  8
0
100
AcDbMText
 62
2
  6
CONTINUOUS
  7
TEXTSTYLE_2
 71
1
 72
1
 10
49.9700051232
 20
1330.2864036889
 30
0.0
 11
1.0
 21
0.0
 31
0.0
 73
2
 44
1.0000002
  1
USED WITHOUT THE EXPRESS WRITTEN CONSENT FROM QSC, LLC.
 40
6.614585
 41
279.6321956134
  0
MTEXT
  5
313
100
AcDbEntity
  8
0
100
AcDbMText
 62
2
  6
CONTINUOUS
  7
TEXTSTYLE_2
 71
1
 72
1
 10
2080.6325959442
 20
92.8395830734
 30
0.0
 11
1.0
 21
0.0
 31
0.0
 73
2
 44
1.0000002
  1
REV
 40
6.614585
 41
17.0159584387
  0
MTEXT
  5
314
100
AcDbEntity
  8
0
100
AcDbMText
 62
2
  6
CONTINUOUS
  7
TEXTSTYLE_2
 71
1
 72
1
 10
687.3566821023
 20
1367.8900940487
 30
0.0
 11
1.0
 21
0.0
 31
0.0
 73
2
 44
1.0
  1
6
 40
11.90625
 41
9.2063197026
  0
MTEXT
  5
315
100
AcDbEntity
  8
0
100
AcDbMText
 62
2
  6
CONTINUOUS
  7
TEXTSTYLE_2
 71
1
 72
1
 10
1845.103351808
 20
92.2877746542
 30
0.0
 11
1.0
 21
0.0
 31
0.0
 73
2
 44
1.0000002
  1
CAGE CODE
 40
6.614585
 41
57.1706696097
  0
MTEXT
  5
316
100
AcDbEntity
  8
0
100
AcDbMText
 62
2
  6
CONTINUOUS
  7
TEXTSTYLE_2
 71
1
 72
1
 10
1853.4884379228
 20
78.2681838544
 30
0.0
 11
1.0
 21
0.0
 31
0.0
 73
2
 44
1.0000002
  1
00PW4
 40
9.260415
 41
41.5169534944
  0
MTEXT
  5
317
100
AcDbEntity
  8
0
100
AcDbMText
 62
2
  6
CONTINUOUS
  7
TEXTSTYLE_2
 71
1
 72
1
 10
1954.2158252913
 20
214.5709356682
 30
0.0
 11
1.0
 21
0.0
 31
0.0
 73
2
 44
1.0000002
  1
1675 MACARTHUR BOULEVARD\PCOSTA MESA, CA 92626 USA
 40
7.62
 41
157.7821561338
  0
MTEXT
  5
318
100
AcDbEntity
  8
0
100
AcDbMText
 62
2
  6
CONTINUOUS
  7
TEXTSTYLE_2
 71
1
 72
1
 10
1955.2908984967
 20
232.5351666032
 30
0.0
 11
1.0
 21
0.0
 31
0.0
 73
2
 44
1.0000002
  1
QSC, LLC
 40
12.7
 41
79.2215613383
  0
MTEXT
  5
319
100
AcDbEntity
  8
0
100
AcDbMText
 62
2
  6
CONTINUOUS
  7
TEXTSTYLE_2
 71
3
 72
1
 10
2113.3234799928
 20
37.0738140042
 30
0.0
 11
1.0
 21
0.0
 31
0.0
 73
2
 44
1.0000002
  1
Form: QMS100206 Rev B
 40
5.0
 41
80.1301115242
  0
DIMENSION
  5
31A
100
AcDbEntity
  8
0
100
AcDbDimension
 62
2
  6
CONTINUOUS
  2
*D0
 10
1014.1414235606
 20
1261.0112048735
 11
855.5771071953
 21
1252.4387048735
 70
160
 71
2
 72
2
 41
0.9
 42
298.0
  1
<>\P[]
  3
DIMSTYLE_1
100
AcDbAlignedDimension
 13
716.1414235606
 23
1222.9886046123
 14
1014.1414235606
 24
1222.9886046123
100
AcDbRotatedDimension
  0
DIMENSION
  5
31B
100
AcDbEntity
  8
0
100
AcDbDimension
 62
2
  6
CONTINUOUS
  2
*D1
 10
1029.3214235595
 20
1302.480583515
 11
862.2516529352
 21
1293.908083515
 70
160
 71
2
 72
2
 41
0.9
 42
328.3599999979
  1
(<>)\P[]
  3
DIMSTYLE_2
100
AcDbAlignedDimension
 13
700.9614235617
 23
1099.2487236564
 14
1029.3214235595
 24
1099.2487236564
100
AcDbRotatedDimension
  0
DIMENSION
  5
31C
100
AcDbEntity
  8
0
100
AcDbDimension
 62
2
  6
CONTINUOUS
  2
*D2
 10
106.2569000392
 20
377.186555692
 11
106.2569000392
 21
551.114055692
 70
160
 71
2
 72
2
 41
0.9
 42
365.0
  1
<>\P[]
  3
DIMSTYLE_1
100
AcDbAlignedDimension
 13
226.0610088713
 23
742.186555692
 14
323.8624641087
 24
377.186555692
 50
270.0
100
AcDbRotatedDimension
  0
DIMENSION
  5
31D
100
AcDbEntity
  8
0
100
AcDbDimension
 62
2
  6
CONTINUOUS
  2
*D3
 10
208.3925851413
 20
609.186555692
 11
208.3925851413
 21
669.8337933612
 70
160
 71
2
 72
2
 41
0.9
 42
133.0
  1
<>\P[]
  3
DIMSTYLE_1
100
AcDbAlignedDimension
 13
226.0610088713
 23
742.186555692
 14
364.001951905
 24
609.186555692
 50
270.0
100
AcDbRotatedDimension
  0
DIMENSION
  5
31E
100
AcDbEntity
  8
0
100
AcDbDimension
 62
2
  6
CONTINUOUS
  2
*D4
 10
370.351951905
 20
797.6269796605
 11
414.5354853875
 21
789.0544796605
 70
160
 71
2
 72
2
 41
0.9
 42
90.0
  1
<>\P[]
  3
DIMSTYLE_1
100
AcDbAlignedDimension
 13
460.351951905
 23
671.536555692
 14
370.351951905
 24
615.536555692
 50
180.0
100
AcDbRotatedDimension
  0
DIMENSION
  5
31F
100
AcDbEntity
  8
0
100
AcDbDimension
 62
2
  6
CONTINUOUS
  2
*D5
 10
232.4110088713
 20
847.2819980843
 11
346.9759191212
 21
838.7094980843
 70
160
 71
2
 72
2
 41
0.9
 42
227.9409430337
  1
(<>)\P[]
  3
DIMSTYLE_2
100
AcDbAlignedDimension
 13
460.351951905
 23
671.536555692
 14
232.4110088713
 24
748.536555692
 50
180.0
100
AcDbRotatedDimension
  0
DIMENSION
  5
320
100
AcDbEntity
  8
0
100
AcDbDimension
 62
2
  6
CONTINUOUS
  2
*D6
 10
330.2124641087
 20
340.7757483392
 11
393.4958916026
 21
332.2032483392
 70
160
 71
2
 72
2
 41
0.9
 42
130.1394877963
  1
<>\P[]
  3
DIMSTYLE_3
100
AcDbAlignedDimension
 13
460.351951905
 23
370.836555692
 14
330.2124641087
 24
370.836555692
 50
180.0
100
AcDbRotatedDimension
  0
DIMENSION
  5
321
100
AcDbEntity
  8
0
100
AcDbDimension
 62
2
  6
CONTINUOUS
  2
*D7
 10
306.935054972
 20
464.0591055011
 11
392.5023075783
 21
444.2441948786
 70
162
 71
2
 72
2
 41
0.9
 42
1.8325957146
  3
DIMSTYLE_4
100
AcDb2LineAngularDimension
 13
419.2343202712
 23
377.186555692
 14
420.1495660867
 24
377.186555692
 15
307.17193802
 25
463.1750459305
 16
385.9291195909
 26
449.7978881825
  0
DIMENSION
  5
322
100
AcDbEntity
  8
0
100
AcDbDimension
 62
2
  6
CONTINUOUS
  2
*D8
 10
610.6097104612
 20
500.986555692
 11
610.6097104612
 21
574.1567103681
 70
160
 71
2
 72
2
 41
0.9
 42
164.2
  1
<>\P[]
  3
DIMSTYLE_5
100
AcDbAlignedDimension
 13
813.2414235606
 23
665.186555692
 14
773.3014235606
 24
500.986555692
 50
270.0
100
AcDbRotatedDimension
  0
DIMENSION
  5
323
100
AcDbEntity
  8
0
100
AcDbDimension
 62
2
  6
CONTINUOUS
  2
*D9
 10
1035.2845204298
 20
966.7386046123
 11
1088.1099107644
 21
1042.1389131625
 70
160
 71
1
 72
2
 41
0.9
 42
34.9
  1
<>\P[]
  3
DIMSTYLE_5
100
AcDbAlignedDimension
 13
1052.7470204298
 23
1001.6386046123
 14
912.0414235606
 24
966.7386046123
 50
270.0
100
AcDbRotatedDimension
  0
DIMENSION
  5
324
100
AcDbEntity
  8
0
100
AcDbDimension
 62
2
  6
CONTINUOUS
  2
*D10
 10
1135.1877263219
 20
977.1386046123
 11
1183.5940831992
 21
1041.1775865934
 70
160
 71
1
 72
2
 41
0.9
 42
24.5
  1
<>\P[]
  3
DIMSTYLE_5
100
AcDbAlignedDimension
 13
1020.4914235606
 23
1001.6386046123
 14
900.5414235606
 24
977.1386046123
 50
270.0
100
AcDbRotatedDimension
  0
DIMENSION
  5
325
100
AcDbEntity
  8
0
100
AcDbDimension
 62
2
  6
CONTINUOUS
  2
*D11
 10
890.5414235606
 20
950.2752021624
 11
771.3900516525
 21
941.7027021624
 70
160
 71
3
 72
2
 41
0.9
 42
50.8
  1
<>\P[]
  3
DIMSTYLE_5
100
AcDbAlignedDimension
 13
839.7414235606
 23
968.9386046123
 14
890.5414235606
 24
968.9386046123
100
AcDbRotatedDimension
  0
DIMENSION
  5
326
100
AcDbEntity
  8
0
100
AcDbDimension
 62
2
  6
CONTINUOUS
  2
*D12
 10
953.6083613093
 20
321.6808194539
 11
865.1414235606
 21
313.1083194539
 70
160
 71
2
 72
2
 41
0.9
 42
176.9338754974
  1
<>\P[]
  3
DIMSTYLE_3
100
AcDbAlignedDimension
 13
776.6744858119
 23
495.0814620195
 14
953.6083613093
 24
495.0814620195
100
AcDbRotatedDimension
  0
DIMENSION
  5
327
100
AcDbEntity
  8
0
100
AcDbDimension
 62
2
  6
CONTINUOUS
  2
*D13
 10
900.0664235606
 20
830.3009487114
 11
786.2659366357
 21
821.7284487114
 70
160
 71
3
 72
2
 41
0.9
 42
69.85
  1
<>\P[]
  3
DIMSTYLE_3
100
AcDbAlignedDimension
 13
830.2164235606
 23
652.806555692
 14
900.0664235606
 24
652.806555692
100
AcDbRotatedDimension
  0
DIMENSION
  5
328
100
AcDbEntity
  8
0
100
AcDbDimension
 62
2
  6
CONTINUOUS
  2
*D14
 10
929.912143791
 20
781.9131533571
 11
727.5852333593
 21
773.3406533571
 70
160
 71
3
 72
2
 41
0.9
 42
129.5414404607
  1
<>\P[]
  3
DIMSTYLE_3
100
AcDbAlignedDimension
 13
800.3707033302
 23
666.336555692
 14
929.912143791
 24
666.336555692
100
AcDbRotatedDimension
  0
DIMENSION
  5
329
100
AcDbEntity
  8
0
100
AcDbDimension
 62
2
  6
CONTINUOUS
  2
*D15
 10
610.6097104612
 20
742.186555692
 11
610.6097104612
 21
707.4363211489
 70
160
 71
2
 72
2
 41
0.9
 42
77.0
  1
<>\P[]
  3
DIMSTYLE_1
100
AcDbAlignedDimension
 13
709.7914235606
 23
665.186555692
 14
709.7914235606
 24
742.186555692
 50
90.0
100
AcDbRotatedDimension
  0
DIMENSION
  5
32A
100
AcDbEntity
  8
0
100
AcDbDimension
 62
2
  6
CONTINUOUS
  2
*D16
 10
151.7356765588
 20
589.186555692
 11
151.7356765588
 21
650.1478936299
 70
160
 71
2
 72
2
 41
0.9
 42
153.0
  1
<>\P[]
  3
DIMSTYLE_1
100
AcDbAlignedDimension
 13
226.0610088713
 23
742.186555692
 14
353.001951905
 24
589.186555692
 50
270.0
100
AcDbRotatedDimension
  0
DIMENSION
  5
32B
100
AcDbEntity
  8
0
100
AcDbDimension
 62
2
  6
CONTINUOUS
  2
*D17
 10
1615.7818069457
 20
918.0109247233
 11
1615.7818069457
 21
944.0354611907
 70
160
 71
2
 72
2
 41
0.9
 42
48.8
  1
<>\P[]
  3
DIMSTYLE_5
100
AcDbAlignedDimension
 13
1781.7306080344
 23
966.8109247233
 14
1781.7306080344
 24
918.0109247233
 50
270.0
100
AcDbRotatedDimension
  0
DIMENSION
  5
32C
100
AcDbEntity
  8
0
100
AcDbDimension
 62
2
  6
CONTINUOUS
  2
*D18
 10
1852.7806080344
 20
752.8997435563
 11
1728.4122266355
 21
744.3272435563
 70
160
 71
3
 72
2
 41
0.9
 42
68.7
  1
<>\P[]
  3
DIMSTYLE_5
100
AcDbAlignedDimension
 13
1784.0806080344
 23
915.6609247233
 14
1852.7806080344
 24
915.6609247233
100
AcDbRotatedDimension
  0
DIMENSION
  5
32D
100
AcDbEntity
  8
0
100
AcDbDimension
 62
2
  6
CONTINUOUS
  2
*D19
 10
1053.7374290708
 20
646.456555692
 11
1106.5628194054
 21
694.0823544443
 70
160
 71
1
 72
2
 41
0.9
 42
18.73
  1
<>\P[]
  3
DIMSTYLE_3
100
AcDbAlignedDimension
 13
1020.4914235606
 23
665.186555692
 14
906.4164235606
 24
646.456555692
 50
270.0
100
AcDbRotatedDimension
  0
DIMENSION
  5
32E
100
AcDbEntity
  8
0
100
AcDbDimension
 62
2
  6
CONTINUOUS
  2
*D20
 10
1053.7374290708
 20
519.456555692
 11
1102.1437859481
 21
486.639700866
 70
160
 71
1
 72
2
 41
0.9
 42
127.0
  1
<>\P[]
  3
DIMSTYLE_1
100
AcDbAlignedDimension
 13
906.4164235606
 23
646.456555692
 14
906.4164235606
 24
519.456555692
 50
270.0
100
AcDbRotatedDimension
  0
LINE
  5
32F
100
AcDbEntity
  8
0
100
AcDbLine
 62
2
  6
CONTINUOUS
 10
1820.6028769004
 20
190.0758161656
 11
2115.1028769004
 21
190.0758161656
  0
LINE
  5
330
100
AcDbEntity
  8
0
100
AcDbLine
 62
2
  6
CONTINUOUS
 10
1820.6028769004
 20
190.0758161656
 11
1820.6028769004
 21
94.5289411656
  0
LINE
  5
331
100
AcDbEntity
  8
0
100
AcDbLine
 62
2
  6
CONTINUOUS
 10
1820.6028769004
 20
94.5289411656
 11
2115.1028769004
 21
94.5289411656
  0
LINE
  5
332
100
AcDbEntity
  8
0
100
AcDbLine
 62
2
  6
CONTINUOUS
 10
2115.1028769004
 20
190.0758161656
 11
2115.1028769004
 21
94.5289411656
  0
MTEXT
  5
333
100
AcDbEntity
  8
0
100
AcDbMText
 62
2
  6
CONTINUOUS
  7
STANDARD
 71
2
 72
1
 10
1967.8528769004
 20
150.2398786656
 30
0.0
 11
1.0
 21
0.0
 31
0.0
 73
2
 44
0.99999996
  1
SPEAKER, FINISHED, SR-800
 40
15.875
 41
275.5994423792
  0
LINE
  5
334
100
AcDbEntity
  8
0
100
AcDbLine
 62
2
  6
CONTINUOUS
 10
2062.5802566359
 20
94.4876066631
 11
2114.8927566359
 21
94.4876066631
  0
LINE
  5
335
100
AcDbEntity
  8
0
100
AcDbLine
 62
2
  6
CONTINUOUS
 10
2062.5802566359
 20
94.4876066631
 11
2062.5802566359
 21
63.2376066631
  0
LINE
  5
336
100
AcDbEntity
  8
0
100
AcDbLine
 62
2
  6
CONTINUOUS
 10
2062.5802566359
 20
63.2376066631
 11
2114.8927566359
 21
63.2376066631
  0
LINE
  5
337
100
AcDbEntity
  8
0
100
AcDbLine
 62
2
  6
CONTINUOUS
 10
2114.8927566359
 20
94.4876066631
 11
2114.8927566359
 21
63.2376066631
  0
MTEXT
  5
338
100
AcDbEntity
  8
0
100
AcDbMText
 62
2
  6
CONTINUOUS
  7
STANDARD
 71
2
 72
1
 10
2088.7365066359
 20
82.3782316631
 30
0.0
 11
1.0
 21
0.0
 31
0.0
 73
2
 44
0.9
  1
A
 40
15.875
 41
16.3471189591
  0
LINE
  5
339
100
AcDbEntity
  8
0
100
AcDbLine
 62
2
  6
CONTINUOUS
 10
1904.2653694501
 20
94.3902335415
 11
2061.7653694501
 21
94.3902335415
  0
LINE
  5
33A
100
AcDbEntity
  8
0
100
AcDbLine
 62
2
  6
CONTINUOUS
 10
1904.2653694501
 20
94.3902335415
 11
1904.2653694501
 21
63.2183585415
  0
LINE
  5
33B
100
AcDbEntity
  8
0
100
AcDbLine
 62
2
  6
CONTINUOUS
 10
1904.2653694501
 20
63.2183585415
 11
2061.7653694501
 21
63.2183585415
  0
LINE
  5
33C
100
AcDbEntity
  8
0
100
AcDbLine
 62
2
  6
CONTINUOUS
 10
2061.7653694501
 20
94.3902335415
 11
2061.7653694501
 21
63.2183585415
  0
MTEXT
  5
33D
100
AcDbEntity
  8
0
100
AcDbMText
 62
2
  6
CONTINUOUS
  7
STANDARD
 71
2
 72
1
 10
1983.0153694501
 20
83.6089835415
 30
0.0
 11
1.0
 21
0.0
 31
0.0
 73
2
 44
0.9
  1
FG-901316-2D
 40
15.875
 41
147.1830855019
  0
LINE
  5
33E
100
AcDbEntity
  8
0
100
AcDbLine
 62
2
  6
CONTINUOUS
 10
1479.8458150003
 20
138.2071066325
 11
1647.3458150003
 21
138.2071066325
  0
LINE
  5
33F
100
AcDbEntity
  8
0
100
AcDbLine
 62
2
  6
CONTINUOUS
 10
1479.8458150003
 20
138.2071066325
 11
1479.8458150003
 21
115.1992941325
  0
LINE
  5
340
100
AcDbEntity
  8
0
100
AcDbLine
 62
2
  6
CONTINUOUS
 10
1479.8458150003
 20
115.1992941325
 11
1647.3458150003
 21
115.1992941325
  0
LINE
  5
341
100
AcDbEntity
  8
0
100
AcDbLine
 62
2
  6
CONTINUOUS
 10
1647.3458150003
 20
138.2071066325
 11
1647.3458150003
 21
115.1992941325
  0
MTEXT
  5
342
100
AcDbEntity
  8
0
100
AcDbMText
 62
2
  6
CONTINUOUS
  7
STANDARD
 71
2
 72
1
 10
1580.3458150003
 20
132.4182003825
 30
0.0
 11
1.0
 21
0.0
 31
0.0
 73
2
 44
0.9
  1
SEE NOTES
 40
11.43
 41
78.3528624535
  0
LINE
  5
343
100
AcDbEntity
  8
0
100
AcDbLine
 62
2
  6
CONTINUOUS
 10
1479.9504754773
 20
114.9335620279
 11
1647.4504754773
 21
114.9335620279
  0
LINE
  5
344
100
AcDbEntity
  8
0
100
AcDbLine
 62
2
  6
CONTINUOUS
 10
1479.9504754773
 20
114.9335620279
 11
1479.9504754773
 21
91.9257495279
  0
LINE
  5
345
100
AcDbEntity
  8
0
100
AcDbLine
 62
2
  6
CONTINUOUS
 10
1479.9504754773
 20
91.9257495279
 11
1647.4504754773
 21
91.9257495279
  0
LINE
  5
346
100
AcDbEntity
  8
0
100
AcDbLine
 62
2
  6
CONTINUOUS
 10
1647.4504754773
 20
114.9335620279
 11
1647.4504754773
 21
91.9257495279
  0
MTEXT
  5
347
100
AcDbEntity
  8
0
100
AcDbMText
 62
2
  6
CONTINUOUS
  7
STANDARD
 71
2
 72
1
 10
1580.4504754773
 20
109.1446557779
 30
0.0
 11
1.0
 21
0.0
 31
0.0
 73
2
 44
0.9
  1
SEE NOTES
 40
11.43
 41
78.3528624535
  0
LINE
  5
348
100
AcDbEntity
  8
0
100
AcDbLine
 62
2
  6
CONTINUOUS
 10
1647.6037764292
 20
180.367517872
 11
1820.1037764292
 21
180.367517872
  0
LINE
  5
349
100
AcDbEntity
  8
0
100
AcDbLine
 62
2
  6
CONTINUOUS
 10
1647.6037764292
 20
180.367517872
 11
1647.6037764292
 21
148.180017872
  0
LINE
  5
34A
100
AcDbEntity
  8
0
100
AcDbLine
 62
2
  6
CONTINUOUS
 10
1647.6037764292
 20
148.180017872
 11
1820.1037764292
 21
148.180017872
  0
LINE
  5
34B
100
AcDbEntity
  8
0
100
AcDbLine
 62
2
  6
CONTINUOUS
 10
1820.1037764292
 20
180.367517872
 11
1820.1037764292
 21
148.180017872
  0
MTEXT
  5
34C
100
AcDbEntity
  8
0
100
AcDbMText
 62
2
  6
CONTINUOUS
  7
STANDARD
 71
1
 72
1
 10
1647.9162764292
 20
164.219080372
 30
0.0
 11
1.0
 21
0.0
 31
0.0
 73
2
 44
0.9
  1
 H.HE
 40
7.9375
 41
27.1763475836
  0
LINE
  5
34D
100
AcDbEntity
  8
0
100
AcDbLine
 62
2
  6
CONTINUOUS
 10
1647.6514541912
 20
148.3454103537
 11
1820.1514541912
 21
148.3454103537
  0
LINE
  5
34E
100
AcDbEntity
  8
0
100
AcDbLine
 62
2
  6
CONTINUOUS
 10
1647.6514541912
 20
148.3454103537
 11
1647.6514541912
 21
114.2829103537
  0
LINE
  5
34F
100
AcDbEntity
  8
0
100
AcDbLine
 62
2
  6
CONTINUOUS
 10
1647.6514541912
 20
114.2829103537
 11
1820.1514541912
 21
114.2829103537
  0
LINE
  5
350
100
AcDbEntity
  8
0
100
AcDbLine
 62
2
  6
CONTINUOUS
 10
1820.1514541912
 20
148.3454103537
 11
1820.1514541912
 21
114.2829103537
  0
MTEXT
  5
351
100
AcDbEntity
  8
0
100
AcDbMText
 62
2
  6
CONTINUOUS
  7
STANDARD
 71
1
 72
1
 10
1647.9639541912
 20
131.0250978537
 30
0.0
 11
1.0
 21
0.0
 31
0.0
 73
2
 44
0.9
  1
 H.HE
 40
7.9375
 41
27.1763475836
  0
LINE
  5
352
100
AcDbEntity
  8
0
100
AcDbLine
 62
2
  6
CONTINUOUS
 10
1647.6868235302
 20
114.2161739862
 11
1820.1868235302
 21
114.2161739862
  0
LINE
  5
353
100
AcDbEntity
  8
0
100
AcDbLine
 62
2
  6
CONTINUOUS
 10
1647.6868235302
 20
114.2161739862
 11
1647.6868235302
 21
80.1536739862
  0
LINE
  5
354
100
AcDbEntity
  8
0
100
AcDbLine
 62
2
  6
CONTINUOUS
 10
1647.6868235302
 20
80.1536739862
 11
1820.1868235302
 21
80.1536739862
  0
LINE
  5
355
100
AcDbEntity
  8
0
100
AcDbLine
 62
2
  6
CONTINUOUS
 10
1820.1868235302
 20
114.2161739862
 11
1820.1868235302
 21
80.1536739862
  0
MTEXT
  5
356
100
AcDbEntity
  8
0
100
AcDbMText
 62
2
  6
CONTINUOUS
  7
STANDARD
 71
1
 72
1
 10
1647.9993235302
 20
96.8958614862
 30
0.0
 11
1.0
 21
0.0
 31
0.0
 73
2
 44
0.9
  1
 Name
 40
7.9375
 41
36.3826672862
  0
LINE
  5
357
100
AcDbEntity
  8
0
100
AcDbLine
 62
2
  6
CONTINUOUS
 10
1647.66345815
 20
80.5921951928
 11
1820.16345815
 21
80.5921951928
  0
LINE
  5
358
100
AcDbEntity
  8
0
100
AcDbLine
 62
2
  6
CONTINUOUS
 10
1647.66345815
 20
80.5921951928
 11
1647.66345815
 21
46.5296951928
  0
LINE
  5
359
100
AcDbEntity
  8
0
100
AcDbLine
 62
2
  6
CONTINUOUS
 10
1647.66345815
 20
46.5296951928
 11
1820.16345815
 21
46.5296951928
  0
LINE
  5
35A
100
AcDbEntity
  8
0
100
AcDbLine
 62
2
  6
CONTINUOUS
 10
1820.16345815
 20
80.5921951928
 11
1820.16345815
 21
46.5296951928
  0
MTEXT
  5
35B
100
AcDbEntity
  8
0
100
AcDbMText
 62
2
  6
CONTINUOUS
  7
STANDARD
 71
1
 72
1
 10
1647.97595815
 20
63.2718826928
 30
0.0
 11
1.0
 21
0.0
 31
0.0
 73
2
 44
0.9
  1
 Name
 40
7.9375
 41
36.3826672862
  0
LINE
  5
35C
100
AcDbEntity
  8
0
100
AcDbLine
 62
2
  6
CONTINUOUS
 10
1820.5515318893
 20
62.258102323
 11
1879.5515318893
 21
62.258102323
  0
LINE
  5
35D
100
AcDbEntity
  8
0
100
AcDbLine
 62
2
  6
CONTINUOUS
 10
1820.5515318893
 20
62.258102323
 11
1820.5515318893
 21
46.750289823
  0
LINE
  5
35E
100
AcDbEntity
  8
0
100
AcDbLine
 62
2
  6
CONTINUOUS
 10
1820.5515318893
 20
46.750289823
 11
1879.5515318893
 21
46.750289823
  0
LINE
  5
35F
100
AcDbEntity
  8
0
100
AcDbLine
 62
2
  6
CONTINUOUS
 10
1879.5515318893
 20
62.258102323
 11
1879.5515318893
 21
46.750289823
  0
MTEXT
  5
360
100
AcDbEntity
  8
0
100
AcDbMText
 62
2
  6
CONTINUOUS
  7
STANDARD
 71
2
 72
1
 10
1864.8015318893
 20
58.949196073
 30
0.0
 11
1.0
 21
0.0
 31
0.0
 73
2
 44
0.9
  1
1:5
 40
8.89
 41
17.1851301115
  0
LINE
  5
361
100
AcDbEntity
  8
0
100
AcDbLine
 62
2
  6
CONTINUOUS
 10
2028.9646585649
 20
62.3755401123
 11
2115.2146585649
 21
62.3755401123
  0
LINE
  5
362
100
AcDbEntity
  8
0
100
AcDbLine
 62
2
  6
CONTINUOUS
 10
2028.9646585649
 20
62.3755401123
 11
2028.9646585649
 21
47.3364776123
  0
LINE
  5
363
100
AcDbEntity
  8
0
100
AcDbLine
 62
2
  6
CONTINUOUS
 10
2028.9646585649
 20
47.3364776123
 11
2115.2146585649
 21
47.3364776123
  0
LINE
  5
364
100
AcDbEntity
  8
0
100
AcDbLine
 62
2
  6
CONTINUOUS
 10
2115.2146585649
 20
62.3755401123
 11
2115.2146585649
 21
47.3364776123
  0
MTEXT
  5
365
100
AcDbEntity
  8
0
100
AcDbMText
 62
2
  6
CONTINUOUS
  7
STANDARD
 71
2
 72
1
 10
2089.3396585649
 20
59.4862163623
 30
0.0
 11
1.0
 21
0.0
 31
0.0
 73
2
 44
0.9
  1
1 OF 1
 40
9.260415
 41
38.9694787361
  0
LINE
  5
366
100
AcDbEntity
  8
0
100
AcDbLine
 62
2
  6
CONTINUOUS
 10
1879.5151149344
 20
62.3408376704
 11
2028.5151149344
 21
62.3408376704
  0
LINE
  5
367
100
AcDbEntity
  8
0
100
AcDbLine
 62
2
  6
CONTINUOUS
 10
1879.5151149344
 20
62.3408376704
 11
1879.5151149344
 21
47.3017751704
  0
LINE
  5
368
100
AcDbEntity
  8
0
100
AcDbLine
 62
2
  6
CONTINUOUS
 10
1879.5151149344
 20
47.3017751704
 11
2028.5151149344
 21
47.3017751704
  0
LINE
  5
369
100
AcDbEntity
  8
0
100
AcDbLine
 62
2
  6
CONTINUOUS
 10
2028.5151149344
 20
62.3408376704
 11
2028.5151149344
 21
47.3017751704
  0
MTEXT
  5
36A
100
AcDbEntity
  8
0
100
AcDbMText
 62
2
  6
CONTINUOUS
  7
STANDARD
 71
2
 72
1
 10
1972.6401149344
 20
57.9963064204
 30
0.0
 11
1.0
 21
0.0
 31
0.0
 73
2
 44
0.9
  1
FG-901316-2D.A.2 
 40
6.35
 41
77.6871747212
  0
LINE
  5
36B
100
AcDbEntity
  8
0
100
AcDbLine
 62
2
  6
CONTINUOUS
 10
1480.2910173494
 20
236.8998434768
 11
1647.1660173494
 21
236.8998434768
  0
LINE
  5
36C
100
AcDbEntity
  8
0
100
AcDbLine
 62
2
  6
CONTINUOUS
 10
1480.2910173494
 20
236.8998434768
 11
1480.2910173494
 21
139.0873434768
  0
LINE
  5
36D
100
AcDbEntity
  8
0
100
AcDbLine
 62
2
  6
CONTINUOUS
 10
1480.2910173494
 20
139.0873434768
 11
1647.1660173494
 21
139.0873434768
  0
LINE
  5
36E
100
AcDbEntity
  8
0
100
AcDbLine
 62
2
  6
CONTINUOUS
 10
1647.1660173494
 20
236.8998434768
 11
1647.1660173494
 21
139.0873434768
  0
MTEXT
  5
36F
100
AcDbEntity
  8
0
100
AcDbMText
 62
2
  6
CONTINUOUS
  7
STANDARD
 71
1
 72
1
 10
1497.2910173494
 20
173.4623434768
 30
0.0
 11
1.0
 21
0.0
 31
0.0
 73
2
 44
0.9
  1
.X \fgdt;{\fgdt;`}\fCentury Gothic;{\ftxt.shx;\W0.166667;\H7.937500; } X [.XX]               \fgdt;{\fgdt;`}\fCentury Gothic;X\fgdt;{\fgdt;~}\P\fCentury Gothic;.XX \fgdt;{\fgdt;`}\fCentury Gothic; XX [.XXX]
 40
7.9375
 41
127.9393200124
  0
LINE
  5
370
100
AcDbEntity
  8
0
100
AcDbLine
 62
2
  6
CONTINUOUS
 10
1405.1576172402
 20
1353.9814678
 11
2114.7326172402
 21
1353.9814678
  0
LINE
  5
371
100
AcDbEntity
  8
0
100
AcDbLine
 62
2
  6
CONTINUOUS
 10
1405.1576172402
 20
1353.9814678
 11
1405.1576172402
 21
1285.4014678
  0
LINE
  5
372
100
AcDbEntity
  8
0
100
AcDbLine
 62
2
  6
CONTINUOUS
 10
1405.1576172402
 20
1331.1214678
 11
2114.7326172402
 21
1331.1214678
  0
LINE
  5
373
100
AcDbEntity
  8
0
100
AcDbLine
 62
2
  6
CONTINUOUS
 10
1405.1576172402
 20
1308.2614678
 11
2114.7326172402
 21
1308.2614678
  0
LINE
  5
374
100
AcDbEntity
  8
0
100
AcDbLine
 62
2
  6
CONTINUOUS
 10
1405.1576172402
 20
1285.4014678
 11
2114.7326172402
 21
1285.4014678
  0
LINE
  5
375
100
AcDbEntity
  8
0
100
AcDbLine
 62
2
  6
CONTINUOUS
 10
1454.5376172402
 20
1331.1214678
 11
1454.5376172402
 21
1285.4014678
  0
LINE
  5
376
100
AcDbEntity
  8
0
100
AcDbLine
 62
2
  6
CONTINUOUS
 10
1972.0876172402
 20
1331.1214678
 11
1972.0876172402
 21
1285.4014678
  0
LINE
  5
377
100
AcDbEntity
  8
0
100
AcDbLine
 62
2
  6
CONTINUOUS
 10
2017.8076172402
 20
1331.1214678
 11
2017.8076172402
 21
1285.4014678
  0
LINE
  5
378
100
AcDbEntity
  8
0
100
AcDbLine
 62
2
  6
CONTINUOUS
 10
2114.7326172402
 20
1353.9814678
 11
2114.7326172402
 21
1285.4014678
  0
MTEXT
  5
379
100
AcDbEntity
  8
0
100
AcDbMText
 62
2
  6
CONTINUOUS
  7
STANDARD
 71
2
 72
1
 10
1759.9451172402
 20
1348.2664678
 30
0.0
 11
1.0
 21
0.0
 31
0.0
 73
2
 44
0.9
  1
REVISION
 40
11.43
 41
70.1946468401
  0
MTEXT
  5
37A
100
AcDbEntity
  8
0
100
AcDbMText
 62
2
  6
CONTINUOUS
  7
STANDARD
 71
2
 72
1
 10
1429.8476172402
 20
1325.4064678
 30
0.0
 11
1.0
 21
0.0
 31
0.0
 73
2
 44
0.9
  1
REV
 40
11.43
 41
29.4035687732
  0
MTEXT
  5
37B
100
AcDbEntity
  8
0
100
AcDbMText
 62
2
  6
CONTINUOUS
  7
STANDARD
 71
1
 72
1
 10
1459.1096172402
 20
1325.4064678
 30
0.0
 11
1.0
 21
0.0
 31
0.0
 73
2
 44
0.9
  1
                                                  DESCRIPTION
 40
11.43
 41
321.0172862454
  0
MTEXT
  5
37C
100
AcDbEntity
  8
0
100
AcDbMText
 62
2
  6
CONTINUOUS
  7
STANDARD
 71
2
 72
1
 10
1994.9476172402
 20
1325.4064678
 30
0.0
 11
1.0
 21
0.0
 31
0.0
 73
2
 44
0.9
  1
BY
 40
11.43
 41
18.5684386617
  0
MTEXT
  5
37D
100
AcDbEntity
  8
0
100
AcDbMText
 62
2
  6
CONTINUOUS
  7
STANDARD
 71
2
 72
1
 10
2066.2701172402
 20
1325.4064678
 30
0.0
 11
1.0
 21
0.0
 31
0.0
 73
2
 44
0.9
  1
DATE
 40
11.43
 41
38.9639776952
  0
MTEXT
  5
37E
100
AcDbEntity
  8
0
100
AcDbMText
 62
2
  6
CONTINUOUS
  7
STANDARD
 71
2
 72
1
 10
1429.8476172402
 20
1302.5464678
 30
0.0
 11
1.0
 21
0.0
 31
0.0
 73
2
 44
0.9
  1
A
 40
11.43
 41
11.7699256506
  0
MTEXT
  5
37F
100
AcDbEntity
  8
0
100
AcDbMText
 62
2
  6
CONTINUOUS
  7
STANDARD
 71
1
 72
1
 10
1459.1096172402
 20
1302.5464678
 30
0.0
 11
1.0
 21
0.0
 31
0.0
 73
2
 44
0.9
  1
RELEASE
 40
11.43
 41
62.3763568773
  0
MTEXT
  5
380
100
AcDbEntity
  8
0
100
AcDbMText
 62
2
  6
CONTINUOUS
  7
STANDARD
 71
2
 72
1
 10
1994.9476172402
 20
1302.5464678
 30
0.0
 11
1.0
 21
0.0
 31
0.0
 73
2
 44
0.9
  1
HH
 40
11.43
 41
21.7552416357
  0
MTEXT
  5
381
100
AcDbEntity
  8
0
100
AcDbMText
 62
2
  6
CONTINUOUS
  7
STANDARD
 71
2
 72
1
 10
2066.2701172402
 20
1302.5464678
 30
0.0
 11
1.0
 21
0.0
 31
0.0
 73
2
 44
0.9
  1
21-NOV-18
 40
11.43
 41
82.7718959108
  0
MTEXT
  5
382
100
AcDbEntity
  8
0
100
AcDbMText
 62
2
  6
CONTINUOUS
  7
STANDARD
 71
2
 72
1
 10
1817.6381727932
 20
707.8921572803
 30
0.0
 11
1.0
 21
0.0
 31
0.0
 73
2
 44
0.9
  1
TOP VIEW\PNORMAL TO TERMINAL CUP
 40
11.43
 41
210.0315613383
  0
MTEXT
  5
383
100
AcDbEntity
  8
0
100
AcDbMText
 62
2
  6
CONTINUOUS
  7
STANDARD
 71
1
 72
1
 10
62.4576873577
 20
209.8505248426
 30
0.0
 11
1.0
 21
0.0
 31
0.0
 73
2
 44
1.2
  3
6. THE TEXTILE OF GRILLE NOT SHOWN FOR CLARITY.\P5. PARTS ARE SYMMETRICAL ABOUT THE CENTER LINES UNLESS NOTED\P4. SYMBOL \fgdt;{\fgdt;j}\fCentury Gothic;INDICATES CENTER OF GRAVITY;\P3. SYMBOL \fgdt;{\fgdt;r}\fCentury Gothic;INDICATES SUSPENSION POIN
  1
T OF M8 THREAD, 2PLACES\P2. TOLERANCE IS MILLIMETER: X.X\fgdt;{\fgdt;`}\fCentury Gothic;0.5, ANGLES \fgdt;{\fgdt;`}\fCentury Gothic;1\fgdt;{\fgdt;~}\P\fCentury Gothic;1. NET WEIGH APPROX 13KG \PNOTE: UNLESS OTHERWISE SPECIFIED
 40
11.43
 41
525.4046654275
  0
LEADER
  5
384
100
AcDbEntity
  8
0
100
AcDbLeader
 62
2
  6
CONTINUOUS
  3
STANDARD
 71
1
 72
0
 73
0
 75
0
 40
11.43
 41
139.1995539033
 76
3
 10
930.0310862371
 20
625.3633478264
 30
0.0
 10
1122.8374691885
 20
819.1240684928
 30
0.0
 10
1154.5874691885
 20
819.1240684928
 30
0.0
340
385
1001
ACAD
1000
DSTYLE
1002
{
1070
77
1070
0
1002
}
  0
MTEXT
  5
385
102
{ACAD_REACTORS
330
384
102
}
100
AcDbEntity
  8
0
100
AcDbMText
 62
2
  6
CONTINUOUS
  7
STANDARD
 71
1
 72
1
 10
1154.5874691885
 20
824.8390684928
 30
0.0
 11
1.0
 21
0.0
 31
0.0
 73
2
 44
0.9
  1
REMOVE BRACKET\PFOR CUSTOM MOUNTING
 40
11.43
 41
193.5876579926
  0
LEADER
  5
386
100
AcDbEntity
  8
0
100
AcDbLeader
 62
2
  6
CONTINUOUS
  3
STANDARD
 71
1
 72
0
 73
0
 75
0
 40
11.43
 41
123.1805576208
 76
3
 10
1302.5844170527
 20
606.564095275
 30
0.0
 10
1397.6118885104
 20
505.0740682279
 30
0.0
 10
1429.3618885104
 20
505.0740682279
 30
0.0
340
387
1001
ACAD
1000
DSTYLE
1002
{
1070
77
1070
0
1002
}
  0
MTEXT
  5
387
102
{ACAD_REACTORS
330
386
102
}
100
AcDbEntity
  8
0
100
AcDbMText
 62
2
  6
CONTINUOUS
  7
STANDARD
 71
1
 72
1
 10
1429.3618885104
 20
510.7890682279
 30
0.0
 11
1.0
 21
0.0
 31
0.0
 73
2
 44
0.9
  1
SIDE MOUNTING\PUSES M8 FASTENER
 40
11.43
 41
140.0068773234
  0
LEADER
  5
388
100
AcDbEntity
  8
0
100
AcDbLeader
 62
2
  6
CONTINUOUS
  3
STANDARD
 71
1
 72
0
 73
0
 75
0
 40
11.43
 41
128.4494052045
 76
3
 10
1820.8331915747
 20
956.0063565124
 30
0.0
 10
1636.315781093
 20
1135.5117312201
 30
0.0
 10
1604.565781093
 20
1135.5117312201
 30
0.0
340
389
1001
ACAD
1000
DSTYLE
1002
{
1070
77
1070
0
1002
}
  0
MTEXT
  5
389
102
{ACAD_REACTORS
330
388
102
}
100
AcDbEntity
  8
0
100
AcDbMText
 62
2
  6
CONTINUOUS
  7
STANDARD
 71
3
 72
1
 10
1604.565781093
 20
1141.2267312201
 30
0.0
 11
1.0
 21
0.0
 31
0.0
 73
2
 44
0.9
  1
INPUT LOCATION
 40
11.43
 41
128.4494052045
  0
LWPOLYLINE
  5
38A
100
AcDbEntity
  8
0
100
AcDbPolyline
 62
7
  6
CONTINUOUS
 90
2
 70
0
 43
1.2499999944
 10
36.9592273622
 20
705.5155695402
 10
36.9592273622
 20
696.3501340167
  0
LWPOLYLINE
  5
38B
100
AcDbEntity
  8
0
100
AcDbPolyline
 62
7
  6
CONTINUOUS
 90
2
 70
0
 43
1.2499999944
 10
44.8967273622
 20
1354.9828517787
 10
44.8967273622
 20
46.8828517787
  0
LWPOLYLINE
  5
38C
100
AcDbEntity
  8
0
100
AcDbPolyline
 62
7
  6
CONTINUOUS
 90
2
 70
0
 43
1.2499999944
 10
303.6592273622
 20
46.8828517787
 10
303.6592273622
 20
31.0078517787
  0
LWPOLYLINE
  5
38D
100
AcDbEntity
  8
0
100
AcDbPolyline
 62
7
  6
CONTINUOUS
 90
2
 70
0
 43
1.2499999944
 10
303.6592273622
 20
1354.9828517787
 10
303.6592273622
 20
1370.8578517787
  0
LINE
  5
38E
100
AcDbEntity
  8
DEFAULT_1
100
AcDbLine
 62
2
  6
CENTER
 10
370.351951905
 20
730.5438538826
 11
370.351951905
 21
553.904167352
  0
LWPOLYLINE
  5
38F
100
AcDbEntity
  8
0
100
AcDbPolyline
 62
7
  6
CONTINUOUS
 90
2
 70
0
 43
1.2499999944
 10
375.0967273622
 20
1354.9828517787
 10
375.0967273622
 20
1320.0578517787
  0
LWPOLYLINE
  5
390
100
AcDbEntity
  8
0
100
AcDbPolyline
 62
7
  6
CONTINUOUS
 90
2
 70
0
 43
1.2499999944
 10
1622.7790981857
 20
61.9196566652
 10
1641.8290981862
 20
65.0946566652
  0
LWPOLYLINE
  5
391
100
AcDbEntity
  8
0
100
AcDbPolyline
 62
7
  6
CONTINUOUS
 90
2
 70
0
 43
1.2499999944
 10
1084.5294451237
 20
38.9453517787
 10
1075.3640096007
 20
38.9453517787
  0
LWPOLYLINE
  5
392
100
AcDbEntity
  8
0
100
AcDbPolyline
 62
7
  6
CONTINUOUS
 90
2
 70
0
 43
1.2499999944
 10
2114.9967273622
 20
46.8828517787
 10
44.8967273622
 20
46.8828517787
  0
LWPOLYLINE
  5
393
100
AcDbEntity
  8
0
100
AcDbPolyline
 62
7
  6
CONTINUOUS
 90
2
 70
0
 43
0.4999999849
 10
1601.8494981857
 20
58.7446566652
 10
1618.3086981862
 20
58.7446566652
  0
LWPOLYLINE
  5
394
100
AcDbEntity
  8
0
100
AcDbPolyline
 62
7
  6
CONTINUOUS
 90
2
 70
0
 43
0.4999999849
 10
1620.4146657267
 20
58.7446566652
 10
1643.7722407237
 20
58.7446566652
  0
LWPOLYLINE
  5
395
100
AcDbEntity
  8
0
100
AcDbPolyline
 62
7
  6
CONTINUOUS
 90
2
 70
0
 43
1.2499999944
 10
1820.5661501862
 20
62.7578517787
 10
2114.9967273622
 20
62.7578517787
  0
LWPOLYLINE
  5
396
100
AcDbEntity
  8
0
100
AcDbPolyline
 62
7
  6
CONTINUOUS
 90
2
 70
0
 43
1.2499999944
 10
1479.9967273622
 20
69.7428517787
 10
1647.2542882717
 20
69.7428517787
  0
LWPOLYLINE
  5
397
100
AcDbEntity
  8
0
100
AcDbPolyline
 62
7
  6
CONTINUOUS
 90
2
 70
0
 43
1.2499999944
 10
1647.0736371222
 20
80.6328517787
 10
1820.3854990367
 20
80.6328517787
  0
LWPOLYLINE
  5
398
100
AcDbEntity
  8
0
100
AcDbPolyline
 62
7
  6
CONTINUOUS
 90
2
 70
0
 43
1.2499999944
 10
1479.9967273622
 20
92.6028517787
 10
1647.2542882717
 20
92.6028517787
  0
LWPOLYLINE
  5
399
100
AcDbEntity
  8
0
100
AcDbPolyline
 62
7
  6
CONTINUOUS
 90
2
 70
0
 43
1.2499999944
 10
1820.5661501862
 20
95.0078517787
 10
2114.9967273622
 20
95.0078517787
  0
LWPOLYLINE
  5
39A
100
AcDbEntity
  8
0
100
AcDbPolyline
 62
7
  6
CONTINUOUS
 90
2
 70
0
 43
1.2499999944
 10
36.9592273622
 20
696.3501340167
 10
44.8967273622
 20
700.9328517787
  0
LWPOLYLINE
  5
39B
100
AcDbEntity
  8
0
100
AcDbPolyline
 62
7
  6
CONTINUOUS
 90
2
 70
0
 43
1.2499999944
 10
1647.2542882717
 20
114.3828517787
 10
1820.5661501862
 20
114.3828517787
  0
LWPOLYLINE
  5
39C
100
AcDbEntity
  8
0
100
AcDbPolyline
 62
7
  6
CONTINUOUS
 90
2
 70
0
 43
1.2499999944
 10
1479.9967273622
 20
115.4628517787
 10
1647.2542882717
 20
115.4628517787
  0
LWPOLYLINE
  5
39D
100
AcDbEntity
  8
0
100
AcDbPolyline
 62
7
  6
CONTINUOUS
 90
2
 70
0
 43
1.2499999944
 10
1647.2542882717
 20
138.6584380147
 10
1479.9967273622
 20
138.6584380147
  0
LWPOLYLINE
  5
39E
100
AcDbEntity
  8
0
100
AcDbPolyline
 62
7
  6
CONTINUOUS
 90
2
 70
0
 43
1.2499999944
 10
1647.2542882717
 20
148.1328517787
 10
1820.5661501862
 20
148.1328517787
  0
LWPOLYLINE
  5
39F
100
AcDbEntity
  8
0
100
AcDbPolyline
 62
7
  6
CONTINUOUS
 90
2
 70
0
 43
1.2499999944
 10
1647.2542882717
 20
180.5068377822
 10
1820.5661501862
 20
180.5068377822
  0
LWPOLYLINE
  5
3A0
100
AcDbEntity
  8
0
100
AcDbPolyline
 62
7
  6
CONTINUOUS
 90
2
 70
0
 43
1.2499999944
 10
1622.7790981857
 20
55.5696566652
 10
1641.8290981862
 20
52.3946566652
  0
LWPOLYLINE
  5
3A1
100
AcDbEntity
  8
0
100
AcDbPolyline
 62
7
  6
CONTINUOUS
 90
2
 70
0
 43
1.2499999944
 10
562.4217273622
 20
46.8828517787
 10
562.4217273622
 20
31.0078517787
  0
LWPOLYLINE
  5
3A2
100
AcDbEntity
  8
0
100
AcDbPolyline
 62
7
  6
CONTINUOUS
 90
2
 70
0
 43
1.2499999944
 10
562.4217273622
 20
1354.9828517787
 10
562.4217273622
 20
1370.8578517787
  0
LWPOLYLINE
  5
3A3
100
AcDbEntity
  8
0
100
AcDbPolyline
 62
7
  6
CONTINUOUS
 90
2
 70
0
 43
1.2499999944
 10
1820.5661501862
 20
189.7578517787
 10
2114.9967273622
 20
189.7578517787
  0
LWPOLYLINE
  5
3A4
100
AcDbEntity
  8
0
100
AcDbPolyline
 62
7
  6
CONTINUOUS
 90
2
 70
0
 43
1.2499999944
 10
1647.2542882717
 20
193.8418377822
 10
1820.5661501862
 20
193.8418377822
  0
LINE
  5
3A5
100
AcDbEntity
  8
0
100
AcDbLine
 62
7
  6
CONTINUOUS
 10
1851.463578277
 20
199.9656581034
 11
1858.2384749534
 21
199.9656581034
  0
LINE
  5
3A6
100
AcDbEntity
  8
0
100
AcDbLine
 62
7
  6
CONTINUOUS
 10
1833.4511993586
 20
202.5868317802
 11
1851.028481675
 21
202.5868317802
  0
LINE
  5
3A7
100
AcDbEntity
  8
0
100
AcDbLine
 62
7
  6
CONTINUOUS
 10
1858.6735715554
 20
202.5868317802
 11
1862.1299231246
 21
202.5868317802
  0
LINE
  5
3A8
100
AcDbEntity
  8
0
100
AcDbLine
 62
7
  6
CONTINUOUS
 10
1871.6498589978
 20
202.586831771
 11
1903.0921172002
 21
202.586831771
  0
LINE
  5
3A9
100
AcDbEntity
  8
0
100
AcDbLine
 62
7
  6
CONTINUOUS
 10
1896.9769229902
 20
206.992644399
 11
1871.6498589978
 21
206.992644399
  0
LINE
  5
3AA
100
AcDbEntity
  8
0
100
AcDbLine
 62
7
  6
CONTINUOUS
 10
1947.7979309306
 20
207.090643035
 11
1921.7304038042
 21
207.090643035
  0
LINE
  5
3AB
100
AcDbEntity
  8
0
100
AcDbLine
 62
7
  6
CONTINUOUS
 10
1837.9363687486
 20
207.2479652974
 11
1850.9295257734
 21
207.2479652974
  0
LINE
  5
3AC
100
AcDbEntity
  8
0
100
AcDbLine
 62
7
  6
CONTINUOUS
 10
1858.540089231
 20
207.2479653202
 11
1860.538363807
 21
207.2479653202
  0
LINE
  5
3AD
100
AcDbEntity
  8
0
100
AcDbLine
 62
7
  6
CONTINUOUS
 10
1851.3646223802
 20
209.8623655514
 11
1858.1049926474
 21
209.8623655514
  0
LINE
  5
3AE
100
AcDbEntity
  8
0
100
AcDbLine
 62
7
  6
CONTINUOUS
 10
1875.2496877222
 20
211.5650447918
 11
1896.9769229946
 21
211.5650447918
  0
LINE
  5
3AF
100
AcDbEntity
  8
0
100
AcDbLine
 62
7
  6
CONTINUOUS
 10
1903.0921172002
 20
216.1377983718
 11
1881.654491601
 21
216.1377983718
  0
LINE
  5
3B0
100
AcDbEntity
  8
0
100
AcDbLine
 62
7
  6
CONTINUOUS
 10
1881.6544915966
 20
220.540741425
 11
1907.0159333622
 21
220.540741425
  0
LINE
  5
3B1
100
AcDbEntity
  8
0
100
AcDbLine
 62
7
  6
CONTINUOUS
 10
1921.730403809
 20
220.5858759362
 11
1947.7979309258
 21
220.5858759362
  0
LINE
  5
3B2
100
AcDbEntity
  8
0
100
AcDbLine
 62
7
  6
CONTINUOUS
 10
1837.936368753
 20
220.790780219
 11
1860.5383637978
 21
220.790780219
  0
LINE
  5
3B3
100
AcDbEntity
  8
0
100
AcDbLine
 62
7
  6
CONTINUOUS
 10
1862.1299231246
 20
225.0852391762
 11
1833.4511993586
 21
225.0852391762
  0
LINE
  5
3B4
100
AcDbEntity
  8
0
100
AcDbLine
 62
7
  6
CONTINUOUS
 10
1947.7979309318
 20
225.1116581034
 11
1917.3855966354
 21
225.1116581034
  0
LINE
  5
3B5
100
AcDbEntity
  8
0
100
AcDbLine
 62
7
  6
CONTINUOUS
 10
1907.0159333622
 20
225.111658099
 11
1875.2496877222
 21
225.111658099
  0
LWPOLYLINE
  5
3B6
100
AcDbEntity
  8
0
100
AcDbPolyline
 62
7
  6
CONTINUOUS
 90
2
 70
0
 43
1.2499999944
 10
1479.9967273622
 20
237.3828517787
 10
2114.9967273622
 20
237.3828517787
  0
LINE
  5
3B7
100
AcDbEntity
  8
0
100
AcDbLine
 62
7
  6
CONTINUOUS
 10
1917.3855966354
 20
202.5868431918
 11
1947.800399995
 21
202.5490879238
  0
LWPOLYLINE
  5
3B8
100
AcDbEntity
  8
0
100
AcDbPolyline
 62
7
  6
CONTINUOUS
 90
2
 70
0
 43
1.2499999944
 10
44.8967273622
 20
700.9328517787
 10
36.9592273622
 20
705.5155695402
  0
LWPOLYLINE
  5
3B9
100
AcDbEntity
  8
0
100
AcDbPolyline
 62
7
  6
CONTINUOUS
 90
2
 70
0
 43
1.2499999944
 10
1079.9467273622
 20
1354.9828517787
 10
1084.5294451237
 20
1362.9203517787
  0
LWPOLYLINE
  5
3BA
100
AcDbEntity
  8
0
100
AcDbPolyline
 62
7
  6
CONTINUOUS
 90
2
 70
0
 43
1.2499999944
 10
44.8967273622
 20
373.9078517787
 10
29.0217273622
 20
373.9078517787
  0
LWPOLYLINE
  5
3BB
100
AcDbEntity
  8
0
100
AcDbPolyline
 62
7
  6
CONTINUOUS
 90
2
 70
0
 43
1.2499999944
 10
2114.9967273622
 20
373.9078517787
 10
2130.8717273622
 20
373.9078517787
  0
LWPOLYLINE
  5
3BC
100
AcDbEntity
  8
0
100
AcDbPolyline
 62
7
  6
CONTINUOUS
 90
2
 70
0
 43
1.2499999944
 10
1079.9467273622
 20
46.8828517787
 10
1084.5294451237
 20
38.9453517787
  0
LWPOLYLINE
  5
3BD
100
AcDbEntity
  8
0
100
AcDbPolyline
 62
7
  6
CONTINUOUS
 90
2
 70
0
 43
1.2499999944
 10
821.1842273622
 20
46.8828517787
 10
821.1842273622
 20
31.0078517787
  0
LWPOLYLINE
  5
3BE
100
AcDbEntity
  8
0
100
AcDbPolyline
 62
7
  6
CONTINUOUS
 90
2
 70
0
 43
1.2499999944
 10
821.1842273622
 20
1354.9828517787
 10
821.1842273622
 20
1370.8578517787
  0
LINE
  5
3BF
100
AcDbEntity
  8
0
100
AcDbLine
 62
7
  6
CONTINUOUS
 10
1483.1799547387
 20
234.3211694271
 11
1643.5265543118
 21
96.4696792068
  0
LWPOLYLINE
  5
3C0
100
AcDbEntity
  8
0
100
AcDbPolyline
 62
7
  6
CONTINUOUS
 90
2
 70
0
 43
1.2499999944
 10
1079.9467273622
 20
46.8828517787
 10
1079.9467273622
 20
31.0078517787
  0
LWPOLYLINE
  5
3C1
100
AcDbEntity
  8
0
100
AcDbPolyline
 62
7
  6
CONTINUOUS
 90
2
 70
0
 43
1.2499999944
 10
1079.9467273622
 20
1354.9828517787
 10
1079.9467273622
 20
1370.8578517787
  0
LWPOLYLINE
  5
3C2
100
AcDbEntity
  8
0
100
AcDbPolyline
 62
7
  6
CONTINUOUS
 90
2
 70
0
 43
1.2499999944
 10
44.8967273622
 20
700.9328517787
 10
29.0217273622
 20
700.9328517787
  0
LWPOLYLINE
  5
3C3
100
AcDbEntity
  8
0
100
AcDbPolyline
 62
7
  6
CONTINUOUS
 90
2
 70
0
 43
1.2499999944
 10
2114.9967273622
 20
700.9328517787
 10
2130.8717273622
 20
700.9328517787
  0
LWPOLYLINE
  5
3C4
100
AcDbEntity
  8
0
100
AcDbPolyline
 62
7
  6
CONTINUOUS
 90
2
 70
0
 43
1.2499999944
 10
1338.7092273622
 20
46.8828517787
 10
1338.7092273622
 20
31.0078517787
  0
LWPOLYLINE
  5
3C5
100
AcDbEntity
  8
0
100
AcDbPolyline
 62
7
  6
CONTINUOUS
 90
2
 70
0
 43
1.2499999944
 10
1338.7092273622
 20
1354.9828517787
 10
1338.7092273622
 20
1370.8578517787
  0
LWPOLYLINE
  5
3C6
100
AcDbEntity
  8
0
100
AcDbPolyline
 62
7
  6
CONTINUOUS
 90
2
 70
0
 43
1.2499999944
 10
1079.9467273622
 20
46.8828517787
 10
1075.3640096007
 20
38.9453517787
  0
LWPOLYLINE
  5
3C7
100
AcDbEntity
  8
0
100
AcDbPolyline
 62
7
  6
CONTINUOUS
 90
2
 70
0
 43
1.2499999944
 10
44.8967273622
 20
1027.9578517787
 10
29.0217273622
 20
1027.9578517787
  0
LWPOLYLINE
  5
3C8
100
AcDbEntity
  8
0
100
AcDbPolyline
 62
7
  6
CONTINUOUS
 90
2
 70
0
 43
1.2499999944
 10
2114.9967273622
 20
1027.9578517787
 10
2130.8717273622
 20
1027.9578517787
  0
LWPOLYLINE
  5
3C9
100
AcDbEntity
  8
0
100
AcDbPolyline
 62
7
  6
CONTINUOUS
 90
2
 70
0
 43
1.2499999944
 10
1079.9467273622
 20
1354.9828517787
 10
1075.3640096007
 20
1362.9203517787
  0
LWPOLYLINE
  5
3CA
100
AcDbEntity
  8
0
100
AcDbPolyline
 62
7
  6
CONTINUOUS
 90
2
 70
0
 43
1.2499999944
 10
1479.9967273622
 20
46.8828517787
 10
1479.9967273622
 20
237.3828517787
  0
LWPOLYLINE
  5
3CB
100
AcDbEntity
  8
0
100
AcDbPolyline
 62
7
  6
CONTINUOUS
 90
2
 70
0
 43
1.2499999944
 10
1597.4717273622
 20
31.0078517787
 10
1597.4717273622
 20
69.7428517787
  0
LWPOLYLINE
  5
3CC
100
AcDbEntity
  8
0
100
AcDbPolyline
 62
7
  6
CONTINUOUS
 90
2
 70
0
 43
1.2499999944
 10
1597.4717273622
 20
1354.9828517787
 10
1597.4717273622
 20
1370.8578517787
  0
LWPOLYLINE
  5
3CD
100
AcDbEntity
  8
0
100
AcDbPolyline
 62
7
  6
CONTINUOUS
 90
2
 70
0
 43
0.4999999849
 10
1610.0790981857
 20
50.5150566652
 10
1610.0790981857
 20
66.9742566652
  0
LWPOLYLINE
  5
3CE
100
AcDbEntity
  8
0
100
AcDbPolyline
 62
7
  6
CONTINUOUS
 90
2
 70
0
 43
1.2499999944
 10
2114.9967273622
 20
700.9328517787
 10
2122.9342273622
 20
705.5155695402
  0
LWPOLYLINE
  5
3CF
100
AcDbEntity
  8
0
100
AcDbPolyline
 62
7
  6
CONTINUOUS
 90
2
 70
0
 43
1.2499999944
 10
2122.9342273622
 20
696.3501340167
 10
2114.9967273622
 20
700.9328517787
  0
LWPOLYLINE
  5
3D0
100
AcDbEntity
  8
0
100
AcDbPolyline
 62
7
  6
CONTINUOUS
 90
2
 70
0
 43
1.2499999944
 10
1622.7790981857
 20
61.9196566652
 10
1622.7790981857
 20
55.5696566652
  0
LWPOLYLINE
  5
3D1
100
AcDbEntity
  8
0
100
AcDbPolyline
 62
7
  6
CONTINUOUS
 90
2
 70
0
 43
1.2499999944
 10
1641.8290981862
 20
65.0946566652
 10
1641.8290981862
 20
52.3946566652
  0
LWPOLYLINE
  5
3D2
100
AcDbEntity
  8
0
100
AcDbPolyline
 62
7
  6
CONTINUOUS
 90
2
 70
0
 43
1.2499999944
 10
1647.2542882717
 20
237.3828517787
 10
1647.2542882717
 20
46.8828517787
  0
LWPOLYLINE
  5
3D3
100
AcDbEntity
  8
0
100
AcDbPolyline
 62
7
  6
CONTINUOUS
 90
2
 70
0
 43
1.2499999944
 10
44.8967273622
 20
1319.5578517787
 10
375.0967273622
 20
1319.5578517787
  0
LWPOLYLINE
  5
3D4
100
AcDbEntity
  8
0
100
AcDbPolyline
 62
7
  6
CONTINUOUS
 90
2
 70
0
 43
1.2499999944
 10
44.8967273622
 20
1354.4828517787
 10
2114.9967273622
 20
1354.4828517787
  0
LWPOLYLINE
  5
3D5
100
AcDbEntity
  8
0
100
AcDbPolyline
 62
7
  6
CONTINUOUS
 90
2
 70
0
 43
1.2499999944
 10
1084.5294451237
 20
1362.9203517787
 10
1075.3640096007
 20
1362.9203517787
  0
LWPOLYLINE
  5
3D6
100
AcDbEntity
  8
0
100
AcDbPolyline
 62
7
  6
CONTINUOUS
 90
2
 70
0
 43
1.2499999944
 10
1820.5661501862
 20
237.3828517787
 10
1820.5661501862
 20
46.8828517787
  0
LINE
  5
3D7
100
AcDbEntity
  8
0
100
AcDbLine
 62
7
  6
CONTINUOUS
 10
1836.8051175722
 20
208.3792164738
 11
1836.8051175722
 21
219.6595290382
  0
LINE
  5
3D8
100
AcDbEntity
  8
0
100
AcDbLine
 62
7
  6
CONTINUOUS
 10
1481.0857281612
 20
95.129961053
 11
1642.5198346182
 21
233.3232161085
  0
LINE
  5
3D9
100
AcDbEntity
  8
0
100
AcDbLine
 62
7
  6
CONTINUOUS
 10
1910.9958871738
 20
213.8885203282
 11
1910.9978726378
 21
213.7163910298
  0
LWPOLYLINE
  5
3DA
100
AcDbEntity
  8
0
100
AcDbPolyline
 62
7
  6
CONTINUOUS
 90
2
 70
0
 43
1.2499999944
 10
1843.5161781097
 20
94.5078517787
 10
1843.5161781097
 20
62.7578517787
  0
LINE
  5
3DB
100
AcDbEntity
  8
0
100
AcDbLine
 62
7
  6
CONTINUOUS
 10
1850.9295257734
 20
207.2479652974
 11
1850.9295257734
 21
209.427268945
  0
LINE
  5
3DC
100
AcDbEntity
  8
0
100
AcDbLine
 62
7
  6
CONTINUOUS
 10
1851.028481675
 20
202.5868317802
 11
1851.028481675
 21
200.4007547054
  0
LWPOLYLINE
  5
3DD
100
AcDbEntity
  8
0
100
AcDbPolyline
 62
7
  6
CONTINUOUS
 90
2
 70
0
 43
1.2499999944
 10
1856.2342273622
 20
46.8828517787
 10
1856.2342273622
 20
31.0078517787
  0
LWPOLYLINE
  5
3DE
100
AcDbEntity
  8
0
100
AcDbPolyline
 62
7
  6
CONTINUOUS
 90
2
 70
0
 43
1.2499999944
 10
1856.2342273622
 20
1354.9828517787
 10
1856.2342273622
 20
1370.8578517787
  0
LINE
  5
3DF
100
AcDbEntity
  8
0
100
AcDbLine
 62
7
  6
CONTINUOUS
 10
1858.540089231
 20
207.2479653202
 11
1858.540089231
 21
209.4272689586
  0
LINE
  5
3E0
100
AcDbEntity
  8
0
100
AcDbLine
 62
7
  6
CONTINUOUS
 10
1858.6735715554
 20
200.4007547054
 11
1858.6735715554
 21
202.5868317802
  0
LINE
  5
3E1
100
AcDbEntity
  8
0
100
AcDbLine
 62
7
  6
CONTINUOUS
 10
1861.6696149786
 20
208.3792164918
 11
1861.6696149786
 21
219.6595290566
  0
LINE
  5
3E2
100
AcDbEntity
  8
0
100
AcDbLine
 62
7
  6
CONTINUOUS
 10
1867.462700569
 20
206.7966463798
 11
1867.462700569
 21
220.8754245674
  0
LINE
  5
3E3
100
AcDbEntity
  8
0
100
AcDbLine
 62
7
  6
CONTINUOUS
 10
1870.5186078218
 20
205.8613932226
 11
1870.5186078218
 21
203.718082947
  0
LWPOLYLINE
  5
3E4
100
AcDbEntity
  8
0
100
AcDbPolyline
 62
7
  6
CONTINUOUS
 90
2
 70
0
 43
1.2499999944
 10
1879.7846250177
 20
62.7578517787
 10
1879.7846250177
 20
46.8828517787
  0
LINE
  5
3E5
100
AcDbEntity
  8
0
100
AcDbLine
 62
7
  6
CONTINUOUS
 10
1880.523240425
 20
217.2690495478
 11
1880.523240425
 21
219.4094902534
  0
LINE
  5
3E6
100
AcDbEntity
  8
0
100
AcDbLine
 62
7
  6
CONTINUOUS
 10
1898.1081741618
 20
210.4337936158
 11
1898.1081741618
 21
208.1238955706
  0
LWPOLYLINE
  5
3E7
100
AcDbEntity
  8
0
100
AcDbPolyline
 62
7
  6
CONTINUOUS
 90
2
 70
0
 43
1.2499999944
 10
1903.8411781097
 20
94.5078517787
 10
1903.8411781097
 20
62.7578517787
  0
LINE
  5
3E8
100
AcDbEntity
  8
0
100
AcDbLine
 62
7
  6
CONTINUOUS
 10
1908.1471845382
 20
221.6719926014
 11
1908.1471845382
 21
223.9804069134
  0
LINE
  5
3E9
100
AcDbEntity
  8
0
100
AcDbLine
 62
7
  6
CONTINUOUS
 10
1920.5991526282
 20
208.221894211
 11
1920.5991526282
 21
219.4546247554
  0
LINE
  5
3EA
100
AcDbEntity
  8
0
100
AcDbLine
 62
7
  6
CONTINUOUS
 10
1948.9291821022
 20
203.6803363994
 11
1948.9291821022
 21
205.9593918634
  0
LINE
  5
3EB
100
AcDbEntity
  8
0
100
AcDbLine
 62
7
  6
CONTINUOUS
 10
1948.9291821022
 20
221.7171271126
 11
1948.9291821022
 21
223.9804069426
  0
LWPOLYLINE
  5
3EC
100
AcDbEntity
  8
0
100
AcDbPolyline
 62
7
  6
CONTINUOUS
 90
2
 70
0
 43
1.2499999944
 10
2028.4651256752
 20
62.7578517787
 10
2028.4651256752
 20
46.8828517787
  0
LWPOLYLINE
  5
3ED
100
AcDbEntity
  8
0
100
AcDbPolyline
 62
7
  6
CONTINUOUS
 90
2
 70
0
 43
1.2499999944
 10
2062.2580131807
 20
94.5078517787
 10
2062.2580131807
 20
62.7578517787
  0
LWPOLYLINE
  5
3EE
100
AcDbEntity
  8
0
100
AcDbPolyline
 62
7
  6
CONTINUOUS
 90
2
 70
0
 43
1.2499999944
 10
2114.9967273622
 20
46.8828517787
 10
2114.9967273622
 20
1354.9828517787
  0
LWPOLYLINE
  5
3EF
100
AcDbEntity
  8
0
100
AcDbPolyline
 62
7
  6
CONTINUOUS
 90
2
 70
0
 43
1.2499999944
 10
2122.9342273622
 20
705.5155695402
 10
2122.9342273622
 20
696.3501340167
  0
LINE
  5
3F0
100
AcDbEntity
  8
0
100
AcDbLine
 62
7
  6
CONTINUOUS
 10
716.1414235606
 20
377.186555692
 11
1014.1414235606
 21
377.186555692
  0
LINE
  5
3F1
100
AcDbEntity
  8
0
100
AcDbLine
 62
7
  6
CONTINUOUS
 10
700.9614235606
 20
605.8868074404
 11
700.9614235606
 21
612.4863039435
  0
LINE
  5
3F2
100
AcDbEntity
  8
0
100
AcDbLine
 62
7
  6
CONTINUOUS
 10
703.4614235606
 20
601.686555692
 11
703.4614235606
 21
616.686555692
  0
LINE
  5
3F3
100
AcDbEntity
  8
0
100
AcDbLine
 62
7
  6
CONTINUOUS
 10
705.1614235606
 20
616.6855082952
 11
705.1614235606
 21
601.6876030888
  0
LINE
  5
3F4
100
AcDbEntity
  8
0
100
AcDbLine
 62
7
  6
CONTINUOUS
 10
716.1414235606
 20
377.186555692
 11
716.1414235606
 21
742.186555692
  0
LINE
  5
3F5
100
AcDbEntity
  8
0
100
AcDbLine
 62
7
  6
CONTINUOUS
 10
850.4452711379
 20
709.4467793474
 11
853.0433473492
 21
710.2281961469
  0
LINE
  5
3F6
100
AcDbEntity
  8
0
100
AcDbLine
 62
7
  6
CONTINUOUS
 10
860.8375759833
 20
709.4467793474
 11
858.239499772
 21
708.6653625479
  0
LINE
  5
3F7
100
AcDbEntity
  8
0
100
AcDbLine
 62
7
  6
CONTINUOUS
 10
869.4452711379
 20
709.4467793474
 11
872.0433473492
 21
710.2281961469
  0
LINE
  5
3F8
100
AcDbEntity
  8
0
100
AcDbLine
 62
7
  6
CONTINUOUS
 10
879.8375759833
 20
709.4467793474
 11
877.239499772
 21
708.6653625479
  0
LINE
  5
3F9
100
AcDbEntity
  8
0
100
AcDbLine
 62
7
  6
CONTINUOUS
 10
860.8375759833
 20
691.7202397932
 11
858.239499772
 21
690.9388229937
  0
LINE
  5
3FA
100
AcDbEntity
  8
0
100
AcDbLine
 62
7
  6
CONTINUOUS
 10
879.8375759833
 20
691.7202397932
 11
877.239499772
 21
690.9388229937
  0
LINE
  5
3FB
100
AcDbEntity
  8
0
100
AcDbLine
 62
7
  6
CONTINUOUS
 10
776.6744858119
 20
501.4314620195
 11
800.3707033302
 21
659.986555692
  0
LINE
  5
3FC
100
AcDbEntity
  8
0
100
AcDbLine
 62
7
  6
CONTINUOUS
 10
781.6195651287
 20
500.6924149638
 11
805.4262339696
 21
659.986555692
  0
LINE
  5
3FD
100
AcDbEntity
  8
0
100
AcDbLine
 62
7
  6
CONTINUOUS
 10
953.6083613093
 20
501.4314620195
 11
948.6632819925
 21
500.6924149638
  0
LINE
  5
3FE
100
AcDbEntity
  8
0
100
AcDbLine
 62
7
  6
CONTINUOUS
 10
781.6195651287
 20
500.6924149638
 11
776.6744858119
 21
501.4314620195
  0
LINE
  5
3FF
100
AcDbEntity
  8
0
100
AcDbLine
 62
7
  6
CONTINUOUS
 10
781.6195651287
 20
500.986555692
 11
948.6632819925
 21
500.986555692
  0
LINE
  5
400
100
AcDbEntity
  8
0
100
AcDbLine
 62
7
  6
CONTINUOUS
 10
818.3914235606
 20
659.986555692
 11
818.3914235606
 21
500.986555692
  0
LINE
  5
401
100
AcDbEntity
  8
0
100
AcDbLine
 62
7
  6
CONTINUOUS
 10
818.8914235606
 20
678.7610416551
 11
818.8914235606
 21
730.9455221067
  0
LINE
  5
402
100
AcDbEntity
  8
0
100
AcDbLine
 62
7
  6
CONTINUOUS
 10
819.5914235606
 20
659.986555692
 11
819.5914235606
 21
665.186555692
  0
LINE
  5
403
100
AcDbEntity
  8
0
100
AcDbLine
 62
7
  6
CONTINUOUS
 10
822.8914235606
 20
675.9326145304
 11
822.8914235606
 21
678.2660669083
  0
LINE
  5
404
100
AcDbEntity
  8
0
100
AcDbLine
 62
7
  6
CONTINUOUS
 10
824.5914235606
 20
663.686555692
 11
824.5914235606
 21
665.186555692
  0
LINE
  5
405
100
AcDbEntity
  8
0
100
AcDbLine
 62
7
  6
CONTINUOUS
 10
830.7914235606
 20
691.5950297337
 11
830.7914235606
 21
720.4449864061
  0
LINE
  5
406
100
AcDbEntity
  8
0
100
AcDbLine
 62
7
  6
CONTINUOUS
 10
834.7914235606
 20
708.5655924821
 11
834.7914235606
 21
723.2734135308
  0
LINE
  5
407
100
AcDbEntity
  8
0
100
AcDbLine
 62
7
  6
CONTINUOUS
 10
850.4452711379
 20
709.4467793474
 11
850.4452711379
 21
691.7202397932
  0
LINE
  5
408
100
AcDbEntity
  8
0
100
AcDbLine
 62
7
  6
CONTINUOUS
 10
853.0433473492
 20
690.9388229937
 11
853.0433473492
 21
708.6653625479
  0
LINE
  5
409
100
AcDbEntity
  8
0
100
AcDbLine
 62
7
  6
CONTINUOUS
 10
858.239499772
 20
708.6653625479
 11
858.239499772
 21
690.9388229937
  0
LINE
  5
40A
100
AcDbEntity
  8
0
100
AcDbLine
 62
7
  6
CONTINUOUS
 10
860.8375759833
 20
709.4467793474
 11
860.8375759833
 21
691.7202397932
  0
LINE
  5
40B
100
AcDbEntity
  8
CG_SYMBOLS
100
AcDbLine
 62
4
  6
CONTINUOUS
 10
865.1414235606
 20
600.186555692
 11
865.1414235606
 21
578.186555692
  0
LINE
  5
40C
100
AcDbEntity
  8
0
100
AcDbLine
 62
7
  6
CONTINUOUS
 10
869.4452711379
 20
709.4467793474
 11
869.4452711379
 21
691.7202397932
  0
LINE
  5
40D
100
AcDbEntity
  8
0
100
AcDbLine
 62
7
  6
CONTINUOUS
 10
872.0433473492
 20
690.9388229937
 11
872.0433473492
 21
708.6653625479
  0
LINE
  5
40E
100
AcDbEntity
  8
0
100
AcDbLine
 62
7
  6
CONTINUOUS
 10
877.239499772
 20
708.6653625479
 11
877.239499772
 21
690.9388229937
  0
LINE
  5
40F
100
AcDbEntity
  8
0
100
AcDbLine
 62
7
  6
CONTINUOUS
 10
879.8375759833
 20
709.4467793474
 11
879.8375759833
 21
691.7202397932
  0
LINE
  5
410
100
AcDbEntity
  8
0
100
AcDbLine
 62
7
  6
CONTINUOUS
 10
895.4914235606
 20
723.2734135308
 11
895.4914235606
 21
708.5655924821
  0
LINE
  5
411
100
AcDbEntity
  8
0
100
AcDbLine
 62
7
  6
CONTINUOUS
 10
899.4914235606
 20
720.4449864061
 11
899.4914235606
 21
691.5950297337
  0
LINE
  5
412
100
AcDbEntity
  8
CG_SYMBOLS
100
AcDbLine
 62
4
  6
CONTINUOUS
 10
854.1414235606
 20
589.186555692
 11
876.1414235606
 21
589.186555692
  0
LINE
  5
413
100
AcDbEntity
  8
0
100
AcDbLine
 62
7
  6
CONTINUOUS
 10
905.6914235606
 20
665.186555692
 11
905.6914235606
 21
663.686555692
  0
LINE
  5
414
100
AcDbEntity
  8
0
100
AcDbLine
 62
7
  6
CONTINUOUS
 10
907.3914235606
 20
678.2660669083
 11
907.3914235606
 21
675.9326145304
  0
LINE
  5
415
100
AcDbEntity
  8
0
100
AcDbLine
 62
7
  6
CONTINUOUS
 10
910.6914235606
 20
659.986555692
 11
910.6914235606
 21
665.186555692
  0
LINE
  5
416
100
AcDbEntity
  8
0
100
AcDbLine
 62
7
  6
CONTINUOUS
 10
911.3914235606
 20
678.7610416551
 11
911.3914235606
 21
730.9455221067
  0
LINE
  5
417
100
AcDbEntity
  8
0
100
AcDbLine
 62
7
  6
CONTINUOUS
 10
911.8914235606
 20
500.986555692
 11
911.8914235606
 21
659.986555692
  0
LINE
  5
418
100
AcDbEntity
  8
0
100
AcDbLine
 62
7
  6
CONTINUOUS
 10
703.4614235606
 20
601.686555692
 11
705.1614235606
 21
601.686555692
  0
LINE
  5
419
100
AcDbEntity
  8
0
100
AcDbLine
 62
7
  6
CONTINUOUS
 10
1025.1214235606
 20
601.686555692
 11
1026.8214235606
 21
601.686555692
  0
LINE
  5
41A
100
AcDbEntity
  8
0
100
AcDbLine
 62
7
  6
CONTINUOUS
 10
1025.1214235606
 20
605.206555692
 11
1014.1414235606
 21
605.206555692
  0
LINE
  5
41B
100
AcDbEntity
  8
0
100
AcDbLine
 62
7
  6
CONTINUOUS
 10
716.1414235606
 20
605.206555692
 11
705.1614235606
 21
605.206555692
  0
LINE
  5
41C
100
AcDbEntity
  8
0
100
AcDbLine
 62
7
  6
CONTINUOUS
 10
1025.1214235606
 20
613.166555692
 11
1014.1414235606
 21
613.166555692
  0
LINE
  5
41D
100
AcDbEntity
  8
0
100
AcDbLine
 62
7
  6
CONTINUOUS
 10
716.1414235606
 20
613.166555692
 11
705.1614235606
 21
613.166555692
  0
LINE
  5
41E
100
AcDbEntity
  8
0
100
AcDbLine
 62
7
  6
CONTINUOUS
 10
703.4614235606
 20
616.686555692
 11
705.1614235606
 21
616.686555692
  0
LINE
  5
41F
100
AcDbEntity
  8
0
100
AcDbLine
 62
7
  6
CONTINUOUS
 10
1025.1214235606
 20
616.686555692
 11
1026.8214235606
 21
616.686555692
  0
LINE
  5
420
100
AcDbEntity
  8
0
100
AcDbLine
 62
7
  6
CONTINUOUS
 10
924.8566131516
 20
659.986555692
 11
948.6632819925
 21
500.6924149638
  0
LINE
  5
421
100
AcDbEntity
  8
0
100
AcDbLine
 62
7
  6
CONTINUOUS
 10
929.912143791
 20
659.986555692
 11
953.6083613093
 21
501.4314620195
  0
LINE
  5
422
100
AcDbEntity
  8
0
100
AcDbLine
 62
7
  6
CONTINUOUS
 10
800.3707033302
 20
659.986555692
 11
819.5830902273
 21
659.986555692
  0
LINE
  5
423
100
AcDbEntity
  8
0
100
AcDbLine
 62
7
  6
CONTINUOUS
 10
910.6997568939
 20
659.986555692
 11
929.912143791
 21
659.986555692
  0
LINE
  5
424
100
AcDbEntity
  8
0
100
AcDbLine
 62
7
  6
CONTINUOUS
 10
910.6914235606
 20
663.686555692
 11
819.5914235606
 21
663.686555692
  0
LINE
  5
425
100
AcDbEntity
  8
0
100
AcDbLine
 62
7
  6
CONTINUOUS
 10
716.1414235606
 20
665.186555692
 11
1014.1414235606
 21
665.186555692
  0
LINE
  5
426
100
AcDbEntity
  8
0
100
AcDbLine
 62
7
  6
CONTINUOUS
 10
907.3914235606
 20
675.9326145304
 11
822.8914235606
 21
675.9326145304
  0
LINE
  5
427
100
AcDbEntity
  8
0
100
AcDbLine
 62
7
  6
CONTINUOUS
 10
907.3914235606
 20
678.2660669083
 11
822.8914235606
 21
678.2660669083
  0
LINE
  5
428
100
AcDbEntity
  8
0
100
AcDbLine
 62
7
  6
CONTINUOUS
 10
895.4914235606
 20
688.7666026089
 11
834.7914235606
 21
688.7666026089
  0
LINE
  5
429
100
AcDbEntity
  8
0
100
AcDbLine
 62
7
  6
CONTINUOUS
 10
898.383597158
 20
689.6890716374
 11
831.8992614215
 21
689.6890716374
  0
LINE
  5
42A
100
AcDbEntity
  8
0
100
AcDbLine
 62
7
  6
CONTINUOUS
 10
877.239499772
 20
690.9388229937
 11
872.0433473492
 21
690.9388229937
  0
LINE
  5
42B
100
AcDbEntity
  8
0
100
AcDbLine
 62
7
  6
CONTINUOUS
 10
858.239499772
 20
690.9388229937
 11
853.0433473492
 21
690.9388229937
  0
LINE
  5
42C
100
AcDbEntity
  8
0
100
AcDbLine
 62
7
  6
CONTINUOUS
 10
853.0433473492
 20
690.9388229937
 11
850.4452711379
 21
691.7202397932
  0
LINE
  5
42D
100
AcDbEntity
  8
0
100
AcDbLine
 62
7
  6
CONTINUOUS
 10
872.0433473492
 20
690.9388229937
 11
869.4452711379
 21
691.7202397932
  0
LINE
  5
42E
100
AcDbEntity
  8
0
100
AcDbLine
 62
7
  6
CONTINUOUS
 10
1014.1414235606
 20
377.186555692
 11
1014.1414235606
 21
742.186555692
  0
LINE
  5
42F
100
AcDbEntity
  8
0
100
AcDbLine
 62
7
  6
CONTINUOUS
 10
830.7914235606
 20
693.1101054932
 11
850.4452711379
 21
693.1101054932
  0
LINE
  5
430
100
AcDbEntity
  8
0
100
AcDbLine
 62
7
  6
CONTINUOUS
 10
860.8375759833
 20
693.1101054932
 11
869.4452711379
 21
693.1101054932
  0
LINE
  5
431
100
AcDbEntity
  8
0
100
AcDbLine
 62
7
  6
CONTINUOUS
 10
879.8375759833
 20
693.1101054932
 11
899.4914235606
 21
693.1101054932
  0
LINE
  5
432
100
AcDbEntity
  8
0
100
AcDbLine
 62
7
  6
CONTINUOUS
 10
834.7914235606
 20
708.5655924821
 11
850.4452711379
 21
708.5655924821
  0
LINE
  5
433
100
AcDbEntity
  8
0
100
AcDbLine
 62
7
  6
CONTINUOUS
 10
860.8375759833
 20
708.5655924821
 11
869.4452711379
 21
708.5655924821
  0
LINE
  5
434
100
AcDbEntity
  8
0
100
AcDbLine
 62
7
  6
CONTINUOUS
 10
879.8375759833
 20
708.5655924821
 11
895.4914235606
 21
708.5655924821
  0
LINE
  5
435
100
AcDbEntity
  8
0
100
AcDbLine
 62
7
  6
CONTINUOUS
 10
877.239499772
 20
708.6653625479
 11
872.0433473492
 21
708.6653625479
  0
LINE
  5
436
100
AcDbEntity
  8
0
100
AcDbLine
 62
7
  6
CONTINUOUS
 10
858.239499772
 20
708.6653625479
 11
853.0433473492
 21
708.6653625479
  0
LINE
  5
437
100
AcDbEntity
  8
0
100
AcDbLine
 62
7
  6
CONTINUOUS
 10
853.0433473492
 20
708.6653625479
 11
850.4452711379
 21
709.4467793474
  0
LINE
  5
438
100
AcDbEntity
  8
0
100
AcDbLine
 62
7
  6
CONTINUOUS
 10
858.239499772
 20
710.2281961469
 11
860.8375759833
 21
709.4467793474
  0
LINE
  5
439
100
AcDbEntity
  8
0
100
AcDbLine
 62
7
  6
CONTINUOUS
 10
872.0433473492
 20
708.6653625479
 11
869.4452711379
 21
709.4467793474
  0
LINE
  5
43A
100
AcDbEntity
  8
0
100
AcDbLine
 62
7
  6
CONTINUOUS
 10
877.239499772
 20
710.2281961469
 11
879.8375759833
 21
709.4467793474
  0
LINE
  5
43B
100
AcDbEntity
  8
0
100
AcDbLine
 62
7
  6
CONTINUOUS
 10
1025.1214235606
 20
601.6879776401
 11
1025.1214235606
 21
616.6851337438
  0
LINE
  5
43C
100
AcDbEntity
  8
0
100
AcDbLine
 62
7
  6
CONTINUOUS
 10
1026.8214235606
 20
616.686555692
 11
1026.8214235606
 21
601.686555692
  0
LINE
  5
43D
100
AcDbEntity
  8
0
100
AcDbLine
 62
7
  6
CONTINUOUS
 10
1029.3214235606
 20
612.4864171505
 11
1029.3214235606
 21
605.8866942334
  0
LINE
  5
43E
100
AcDbEntity
  8
0
100
AcDbLine
 62
7
  6
CONTINUOUS
 10
853.0433473492
 20
710.2281961469
 11
858.239499772
 21
710.2281961469
  0
LINE
  5
43F
100
AcDbEntity
  8
0
100
AcDbLine
 62
7
  6
CONTINUOUS
 10
872.0433473492
 20
710.2281961469
 11
877.239499772
 21
710.2281961469
  0
LINE
  5
440
100
AcDbEntity
  8
0
100
AcDbLine
 62
7
  6
CONTINUOUS
 10
834.7914235606
 20
723.2734135308
 11
895.4914235606
 21
723.2734135308
  0
LINE
  5
441
100
AcDbEntity
  8
0
100
AcDbLine
 62
7
  6
CONTINUOUS
 10
822.8914235606
 20
733.7739492314
 11
907.3914235606
 21
733.7739492314
  0
LINE
  5
442
100
AcDbEntity
  8
0
100
AcDbLine
 62
7
  6
CONTINUOUS
 10
1014.1414235606
 20
742.186555692
 11
716.1414235606
 21
742.186555692
  0
LINE
  5
443
100
AcDbEntity
  8
0
100
AcDbLine
 62
7
  6
CONTINUOUS
 10
342.6357690521
 20
377.186555692
 11
330.2124641087
 21
377.186555692
  0
LINE
  5
444
100
AcDbEntity
  8
0
100
AcDbLine
 62
7
  6
CONTINUOUS
 10
343.1534071424
 20
377.186555692
 11
460.351951905
 21
377.186555692
  0
LINE
  5
445
100
AcDbEntity
  8
0
100
AcDbLine
 62
7
  6
CONTINUOUS
 10
335.3005851079
 20
406.4936865072
 11
334.8176221948
 21
406.3642769846
  0
LINE
  5
446
100
AcDbEntity
  8
0
100
AcDbLine
 62
7
  6
CONTINUOUS
 10
396.4314631213
 20
733.7739492314
 11
394.0980107434
 21
731.4404968535
  0
LINE
  5
447
100
AcDbEntity
  8
0
100
AcDbLine
 62
7
  6
CONTINUOUS
 10
396.9264378682
 20
728.6120697288
 11
399.2598902461
 21
730.9455221067
  0
LINE
  5
448
100
AcDbEntity
  8
0
100
AcDbLine
 62
7
  6
CONTINUOUS
 10
232.4109996499
 20
742.186555692
 11
330.2124548872
 21
377.186555692
  0
LINE
  5
449
100
AcDbEntity
  8
0
100
AcDbLine
 62
7
  6
CONTINUOUS
 10
477.871951905
 20
500.6924149638
 11
479.371951905
 21
500.6924149638
  0
LINE
  5
44A
100
AcDbEntity
  8
0
100
AcDbLine
 62
7
  6
CONTINUOUS
 10
474.851951905
 20
500.986555692
 11
460.351951905
 21
500.986555692
  0
LINE
  5
44B
100
AcDbEntity
  8
0
100
AcDbLine
 62
7
  6
CONTINUOUS
 10
474.851951905
 20
501.2097479028
 11
477.871951905
 21
501.2097479028
  0
LINE
  5
44C
100
AcDbEntity
  8
0
100
AcDbLine
 62
7
  6
CONTINUOUS
 10
479.371951905
 20
501.4314620195
 11
473.351951905
 21
501.4314620195
  0
LINE
  5
44D
100
AcDbEntity
  8
0
100
AcDbLine
 62
7
  6
CONTINUOUS
 10
342.6357690521
 20
377.186555692
 11
244.8343138148
 21
742.186555692
  0
LINE
  5
44E
100
AcDbEntity
  8
0
100
AcDbLine
 62
7
  6
CONTINUOUS
 10
245.351951905
 20
742.186555692
 11
343.1534071424
 21
377.186555692
  0
LINE
  5
44F
100
AcDbEntity
  8
0
100
AcDbLine
 62
7
  6
CONTINUOUS
 10
307.9004415041
 20
506.8205629187
 11
308.3834044173
 21
506.9499724412
  0
LINE
  5
450
100
AcDbEntity
  8
0
100
AcDbLine
 62
7
  6
CONTINUOUS
 10
307.4579656583
 20
510.4037569092
 11
306.9750027451
 21
510.2743473866
  0
LINE
  5
451
100
AcDbEntity
  8
0
100
AcDbLine
 62
7
  6
CONTINUOUS
 10
449.1109183197
 20
681.094494033
 11
446.7774659418
 21
678.7610416551
  0
LINE
  5
452
100
AcDbEntity
  8
0
100
AcDbLine
 62
7
  6
CONTINUOUS
 10
449.6058930666
 20
675.9326145304
 11
451.9393454445
 21
678.2660669083
  0
LINE
  5
453
100
AcDbEntity
  8
CG_SYMBOLS
100
AcDbLine
 62
2
  6
CENTER
 10
370.351951905
 20
578.186555692
 11
370.351951905
 21
600.186555692
  0
LINE
  5
454
100
AcDbEntity
  8
CG_SYMBOLS
100
AcDbLine
 62
4
  6
CONTINUOUS
 10
381.351951905
 20
589.186555692
 11
359.351951905
 21
589.186555692
  0
LINE
  5
455
100
AcDbEntity
  8
0
100
AcDbLine
 62
7
  6
CONTINUOUS
 10
373.2157068635
 20
602.2550215145
 11
371.6120536177
 21
606.1365607617
  0
LINE
  5
456
100
AcDbEntity
  8
0
100
AcDbLine
 62
7
  6
CONTINUOUS
 10
369.0918104619
 20
612.2365342074
 11
367.4881066583
 21
616.1180525662
  0
LINE
  5
457
100
AcDbEntity
  8
0
100
AcDbLine
 62
7
  6
CONTINUOUS
 10
422.8825652328
 20
707.32284712
 11
423.1192869247
 21
708.6653625479
  0
LINE
  5
458
100
AcDbEntity
  8
0
100
AcDbLine
 62
7
  6
CONTINUOUS
 10
460.351951905
 20
665.186555692
 11
460.351951905
 21
377.186555692
  0
LINE
  5
459
100
AcDbEntity
  8
0
100
AcDbLine
 62
7
  6
CONTINUOUS
 10
461.851951905
 20
659.986555692
 11
461.851951905
 21
663.686555692
  0
LINE
  5
45A
100
AcDbEntity
  8
0
100
AcDbLine
 62
7
  6
CONTINUOUS
 10
460.351951905
 20
659.986555692
 11
479.371951905
 21
659.986555692
  0
LINE
  5
45B
100
AcDbEntity
  8
0
100
AcDbLine
 62
7
  6
CONTINUOUS
 10
495.251951905
 20
663.686555692
 11
461.851951905
 21
663.686555692
  0
LINE
  5
45C
100
AcDbEntity
  8
0
100
AcDbLine
 62
7
  6
CONTINUOUS
 10
460.351951905
 20
665.186555692
 11
495.251951905
 21
665.186555692
  0
LINE
  5
45D
100
AcDbEntity
  8
0
100
AcDbLine
 62
7
  6
CONTINUOUS
 10
473.351951905
 20
500.986555692
 11
473.351951905
 21
659.986555692
  0
LINE
  5
45E
100
AcDbEntity
  8
0
100
AcDbLine
 62
7
  6
CONTINUOUS
 10
474.851951905
 20
501.2097479028
 11
474.851951905
 21
500.986555692
  0
LINE
  5
45F
100
AcDbEntity
  8
0
100
AcDbLine
 62
7
  6
CONTINUOUS
 10
477.871951905
 20
501.2097479028
 11
477.871951905
 21
500.6924149638
  0
LINE
  5
460
100
AcDbEntity
  8
0
100
AcDbLine
 62
7
  6
CONTINUOUS
 10
479.371951905
 20
500.6924149638
 11
479.371951905
 21
659.986555692
  0
LINE
  5
461
100
AcDbEntity
  8
0
100
AcDbLine
 62
7
  6
CONTINUOUS
 10
490.251951905
 20
665.186555692
 11
490.251951905
 21
663.686555692
  0
LINE
  5
462
100
AcDbEntity
  8
0
100
AcDbLine
 62
7
  6
CONTINUOUS
 10
495.251951905
 20
663.686555692
 11
495.251951905
 21
665.186555692
  0
LINE
  5
463
100
AcDbEntity
  8
0
100
AcDbLine
 62
7
  6
CONTINUOUS
 10
460.351951905
 20
665.186555692
 11
383.351951905
 21
742.186555692
  0
LINE
  5
464
100
AcDbEntity
  8
0
100
AcDbLine
 62
7
  6
CONTINUOUS
 10
451.9393454445
 20
678.2660669083
 11
396.4314631213
 21
733.7739492314
  0
LINE
  5
465
100
AcDbEntity
  8
0
100
AcDbLine
 62
7
  6
CONTINUOUS
 10
423.1192869247
 20
708.6653625479
 11
421.2019761923
 21
709.0034361605
  0
LINE
  5
466
100
AcDbEntity
  8
0
100
AcDbLine
 62
7
  6
CONTINUOUS
 10
252.4159480375
 20
713.8915115684
 11
252.8989109507
 21
714.0209210909
  0
LINE
  5
467
100
AcDbEntity
  8
0
100
AcDbLine
 62
7
  6
CONTINUOUS
 10
383.351951905
 20
742.186555692
 11
245.351951905
 21
742.186555692
  0
LINE
  5
468
100
AcDbEntity
  8
0
100
AcDbLine
 62
7
  6
CONTINUOUS
 10
232.4110088713
 20
742.186555692
 11
244.8343138148
 21
742.186555692
  0
LINE
  5
469
100
AcDbEntity
  8
0
100
AcDbLine
 62
7
  6
CONTINUOUS
 10
700.9614235606
 20
1088.3400377411
 11
700.9614235606
 21
1094.9371714835
  0
LINE
  5
46A
100
AcDbEntity
  8
0
100
AcDbLine
 62
7
  6
CONTINUOUS
 10
703.4614235606
 20
1084.1386046123
 11
703.4614235606
 21
1099.1386046123
  0
LINE
  5
46B
100
AcDbEntity
  8
0
100
AcDbLine
 62
7
  6
CONTINUOUS
 10
705.1614235606
 20
1099.1383330385
 11
705.1614235606
 21
1084.1388761862
  0
LINE
  5
46C
100
AcDbEntity
  8
0
100
AcDbLine
 62
7
  6
CONTINUOUS
 10
716.1414235606
 20
1001.6386046123
 11
716.1414335051
 21
1217.1562427025
  0
LINE
  5
46D
100
AcDbEntity
  8
0
100
AcDbLine
 62
7
  6
CONTINUOUS
 10
824.5914235606
 20
966.7386046123
 11
905.6914235606
 21
966.7386046123
  0
LINE
  5
46E
100
AcDbEntity
  8
0
100
AcDbLine
 62
7
  6
CONTINUOUS
 10
776.6744858119
 20
982.6186046123
 11
805.4262339696
 21
982.6186046123
  0
LINE
  5
46F
100
AcDbEntity
  8
0
100
AcDbLine
 62
7
  6
CONTINUOUS
 10
924.8566131516
 20
982.6186046123
 11
953.6083613093
 21
982.6186046123
  0
LINE
  5
470
100
AcDbEntity
  8
0
100
AcDbLine
 62
7
  6
CONTINUOUS
 10
801.887362522
 20
984.1186046123
 11
805.4262339696
 21
984.1186046123
  0
LINE
  5
471
100
AcDbEntity
  8
0
100
AcDbLine
 62
7
  6
CONTINUOUS
 10
924.8566131516
 20
984.1186046123
 11
928.3954845992
 21
984.1186046123
  0
LINE
  5
472
100
AcDbEntity
  8
0
100
AcDbLine
 62
7
  6
CONTINUOUS
 10
801.887362522
 20
987.1386046123
 11
818.3914235606
 21
987.1386046123
  0
LINE
  5
473
100
AcDbEntity
  8
0
100
AcDbLine
 62
7
  6
CONTINUOUS
 10
911.8914235606
 20
987.1386046123
 11
928.3954845992
 21
987.1386046123
  0
LINE
  5
474
100
AcDbEntity
  8
0
100
AcDbLine
 62
7
  6
CONTINUOUS
 10
776.6744858119
 20
988.6386046123
 11
816.8914235606
 21
988.6386046123
  0
LINE
  5
475
100
AcDbEntity
  8
0
100
AcDbLine
 62
7
  6
CONTINUOUS
 10
913.3914235606
 20
988.6386046123
 11
953.6083613093
 21
988.6386046123
  0
LINE
  5
476
100
AcDbEntity
  8
0
100
AcDbLine
 62
7
  6
CONTINUOUS
 10
911.8914235606
 20
1000.1386046123
 11
910.6997568939
 21
1000.1386046123
  0
LINE
  5
477
100
AcDbEntity
  8
0
100
AcDbLine
 62
7
  6
CONTINUOUS
 10
819.5830902273
 20
1000.1386046123
 11
818.3914235606
 21
1000.1386046123
  0
LINE
  5
478
100
AcDbEntity
  8
0
100
AcDbLine
 62
7
  6
CONTINUOUS
 10
1014.1414235606
 20
1001.6386046123
 11
716.1414235606
 21
1001.6386046123
  0
LINE
  5
479
100
AcDbEntity
  8
0
100
AcDbLine
 62
7
  6
CONTINUOUS
 10
776.6744858119
 20
982.6186046123
 11
776.6744858119
 21
988.6386046123
  0
LINE
  5
47A
100
AcDbEntity
  8
0
100
AcDbLine
 62
7
  6
CONTINUOUS
 10
907.3914235606
 20
1010.0512110728
 11
822.8914235606
 21
1010.0512110728
  0
LINE
  5
47B
100
AcDbEntity
  8
0
100
AcDbLine
 62
7
  6
CONTINUOUS
 10
895.4914235606
 20
1020.5517467734
 11
834.7914235606
 21
1020.5517467734
  0
LINE
  5
47C
100
AcDbEntity
  8
0
100
AcDbLine
 62
7
  6
CONTINUOUS
 10
895.4914235606
 20
1027.2692611947
 11
834.7914235606
 21
1027.2692611947
  0
LINE
  5
47D
100
AcDbEntity
  8
0
100
AcDbLine
 62
7
  6
CONTINUOUS
 10
875.1414235606
 20
1028.9663174696
 11
874.1414235606
 21
1028.9663174696
  0
LINE
  5
47E
100
AcDbEntity
  8
0
100
AcDbLine
 62
7
  6
CONTINUOUS
 10
875.1414235606
 20
1029.249160182
 11
874.1414235606
 21
1029.249160182
  0
LINE
  5
47F
100
AcDbEntity
  8
0
100
AcDbLine
 62
7
  6
CONTINUOUS
 10
800.3707033302
 20
988.6386046123
 11
800.3707033302
 21
982.6186046123
  0
LINE
  5
480
100
AcDbEntity
  8
0
100
AcDbLine
 62
7
  6
CONTINUOUS
 10
801.887362522
 20
984.1186046123
 11
801.887362522
 21
987.1386046123
  0
LINE
  5
481
100
AcDbEntity
  8
0
100
AcDbLine
 62
7
  6
CONTINUOUS
 10
805.4262339696
 20
982.6186046123
 11
805.4262339696
 21
984.1186046123
  0
LINE
  5
482
100
AcDbEntity
  8
0
100
AcDbLine
 62
7
  6
CONTINUOUS
 10
877.6414235606
 20
1030.7340844225
 11
875.1414235606
 21
1030.7340844225
  0
LINE
  5
483
100
AcDbEntity
  8
0
100
AcDbLine
 62
7
  6
CONTINUOUS
 10
874.1414235606
 20
1030.7340844225
 11
871.6414235606
 21
1030.7340844225
  0
LINE
  5
484
100
AcDbEntity
  8
0
100
AcDbLine
 62
7
  6
CONTINUOUS
 10
858.6414235606
 20
1030.7340844225
 11
852.6414235606
 21
1030.7340844225
  0
LINE
  5
485
100
AcDbEntity
  8
0
100
AcDbLine
 62
7
  6
CONTINUOUS
 10
877.6414235606
 20
1031.016927135
 11
875.1414235606
 21
1031.016927135
  0
LINE
  5
486
100
AcDbEntity
  8
0
100
AcDbLine
 62
7
  6
CONTINUOUS
 10
874.1414235606
 20
1031.016927135
 11
871.6414235606
 21
1031.016927135
  0
LINE
  5
487
100
AcDbEntity
  8
0
100
AcDbLine
 62
7
  6
CONTINUOUS
 10
858.6414235606
 20
1031.016927135
 11
852.6414235606
 21
1031.016927135
  0
LINE
  5
488
100
AcDbEntity
  8
0
100
AcDbLine
 62
7
  6
CONTINUOUS
 10
852.6414235606
 20
1031.4411912037
 11
858.6414235606
 21
1031.4411912037
  0
LINE
  5
489
100
AcDbEntity
  8
0
100
AcDbLine
 62
7
  6
CONTINUOUS
 10
871.6414235606
 20
1031.4411912037
 11
874.1414235606
 21
1031.4411912037
  0
LINE
  5
48A
100
AcDbEntity
  8
0
100
AcDbLine
 62
7
  6
CONTINUOUS
 10
875.1414235606
 20
1031.4411912037
 11
877.6414235606
 21
1031.4411912037
  0
LINE
  5
48B
100
AcDbEntity
  8
0
100
AcDbLine
 62
7
  6
CONTINUOUS
 10
874.1414235606
 20
1033.2089581567
 11
875.1414235606
 21
1033.2089581567
  0
LINE
  5
48C
100
AcDbEntity
  8
0
100
AcDbLine
 62
7
  6
CONTINUOUS
 10
899.4914235606
 20
1034.9092446445
 11
830.7914235606
 21
1034.9092446445
  0
LINE
  5
48D
100
AcDbEntity
  8
0
100
AcDbLine
 62
7
  6
CONTINUOUS
 10
877.239499772
 20
1038.8712695926
 11
872.0433473492
 21
1038.8712695926
  0
LINE
  5
48E
100
AcDbEntity
  8
0
100
AcDbLine
 62
7
  6
CONTINUOUS
 10
858.239499772
 20
1038.8712695926
 11
853.0433473492
 21
1038.8712695926
  0
LINE
  5
48F
100
AcDbEntity
  8
0
100
AcDbLine
 62
7
  6
CONTINUOUS
 10
816.8914235606
 20
988.6386046123
 11
816.8914235606
 21
1001.6386046123
  0
LINE
  5
490
100
AcDbEntity
  8
0
100
AcDbLine
 62
7
  6
CONTINUOUS
 10
818.3914235606
 20
987.1386046123
 11
818.3914235606
 21
1000.1386046123
  0
LINE
  5
491
100
AcDbEntity
  8
0
100
AcDbLine
 62
7
  6
CONTINUOUS
 10
818.8914235606
 20
1012.8796381976
 11
818.8914235606
 21
1065.0641186491
  0
LINE
  5
492
100
AcDbEntity
  8
0
100
AcDbLine
 62
7
  6
CONTINUOUS
 10
819.5914235606
 20
1001.6386046123
 11
819.5914235606
 21
971.7386046123
  0
LINE
  5
493
100
AcDbEntity
  8
0
100
AcDbLine
 62
7
  6
CONTINUOUS
 10
822.8914235606
 20
1065.559093396
 11
822.8914235606
 21
1067.8925457739
  0
LINE
  5
494
100
AcDbEntity
  8
0
100
AcDbLine
 62
7
  6
CONTINUOUS
 10
853.0433473492
 20
1047.7345393697
 11
858.239499772
 21
1047.7345393697
  0
LINE
  5
495
100
AcDbEntity
  8
0
100
AcDbLine
 62
7
  6
CONTINUOUS
 10
872.0433473492
 20
1047.7345393697
 11
877.239499772
 21
1047.7345393697
  0
LINE
  5
496
100
AcDbEntity
  8
0
100
AcDbLine
 62
7
  6
CONTINUOUS
 10
853.0433473492
 20
1050.8602065677
 11
858.239499772
 21
1050.8602065677
  0
LINE
  5
497
100
AcDbEntity
  8
0
100
AcDbLine
 62
7
  6
CONTINUOUS
 10
872.0433473492
 20
1050.8602065677
 11
877.239499772
 21
1050.8602065677
  0
LINE
  5
498
100
AcDbEntity
  8
0
100
AcDbLine
 62
7
  6
CONTINUOUS
 10
832.1464732596
 20
1054.3108917551
 11
898.1363911991
 21
1054.3108917551
  0
LINE
  5
499
100
AcDbEntity
  8
0
100
AcDbLine
 62
7
  6
CONTINUOUS
 10
834.7914235606
 20
1055.0585576953
 11
895.4914235606
 21
1055.0585576953
  0
LINE
  5
49A
100
AcDbEntity
  8
0
100
AcDbLine
 62
7
  6
CONTINUOUS
 10
853.0433473492
 20
1038.8712695926
 11
850.4452711379
 21
1043.3029044811
  0
LINE
  5
49B
100
AcDbEntity
  8
0
100
AcDbLine
 62
7
  6
CONTINUOUS
 10
830.7914235606
 20
1023.3801738982
 11
830.7914235606
 21
1052.2301305706
  0
LINE
  5
49C
100
AcDbEntity
  8
0
100
AcDbLine
 62
7
  6
CONTINUOUS
 10
834.7914235606
 20
1020.5517467734
 11
834.7914235606
 21
1027.2692611947
  0
LINE
  5
49D
100
AcDbEntity
  8
0
100
AcDbLine
 62
7
  6
CONTINUOUS
 10
836.0914235606
 20
975.2886046123
 11
836.0914235606
 21
978.9886046123
  0
LINE
  5
49E
100
AcDbEntity
  8
0
100
AcDbLine
 62
7
  6
CONTINUOUS
 10
822.8914235606
 20
1065.559093396
 11
907.3914235606
 21
1065.559093396
  0
LINE
  5
49F
100
AcDbEntity
  8
0
100
AcDbLine
 62
7
  6
CONTINUOUS
 10
822.8914235606
 20
1067.8925457739
 11
907.3914235606
 21
1067.8925457739
  0
LINE
  5
4A0
100
AcDbEntity
  8
0
100
AcDbLine
 62
7
  6
CONTINUOUS
 10
858.239499772
 20
1047.7345393697
 11
860.8375759833
 21
1043.3029044811
  0
LINE
  5
4A1
100
AcDbEntity
  8
0
100
AcDbLine
 62
7
  6
CONTINUOUS
 10
858.239499772
 20
1050.8602065677
 11
860.8375759833
 21
1046.4285716791
  0
LINE
  5
4A2
100
AcDbEntity
  8
0
100
AcDbLine
 62
7
  6
CONTINUOUS
 10
843.3914235606
 20
975.2886046123
 11
843.3914235606
 21
978.9886046123
  0
LINE
  5
4A3
100
AcDbEntity
  8
0
100
AcDbLine
 62
7
  6
CONTINUOUS
 10
850.4452711379
 20
1043.3029044811
 11
850.4452711379
 21
1046.4285716791
  0
LINE
  5
4A4
100
AcDbEntity
  8
0
100
AcDbLine
 62
7
  6
CONTINUOUS
 10
852.6414235606
 20
1030.7340844225
 11
852.6414235606
 21
1031.4411912037
  0
LINE
  5
4A5
100
AcDbEntity
  8
0
100
AcDbLine
 62
7
  6
CONTINUOUS
 10
1014.1414235606
 20
1078.6386046123
 11
716.1414235606
 21
1078.6386046123
  0
LINE
  5
4A6
100
AcDbEntity
  8
0
100
AcDbLine
 62
7
  6
CONTINUOUS
 10
703.4614235606
 20
1084.1386046123
 11
705.1614235606
 21
1084.1386046123
  0
LINE
  5
4A7
100
AcDbEntity
  8
0
100
AcDbLine
 62
7
  6
CONTINUOUS
 10
1025.1214235606
 20
1084.1386046123
 11
1026.8214235606
 21
1084.1386046123
  0
LINE
  5
4A8
100
AcDbEntity
  8
0
100
AcDbLine
 62
7
  6
CONTINUOUS
 10
872.0433473492
 20
1038.8712695926
 11
869.4452711379
 21
1043.3029044811
  0
LINE
  5
4A9
100
AcDbEntity
  8
0
100
AcDbLine
 62
7
  6
CONTINUOUS
 10
877.239499772
 20
1047.7345393697
 11
879.8375759833
 21
1043.3029044811
  0
LINE
  5
4AA
100
AcDbEntity
  8
0
100
AcDbLine
 62
7
  6
CONTINUOUS
 10
877.239499772
 20
1050.8602065677
 11
879.8375759833
 21
1046.4285716791
  0
LINE
  5
4AB
100
AcDbEntity
  8
0
100
AcDbLine
 62
7
  6
CONTINUOUS
 10
853.0433473492
 20
1047.7345393697
 11
853.0433473492
 21
1050.8602065677
  0
LINE
  5
4AC
100
AcDbEntity
  8
0
100
AcDbLine
 62
7
  6
CONTINUOUS
 10
858.239499772
 20
1050.8602065677
 11
858.239499772
 21
1047.7345393697
  0
LINE
  5
4AD
100
AcDbEntity
  8
0
100
AcDbLine
 62
7
  6
CONTINUOUS
 10
858.6414235606
 20
1031.4411912037
 11
858.6414235606
 21
1030.7340844225
  0
LINE
  5
4AE
100
AcDbEntity
  8
0
100
AcDbLine
 62
7
  6
CONTINUOUS
 10
860.8375759833
 20
1043.3029044811
 11
860.8375759833
 21
1046.4285716791
  0
LINE
  5
4AF
100
AcDbEntity
  8
0
100
AcDbLine
 62
7
  6
CONTINUOUS
 10
1025.1214235606
 20
1087.6586046123
 11
1014.1414235606
 21
1087.6586046123
  0
LINE
  5
4B0
100
AcDbEntity
  8
0
100
AcDbLine
 62
7
  6
CONTINUOUS
 10
716.1414235606
 20
1087.6586046123
 11
705.1614235606
 21
1087.6586046123
  0
LINE
  5
4B1
100
AcDbEntity
  8
0
100
AcDbLine
 62
7
  6
CONTINUOUS
 10
1025.1214235606
 20
1095.6186046123
 11
1014.1414235606
 21
1095.6186046123
  0
LINE
  5
4B2
100
AcDbEntity
  8
0
100
AcDbLine
 62
7
  6
CONTINUOUS
 10
716.1414235606
 20
1095.6186046123
 11
705.1614235606
 21
1095.6186046123
  0
LINE
  5
4B3
100
AcDbEntity
  8
0
100
AcDbLine
 62
7
  6
CONTINUOUS
 10
703.4614235606
 20
1099.1386046123
 11
705.1614235606
 21
1099.1386046123
  0
LINE
  5
4B4
100
AcDbEntity
  8
0
100
AcDbLine
 62
7
  6
CONTINUOUS
 10
1025.1214235606
 20
1099.1386046123
 11
1026.8214235606
 21
1099.1386046123
  0
LINE
  5
4B5
100
AcDbEntity
  8
0
100
AcDbLine
 62
7
  6
CONTINUOUS
 10
869.4452711379
 20
1043.3029044811
 11
869.4452711379
 21
1046.4285716791
  0
LINE
  5
4B6
100
AcDbEntity
  8
0
100
AcDbLine
 62
7
  6
CONTINUOUS
 10
871.6414235606
 20
1030.7340844225
 11
871.6414235606
 21
1031.4411912037
  0
LINE
  5
4B7
100
AcDbEntity
  8
0
100
AcDbLine
 62
7
  6
CONTINUOUS
 10
872.0433473492
 20
1047.7345393697
 11
872.0433473492
 21
1050.8602065677
  0
LINE
  5
4B8
100
AcDbEntity
  8
0
100
AcDbLine
 62
7
  6
CONTINUOUS
 10
874.1414235606
 20
1028.9663174696
 11
874.1414235606
 21
1031.016927135
  0
LINE
  5
4B9
100
AcDbEntity
  8
0
100
AcDbLine
 62
7
  6
CONTINUOUS
 10
874.1414235606
 20
1031.4411912037
 11
874.1414235606
 21
1033.2089581567
  0
LINE
  5
4BA
100
AcDbEntity
  8
0
100
AcDbLine
 62
7
  6
CONTINUOUS
 10
875.1414235606
 20
1033.2089581567
 11
875.1414235606
 21
1031.4411912037
  0
LINE
  5
4BB
100
AcDbEntity
  8
0
100
AcDbLine
 62
7
  6
CONTINUOUS
 10
875.1414235606
 20
1031.016927135
 11
875.1414235606
 21
1028.9663174696
  0
LINE
  5
4BC
100
AcDbEntity
  8
0
100
AcDbLine
 62
7
  6
CONTINUOUS
 10
877.239499772
 20
1050.8602065677
 11
877.239499772
 21
1047.7345393697
  0
LINE
  5
4BD
100
AcDbEntity
  8
0
100
AcDbLine
 62
7
  6
CONTINUOUS
 10
877.6414235606
 20
1031.4411912037
 11
877.6414235606
 21
1030.7340844225
  0
LINE
  5
4BE
100
AcDbEntity
  8
0
100
AcDbLine
 62
7
  6
CONTINUOUS
 10
879.8375759833
 20
1043.3029044811
 11
879.8375759833
 21
1046.4285716791
  0
LINE
  5
4BF
100
AcDbEntity
  8
0
100
AcDbLine
 62
7
  6
CONTINUOUS
 10
850.4452711379
 20
1046.4285716791
 11
853.0433473492
 21
1050.8602065677
  0
LINE
  5
4C0
100
AcDbEntity
  8
0
100
AcDbLine
 62
7
  6
CONTINUOUS
 10
850.4452711379
 20
1043.3029044811
 11
853.0433473492
 21
1047.7345393697
  0
LINE
  5
4C1
100
AcDbEntity
  8
0
100
AcDbLine
 62
7
  6
CONTINUOUS
 10
886.8914235606
 20
975.2886046123
 11
886.8914235606
 21
978.9886046123
  0
LINE
  5
4C2
100
AcDbEntity
  8
0
100
AcDbLine
 62
7
  6
CONTINUOUS
 10
894.1914235606
 20
978.9886046123
 11
894.1914235606
 21
975.2886046123
  0
LINE
  5
4C3
100
AcDbEntity
  8
0
100
AcDbLine
 62
7
  6
CONTINUOUS
 10
860.8375759833
 20
1043.3029044811
 11
858.239499772
 21
1038.8712695926
  0
LINE
  5
4C4
100
AcDbEntity
  8
0
100
AcDbLine
 62
7
  6
CONTINUOUS
 10
869.4452711379
 20
1046.4285716791
 11
872.0433473492
 21
1050.8602065677
  0
LINE
  5
4C5
100
AcDbEntity
  8
0
100
AcDbLine
 62
7
  6
CONTINUOUS
 10
895.4914235606
 20
1027.2692611947
 11
895.4914235606
 21
1020.5517467734
  0
LINE
  5
4C6
100
AcDbEntity
  8
0
100
AcDbLine
 62
7
  6
CONTINUOUS
 10
899.4914235606
 20
1052.2301305706
 11
899.4914235606
 21
1023.3801738982
  0
LINE
  5
4C7
100
AcDbEntity
  8
0
100
AcDbLine
 62
7
  6
CONTINUOUS
 10
907.3914235606
 20
1067.8925457739
 11
907.3914235606
 21
1065.559093396
  0
LINE
  5
4C8
100
AcDbEntity
  8
0
100
AcDbLine
 62
7
  6
CONTINUOUS
 10
869.4452711379
 20
1043.3029044811
 11
872.0433473492
 21
1047.7345393697
  0
LINE
  5
4C9
100
AcDbEntity
  8
0
100
AcDbLine
 62
7
  6
CONTINUOUS
 10
879.8375759833
 20
1043.3029044811
 11
877.239499772
 21
1038.8712695926
  0
LINE
  5
4CA
100
AcDbEntity
  8
0
100
AcDbLine
 62
7
  6
CONTINUOUS
 10
910.6914235606
 20
971.7386046123
 11
910.6914235606
 21
1001.6386046123
  0
LINE
  5
4CB
100
AcDbEntity
  8
0
100
AcDbLine
 62
7
  6
CONTINUOUS
 10
911.3914235606
 20
1012.8796381976
 11
911.3914235606
 21
1065.0641186491
  0
LINE
  5
4CC
100
AcDbEntity
  8
0
100
AcDbLine
 62
7
  6
CONTINUOUS
 10
911.8914235606
 20
1000.1386046123
 11
911.8914235606
 21
987.1386046123
  0
LINE
  5
4CD
100
AcDbEntity
  8
0
100
AcDbLine
 62
7
  6
CONTINUOUS
 10
913.3914235606
 20
988.6386046123
 11
913.3914235606
 21
1001.6386046123
  0
LINE
  5
4CE
100
AcDbEntity
  8
0
100
AcDbLine
 62
7
  6
CONTINUOUS
 10
924.8566131516
 20
984.1186046123
 11
924.8566131516
 21
982.6186046123
  0
LINE
  5
4CF
100
AcDbEntity
  8
0
100
AcDbLine
 62
7
  6
CONTINUOUS
 10
928.3954845992
 20
987.1386046123
 11
928.3954845992
 21
984.1186046123
  0
LINE
  5
4D0
100
AcDbEntity
  8
0
100
AcDbLine
 62
7
  6
CONTINUOUS
 10
929.912143791
 20
982.6186046123
 11
929.912143791
 21
988.6386046123
  0
LINE
  5
4D1
100
AcDbEntity
  8
0
100
AcDbLine
 62
7
  6
CONTINUOUS
 10
953.6083613093
 20
988.6386046123
 11
953.6083613093
 21
982.6186046123
  0
LINE
  5
4D2
100
AcDbEntity
  8
0
100
AcDbLine
 62
7
  6
CONTINUOUS
 10
716.1414235606
 20
1216.6386046123
 11
1014.1414235606
 21
1216.6386046123
  0
LINE
  5
4D3
100
AcDbEntity
  8
0
100
AcDbLine
 62
7
  6
CONTINUOUS
 10
1014.1414136161
 20
1217.1562427025
 11
716.1414335051
 21
1217.1562427025
  0
LINE
  5
4D4
100
AcDbEntity
  8
0
100
AcDbLine
 62
7
  6
CONTINUOUS
 10
725.1414263451
 20
1229.5795568674
 11
1005.1414207761
 21
1229.5795568674
  0
LINE
  5
4D5
100
AcDbEntity
  8
0
100
AcDbLine
 62
7
  6
CONTINUOUS
 10
1014.1414136161
 20
1217.1562427025
 11
1014.1414235606
 21
1001.6386046123
  0
LINE
  5
4D6
100
AcDbEntity
  8
0
100
AcDbLine
 62
7
  6
CONTINUOUS
 10
1025.1214235606
 20
1084.1391756966
 11
1025.1214235606
 21
1099.138033528
  0
LINE
  5
4D7
100
AcDbEntity
  8
0
100
AcDbLine
 62
7
  6
CONTINUOUS
 10
1026.8214235606
 20
1099.1386046123
 11
1026.8214235606
 21
1084.1386046123
  0
LINE
  5
4D8
100
AcDbEntity
  8
0
100
AcDbLine
 62
7
  6
CONTINUOUS
 10
1029.3214235606
 20
1094.9375084839
 11
1029.3214235606
 21
1088.3397007408
  0
LINE
  5
4D9
100
AcDbEntity
  8
0
100
AcDbLine
 62
7
  6
CONTINUOUS
 10
104.0003189205
 20
1145.7581548062
 11
137.4054715506
 21
1253.8572683348
  0
LINE
  5
4DA
100
AcDbEntity
  8
0
100
AcDbLine
 62
7
  6
CONTINUOUS
 10
137.4054715506
 20
1253.8572683348
 11
179.5328021836
 21
1266.3094728193
  0
LINE
  5
4DB
100
AcDbEntity
  8
0
100
AcDbLine
 62
7
  6
CONTINUOUS
 10
105.218212797
 20
1137.9688942934
 11
240.2329328111
 21
987.6917675628
  0
LINE
  5
4DC
100
AcDbEntity
  8
0
100
AcDbLine
 62
7
  6
CONTINUOUS
 10
244.1720217115
 20
985.3440319379
 11
109.1573016974
 21
1135.6211586686
  0
LINE
  5
4DD
100
AcDbEntity
  8
0
100
AcDbLine
 62
7
  6
CONTINUOUS
 10
104.3646175267
 20
1145.3526749607
 11
104.0003189205
 21
1145.7581548062
  0
LINE
  5
4DE
100
AcDbEntity
  8
0
100
AcDbLine
 62
7
  6
CONTINUOUS
 10
244.1720217115
 20
985.3440319379
 11
502.069094903
 21
985.3440319379
  0
LINE
  5
4DF
100
AcDbEntity
  8
0
100
AcDbLine
 62
7
  6
CONTINUOUS
 10
474.9431931583
 20
994.0075359268
 11
255.7306765857
 21
994.0075359268
  0
LINE
  5
4E0
100
AcDbEntity
  8
0
100
AcDbLine
 62
7
  6
CONTINUOUS
 10
513.0016046324
 20
995.4810280756
 11
513.4912151474
 21
995.4810280756
  0
LINE
  5
4E1
100
AcDbEntity
  8
0
100
AcDbLine
 62
7
  6
CONTINUOUS
 10
137.4320598007
 20
1125.6789286816
 11
255.7306765857
 21
994.0075359268
  0
LINE
  5
4E2
100
AcDbEntity
  8
0
100
AcDbLine
 62
7
  6
CONTINUOUS
 10
184.3797392088
 20
1103.8237745414
 11
185.3863777561
 21
1109.787655782
  0
LINE
  5
4E3
100
AcDbEntity
  8
0
100
AcDbLine
 62
7
  6
CONTINUOUS
 10
239.3242506993
 20
1259.3308459838
 11
266.5981564403
 21
1267.3926017674
  0
LINE
  5
4E4
100
AcDbEntity
  8
0
100
AcDbLine
 62
7
  6
CONTINUOUS
 10
256.0298056095
 20
1261.0289604999
 11
271.8138531873
 21
1265.6944872513
  0
LINE
  5
4E5
100
AcDbEntity
  8
0
100
AcDbLine
 62
7
  6
CONTINUOUS
 10
257.5890862114
 20
1005.017778217
 11
343.4599370866
 21
1005.017778217
  0
LINE
  5
4E6
100
AcDbEntity
  8
0
100
AcDbLine
 62
7
  6
CONTINUOUS
 10
382.5053928776
 20
1005.017778217
 11
465.0511702508
 21
1005.017778217
  0
LINE
  5
4E7
100
AcDbEntity
  8
0
100
AcDbLine
 62
7
  6
CONTINUOUS
 10
257.5890862114
 20
1005.017778217
 11
149.182492334
 21
1125.6789286816
  0
LINE
  5
4E8
100
AcDbEntity
  8
0
100
AcDbLine
 62
7
  6
CONTINUOUS
 10
279.6480924035
 20
1261.1853017834
 11
283.3521934646
 21
1264.1709841733
  0
LINE
  5
4E9
100
AcDbEntity
  8
0
100
AcDbLine
 62
7
  6
CONTINUOUS
 10
289.2200390344
 20
1261.1853017834
 11
288.4586128611
 21
1260.5715559165
  0
LINE
  5
4EA
100
AcDbEntity
  8
0
100
AcDbLine
 62
7
  6
CONTINUOUS
 10
297.1482512896
 20
1261.1853017834
 11
300.8523523506
 21
1264.1709841733
  0
LINE
  5
4EB
100
AcDbEntity
  8
0
100
AcDbLine
 62
7
  6
CONTINUOUS
 10
335.0907434753
 20
1265.6944872513
 11
319.3066958975
 21
1261.0289604999
  0
LINE
  5
4EC
100
AcDbEntity
  8
0
100
AcDbLine
 62
7
  6
CONTINUOUS
 10
351.7962983855
 20
1267.3926017674
 11
324.5223926446
 21
1259.3308459838
  0
LINE
  5
4ED
100
AcDbEntity
  8
0
100
AcDbLine
 62
7
  6
CONTINUOUS
 10
351.9432488166
 20
1264.1142484688
 11
324.6693430757
 21
1256.0524926853
  0
LINE
  5
4EE
100
AcDbEntity
  8
0
100
AcDbLine
 62
7
  6
CONTINUOUS
 10
263.3034255101
 20
1277.9759788054
 11
261.8461862431
 21
1273.2603508094
  0
LINE
  5
4EF
100
AcDbEntity
  8
0
100
AcDbLine
 62
7
  6
CONTINUOUS
 10
263.606221351
 20
1274.4353411739
 11
264.3372616477
 21
1276.8009884409
  0
LINE
  5
4F0
100
AcDbEntity
  8
0
100
AcDbLine
 62
7
  6
CONTINUOUS
 10
267.5967781008
 20
1276.8009884409
 11
267.9598775859
 21
1277.9759788054
  0
LINE
  5
4F1
100
AcDbEntity
  8
0
100
AcDbLine
 62
7
  6
CONTINUOUS
 10
306.7201979205
 20
1261.1853017834
 11
305.9587717472
 21
1260.5715559165
  0
LINE
  5
4F2
100
AcDbEntity
  8
0
100
AcDbLine
 62
7
  6
CONTINUOUS
 10
239.1594575262
 20
1255.8733746818
 11
239.0125070951
 21
1259.1517279803
  0
LINE
  5
4F3
100
AcDbEntity
  8
0
100
AcDbLine
 62
7
  6
CONTINUOUS
 10
241.6079894615
 20
1255.5950881018
 11
241.4610390304
 21
1258.8734414003
  0
LINE
  5
4F4
100
AcDbEntity
  8
0
100
AcDbLine
 62
7
  6
CONTINUOUS
 10
282.0543450831
 20
1289.7309474171
 11
275.2926228806
 21
1267.8500063508
  0
LINE
  5
4F5
100
AcDbEntity
  8
0
100
AcDbLine
 62
7
  6
CONTINUOUS
 10
454.0089783965
 20
1266.3094728193
 11
411.8816477634
 21
1253.8572683348
  0
LINE
  5
4F6
100
AcDbEntity
  8
0
100
AcDbLine
 62
7
  6
CONTINUOUS
 10
256.0439723616
 20
1260.7129109449
 11
256.0298056095
 21
1261.0289604999
  0
LINE
  5
4F7
100
AcDbEntity
  8
0
100
AcDbLine
 62
7
  6
CONTINUOUS
 10
295.4968706394
 20
1284.0518273223
 11
296.392516036
 21
1286.950136888
  0
LINE
  5
4F8
100
AcDbEntity
  8
0
100
AcDbLine
 62
7
  6
CONTINUOUS
 10
296.850078836
 20
1286.0177219356
 11
295.9544334394
 21
1283.1194123699
  0
LINE
  5
4F9
100
AcDbEntity
  8
0
100
AcDbLine
 62
7
  6
CONTINUOUS
 10
303.1162612922
 20
1286.950136888
 11
302.2206158956
 21
1284.0518273223
  0
LINE
  5
4FA
100
AcDbEntity
  8
0
100
AcDbLine
 62
7
  6
CONTINUOUS
 10
271.8138531873
 20
1265.6944872513
 11
272.0434858411
 21
1260.5715559165
  0
LINE
  5
4FB
100
AcDbEntity
  8
0
100
AcDbLine
 62
7
  6
CONTINUOUS
 10
277.2956883775
 20
1260.5715559165
 11
277.0455528082
 21
1266.1518918347
  0
LINE
  5
4FC
100
AcDbEntity
  8
0
100
AcDbLine
 62
7
  6
CONTINUOUS
 10
255.7306765857
 20
994.0075359268
 11
257.5890862114
 21
1005.017778217
  0
LINE
  5
4FD
100
AcDbEntity
  8
0
100
AcDbLine
 62
7
  6
CONTINUOUS
 10
343.1824145314
 20
1286.950136888
 11
342.2867691347
 21
1284.0518273223
  0
LINE
  5
4FE
100
AcDbEntity
  8
0
100
AcDbLine
 62
7
  6
CONTINUOUS
 10
342.7443319347
 20
1283.1194123699
 11
343.6399773313
 21
1286.0177219356
  0
LINE
  5
4FF
100
AcDbEntity
  8
0
100
AcDbLine
 62
7
  6
CONTINUOUS
 10
349.9061597876
 20
1286.950136888
 11
349.010514391
 21
1284.0518273223
  0
LINE
  5
500
100
AcDbEntity
  8
0
100
AcDbLine
 62
7
  6
CONTINUOUS
 10
261.8461862431
 20
1273.2603508094
 11
263.6601205136
 21
1266.5241625952
  0
LINE
  5
501
100
AcDbEntity
  8
0
100
AcDbLine
 62
7
  6
CONTINUOUS
 10
264.9742878876
 20
1274.4353411739
 11
264.3372616477
 21
1276.8009884409
  0
LINE
  5
502
100
AcDbEntity
  8
0
100
AcDbLine
 62
7
  6
CONTINUOUS
 10
267.5967781008
 20
1276.8009884409
 11
268.2338043407
 21
1274.4353411739
  0
LINE
  5
503
100
AcDbEntity
  8
0
100
AcDbLine
 62
7
  6
CONTINUOUS
 10
267.9598775859
 20
1277.9759788054
 11
268.9133075874
 21
1274.4353411739
  0
LINE
  5
504
100
AcDbEntity
  8
0
100
AcDbLine
 62
7
  6
CONTINUOUS
 10
319.2906930237
 20
1258.8734414003
 11
319.4376434548
 21
1255.5950881018
  0
LINE
  5
505
100
AcDbEntity
  8
0
100
AcDbLine
 62
7
  6
CONTINUOUS
 10
294.8148783632
 20
1032.4788821889
 11
295.558036893
 21
1036.8817626729
  0
LINE
  5
506
100
AcDbEntity
  8
0
100
AcDbLine
 62
7
  6
CONTINUOUS
 10
358.7252185669
 20
1266.3094728193
 11
365.9630016367
 21
1289.7309474171
  0
LINE
  5
507
100
AcDbEntity
  8
0
100
AcDbLine
 62
7
  6
CONTINUOUS
 10
366.4205644367
 20
1288.7985324647
 11
359.5458808519
 21
1266.5520482313
  0
LINE
  5
508
100
AcDbEntity
  8
0
100
AcDbLine
 62
7
  6
CONTINUOUS
 10
364.9266711556
 20
1274.4353411739
 11
362.4155879119
 21
1266.3094728193
  0
LINE
  5
509
100
AcDbEntity
  8
0
100
AcDbLine
 62
7
  6
CONTINUOUS
 10
365.9451631614
 20
1273.2603508094
 11
363.7971794029
 21
1266.3094728193
  0
LINE
  5
50A
100
AcDbEntity
  8
0
100
AcDbLine
 62
7
  6
CONTINUOUS
 10
137.4320598007
 20
1125.6789286816
 11
356.6445763734
 21
1125.6789286816
  0
LINE
  5
50B
100
AcDbEntity
  8
0
100
AcDbLine
 62
7
  6
CONTINUOUS
 10
367.0543748889
 20
1135.6211586686
 11
109.1573016974
 21
1135.6211586686
  0
LINE
  5
50C
100
AcDbEntity
  8
0
100
AcDbLine
 62
7
  6
CONTINUOUS
 10
279.8704853235
 20
1260.5715559165
 11
279.6480924035
 21
1261.1853017834
  0
LINE
  5
50D
100
AcDbEntity
  8
0
100
AcDbLine
 62
7
  6
CONTINUOUS
 10
279.6480924035
 20
1261.1853017834
 11
279.8600380041
 21
1260.5715559165
  0
LINE
  5
50E
100
AcDbEntity
  8
0
100
AcDbLine
 62
7
  6
CONTINUOUS
 10
324.6693430757
 20
1256.0524926853
 11
324.5223926446
 21
1259.3308459838
  0
LINE
  5
50F
100
AcDbEntity
  8
0
100
AcDbLine
 62
7
  6
CONTINUOUS
 10
332.9539551442
 20
1266.1518918347
 11
333.0021309984
 21
1265.0771248582
  0
LINE
  5
510
100
AcDbEntity
  8
0
100
AcDbLine
 62
7
  6
CONTINUOUS
 10
377.9625413495
 20
1277.9759788054
 11
377.5994418644
 21
1276.8009884409
  0
LINE
  5
511
100
AcDbEntity
  8
0
100
AcDbLine
 62
7
  6
CONTINUOUS
 10
380.8589583175
 20
1276.8009884409
 11
380.1279180208
 21
1274.4353411739
  0
LINE
  5
512
100
AcDbEntity
  8
0
100
AcDbLine
 62
7
  6
CONTINUOUS
 10
381.1617541585
 20
1273.2603508094
 11
382.6189934254
 21
1277.9759788054
  0
LINE
  5
513
100
AcDbEntity
  8
0
100
AcDbLine
 62
7
  6
CONTINUOUS
 10
103.8750253306
 20
1145.3526749607
 11
378.3511832245
 21
1145.3526749607
  0
LINE
  5
514
100
AcDbEntity
  8
0
100
AcDbLine
 62
7
  6
CONTINUOUS
 10
378.4764951333
 20
1145.7581548062
 11
104.0003189205
 21
1145.7581548062
  0
LINE
  5
515
100
AcDbEntity
  8
0
100
AcDbLine
 62
7
  6
CONTINUOUS
 10
460.9844072253
 20
1153.4998927296
 11
459.4186035355
 21
1153.4998927296
  0
LINE
  5
516
100
AcDbEntity
  8
0
100
AcDbLine
 62
7
  6
CONTINUOUS
 10
449.3053538213
 20
1157.0198927296
 11
456.95324275
 21
1157.0198927296
  0
LINE
  5
517
100
AcDbEntity
  8
0
100
AcDbLine
 62
7
  6
CONTINUOUS
 10
474.9431931583
 20
994.0075359268
 11
356.6445763734
 21
1125.6789286816
  0
LINE
  5
518
100
AcDbEntity
  8
0
100
AcDbLine
 62
7
  6
CONTINUOUS
 10
288.13816678
 20
1264.1709841733
 11
289.2200390344
 21
1261.1853017834
  0
LINE
  5
519
100
AcDbEntity
  8
0
100
AcDbLine
 62
7
  6
CONTINUOUS
 10
297.3706442095
 20
1260.5715559165
 11
297.1482512896
 21
1261.1853017834
  0
LINE
  5
51A
100
AcDbEntity
  8
0
100
AcDbLine
 62
7
  6
CONTINUOUS
 10
289.2200390344
 20
1261.1853017834
 11
289.431984635
 21
1260.5715559165
  0
LINE
  5
51B
100
AcDbEntity
  8
0
100
AcDbLine
 62
7
  6
CONTINUOUS
 10
297.1482512896
 20
1261.1853017834
 11
297.3601968902
 21
1260.5715559165
  0
LINE
  5
51C
100
AcDbEntity
  8
0
100
AcDbLine
 62
7
  6
CONTINUOUS
 10
351.7962983855
 20
1267.3926017674
 11
351.9432488166
 21
1264.1142484688
  0
LINE
  5
51D
100
AcDbEntity
  8
0
100
AcDbLine
 62
7
  6
CONTINUOUS
 10
352.2549924208
 20
1264.2933664723
 11
352.1080419897
 21
1267.5717197709
  0
LINE
  5
51E
100
AcDbEntity
  8
0
100
AcDbLine
 62
7
  6
CONTINUOUS
 10
449.3053538213
 20
1164.9798927296
 11
456.9459159411
 21
1164.9798927296
  0
LINE
  5
51F
100
AcDbEntity
  8
0
100
AcDbLine
 62
7
  6
CONTINUOUS
 10
460.9844072253
 20
1168.4998927296
 11
459.4186035355
 21
1168.4998927296
  0
LINE
  5
520
100
AcDbEntity
  8
0
100
AcDbLine
 62
7
  6
CONTINUOUS
 10
367.0543748889
 20
1135.6211586686
 11
502.069094903
 21
985.3440319379
  0
LINE
  5
521
100
AcDbEntity
  8
0
100
AcDbLine
 62
7
  6
CONTINUOUS
 10
305.6383256661
 20
1264.1709841733
 11
306.7201979205
 21
1261.1853017834
  0
LINE
  5
522
100
AcDbEntity
  8
0
100
AcDbLine
 62
7
  6
CONTINUOUS
 10
306.7201979205
 20
1261.1853017834
 11
306.9321435211
 21
1260.5715559165
  0
LINE
  5
523
100
AcDbEntity
  8
0
100
AcDbLine
 62
7
  6
CONTINUOUS
 10
411.8816477634
 20
1253.8572683348
 11
378.4764951333
 21
1145.7581548062
  0
LINE
  5
524
100
AcDbEntity
  8
0
100
AcDbLine
 62
7
  6
CONTINUOUS
 10
513.3659032386
 20
995.0755482301
 11
378.3511832245
 21
1145.3526749607
  0
LINE
  5
525
100
AcDbEntity
  8
0
100
AcDbLine
 62
7
  6
CONTINUOUS
 10
378.4764951333
 20
1145.7581548062
 11
513.4912151474
 21
995.4810280756
  0
LINE
  5
526
100
AcDbEntity
  8
0
100
AcDbLine
 62
7
  6
CONTINUOUS
 10
295.9544334394
 20
1283.1194123699
 11
295.4968706394
 21
1284.0518273223
  0
LINE
  5
527
100
AcDbEntity
  8
0
100
AcDbLine
 62
7
  6
CONTINUOUS
 10
296.392516036
 20
1286.950136888
 11
296.850078836
 21
1286.0177219356
  0
LINE
  5
528
100
AcDbEntity
  8
0
100
AcDbLine
 62
7
  6
CONTINUOUS
 10
392.2395921378
 20
1068.7392830911
 11
393.2462306851
 21
1074.7031643317
  0
LINE
  5
529
100
AcDbEntity
  8
0
100
AcDbLine
 62
7
  6
CONTINUOUS
 10
342.7443319347
 20
1283.1194123699
 11
342.2867691347
 21
1284.0518273223
  0
LINE
  5
52A
100
AcDbEntity
  8
0
100
AcDbLine
 62
7
  6
CONTINUOUS
 10
343.1824145314
 20
1286.950136888
 11
343.6399773313
 21
1286.0177219356
  0
LINE
  5
52B
100
AcDbEntity
  8
0
100
AcDbLine
 62
7
  6
CONTINUOUS
 10
359.6649195744
 20
1266.3094728193
 11
359.5458808519
 21
1266.5520482313
  0
LINE
  5
52C
100
AcDbEntity
  8
0
100
AcDbLine
 62
7
  6
CONTINUOUS
 10
397.3643314212
 20
1015.1696454203
 11
398.1074899509
 21
1019.5725259042
  0
LINE
  5
52D
100
AcDbEntity
  8
0
100
AcDbLine
 62
7
  6
CONTINUOUS
 10
369.3561586491
 20
1266.3094728193
 11
365.9451631614
 21
1273.2603508094
  0
LINE
  5
52E
100
AcDbEntity
  8
0
100
AcDbLine
 62
7
  6
CONTINUOUS
 10
365.9630016367
 20
1289.7309474171
 11
366.4205644367
 21
1288.7985324647
  0
LINE
  5
52F
100
AcDbEntity
  8
0
100
AcDbLine
 62
7
  6
CONTINUOUS
 10
365.846354934
 20
1291.9336609617
 11
366.303917734
 21
1291.0012460093
  0
LINE
  5
530
100
AcDbEntity
  8
0
100
AcDbLine
 62
7
  6
CONTINUOUS
 10
137.4054715506
 20
1253.8572683348
 11
411.8816477634
 21
1253.8572683348
  0
LINE
  5
531
100
AcDbEntity
  8
0
100
AcDbLine
 62
7
  6
CONTINUOUS
 10
319.4376434548
 20
1255.5950881018
 11
241.6079894615
 21
1255.5950881018
  0
LINE
  5
532
100
AcDbEntity
  8
0
100
AcDbLine
 62
7
  6
CONTINUOUS
 10
319.2906930237
 20
1258.8734414003
 11
241.4610390304
 21
1258.8734414003
  0
LINE
  5
533
100
AcDbEntity
  8
0
100
AcDbLine
 62
7
  6
CONTINUOUS
 10
314.0749962767
 20
1260.5715559165
 11
258.1665939407
 21
1260.5715559165
  0
LINE
  5
534
100
AcDbEntity
  8
0
100
AcDbLine
 62
7
  6
CONTINUOUS
 10
283.3521934646
 20
1264.1709841733
 11
288.13816678
 21
1264.1709841733
  0
LINE
  5
535
100
AcDbEntity
  8
0
100
AcDbLine
 62
7
  6
CONTINUOUS
 10
300.8523523506
 20
1264.1709841733
 11
305.6383256661
 21
1264.1709841733
  0
LINE
  5
536
100
AcDbEntity
  8
0
100
AcDbLine
 62
7
  6
CONTINUOUS
 10
277.0455528082
 20
1266.1518918347
 11
332.9539551442
 21
1266.1518918347
  0
LINE
  5
537
100
AcDbEntity
  8
0
100
AcDbLine
 62
7
  6
CONTINUOUS
 10
179.5328021836
 20
1266.3094728193
 11
262.9337987459
 21
1266.3094728193
  0
LINE
  5
538
100
AcDbEntity
  8
0
100
AcDbLine
 62
7
  6
CONTINUOUS
 10
352.1646215334
 20
1266.3094728193
 11
454.0089783965
 21
1266.3094728193
  0
LINE
  5
539
100
AcDbEntity
  8
0
100
AcDbLine
 62
7
  6
CONTINUOUS
 10
379.2841977547
 20
1274.4353411739
 11
377.5994418644
 21
1276.8009884409
  0
LINE
  5
53A
100
AcDbEntity
  8
0
100
AcDbLine
 62
7
  6
CONTINUOUS
 10
386.1119987699
 20
1266.3094728193
 11
381.1617541585
 21
1273.2603508094
  0
LINE
  5
53B
100
AcDbEntity
  8
0
100
AcDbLine
 62
7
  6
CONTINUOUS
 10
465.0059590854
 20
1159.4028298724
 11
465.0060495274
 21
1159.4036280352
  0
LINE
  5
53C
100
AcDbEntity
  8
0
100
AcDbLine
 62
7
  6
CONTINUOUS
 10
271.8298560612
 20
1267.8500063508
 11
349.6595100544
 21
1267.8500063508
  0
LINE
  5
53D
100
AcDbEntity
  8
0
100
AcDbLine
 62
7
  6
CONTINUOUS
 10
261.8461862431
 20
1273.2603508094
 11
276.9645457718
 21
1273.2603508094
  0
LINE
  5
53E
100
AcDbEntity
  8
0
100
AcDbLine
 62
7
  6
CONTINUOUS
 10
365.9451631614
 20
1273.2603508094
 11
381.1617541585
 21
1273.2603508094
  0
LINE
  5
53F
100
AcDbEntity
  8
0
100
AcDbLine
 62
7
  6
CONTINUOUS
 10
380.1279180208
 20
1274.4353411739
 11
364.9266711556
 21
1274.4353411739
  0
LINE
  5
540
100
AcDbEntity
  8
0
100
AcDbLine
 62
7
  6
CONTINUOUS
 10
277.3276452569
 20
1274.4353411739
 11
263.606221351
 21
1274.4353411739
  0
LINE
  5
541
100
AcDbEntity
  8
0
100
AcDbLine
 62
7
  6
CONTINUOUS
 10
380.8589583175
 20
1276.8009884409
 11
377.5994418644
 21
1276.8009884409
  0
LINE
  5
542
100
AcDbEntity
  8
0
100
AcDbLine
 62
7
  6
CONTINUOUS
 10
267.5967781008
 20
1276.8009884409
 11
264.3372616477
 21
1276.8009884409
  0
LINE
  5
543
100
AcDbEntity
  8
0
100
AcDbLine
 62
7
  6
CONTINUOUS
 10
263.3034255101
 20
1277.9759788054
 11
267.9598775859
 21
1277.9759788054
  0
LINE
  5
544
100
AcDbEntity
  8
0
100
AcDbLine
 62
7
  6
CONTINUOUS
 10
377.9625413495
 20
1277.9759788054
 11
382.6189934254
 21
1277.9759788054
  0
LINE
  5
545
100
AcDbEntity
  8
0
100
AcDbLine
 62
7
  6
CONTINUOUS
 10
390.9275924936
 20
1266.3094728193
 11
382.6189934254
 21
1277.9759788054
  0
LINE
  5
546
100
AcDbEntity
  8
0
100
AcDbLine
 62
7
  6
CONTINUOUS
 10
362.5680282837
 20
1293.6475819653
 11
287.8699816701
 21
1293.6475819653
  0
LINE
  5
547
100
AcDbEntity
  8
0
100
AcDbLine
 62
7
  6
CONTINUOUS
 10
454.0089783965
 20
1266.3094728193
 11
541.8610359867
 21
1087.2858019573
  0
LINE
  5
548
100
AcDbEntity
  8
0
100
AcDbLine
 62
7
  6
CONTINUOUS
 10
513.4912151474
 20
995.4810280756
 11
541.8610359867
 21
1087.2858019573
  0
LINE
  5
549
100
AcDbEntity
  8
0
100
AcDbLine
 62
7
  6
CONTINUOUS
 10
1340.7208049787
 20
377.186555692
 11
1328.2975000353
 21
377.186555692
  0
LINE
  5
54A
100
AcDbEntity
  8
0
100
AcDbLine
 62
7
  6
CONTINUOUS
 10
1210.5813171824
 20
377.186555692
 11
1327.779861945
 21
377.186555692
  0
LINE
  5
54B
100
AcDbEntity
  8
0
100
AcDbLine
 62
7
  6
CONTINUOUS
 10
1218.9939236429
 20
678.2660669083
 11
1274.5018059661
 21
733.7739492314
  0
LINE
  5
54C
100
AcDbEntity
  8
0
100
AcDbLine
 62
7
  6
CONTINUOUS
 10
1287.5813171824
 20
742.186555692
 11
1210.5813171824
 21
665.186555692
  0
LINE
  5
54D
100
AcDbEntity
  8
0
100
AcDbLine
 62
7
  6
CONTINUOUS
 10
1335.6326839795
 20
406.4936865072
 11
1336.1156468926
 21
406.3642769846
  0
LINE
  5
54E
100
AcDbEntity
  8
0
100
AcDbLine
 62
7
  6
CONTINUOUS
 10
1175.6813171824
 20
665.186555692
 11
1175.6813171824
 21
663.686555692
  0
LINE
  5
54F
100
AcDbEntity
  8
0
100
AcDbLine
 62
7
  6
CONTINUOUS
 10
1180.6813171824
 20
663.686555692
 11
1180.6813171824
 21
665.186555692
  0
LINE
  5
550
100
AcDbEntity
  8
0
100
AcDbLine
 62
7
  6
CONTINUOUS
 10
1191.5613171824
 20
659.986555692
 11
1191.5613171824
 21
500.6924149638
  0
LINE
  5
551
100
AcDbEntity
  8
0
100
AcDbLine
 62
7
  6
CONTINUOUS
 10
1193.0613171824
 20
500.6924149638
 11
1193.0613171824
 21
501.2097479028
  0
LINE
  5
552
100
AcDbEntity
  8
0
100
AcDbLine
 62
7
  6
CONTINUOUS
 10
1196.0813171824
 20
500.986555692
 11
1196.0813171824
 21
501.2097479028
  0
LINE
  5
553
100
AcDbEntity
  8
0
100
AcDbLine
 62
7
  6
CONTINUOUS
 10
1197.5813171824
 20
659.986555692
 11
1197.5813171824
 21
500.986555692
  0
LINE
  5
554
100
AcDbEntity
  8
0
100
AcDbLine
 62
7
  6
CONTINUOUS
 10
1209.0813171824
 20
663.686555692
 11
1209.0813171824
 21
659.986555692
  0
LINE
  5
555
100
AcDbEntity
  8
0
100
AcDbLine
 62
7
  6
CONTINUOUS
 10
1210.5813171824
 20
377.186555692
 11
1210.5813171824
 21
665.186555692
  0
LINE
  5
556
100
AcDbEntity
  8
0
100
AcDbLine
 62
7
  6
CONTINUOUS
 10
1191.5613171824
 20
500.6924149638
 11
1193.0613171824
 21
500.6924149638
  0
LINE
  5
557
100
AcDbEntity
  8
0
100
AcDbLine
 62
7
  6
CONTINUOUS
 10
1196.0813171824
 20
500.986555692
 11
1210.5813171824
 21
500.986555692
  0
LINE
  5
558
100
AcDbEntity
  8
0
100
AcDbLine
 62
7
  6
CONTINUOUS
 10
1196.0813171824
 20
501.2097479028
 11
1193.0613171824
 21
501.2097479028
  0
LINE
  5
559
100
AcDbEntity
  8
0
100
AcDbLine
 62
7
  6
CONTINUOUS
 10
1197.5813171824
 20
501.4314620195
 11
1191.5613171824
 21
501.4314620195
  0
LINE
  5
55A
100
AcDbEntity
  8
0
100
AcDbLine
 62
7
  6
CONTINUOUS
 10
1363.0328275833
 20
506.8205629187
 11
1362.5498646701
 21
506.9499724412
  0
LINE
  5
55B
100
AcDbEntity
  8
0
100
AcDbLine
 62
7
  6
CONTINUOUS
 10
1363.4753034291
 20
510.4037569092
 11
1363.9582663423
 21
510.2743473866
  0
LINE
  5
55C
100
AcDbEntity
  8
0
100
AcDbLine
 62
7
  6
CONTINUOUS
 10
1247.8139821627
 20
708.6653625479
 11
1248.0507038546
 21
707.32284712
  0
LINE
  5
55D
100
AcDbEntity
  8
0
100
AcDbLine
 62
7
  6
CONTINUOUS
 10
1303.4451624291
 20
616.1180525662
 11
1301.8414586255
 21
612.2365342074
  0
LINE
  5
55E
100
AcDbEntity
  8
0
100
AcDbLine
 62
7
  6
CONTINUOUS
 10
1299.3212007122
 20
606.1365250478
 11
1297.7175622285
 21
602.2550215126
  0
LINE
  5
55F
100
AcDbEntity
  8
0
100
AcDbLine
 62
7
  6
CONTINUOUS
 10
1218.9939236429
 20
678.2660669083
 11
1221.3273760208
 21
675.9326145304
  0
LINE
  5
560
100
AcDbEntity
  8
0
100
AcDbLine
 62
7
  6
CONTINUOUS
 10
1224.1558031456
 20
678.7610416551
 11
1221.8223507677
 21
681.094494033
  0
LINE
  5
561
100
AcDbEntity
  8
0
100
AcDbLine
 62
7
  6
CONTINUOUS
 10
1327.779861945
 20
377.186555692
 11
1425.5813171824
 21
742.186555692
  0
LINE
  5
562
100
AcDbEntity
  8
0
100
AcDbLine
 62
7
  6
CONTINUOUS
 10
1426.0989552726
 20
742.186555692
 11
1328.2975000353
 21
377.186555692
  0
LINE
  5
563
100
AcDbEntity
  8
0
100
AcDbLine
 62
7
  6
CONTINUOUS
 10
1340.7208142002
 20
377.186555692
 11
1438.5222694375
 21
742.186555692
  0
LINE
  5
564
100
AcDbEntity
  8
0
100
AcDbLine
 62
7
  6
CONTINUOUS
 10
1191.5613171824
 20
659.986555692
 11
1210.5813171824
 21
659.986555692
  0
LINE
  5
565
100
AcDbEntity
  8
0
100
AcDbLine
 62
7
  6
CONTINUOUS
 10
1209.0813171824
 20
663.686555692
 11
1175.6813171824
 21
663.686555692
  0
LINE
  5
566
100
AcDbEntity
  8
0
100
AcDbLine
 62
7
  6
CONTINUOUS
 10
1175.6813171824
 20
665.186555692
 11
1210.5813171824
 21
665.186555692
  0
LINE
  5
567
100
AcDbEntity
  8
0
100
AcDbLine
 62
7
  6
CONTINUOUS
 10
1271.6733788413
 20
730.9455221067
 11
1274.0068312192
 21
728.6120697288
  0
LINE
  5
568
100
AcDbEntity
  8
0
100
AcDbLine
 62
7
  6
CONTINUOUS
 10
1276.835258344
 20
731.4404968535
 11
1274.5018059661
 21
733.7739492314
  0
LINE
  5
569
100
AcDbEntity
  8
0
100
AcDbLine
 62
7
  6
CONTINUOUS
 10
1249.7312928951
 20
709.0034361605
 11
1247.8139821627
 21
708.6653625479
  0
LINE
  5
56A
100
AcDbEntity
  8
0
100
AcDbLine
 62
7
  6
CONTINUOUS
 10
1418.5173210499
 20
713.8915115684
 11
1418.0343581367
 21
714.0209210909
  0
LINE
  5
56B
100
AcDbEntity
  8
0
100
AcDbLine
 62
7
  6
CONTINUOUS
 10
1438.5222602161
 20
742.186555692
 11
1426.0989552726
 21
742.186555692
  0
LINE
  5
56C
100
AcDbEntity
  8
0
100
AcDbLine
 62
7
  6
CONTINUOUS
 10
1425.5813171824
 20
742.186555692
 11
1287.5813171824
 21
742.186555692
  0
LINE
  5
56D
100
AcDbEntity
  8
0
100
AcDbLine
 62
7
  6
CONTINUOUS
 10
1958.43060525
 20
781.2323316736
 11
1678.4306108189
 21
781.2323316736
  0
LINE
  5
56E
100
AcDbEntity
  8
0
100
AcDbLine
 62
7
  6
CONTINUOUS
 10
1669.430617979
 20
790.0169413644
 11
1967.4305980899
 21
790.0169413644
  0
LINE
  5
56F
100
AcDbEntity
  8
0
100
AcDbLine
 62
7
  6
CONTINUOUS
 10
1967.4306080344
 20
790.3829667682
 11
1669.4306080344
 21
790.3829667682
  0
LINE
  5
570
100
AcDbEntity
  8
0
100
AcDbLine
 62
7
  6
CONTINUOUS
 10
1654.2506080344
 20
969.5167877464
 11
1654.2506080344
 21
976.1162448822
  0
LINE
  5
571
100
AcDbEntity
  8
0
100
AcDbLine
 62
7
  6
CONTINUOUS
 10
1656.7506080344
 20
965.3165163143
 11
1656.7506080344
 21
980.3165163143
  0
LINE
  5
572
100
AcDbEntity
  8
0
100
AcDbLine
 62
7
  6
CONTINUOUS
 10
1658.4506080344
 20
980.3154493026
 11
1658.4506080344
 21
965.317583326
  0
LINE
  5
573
100
AcDbEntity
  8
0
100
AcDbLine
 62
7
  6
CONTINUOUS
 10
1669.430617979
 20
790.0169413644
 11
1669.4306080344
 21
1200.5048998564
  0
LINE
  5
574
100
AcDbEntity
  8
0
100
AcDbLine
 62
7
  6
CONTINUOUS
 10
1729.9636702857
 20
1121.8428722198
 11
1729.9636702857
 21
1126.0996550425
  0
LINE
  5
575
100
AcDbEntity
  8
0
100
AcDbLine
 62
7
  6
CONTINUOUS
 10
1669.4306080344
 20
887.9637025719
 11
1967.4306080344
 21
887.9637025719
  0
LINE
  5
576
100
AcDbEntity
  8
0
100
AcDbLine
 62
7
  6
CONTINUOUS
 10
1860.6806080344
 20
903.1609247233
 11
1776.1806080344
 21
903.1609247233
  0
LINE
  5
577
100
AcDbEntity
  8
0
100
AcDbLine
 62
7
  6
CONTINUOUS
 10
1848.7806080344
 20
918.0109247233
 11
1788.0806080344
 21
918.0109247233
  0
LINE
  5
578
100
AcDbEntity
  8
0
100
AcDbLine
 62
7
  6
CONTINUOUS
 10
1753.6598878041
 20
1013.984273115
 11
1753.6598878041
 21
1009.7274902923
  0
LINE
  5
579
100
AcDbEntity
  8
0
100
AcDbLine
 62
7
  6
CONTINUOUS
 10
1755.1765469959
 20
1010.788150464
 11
1755.1765469959
 21
1012.9236129432
  0
LINE
  5
57A
100
AcDbEntity
  8
0
100
AcDbLine
 62
7
  6
CONTINUOUS
 10
1758.7154184434
 20
1012.9236129432
 11
1758.7154184434
 21
1013.984273115
  0
LINE
  5
57B
100
AcDbEntity
  8
0
100
AcDbLine
 62
7
  6
CONTINUOUS
 10
1830.5286842458
 20
932.4141494211
 11
1825.3325318231
 21
932.4141494211
  0
LINE
  5
57C
100
AcDbEntity
  8
0
100
AcDbLine
 62
7
  6
CONTINUOUS
 10
1811.5286842458
 20
932.4141494211
 11
1806.3325318231
 21
932.4141494211
  0
LINE
  5
57D
100
AcDbEntity
  8
0
100
AcDbLine
 62
7
  6
CONTINUOUS
 10
1806.3325318231
 20
939.7865178197
 11
1811.5286842458
 21
939.7865178197
  0
LINE
  5
57E
100
AcDbEntity
  8
0
100
AcDbLine
 62
7
  6
CONTINUOUS
 10
1825.3325318231
 20
939.7865178197
 11
1830.5286842458
 21
939.7865178197
  0
LINE
  5
57F
100
AcDbEntity
  8
0
100
AcDbLine
 62
7
  6
CONTINUOUS
 10
1852.7806080344
 20
939.8682840362
 11
1833.1267604571
 21
939.8682840362
  0
LINE
  5
580
100
AcDbEntity
  8
0
100
AcDbLine
 62
7
  6
CONTINUOUS
 10
1822.7344556117
 20
939.8682840362
 11
1814.1267604571
 21
939.8682840362
  0
LINE
  5
581
100
AcDbEntity
  8
0
100
AcDbLine
 62
7
  6
CONTINUOUS
 10
1803.7344556117
 20
939.8682840362
 11
1784.0806080344
 21
939.8682840362
  0
LINE
  5
582
100
AcDbEntity
  8
0
100
AcDbLine
 62
7
  6
CONTINUOUS
 10
1753.6598878041
 20
1009.7274902923
 11
1729.9636702857
 21
1121.8428722198
  0
LINE
  5
583
100
AcDbEntity
  8
0
100
AcDbLine
 62
7
  6
CONTINUOUS
 10
1753.6598878041
 20
1013.984273115
 11
1729.9636702857
 21
1126.0996550425
  0
LINE
  5
584
100
AcDbEntity
  8
0
100
AcDbLine
 62
7
  6
CONTINUOUS
 10
1758.7154184434
 20
1013.984273115
 11
1734.9087496025
 21
1126.6222402272
  0
LINE
  5
585
100
AcDbEntity
  8
0
100
AcDbLine
 62
7
  6
CONTINUOUS
 10
1770.1806080344
 20
1009.7274902923
 11
1770.1806080344
 21
1000.5351021368
  0
LINE
  5
586
100
AcDbEntity
  8
0
100
AcDbLine
 62
7
  6
CONTINUOUS
 10
1771.6806080344
 20
1001.5957623086
 11
1771.6806080344
 21
1123.2181286727
  0
LINE
  5
587
100
AcDbEntity
  8
0
100
AcDbLine
 62
7
  6
CONTINUOUS
 10
1772.1806080344
 20
907.1609247233
 11
1772.1806080344
 21
977.6609247233
  0
LINE
  5
588
100
AcDbEntity
  8
0
100
AcDbLine
 62
7
  6
CONTINUOUS
 10
1772.8806080344
 20
1019.0612998039
 11
1772.8806080344
 21
996.8581468747
  0
LINE
  5
589
100
AcDbEntity
  8
0
100
AcDbLine
 62
7
  6
CONTINUOUS
 10
1777.8806080344
 20
1021.5361735381
 11
1777.8806080344
 21
1022.5968337099
  0
LINE
  5
58A
100
AcDbEntity
  8
0
100
AcDbLine
 62
7
  6
CONTINUOUS
 10
1778.4056080344
 20
1103.4403520029
 11
1778.4056080344
 21
1102.0261384405
  0
LINE
  5
58B
100
AcDbEntity
  8
0
100
AcDbLine
 62
7
  6
CONTINUOUS
 10
1784.0806080344
 20
922.0109247233
 11
1784.0806080344
 21
962.8109247233
  0
LINE
  5
58C
100
AcDbEntity
  8
0
100
AcDbLine
 62
7
  6
CONTINUOUS
 10
1806.3325318231
 20
950.110893674
 11
1811.5286842458
 21
950.110893674
  0
LINE
  5
58D
100
AcDbEntity
  8
0
100
AcDbLine
 62
7
  6
CONTINUOUS
 10
1825.3325318231
 20
950.110893674
 11
1830.5286842458
 21
950.110893674
  0
LINE
  5
58E
100
AcDbEntity
  8
0
100
AcDbLine
 62
7
  6
CONTINUOUS
 10
1784.0806080344
 20
956.0063565124
 11
1852.7806080344
 21
956.0063565124
  0
LINE
  5
58F
100
AcDbEntity
  8
0
100
AcDbLine
 62
7
  6
CONTINUOUS
 10
1806.3325318231
 20
932.4141494211
 11
1803.7344556117
 21
936.1003336204
  0
LINE
  5
590
100
AcDbEntity
  8
0
100
AcDbLine
 62
7
  6
CONTINUOUS
 10
1811.5286842458
 20
939.7865178197
 11
1814.1267604571
 21
936.1003336204
  0
LINE
  5
591
100
AcDbEntity
  8
0
100
AcDbLine
 62
7
  6
CONTINUOUS
 10
1788.6056080344
 20
1103.4403520029
 11
1788.6056080344
 21
1102.0261384405
  0
LINE
  5
592
100
AcDbEntity
  8
0
100
AcDbLine
 62
7
  6
CONTINUOUS
 10
1789.3806080344
 20
1012.8741154685
 11
1789.3806080344
 21
1015.4904105589
  0
LINE
  5
593
100
AcDbEntity
  8
0
100
AcDbLine
 62
7
  6
CONTINUOUS
 10
1796.6806080344
 20
1015.4904105589
 11
1796.6806080344
 21
1012.8741154685
  0
LINE
  5
594
100
AcDbEntity
  8
0
100
AcDbLine
 62
7
  6
CONTINUOUS
 10
1809.4306080344
 20
958.4109247233
 11
1808.4306080344
 21
958.4109247233
  0
LINE
  5
595
100
AcDbEntity
  8
0
100
AcDbLine
 62
7
  6
CONTINUOUS
 10
1830.9306080344
 20
960.9109247233
 11
1824.9306080344
 21
960.9109247233
  0
LINE
  5
596
100
AcDbEntity
  8
0
100
AcDbLine
 62
7
  6
CONTINUOUS
 10
1811.9306080344
 20
960.9109247233
 11
1809.4306080344
 21
960.9109247233
  0
LINE
  5
597
100
AcDbEntity
  8
0
100
AcDbLine
 62
7
  6
CONTINUOUS
 10
1808.4306080344
 20
960.9109247233
 11
1805.9306080344
 21
960.9109247233
  0
LINE
  5
598
100
AcDbEntity
  8
0
100
AcDbLine
 62
7
  6
CONTINUOUS
 10
1805.9306080344
 20
961.9109247233
 11
1808.4306080344
 21
961.9109247233
  0
LINE
  5
599
100
AcDbEntity
  8
0
100
AcDbLine
 62
7
  6
CONTINUOUS
 10
1809.4306080344
 20
961.9109247233
 11
1811.9306080344
 21
961.9109247233
  0
LINE
  5
59A
100
AcDbEntity
  8
0
100
AcDbLine
 62
7
  6
CONTINUOUS
 10
1824.9306080344
 20
961.9109247233
 11
1830.9306080344
 21
961.9109247233
  0
LINE
  5
59B
100
AcDbEntity
  8
0
100
AcDbLine
 62
7
  6
CONTINUOUS
 10
1808.4306080344
 20
964.4109247233
 11
1809.4306080344
 21
964.4109247233
  0
LINE
  5
59C
100
AcDbEntity
  8
0
100
AcDbLine
 62
7
  6
CONTINUOUS
 10
1980.1106080344
 20
965.3165163143
 11
1978.4106080344
 21
965.3165163143
  0
LINE
  5
59D
100
AcDbEntity
  8
0
100
AcDbLine
 62
7
  6
CONTINUOUS
 10
1658.4506080344
 20
965.3165163143
 11
1656.7506080344
 21
965.3165163143
  0
LINE
  5
59E
100
AcDbEntity
  8
0
100
AcDbLine
 62
7
  6
CONTINUOUS
 10
1788.0806080344
 20
966.8109247233
 11
1848.7806080344
 21
966.8109247233
  0
LINE
  5
59F
100
AcDbEntity
  8
0
100
AcDbLine
 62
7
  6
CONTINUOUS
 10
1658.4506080344
 20
968.8365163143
 11
1669.4306080344
 21
968.8365163143
  0
LINE
  5
5A0
100
AcDbEntity
  8
0
100
AcDbLine
 62
7
  6
CONTINUOUS
 10
1967.4306080344
 20
968.8365163143
 11
1978.4106080344
 21
968.8365163143
  0
LINE
  5
5A1
100
AcDbEntity
  8
0
100
AcDbLine
 62
7
  6
CONTINUOUS
 10
1811.5286842458
 20
950.110893674
 11
1814.1267604571
 21
946.4247094747
  0
LINE
  5
5A2
100
AcDbEntity
  8
0
100
AcDbLine
 62
7
  6
CONTINUOUS
 10
1825.3325318231
 20
932.4141494211
 11
1822.7344556117
 21
936.1003336204
  0
LINE
  5
5A3
100
AcDbEntity
  8
0
100
AcDbLine
 62
7
  6
CONTINUOUS
 10
1830.5286842458
 20
939.7865178197
 11
1833.1267604571
 21
936.1003336204
  0
LINE
  5
5A4
100
AcDbEntity
  8
0
100
AcDbLine
 62
7
  6
CONTINUOUS
 10
1803.7344556117
 20
936.1003336204
 11
1803.7344556117
 21
946.4247094747
  0
LINE
  5
5A5
100
AcDbEntity
  8
0
100
AcDbLine
 62
7
  6
CONTINUOUS
 10
1805.9306080344
 20
960.9109247233
 11
1805.9306080344
 21
961.9109247233
  0
LINE
  5
5A6
100
AcDbEntity
  8
0
100
AcDbLine
 62
7
  6
CONTINUOUS
 10
1806.3325318231
 20
939.7865178197
 11
1806.3325318231
 21
950.110893674
  0
LINE
  5
5A7
100
AcDbEntity
  8
0
100
AcDbLine
 62
7
  6
CONTINUOUS
 10
1808.4306080344
 20
958.4109247233
 11
1808.4306080344
 21
960.9109247233
  0
LINE
  5
5A8
100
AcDbEntity
  8
0
100
AcDbLine
 62
7
  6
CONTINUOUS
 10
1808.4306080344
 20
961.9109247233
 11
1808.4306080344
 21
964.4109247233
  0
LINE
  5
5A9
100
AcDbEntity
  8
0
100
AcDbLine
 62
7
  6
CONTINUOUS
 10
1809.4306080344
 20
964.4109247233
 11
1809.4306080344
 21
961.9109247233
  0
LINE
  5
5AA
100
AcDbEntity
  8
0
100
AcDbLine
 62
7
  6
CONTINUOUS
 10
1809.4306080344
 20
960.9109247233
 11
1809.4306080344
 21
958.4109247233
  0
LINE
  5
5AB
100
AcDbEntity
  8
0
100
AcDbLine
 62
7
  6
CONTINUOUS
 10
1811.5286842458
 20
950.110893674
 11
1811.5286842458
 21
939.7865178197
  0
LINE
  5
5AC
100
AcDbEntity
  8
0
100
AcDbLine
 62
7
  6
CONTINUOUS
 10
1811.9306080344
 20
961.9109247233
 11
1811.9306080344
 21
960.9109247233
  0
LINE
  5
5AD
100
AcDbEntity
  8
0
100
AcDbLine
 62
7
  6
CONTINUOUS
 10
1814.1267604571
 20
936.1003336204
 11
1814.1267604571
 21
946.4247094747
  0
LINE
  5
5AE
100
AcDbEntity
  8
0
100
AcDbLine
 62
7
  6
CONTINUOUS
 10
1658.4506080344
 20
976.7965163143
 11
1669.4306080344
 21
976.7965163143
  0
LINE
  5
5AF
100
AcDbEntity
  8
0
100
AcDbLine
 62
7
  6
CONTINUOUS
 10
1967.4306080344
 20
976.7965163143
 11
1978.4106080344
 21
976.7965163143
  0
LINE
  5
5B0
100
AcDbEntity
  8
0
100
AcDbLine
 62
7
  6
CONTINUOUS
 10
1980.1106080344
 20
980.3165163143
 11
1978.4106080344
 21
980.3165163143
  0
LINE
  5
5B1
100
AcDbEntity
  8
0
100
AcDbLine
 62
7
  6
CONTINUOUS
 10
1658.4506080344
 20
980.3165163143
 11
1656.7506080344
 21
980.3165163143
  0
LINE
  5
5B2
100
AcDbEntity
  8
0
100
AcDbLine
 62
7
  6
CONTINUOUS
 10
1776.1806080344
 20
981.6609247233
 11
1860.6806080344
 21
981.6609247233
  0
LINE
  5
5B3
100
AcDbEntity
  8
0
100
AcDbLine
 62
7
  6
CONTINUOUS
 10
1830.5286842458
 20
950.110893674
 11
1833.1267604571
 21
946.4247094747
  0
LINE
  5
5B4
100
AcDbEntity
  8
0
100
AcDbLine
 62
7
  6
CONTINUOUS
 10
1822.7344556117
 20
936.1003336204
 11
1822.7344556117
 21
946.4247094747
  0
LINE
  5
5B5
100
AcDbEntity
  8
0
100
AcDbLine
 62
7
  6
CONTINUOUS
 10
1824.9306080344
 20
960.9109247233
 11
1824.9306080344
 21
961.9109247233
  0
LINE
  5
5B6
100
AcDbEntity
  8
0
100
AcDbLine
 62
7
  6
CONTINUOUS
 10
1825.3325318231
 20
939.7865178197
 11
1825.3325318231
 21
950.110893674
  0
LINE
  5
5B7
100
AcDbEntity
  8
0
100
AcDbLine
 62
7
  6
CONTINUOUS
 10
1830.5286842458
 20
950.110893674
 11
1830.5286842458
 21
939.7865178197
  0
LINE
  5
5B8
100
AcDbEntity
  8
0
100
AcDbLine
 62
7
  6
CONTINUOUS
 10
1830.9306080344
 20
961.9109247233
 11
1830.9306080344
 21
960.9109247233
  0
LINE
  5
5B9
100
AcDbEntity
  8
0
100
AcDbLine
 62
7
  6
CONTINUOUS
 10
1833.1267604571
 20
936.1003336204
 11
1833.1267604571
 21
946.4247094747
  0
LINE
  5
5BA
100
AcDbEntity
  8
0
100
AcDbLine
 62
7
  6
CONTINUOUS
 10
1803.7344556117
 20
946.4247094747
 11
1806.3325318231
 21
950.110893674
  0
LINE
  5
5BB
100
AcDbEntity
  8
0
100
AcDbLine
 62
7
  6
CONTINUOUS
 10
1803.7344556117
 20
936.1003336204
 11
1806.3325318231
 21
939.7865178197
  0
LINE
  5
5BC
100
AcDbEntity
  8
0
100
AcDbLine
 62
7
  6
CONTINUOUS
 10
1669.4306080344
 20
996.8581468747
 11
1967.4306080344
 21
996.8581468747
  0
LINE
  5
5BD
100
AcDbEntity
  8
0
100
AcDbLine
 62
7
  6
CONTINUOUS
 10
1866.6806080344
 20
1000.5351021368
 11
1863.9806080344
 21
1000.5351021368
  0
LINE
  5
5BE
100
AcDbEntity
  8
0
100
AcDbLine
 62
7
  6
CONTINUOUS
 10
1772.8806080344
 20
1000.5351021368
 11
1770.1806080344
 21
1000.5351021368
  0
LINE
  5
5BF
100
AcDbEntity
  8
0
100
AcDbLine
 62
7
  6
CONTINUOUS
 10
1771.6806080344
 20
1001.5957623086
 11
1772.8722747011
 21
1001.5957623086
  0
LINE
  5
5C0
100
AcDbEntity
  8
0
100
AcDbLine
 62
7
  6
CONTINUOUS
 10
1863.9889413678
 20
1001.5957623086
 11
1865.1806080344
 21
1001.5957623086
  0
LINE
  5
5C1
100
AcDbEntity
  8
0
100
AcDbLine
 62
7
  6
CONTINUOUS
 10
1753.6598878041
 20
1009.7274902923
 11
1770.1806080344
 21
1009.7274902923
  0
LINE
  5
5C2
100
AcDbEntity
  8
0
100
AcDbLine
 62
7
  6
CONTINUOUS
 10
1866.6806080344
 20
1009.7274902923
 11
1883.2013282648
 21
1009.7274902923
  0
LINE
  5
5C3
100
AcDbEntity
  8
0
100
AcDbLine
 62
7
  6
CONTINUOUS
 10
1881.684669073
 20
1010.788150464
 11
1865.1806080344
 21
1010.788150464
  0
LINE
  5
5C4
100
AcDbEntity
  8
0
100
AcDbLine
 62
7
  6
CONTINUOUS
 10
1771.6806080344
 20
1010.788150464
 11
1755.1765469959
 21
1010.788150464
  0
LINE
  5
5C5
100
AcDbEntity
  8
0
100
AcDbLine
 62
7
  6
CONTINUOUS
 10
1840.1806080344
 20
1015.4904105589
 11
1840.1806080344
 21
1012.8741154685
  0
LINE
  5
5C6
100
AcDbEntity
  8
0
100
AcDbLine
 62
7
  6
CONTINUOUS
 10
1847.4806080344
 20
1015.4904105589
 11
1847.4806080344
 21
1012.8741154685
  0
LINE
  5
5C7
100
AcDbEntity
  8
0
100
AcDbLine
 62
7
  6
CONTINUOUS
 10
1848.2556080344
 20
1103.4403520029
 11
1848.2556080344
 21
1102.0261384405
  0
LINE
  5
5C8
100
AcDbEntity
  8
0
100
AcDbLine
 62
7
  6
CONTINUOUS
 10
1852.7806080344
 20
962.8109247233
 11
1852.7806080344
 21
922.0109247233
  0
LINE
  5
5C9
100
AcDbEntity
  8
0
100
AcDbLine
 62
7
  6
CONTINUOUS
 10
1814.1267604571
 20
936.1003336204
 11
1811.5286842458
 21
932.4141494211
  0
LINE
  5
5CA
100
AcDbEntity
  8
0
100
AcDbLine
 62
7
  6
CONTINUOUS
 10
1822.7344556117
 20
946.4247094747
 11
1825.3325318231
 21
950.110893674
  0
LINE
  5
5CB
100
AcDbEntity
  8
0
100
AcDbLine
 62
7
  6
CONTINUOUS
 10
1822.7344556117
 20
936.1003336204
 11
1825.3325318231
 21
939.7865178197
  0
LINE
  5
5CC
100
AcDbEntity
  8
0
100
AcDbLine
 62
7
  6
CONTINUOUS
 10
1881.684669073
 20
1012.9236129432
 11
1878.1457976255
 21
1012.9236129432
  0
LINE
  5
5CD
100
AcDbEntity
  8
0
100
AcDbLine
 62
7
  6
CONTINUOUS
 10
1758.7154184434
 20
1012.9236129432
 11
1755.1765469959
 21
1012.9236129432
  0
LINE
  5
5CE
100
AcDbEntity
  8
0
100
AcDbLine
 62
7
  6
CONTINUOUS
 10
1753.6598878041
 20
1013.984273115
 11
1758.7154184434
 21
1013.984273115
  0
LINE
  5
5CF
100
AcDbEntity
  8
0
100
AcDbLine
 62
7
  6
CONTINUOUS
 10
1878.1457976255
 20
1013.984273115
 11
1883.2013282648
 21
1013.984273115
  0
LINE
  5
5D0
100
AcDbEntity
  8
0
100
AcDbLine
 62
7
  6
CONTINUOUS
 10
1858.9806080344
 20
1021.5361735381
 11
1777.8806080344
 21
1021.5361735381
  0
LINE
  5
5D1
100
AcDbEntity
  8
0
100
AcDbLine
 62
7
  6
CONTINUOUS
 10
1777.8806080344
 20
1022.5968337099
 11
1858.9806080344
 21
1022.5968337099
  0
LINE
  5
5D2
100
AcDbEntity
  8
0
100
AcDbLine
 62
7
  6
CONTINUOUS
 10
1858.4556080344
 20
1103.4403520029
 11
1858.4556080344
 21
1102.0261384405
  0
LINE
  5
5D3
100
AcDbEntity
  8
0
100
AcDbLine
 62
7
  6
CONTINUOUS
 10
1858.9806080344
 20
1022.5968337099
 11
1858.9806080344
 21
1021.5361735381
  0
LINE
  5
5D4
100
AcDbEntity
  8
0
100
AcDbLine
 62
7
  6
CONTINUOUS
 10
1863.9806080344
 20
996.8581468747
 11
1863.9806080344
 21
1019.0612998039
  0
LINE
  5
5D5
100
AcDbEntity
  8
0
100
AcDbLine
 62
7
  6
CONTINUOUS
 10
1864.6806080344
 20
977.6609247233
 11
1864.6806080344
 21
907.1609247233
  0
LINE
  5
5D6
100
AcDbEntity
  8
0
100
AcDbLine
 62
7
  6
CONTINUOUS
 10
1865.1806080344
 20
1001.5957623086
 11
1865.1806080344
 21
1123.2181286727
  0
LINE
  5
5D7
100
AcDbEntity
  8
0
100
AcDbLine
 62
7
  6
CONTINUOUS
 10
1866.6806080344
 20
1009.7274902923
 11
1866.6806080344
 21
1000.5351021368
  0
LINE
  5
5D8
100
AcDbEntity
  8
0
100
AcDbLine
 62
7
  6
CONTINUOUS
 10
1901.9524664663
 20
1126.6222402272
 11
1878.1457976255
 21
1013.984273115
  0
LINE
  5
5D9
100
AcDbEntity
  8
0
100
AcDbLine
 62
7
  6
CONTINUOUS
 10
1833.1267604571
 20
936.1003336204
 11
1830.5286842458
 21
932.4141494211
  0
LINE
  5
5DA
100
AcDbEntity
  8
0
100
AcDbLine
 62
7
  6
CONTINUOUS
 10
1878.1457976255
 20
1013.984273115
 11
1878.1457976255
 21
1012.9236129432
  0
LINE
  5
5DB
100
AcDbEntity
  8
0
100
AcDbLine
 62
7
  6
CONTINUOUS
 10
1881.684669073
 20
1012.9236129432
 11
1881.684669073
 21
1010.788150464
  0
LINE
  5
5DC
100
AcDbEntity
  8
0
100
AcDbLine
 62
7
  6
CONTINUOUS
 10
1883.2013282648
 20
1009.7274902923
 11
1883.2013282648
 21
1013.984273115
  0
LINE
  5
5DD
100
AcDbEntity
  8
0
100
AcDbLine
 62
7
  6
CONTINUOUS
 10
1906.8975457831
 20
1126.0996550425
 11
1883.2013282648
 21
1013.984273115
  0
LINE
  5
5DE
100
AcDbEntity
  8
0
100
AcDbLine
 62
7
  6
CONTINUOUS
 10
1906.8975457831
 20
1121.8428722198
 11
1883.2013282648
 21
1009.7274902923
  0
LINE
  5
5DF
100
AcDbEntity
  8
0
100
AcDbLine
 62
7
  6
CONTINUOUS
 10
1906.8975457831
 20
1126.0996550425
 11
1906.8975457831
 21
1121.8428722198
  0
LINE
  5
5E0
100
AcDbEntity
  8
0
100
AcDbLine
 62
7
  6
CONTINUOUS
 10
1865.1806080344
 20
1114.0257405173
 11
1771.6806080344
 21
1114.0257405173
  0
LINE
  5
5E1
100
AcDbEntity
  8
0
100
AcDbLine
 62
7
  6
CONTINUOUS
 10
1729.9636702857
 20
1126.0996550425
 11
1734.9087496025
 21
1126.6222402272
  0
LINE
  5
5E2
100
AcDbEntity
  8
0
100
AcDbLine
 62
7
  6
CONTINUOUS
 10
1735.628227755
 20
1123.2181286727
 11
1771.6806080344
 21
1123.2181286727
  0
LINE
  5
5E3
100
AcDbEntity
  8
0
100
AcDbLine
 62
7
  6
CONTINUOUS
 10
1865.1806080344
 20
1123.2181286727
 11
1901.2329883139
 21
1123.2181286727
  0
LINE
  5
5E4
100
AcDbEntity
  8
0
100
AcDbLine
 62
7
  6
CONTINUOUS
 10
1901.9524664663
 20
1126.6222402272
 11
1906.8975457831
 21
1126.0996550425
  0
LINE
  5
5E5
100
AcDbEntity
  8
0
100
AcDbLine
 62
7
  6
CONTINUOUS
 10
1967.4305980899
 20
790.0169413644
 11
1967.4306080344
 21
1200.5048998564
  0
LINE
  5
5E6
100
AcDbEntity
  8
0
100
AcDbLine
 62
7
  6
CONTINUOUS
 10
1978.4106080344
 20
965.3179597862
 11
1978.4106080344
 21
980.3150728425
  0
LINE
  5
5E7
100
AcDbEntity
  8
0
100
AcDbLine
 62
7
  6
CONTINUOUS
 10
1980.1106080344
 20
980.3165163143
 11
1980.1106080344
 21
965.3165163143
  0
LINE
  5
5E8
100
AcDbEntity
  8
0
100
AcDbLine
 62
7
  6
CONTINUOUS
 10
1982.6106080344
 20
976.1163630139
 11
1982.6106080344
 21
969.5166696148
  0
LINE
  5
5E9
100
AcDbEntity
  8
0
100
AcDbLine
 62
7
  6
CONTINUOUS
 10
1967.4306080344
 20
1200.5048998564
 11
1669.4306080344
 21
1200.5048998564
  0
LWPOLYLINE
  5
5EA
100
AcDbEntity
  8
0
100
AcDbPolyline
 62
7
  6
CONTINUOUS
 90
2
 70
1
 43
1.25
 10
1603.7290981857
 20
58.7446566652
 42
1.0
 10
1616.4290981857
 20
58.7446566652
 42
1.0
  0
LWPOLYLINE
  5
5EB
100
AcDbEntity
  8
0
100
AcDbPolyline
 62
7
  6
CONTINUOUS
 90
2
 70
1
 43
1.25
 10
1606.9040981857
 20
58.7446566652
 42
1.0
 10
1613.2540981857
 20
58.7446566652
 42
1.0
  0
ARC
  5
5EC
100
AcDbEntity
  8
0
100
AcDbCircle
 62
7
  6
CONTINUOUS
 10
1921.730403809
 20
219.4546247554
 40
1.1312511807
100
AcDbArc
 50
90.0
 51
180.0
  0
ARC
  5
5ED
100
AcDbEntity
  8
0
100
AcDbCircle
 62
7
  6
CONTINUOUS
 10
1837.936368753
 20
219.6595290382
 40
1.1312511807
100
AcDbArc
 50
90.0
 51
180.0
  0
ARC
  5
5EE
100
AcDbEntity
  8
0
100
AcDbCircle
 62
7
  6
CONTINUOUS
 10
1947.7979309258
 20
221.7171271126
 40
1.1312511762
100
AcDbArc
 50
270.0
 51
360.0
  0
ARC
  5
5EF
100
AcDbEntity
  8
0
100
AcDbCircle
 62
7
  6
CONTINUOUS
 10
1896.9769229858
 20
210.4337936158
 40
1.1312511762
100
AcDbArc
 50
0.0
 51
89.9999995368
  0
ARC
  5
5F0
100
AcDbEntity
  8
0
100
AcDbCircle
 62
7
  6
CONTINUOUS
 10
1871.6498589978
 20
205.8613932226
 40
1.1312511762
100
AcDbArc
 50
90.0
 51
180.0
  0
ARC
  5
5F1
100
AcDbEntity
  8
0
100
AcDbCircle
 62
7
  6
CONTINUOUS
 10
1871.6498589978
 20
203.718082947
 40
1.1312511762
100
AcDbArc
 50
180.0
 51
270.0
  0
ARC
  5
5F2
100
AcDbEntity
  8
0
100
AcDbCircle
 62
7
  6
CONTINUOUS
 10
1907.0159333622
 20
221.6719926014
 40
1.1312511762
100
AcDbArc
 50
270.0
 51
360.0
  0
ARC
  5
5F3
100
AcDbEntity
  8
0
100
AcDbCircle
 62
7
  6
CONTINUOUS
 10
1907.0159333622
 20
223.9804069226
 40
1.1312511762
100
AcDbArc
 50
359.9999995369
 51
90.0
  0
ARC
  5
5F4
100
AcDbEntity
  8
0
100
AcDbCircle
 62
7
  6
CONTINUOUS
 10
1837.9363687486
 20
208.3792164738
 40
1.1312511762
100
AcDbArc
 50
180.0
 51
270.0
  0
ARC
  5
5F5
100
AcDbEntity
  8
0
100
AcDbCircle
 62
7
  6
CONTINUOUS
 10
1881.654491601
 20
217.2690495478
 40
1.1312511762
100
AcDbArc
 50
180.0
 51
270.0
  0
ARC
  5
5F6
100
AcDbEntity
  8
0
100
AcDbCircle
 62
7
  6
CONTINUOUS
 10
1921.7304038042
 20
208.221894211
 40
1.1312511762
100
AcDbArc
 50
180.0
 51
270.0
  0
ARC
  5
5F7
100
AcDbEntity
  8
0
100
AcDbCircle
 62
7
  6
CONTINUOUS
 10
1947.7979309306
 20
223.9804069318
 40
1.1312511716
100
AcDbArc
 50
0.000000539
 51
89.9999999245
  0
ARC
  5
5F8
100
AcDbEntity
  8
0
100
AcDbCircle
 62
7
  6
CONTINUOUS
 10
1947.7979309318
 20
203.6803363994
 40
1.1312511701
100
AcDbArc
 50
270.1250535673
 51
360.0
  0
ARC
  5
5F9
100
AcDbEntity
  8
0
100
AcDbCircle
 62
7
  6
CONTINUOUS
 10
1947.7979309306
 20
205.9593918634
 40
1.1312511716
100
AcDbArc
 50
0.0
 51
90.0
  0
ARC
  5
5FA
100
AcDbEntity
  8
0
100
AcDbCircle
 62
7
  6
CONTINUOUS
 10
1881.6544915966
 20
219.4094902534
 40
1.1312511716
100
AcDbArc
 50
90.0
 51
180.0
  0
ARC
  5
5FB
100
AcDbEntity
  8
0
100
AcDbCircle
 62
7
  6
CONTINUOUS
 10
1860.538363807
 20
208.3792164918
 40
1.1312511716
100
AcDbArc
 50
270.0
 51
360.0
  0
ARC
  5
5FC
100
AcDbEntity
  8
0
100
AcDbCircle
 62
7
  6
CONTINUOUS
 10
1860.538363807
 20
219.6595290474
 40
1.1312511716
100
AcDbArc
 50
0.0000004631
 51
90.0000004631
  0
ARC
  5
5FD
100
AcDbEntity
  8
0
100
AcDbCircle
 62
7
  6
CONTINUOUS
 10
1896.9769229902
 20
208.1238955706
 40
1.1312511716
100
AcDbArc
 50
270.0
 51
360.0
  0
ARC
  5
5FE
100
AcDbEntity
  8
0
100
AcDbCircle
 62
7
  6
CONTINUOUS
 10
1851.3646223802
 20
209.427268945
 40
0.4350966066
100
AcDbArc
 50
90.0000000001
 51
180.0
  0
ARC
  5
5FF
100
AcDbEntity
  8
0
100
AcDbCircle
 62
7
  6
CONTINUOUS
 10
1851.463578277
 20
200.4007547054
 40
0.435096602
100
AcDbArc
 50
180.0
 51
270.0
  0
ARC
  5
600
100
AcDbEntity
  8
0
100
AcDbCircle
 62
7
  6
CONTINUOUS
 10
1858.2384749534
 20
200.4007547054
 40
0.435096602
100
AcDbArc
 50
270.0
 51
360.0
  0
ARC
  5
601
100
AcDbEntity
  8
0
100
AcDbCircle
 62
7
  6
CONTINUOUS
 10
1858.1049926382
 20
209.4272689586
 40
0.4350965928
100
AcDbArc
 50
0.0
 51
89.9999987958
  0
CIRCLE
  5
602
100
AcDbEntity
  8
CG_SYMBOLS
100
AcDbCircle
 62
4
  6
CONTINUOUS
 10
865.1414235606
 20
589.186555692
 40
7.5
  0
CIRCLE
  5
603
100
AcDbEntity
  8
0
100
AcDbCircle
 62
7
  6
CONTINUOUS
 10
900.0664235606
 20
519.456555692
 40
5.1
  0
CIRCLE
  5
604
100
AcDbEntity
  8
0
100
AcDbCircle
 62
7
  6
CONTINUOUS
 10
830.2164235606
 20
646.456555692
 40
5.1
  0
CIRCLE
  5
605
100
AcDbEntity
  8
0
100
AcDbCircle
 62
7
  6
CONTINUOUS
 10
830.2164235606
 20
519.456555692
 40
5.1
  0
CIRCLE
  5
606
100
AcDbEntity
  8
0
100
AcDbCircle
 62
7
  6
CONTINUOUS
 10
900.0664235606
 20
646.456555692
 40
5.1
  0
ARC
  5
607
100
AcDbEntity
  8
0
100
AcDbCircle
 62
7
  6
CONTINUOUS
 10
1026.8212424255
 20
603.1544002566
 40
1.4676618082
100
AcDbArc
 50
270.0071550936
 51
273.8553577696
  0
ARC
  5
608
100
AcDbEntity
  8
0
100
AcDbCircle
 62
7
  6
CONTINUOUS
 10
703.4616046957
 20
603.1544002566
 40
1.4676618082
100
AcDbArc
 50
266.1446422302
 51
269.9928449063
  0
CIRCLE
  5
609
100
AcDbEntity
  8
CG_SYMBOLS
100
AcDbCircle
 62
4
  6
CONTINUOUS
 10
370.351951905
 20
589.186555692
 40
7.5
  0
CIRCLE
  5
60A
100
AcDbEntity
  8
0
100
AcDbCircle
 62
7
  6
CONTINUOUS
 10
370.351951905
 20
609.186555692
 40
7.4998172321
  0
CIRCLE
  5
60B
100
AcDbEntity
  8
0
100
AcDbCircle
 62
7
  6
CONTINUOUS
 10
370.351951905
 20
609.186555692
 40
3.3000426672
  0
ARC
  5
60C
100
AcDbEntity
  8
0
100
AcDbCircle
 62
7
  6
CONTINUOUS
 10
905.6914235606
 20
971.7386046123
 40
5.0
100
AcDbArc
 50
270.0
 51
360.0
  0
ARC
  5
60D
100
AcDbEntity
  8
0
100
AcDbCircle
 62
7
  6
CONTINUOUS
 10
824.5914235606
 20
971.7386046123
 40
5.0
100
AcDbArc
 50
180.0
 51
270.0
  0
ARC
  5
60E
100
AcDbEntity
  8
0
100
AcDbCircle
 62
7
  6
CONTINUOUS
 10
890.5414235606
 20
975.2886046123
 40
3.65
100
AcDbArc
 50
180.0
 51
360.0
  0
ARC
  5
60F
100
AcDbEntity
  8
0
100
AcDbCircle
 62
7
  6
CONTINUOUS
 10
890.5414235606
 20
978.9886046123
 40
3.65
100
AcDbArc
 50
0.0
 51
180.0
  0
ARC
  5
610
100
AcDbEntity
  8
0
100
AcDbCircle
 62
7
  6
CONTINUOUS
 10
839.7414235606
 20
975.2886046123
 40
3.65
100
AcDbArc
 50
180.0
 51
360.0
  0
ARC
  5
611
100
AcDbEntity
  8
0
100
AcDbCircle
 62
7
  6
CONTINUOUS
 10
839.7414235606
 20
978.9886046123
 40
3.65
100
AcDbArc
 50
0.0
 51
180.0
  0
ARC
  5
612
100
AcDbEntity
  8
0
100
AcDbCircle
 62
7
  6
CONTINUOUS
 10
325.9713023292
 20
1266.3699834282
 40
222.0048962489
100
AcDbArc
 50
269.9994059321
 51
270.4095771876
  0
ARC
  5
613
100
AcDbEntity
  8
0
100
AcDbCircle
 62
7
  6
CONTINUOUS
 10
335.0746001361
 20
968.5234516927
 40
67.5539414343
100
AcDbArc
 50
88.8004946309
 51
89.994635584
  0
ARC
  5
614
100
AcDbEntity
  8
0
100
AcDbCircle
 62
7
  6
CONTINUOUS
 10
357.1046096483
 20
1079.1250759143
 40
67.5539414321
100
AcDbArc
 50
268.8004946309
 51
269.9946355841
  0
ARC
  5
615
100
AcDbEntity
  8
0
100
AcDbCircle
 62
7
  6
CONTINUOUS
 10
355.2537639635
 20
1069.9413821689
 40
55.4670241234
100
AcDbArc
 50
268.8004946317
 51
269.9946355833
  0
ARC
  5
616
100
AcDbEntity
  8
0
100
AcDbCircle
 62
7
  6
CONTINUOUS
 10
337.1654179451
 20
979.1288725219
 40
55.4670240873
100
AcDbArc
 50
88.8004946313
 51
89.9946355836
  0
ARC
  5
617
100
AcDbEntity
  8
0
100
AcDbCircle
 62
7
  6
CONTINUOUS
 10
341.1582587728
 20
1001.4899876717
 40
31.7685590531
100
AcDbArc
 50
89.9932073808
 51
91.2845119879
  0
ARC
  5
618
100
AcDbEntity
  8
0
100
AcDbCircle
 62
7
  6
CONTINUOUS
 10
350.292336388
 20
1044.311389059
 40
20.3681668144
100
AcDbArc
 50
269.9932073808
 51
271.284511988
  0
ARC
  5
619
100
AcDbEntity
  8
0
100
AcDbCircle
 62
7
  6
CONTINUOUS
 10
343.2492964809
 20
1011.4088833654
 40
20.3681668144
100
AcDbArc
 50
89.9932073808
 51
91.284511988
  0
ARC
  5
61A
100
AcDbEntity
  8
0
100
AcDbCircle
 62
7
  6
CONTINUOUS
 10
450.4399255776
 20
1161.0021588662
 40
14.653905399
100
AcDbArc
 50
356.3073845962
 51
0.1514268904
  0
ARC
  5
61B
100
AcDbEntity
  8
0
100
AcDbCircle
 62
7
  6
CONTINUOUS
 10
450.9218097023
 20
1160.9698834382
 40
14.1709430926
100
AcDbArc
 50
353.6516304915
 51
356.3121284908
  0
ARC
  5
61C
100
AcDbEntity
  8
0
100
AcDbCircle
 62
7
  6
CONTINUOUS
 10
470.3014007669
 20
1162.11085879
 40
12.1364346981
100
AcDbArc
 50
164.8723376571
 51
165.9685375798
  0
ARC
  5
61D
100
AcDbEntity
  8
0
100
AcDbCircle
 62
7
  6
CONTINUOUS
 10
470.1531860356
 20
1159.849773919
 40
11.983122686
100
AcDbArc
 50
194.4837397492
 51
195.1478867399
  0
ARC
  5
61E
100
AcDbEntity
  8
0
100
AcDbCircle
 62
7
  6
CONTINUOUS
 10
347.0220971197
 20
1284.8648489774
 40
3.5801115987
100
AcDbArc
 50
145.2800628222
 51
151.1831010727
  0
ARC
  5
61F
100
AcDbEntity
  8
0
100
AcDbCircle
 62
7
  6
CONTINUOUS
 10
300.2321986243
 20
1284.8648489775
 40
3.5801115986
100
AcDbArc
 50
145.2800628222
 51
151.1831010728
  0
ARC
  5
620
100
AcDbEntity
  8
0
100
AcDbCircle
 62
7
  6
CONTINUOUS
 10
344.680200249
 20
1282.3836774074
 40
2.0496741667
100
AcDbArc
 50
184.2137724369
 51
189.4777495255
  0
ARC
  5
621
100
AcDbEntity
  8
0
100
AcDbCircle
 62
7
  6
CONTINUOUS
 10
297.8903017536
 20
1282.3836774074
 40
2.0496741666
100
AcDbArc
 50
184.2137724368
 51
189.4777495256
  0
ARC
  5
622
100
AcDbEntity
  8
0
100
AcDbCircle
 62
7
  6
CONTINUOUS
 10
297.2787812311
 20
1283.2766727534
 40
1.8901133891
100
AcDbArc
 50
206.1433677314
 51
208.6586323573
  0
ARC
  5
623
100
AcDbEntity
  8
0
100
AcDbCircle
 62
7
  6
CONTINUOUS
 10
344.0686797262
 20
1283.2766727533
 40
1.8901133889
100
AcDbArc
 50
206.1433677312
 51
208.6586323574
  0
CIRCLE
  5
624
100
AcDbEntity
  8
0
100
AcDbCircle
 62
7
  6
CONTINUOUS
 10
1300.5813171824
 20
609.186555692
 40
7.4998172321
  0
CIRCLE
  5
625
100
AcDbEntity
  8
0
100
AcDbCircle
 62
7
  6
CONTINUOUS
 10
1300.5813171824
 20
609.186555692
 40
3.3000426672
  0
ARC
  5
626
100
AcDbEntity
  8
0
100
AcDbCircle
 62
7
  6
CONTINUOUS
 10
1852.7264375854
 20
1103.7242071646
 40
5.1877989927
100
AcDbArc
 50
238.0202197438
 51
242.6684489802
  0
ARC
  5
627
100
AcDbEntity
  8
0
100
AcDbCircle
 62
7
  6
CONTINUOUS
 10
1782.8764375854
 20
1103.7242071646
 40
5.1877989926
100
AcDbArc
 50
238.0202197437
 51
242.6684489802
  0
ARC
  5
628
100
AcDbEntity
  8
0
100
AcDbCircle
 62
7
  6
CONTINUOUS
 10
1784.1419896909
 20
1103.7117491004
 40
5.1734082764
100
AcDbArc
 50
297.5599466888
 51
302.026504007
  0
ARC
  5
629
100
AcDbEntity
  8
0
100
AcDbCircle
 62
7
  6
CONTINUOUS
 10
1853.9919896908
 20
1103.7117491005
 40
5.1734082765
100
AcDbArc
 50
297.5599466888
 51
302.0265040069
  0
ARC
  5
62A
100
AcDbEntity
  8
0
100
AcDbCircle
 62
7
  6
CONTINUOUS
 10
1776.1806080344
 20
907.1609247233
 40
4.0
100
AcDbArc
 50
180.0
 51
270.0
  0
ARC
  5
62B
100
AcDbEntity
  8
0
100
AcDbCircle
 62
7
  6
CONTINUOUS
 10
1776.1806080344
 20
977.6609247233
 40
4.0
100
AcDbArc
 50
90.0
 51
180.0
  0
ARC
  5
62C
100
AcDbEntity
  8
0
100
AcDbCircle
 62
7
  6
CONTINUOUS
 10
1860.6806080344
 20
977.6609247233
 40
4.0
100
AcDbArc
 50
0.0
 51
90.0
  0
ARC
  5
62D
100
AcDbEntity
  8
0
100
AcDbCircle
 62
7
  6
CONTINUOUS
 10
1860.6806080344
 20
907.1609247233
 40
4.0
100
AcDbArc
 50
270.0
 51
360.0
  0
ARC
  5
62E
100
AcDbEntity
  8
0
100
AcDbCircle
 62
7
  6
CONTINUOUS
 10
1788.0806080344
 20
922.0109247233
 40
4.0
100
AcDbArc
 50
180.0
 51
270.0
  0
ARC
  5
62F
100
AcDbEntity
  8
0
100
AcDbCircle
 62
7
  6
CONTINUOUS
 10
1848.7806080344
 20
922.0109247233
 40
4.0
100
AcDbArc
 50
270.0
 51
360.0
  0
ARC
  5
630
100
AcDbEntity
  8
0
100
AcDbCircle
 62
7
  6
CONTINUOUS
 10
1848.7806080344
 20
962.8109247233
 40
4.0
100
AcDbArc
 50
0.0
 51
90.0
  0
ARC
  5
631
100
AcDbEntity
  8
0
100
AcDbCircle
 62
7
  6
CONTINUOUS
 10
1788.0806080344
 20
962.8109247233
 40
4.0
100
AcDbArc
 50
90.0
 51
180.0
  0
ARC
  5
632
100
AcDbEntity
  8
0
100
AcDbCircle
 62
7
  6
CONTINUOUS
 10
1656.7507925595
 20
966.7845114845
 40
1.4678124142
100
AcDbArc
 50
266.1095018133
 51
269.9927133139
  0
ARC
  5
633
100
AcDbEntity
  8
0
100
AcDbCircle
 62
7
  6
CONTINUOUS
 10
1980.1104235093
 20
966.7845114845
 40
1.4678124142
100
AcDbArc
 50
270.0072866861
 51
273.8904981868
  0
SPLINE
  5
634
100
AcDbEntity
  8
0
100
AcDbSpline
 62
7
  6
CONTINUOUS
 70
0
 71
3
 72
13
 73
9
 74
0
 42
0.0000001
 43
0.0000001
 44
0.0000000001
 40
0.0
 40
0.0
 40
0.0
 40
0.0
 40
0.1317357684
 40
0.2713541552
 40
0.4178991716
 40
0.5930152361
 40
0.7698067128
 40
1.0
 40
1.0
 40
1.0
 40
1.0
 10
1917.3855966356
 20
225.1116581034
 30
0.0
 10
1916.7463016845
 20
225.0640429911
 30
0.0
 10
1915.4294585992
 20
224.9659636516
 30
0.0
 10
1913.6448739631
 20
223.8601332983
 30
0.0
 10
1912.3637551598
 20
222.0036432912
 30
0.0
 10
1911.5307055239
 20
219.7335646777
 30
0.0
 10
1911.0614810999
 20
216.9585849069
 30
0.0
 10
1911.0182782237
 20
214.9977354702
 30
0.0
 10
1910.9958871737
 20
213.8885203282
 30
0.0
  0
SPLINE
  5
635
100
AcDbEntity
  8
0
100
AcDbSpline
 62
7
  6
CONTINUOUS
 70
0
 71
3
 72
13
 73
9
 74
0
 42
0.0000001
 43
0.0000001
 44
0.0000000001
 40
0.0
 40
0.0
 40
0.0
 40
0.0
 40
0.2249509061
 40
0.4029463322
 40
0.5792549365
 40
0.726797924
 40
0.8673671114
 40
1.0
 40
1.0
 40
1.0
 40
1.0
 10
1910.9978726379
 20
213.7163910296
 30
0.0
 10
1911.0198223984
 20
212.6397829893
 30
0.0
 10
1911.0669237825
 20
210.7118803264
 30
0.0
 10
1911.5307051399
 20
207.9690675931
 30
0.0
 10
1912.3637647519
 20
205.6992428719
 30
0.0
 10
1913.6448435959
 20
203.8419649812
 30
0.0
 10
1915.4295644318
 20
202.7387780212
 30
0.0
 10
1916.7460864714
 20
202.6344743151
 30
0.0
 10
1917.3855966356
 20
202.5868431917
 30
0.0
  0
SPLINE
  5
636
100
AcDbEntity
  8
0
100
AcDbSpline
 62
7
  6
CONTINUOUS
 70
0
 71
3
 72
13
 73
9
 74
0
 42
0.0000001
 43
0.0000001
 44
0.0000000001
 40
0.0
 40
0.0
 40
0.0
 40
0.0
 40
0.1604571392
 40
0.3334692485
 40
0.4767982758
 40
0.6242014838
 40
0.7505998515
 40
1.0
 40
1.0
 40
1.0
 40
1.0
 10
1903.0921172002
 20
202.5868317709
 30
0.0
 10
1903.622237601
 20
202.6123561221
 30
0.0
 10
1904.7239576531
 20
202.6654019475
 30
0.0
 10
1906.2054590508
 20
203.3086019168
 30
0.0
 10
1907.321819168
 20
204.3897673816
 30
0.0
 10
1907.9509320007
 20
205.629281817
 30
0.0
 10
1908.4332634252
 20
207.2921031294
 30
0.0
 10
1908.4528364498
 20
208.536479713
 30
0.0
 10
1908.4658261602
 20
209.3623150713
 30
0.0
  0
SPLINE
  5
637
100
AcDbEntity
  8
0
100
AcDbSpline
 62
7
  6
CONTINUOUS
 70
0
 71
3
 72
13
 73
9
 74
0
 42
0.0000001
 43
0.0000001
 44
0.0000000001
 40
0.0
 40
0.0
 40
0.0
 40
0.0
 40
0.2494001485
 40
0.3757985162
 40
0.5232017242
 40
0.6665307515
 40
0.8395428608
 40
1.0
 40
1.0
 40
1.0
 40
1.0
 10
1908.4658261602
 20
209.3623150713
 30
0.0
 10
1908.4528364498
 20
210.1881504386
 30
0.0
 10
1908.4332634252
 20
211.4325270131
 30
0.0
 10
1907.9509320007
 20
213.0953483438
 30
0.0
 10
1907.321819168
 20
214.3348627792
 30
0.0
 10
1906.2054590508
 20
215.4160282257
 30
0.0
 10
1904.7239576531
 20
216.0592281951
 30
0.0
 10
1903.622237601
 20
216.1122740387
 30
0.0
 10
1903.0921172002
 20
216.1377983717
 30
0.0
  0
SPLINE
  5
638
100
AcDbEntity
  8
0
100
AcDbSpline
 62
7
  6
CONTINUOUS
 70
0
 71
3
 72
13
 73
9
 74
0
 42
0.0000001
 43
0.0000001
 44
0.0000000001
 40
0.0
 40
0.0
 40
0.0
 40
0.0
 40
0.1133740464
 40
0.2392044088
 40
0.3655787964
 40
0.4912154373
 40
0.7445390876
 40
1.0
 40
1.0
 40
1.0
 40
1.0
 10
1875.2496877224
 20
225.1116580988
 30
0.0
 10
1874.8867965518
 20
225.0937840111
 30
0.0
 10
1874.1211436549
 20
225.0560720154
 30
0.0
 10
1872.9838420128
 20
224.7162802622
 30
0.0
 10
1871.9664148549
 20
224.030134875
 30
0.0
 10
1870.9271039469
 20
222.7662289111
 30
0.0
 10
1870.2731035968
 20
220.7820647067
 30
0.0
 10
1870.202177155
 20
219.1552005375
 30
0.0
 10
1870.1665649875
 20
218.3383514453
 30
0.0
  0
SPLINE
  5
639
100
AcDbEntity
  8
0
100
AcDbSpline
 62
7
  6
CONTINUOUS
 70
0
 71
3
 72
13
 73
9
 74
0
 42
0.0000001
 43
0.0000001
 44
0.0000000001
 40
0.0
 40
0.0
 40
0.0
 40
0.0
 40
0.2554609124
 40
0.5087845627
 40
0.6344212036
 40
0.7607955912
 40
0.8866259536
 40
1.0
 40
1.0
 40
1.0
 40
1.0
 10
1870.1665649875
 20
218.3383514453
 30
0.0
 10
1870.202177155
 20
217.5215023439
 30
0.0
 10
1870.2731035968
 20
215.8946381656
 30
0.0
 10
1870.9271039469
 20
213.9104739704
 30
0.0
 10
1871.9664148549
 20
212.6465680064
 30
0.0
 10
1872.9838420128
 20
211.9604226284
 30
0.0
 10
1874.1211436549
 20
211.620630866
 30
0.0
 10
1874.8867965518
 20
211.5829188703
 30
0.0
 10
1875.2496877224
 20
211.5650447918
 30
0.0
  0
SPLINE
  5
63A
100
AcDbEntity
  8
0
100
AcDbSpline
 62
7
  6
CONTINUOUS
 70
0
 71
3
 72
12
 73
8
 74
0
 42
0.0000001
 43
0.0000001
 44
0.0000000001
 40
0.0
 40
0.0
 40
0.0
 40
0.0
 40
0.2415790084
 40
0.4893269843
 40
0.7378634303
 40
0.8656387112
 40
1.0
 40
1.0
 40
1.0
 40
1.0
 10
1862.1299231248
 20
202.58683178
 30
0.0
 10
1862.7496810054
 20
202.6060993493
 30
0.0
 10
1864.005022955
 20
202.6451265265
 30
0.0
 10
1865.8420848973
 20
203.3002716688
 30
0.0
 10
1866.9577687792
 20
204.5370123267
 30
0.0
 10
1867.4493020669
 20
205.7727450231
 30
0.0
 10
1867.4581602163
 20
206.4496767787
 30
0.0
 10
1867.4627005689
 20
206.7966463799
 30
0.0
  0
SPLINE
  5
63B
100
AcDbEntity
  8
0
100
AcDbSpline
 62
7
  6
CONTINUOUS
 70
0
 71
3
 72
12
 73
8
 74
0
 42
0.0000001
 43
0.0000001
 44
0.0000000001
 40
0.0
 40
0.0
 40
0.0
 40
0.0
 40
0.1343612888
 40
0.2621365697
 40
0.5106730157
 40
0.7584209916
 40
1.0
 40
1.0
 40
1.0
 40
1.0
 10
1867.4627005689
 20
220.8754245672
 30
0.0
 10
1867.4581602163
 20
221.2223941867
 30
0.0
 10
1867.4493020669
 20
221.8993259423
 30
0.0
 10
1866.9577687792
 20
223.1350586388
 30
0.0
 10
1865.8420848973
 20
224.3717992966
 30
0.0
 10
1864.005022955
 20
225.0269444298
 30
0.0
 10
1862.7496810054
 20
225.0659715979
 30
0.0
 10
1862.1299231248
 20
225.0852391763
 30
0.0
  0
SPLINE
  5
63C
100
AcDbEntity
  8
0
100
AcDbSpline
 62
7
  6
CONTINUOUS
 70
0
 71
3
 72
12
 73
8
 74
0
 42
0.0000001
 43
0.0000001
 44
0.0000000001
 40
0.0
 40
0.0
 40
0.0
 40
0.0
 40
0.1341799809
 40
0.290831959
 40
0.5815217441
 40
0.760783857
 40
1.0
 40
1.0
 40
1.0
 40
1.0
 10
1833.4511993586
 20
225.0852391763
 30
0.0
 10
1832.8256654784
 20
224.9783294942
 30
0.0
 10
1831.469835486
 20
224.7466052638
 30
0.0
 10
1829.1875132851
 20
223.0414876478
 30
0.0
 10
1828.1064896712
 20
220.1727984917
 30
0.0
 10
1827.4739924154
 20
216.9208749503
 30
0.0
 10
1827.4265128264
 20
214.9539633617
 30
0.0
 10
1827.3993718982
 20
213.8296110318
 30
0.0
  0
SPLINE
  5
63D
100
AcDbEntity
  8
0
100
AcDbSpline
 62
7
  6
CONTINUOUS
 70
0
 71
3
 72
12
 73
8
 74
0
 42
0.0000001
 43
0.0000001
 44
0.0000000001
 40
0.0
 40
0.0
 40
0.0
 40
0.0
 40
0.2392679579
 40
0.4185688994
 40
0.7093216488
 40
0.8660075581
 40
1.0
 40
1.0
 40
1.0
 40
1.0
 10
1827.3993718982
 20
213.8296110318
 30
0.0
 10
1827.4265236712
 20
212.7053025199
 30
0.0
 10
1827.4740222066
 20
210.7384675946
 30
0.0
 10
1828.106382979
 20
207.4859922128
 30
0.0
 10
1829.1880670823
 20
204.619973763
 30
0.0
 10
1831.4680130593
 20
202.9093192905
 30
0.0
 10
1832.8254629479
 20
202.6885832768
 30
0.0
 10
1833.4511993586
 20
202.58683178
 30
0.0
  0
SPLINE
  5
63E
100
AcDbEntity
  8
0
100
AcDbSpline
 62
7
  6
CONTINUOUS
 70
0
 71
3
 72
11
 73
7
 74
0
 42
0.0000001
 43
0.0000001
 44
0.0000000001
 40
0.0
 40
0.0
 40
0.0
 40
0.0
 40
0.2898246829
 40
0.5761460441
 40
0.8156475844
 40
1.0
 40
1.0
 40
1.0
 40
1.0
 10
1029.3214235603
 20
605.8865694294
 30
0.0
 10
1029.3214187965
 20
605.382503456
 30
0.0
 10
1029.2157256739
 20
604.3764563882
 30
0.0
 10
1028.7347082901
 20
603.0256249977
 30
0.0
 10
1027.9605361697
 20
602.0198844667
 30
0.0
 10
1027.2398296349
 20
601.7115778188
 30
0.0
 10
1026.9199249535
 20
601.6900598105
 30
0.0
  0
SPLINE
  5
63F
100
AcDbEntity
  8
0
100
AcDbSpline
 62
7
  6
CONTINUOUS
 70
0
 71
3
 72
11
 73
7
 74
0
 42
0.0000001
 43
0.0000001
 44
0.0000000001
 40
0.0
 40
0.0
 40
0.0
 40
0.0
 40
0.2928400497
 40
0.5805756345
 40
0.8181245614
 40
1.0
 40
1.0
 40
1.0
 40
1.0
 10
1029.3214235603
 20
612.4865419545
 30
0.0
 10
1029.3214186589
 20
613.0051683279
 30
0.0
 10
1029.2097381766
 20
614.0378460987
 30
0.0
 10
1028.7041143244
 20
615.4130814214
 30
0.0
 10
1027.8905358263
 20
616.4170921774
 30
0.0
 10
1027.1435312361
 20
616.6863724595
 30
0.0
 10
1026.821425707
 20
616.6863729241
 30
0.0
  0
SPLINE
  5
640
100
AcDbEntity
  8
0
100
AcDbSpline
 62
7
  6
CONTINUOUS
 70
0
 71
3
 72
11
 73
7
 74
0
 42
0.0000001
 43
0.0000001
 44
0.0000000001
 40
0.0
 40
0.0
 40
0.0
 40
0.0
 40
0.2898246829
 40
0.5761460441
 40
0.8156475844
 40
1.0
 40
1.0
 40
1.0
 40
1.0
 10
700.9614235609
 20
605.8865694294
 30
0.0
 10
700.9614283247
 20
605.382503456
 30
0.0
 10
701.0671214473
 20
604.3764563882
 30
0.0
 10
701.5481388311
 20
603.0256249977
 30
0.0
 10
702.3223109515
 20
602.0198844667
 30
0.0
 10
703.0430174863
 20
601.7115778188
 30
0.0
 10
703.3629221678
 20
601.6900598105
 30
0.0
  0
SPLINE
  5
641
100
AcDbEntity
  8
0
100
AcDbSpline
 62
7
  6
CONTINUOUS
 70
0
 71
3
 72
11
 73
7
 74
0
 42
0.0000001
 43
0.0000001
 44
0.0000000001
 40
0.0
 40
0.0
 40
0.0
 40
0.0
 40
0.2928400497
 40
0.5805756345
 40
0.8181245614
 40
1.0
 40
1.0
 40
1.0
 40
1.0
 10
700.9614235609
 20
612.4865419545
 30
0.0
 10
700.9614284623
 20
613.0051683279
 30
0.0
 10
701.0731089446
 20
614.0378460987
 30
0.0
 10
701.5787327968
 20
615.4130814214
 30
0.0
 10
702.3923112949
 20
616.4170921774
 30
0.0
 10
703.1393158851
 20
616.6863724595
 30
0.0
 10
703.4614214142
 20
616.6863729241
 30
0.0
  0
SPLINE
  5
642
100
AcDbEntity
  8
0
100
AcDbSpline
 62
7
  6
CONTINUOUS
 70
0
 71
3
 72
11
 73
7
 74
0
 42
0.0000001
 43
0.0000001
 44
0.0000000001
 40
0.0
 40
0.0
 40
0.0
 40
0.0
 40
0.2094979882
 40
0.4446669138
 40
0.7119894099
 40
1.0
 40
1.0
 40
1.0
 40
1.0
 10
911.3914235606
 20
730.9455221067
 30
0.0
 10
911.3914235606
 20
731.3203744309
 30
0.0
 10
911.148042642
 20
732.1254992987
 30
0.0
 10
910.2157163459
 20
733.0470068527
 30
0.0
 10
908.9067238885
 20
733.6393234214
 30
0.0
 10
907.9067575741
 20
733.7739492314
 30
0.0
 10
907.3914235606
 20
733.7739492314
 30
0.0
  0
SPLINE
  5
643
100
AcDbEntity
  8
0
100
AcDbSpline
 62
7
  6
CONTINUOUS
 70
0
 71
3
 72
11
 73
7
 74
0
 42
0.0000001
 43
0.0000001
 44
0.0000000001
 40
0.0
 40
0.0
 40
0.0
 40
0.0
 40
0.2880108602
 40
0.5553333993
 40
0.7905022209
 40
1.0
 40
1.0
 40
1.0
 40
1.0
 10
822.8914235606
 20
733.7739492314
 30
0.0
 10
822.376089062
 20
733.7739492314
 30
0.0
 10
821.3761221655
 20
733.63932322
 30
0.0
 10
820.0671295321
 20
733.0470060393
 30
0.0
 10
819.1348040361
 20
732.1254983594
 30
0.0
 10
818.8914235606
 20
731.3203740579
 30
0.0
 10
818.8914235606
 20
730.9455221067
 30
0.0
  0
SPLINE
  5
644
100
AcDbEntity
  8
0
100
AcDbSpline
 62
7
  6
CONTINUOUS
 70
0
 71
3
 72
11
 73
7
 74
0
 42
0.0000001
 43
0.0000001
 44
0.0000000001
 40
0.0
 40
0.0
 40
0.0
 40
0.0
 40
0.2880108602
 40
0.5553333993
 40
0.7905022209
 40
1.0
 40
1.0
 40
1.0
 40
1.0
 10
834.7914235606
 20
688.7666026089
 30
0.0
 10
834.276089062
 20
688.7666026089
 30
0.0
 10
833.2761221655
 20
688.9012286204
 30
0.0
 10
831.9671295321
 20
689.4935458011
 30
0.0
 10
831.0348040361
 20
690.4150534809
 30
0.0
 10
830.7914235606
 20
691.2201777825
 30
0.0
 10
830.7914235606
 20
691.5950297337
 30
0.0
  0
SPLINE
  5
645
100
AcDbEntity
  8
0
100
AcDbSpline
 62
7
  6
CONTINUOUS
 70
0
 71
3
 72
11
 73
7
 74
0
 42
0.0000001
 43
0.0000001
 44
0.0000000001
 40
0.0
 40
0.0
 40
0.0
 40
0.0
 40
0.2094979882
 40
0.4446669138
 40
0.7119894099
 40
1.0
 40
1.0
 40
1.0
 40
1.0
 10
899.4914235606
 20
691.5950297337
 30
0.0
 10
899.4914235606
 20
691.2201774095
 30
0.0
 10
899.248042642
 20
690.4150525417
 30
0.0
 10
898.3157163459
 20
689.4935449877
 30
0.0
 10
897.0067238885
 20
688.901228419
 30
0.0
 10
896.0067575741
 20
688.7666026089
 30
0.0
 10
895.4914235606
 20
688.7666026089
 30
0.0
  0
SPLINE
  5
646
100
AcDbEntity
  8
0
100
AcDbSpline
 62
7
  6
CONTINUOUS
 70
0
 71
3
 72
11
 73
7
 74
0
 42
0.0000001
 43
0.0000001
 44
0.0000000001
 40
0.0
 40
0.0
 40
0.0
 40
0.0
 40
0.28570307
 40
0.569275211
 40
0.8095252818
 40
1.0
 40
1.0
 40
1.0
 40
1.0
 10
1029.3214235586
 20
606.1365250478
 30
0.0
 10
1029.3214111697
 20
605.6566820216
 30
0.0
 10
1029.2084242376
 20
604.6961009775
 30
0.0
 10
1028.6969379036
 20
603.4161474892
 30
0.0
 10
1027.8714441346
 20
602.4925170866
 30
0.0
 10
1027.1413311434
 20
602.255021941
 30
0.0
 10
1026.8214257071
 20
602.2550215145
 30
0.0
  0
SPLINE
  5
647
100
AcDbEntity
  8
0
100
AcDbSpline
 62
7
  6
CONTINUOUS
 70
0
 71
3
 72
11
 73
7
 74
0
 42
0.0000001
 43
0.0000001
 44
0.0000000001
 40
0.0
 40
0.0
 40
0.0
 40
0.0
 40
0.190474738
 40
0.4307251918
 40
0.7142975756
 40
1.0
 40
1.0
 40
1.0
 40
1.0
 10
703.4614214141
 20
602.2550215145
 30
0.0
 10
703.1415137086
 20
602.255021941
 30
0.0
 10
702.4113950038
 20
602.4925208814
 30
0.0
 10
701.5858990324
 20
603.4161627575
 30
0.0
 10
701.074415587
 20
604.6961277208
 30
0.0
 10
700.9614331072
 20
605.6567154665
 30
0.0
 10
700.9614235618
 20
606.1365607625
 30
0.0
  0
SPLINE
  5
648
100
AcDbEntity
  8
0
100
AcDbSpline
 62
7
  6
CONTINUOUS
 70
0
 71
3
 72
11
 73
7
 74
0
 42
0.0000001
 43
0.0000001
 44
0.0000000001
 40
0.0
 40
0.0
 40
0.0
 40
0.0
 40
0.2880108602
 40
0.5553333993
 40
0.7905022209
 40
1.0
 40
1.0
 40
1.0
 40
1.0
 10
907.3914235606
 20
678.2660669083
 30
0.0
 10
907.9067580592
 20
678.2660669083
 30
0.0
 10
908.9067249557
 20
678.4006929198
 30
0.0
 10
910.2157175891
 20
678.9930101005
 30
0.0
 10
911.1480430851
 20
679.9145177803
 30
0.0
 10
911.3914235606
 20
680.7196420818
 30
0.0
 10
911.3914235606
 20
681.094494033
 30
0.0
  0
SPLINE
  5
649
100
AcDbEntity
  8
0
100
AcDbSpline
 62
7
  6
CONTINUOUS
 70
0
 71
3
 72
11
 73
7
 74
0
 42
0.0000001
 43
0.0000001
 44
0.0000000001
 40
0.0
 40
0.0
 40
0.0
 40
0.0
 40
0.2094979882
 40
0.4446669138
 40
0.7119894099
 40
1.0
 40
1.0
 40
1.0
 40
1.0
 10
818.8914235606
 20
681.094494033
 30
0.0
 10
818.8914235606
 20
680.7196417088
 30
0.0
 10
819.1348044792
 20
679.9145168411
 30
0.0
 10
820.0671307753
 20
678.9930092871
 30
0.0
 10
821.3761232327
 20
678.4006927184
 30
0.0
 10
822.3760895471
 20
678.2660669083
 30
0.0
 10
822.8914235606
 20
678.2660669083
 30
0.0
  0
SPLINE
  5
64A
100
AcDbEntity
  8
0
100
AcDbSpline
 62
7
  6
CONTINUOUS
 70
0
 71
3
 72
11
 73
7
 74
0
 42
0.0000001
 43
0.0000001
 44
0.0000000001
 40
0.0
 40
0.0
 40
0.0
 40
0.0
 40
0.2880108602
 40
0.5553333993
 40
0.7905022209
 40
1.0
 40
1.0
 40
1.0
 40
1.0
 10
895.4914235606
 20
723.2734135308
 30
0.0
 10
896.0067580592
 20
723.2734135308
 30
0.0
 10
897.0067249557
 20
723.1387875193
 30
0.0
 10
898.3157175891
 20
722.5464703386
 30
0.0
 10
899.2480430851
 20
721.6249626588
 30
0.0
 10
899.4914235606
 20
720.8198383573
 30
0.0
 10
899.4914235606
 20
720.4449864061
 30
0.0
  0
SPLINE
  5
64B
100
AcDbEntity
  8
0
100
AcDbSpline
 62
7
  6
CONTINUOUS
 70
0
 71
3
 72
11
 73
7
 74
0
 42
0.0000001
 43
0.0000001
 44
0.0000000001
 40
0.0
 40
0.0
 40
0.0
 40
0.0
 40
0.2094979882
 40
0.4446669138
 40
0.7119894099
 40
1.0
 40
1.0
 40
1.0
 40
1.0
 10
830.7914235606
 20
720.4449864061
 30
0.0
 10
830.7914235606
 20
720.8198387303
 30
0.0
 10
831.0348044792
 20
721.6249635981
 30
0.0
 10
831.9671307753
 20
722.5464711521
 30
0.0
 10
833.2761232327
 20
723.1387877208
 30
0.0
 10
834.2760895471
 20
723.2734135308
 30
0.0
 10
834.7914235606
 20
723.2734135308
 30
0.0
  0
SPLINE
  5
64C
100
AcDbEntity
  8
0
100
AcDbSpline
 62
7
  6
CONTINUOUS
 70
0
 71
3
 72
11
 73
7
 74
0
 42
0.0000001
 43
0.0000001
 44
0.0000000001
 40
0.0
 40
0.0
 40
0.0
 40
0.0
 40
0.2880108602
 40
0.5553333993
 40
0.7905022209
 40
1.0
 40
1.0
 40
1.0
 40
1.0
 10
834.7914235606
 20
708.5655924821
 30
0.0
 10
834.276089062
 20
708.5655924821
 30
0.0
 10
833.2761221655
 20
708.4309664707
 30
0.0
 10
831.9671295321
 20
707.83864929
 30
0.0
 10
831.0348040361
 20
706.9171416101
 30
0.0
 10
830.7914235606
 20
706.1120173086
 30
0.0
 10
830.7914235606
 20
705.7371653574
 30
0.0
  0
SPLINE
  5
64D
100
AcDbEntity
  8
0
100
AcDbSpline
 62
7
  6
CONTINUOUS
 70
0
 71
3
 72
11
 73
7
 74
0
 42
0.0000001
 43
0.0000001
 44
0.0000000001
 40
0.0
 40
0.0
 40
0.0
 40
0.0
 40
0.2094979882
 40
0.4446669138
 40
0.7119894099
 40
1.0
 40
1.0
 40
1.0
 40
1.0
 10
899.4914235606
 20
705.7371653574
 30
0.0
 10
899.4914235606
 20
706.1120176816
 30
0.0
 10
899.248042642
 20
706.9171425494
 30
0.0
 10
898.3157163459
 20
707.8386501034
 30
0.0
 10
897.0067238885
 20
708.4309666721
 30
0.0
 10
896.0067575741
 20
708.5655924821
 30
0.0
 10
895.4914235606
 20
708.5655924821
 30
0.0
  0
SPLINE
  5
64E
100
AcDbEntity
  8
0
100
AcDbSpline
 62
7
  6
CONTINUOUS
 70
0
 71
3
 72
11
 73
7
 74
0
 42
0.0000001
 43
0.0000001
 44
0.0000000001
 40
0.0
 40
0.0
 40
0.0
 40
0.0
 40
0.2094979882
 40
0.4446669138
 40
0.7119894099
 40
1.0
 40
1.0
 40
1.0
 40
1.0
 10
911.3914235606
 20
678.7610416551
 30
0.0
 10
911.3914235606
 20
678.3861893309
 30
0.0
 10
911.148042642
 20
677.5810644631
 30
0.0
 10
910.2157163459
 20
676.6595569091
 30
0.0
 10
908.9067238885
 20
676.0672403405
 30
0.0
 10
907.9067575741
 20
675.9326145304
 30
0.0
 10
907.3914235606
 20
675.9326145304
 30
0.0
  0
SPLINE
  5
64F
100
AcDbEntity
  8
0
100
AcDbSpline
 62
7
  6
CONTINUOUS
 70
0
 71
3
 72
11
 73
7
 74
0
 42
0.0000001
 43
0.0000001
 44
0.0000000001
 40
0.0
 40
0.0
 40
0.0
 40
0.0
 40
0.2880108602
 40
0.5553333993
 40
0.7905022209
 40
1.0
 40
1.0
 40
1.0
 40
1.0
 10
822.8914235606
 20
675.9326145304
 30
0.0
 10
822.376089062
 20
675.9326145304
 30
0.0
 10
821.3761221655
 20
676.0672405419
 30
0.0
 10
820.0671295321
 20
676.6595577226
 30
0.0
 10
819.1348040361
 20
677.5810654024
 30
0.0
 10
818.8914235606
 20
678.3861897039
 30
0.0
 10
818.8914235606
 20
678.7610416551
 30
0.0
  0
SPLINE
  5
650
100
AcDbEntity
  8
0
100
AcDbSpline
 62
7
  6
CONTINUOUS
 70
0
 71
3
 72
11
 73
7
 74
0
 42
0.0000001
 43
0.0000001
 44
0.0000000001
 40
0.0
 40
0.0
 40
0.0
 40
0.0
 40
0.2928400497
 40
0.5805756345
 40
0.8181245614
 40
1.0
 40
1.0
 40
1.0
 40
1.0
 10
1029.3214235603
 20
1094.9385908749
 30
0.0
 10
1029.3214186589
 20
1095.4572172483
 30
0.0
 10
1029.2097381766
 20
1096.4898950191
 30
0.0
 10
1028.7041143244
 20
1097.8651303417
 30
0.0
 10
1027.8905358263
 20
1098.8691410978
 30
0.0
 10
1027.1435312361
 20
1099.1384213798
 30
0.0
 10
1026.821425707
 20
1099.1384218444
 30
0.0
  0
SPLINE
  5
651
100
AcDbEntity
  8
0
100
AcDbSpline
 62
7
  6
CONTINUOUS
 70
0
 71
3
 72
11
 73
7
 74
0
 42
0.0000001
 43
0.0000001
 44
0.0000000001
 40
0.0
 40
0.0
 40
0.0
 40
0.0
 40
0.2928400497
 40
0.5805756345
 40
0.8181245614
 40
1.0
 40
1.0
 40
1.0
 40
1.0
 10
1029.3214235603
 20
1088.3386183498
 30
0.0
 10
1029.3214186589
 20
1087.8199919763
 30
0.0
 10
1029.2097381766
 20
1086.7873142056
 30
0.0
 10
1028.7041143244
 20
1085.4120788829
 30
0.0
 10
1027.8905358263
 20
1084.4080681268
 30
0.0
 10
1027.1435312361
 20
1084.1387878448
 30
0.0
 10
1026.821425707
 20
1084.1387873802
 30
0.0
  0
SPLINE
  5
652
100
AcDbEntity
  8
0
100
AcDbSpline
 62
7
  6
CONTINUOUS
 70
0
 71
3
 72
11
 73
7
 74
0
 42
0.0000001
 43
0.0000001
 44
0.0000000001
 40
0.0
 40
0.0
 40
0.0
 40
0.0
 40
0.2928400497
 40
0.5805756345
 40
0.8181245614
 40
1.0
 40
1.0
 40
1.0
 40
1.0
 10
700.9614235609
 20
1094.9385908749
 30
0.0
 10
700.9614284623
 20
1095.4572172483
 30
0.0
 10
701.0731089446
 20
1096.4898950191
 30
0.0
 10
701.5787327968
 20
1097.8651303417
 30
0.0
 10
702.3923112949
 20
1098.8691410978
 30
0.0
 10
703.1393158851
 20
1099.1384213798
 30
0.0
 10
703.4614214142
 20
1099.1384218444
 30
0.0
  0
SPLINE
  5
653
100
AcDbEntity
  8
0
100
AcDbSpline
 62
7
  6
CONTINUOUS
 70
0
 71
3
 72
11
 73
7
 74
0
 42
0.0000001
 43
0.0000001
 44
0.0000000001
 40
0.0
 40
0.0
 40
0.0
 40
0.0
 40
0.2928400497
 40
0.5805756345
 40
0.8181245614
 40
1.0
 40
1.0
 40
1.0
 40
1.0
 10
700.9614235609
 20
1088.3386183498
 30
0.0
 10
700.9614284623
 20
1087.8199919763
 30
0.0
 10
701.0731089446
 20
1086.7873142056
 30
0.0
 10
701.5787327968
 20
1085.4120788829
 30
0.0
 10
702.3923112949
 20
1084.4080681268
 30
0.0
 10
703.1393158851
 20
1084.1387878448
 30
0.0
 10
703.4614214142
 20
1084.1387873802
 30
0.0
  0
SPLINE
  5
654
100
AcDbEntity
  8
0
100
AcDbSpline
 62
7
  6
CONTINUOUS
 70
0
 71
3
 72
11
 73
7
 74
0
 42
0.0000001
 43
0.0000001
 44
0.0000000001
 40
0.0
 40
0.0
 40
0.0
 40
0.0
 40
0.2499448488
 40
0.4999038245
 40
0.7499151193
 40
1.0
 40
1.0
 40
1.0
 40
1.0
 10
1005.1414207761
 20
1229.579547646
 30
0.0
 10
1006.4464327064
 20
1229.1854920474
 30
0.0
 10
1008.941574118
 20
1227.9444290426
 30
0.0
 10
1011.8637935033
 20
1224.9848591417
 30
0.0
 10
1013.7194496504
 20
1221.2663134869
 30
0.0
 10
1014.1414136161
 20
1218.5202144058
 30
0.0
 10
1014.1414136161
 20
1217.1562427025
 30
0.0
  0
SPLINE
  5
655
100
AcDbEntity
  8
0
100
AcDbSpline
 62
7
  6
CONTINUOUS
 70
0
 71
3
 72
11
 73
7
 74
0
 42
0.0000001
 43
0.0000001
 44
0.0000000001
 40
0.0
 40
0.0
 40
0.0
 40
0.0
 40
0.2499522473
 40
0.4999091729
 40
0.7499166043
 40
1.0
 40
1.0
 40
1.0
 40
1.0
 10
725.1414263451
 20
1229.579547646
 30
0.0
 10
723.8363829844
 20
1229.1854825568
 30
0.0
 10
721.3412686954
 20
1227.9443424853
 30
0.0
 10
718.4190323759
 20
1224.984782157
 30
0.0
 10
716.5636636506
 20
1221.2661992104
 30
0.0
 10
716.1414335051
 20
1218.5201987823
 30
0.0
 10
716.1414335051
 20
1217.1562427025
 30
0.0
  0
SPLINE
  5
656
100
AcDbEntity
  8
0
100
AcDbSpline
 62
7
  6
CONTINUOUS
 70
0
 71
3
 72
11
 73
7
 74
0
 42
0.0000001
 43
0.0000001
 44
0.0000000001
 40
0.0
 40
0.0
 40
0.0
 40
0.0
 40
0.2880108602
 40
0.5553333993
 40
0.7905022209
 40
1.0
 40
1.0
 40
1.0
 40
1.0
 10
907.3914235606
 20
1010.0512110728
 30
0.0
 10
907.9067580592
 20
1010.0512110728
 30
0.0
 10
908.9067249557
 20
1010.1858370843
 30
0.0
 10
910.2157175891
 20
1010.778154265
 30
0.0
 10
911.1480430851
 20
1011.6996619448
 30
0.0
 10
911.3914235606
 20
1012.5047862464
 30
0.0
 10
911.3914235606
 20
1012.8796381976
 30
0.0
  0
SPLINE
  5
657
100
AcDbEntity
  8
0
100
AcDbSpline
 62
7
  6
CONTINUOUS
 70
0
 71
3
 72
11
 73
7
 74
0
 42
0.0000001
 43
0.0000001
 44
0.0000000001
 40
0.0
 40
0.0
 40
0.0
 40
0.0
 40
0.2094979882
 40
0.4446669138
 40
0.7119894099
 40
1.0
 40
1.0
 40
1.0
 40
1.0
 10
818.8914235606
 20
1012.8796381976
 30
0.0
 10
818.8914235606
 20
1012.5047858734
 30
0.0
 10
819.1348044792
 20
1011.6996610056
 30
0.0
 10
820.0671307753
 20
1010.7781534516
 30
0.0
 10
821.3761232327
 20
1010.1858368829
 30
0.0
 10
822.3760895471
 20
1010.0512110728
 30
0.0
 10
822.8914235606
 20
1010.0512110728
 30
0.0
  0
SPLINE
  5
658
100
AcDbEntity
  8
0
100
AcDbSpline
 62
7
  6
CONTINUOUS
 70
0
 71
3
 72
11
 73
7
 74
0
 42
0.0000001
 43
0.0000001
 44
0.0000000001
 40
0.0
 40
0.0
 40
0.0
 40
0.0
 40
0.2880108602
 40
0.5553333993
 40
0.7905022209
 40
1.0
 40
1.0
 40
1.0
 40
1.0
 10
895.4914235606
 20
1055.0585576953
 30
0.0
 10
896.0067580592
 20
1055.0585576953
 30
0.0
 10
897.0067249557
 20
1054.9239316839
 30
0.0
 10
898.3157175891
 20
1054.3316145032
 30
0.0
 10
899.2480430851
 20
1053.4101068233
 30
0.0
 10
899.4914235606
 20
1052.6049825218
 30
0.0
 10
899.4914235606
 20
1052.2301305706
 30
0.0
  0
SPLINE
  5
659
100
AcDbEntity
  8
0
100
AcDbSpline
 62
7
  6
CONTINUOUS
 70
0
 71
3
 72
11
 73
7
 74
0
 42
0.0000001
 43
0.0000001
 44
0.0000000001
 40
0.0
 40
0.0
 40
0.0
 40
0.0
 40
0.2094979882
 40
0.4446669138
 40
0.7119894099
 40
1.0
 40
1.0
 40
1.0
 40
1.0
 10
830.7914235606
 20
1052.2301305706
 30
0.0
 10
830.7914235606
 20
1052.6049828948
 30
0.0
 10
831.0348044792
 20
1053.4101077626
 30
0.0
 10
831.9671307753
 20
1054.3316153166
 30
0.0
 10
833.2761232327
 20
1054.9239318853
 30
0.0
 10
834.2760895471
 20
1055.0585576953
 30
0.0
 10
834.7914235606
 20
1055.0585576953
 30
0.0
  0
SPLINE
  5
65A
100
AcDbEntity
  8
0
100
AcDbSpline
 62
7
  6
CONTINUOUS
 70
0
 71
3
 72
11
 73
7
 74
0
 42
0.0000001
 43
0.0000001
 44
0.0000000001
 40
0.0
 40
0.0
 40
0.0
 40
0.0
 40
0.2094979882
 40
0.4446669138
 40
0.7119894099
 40
1.0
 40
1.0
 40
1.0
 40
1.0
 10
830.7914235606
 20
1030.0976883195
 30
0.0
 10
830.7914235606
 20
1029.7228359952
 30
0.0
 10
831.0348044792
 20
1028.9177111275
 30
0.0
 10
831.9671307753
 20
1027.9962035735
 30
0.0
 10
833.2761232327
 20
1027.4038870048
 30
0.0
 10
834.2760895471
 20
1027.2692611947
 30
0.0
 10
834.7914235606
 20
1027.2692611947
 30
0.0
  0
SPLINE
  5
65B
100
AcDbEntity
  8
0
100
AcDbSpline
 62
7
  6
CONTINUOUS
 70
0
 71
3
 72
11
 73
7
 74
0
 42
0.0000001
 43
0.0000001
 44
0.0000000001
 40
0.0
 40
0.0
 40
0.0
 40
0.0
 40
0.2880108602
 40
0.5553333993
 40
0.7905022209
 40
1.0
 40
1.0
 40
1.0
 40
1.0
 10
895.4914235606
 20
1027.2692611947
 30
0.0
 10
896.0067580592
 20
1027.2692611947
 30
0.0
 10
897.0067249557
 20
1027.4038872062
 30
0.0
 10
898.3157175891
 20
1027.9962043869
 30
0.0
 10
899.2480430851
 20
1028.9177120667
 30
0.0
 10
899.4914235606
 20
1029.7228363682
 30
0.0
 10
899.4914235606
 20
1030.0976883195
 30
0.0
  0
SPLINE
  5
65C
100
AcDbEntity
  8
0
100
AcDbSpline
 62
7
  6
CONTINUOUS
 70
0
 71
3
 72
10
 73
6
 74
0
 42
0.0000001
 43
0.0000001
 44
0.0000000001
 40
0.0
 40
0.0
 40
0.0
 40
0.0
 40
0.2900173789
 40
0.5777205577
 40
1.0
 40
1.0
 40
1.0
 40
1.0
 10
1026.8214257071
 20
1094.502449859
 30
0.0
 10
1027.1304521288
 20
1094.5024496888
 30
0.0
 10
1027.7510563933
 20
1094.4237419747
 30
0.0
 10
1028.74354533
 20
1094.0568937439
 30
0.0
 10
1029.3214018951
 20
1093.3487035902
 30
0.0
 10
1029.3214235594
 20
1092.8987460554
 30
0.0
  0
SPLINE
  5
65D
100
AcDbEntity
  8
0
100
AcDbSpline
 62
7
  6
CONTINUOUS
 70
0
 71
3
 72
11
 73
7
 74
0
 42
0.0000001
 43
0.0000001
 44
0.0000000001
 40
0.0
 40
0.0
 40
0.0
 40
0.0
 40
0.2880108602
 40
0.5553333993
 40
0.7905022209
 40
1.0
 40
1.0
 40
1.0
 40
1.0
 10
907.3914235606
 20
1067.8925457739
 30
0.0
 10
907.9067580592
 20
1067.8925457739
 30
0.0
 10
908.9067249557
 20
1067.7579197624
 30
0.0
 10
910.2157175891
 20
1067.1656025817
 30
0.0
 10
911.1480430851
 20
1066.2440949019
 30
0.0
 10
911.3914235606
 20
1065.4389706004
 30
0.0
 10
911.3914235606
 20
1065.0641186491
 30
0.0
  0
SPLINE
  5
65E
100
AcDbEntity
  8
0
100
AcDbSpline
 62
7
  6
CONTINUOUS
 70
0
 71
3
 72
10
 73
6
 74
0
 42
0.0000001
 43
0.0000001
 44
0.0000000001
 40
0.0
 40
0.0
 40
0.0
 40
0.0
 40
0.4222794423
 40
0.7099826211
 40
1.0
 40
1.0
 40
1.0
 40
1.0
 10
700.9614235618
 20
1092.8987460554
 30
0.0
 10
700.9614452261
 20
1093.3487035902
 30
0.0
 10
701.5393017912
 20
1094.0568937439
 30
0.0
 10
702.5317907279
 20
1094.4237419747
 30
0.0
 10
703.1523949924
 20
1094.5024496888
 30
0.0
 10
703.4614214141
 20
1094.502449859
 30
0.0
  0
SPLINE
  5
65F
100
AcDbEntity
  8
0
100
AcDbSpline
 62
7
  6
CONTINUOUS
 70
0
 71
3
 72
11
 73
7
 74
0
 42
0.0000001
 43
0.0000001
 44
0.0000000001
 40
0.0
 40
0.0
 40
0.0
 40
0.0
 40
0.2094979882
 40
0.4446669138
 40
0.7119894099
 40
1.0
 40
1.0
 40
1.0
 40
1.0
 10
911.3914235606
 20
1062.7306662712
 30
0.0
 10
911.3914235606
 20
1063.1055185954
 30
0.0
 10
911.148042642
 20
1063.9106434632
 30
0.0
 10
910.2157163459
 20
1064.8321510172
 30
0.0
 10
908.9067238885
 20
1065.4244675859
 30
0.0
 10
907.9067575741
 20
1065.559093396
 30
0.0
 10
907.3914235606
 20
1065.559093396
 30
0.0
  0
SPLINE
  5
660
100
AcDbEntity
  8
0
100
AcDbSpline
 62
7
  6
CONTINUOUS
 70
0
 71
3
 72
11
 73
7
 74
0
 42
0.0000001
 43
0.0000001
 44
0.0000000001
 40
0.0
 40
0.0
 40
0.0
 40
0.0
 40
0.2094979882
 40
0.4446669138
 40
0.7119894099
 40
1.0
 40
1.0
 40
1.0
 40
1.0
 10
818.8914235606
 20
1065.0641186491
 30
0.0
 10
818.8914235606
 20
1065.4389709734
 30
0.0
 10
819.1348044792
 20
1066.2440958411
 30
0.0
 10
820.0671307753
 20
1067.1656033951
 30
0.0
 10
821.3761232327
 20
1067.7579199638
 30
0.0
 10
822.3760895471
 20
1067.8925457739
 30
0.0
 10
822.8914235606
 20
1067.8925457739
 30
0.0
  0
SPLINE
  5
661
100
AcDbEntity
  8
0
100
AcDbSpline
 62
7
  6
CONTINUOUS
 70
0
 71
3
 72
11
 73
7
 74
0
 42
0.0000001
 43
0.0000001
 44
0.0000000001
 40
0.0
 40
0.0
 40
0.0
 40
0.0
 40
0.2880108602
 40
0.5553333993
 40
0.7905022209
 40
1.0
 40
1.0
 40
1.0
 40
1.0
 10
822.8914235606
 20
1065.559093396
 30
0.0
 10
822.376089062
 20
1065.559093396
 30
0.0
 10
821.3761221655
 20
1065.4244673845
 30
0.0
 10
820.0671295321
 20
1064.8321502038
 30
0.0
 10
819.1348040361
 20
1063.910642524
 30
0.0
 10
818.8914235606
 20
1063.1055182224
 30
0.0
 10
818.8914235606
 20
1062.7306662712
 30
0.0
  0
SPLINE
  5
662
100
AcDbEntity
  8
0
100
AcDbSpline
 62
7
  6
CONTINUOUS
 70
0
 71
3
 72
11
 73
7
 74
0
 42
0.0000001
 43
0.0000001
 44
0.0000000001
 40
0.0
 40
0.0
 40
0.0
 40
0.0
 40
0.2880108602
 40
0.5553333993
 40
0.7905022209
 40
1.0
 40
1.0
 40
1.0
 40
1.0
 10
834.7914235606
 20
1020.5517467734
 30
0.0
 10
834.276089062
 20
1020.5517467734
 30
0.0
 10
833.2761221655
 20
1020.6863727849
 30
0.0
 10
831.9671295321
 20
1021.2786899656
 30
0.0
 10
831.0348040361
 20
1022.2001976454
 30
0.0
 10
830.7914235606
 20
1023.005321947
 30
0.0
 10
830.7914235606
 20
1023.3801738982
 30
0.0
  0
SPLINE
  5
663
100
AcDbEntity
  8
0
100
AcDbSpline
 62
7
  6
CONTINUOUS
 70
0
 71
3
 72
11
 73
7
 74
0
 42
0.0000001
 43
0.0000001
 44
0.0000000001
 40
0.0
 40
0.0
 40
0.0
 40
0.0
 40
0.2094979882
 40
0.4446669138
 40
0.7119894099
 40
1.0
 40
1.0
 40
1.0
 40
1.0
 10
899.4914235606
 20
1023.3801738982
 30
0.0
 10
899.4914235606
 20
1023.005321574
 30
0.0
 10
899.248042642
 20
1022.2001967062
 30
0.0
 10
898.3157163459
 20
1021.2786891522
 30
0.0
 10
897.0067238885
 20
1020.6863725835
 30
0.0
 10
896.0067575741
 20
1020.5517467734
 30
0.0
 10
895.4914235606
 20
1020.5517467734
 30
0.0
  0
SPLINE
  5
664
100
AcDbEntity
  8
0
100
AcDbSpline
 62
7
  6
CONTINUOUS
 70
0
 71
3
 72
9
 73
5
 74
0
 42
0.0000001
 43
0.0000001
 44
0.0000000001
 40
0.0
 40
0.0
 40
0.0
 40
0.0
 40
0.4834702555
 40
1.0
 40
1.0
 40
1.0
 40
1.0
 10
105.2181885167
 20
1137.968877694
 30
0.0
 10
104.3808985986
 20
1138.9008032136
 30
0.0
 10
103.1868120224
 20
1141.3806568154
 30
0.0
 10
103.4798427877
 20
1144.0738637832
 30
0.0
 10
103.8750253306
 20
1145.3526749607
 30
0.0
  0
SPLINE
  5
665
100
AcDbEntity
  8
0
100
AcDbSpline
 62
7
  6
CONTINUOUS
 70
0
 71
3
 72
9
 73
5
 74
0
 42
0.0000001
 43
0.0000001
 44
0.0000000001
 40
0.0
 40
0.0
 40
0.0
 40
0.0
 40
0.7540578252
 40
1.0
 40
1.0
 40
1.0
 40
1.0
 10
347.8853920398
 20
1288.8768651557
 30
0.0
 10
346.7857107638
 20
1288.8768651557
 30
0.0
 10
345.2771015694
 20
1288.2762434738
 30
0.0
 10
344.283521787
 20
1287.1989055718
 30
0.0
 10
344.0794390718
 20
1286.9039572805
 30
0.0
  0
SPLINE
  5
666
100
AcDbEntity
  8
0
100
AcDbSpline
 62
7
  6
CONTINUOUS
 70
0
 71
3
 72
8
 73
4
 74
0
 42
0.0000001
 43
0.0000001
 44
0.0000000001
 40
0.0
 40
0.0
 40
0.0
 40
0.0
 40
1.0
 40
1.0
 40
1.0
 40
1.0
 10
343.8853302427
 20
1286.5905061329
 30
0.0
 10
343.7853509897
 20
1286.4084447487
 30
0.0
 10
343.7013022777
 20
1286.2161695347
 30
0.0
 10
343.6399773313
 20
1286.0177219356
 30
0.0
  0
SPLINE
  5
667
100
AcDbEntity
  8
0
100
AcDbSpline
 62
7
  6
CONTINUOUS
 70
0
 71
3
 72
8
 73
4
 74
0
 42
0.0000001
 43
0.0000001
 44
0.0000000001
 40
0.0
 40
0.0
 40
0.0
 40
0.0
 40
1.0
 40
1.0
 40
1.0
 40
1.0
 10
342.7443319347
 20
1283.1194123699
 30
0.0
 10
342.6564536698
 20
1282.8350382006
 30
0.0
 10
342.6141216484
 20
1282.5299043418
 30
0.0
 10
342.6360666718
 20
1282.2330716051
 30
0.0
  0
SPLINE
  5
668
100
AcDbEntity
  8
0
100
AcDbSpline
 62
7
  6
CONTINUOUS
 70
0
 71
3
 72
8
 73
4
 74
0
 42
0.0000001
 43
0.0000001
 44
0.0000000001
 40
0.0
 40
0.0
 40
0.0
 40
0.0
 40
1.0
 40
1.0
 40
1.0
 40
1.0
 10
295.9544334394
 20
1283.1194123699
 30
0.0
 10
295.8665551745
 20
1282.8350382006
 30
0.0
 10
295.824223153
 20
1282.5299043418
 30
0.0
 10
295.8461681764
 20
1282.2330716051
 30
0.0
  0
SPLINE
  5
669
100
AcDbEntity
  8
0
100
AcDbSpline
 62
7
  6
CONTINUOUS
 70
0
 71
3
 72
9
 73
5
 74
0
 42
0.0000001
 43
0.0000001
 44
0.0000000001
 40
0.0
 40
0.0
 40
0.0
 40
0.0
 40
0.7540578252
 40
1.0
 40
1.0
 40
1.0
 40
1.0
 10
301.0954935445
 20
1288.8768651557
 30
0.0
 10
299.9958122685
 20
1288.8768651557
 30
0.0
 10
298.4872030741
 20
1288.2762434738
 30
0.0
 10
297.4936232917
 20
1287.1989055718
 30
0.0
 10
297.2895405764
 20
1286.9039572805
 30
0.0
  0
SPLINE
  5
66A
100
AcDbEntity
  8
0
100
AcDbSpline
 62
7
  6
CONTINUOUS
 70
0
 71
3
 72
8
 73
4
 74
0
 42
0.0000001
 43
0.0000001
 44
0.0000000001
 40
0.0
 40
0.0
 40
0.0
 40
0.0
 40
1.0
 40
1.0
 40
1.0
 40
1.0
 10
297.0954317474
 20
1286.5905061329
 30
0.0
 10
296.9954524943
 20
1286.4084447487
 30
0.0
 10
296.9114037823
 20
1286.2161695347
 30
0.0
 10
296.850078836
 20
1286.0177219356
 30
0.0
  0
SPLINE
  5
66B
100
AcDbEntity
  8
0
100
AcDbSpline
 62
7
  6
CONTINUOUS
 70
0
 71
3
 72
9
 73
5
 74
0
 42
0.0000001
 43
0.0000001
 44
0.0000000001
 40
0.0
 40
0.0
 40
0.0
 40
0.0
 40
0.5169792747
 40
1.0
 40
1.0
 40
1.0
 40
1.0
 10
287.8699816701
 20
1293.6475819653
 30
0.0
 10
286.6070815482
 20
1293.6475819653
 30
0.0
 10
284.1558197023
 20
1292.8430054164
 30
0.0
 10
282.4027206415
 20
1290.8582911375
 30
0.0
 10
282.0543450831
 20
1289.7309474171
 30
0.0
  0
SPLINE
  5
66C
100
AcDbEntity
  8
0
100
AcDbSpline
 62
7
  6
CONTINUOUS
 70
0
 71
3
 72
9
 73
5
 74
0
 42
0.0000001
 43
0.0000001
 44
0.0000000001
 40
0.0
 40
0.0
 40
0.0
 40
0.0
 40
0.535790565
 40
1.0
 40
1.0
 40
1.0
 40
1.0
 10
297.9752011871
 20
1281.1926841022
 30
0.0
 10
297.4875321922
 20
1281.1926841022
 30
0.0
 10
296.5548906526
 20
1281.3531248011
 30
0.0
 10
295.8228578754
 20
1281.99943899
 30
0.0
 10
295.6202206109
 20
1282.3701931381
 30
0.0
  0
SPLINE
  5
66D
100
AcDbEntity
  8
0
100
AcDbSpline
 62
7
  6
CONTINUOUS
 70
0
 71
3
 72
9
 73
5
 74
0
 42
0.0000001
 43
0.0000001
 44
0.0000000001
 40
0.0
 40
0.0
 40
0.0
 40
0.0
 40
0.4830210454
 40
1.0
 40
1.0
 40
1.0
 40
1.0
 10
302.2206158956
 20
1284.0518273223
 30
0.0
 10
301.9663015699
 20
1283.2288658628
 30
0.0
 10
300.6865387638
 20
1281.7800245953
 30
0.0
 10
298.8971177034
 20
1281.1926841022
 30
0.0
 10
297.9752011871
 20
1281.1926841022
 30
0.0
  0
SPLINE
  5
66E
100
AcDbEntity
  8
0
100
AcDbSpline
 62
7
  6
CONTINUOUS
 70
0
 71
3
 72
9
 73
5
 74
0
 42
0.0000001
 43
0.0000001
 44
0.0000000001
 40
0.0
 40
0.0
 40
0.0
 40
0.0
 40
0.4830210454
 40
1.0
 40
1.0
 40
1.0
 40
1.0
 10
349.010514391
 20
1284.0518273223
 30
0.0
 10
348.7562000653
 20
1283.2288658628
 30
0.0
 10
347.4764372592
 20
1281.7800245953
 30
0.0
 10
345.6870161988
 20
1281.1926841022
 30
0.0
 10
344.7650996824
 20
1281.1926841022
 30
0.0
  0
SPLINE
  5
66F
100
AcDbEntity
  8
0
100
AcDbSpline
 62
7
  6
CONTINUOUS
 70
0
 71
3
 72
9
 73
5
 74
0
 42
0.0000001
 43
0.0000001
 44
0.0000000001
 40
0.0
 40
0.0
 40
0.0
 40
0.0
 40
0.535790565
 40
1.0
 40
1.0
 40
1.0
 40
1.0
 10
344.7650996824
 20
1281.1926841022
 30
0.0
 10
344.2774306875
 20
1281.1926841022
 30
0.0
 10
343.344789148
 20
1281.3531248011
 30
0.0
 10
342.6127563707
 20
1281.99943899
 30
0.0
 10
342.4101191063
 20
1282.3701931381
 30
0.0
  0
SPLINE
  5
670
100
AcDbEntity
  8
0
100
AcDbSpline
 62
7
  6
CONTINUOUS
 70
0
 71
3
 72
10
 73
6
 74
0
 42
0.0000001
 43
0.0000001
 44
0.0000000001
 40
0.0
 40
0.0
 40
0.0
 40
0.0
 40
0.3468474143
 40
0.6375497194
 40
1.0
 40
1.0
 40
1.0
 40
1.0
 10
456.6109031183
 20
1163.0653505273
 30
0.0
 10
456.6928765976
 20
1163.8001604332
 30
0.0
 10
456.9446939539
 20
1165.1656455143
 30
0.0
 10
457.5754840536
 20
1167.1013144901
 30
0.0
 10
458.6459753784
 20
1168.499628054
 30
0.0
 10
459.4186038552
 20
1168.4996967279
 30
0.0
  0
SPLINE
  5
671
100
AcDbEntity
  8
0
100
AcDbSpline
 62
7
  6
CONTINUOUS
 70
0
 71
3
 72
14
 73
10
 74
0
 42
0.0000001
 43
0.0000001
 44
0.0000000001
 40
0.0
 40
0.0
 40
0.0
 40
0.0
 40
0.3445431227
 40
0.49482601
 40
0.6279777821
 40
0.7432617835
 40
0.841326999
 40
0.9249625284
 40
1.0
 40
1.0
 40
1.0
 40
1.0
 10
327.5582842571
 20
1044.3707594502
 30
0.0
 10
335.9732144699
 20
1044.4310018021
 30
0.0
 10
348.0916453782
 20
1045.1758703657
 30
0.0
 10
363.178197749
 20
1048.039632951
 30
0.0
 10
372.5319833208
 20
1050.8260138039
 30
0.0
 10
380.2842290018
 20
1054.2998268778
 30
0.0
 10
386.3118070215
 20
1058.4302015649
 30
0.0
 10
390.4991538575
 20
1063.2167071169
 30
0.0
 10
391.934555679
 20
1066.9321257517
 30
0.0
 10
392.2394285711
 20
1068.7393106349
 30
0.0
  0
SPLINE
  5
672
100
AcDbEntity
  8
0
100
AcDbSpline
 62
7
  6
CONTINUOUS
 70
0
 71
3
 72
12
 73
8
 74
0
 42
0.0000001
 43
0.0000001
 44
0.0000000001
 40
0.0
 40
0.0
 40
0.0
 40
0.0
 40
0.2627189789
 40
0.5332353848
 40
0.7863642758
 40
0.899293802
 40
1.0
 40
1.0
 40
1.0
 40
1.0
 10
256.0579657243
 20
1122.1790428059
 30
0.0
 10
265.6480359565
 20
1122.1790428059
 30
0.0
 10
285.1271509665
 20
1120.7679870191
 30
0.0
 10
313.3693762779
 20
1115.3480907637
 30
0.0
 10
335.5797774312
 20
1108.2292402423
 30
0.0
 10
351.084240721
 20
1101.1233898843
 30
0.0
 10
357.8477290151
 20
1097.2026687908
 30
0.0
 10
360.8995786252
 20
1095.1533086809
 30
0.0
  0
SPLINE
  5
673
100
AcDbEntity
  8
0
100
AcDbSpline
 62
7
  6
CONTINUOUS
 70
0
 71
3
 72
13
 73
9
 74
0
 42
0.0000001
 43
0.0000001
 44
0.0000000001
 40
0.0
 40
0.0
 40
0.0
 40
0.0
 40
0.3449298249
 40
0.6285987971
 40
0.7440406657
 40
0.8420585103
 40
0.92541571
 40
1.0
 40
1.0
 40
1.0
 40
1.0
 10
364.6691628635
 20
1003.1444254317
 30
0.0
 10
368.9138438843
 20
1003.1444254317
 30
0.0
 10
376.6551951832
 20
1003.5770129337
 30
0.0
 10
385.685792863
 20
1005.4965467005
 30
0.0
 10
391.3119426124
 20
1007.9570550734
 30
0.0
 10
394.3637028175
 20
1010.0129325559
 30
0.0
 10
396.4849984231
 20
1012.4022331629
 30
0.0
 10
397.2115829467
 20
1014.264616319
 30
0.0
 10
397.3642165069
 20
1015.1696647509
 30
0.0
  0
SPLINE
  5
674
100
AcDbEntity
  8
0
100
AcDbSpline
 62
7
  6
CONTINUOUS
 70
0
 71
3
 72
9
 73
5
 74
0
 42
0.0000001
 43
0.0000001
 44
0.0000000001
 40
0.0
 40
0.0
 40
0.0
 40
0.0
 40
0.6828453462
 40
1.0
 40
1.0
 40
1.0
 40
1.0
 10
239.3242506993
 20
1259.3308459838
 30
0.0
 10
239.2437899984
 20
1259.3070630124
 30
0.0
 10
239.1389208112
 20
1259.276453267
 30
0.0
 10
239.0107240743
 20
1259.190656447
 30
0.0
 10
239.0125015902
 20
1259.1517278235
 30
0.0
  0
SPLINE
  5
675
100
AcDbEntity
  8
0
100
AcDbSpline
 62
7
  6
CONTINUOUS
 70
0
 71
3
 72
10
 73
6
 74
0
 42
0.0000001
 43
0.0000001
 44
0.0000000001
 40
0.0
 40
0.0
 40
0.0
 40
0.0
 40
0.5819355147
 40
0.8307829043
 40
1.0
 40
1.0
 40
1.0
 40
1.0
 10
271.8298560612
 20
1267.8500063508
 30
0.0
 10
270.809441644
 20
1267.8500063508
 30
0.0
 10
269.3505970907
 20
1267.7883691537
 30
0.0
 10
267.6089560724
 20
1267.5973073963
 30
0.0
 10
266.8827055269
 20
1267.476710192
 30
0.0
 10
266.5981564403
 20
1267.3926017674
 30
0.0
  0
SPLINE
  5
676
100
AcDbEntity
  8
0
100
AcDbSpline
 62
7
  6
CONTINUOUS
 70
0
 71
3
 72
11
 73
7
 74
0
 42
0.0000001
 43
0.0000001
 44
0.0000000001
 40
0.0
 40
0.0
 40
0.0
 40
0.0
 40
0.3994491218
 40
0.7132770995
 40
0.916361515
 40
1.0
 40
1.0
 40
1.0
 40
1.0
 10
258.1665939407
 20
1260.5715559165
 30
0.0
 10
257.8347463775
 20
1260.5715559165
 30
0.0
 10
257.2528736989
 20
1260.5803347329
 30
0.0
 10
256.4570487689
 20
1260.6307299702
 30
0.0
 10
256.0308740638
 20
1260.6972037289
 30
0.0
 10
255.7212259173
 20
1260.7804309006
 30
0.0
 10
255.7180565037
 20
1260.8498423399
 30
0.0
  0
SPLINE
  5
677
100
AcDbEntity
  8
0
100
AcDbSpline
 62
7
  6
CONTINUOUS
 70
0
 71
3
 72
10
 73
6
 74
0
 42
0.0000001
 43
0.0000001
 44
0.0000000001
 40
0.0
 40
0.0
 40
0.0
 40
0.0
 40
0.1692173037
 40
0.4180648342
 40
1.0
 40
1.0
 40
1.0
 40
1.0
 10
319.3066958975
 20
1261.0289604999
 30
0.0
 10
319.022146461
 20
1260.9448519719
 30
0.0
 10
318.2958952936
 20
1260.8242547367
 30
0.0
 10
316.5542542691
 20
1260.6331930692
 30
0.0
 10
315.0954100821
 20
1260.5715559165
 30
0.0
 10
314.0749962767
 20
1260.5715559165
 30
0.0
  0
SPLINE
  5
678
100
AcDbEntity
  8
0
100
AcDbSpline
 62
7
  6
CONTINUOUS
 70
0
 71
3
 72
8
 73
4
 74
0
 42
0.0000001
 43
0.0000001
 44
0.0000000001
 40
0.0
 40
0.0
 40
0.0
 40
0.0
 40
1.0
 40
1.0
 40
1.0
 40
1.0
 10
350.0029792044
 20
1288.0400943745
 30
0.0
 10
349.9103750245
 20
1288.1468186819
 30
0.0
 10
349.8059381483
 20
1288.2441425676
 30
0.0
 10
349.6937194757
 20
1288.3300063053
 30
0.0
  0
SPLINE
  5
679
100
AcDbEntity
  8
0
100
AcDbSpline
 62
7
  6
CONTINUOUS
 70
0
 71
3
 72
8
 73
4
 74
0
 42
0.0000001
 43
0.0000001
 44
0.0000000001
 40
0.0
 40
0.0
 40
0.0
 40
0.0
 40
1.0
 40
1.0
 40
1.0
 40
1.0
 10
349.6937194757
 20
1288.3300063053
 30
0.0
 10
349.4539077852
 20
1288.5134974093
 30
0.0
 10
349.1729299395
 20
1288.6485062112
 30
0.0
 10
348.8839358346
 20
1288.7360335753
 30
0.0
  0
SPLINE
  5
67A
100
AcDbEntity
  8
0
100
AcDbSpline
 62
7
  6
CONTINUOUS
 70
0
 71
3
 72
8
 73
4
 74
0
 42
0.0000001
 43
0.0000001
 44
0.0000000001
 40
0.0
 40
0.0
 40
0.0
 40
0.0
 40
1.0
 40
1.0
 40
1.0
 40
1.0
 10
348.8839358346
 20
1288.7360335753
 30
0.0
 10
348.5622253018
 20
1288.8334697322
 30
0.0
 10
348.2215340806
 20
1288.8768651557
 30
0.0
 10
347.8853920398
 20
1288.8768651557
 30
0.0
  0
SPLINE
  5
67B
100
AcDbEntity
  8
0
100
AcDbSpline
 62
7
  6
CONTINUOUS
 70
0
 71
3
 72
8
 73
4
 74
0
 42
0.0000001
 43
0.0000001
 44
0.0000000001
 40
0.0
 40
0.0
 40
0.0
 40
0.0
 40
1.0
 40
1.0
 40
1.0
 40
1.0
 10
349.8209932576
 20
1288.5581108927
 30
0.0
 10
349.9552325817
 20
1288.2846242012
 30
0.0
 10
350.0218656189
 20
1287.9707624813
 30
0.0
 10
350.0201748983
 20
1287.6661113562
 30
0.0
  0
SPLINE
  5
67C
100
AcDbEntity
  8
0
100
AcDbSpline
 62
7
  6
CONTINUOUS
 70
0
 71
3
 72
8
 73
4
 74
0
 42
0.0000001
 43
0.0000001
 44
0.0000000001
 40
0.0
 40
0.0
 40
0.0
 40
0.0
 40
1.0
 40
1.0
 40
1.0
 40
1.0
 10
350.0201748983
 20
1287.6661113562
 30
0.0
 10
350.0188337506
 20
1287.4244498168
 30
0.0
 10
349.9775108206
 20
1287.1810289155
 30
0.0
 10
349.9061597876
 20
1286.950136888
 30
0.0
  0
SPLINE
  5
67D
100
AcDbEntity
  8
0
100
AcDbSpline
 62
7
  6
CONTINUOUS
 70
0
 71
3
 72
8
 73
4
 74
0
 42
0.0000001
 43
0.0000001
 44
0.0000000001
 40
0.0
 40
0.0
 40
0.0
 40
0.0
 40
1.0
 40
1.0
 40
1.0
 40
1.0
 10
303.213080709
 20
1288.0400943745
 30
0.0
 10
303.1204765291
 20
1288.1468186819
 30
0.0
 10
303.0160396529
 20
1288.2441425676
 30
0.0
 10
302.9038209804
 20
1288.3300063053
 30
0.0
  0
SPLINE
  5
67E
100
AcDbEntity
  8
0
100
AcDbSpline
 62
7
  6
CONTINUOUS
 70
0
 71
3
 72
8
 73
4
 74
0
 42
0.0000001
 43
0.0000001
 44
0.0000000001
 40
0.0
 40
0.0
 40
0.0
 40
0.0
 40
1.0
 40
1.0
 40
1.0
 40
1.0
 10
302.9038209804
 20
1288.3300063053
 30
0.0
 10
302.6640092898
 20
1288.5134974093
 30
0.0
 10
302.3830314442
 20
1288.6485062112
 30
0.0
 10
302.0940373392
 20
1288.7360335753
 30
0.0
  0
SPLINE
  5
67F
100
AcDbEntity
  8
0
100
AcDbSpline
 62
7
  6
CONTINUOUS
 70
0
 71
3
 72
8
 73
4
 74
0
 42
0.0000001
 43
0.0000001
 44
0.0000000001
 40
0.0
 40
0.0
 40
0.0
 40
0.0
 40
1.0
 40
1.0
 40
1.0
 40
1.0
 10
302.0940373392
 20
1288.7360335753
 30
0.0
 10
301.7723268065
 20
1288.8334697322
 30
0.0
 10
301.4316355853
 20
1288.8768651557
 30
0.0
 10
301.0954935445
 20
1288.8768651557
 30
0.0
  0
SPLINE
  5
680
100
AcDbEntity
  8
0
100
AcDbSpline
 62
7
  6
CONTINUOUS
 70
0
 71
3
 72
8
 73
4
 74
0
 42
0.0000001
 43
0.0000001
 44
0.0000000001
 40
0.0
 40
0.0
 40
0.0
 40
0.0
 40
1.0
 40
1.0
 40
1.0
 40
1.0
 10
303.0310947623
 20
1288.5581108927
 30
0.0
 10
303.1653340863
 20
1288.2846242012
 30
0.0
 10
303.2319671236
 20
1287.9707624813
 30
0.0
 10
303.2302764029
 20
1287.6661113562
 30
0.0
  0
SPLINE
  5
681
100
AcDbEntity
  8
0
100
AcDbSpline
 62
7
  6
CONTINUOUS
 70
0
 71
3
 72
8
 73
4
 74
0
 42
0.0000001
 43
0.0000001
 44
0.0000000001
 40
0.0
 40
0.0
 40
0.0
 40
0.0
 40
1.0
 40
1.0
 40
1.0
 40
1.0
 10
303.2302764029
 20
1287.6661113562
 30
0.0
 10
303.2289352552
 20
1287.4244498168
 30
0.0
 10
303.1876123253
 20
1287.1810289155
 30
0.0
 10
303.1162612922
 20
1286.950136888
 30
0.0
  0
SPLINE
  5
682
100
AcDbEntity
  8
0
100
AcDbSpline
 62
7
  6
CONTINUOUS
 70
0
 71
3
 72
9
 73
5
 74
0
 42
0.0000001
 43
0.0000001
 44
0.0000000001
 40
0.0
 40
0.0
 40
0.0
 40
0.0
 40
0.31715416
 40
1.0
 40
1.0
 40
1.0
 40
1.0
 10
335.4024925812
 20
1265.8736054113
 30
0.0
 10
335.4042701085
 20
1265.8346768446
 30
0.0
 10
335.2760735555
 20
1265.7488798255
 30
0.0
 10
335.1712042436
 20
1265.7182702426
 30
0.0
 10
335.0907434753
 20
1265.6944872513
 30
0.0
  0
SPLINE
  5
683
100
AcDbEntity
  8
0
100
AcDbSpline
 62
7
  6
CONTINUOUS
 70
0
 71
3
 72
11
 73
7
 74
0
 42
0.0000001
 43
0.0000001
 44
0.0000000001
 40
0.0
 40
0.0
 40
0.0
 40
0.0
 40
0.0836385575
 40
0.2867231653
 40
0.6005510377
 40
1.0
 40
1.0
 40
1.0
 40
1.0
 10
352.1080474946
 20
1267.5717199277
 30
0.0
 10
352.1048781031
 20
1267.6411314285
 30
0.0
 10
351.7952295885
 20
1267.7243586405
 30
0.0
 10
351.3690548273
 20
1267.7908323145
 30
0.0
 10
350.5732299491
 20
1267.8412275796
 30
0.0
 10
349.9913574862
 20
1267.8500063508
 30
0.0
 10
349.6595100544
 20
1267.8500063508
 30
0.0
  0
SPLINE
  5
684
100
AcDbEntity
  8
0
100
AcDbSpline
 62
7
  6
CONTINUOUS
 70
0
 71
3
 72
17
 73
13
 74
0
 42
0.0000001
 43
0.0000001
 44
0.0000000001
 40
0.0
 40
0.0
 40
0.0
 40
0.0
 40
0.0299200528
 40
0.0626228793
 40
0.1001329213
 40
0.1435724868
 40
0.2493157139
 40
0.3786589839
 40
0.5262403825
 40
0.6846512569
 40
0.8454482409
 40
1.0
 40
1.0
 40
1.0
 40
1.0
 10
294.8149932775
 20
1032.4788628584
 30
0.0
 10
294.6812694494
 20
1031.6859406415
 30
0.0
 10
294.6993729258
 20
1029.9653029051
 30
0.0
 10
295.5813834504
 20
1027.3873848792
 30
0.0
 10
297.245834061
 20
1024.7998786768
 30
0.0
 10
300.6868296039
 20
1021.1216148928
 30
0.0
 10
306.8716262241
 20
1016.7883177692
 30
0.0
 10
316.1401966094
 20
1012.2815387413
 30
0.0
 10
327.2145233247
 20
1008.4315407441
 30
0.0
 10
339.4256501145
 20
1005.4805797427
 30
0.0
 10
352.0365703323
 20
1003.6117566638
 30
0.0
 10
360.5154924324
 20
1003.1444254317
 30
0.0
 10
364.6691628635
 20
1003.1444254317
 30
0.0
  0
SPLINE
  5
685
100
AcDbEntity
  8
0
100
AcDbSpline
 62
7
  6
CONTINUOUS
 70
0
 71
3
 72
9
 73
5
 74
0
 42
0.0000001
 43
0.0000001
 44
0.0000000001
 40
0.0
 40
0.0
 40
0.0
 40
0.0
 40
0.4643747529
 40
1.0
 40
1.0
 40
1.0
 40
1.0
 10
222.6533396319
 20
1118.48775682
 30
0.0
 10
227.6946939661
 20
1119.8121146334
 30
0.0
 10
238.8134574896
 20
1121.6644359032
 30
0.0
 10
250.0458036141
 20
1122.1790428059
 30
0.0
 10
256.0579657243
 20
1122.1790428059
 30
0.0
  0
SPLINE
  5
686
100
AcDbEntity
  8
0
100
AcDbSpline
 62
7
  6
CONTINUOUS
 70
0
 71
3
 72
18
 73
14
 74
0
 42
0.0000001
 43
0.0000001
 44
0.0000000001
 40
0.0
 40
0.0
 40
0.0
 40
0.0
 40
0.029915407
 40
0.0626130045
 40
0.1001185056
 40
0.1435517351
 40
0.1933372431
 40
0.2494287097
 40
0.3787528753
 40
0.5263129256
 40
0.684699769
 40
0.845475523
 40
1.0
 40
1.0
 40
1.0
 40
1.0
 10
184.3799027755
 20
1103.8237469976
 30
0.0
 10
184.1087721858
 20
1102.2165752361
 30
0.0
 10
184.1455620738
 20
1098.7290398486
 30
0.0
 10
185.9327979011
 20
1093.5034423213
 30
0.0
 10
189.3078847402
 20
1088.2598290545
 30
0.0
 10
194.1879566136
 20
1083.0344361555
 30
0.0
 10
200.5004517858
 20
1077.8736453811
 30
0.0
 10
211.229482808
 20
1070.8342803944
 30
0.0
 10
227.6148176252
 20
1062.8855043169
 30
0.0
 10
250.0482912761
 20
1055.0816311653
 30
0.0
 10
274.8034890687
 20
1049.1000237246
 30
0.0
 10
300.3637321102
 20
1045.31238565
 30
0.0
 10
317.5500427776
 20
1044.3650871913
 30
0.0
 10
325.9690004844
 20
1044.3650871913
 30
0.0
  0
SPLINE
  5
687
100
AcDbEntity
  8
0
100
AcDbSpline
 62
7
  6
CONTINUOUS
 70
0
 71
3
 72
11
 73
7
 74
0
 42
0.0000001
 43
0.0000001
 44
0.0000000001
 40
0.0
 40
0.0
 40
0.0
 40
0.0
 40
0.2188434853
 40
0.4584419988
 40
0.7194505273
 40
1.0
 40
1.0
 40
1.0
 40
1.0
 10
460.9812600336
 20
1153.4999165708
 30
0.0
 10
461.5430933917
 20
1153.4991362176
 30
0.0
 10
462.7268714877
 20
1153.9623643933
 30
0.0
 10
463.9024675562
 20
1155.4421787583
 30
0.0
 10
464.6668359079
 20
1157.3131261145
 30
0.0
 10
464.9260504205
 20
1158.6878736899
 30
0.0
 10
465.0059884799
 20
1159.4036747662
 30
0.0
  0
SPLINE
  5
688
100
AcDbEntity
  8
0
100
AcDbSpline
 62
7
  6
CONTINUOUS
 70
0
 71
3
 72
11
 73
7
 74
0
 42
0.0000001
 43
0.0000001
 44
0.0000000001
 40
0.0
 40
0.0
 40
0.0
 40
0.0
 40
0.2820400979
 40
0.545926274
 40
0.7855395033
 40
1.0
 40
1.0
 40
1.0
 40
1.0
 10
465.0937797985
 20
1161.0408875956
 30
0.0
 10
465.0915476392
 20
1161.9096402631
 30
0.0
 10
464.9432939428
 20
1163.5966507242
 30
0.0
 10
464.244794522
 20
1165.9315148058
 30
0.0
 10
463.0345453147
 20
1167.8418623129
 30
0.0
 10
461.6408522234
 20
1168.5013135629
 30
0.0
 10
460.9802610802
 20
1168.4997042722
 30
0.0
  0
SPLINE
  5
689
100
AcDbEntity
  8
0
100
AcDbSpline
 62
7
  6
CONTINUOUS
 70
0
 71
3
 72
12
 73
8
 74
0
 42
0.0000001
 43
0.0000001
 44
0.0000000001
 40
0.0
 40
0.0
 40
0.0
 40
0.0
 40
0.1438272087
 40
0.2478349187
 40
0.3740289555
 40
0.6755473475
 40
1.0
 40
1.0
 40
1.0
 40
1.0
 10
459.4186032158
 20
1153.5000887314
 30
0.0
 10
458.9110946726
 20
1153.5000436222
 30
0.0
 10
458.1134392254
 20
1154.1476523696
 30
0.0
 10
457.4937748263
 20
1155.2864158493
 30
0.0
 10
456.8478241954
 20
1157.0662650271
 30
0.0
 10
456.450339655
 20
1159.7062102862
 30
0.0
 10
456.4839725363
 20
1161.9275453519
 30
0.0
 10
456.6109031183
 20
1163.0653505273
 30
0.0
  0
SPLINE
  5
68A
100
AcDbEntity
  8
0
100
AcDbSpline
 62
7
  6
CONTINUOUS
 70
0
 71
3
 72
8
 73
4
 74
0
 42
0.0000001
 43
0.0000001
 44
0.0000000001
 40
0.0
 40
0.0
 40
0.0
 40
0.0
 40
1.0
 40
1.0
 40
1.0
 40
1.0
 10
366.3038979573
 20
1291.0012365809
 30
0.0
 10
366.5032752677
 20
1290.5950438249
 30
0.0
 10
366.5926996543
 20
1290.1230763109
 30
0.0
 10
366.5742276843
 20
1289.6709671945
 30
0.0
  0
SPLINE
  5
68B
100
AcDbEntity
  8
0
100
AcDbSpline
 62
7
  6
CONTINUOUS
 70
0
 71
3
 72
8
 73
4
 74
0
 42
0.0000001
 43
0.0000001
 44
0.0000000001
 40
0.0
 40
0.0
 40
0.0
 40
0.0
 40
1.0
 40
1.0
 40
1.0
 40
1.0
 10
366.5742276843
 20
1289.6709671945
 30
0.0
 10
366.5621730654
 20
1289.3759254033
 30
0.0
 10
366.5077474272
 20
1289.0806567255
 30
0.0
 10
366.4205644367
 20
1288.7985324647
 30
0.0
  0
SPLINE
  5
68C
100
AcDbEntity
  8
0
100
AcDbSpline
 62
7
  6
CONTINUOUS
 70
0
 71
3
 72
9
 73
5
 74
0
 42
0.0000001
 43
0.0000001
 44
0.0000000001
 40
0.0
 40
0.0
 40
0.0
 40
0.0
 40
0.4635976778
 40
1.0
 40
1.0
 40
1.0
 40
1.0
 10
365.8463351452
 20
1291.9336515305
 30
0.0
 10
365.5842599242
 20
1292.46757962
 30
0.0
 10
364.5747256087
 20
1293.4153528388
 30
0.0
 10
363.2562135527
 20
1293.6475819653
 30
0.0
 10
362.5680282837
 20
1293.6475819653
 30
0.0
  0
SPLINE
  5
68D
100
AcDbEntity
  8
0
100
AcDbSpline
 62
7
  6
CONTINUOUS
 70
0
 71
3
 72
9
 73
5
 74
0
 42
0.0000001
 43
0.0000001
 44
0.0000000001
 40
0.0
 40
0.0
 40
0.0
 40
0.0
 40
0.2651183197
 40
1.0
 40
1.0
 40
1.0
 40
1.0
 10
244.1720239437
 20
985.3440391613
 30
0.0
 10
243.7787953339
 20
985.4537253263
 30
0.0
 10
242.3231351213
 20
985.954600964
 30
0.0
 10
240.9892156569
 20
986.8500088225
 30
0.0
 10
240.2329394251
 20
987.6917723232
 30
0.0
  0
SPLINE
  5
68E
100
AcDbEntity
  8
0
100
AcDbSpline
 62
7
  6
CONTINUOUS
 70
0
 71
3
 72
9
 73
5
 74
0
 42
0.0000001
 43
0.0000001
 44
0.0000000001
 40
0.0
 40
0.0
 40
0.0
 40
0.0
 40
0.4753383876
 40
1.0
 40
1.0
 40
1.0
 40
1.0
 10
513.3659032386
 20
995.0755482301
 30
0.0
 10
512.646532761
 20
992.7476645116
 30
0.0
 10
509.4224810894
 20
988.3902515672
 30
0.0
 10
504.6853901338
 20
985.9665095055
 30
0.0
 10
502.0690971352
 20
985.3440391613
 30
0.0
  0
SPLINE
  5
68F
100
AcDbEntity
  8
0
100
AcDbSpline
 62
7
  6
CONTINUOUS
 70
0
 71
3
 72
15
 73
11
 74
0
 42
0.0000001
 43
0.0000001
 44
0.0000000001
 40
0.0
 40
0.0
 40
0.0
 40
0.0
 40
0.1775281362
 40
0.3450391141
 40
0.4986874133
 40
0.6353154362
 40
0.7527943967
 40
0.8505929941
 40
0.9308411166
 40
1.0
 40
1.0
 40
1.0
 40
1.0
 10
317.6617719717
 20
1125.7219831843
 30
0.0
 10
323.2127342899
 20
1124.3244181394
 30
0.0
 10
333.9201092506
 20
1121.2680382674
 30
0.0
 10
349.0502403366
 20
1115.7828193665
 30
0.0
 10
362.4973494253
 20
1109.6492819015
 30
0.0
 10
373.8929873295
 20
1103.0403414233
 30
0.0
 10
382.9456388572
 20
1096.131410207
 30
0.0
 10
389.435886539
 20
1089.063496714
 30
0.0
 10
393.2112371689
 20
1081.8911419957
 30
0.0
 10
393.6170261337
 20
1076.9020694073
 30
0.0
 10
393.246066087
 20
1074.703192054
 30
0.0
  0
SPLINE
  5
690
100
AcDbEntity
  8
0
100
AcDbSpline
 62
7
  6
CONTINUOUS
 70
0
 71
3
 72
8
 73
4
 74
0
 42
0.0000001
 43
0.0000001
 44
0.0000000001
 40
0.0
 40
0.0
 40
0.0
 40
0.0
 40
1.0
 40
1.0
 40
1.0
 40
1.0
 10
365.9630016367
 20
1289.7309474171
 30
0.0
 10
366.0838021201
 20
1290.1218579248
 30
0.0
 10
366.1417731335
 20
1290.541454054
 30
0.0
 10
366.1109866861
 20
1290.9494442211
 30
0.0
  0
SPLINE
  5
691
100
AcDbEntity
  8
0
100
AcDbSpline
 62
7
  6
CONTINUOUS
 70
0
 71
3
 72
8
 73
4
 74
0
 42
0.0000001
 43
0.0000001
 44
0.0000000001
 40
0.0
 40
0.0
 40
0.0
 40
0.0
 40
1.0
 40
1.0
 40
1.0
 40
1.0
 10
366.1109866861
 20
1290.9494442211
 30
0.0
 10
366.0854242823
 20
1291.288203975
 30
0.0
 10
365.9960258147
 20
1291.6286854491
 30
0.0
 10
365.8463351452
 20
1291.9336515305
 30
0.0
  0
SPLINE
  5
692
100
AcDbEntity
  8
0
100
AcDbSpline
 62
7
  6
CONTINUOUS
 70
0
 71
3
 72
14
 73
10
 74
0
 42
0.0000001
 43
0.0000001
 44
0.0000000001
 40
0.0
 40
0.0
 40
0.0
 40
0.0
 40
0.3418210884
 40
0.4971555242
 40
0.6361580564
 40
0.755679516
 40
0.8542898622
 40
0.9335066601
 40
1.0
 40
1.0
 40
1.0
 40
1.0
 10
353.3907891458
 20
1046.3945799065
 30
0.0
 10
359.5767651988
 20
1045.1953184671
 30
0.0
 10
368.486618931
 20
1042.8664938364
 30
0.0
 10
379.3994848045
 20
1038.540550717
 30
0.0
 10
386.2012628052
 20
1035.0529975976
 30
0.0
 10
391.6654353098
 20
1031.3394528795
 30
0.0
 10
395.6268032599
 20
1027.4990863368
 30
0.0
 10
397.9977795891
 20
1023.5749232308
 30
0.0
 10
398.3112194152
 20
1020.7812191583
 30
0.0
 10
398.1073763296
 20
1019.5725450338
 30
0.0
  0
SPLINE
  5
693
100
AcDbEntity
  8
0
100
AcDbSpline
 62
7
  6
CONTINUOUS
 70
0
 71
3
 72
10
 73
6
 74
0
 42
0.0000001
 43
0.0000001
 44
0.0000000001
 40
0.0
 40
0.0
 40
0.0
 40
0.0
 40
0.3467846436
 40
0.6376000029
 40
1.0
 40
1.0
 40
1.0
 40
1.0
 10
447.8154007999
 20
1162.0959623343
 30
0.0
 10
447.8588933116
 20
1162.4858290162
 30
0.0
 10
447.9926227821
 20
1163.2104356943
 30
0.0
 10
448.3271481871
 20
1164.2378445098
 30
0.0
 10
448.8954060895
 20
1164.97943254
 30
0.0
 10
449.3053553097
 20
1164.9797325239
 30
0.0
  0
SPLINE
  5
694
100
AcDbEntity
  8
0
100
AcDbSpline
 62
7
  6
CONTINUOUS
 70
0
 71
3
 72
8
 73
4
 74
0
 42
0.0000001
 43
0.0000001
 44
0.0000000001
 40
0.0
 40
0.0
 40
0.0
 40
0.0
 40
1.0
 40
1.0
 40
1.0
 40
1.0
 10
300.6379307446
 20
1289.8092801081
 30
0.0
 10
300.974111792
 20
1289.8092801081
 30
0.0
 10
301.3148438815
 20
1289.7658744055
 30
0.0
 10
301.6365878662
 20
1289.6684141315
 30
0.0
  0
SPLINE
  5
695
100
AcDbEntity
  8
0
100
AcDbSpline
 62
7
  6
CONTINUOUS
 70
0
 71
3
 72
9
 73
5
 74
0
 42
0.0000001
 43
0.0000001
 44
0.0000000001
 40
0.0
 40
0.0
 40
0.0
 40
0.0
 40
0.2698965207
 40
1.0
 40
1.0
 40
1.0
 40
1.0
 10
301.6365878662
 20
1289.6684141315
 30
0.0
 10
301.7924739254
 20
1289.621194296
 30
0.0
 10
302.3545296394
 20
1289.4025578553
 30
0.0
 10
302.8369491934
 20
1288.9536449858
 30
0.0
 10
303.0310947623
 20
1288.5581108927
 30
0.0
  0
SPLINE
  5
696
100
AcDbEntity
  8
0
100
AcDbSpline
 62
7
  6
CONTINUOUS
 70
0
 71
3
 72
9
 73
5
 74
0
 42
0.0000001
 43
0.0000001
 44
0.0000000001
 40
0.0
 40
0.0
 40
0.0
 40
0.0
 40
0.4830210454
 40
1.0
 40
1.0
 40
1.0
 40
1.0
 10
296.392516036
 20
1286.950136888
 30
0.0
 10
296.6468303617
 20
1287.7730983475
 30
0.0
 10
297.9265931678
 20
1289.221939615
 30
0.0
 10
299.7160142282
 20
1289.8092801081
 30
0.0
 10
300.6379307446
 20
1289.8092801081
 30
0.0
  0
SPLINE
  5
697
100
AcDbEntity
  8
0
100
AcDbSpline
 62
7
  6
CONTINUOUS
 70
0
 71
3
 72
8
 73
4
 74
0
 42
0.0000001
 43
0.0000001
 44
0.0000000001
 40
0.0
 40
0.0
 40
0.0
 40
0.0
 40
1.0
 40
1.0
 40
1.0
 40
1.0
 10
295.5820371694
 20
1282.4438533176
 30
0.0
 10
295.4691739746
 20
1282.673790275
 30
0.0
 10
295.4033535587
 20
1282.9315210678
 30
0.0
 10
295.3871167678
 20
1283.1871486715
 30
0.0
  0
SPLINE
  5
698
100
AcDbEntity
  8
0
100
AcDbSpline
 62
7
  6
CONTINUOUS
 70
0
 71
3
 72
8
 73
4
 74
0
 42
0.0000001
 43
0.0000001
 44
0.0000000001
 40
0.0
 40
0.0
 40
0.0
 40
0.0
 40
1.0
 40
1.0
 40
1.0
 40
1.0
 10
295.3871167678
 20
1283.1871486715
 30
0.0
 10
295.3686996249
 20
1283.4771031432
 30
0.0
 10
295.4110898262
 20
1283.774240509
 30
0.0
 10
295.4968706394
 20
1284.0518273223
 30
0.0
  0
SPLINE
  5
699
100
AcDbEntity
  8
0
100
AcDbSpline
 62
7
  6
CONTINUOUS
 70
0
 71
3
 72
9
 73
5
 74
0
 42
0.0000001
 43
0.0000001
 44
0.0000000001
 40
0.0
 40
0.0
 40
0.0
 40
0.0
 40
0.31715416
 40
1.0
 40
1.0
 40
1.0
 40
1.0
 10
255.7180565037
 20
1260.8498423399
 30
0.0
 10
255.7162789763
 20
1260.8887709066
 30
0.0
 10
255.8444755293
 20
1260.9745679257
 30
0.0
 10
255.9493448412
 20
1261.0051775086
 30
0.0
 10
256.0298056095
 20
1261.0289604999
 30
0.0
  0
SPLINE
  5
69A
100
AcDbEntity
  8
0
100
AcDbSpline
 62
7
  6
CONTINUOUS
 70
0
 71
3
 72
9
 73
5
 74
0
 42
0.0000001
 43
0.0000001
 44
0.0000000001
 40
0.0
 40
0.0
 40
0.0
 40
0.0
 40
0.31715416
 40
1.0
 40
1.0
 40
1.0
 40
1.0
 10
352.2549979225
 20
1264.2933666288
 30
0.0
 10
352.2567754498
 20
1264.2544380621
 30
0.0
 10
352.1285788969
 20
1264.1686410431
 30
0.0
 10
352.0237095849
 20
1264.1380314602
 30
0.0
 10
351.9432488166
 20
1264.1142484688
 30
0.0
  0
SPLINE
  5
69B
100
AcDbEntity
  8
0
100
AcDbSpline
 62
7
  6
CONTINUOUS
 70
0
 71
3
 72
9
 73
5
 74
0
 42
0.0000001
 43
0.0000001
 44
0.0000000001
 40
0.0
 40
0.0
 40
0.0
 40
0.0
 40
0.2559771429
 40
1.0
 40
1.0
 40
1.0
 40
1.0
 10
458.1767068081
 20
1163.0653505273
 30
0.0
 10
458.1176653744
 20
1162.5360968668
 30
0.0
 10
457.983580535
 20
1160.4606143032
 30
0.0
 10
458.163722035
 20
1158.3513962202
 30
0.0
 10
458.5509030703
 20
1156.8527321605
 30
0.0
  0
SPLINE
  5
69C
100
AcDbEntity
  8
0
100
AcDbSpline
 62
7
  6
CONTINUOUS
 70
0
 71
3
 72
9
 73
5
 74
0
 42
0.0000001
 43
0.0000001
 44
0.0000000001
 40
0.0
 40
0.0
 40
0.0
 40
0.0
 40
0.2944025197
 40
1.0
 40
1.0
 40
1.0
 40
1.0
 10
458.5864221131
 20
1156.7184480544
 30
0.0
 10
458.6614921134
 20
1156.4411851122
 30
0.0
 10
458.9514481173
 20
1155.5141274086
 30
0.0
 10
459.3812730528
 20
1154.597279087
 30
0.0
 10
459.8478600318
 20
1154.0910642002
 30
0.0
  0
SPLINE
  5
69D
100
AcDbEntity
  8
0
100
AcDbSpline
 62
7
  6
CONTINUOUS
 70
0
 71
3
 72
9
 73
5
 74
0
 42
0.0000001
 43
0.0000001
 44
0.0000000001
 40
0.0
 40
0.0
 40
0.0
 40
0.0
 40
0.2785548245
 40
1.0
 40
1.0
 40
1.0
 40
1.0
 10
459.8478600318
 20
1154.0910642002
 30
0.0
 10
459.9079277473
 20
1154.0258948467
 30
0.0
 10
460.1335186729
 20
1153.8024966304
 30
0.0
 10
460.4117894609
 20
1153.6236369386
 30
0.0
 10
460.6308494896
 20
1153.5550492053
 30
0.0
  0
SPLINE
  5
69E
100
AcDbEntity
  8
0
100
AcDbSpline
 62
7
  6
CONTINUOUS
 70
0
 71
3
 72
8
 73
4
 74
0
 42
0.0000001
 43
0.0000001
 44
0.0000000001
 40
0.0
 40
0.0
 40
0.0
 40
0.0
 40
1.0
 40
1.0
 40
1.0
 40
1.0
 10
460.6308494896
 20
1153.5550492053
 30
0.0
 10
460.7438537789
 20
1153.5196675425
 30
0.0
 10
460.8633901436
 20
1153.5002765732
 30
0.0
 10
460.9818036915
 20
1153.5000252894
 30
0.0
  0
SPLINE
  5
69F
100
AcDbEntity
  8
0
100
AcDbSpline
 62
7
  6
CONTINUOUS
 70
0
 71
3
 72
9
 73
5
 74
0
 42
0.0000001
 43
0.0000001
 44
0.0000000001
 40
0.0
 40
0.0
 40
0.0
 40
0.0
 40
0.4814418871
 40
1.0
 40
1.0
 40
1.0
 40
1.0
 10
462.0516507635
 20
1161.9086870755
 30
0.0
 10
461.5241528109
 20
1162.2967087704
 30
0.0
 10
460.229753652
 20
1162.8007231109
 30
0.0
 10
458.8820957165
 20
1163.0652529308
 30
0.0
 10
458.1767719676
 20
1163.065253235
 30
0.0
  0
SPLINE
  5
6A0
100
AcDbEntity
  8
0
100
AcDbSpline
 62
7
  6
CONTINUOUS
 70
0
 71
3
 72
15
 73
11
 74
0
 42
0.0000001
 43
0.0000001
 44
0.0000000001
 40
0.0
 40
0.0
 40
0.0
 40
0.0
 40
0.334328408
 40
0.4720260251
 40
0.5703752755
 40
0.6068198974
 40
0.640373781
 40
0.7226697101
 40
0.8445566041
 40
1.0
 40
1.0
 40
1.0
 40
1.0
 10
464.5224473898
 20
1160.0910916695
 30
0.0
 10
464.6152710422
 20
1160.9231829524
 30
0.0
 10
464.5773050842
 20
1162.1362517385
 30
0.0
 10
464.1685197204
 20
1163.5028113467
 30
0.0
 10
463.7916426509
 20
1164.1072514219
 30
0.0
 10
463.4062426893
 20
1164.3105730056
 30
0.0
 10
463.0060876868
 20
1164.2897215948
 30
0.0
 10
462.5567545379
 20
1163.8182165251
 30
0.0
 10
462.2267126135
 20
1162.9850856245
 30
0.0
 10
462.0948317645
 20
1162.2955679334
 30
0.0
 10
462.0516720308
 20
1161.9086937898
 30
0.0
  0
SPLINE
  5
6A1
100
AcDbEntity
  8
0
100
AcDbSpline
 62
7
  6
CONTINUOUS
 70
0
 71
3
 72
11
 73
7
 74
0
 42
0.0000001
 43
0.0000001
 44
0.0000000001
 40
0.0
 40
0.0
 40
0.0
 40
0.0
 40
0.0836385575
 40
0.2867231653
 40
0.6005510377
 40
1.0
 40
1.0
 40
1.0
 40
1.0
 10
239.0125015902
 20
1259.1517278235
 30
0.0
 10
239.0156709818
 20
1259.0823163227
 30
0.0
 10
239.3253194964
 20
1258.9990891107
 30
0.0
 10
239.7514942576
 20
1258.9326154367
 30
0.0
 10
240.5473191357
 20
1258.8822201715
 30
0.0
 10
241.1291915986
 20
1258.8734414003
 30
0.0
 10
241.4610390304
 20
1258.8734414003
 30
0.0
  0
SPLINE
  5
6A2
100
AcDbEntity
  8
0
100
AcDbSpline
 62
7
  6
CONTINUOUS
 70
0
 71
3
 72
13
 73
9
 74
0
 42
0.0000001
 43
0.0000001
 44
0.0000000001
 40
0.0
 40
0.0
 40
0.0
 40
0.0
 40
0.3553846151
 40
0.5178851282
 40
0.6541425781
 40
0.8279214381
 40
0.901165796
 40
1.0
 40
1.0
 40
1.0
 40
1.0
 10
462.0516720308
 20
1161.9086937898
 30
0.0
 10
461.9785306999
 20
1161.2530390926
 30
0.0
 10
461.9809664182
 20
1160.2849158786
 30
0.0
 10
462.2243263598
 20
1159.0762519377
 30
0.0
 10
462.4981060757
 20
1158.284213975
 30
0.0
 10
463.0545507405
 20
1157.5716426901
 30
0.0
 10
463.7211898906
 20
1157.8228698
 30
0.0
 10
463.906252758
 20
1158.0942369276
 30
0.0
 10
463.9989562043
 20
1158.2525656618
 30
0.0
  0
SPLINE
  5
6A3
100
AcDbEntity
  8
0
100
AcDbSpline
 62
7
  6
CONTINUOUS
 70
0
 71
3
 72
9
 73
5
 74
0
 42
0.0000001
 43
0.0000001
 44
0.0000000001
 40
0.0
 40
0.0
 40
0.0
 40
0.0
 40
0.2101567919
 40
1.0
 40
1.0
 40
1.0
 40
1.0
 10
463.9989562043
 20
1158.2525656618
 30
0.0
 10
464.0668948674
 20
1158.3685984845
 30
0.0
 10
464.3405000045
 20
1158.9494368818
 30
0.0
 10
464.4664186071
 20
1159.5888622661
 30
0.0
 10
464.5224473898
 20
1160.0910916695
 30
0.0
  0
SPLINE
  5
6A4
100
AcDbEntity
  8
0
100
AcDbSpline
 62
7
  6
CONTINUOUS
 70
0
 71
3
 72
13
 73
9
 74
0
 42
0.0000001
 43
0.0000001
 44
0.0000000001
 40
0.0
 40
0.0
 40
0.0
 40
0.0
 40
0.3309967577
 40
0.603050168
 40
0.717751294
 40
0.8199795743
 40
0.9126321598
 40
1.0
 40
1.0
 40
1.0
 40
1.0
 10
220.1760916347
 20
1125.7529407353
 30
0.0
 10
215.3664668571
 20
1124.8911828428
 30
0.0
 10
206.6806668973
 20
1122.8271460044
 30
0.0
 10
196.8413853888
 20
1118.6368267472
 30
0.0
 10
190.914701001
 20
1114.4680004119
 30
0.0
 10
187.6664688353
 20
1111.211865301
 30
0.0
 10
185.4080352373
 20
1107.665537857
 30
0.0
 10
184.5944501343
 20
1105.0955122268
 30
0.0
 10
184.3799027755
 20
1103.8237469976
 30
0.0
  0
SPLINE
  5
6A5
100
AcDbEntity
  8
0
100
AcDbSpline
 62
7
  6
CONTINUOUS
 70
0
 71
3
 72
21
 73
17
 74
0
 42
0.0000001
 43
0.0000001
 44
0.0000000001
 40
0.0
 40
0.0
 40
0.0
 40
0.0
 40
0.1716658167
 40
0.3482374944
 40
0.4330687692
 40
0.5128658066
 40
0.5858542974
 40
0.650596934
 40
0.7061586359
 40
0.7523859594
 40
0.790427231
 40
0.823511001
 40
0.8569546006
 40
0.8958943004
 40
0.9432609221
 40
1.0
 40
1.0
 40
1.0
 40
1.0
 10
320.5613656223
 20
1050.3840148267
 30
0.0
 10
310.8143112903
 20
1050.3840148267
 30
0.0
 10
291.0310383912
 20
1051.8412552909
 30
0.0
 10
266.8330803633
 20
1056.5444773115
 30
0.0
 10
248.242845232
 20
1062.0421383327
 30
0.0
 10
235.5936024769
 20
1066.7716049893
 30
0.0
 10
224.3980337734
 20
1072.026075911
 30
0.0
 10
214.9543473393
 20
1077.6615215666
 30
0.0
 10
207.4979179988
 20
1083.5346756766
 30
0.0
 10
202.203793815
 20
1089.5279862441
 30
0.0
 10
199.2055353732
 20
1095.6164225861
 30
0.0
 10
198.9037239896
 20
1101.7608794759
 30
0.0
 10
201.5574523121
 20
1107.3592289742
 30
0.0
 10
206.6668260687
 20
1112.012170703
 30
0.0
 10
213.8924508036
 20
1115.8350668536
 30
0.0
 10
219.5374589625
 20
1117.6692186582
 30
0.0
 10
222.6533396319
 20
1118.48775682
 30
0.0
  0
SPLINE
  5
6A6
100
AcDbEntity
  8
0
100
AcDbSpline
 62
7
  6
CONTINUOUS
 70
0
 71
3
 72
12
 73
8
 74
0
 42
0.0000001
 43
0.0000001
 44
0.0000000001
 40
0.0
 40
0.0
 40
0.0
 40
0.0
 40
0.3392472291
 40
0.6223508028
 40
0.7395502296
 40
0.8402634901
 40
1.0
 40
1.0
 40
1.0
 40
1.0
 10
306.708897178
 20
1102.0139916754
 30
0.0
 10
309.591916124
 20
1102.0139916754
 30
0.0
 10
314.8862353245
 20
1102.2980038887
 30
0.0
 10
321.0879137397
 20
1103.5343061483
 30
0.0
 10
325.0601410955
 20
1105.1250599521
 30
0.0
 10
327.8172866369
 20
1106.7491811485
 30
0.0
 10
329.3978742737
 20
1108.5260429441
 30
0.0
 10
329.8344330862
 20
1109.8114163553
 30
0.0
  0
SPLINE
  5
6A7
100
AcDbEntity
  8
0
100
AcDbSpline
 62
7
  6
CONTINUOUS
 70
0
 71
3
 72
8
 73
4
 74
0
 42
0.0000001
 43
0.0000001
 44
0.0000000001
 40
0.0
 40
0.0
 40
0.0
 40
0.0
 40
1.0
 40
1.0
 40
1.0
 40
1.0
 10
347.4278292399
 20
1289.8092801081
 30
0.0
 10
347.7640102873
 20
1289.8092801081
 30
0.0
 10
348.1047423769
 20
1289.7658744055
 30
0.0
 10
348.4264863615
 20
1289.6684141315
 30
0.0
  0
SPLINE
  5
6A8
100
AcDbEntity
  8
0
100
AcDbSpline
 62
7
  6
CONTINUOUS
 70
0
 71
3
 72
9
 73
5
 74
0
 42
0.0000001
 43
0.0000001
 44
0.0000000001
 40
0.0
 40
0.0
 40
0.0
 40
0.0
 40
0.2698965207
 40
1.0
 40
1.0
 40
1.0
 40
1.0
 10
348.4264863615
 20
1289.6684141315
 30
0.0
 10
348.5823724207
 20
1289.621194296
 30
0.0
 10
349.1444281348
 20
1289.4025578553
 30
0.0
 10
349.6268476888
 20
1288.9536449858
 30
0.0
 10
349.8209932576
 20
1288.5581108927
 30
0.0
  0
SPLINE
  5
6A9
100
AcDbEntity
  8
0
100
AcDbSpline
 62
7
  6
CONTINUOUS
 70
0
 71
3
 72
9
 73
5
 74
0
 42
0.0000001
 43
0.0000001
 44
0.0000000001
 40
0.0
 40
0.0
 40
0.0
 40
0.0
 40
0.4830210454
 40
1.0
 40
1.0
 40
1.0
 40
1.0
 10
343.1824145314
 20
1286.950136888
 30
0.0
 10
343.4367288571
 20
1287.7730983475
 30
0.0
 10
344.7164916632
 20
1289.221939615
 30
0.0
 10
346.5059127235
 20
1289.8092801081
 30
0.0
 10
347.4278292399
 20
1289.8092801081
 30
0.0
  0
SPLINE
  5
6AA
100
AcDbEntity
  8
0
100
AcDbSpline
 62
7
  6
CONTINUOUS
 70
0
 71
3
 72
13
 73
9
 74
0
 42
0.0000001
 43
0.0000001
 44
0.0000000001
 40
0.0
 40
0.0
 40
0.0
 40
0.0
 40
0.3439522964
 40
0.6258646368
 40
0.7409475242
 40
0.839284719
 40
0.9237394388
 40
1.0
 40
1.0
 40
1.0
 40
1.0
 10
324.8856583026
 20
1044.472258579
 30
0.0
 10
320.9543987386
 20
1044.3758426783
 30
0.0
 10
313.8049266031
 20
1043.8047243009
 30
0.0
 10
305.4968286959
 20
1041.8133682139
 30
0.0
 10
300.3536466334
 20
1039.3917599332
 30
0.0
 10
297.5631312181
 20
1037.3959046082
 30
0.0
 10
295.6261096903
 20
1035.1023038765
 30
0.0
 10
294.9599880819
 20
1033.3386169004
 30
0.0
 10
294.8149932775
 20
1032.4788628584
 30
0.0
  0
SPLINE
  5
6AB
100
AcDbEntity
  8
0
100
AcDbSpline
 62
7
  6
CONTINUOUS
 70
0
 71
3
 72
21
 73
17
 74
0
 42
0.0000001
 43
0.0000001
 44
0.0000000001
 40
0.0
 40
0.0
 40
0.0
 40
0.0
 40
0.1708679003
 40
0.3415039889
 40
0.4199798515
 40
0.4906633964
 40
0.5517561873
 40
0.60229098
 40
0.6427187478
 40
0.6760340782
 40
0.7085558599
 40
0.7470957465
 40
0.7953655764
 40
0.8542431813
 40
0.9230101621
 40
1.0
 40
1.0
 40
1.0
 40
1.0
 10
355.6904497032
 20
1011.585937967
 30
0.0
 10
351.8068889158
 20
1011.6668918627
 30
0.0
 10
344.0532281653
 20
1012.4592711347
 30
0.0
 10
334.7349118954
 20
1014.6921855926
 30
0.0
 10
327.9101533481
 20
1017.2216848452
 30
0.0
 10
323.5965635191
 20
1019.300179603
 30
0.0
 10
320.0907924569
 20
1021.535882733
 30
0.0
 10
317.5062946131
 20
1023.8625211237
 30
0.0
 10
315.9017551092
 20
1026.2430019545
 30
0.0
 10
315.4535480008
 20
1028.7258082819
 30
0.0
 10
316.4136624534
 20
1031.0206319233
 30
0.0
 10
318.5090197159
 20
1032.8345614912
 30
0.0
 10
321.5219912903
 20
1034.2622122885
 30
0.0
 10
325.3977416584
 20
1035.3090086334
 30
0.0
 10
330.0145057575
 20
1035.9469791653
 30
0.0
 10
333.3306859549
 20
1036.077392831
 30
0.0
 10
335.0809249901
 20
1036.077392831
 30
0.0
  0
SPLINE
  5
6AC
100
AcDbEntity
  8
0
100
AcDbSpline
 62
7
  6
CONTINUOUS
 70
0
 71
3
 72
21
 73
17
 74
0
 42
0.0000001
 43
0.0000001
 44
0.0000000001
 40
0.0
 40
0.0
 40
0.0
 40
0.0
 40
0.1708679003
 40
0.3415039889
 40
0.4199798515
 40
0.4906633964
 40
0.5517561873
 40
0.60229098
 40
0.6427187478
 40
0.6760340782
 40
0.7085558599
 40
0.7470957465
 40
0.7953655764
 40
0.8542431813
 40
0.9230101621
 40
1.0
 40
1.0
 40
1.0
 40
1.0
 10
336.4887600812
 20
1036.0625896422
 30
0.0
 10
340.3723208687
 20
1035.9816357466
 30
0.0
 10
348.1259816192
 20
1035.1892564746
 30
0.0
 10
357.444297889
 20
1032.9563420167
 30
0.0
 10
364.2690564363
 20
1030.426842764
 30
0.0
 10
368.5826462653
 20
1028.3483480062
 30
0.0
 10
372.0884173275
 20
1026.1126448762
 30
0.0
 10
374.6729151713
 20
1023.7860064856
 30
0.0
 10
376.2774546753
 20
1021.4055256547
 30
0.0
 10
376.7256617836
 20
1018.9227193274
 30
0.0
 10
375.7655473311
 20
1016.6278956859
 30
0.0
 10
373.6701900686
 20
1014.8139661181
 30
0.0
 10
370.6572184942
 20
1013.3863153207
 30
0.0
 10
366.781468126
 20
1012.3395189758
 30
0.0
 10
362.1647040269
 20
1011.701548444
 30
0.0
 10
358.8485238295
 20
1011.5711347783
 30
0.0
 10
357.0982847943
 20
1011.5711347783
 30
0.0
  0
SPLINE
  5
6AD
100
AcDbEntity
  8
0
100
AcDbSpline
 62
7
  6
CONTINUOUS
 70
0
 71
3
 72
21
 73
17
 74
0
 42
0.0000001
 43
0.0000001
 44
0.0000000001
 40
0.0
 40
0.0
 40
0.0
 40
0.0
 40
0.1708698616
 40
0.3415050244
 40
0.4199814116
 40
0.4906650526
 40
0.5517582245
 40
0.6022934119
 40
0.6427209616
 40
0.6760360396
 40
0.7085582774
 40
0.7470990373
 40
0.795370918
 40
0.8542442562
 40
0.9230160713
 40
1.0
 40
1.0
 40
1.0
 40
1.0
 10
338.3265529145
 20
1034.5837418003
 30
0.0
 10
341.5153005141
 20
1034.5172714771
 30
0.0
 10
347.8816926317
 20
1033.8666707256
 30
0.0
 10
355.53278277
 20
1032.0332085862
 30
0.0
 10
361.1364449608
 20
1029.9562956899
 30
0.0
 10
364.6782711369
 20
1028.2497014446
 30
0.0
 10
367.5568150982
 20
1026.4140264035
 30
0.0
 10
369.6789143169
 20
1024.5036792535
 30
0.0
 10
370.9963417299
 20
1022.5490870254
 30
0.0
 10
371.3642346107
 20
1020.5104742369
 30
0.0
 10
370.5757661685
 20
1018.6262861843
 30
0.0
 10
368.8552407523
 20
1017.1369024235
 30
0.0
 10
366.3813312279
 20
1015.9647927852
 30
0.0
 10
363.1990196402
 20
1015.1051749005
 30
0.0
 10
359.4083639579
 20
1014.5814954406
 30
0.0
 10
356.6855453387
 20
1014.4743582886
 30
0.0
 10
355.2485707672
 20
1014.4743582886
 30
0.0
  0
SPLINE
  5
6AE
100
AcDbEntity
  8
0
100
AcDbSpline
 62
7
  6
CONTINUOUS
 70
0
 71
3
 72
21
 73
17
 74
0
 42
0.0000001
 43
0.0000001
 44
0.0000000001
 40
0.0
 40
0.0
 40
0.0
 40
0.0
 40
0.1708698616
 40
0.3415050244
 40
0.4199814116
 40
0.4906650526
 40
0.5517582245
 40
0.6022934119
 40
0.6427209616
 40
0.6760360396
 40
0.7085582774
 40
0.7470990373
 40
0.795370918
 40
0.8542442562
 40
0.9230160713
 40
1.0
 40
1.0
 40
1.0
 40
1.0
 10
354.0926289938
 20
1014.4865128544
 30
0.0
 10
350.9038813942
 20
1014.5529831776
 30
0.0
 10
344.5374892766
 20
1015.2035839291
 30
0.0
 10
336.8863991383
 20
1017.0370460685
 30
0.0
 10
331.2827369475
 20
1019.1139589648
 30
0.0
 10
327.7409107714
 20
1020.8205532101
 30
0.0
 10
324.8623668101
 20
1022.6562282512
 30
0.0
 10
322.7402675914
 20
1024.5665754012
 30
0.0
 10
321.4228401784
 20
1026.5211676293
 30
0.0
 10
321.0549472976
 20
1028.5597804178
 30
0.0
 10
321.8434157398
 20
1030.4439684704
 30
0.0
 10
323.5639411561
 20
1031.9333522312
 30
0.0
 10
326.0378506805
 20
1033.1054618695
 30
0.0
 10
329.2201622682
 20
1033.9650797542
 30
0.0
 10
333.0108179505
 20
1034.4887592141
 30
0.0
 10
335.7336365697
 20
1034.5958963661
 30
0.0
 10
337.1706111411
 20
1034.5958963661
 30
0.0
  0
SPLINE
  5
6AF
100
AcDbEntity
  8
0
100
AcDbSpline
 62
7
  6
CONTINUOUS
 70
0
 71
3
 72
11
 73
7
 74
0
 42
0.0000001
 43
0.0000001
 44
0.0000000001
 40
0.0
 40
0.0
 40
0.0
 40
0.0
 40
0.2028098876
 40
0.4280993343
 40
0.6912985166
 40
1.0
 40
1.0
 40
1.0
 40
1.0
 10
295.5581505143
 20
1036.8817435433
 30
0.0
 10
295.7057145054
 20
1037.756714491
 30
0.0
 10
296.3917944998
 20
1039.5534645863
 30
0.0
 10
298.3899858892
 20
1041.8798057369
 30
0.0
 10
301.2670556506
 20
1043.8955968294
 30
0.0
 10
303.5502577302
 20
1044.9462436856
 30
0.0
 10
304.8093421886
 20
1045.4349990979
 30
0.0
  0
SPLINE
  5
6B0
100
AcDbEntity
  8
0
100
AcDbSpline
 62
7
  6
CONTINUOUS
 70
0
 71
3
 72
17
 73
13
 74
0
 42
0.0000001
 43
0.0000001
 44
0.0000000001
 40
0.0
 40
0.0
 40
0.0
 40
0.0
 40
0.0299796979
 40
0.0626880849
 40
0.1001232874
 40
0.143407556
 40
0.2486590727
 40
0.3774254467
 40
0.5245632848
 40
0.6828931901
 40
0.8441881422
 40
1.0
 40
1.0
 40
1.0
 40
1.0
 10
397.3642165069
 20
1015.1696647509
 30
0.0
 10
397.4963470666
 20
1015.9531396014
 30
0.0
 10
397.4822702478
 20
1017.6508783259
 30
0.0
 10
396.6263981299
 20
1020.1969491201
 30
0.0
 10
395.0047980172
 20
1022.7539439137
 30
0.0
 10
391.6484815722
 20
1026.3892828455
 30
0.0
 10
385.6028399598
 20
1030.6817094611
 30
0.0
 10
376.5244279147
 20
1035.1605187164
 30
0.0
 10
365.6530857915
 20
1039.0089740569
 30
0.0
 10
353.6299343174
 20
1041.9904884099
 30
0.0
 10
341.1631558561
 20
1043.9242853098
 30
0.0
 10
332.7602044293
 20
1044.4571268542
 30
0.0
 10
328.6309998189
 20
1044.4984634532
 30
0.0
  0
SPLINE
  5
6B1
100
AcDbEntity
  8
0
100
AcDbSpline
 62
7
  6
CONTINUOUS
 70
0
 71
3
 72
19
 73
15
 74
0
 42
0.0000001
 43
0.0000001
 44
0.0000000001
 40
0.0
 40
0.0
 40
0.0
 40
0.0
 40
0.0766872119
 40
0.1450436828
 40
0.2033205181
 40
0.250866913
 40
0.2886985737
 40
0.3208925125
 40
0.3945536445
 40
0.4463710382
 40
0.5088091115
 40
0.6599727393
 40
0.8311170268
 40
1.0
 40
1.0
 40
1.0
 40
1.0
 10
352.1396356962
 20
1021.0399988774
 30
0.0
 10
353.0252983124
 20
1021.0399988774
 30
0.0
 10
354.701801764
 20
1021.1069769017
 30
0.0
 10
357.0315184752
 20
1021.4344637617
 30
0.0
 10
358.9787416511
 20
1021.971743996
 30
0.0
 10
360.4800176651
 20
1022.7049117949
 30
0.0
 10
361.510930201
 20
1023.6374973657
 30
0.0
 10
362.0999065876
 20
1025.2899065002
 30
0.0
 10
361.0323486786
 20
1027.0762805437
 30
0.0
 10
359.3929197399
 20
1028.4470332333
 30
0.0
 10
356.7584156155
 20
1030.0619206274
 30
0.0
 10
352.5911503517
 20
1031.6670209918
 30
0.0
 10
347.0431966288
 20
1032.9228879606
 30
0.0
 10
343.1124589237
 20
1033.2585465016
 30
0.0
 10
341.1620250489
 20
1033.2585465016
 30
0.0
  0
SPLINE
  5
6B2
100
AcDbEntity
  8
0
100
AcDbSpline
 62
7
  6
CONTINUOUS
 70
0
 71
3
 72
19
 73
15
 74
0
 42
0.0000001
 43
0.0000001
 44
0.0000000001
 40
0.0
 40
0.0
 40
0.0
 40
0.0
 40
0.075080839
 40
0.1414833777
 40
0.1976498267
 40
0.2432540596
 40
0.2797600869
 40
0.3117997467
 40
0.3881770772
 40
0.4415437337
 40
0.5053277968
 40
0.6583659312
 40
0.8304801887
 40
1.0
 40
1.0
 40
1.0
 40
1.0
 10
340.4461002677
 20
1033.2505634627
 30
0.0
 10
339.5968874216
 20
1033.2314204644
 30
0.0
 10
337.9966639925
 20
1033.1298794568
 30
0.0
 10
335.7870364969
 20
1032.7573460922
 30
0.0
 10
333.9633825225
 20
1032.1840815743
 30
0.0
 10
332.5811299284
 20
1031.4250370251
 30
0.0
 10
331.6648150932
 20
1030.4617968455
 30
0.0
 10
331.2552115938
 20
1028.7816487403
 30
0.0
 10
332.4135620256
 20
1027.0764161343
 30
0.0
 10
334.0925841748
 20
1025.7219894624
 30
0.0
 10
336.7420675451
 20
1024.1511384528
 30
0.0
 10
340.8755753968
 20
1022.5853638079
 30
0.0
 10
346.3532634781
 20
1021.3654384218
 30
0.0
 10
350.2217699066
 20
1021.0399988773
 30
0.0
 10
352.1396356962
 20
1021.0399988774
 30
0.0
  0
SPLINE
  5
6B3
100
AcDbEntity
  8
0
100
AcDbSpline
 62
7
  6
CONTINUOUS
 70
0
 71
3
 72
19
 73
15
 74
0
 42
0.0000001
 43
0.0000001
 44
0.0000000001
 40
0.0
 40
0.0
 40
0.0
 40
0.0
 40
0.1344154926
 40
0.1901579657
 40
0.2389258154
 40
0.2821868152
 40
0.3223469087
 40
0.3625406405
 40
0.4058943897
 40
0.4547938614
 40
0.5106883483
 40
0.6454246057
 40
0.8101704039
 40
1.0
 40
1.0
 40
1.0
 40
1.0
 10
360.8995786252
 20
1095.1533086809
 30
0.0
 10
364.416867305
 20
1092.7913996629
 30
0.0
 10
369.1959289093
 20
1089.0618335202
 30
0.0
 10
374.0461972677
 20
1083.2649865933
 30
0.0
 10
376.3681891994
 20
1079.1900763262
 30
0.0
 10
377.54993787
 20
1075.1441888336
 30
0.0
 10
377.5124667365
 20
1071.1841479848
 30
0.0
 10
376.2230198051
 20
1067.4368134066
 30
0.0
 10
373.7553212919
 20
1064.0101334913
 30
0.0
 10
370.2033352784
 20
1060.9302435868
 30
0.0
 10
363.6882321311
 20
1057.0573592832
 30
0.0
 10
352.9840786812
 20
1053.4260763983
 30
0.0
 10
337.7369754774
 20
1050.8936201523
 30
0.0
 10
326.5447378626
 20
1050.3840148267
 30
0.0
 10
320.5613656223
 20
1050.3840148267
 30
0.0
  0
SPLINE
  5
6B4
100
AcDbEntity
  8
0
100
AcDbSpline
 62
7
  6
CONTINUOUS
 70
0
 71
3
 72
14
 73
10
 74
0
 42
0.0000001
 43
0.0000001
 44
0.0000000001
 40
0.0
 40
0.0
 40
0.0
 40
0.0
 40
0.1448906039
 40
0.25336629
 40
0.3839490893
 40
0.5313153325
 40
0.688416526
 40
0.8473239533
 40
1.0
 40
1.0
 40
1.0
 40
1.0
 10
256.8086512235
 20
1122.1598142439
 30
0.0
 10
256.7779440712
 20
1119.4310604636
 30
0.0
 10
260.365143312
 20
1115.165356521
 30
0.0
 10
266.279268585
 20
1111.3214677085
 30
0.0
 10
272.9385732263
 20
1108.1917214465
 30
0.0
 10
280.7037830767
 20
1105.5911058602
 30
0.0
 10
289.2159762709
 20
1103.5888329411
 30
0.0
 10
297.962072222
 20
1102.3285831431
 30
0.0
 10
303.8333365388
 20
1102.0139916754
 30
0.0
 10
306.708897178
 20
1102.0139916754
 30
0.0
  0
SPLINE
  5
6B5
100
AcDbEntity
  8
0
100
AcDbSpline
 62
7
  6
CONTINUOUS
 70
0
 71
3
 72
18
 73
14
 74
0
 42
0.0000001
 43
0.0000001
 44
0.0000000001
 40
0.0
 40
0.0
 40
0.0
 40
0.0
 40
0.1413155359
 40
0.1974930957
 40
0.2430980727
 40
0.279611998
 40
0.3116581627
 40
0.3880557019
 40
0.4414266167
 40
0.5052213059
 40
0.6582931318
 40
0.8304356721
 40
1.0
 40
1.0
 40
1.0
 40
1.0
 10
342.7927015435
 20
1031.7719317728
 30
0.0
 10
341.7681357365
 20
1031.7488359594
 30
0.0
 10
340.3259615293
 20
1031.6176867388
 30
0.0
 10
338.6362761484
 20
1031.0884473268
 30
0.0
 10
337.7502352473
 20
1030.601308953
 30
0.0
 10
337.1628119077
 20
1029.9838951178
 30
0.0
 10
336.8998621794
 20
1028.906671882
 30
0.0
 10
337.6429695321
 20
1027.8135461071
 30
0.0
 10
338.7192111277
 20
1026.9450299986
 30
0.0
 10
340.4178770188
 20
1025.9378834242
 30
0.0
 10
343.0680097461
 20
1024.9341748002
 30
0.0
 10
346.5799586449
 20
1024.1518471449
 30
0.0
 10
349.0602341785
 20
1023.9432223877
 30
0.0
 10
350.2899216691
 20
1023.9432223877
 30
0.0
  0
SPLINE
  5
6B6
100
AcDbEntity
  8
0
100
AcDbSpline
 62
7
  6
CONTINUOUS
 70
0
 71
3
 72
11
 73
7
 74
0
 42
0.0000001
 43
0.0000001
 44
0.0000000001
 40
0.0
 40
0.0
 40
0.0
 40
0.0
 40
0.2092320839
 40
0.437390524
 40
0.6983747509
 40
1.0
 40
1.0
 40
1.0
 40
1.0
 10
185.3865423543
 20
1109.7876280597
 30
0.0
 10
185.6535531384
 20
1111.3703428866
 30
0.0
 10
186.8043097235
 20
1114.599858022
 30
0.0
 10
190.1166967576
 20
1118.8937828614
 30
0.0
 10
194.8943714271
 20
1122.7006480528
 30
0.0
 10
198.7127589631
 20
1124.7541275409
 30
0.0
 10
200.815008567
 20
1125.7208067931
 30
0.0
  0
SPLINE
  5
6B7
100
AcDbEntity
  8
0
100
AcDbSpline
 62
7
  6
CONTINUOUS
 70
0
 71
3
 72
18
 73
14
 74
0
 42
0.0000001
 43
0.0000001
 44
0.0000000001
 40
0.0
 40
0.0
 40
0.0
 40
0.0
 40
0.1413155359
 40
0.1974930957
 40
0.2430980727
 40
0.279611998
 40
0.3116581627
 40
0.3880557019
 40
0.4414266167
 40
0.5052213059
 40
0.6582931318
 40
0.8304356721
 40
1.0
 40
1.0
 40
1.0
 40
1.0
 10
350.7489313254
 20
1023.9483406516
 30
0.0
 10
351.7734971324
 20
1023.971436465
 30
0.0
 10
353.2156713396
 20
1024.1025856856
 30
0.0
 10
354.9053567205
 20
1024.6318250976
 30
0.0
 10
355.7913976215
 20
1025.1189634713
 30
0.0
 10
356.3788209612
 20
1025.7363773066
 30
0.0
 10
356.6417706895
 20
1026.8136005423
 30
0.0
 10
355.8986633368
 20
1027.9067263173
 30
0.0
 10
354.8224217412
 20
1028.7752424258
 30
0.0
 10
353.12375585
 20
1029.7823890001
 30
0.0
 10
350.4736231228
 20
1030.7860976242
 30
0.0
 10
346.9616742239
 20
1031.5684252795
 30
0.0
 10
344.4813986904
 20
1031.7770500367
 30
0.0
 10
343.2517111998
 20
1031.7770500367
 30
0.0
  0
SPLINE
  5
6B8
100
AcDbEntity
  8
0
100
AcDbSpline
 62
7
  6
CONTINUOUS
 70
0
 71
3
 72
17
 73
13
 74
0
 42
0.0000001
 43
0.0000001
 44
0.0000000001
 40
0.0
 40
0.0
 40
0.0
 40
0.0
 40
0.03141754
 40
0.0648919538
 40
0.1020627142
 40
0.1440079149
 40
0.2440308881
 40
0.3659984012
 40
0.5074153958
 40
0.6639549835
 40
0.830172646
 40
1.0
 40
1.0
 40
1.0
 40
1.0
 10
392.2394285711
 20
1068.7393106349
 30
0.0
 10
392.4632432439
 20
1070.0660094118
 30
0.0
 10
392.5248242979
 20
1072.8876729164
 30
0.0
 10
391.4370437619
 20
1077.164546717
 30
0.0
 10
389.2347987801
 20
1081.4894991397
 30
0.0
 10
384.5954485721
 20
1087.6363630993
 30
0.0
 10
375.9713224298
 20
1095.104896342
 30
0.0
 10
362.6432711678
 20
1103.2126673293
 30
0.0
 10
346.2301433938
 20
1110.6526016336
 30
0.0
 10
327.4030106694
 20
1117.1056031173
 30
0.0
 10
306.9357093934
 20
1122.2973744922
 30
0.0
 10
292.7429372226
 20
1124.773220735
 30
0.0
 10
285.5360982538
 20
1125.7504861799
 30
0.0
  0
SPLINE
  5
6B9
100
AcDbEntity
  8
0
100
AcDbSpline
 62
7
  6
CONTINUOUS
 70
0
 71
3
 72
9
 73
5
 74
0
 42
0.0000001
 43
0.0000001
 44
0.0000000001
 40
0.0
 40
0.0
 40
0.0
 40
0.0
 40
0.1923250507
 40
1.0
 40
1.0
 40
1.0
 40
1.0
 10
465.0053760577
 20
1159.4037029871
 30
0.0
 10
465.0112859488
 20
1159.4587313035
 30
0.0
 10
464.9591523304
 20
1159.7526779412
 30
0.0
 10
464.7096795419
 20
1159.953324163
 30
0.0
 10
464.5224640449
 20
1160.0910570603
 30
0.0
  0
SPLINE
  5
6BA
100
AcDbEntity
  8
0
100
AcDbSpline
 62
7
  6
CONTINUOUS
 70
0
 71
3
 72
8
 73
4
 74
0
 42
0.0000001
 43
0.0000001
 44
0.0000000001
 40
0.0
 40
0.0
 40
0.0
 40
0.0
 40
1.0
 40
1.0
 40
1.0
 40
1.0
 10
460.9808924886
 20
1168.499756752
 30
0.0
 10
460.8291642133
 20
1168.4992652543
 30
0.0
 10
460.6754304694
 20
1168.4667709827
 30
0.0
 10
460.5345626484
 20
1168.4103975128
 30
0.0
  0
SPLINE
  5
6BB
100
AcDbEntity
  8
0
100
AcDbSpline
 62
7
  6
CONTINUOUS
 70
0
 71
3
 72
9
 73
5
 74
0
 42
0.0000001
 43
0.0000001
 44
0.0000000001
 40
0.0
 40
0.0
 40
0.0
 40
0.0
 40
0.2256669376
 40
1.0
 40
1.0
 40
1.0
 40
1.0
 10
460.5345626484
 20
1168.4103975128
 30
0.0
 10
460.4671341988
 20
1168.3834135243
 30
0.0
 10
460.1778380715
 20
1168.2397274245
 30
0.0
 10
459.9356028179
 20
1168.0145670174
 30
0.0
 10
459.7736872625
 20
1167.8251272466
 30
0.0
  0
SPLINE
  5
6BC
100
AcDbEntity
  8
0
100
AcDbSpline
 62
7
  6
CONTINUOUS
 70
0
 71
3
 72
9
 73
5
 74
0
 42
0.0000001
 43
0.0000001
 44
0.0000000001
 40
0.0
 40
0.0
 40
0.0
 40
0.0
 40
0.208358983
 40
1.0
 40
1.0
 40
1.0
 40
1.0
 10
459.7736872625
 20
1167.8251272466
 30
0.0
 10
459.6462669388
 20
1167.6760465923
 30
0.0
 10
459.1025641536
 20
1166.9028810401
 30
0.0
 10
458.7800491277
 20
1165.9973940359
 30
0.0
 10
458.5855330103
 20
1165.2781115254
 30
0.0
  0
SPLINE
  5
6BD
100
AcDbEntity
  8
0
100
AcDbSpline
 62
7
  6
CONTINUOUS
 70
0
 71
3
 72
9
 73
5
 74
0
 42
0.0000001
 43
0.0000001
 44
0.0000000001
 40
0.0
 40
0.0
 40
0.0
 40
0.0
 40
0.2396664188
 40
1.0
 40
1.0
 40
1.0
 40
1.0
 10
458.5270840851
 20
1165.0533940673
 30
0.0
 10
458.4879534257
 20
1164.8968726837
 30
0.0
 10
458.3373961309
 20
1164.2406413326
 30
0.0
 10
458.2334551596
 20
1163.5740362416
 30
0.0
 10
458.1767068081
 20
1163.0653505273
 30
0.0
  0
SPLINE
  5
6BE
100
AcDbEntity
  8
0
100
AcDbSpline
 62
7
  6
CONTINUOUS
 70
0
 71
3
 72
11
 73
7
 74
0
 42
0.0000001
 43
0.0000001
 44
0.0000000001
 40
0.0
 40
0.0
 40
0.0
 40
0.0
 40
0.3994491218
 40
0.7132770995
 40
0.916361515
 40
1.0
 40
1.0
 40
1.0
 40
1.0
 10
241.6079894615
 20
1255.5950881018
 30
0.0
 10
241.2761418984
 20
1255.5950881018
 30
0.0
 10
240.6942692198
 20
1255.6038669182
 30
0.0
 10
239.8984442897
 20
1255.6542621555
 30
0.0
 10
239.4722695846
 20
1255.7207359142
 30
0.0
 10
239.1626214381
 20
1255.8039630859
 30
0.0
 10
239.1594520245
 20
1255.8733745252
 30
0.0
  0
SPLINE
  5
6BF
100
AcDbEntity
  8
0
100
AcDbSpline
 62
7
  6
CONTINUOUS
 70
0
 71
3
 72
10
 73
6
 74
0
 42
0.0000001
 43
0.0000001
 44
0.0000000001
 40
0.0
 40
0.0
 40
0.0
 40
0.0
 40
0.1692173037
 40
0.4180648342
 40
1.0
 40
1.0
 40
1.0
 40
1.0
 10
324.6693430757
 20
1256.0524926853
 30
0.0
 10
324.3847936392
 20
1255.9683841572
 30
0.0
 10
323.6585424717
 20
1255.847786922
 30
0.0
 10
321.9169014472
 20
1255.6567252546
 30
0.0
 10
320.4580572603
 20
1255.5950881018
 30
0.0
 10
319.4376434548
 20
1255.5950881018
 30
0.0
  0
SPLINE
  5
6C0
100
AcDbEntity
  8
0
100
AcDbSpline
 62
7
  6
CONTINUOUS
 70
0
 71
3
 72
12
 73
8
 74
0
 42
0.0000001
 43
0.0000001
 44
0.0000000001
 40
0.0
 40
0.0
 40
0.0
 40
0.0
 40
0.1438230744
 40
0.2478410172
 40
0.3740346458
 40
0.6755089851
 40
1.0
 40
1.0
 40
1.0
 40
1.0
 10
449.3053523329
 20
1157.0200529354
 30
0.0
 10
449.0360453187
 20
1157.0198558676
 30
0.0
 10
448.6127034063
 20
1157.3636988226
 30
0.0
 10
448.2839743774
 20
1157.9680062475
 30
0.0
 10
447.9412325402
 20
1158.9124597273
 30
0.0
 10
447.7301554048
 20
1160.3133262465
 30
0.0
 10
447.7480357673
 20
1161.4921024803
 30
0.0
 10
447.8154007999
 20
1162.0959623343
 30
0.0
  0
SPLINE
  5
6C1
100
AcDbEntity
  8
0
100
AcDbSpline
 62
7
  6
CONTINUOUS
 70
0
 71
3
 72
8
 73
4
 74
0
 42
0.0000001
 43
0.0000001
 44
0.0000000001
 40
0.0
 40
0.0
 40
0.0
 40
0.0
 40
1.0
 40
1.0
 40
1.0
 40
1.0
 10
342.3719356647
 20
1282.4438533176
 30
0.0
 10
342.2590724699
 20
1282.673790275
 30
0.0
 10
342.1932520541
 20
1282.9315210678
 30
0.0
 10
342.1770152632
 20
1283.1871486715
 30
0.0
  0
SPLINE
  5
6C2
100
AcDbEntity
  8
0
100
AcDbSpline
 62
7
  6
CONTINUOUS
 70
0
 71
3
 72
8
 73
4
 74
0
 42
0.0000001
 43
0.0000001
 44
0.0000000001
 40
0.0
 40
0.0
 40
0.0
 40
0.0
 40
1.0
 40
1.0
 40
1.0
 40
1.0
 10
342.1770152632
 20
1283.1871486715
 30
0.0
 10
342.1585981202
 20
1283.4771031432
 30
0.0
 10
342.2009883215
 20
1283.774240509
 30
0.0
 10
342.2867691347
 20
1284.0518273223
 30
0.0
  0
SPLINE
  5
6C3
100
AcDbEntity
  8
0
100
AcDbSpline
 62
7
  6
CONTINUOUS
 70
0
 71
3
 72
9
 73
5
 74
0
 42
0.0000001
 43
0.0000001
 44
0.0000000001
 40
0.0
 40
0.0
 40
0.0
 40
0.0
 40
0.6828453462
 40
1.0
 40
1.0
 40
1.0
 40
1.0
 10
351.7962983855
 20
1267.3926017674
 30
0.0
 10
351.8767590864
 20
1267.4163847388
 30
0.0
 10
351.9816282736
 20
1267.4469944842
 30
0.0
 10
352.1098250106
 20
1267.5327913042
 30
0.0
 10
352.1080474946
 20
1267.5717199277
 30
0.0
  0
SPLINE
  5
6C4
100
AcDbEntity
  8
0
100
AcDbSpline
 62
7
  6
CONTINUOUS
 70
0
 71
3
 72
9
 73
5
 74
0
 42
0.0000001
 43
0.0000001
 44
0.0000000001
 40
0.0
 40
0.0
 40
0.0
 40
0.0
 40
0.2651206797
 40
1.0
 40
1.0
 40
1.0
 40
1.0
 10
109.1573039296
 20
1135.621165892
 30
0.0
 10
108.7640701837
 20
1135.7308534896
 30
0.0
 10
107.30838818
 20
1136.2316857992
 30
0.0
 10
105.9744696058
 20
1137.1271171143
 30
0.0
 10
105.2181885167
 20
1137.968877694
 30
0.0
  0
SPLINE
  5
6C5
100
AcDbEntity
  8
0
100
AcDbSpline
 62
7
  6
CONTINUOUS
 70
0
 71
3
 72
10
 73
6
 74
0
 42
0.0000001
 43
0.0000001
 44
0.0000000001
 40
0.0
 40
0.0
 40
0.0
 40
0.0
 40
0.5819355147
 40
0.8307829043
 40
1.0
 40
1.0
 40
1.0
 40
1.0
 10
319.2906930237
 20
1258.8734414003
 30
0.0
 10
320.3111074409
 20
1258.8734414003
 30
0.0
 10
321.7699519941
 20
1258.9350785975
 30
0.0
 10
323.5115930125
 20
1259.1261403549
 30
0.0
 10
324.2378435579
 20
1259.2467375592
 30
0.0
 10
324.5223926446
 20
1259.3308459838
 30
0.0
  0
SPLINE
  5
6C6
100
AcDbEntity
  8
0
100
AcDbSpline
 62
7
  6
CONTINUOUS
 70
0
 71
3
 72
9
 73
5
 74
0
 42
0.0000001
 43
0.0000001
 44
0.0000000001
 40
0.0
 40
0.0
 40
0.0
 40
0.0
 40
0.5246614943
 40
1.0
 40
1.0
 40
1.0
 40
1.0
 10
367.0543771211
 20
1135.621165892
 30
0.0
 10
369.6706694151
 20
1136.2436360685
 30
0.0
 10
374.4077586545
 20
1138.6673798475
 30
0.0
 10
377.6318126002
 20
1143.0247907675
 30
0.0
 10
378.3511832245
 20
1145.3526749607
 30
0.0
  0
SPLINE
  5
6C7
100
AcDbEntity
  8
0
100
AcDbSpline
 62
7
  6
CONTINUOUS
 70
0
 71
3
 72
11
 73
7
 74
0
 42
0.0000001
 43
0.0000001
 44
0.0000000001
 40
0.0
 40
0.0
 40
0.0
 40
0.0
 40
0.3994491218
 40
0.7132770995
 40
0.916361515
 40
1.0
 40
1.0
 40
1.0
 40
1.0
 10
332.9539551442
 20
1266.1518918347
 30
0.0
 10
333.2858027073
 20
1266.1518918347
 30
0.0
 10
333.8676753859
 20
1266.1431130183
 30
0.0
 10
334.663500316
 20
1266.092717781
 30
0.0
 10
335.0896750211
 20
1266.0262440223
 30
0.0
 10
335.3993231675
 20
1265.9430168506
 30
0.0
 10
335.4024925812
 20
1265.8736054113
 30
0.0
  0
SPLINE
  5
6C8
100
AcDbEntity
  8
0
100
AcDbSpline
 62
7
  6
CONTINUOUS
 70
0
 71
3
 72
10
 73
6
 74
0
 42
0.0000001
 43
0.0000001
 44
0.0000000001
 40
0.0
 40
0.0
 40
0.0
 40
0.0
 40
0.1692173037
 40
0.4180648342
 40
1.0
 40
1.0
 40
1.0
 40
1.0
 10
271.8138531873
 20
1265.6944872513
 30
0.0
 10
272.0984026238
 20
1265.7785957793
 30
0.0
 10
272.8246537913
 20
1265.8991930145
 30
0.0
 10
274.5662948158
 20
1266.090254682
 30
0.0
 10
276.0251390027
 20
1266.1518918347
 30
0.0
 10
277.0455528082
 20
1266.1518918347
 30
0.0
  0
SPLINE
  5
6C9
100
AcDbEntity
  8
0
100
AcDbSpline
 62
7
  6
CONTINUOUS
 70
0
 71
3
 72
9
 73
5
 74
0
 42
0.0000001
 43
0.0000001
 44
0.0000000001
 40
0.0
 40
0.0
 40
0.0
 40
0.0
 40
0.2396722458
 40
1.0
 40
1.0
 40
1.0
 40
1.0
 10
1788.6055482775
 20
1102.0261384506
 30
0.0
 10
1788.6055397064
 20
1101.839028484
 30
0.0
 10
1788.520362584
 20
1101.0571858835
 30
0.0
 10
1788.0746523467
 20
1100.3438716126
 30
0.0
 10
1787.6522951769
 20
1099.9267950346
 30
0.0
  0
SPLINE
  5
6CA
100
AcDbEntity
  8
0
100
AcDbSpline
 62
7
  6
CONTINUOUS
 70
0
 71
3
 72
8
 73
4
 74
0
 42
0.0000001
 43
0.0000001
 44
0.0000000001
 40
0.0
 40
0.0
 40
0.0
 40
0.0
 40
1.0
 40
1.0
 40
1.0
 40
1.0
 10
1787.6522951769
 20
1099.9267950346
 30
0.0
 10
1787.4212109705
 20
1099.6985999975
 30
0.0
 10
1787.160763088
 20
1099.4980767427
 30
0.0
 10
1786.8855075913
 20
1099.3257186941
 30
0.0
  0
SPLINE
  5
6CB
100
AcDbEntity
  8
0
100
AcDbSpline
 62
7
  6
CONTINUOUS
 70
0
 71
3
 72
9
 73
5
 74
0
 42
0.0000001
 43
0.0000001
 44
0.0000000001
 40
0.0
 40
0.0
 40
0.0
 40
0.0
 40
0.2401933227
 40
1.0
 40
1.0
 40
1.0
 40
1.0
 10
1786.5356036627
 20
1099.1253817635
 30
0.0
 10
1786.3136300644
 20
1099.0094082677
 30
0.0
 10
1785.3563128033
 20
1098.5912288793
 30
0.0
 10
1784.2978403899
 20
1098.4198938565
 30
0.0
 10
1783.5056080344
 20
1098.4198938565
 30
0.0
  0
SPLINE
  5
6CC
100
AcDbEntity
  8
0
100
AcDbSpline
 62
7
  6
CONTINUOUS
 70
0
 71
3
 72
11
 73
7
 74
0
 42
0.0000001
 43
0.0000001
 44
0.0000000001
 40
0.0
 40
0.0
 40
0.0
 40
0.0
 40
0.2094573484
 40
0.4446360495
 40
0.7119676418
 40
1.0
 40
1.0
 40
1.0
 40
1.0
 10
1788.6055482775
 20
1103.4403519928
 30
0.0
 10
1788.6055263887
 20
1103.9181921984
 30
0.0
 10
1788.2951934435
 20
1104.9445754001
 30
0.0
 10
1787.1068325585
 20
1106.1197651932
 30
0.0
 10
1785.4376935154
 20
1106.8748912188
 30
0.0
 10
1784.162703345
 20
1107.046596587
 30
0.0
 10
1783.5056080344
 20
1107.046596587
 30
0.0
  0
SPLINE
  5
6CD
100
AcDbEntity
  8
0
100
AcDbSpline
 62
7
  6
CONTINUOUS
 70
0
 71
3
 72
11
 73
7
 74
0
 42
0.0000001
 43
0.0000001
 44
0.0000000001
 40
0.0
 40
0.0
 40
0.0
 40
0.0
 40
0.2094979882
 40
0.4446669138
 40
0.7119894099
 40
1.0
 40
1.0
 40
1.0
 40
1.0
 10
1772.8806080344
 20
1019.0612998039
 30
0.0
 10
1772.8806080344
 20
1019.5298652092
 30
0.0
 10
1773.1848341826
 20
1020.5362712939
 30
0.0
 10
1774.3502420528
 20
1021.6881557364
 30
0.0
 10
1775.9864826245
 20
1022.4285514473
 30
0.0
 10
1777.2364405175
 20
1022.5968337099
 30
0.0
 10
1777.8806080344
 20
1022.5968337099
 30
0.0
  0
SPLINE
  5
6CE
100
AcDbEntity
  8
0
100
AcDbSpline
 62
7
  6
CONTINUOUS
 70
0
 71
3
 72
11
 73
7
 74
0
 42
0.0000001
 43
0.0000001
 44
0.0000000001
 40
0.0
 40
0.0
 40
0.0
 40
0.0
 40
0.2880108602
 40
0.5553333993
 40
0.7905022209
 40
1.0
 40
1.0
 40
1.0
 40
1.0
 10
1858.9806080344
 20
1022.5968337099
 30
0.0
 10
1859.6247761577
 20
1022.5968337099
 30
0.0
 10
1860.8747347783
 20
1022.4285511955
 30
0.0
 10
1862.5109755701
 20
1021.6881547196
 30
0.0
 10
1863.6763824401
 20
1020.5362701199
 30
0.0
 10
1863.9806080344
 20
1019.5298647429
 30
0.0
 10
1863.9806080344
 20
1019.0612998039
 30
0.0
  0
SPLINE
  5
6CF
100
AcDbEntity
  8
0
100
AcDbSpline
 62
7
  6
CONTINUOUS
 70
0
 71
3
 72
9
 73
5
 74
0
 42
0.0000001
 43
0.0000001
 44
0.0000000001
 40
0.0
 40
0.0
 40
0.0
 40
0.0
 40
0.2688743252
 40
1.0
 40
1.0
 40
1.0
 40
1.0
 10
1843.8306080344
 20
1011.353835889
 30
0.0
 10
1844.1153600951
 20
1011.353835889
 30
0.0
 10
1845.1679857429
 20
1011.4389463467
 30
0.0
 10
1846.2271941762
 20
1011.8771458238
 30
0.0
 10
1846.7824846282
 20
1012.4167696577
 30
0.0
  0
SPLINE
  5
6D0
100
AcDbEntity
  8
0
100
AcDbSpline
 62
7
  6
CONTINUOUS
 70
0
 71
3
 72
8
 73
4
 74
0
 42
0.0000001
 43
0.0000001
 44
0.0000000001
 40
0.0
 40
0.0
 40
0.0
 40
0.0
 40
1.0
 40
1.0
 40
1.0
 40
1.0
 10
1846.7824846282
 20
1012.4167696577
 30
0.0
 10
1846.9941762314
 20
1012.6224887262
 30
0.0
 10
1847.1773448783
 20
1012.8666558887
 30
0.0
 10
1847.3008215638
 20
1013.1347737325
 30
0.0
  0
SPLINE
  5
6D1
100
AcDbEntity
  8
0
100
AcDbSpline
 62
7
  6
CONTINUOUS
 70
0
 71
3
 72
8
 73
4
 74
0
 42
0.0000001
 43
0.0000001
 44
0.0000000001
 40
0.0
 40
0.0
 40
0.0
 40
0.0
 40
1.0
 40
1.0
 40
1.0
 40
1.0
 10
1847.3008215638
 20
1013.1347737325
 30
0.0
 10
1847.4151517029
 20
1013.3830307233
 30
0.0
 10
1847.4806080344
 20
1013.6614573018
 30
0.0
 10
1847.4806080344
 20
1013.9347756403
 30
0.0
  0
SPLINE
  5
6D2
100
AcDbEntity
  8
0
100
AcDbSpline
 62
7
  6
CONTINUOUS
 70
0
 71
3
 72
8
 73
4
 74
0
 42
0.0000001
 43
0.0000001
 44
0.0000000001
 40
0.0
 40
0.0
 40
0.0
 40
0.0
 40
1.0
 40
1.0
 40
1.0
 40
1.0
 10
1840.1806080344
 20
1013.9347756403
 30
0.0
 10
1840.1806080344
 20
1013.6286397544
 30
0.0
 10
1840.2635971753
 20
1013.3157782099
 30
0.0
 10
1840.4048007451
 20
1013.0441521203
 30
0.0
  0
SPLINE
  5
6D3
100
AcDbEntity
  8
0
100
AcDbSpline
 62
7
  6
CONTINUOUS
 70
0
 71
3
 72
8
 73
4
 74
0
 42
0.0000001
 43
0.0000001
 44
0.0000000001
 40
0.0
 40
0.0
 40
0.0
 40
0.0
 40
1.0
 40
1.0
 40
1.0
 40
1.0
 10
1840.4048007451
 20
1013.0441521203
 30
0.0
 10
1840.5257147578
 20
1012.8115560145
 30
0.0
 10
1840.6908462696
 20
1012.5993315521
 30
0.0
 10
1840.8788565759
 20
1012.4166480235
 30
0.0
  0
SPLINE
  5
6D4
100
AcDbEntity
  8
0
100
AcDbSpline
 62
7
  6
CONTINUOUS
 70
0
 71
3
 72
9
 73
5
 74
0
 42
0.0000001
 43
0.0000001
 44
0.0000000001
 40
0.0
 40
0.0
 40
0.0
 40
0.0
 40
0.2303994617
 40
1.0
 40
1.0
 40
1.0
 40
1.0
 10
1840.8788565759
 20
1012.4166480235
 30
0.0
 10
1841.054095933
 20
1012.246373613
 30
0.0
 10
1841.9089735726
 20
1011.6052148126
 30
0.0
 10
1843.0144409117
 20
1011.353835889
 30
0.0
 10
1843.8306080344
 20
1011.353835889
 30
0.0
  0
SPLINE
  5
6D5
100
AcDbEntity
  8
0
100
AcDbSpline
 62
7
  6
CONTINUOUS
 70
0
 71
3
 72
8
 73
4
 74
0
 42
0.0000001
 43
0.0000001
 44
0.0000000001
 40
0.0
 40
0.0
 40
0.0
 40
0.0
 40
1.0
 40
1.0
 40
1.0
 40
1.0
 10
1789.3806080344
 20
1013.9347756403
 30
0.0
 10
1789.3806080344
 20
1013.6286397544
 30
0.0
 10
1789.4635971753
 20
1013.3157782099
 30
0.0
 10
1789.6048007451
 20
1013.0441521203
 30
0.0
  0
SPLINE
  5
6D6
100
AcDbEntity
  8
0
100
AcDbSpline
 62
7
  6
CONTINUOUS
 70
0
 71
3
 72
8
 73
4
 74
0
 42
0.0000001
 43
0.0000001
 44
0.0000000001
 40
0.0
 40
0.0
 40
0.0
 40
0.0
 40
1.0
 40
1.0
 40
1.0
 40
1.0
 10
1789.6048007451
 20
1013.0441521203
 30
0.0
 10
1789.7257147578
 20
1012.8115560145
 30
0.0
 10
1789.8908462696
 20
1012.5993315521
 30
0.0
 10
1790.0788565759
 20
1012.4166480235
 30
0.0
  0
SPLINE
  5
6D7
100
AcDbEntity
  8
0
100
AcDbSpline
 62
7
  6
CONTINUOUS
 70
0
 71
3
 72
9
 73
5
 74
0
 42
0.0000001
 43
0.0000001
 44
0.0000000001
 40
0.0
 40
0.0
 40
0.0
 40
0.0
 40
0.2303994617
 40
1.0
 40
1.0
 40
1.0
 40
1.0
 10
1790.0788565759
 20
1012.4166480235
 30
0.0
 10
1790.254095933
 20
1012.246373613
 30
0.0
 10
1791.1089735726
 20
1011.6052148126
 30
0.0
 10
1792.2144409117
 20
1011.353835889
 30
0.0
 10
1793.0306080344
 20
1011.353835889
 30
0.0
  0
SPLINE
  5
6D8
100
AcDbEntity
  8
0
100
AcDbSpline
 62
7
  6
CONTINUOUS
 70
0
 71
3
 72
9
 73
5
 74
0
 42
0.0000001
 43
0.0000001
 44
0.0000000001
 40
0.0
 40
0.0
 40
0.0
 40
0.0
 40
0.2688743252
 40
1.0
 40
1.0
 40
1.0
 40
1.0
 10
1793.0306080344
 20
1011.353835889
 30
0.0
 10
1793.3153600951
 20
1011.353835889
 30
0.0
 10
1794.3679857429
 20
1011.4389463467
 30
0.0
 10
1795.4271941762
 20
1011.8771458238
 30
0.0
 10
1795.9824846282
 20
1012.4167696577
 30
0.0
  0
SPLINE
  5
6D9
100
AcDbEntity
  8
0
100
AcDbSpline
 62
7
  6
CONTINUOUS
 70
0
 71
3
 72
8
 73
4
 74
0
 42
0.0000001
 43
0.0000001
 44
0.0000000001
 40
0.0
 40
0.0
 40
0.0
 40
0.0
 40
1.0
 40
1.0
 40
1.0
 40
1.0
 10
1795.9824846282
 20
1012.4167696577
 30
0.0
 10
1796.1941762314
 20
1012.6224887262
 30
0.0
 10
1796.3773448783
 20
1012.8666558887
 30
0.0
 10
1796.5008215638
 20
1013.1347737325
 30
0.0
  0
SPLINE
  5
6DA
100
AcDbEntity
  8
0
100
AcDbSpline
 62
7
  6
CONTINUOUS
 70
0
 71
3
 72
8
 73
4
 74
0
 42
0.0000001
 43
0.0000001
 44
0.0000000001
 40
0.0
 40
0.0
 40
0.0
 40
0.0
 40
1.0
 40
1.0
 40
1.0
 40
1.0
 10
1796.5008215638
 20
1013.1347737325
 30
0.0
 10
1796.6151517029
 20
1013.3830307233
 30
0.0
 10
1796.6806080344
 20
1013.6614573018
 30
0.0
 10
1796.6806080344
 20
1013.9347756403
 30
0.0
  0
SPLINE
  5
6DB
100
AcDbEntity
  8
0
100
AcDbSpline
 62
7
  6
CONTINUOUS
 70
0
 71
3
 72
9
 73
5
 74
0
 42
0.0000001
 43
0.0000001
 44
0.0000000001
 40
0.0
 40
0.0
 40
0.0
 40
0.0
 40
0.2396722458
 40
1.0
 40
1.0
 40
1.0
 40
1.0
 10
1858.4555482775
 20
1102.0261384506
 30
0.0
 10
1858.4555397064
 20
1101.839028484
 30
0.0
 10
1858.370362584
 20
1101.0571858835
 30
0.0
 10
1857.9246523467
 20
1100.3438716126
 30
0.0
 10
1857.5022951769
 20
1099.9267950346
 30
0.0
  0
SPLINE
  5
6DC
100
AcDbEntity
  8
0
100
AcDbSpline
 62
7
  6
CONTINUOUS
 70
0
 71
3
 72
8
 73
4
 74
0
 42
0.0000001
 43
0.0000001
 44
0.0000000001
 40
0.0
 40
0.0
 40
0.0
 40
0.0
 40
1.0
 40
1.0
 40
1.0
 40
1.0
 10
1857.5022951769
 20
1099.9267950346
 30
0.0
 10
1857.2712109705
 20
1099.6985999975
 30
0.0
 10
1857.010763088
 20
1099.4980767427
 30
0.0
 10
1856.7355075913
 20
1099.3257186941
 30
0.0
  0
SPLINE
  5
6DD
100
AcDbEntity
  8
0
100
AcDbSpline
 62
7
  6
CONTINUOUS
 70
0
 71
3
 72
9
 73
5
 74
0
 42
0.0000001
 43
0.0000001
 44
0.0000000001
 40
0.0
 40
0.0
 40
0.0
 40
0.0
 40
0.2401933227
 40
1.0
 40
1.0
 40
1.0
 40
1.0
 10
1856.3856036627
 20
1099.1253817635
 30
0.0
 10
1856.1636300644
 20
1099.0094082677
 30
0.0
 10
1855.2063128033
 20
1098.5912288793
 30
0.0
 10
1854.1478403899
 20
1098.4198938565
 30
0.0
 10
1853.3556080344
 20
1098.4198938565
 30
0.0
  0
SPLINE
  5
6DE
100
AcDbEntity
  8
0
100
AcDbSpline
 62
7
  6
CONTINUOUS
 70
0
 71
3
 72
11
 73
7
 74
0
 42
0.0000001
 43
0.0000001
 44
0.0000000001
 40
0.0
 40
0.0
 40
0.0
 40
0.0
 40
0.2094573484
 40
0.4446360495
 40
0.7119676418
 40
1.0
 40
1.0
 40
1.0
 40
1.0
 10
1858.4555482775
 20
1103.4403519928
 30
0.0
 10
1858.4555263887
 20
1103.9181921984
 30
0.0
 10
1858.1451934434
 20
1104.9445754001
 30
0.0
 10
1856.9568325585
 20
1106.1197651932
 30
0.0
 10
1855.2876935154
 20
1106.8748912188
 30
0.0
 10
1854.012703345
 20
1107.046596587
 30
0.0
 10
1853.3556080344
 20
1107.046596587
 30
0.0
  0
SPLINE
  5
6DF
100
AcDbEntity
  8
0
100
AcDbSpline
 62
7
  6
CONTINUOUS
 70
0
 71
3
 72
11
 73
7
 74
0
 42
0.0000001
 43
0.0000001
 44
0.0000000001
 40
0.0
 40
0.0
 40
0.0
 40
0.0
 40
0.2880108602
 40
0.5553333993
 40
0.7905022209
 40
1.0
 40
1.0
 40
1.0
 40
1.0
 10
1793.0306080344
 20
1018.0713503103
 30
0.0
 10
1793.5008507644
 20
1018.0713503103
 30
0.0
 10
1794.4133205575
 20
1017.9485040748
 30
0.0
 10
1795.6077763355
 20
1017.4080146474
 30
0.0
 10
1796.4585233506
 20
1016.5671388896
 30
0.0
 10
1796.6806080344
 20
1015.8324629644
 30
0.0
 10
1796.6806080344
 20
1015.4904105589
 30
0.0
  0
SPLINE
  5
6E0
100
AcDbEntity
  8
0
100
AcDbSpline
 62
7
  6
CONTINUOUS
 70
0
 71
3
 72
11
 73
7
 74
0
 42
0.0000001
 43
0.0000001
 44
0.0000000001
 40
0.0
 40
0.0
 40
0.0
 40
0.0
 40
0.2094979882
 40
0.4446669138
 40
0.7119894099
 40
1.0
 40
1.0
 40
1.0
 40
1.0
 10
1789.3806080344
 20
1015.4904105589
 30
0.0
 10
1789.3806080344
 20
1015.8324633048
 30
0.0
 10
1789.6026931226
 20
1016.5671397466
 30
0.0
 10
1790.4534408678
 20
1017.4080153896
 30
0.0
 10
1791.6478964852
 20
1017.9485042586
 30
0.0
 10
1792.5603657471
 20
1018.0713503103
 30
0.0
 10
1793.0306080344
 20
1018.0713503103
 30
0.0
  0
SPLINE
  5
6E1
100
AcDbEntity
  8
0
100
AcDbSpline
 62
7
  6
CONTINUOUS
 70
0
 71
3
 72
11
 73
7
 74
0
 42
0.0000001
 43
0.0000001
 44
0.0000000001
 40
0.0
 40
0.0
 40
0.0
 40
0.0
 40
0.2880108602
 40
0.5553333993
 40
0.7905022209
 40
1.0
 40
1.0
 40
1.0
 40
1.0
 10
1843.8306080344
 20
1018.0713503103
 30
0.0
 10
1844.3008507644
 20
1018.0713503103
 30
0.0
 10
1845.2133205575
 20
1017.9485040748
 30
0.0
 10
1846.4077763355
 20
1017.4080146474
 30
0.0
 10
1847.2585233506
 20
1016.5671388896
 30
0.0
 10
1847.4806080344
 20
1015.8324629644
 30
0.0
 10
1847.4806080344
 20
1015.4904105589
 30
0.0
  0
SPLINE
  5
6E2
100
AcDbEntity
  8
0
100
AcDbSpline
 62
7
  6
CONTINUOUS
 70
0
 71
3
 72
11
 73
7
 74
0
 42
0.0000001
 43
0.0000001
 44
0.0000000001
 40
0.0
 40
0.0
 40
0.0
 40
0.0
 40
0.2094979882
 40
0.4446669138
 40
0.7119894099
 40
1.0
 40
1.0
 40
1.0
 40
1.0
 10
1840.1806080344
 20
1015.4904105589
 30
0.0
 10
1840.1806080344
 20
1015.8324633048
 30
0.0
 10
1840.4026931226
 20
1016.5671397466
 30
0.0
 10
1841.2534408678
 20
1017.4080153896
 30
0.0
 10
1842.4478964852
 20
1017.9485042586
 30
0.0
 10
1843.3603657471
 20
1018.0713503103
 30
0.0
 10
1843.8306080344
 20
1018.0713503103
 30
0.0
  0
SPLINE
  5
6E3
100
AcDbEntity
  8
0
100
AcDbSpline
 62
7
  6
CONTINUOUS
 70
0
 71
3
 72
11
 73
7
 74
0
 42
0.0000001
 43
0.0000001
 44
0.0000000001
 40
0.0
 40
0.0
 40
0.0
 40
0.0
 40
0.2897971962
 40
0.5761051282
 40
0.8156238731
 40
1.0
 40
1.0
 40
1.0
 40
1.0
 10
1654.2506080347
 20
969.5165300518
 30
0.0
 10
1654.2506127972
 20
969.0125968362
 30
0.0
 10
1654.3562521474
 20
968.0067939568
 30
0.0
 10
1654.8370460226
 20
966.656189626
 30
0.0
 10
1655.6108650924
 20
965.6504432612
 30
0.0
 10
1656.3313230334
 20
965.341794159
 30
0.0
 10
1656.6512017282
 20
965.3200815785
 30
0.0
  0
SPLINE
  5
6E4
100
AcDbEntity
  8
0
100
AcDbSpline
 62
7
  6
CONTINUOUS
 70
0
 71
3
 72
11
 73
7
 74
0
 42
0.0000001
 43
0.0000001
 44
0.0000000001
 40
0.0
 40
0.0
 40
0.0
 40
0.0
 40
0.2928400497
 40
0.5805756345
 40
0.8181245614
 40
1.0
 40
1.0
 40
1.0
 40
1.0
 10
1654.2506080347
 20
976.1165025769
 30
0.0
 10
1654.2506129361
 20
976.6351289503
 30
0.0
 10
1654.3622934184
 20
977.6678067211
 30
0.0
 10
1654.8679172706
 20
979.0430420437
 30
0.0
 10
1655.6814957688
 20
980.0470527998
 30
0.0
 10
1656.4285003589
 20
980.3163330819
 30
0.0
 10
1656.750605888
 20
980.3163335464
 30
0.0
  0
SPLINE
  5
6E5
100
AcDbEntity
  8
0
100
AcDbSpline
 62
7
  6
CONTINUOUS
 70
0
 71
3
 72
11
 73
7
 74
0
 42
0.0000001
 43
0.0000001
 44
0.0000000001
 40
0.0
 40
0.0
 40
0.0
 40
0.0
 40
0.2897971962
 40
0.5761051282
 40
0.8156238731
 40
1.0
 40
1.0
 40
1.0
 40
1.0
 10
1982.6106080341
 20
969.5165300518
 30
0.0
 10
1982.6106032716
 20
969.0125968362
 30
0.0
 10
1982.5049639214
 20
968.0067939568
 30
0.0
 10
1982.0241700462
 20
966.656189626
 30
0.0
 10
1981.2503509765
 20
965.6504432612
 30
0.0
 10
1980.5298930354
 20
965.341794159
 30
0.0
 10
1980.2100143407
 20
965.3200815785
 30
0.0
  0
SPLINE
  5
6E6
100
AcDbEntity
  8
0
100
AcDbSpline
 62
7
  6
CONTINUOUS
 70
0
 71
3
 72
11
 73
7
 74
0
 42
0.0000001
 43
0.0000001
 44
0.0000000001
 40
0.0
 40
0.0
 40
0.0
 40
0.0
 40
0.2928400497
 40
0.5805756345
 40
0.8181245614
 40
1.0
 40
1.0
 40
1.0
 40
1.0
 10
1982.6106080341
 20
976.1165025769
 30
0.0
 10
1982.6106031328
 20
976.6351289503
 30
0.0
 10
1982.4989226504
 20
977.6678067211
 30
0.0
 10
1981.9932987983
 20
979.0430420437
 30
0.0
 10
1981.1797203001
 20
980.0470527998
 30
0.0
 10
1980.4327157099
 20
980.3163330819
 30
0.0
 10
1980.1106101808
 20
980.3163335464
 30
0.0
  0
SPLINE
  5
6E7
100
AcDbEntity
  8
0
100
AcDbSpline
 62
7
  6
CONTINUOUS
 70
0
 71
3
 72
11
 73
7
 74
0
 42
0.0000001
 43
0.0000001
 44
0.0000000001
 40
0.0
 40
0.0
 40
0.0
 40
0.0
 40
0.2872471815
 40
0.5489800548
 40
0.7834300276
 40
1.0
 40
1.0
 40
1.0
 40
1.0
 10
1678.4306108189
 20
781.2323381941
 30
0.0
 10
1677.1650307221
 20
781.5025582993
 30
0.0
 10
1674.7935777128
 20
782.3112021954
 30
0.0
 10
1671.846924295
 20
784.3465950789
 30
0.0
 10
1669.8987997374
 20
786.988237398
 30
0.0
 10
1669.430617979
 20
789.0412498756
 30
0.0
 10
1669.430617979
 20
790.0169413644
 30
0.0
  0
SPLINE
  5
6E8
100
AcDbEntity
  8
0
100
AcDbSpline
 62
7
  6
CONTINUOUS
 70
0
 71
3
 72
11
 73
7
 74
0
 42
0.0000001
 43
0.0000001
 44
0.0000000001
 40
0.0
 40
0.0
 40
0.0
 40
0.0
 40
0.2872551414
 40
0.5489851156
 40
0.7834296975
 40
1.0
 40
1.0
 40
1.0
 40
1.0
 10
1958.43060525
 20
781.2323381941
 30
0.0
 10
1959.6962115086
 20
781.5025638852
 30
0.0
 10
1962.0676399491
 20
782.3112642128
 30
0.0
 10
1965.0143180354
 20
784.3466368392
 30
0.0
 10
1966.9621610696
 20
786.9883502102
 30
0.0
 10
1967.4305980899
 20
789.0412552563
 30
0.0
 10
1967.4305980899
 20
790.0169413644
 30
0.0
  0
SPLINE
  5
6E9
100
AcDbEntity
  8
0
100
AcDbSpline
 62
7
  6
CONTINUOUS
 70
0
 71
3
 72
9
 73
5
 74
0
 42
0.0000001
 43
0.0000001
 44
0.0000000001
 40
0.0
 40
0.0
 40
0.0
 40
0.0
 40
0.2582360031
 40
1.0
 40
1.0
 40
1.0
 40
1.0
 10
1853.3556080344
 20
1098.4198938565
 30
0.0
 10
1853.0882352721
 20
1098.4198938565
 30
0.0
 10
1852.0545535211
 20
1098.4775997413
 30
0.0
 10
1851.0266185605
 20
1098.7625976919
 30
0.0
 10
1850.3445176825
 20
1099.1155505313
 30
0.0
  0
SPLINE
  5
6EA
100
AcDbEntity
  8
0
100
AcDbSpline
 62
7
  6
CONTINUOUS
 70
0
 71
3
 72
8
 73
4
 74
0
 42
0.0000001
 43
0.0000001
 44
0.0000000001
 40
0.0
 40
0.0
 40
0.0
 40
0.0
 40
1.0
 40
1.0
 40
1.0
 40
1.0
 10
1849.9788757209
 20
1099.3237342141
 30
0.0
 10
1849.7110471988
 20
1099.4911533563
 30
0.0
 10
1849.4572618103
 20
1099.6851435056
 30
0.0
 10
1849.2308138643
 20
1099.905331185
 30
0.0
  0
SPLINE
  5
6EB
100
AcDbEntity
  8
0
100
AcDbSpline
 62
7
  6
CONTINUOUS
 70
0
 71
3
 72
9
 73
5
 74
0
 42
0.0000001
 43
0.0000001
 44
0.0000000001
 40
0.0
 40
0.0
 40
0.0
 40
0.0
 40
0.2696854358
 40
1.0
 40
1.0
 40
1.0
 40
1.0
 10
1849.2308138643
 20
1099.905331185
 30
0.0
 10
1849.0781338837
 20
1100.0537902513
 30
0.0
 10
1848.5551351334
 20
1100.6446421571
 30
0.0
 10
1848.2556413741
 20
1101.4494420862
 30
0.0
 10
1848.2556677913
 20
1102.0261384305
 30
0.0
  0
SPLINE
  5
6EC
100
AcDbEntity
  8
0
100
AcDbSpline
 62
7
  6
CONTINUOUS
 70
0
 71
3
 72
11
 73
7
 74
0
 42
0.0000001
 43
0.0000001
 44
0.0000000001
 40
0.0
 40
0.0
 40
0.0
 40
0.0
 40
0.288031445
 40
0.5553527569
 40
0.7905332826
 40
1.0
 40
1.0
 40
1.0
 40
1.0
 10
1853.3556080344
 20
1107.046596587
 30
0.0
 10
1852.6985138017
 20
1107.046596587
 30
0.0
 10
1851.4235492716
 20
1106.8748958332
 30
0.0
 10
1849.7544149494
 20
1106.1197970867
 30
0.0
 10
1848.5660494383
 20
1104.9446305863
 30
0.0
 10
1848.2556459015
 20
1103.9182143235
 30
0.0
 10
1848.2556677913
 20
1103.440352013
 30
0.0
  0
SPLINE
  5
6ED
100
AcDbEntity
  8
0
100
AcDbSpline
 62
7
  6
CONTINUOUS
 70
0
 71
3
 72
9
 73
5
 74
0
 42
0.0000001
 43
0.0000001
 44
0.0000000001
 40
0.0
 40
0.0
 40
0.0
 40
0.0
 40
0.2582360031
 40
1.0
 40
1.0
 40
1.0
 40
1.0
 10
1783.5056080344
 20
1098.4198938565
 30
0.0
 10
1783.2382352721
 20
1098.4198938565
 30
0.0
 10
1782.2045535211
 20
1098.4775997413
 30
0.0
 10
1781.1766185605
 20
1098.7625976919
 30
0.0
 10
1780.4945176825
 20
1099.1155505313
 30
0.0
  0
SPLINE
  5
6EE
100
AcDbEntity
  8
0
100
AcDbSpline
 62
7
  6
CONTINUOUS
 70
0
 71
3
 72
8
 73
4
 74
0
 42
0.0000001
 43
0.0000001
 44
0.0000000001
 40
0.0
 40
0.0
 40
0.0
 40
0.0
 40
1.0
 40
1.0
 40
1.0
 40
1.0
 10
1780.1288757209
 20
1099.3237342141
 30
0.0
 10
1779.8610471988
 20
1099.4911533563
 30
0.0
 10
1779.6072618103
 20
1099.6851435056
 30
0.0
 10
1779.3808138643
 20
1099.905331185
 30
0.0
  0
SPLINE
  5
6EF
100
AcDbEntity
  8
0
100
AcDbSpline
 62
7
  6
CONTINUOUS
 70
0
 71
3
 72
9
 73
5
 74
0
 42
0.0000001
 43
0.0000001
 44
0.0000000001
 40
0.0
 40
0.0
 40
0.0
 40
0.0
 40
0.2696854358
 40
1.0
 40
1.0
 40
1.0
 40
1.0
 10
1779.3808138643
 20
1099.905331185
 30
0.0
 10
1779.2281338837
 20
1100.0537902513
 30
0.0
 10
1778.7051351334
 20
1100.6446421571
 30
0.0
 10
1778.4056413741
 20
1101.4494420862
 30
0.0
 10
1778.4056677913
 20
1102.0261384305
 30
0.0
  0
SPLINE
  5
6F0
100
AcDbEntity
  8
0
100
AcDbSpline
 62
7
  6
CONTINUOUS
 70
0
 71
3
 72
11
 73
7
 74
0
 42
0.0000001
 43
0.0000001
 44
0.0000000001
 40
0.0
 40
0.0
 40
0.0
 40
0.0
 40
0.288031445
 40
0.5553527569
 40
0.7905332826
 40
1.0
 40
1.0
 40
1.0
 40
1.0
 10
1783.5056080344
 20
1107.046596587
 30
0.0
 10
1782.8485138017
 20
1107.046596587
 30
0.0
 10
1781.5735492716
 20
1106.8748958332
 30
0.0
 10
1779.9044149494
 20
1106.1197970867
 30
0.0
 10
1778.7160494383
 20
1104.9446305863
 30
0.0
 10
1778.4056459015
 20
1103.9182143235
 30
0.0
 10
1778.4056677913
 20
1103.440352013
 30
0.0
  0
SPLINE
  5
6F1
100
AcDbEntity
  8
0
100
AcDbSpline
 62
7
  6
CONTINUOUS
 70
0
 71
3
 72
11
 73
7
 74
0
 42
0.0000001
 43
0.0000001
 44
0.0000000001
 40
0.0
 40
0.0
 40
0.0
 40
0.0
 40
0.2880108602
 40
0.5553333993
 40
0.7905022209
 40
1.0
 40
1.0
 40
1.0
 40
1.0
 10
1843.8306080344
 20
1010.2931757172
 30
0.0
 10
1843.3603653044
 20
1010.2931757172
 30
0.0
 10
1842.4478955114
 20
1010.4160219527
 30
0.0
 10
1841.2534397334
 20
1010.9565113801
 30
0.0
 10
1840.4026927183
 20
1011.7973871379
 30
0.0
 10
1840.1806080344
 20
1012.5320630631
 30
0.0
 10
1840.1806080344
 20
1012.8741154685
 30
0.0
  0
SPLINE
  5
6F2
100
AcDbEntity
  8
0
100
AcDbSpline
 62
7
  6
CONTINUOUS
 70
0
 71
3
 72
8
 73
4
 74
0
 42
0.0000001
 43
0.0000001
 44
0.0000000001
 40
0.0
 40
0.0
 40
0.0
 40
0.0
 40
1.0
 40
1.0
 40
1.0
 40
1.0
 10
1848.2556677913
 20
1103.440352013
 30
0.0
 10
1848.2556849637
 20
1103.0654722328
 30
0.0
 10
1848.343477426
 20
1102.6837021573
 30
0.0
 10
1848.4979176512
 20
1102.3421131254
 30
0.0
  0
SPLINE
  5
6F3
100
AcDbEntity
  8
0
100
AcDbSpline
 62
7
  6
CONTINUOUS
 70
0
 71
3
 72
9
 73
5
 74
0
 42
0.0000001
 43
0.0000001
 44
0.0000000001
 40
0.0
 40
0.0
 40
0.0
 40
0.0
 40
0.7395201382
 40
1.0
 40
1.0
 40
1.0
 40
1.0
 10
1848.4979176512
 20
1102.3421131254
 30
0.0
 10
1848.6229995844
 20
1102.0654584103
 30
0.0
 10
1848.8526624876
 20
1101.7162341642
 30
0.0
 10
1849.1328269339
 20
1101.4161511774
 30
0.0
 10
1849.208920892
 20
1101.3410085969
 30
0.0
  0
SPLINE
  5
6F4
100
AcDbEntity
  8
0
100
AcDbSpline
 62
7
  6
CONTINUOUS
 70
0
 71
3
 72
9
 73
5
 74
0
 42
0.0000001
 43
0.0000001
 44
0.0000000001
 40
0.0
 40
0.0
 40
0.0
 40
0.0
 40
0.2405071794
 40
1.0
 40
1.0
 40
1.0
 40
1.0
 10
1849.208920892
 20
1101.3410085969
 30
0.0
 10
1849.287493577
 20
1101.2634182801
 30
0.0
 10
1849.6277777004
 20
1100.9546595467
 30
0.0
 10
1850.0165413798
 20
1100.701074203
 30
0.0
 10
1850.3256124062
 20
1100.5395953259
 30
0.0
  0
SPLINE
  5
6F5
100
AcDbEntity
  8
0
100
AcDbSpline
 62
7
  6
CONTINUOUS
 70
0
 71
3
 72
9
 73
5
 74
0
 42
0.0000001
 43
0.0000001
 44
0.0000000001
 40
0.0
 40
0.0
 40
0.0
 40
0.0
 40
0.2401933227
 40
1.0
 40
1.0
 40
1.0
 40
1.0
 10
1850.3256124062
 20
1100.5395953259
 30
0.0
 10
1850.5475860045
 20
1100.42362183
 30
0.0
 10
1851.5049032655
 20
1100.0054424417
 30
0.0
 10
1852.563375679
 20
1099.8341074189
 30
0.0
 10
1853.3556080344
 20
1099.8341074189
 30
0.0
  0
SPLINE
  5
6F6
100
AcDbEntity
  8
0
100
AcDbSpline
 62
7
  6
CONTINUOUS
 70
0
 71
3
 72
9
 73
5
 74
0
 42
0.0000001
 43
0.0000001
 44
0.0000000001
 40
0.0
 40
0.0
 40
0.0
 40
0.0
 40
0.2688743252
 40
1.0
 40
1.0
 40
1.0
 40
1.0
 10
1777.8806080344
 20
1021.5361735381
 30
0.0
 10
1777.4905367185
 20
1021.5361735381
 30
0.0
 10
1776.0485837762
 20
1021.41958387
 30
0.0
 10
1774.5976133197
 20
1020.8193106137
 30
0.0
 10
1773.8369414676
 20
1020.0800998823
 30
0.0
  0
SPLINE
  5
6F7
100
AcDbEntity
  8
0
100
AcDbSpline
 62
7
  6
CONTINUOUS
 70
0
 71
3
 72
9
 73
5
 74
0
 42
0.0000001
 43
0.0000001
 44
0.0000000001
 40
0.0
 40
0.0
 40
0.0
 40
0.0
 40
0.2696276453
 40
1.0
 40
1.0
 40
1.0
 40
1.0
 10
1773.8369414676
 20
1020.0800998823
 30
0.0
 10
1773.6872195194
 20
1019.9346020956
 30
0.0
 10
1773.1741672878
 20
1019.355413971
 30
0.0
 10
1772.8806080344
 20
1018.5661684605
 30
0.0
 10
1772.8806080344
 20
1018.0006396321
 30
0.0
  0
SPLINE
  5
6F8
100
AcDbEntity
  8
0
100
AcDbSpline
 62
7
  6
CONTINUOUS
 70
0
 71
3
 72
11
 73
7
 74
0
 42
0.0000001
 43
0.0000001
 44
0.0000000001
 40
0.0
 40
0.0
 40
0.0
 40
0.0
 40
0.190557241
 40
0.4308346546
 40
0.7143670918
 40
1.0
 40
1.0
 40
1.0
 40
1.0
 10
1656.7506058879
 20
965.8901634765
 30
0.0
 10
1656.4307174583
 20
965.8901639027
 30
0.0
 10
1655.7007543415
 20
966.1273823006
 30
0.0
 10
1654.8751574906
 20
967.0502828163
 30
0.0
 10
1654.3636126171
 20
968.3293762094
 30
0.0
 10
1654.2506175811
 20
969.2893093171
 30
0.0
 10
1654.2506080356
 20
969.7688012639
 30
0.0
  0
SPLINE
  5
6F9
100
AcDbEntity
  8
0
100
AcDbSpline
 62
7
  6
CONTINUOUS
 70
0
 71
3
 72
9
 73
5
 74
0
 42
0.0000001
 43
0.0000001
 44
0.0000000001
 40
0.0
 40
0.0
 40
0.0
 40
0.0
 40
0.2391584818
 40
1.0
 40
1.0
 40
1.0
 40
1.0
 10
1863.9806080344
 20
1018.0006396321
 30
0.0
 10
1863.9806080344
 20
1018.1860594685
 30
0.0
 10
1863.8946145131
 20
1018.9624998572
 30
0.0
 10
1863.447162308
 20
1019.6691936477
 30
0.0
 10
1863.024103183
 20
1020.0802665044
 30
0.0
  0
SPLINE
  5
6FA
100
AcDbEntity
  8
0
100
AcDbSpline
 62
7
  6
CONTINUOUS
 70
0
 71
3
 72
9
 73
5
 74
0
 42
0.0000001
 43
0.0000001
 44
0.0000000001
 40
0.0
 40
0.0
 40
0.0
 40
0.0
 40
0.2303994617
 40
1.0
 40
1.0
 40
1.0
 40
1.0
 10
1863.024103183
 20
1020.0802665044
 30
0.0
 10
1862.7840492692
 20
1020.3135191216
 30
0.0
 10
1861.6129840095
 20
1021.1918188483
 30
0.0
 10
1860.0986451888
 20
1021.5361735381
 30
0.0
 10
1858.9806080344
 20
1021.5361735381
 30
0.0
  0
SPLINE
  5
6FB
100
AcDbEntity
  8
0
100
AcDbSpline
 62
7
  6
CONTINUOUS
 70
0
 71
3
 72
11
 73
7
 74
0
 42
0.0000001
 43
0.0000001
 44
0.0000000001
 40
0.0
 40
0.0
 40
0.0
 40
0.0
 40
0.2856329082
 40
0.5691653454
 40
0.809442759
 40
1.0
 40
1.0
 40
1.0
 40
1.0
 10
1982.6106080332
 20
969.7688012639
 30
0.0
 10
1982.6105984877
 20
969.2893093171
 30
0.0
 10
1982.4976034517
 20
968.3293762094
 30
0.0
 10
1981.9860585782
 20
967.0502828163
 30
0.0
 10
1981.1604617274
 20
966.1273823006
 30
0.0
 10
1980.4304986106
 20
965.8901639027
 30
0.0
 10
1980.1106101809
 20
965.8901634765
 30
0.0
  0
SPLINE
  5
6FC
100
AcDbEntity
  8
0
100
AcDbSpline
 62
7
  6
CONTINUOUS
 70
0
 71
3
 72
8
 73
4
 74
0
 42
0.0000001
 43
0.0000001
 44
0.0000000001
 40
0.0
 40
0.0
 40
0.0
 40
0.0
 40
1.0
 40
1.0
 40
1.0
 40
1.0
 10
1778.4056677913
 20
1103.440352013
 30
0.0
 10
1778.4056849637
 20
1103.0654722328
 30
0.0
 10
1778.493477426
 20
1102.6837021573
 30
0.0
 10
1778.6479176512
 20
1102.3421131254
 30
0.0
  0
SPLINE
  5
6FD
100
AcDbEntity
  8
0
100
AcDbSpline
 62
7
  6
CONTINUOUS
 70
0
 71
3
 72
9
 73
5
 74
0
 42
0.0000001
 43
0.0000001
 44
0.0000000001
 40
0.0
 40
0.0
 40
0.0
 40
0.0
 40
0.7395201382
 40
1.0
 40
1.0
 40
1.0
 40
1.0
 10
1778.6479176512
 20
1102.3421131254
 30
0.0
 10
1778.7729995844
 20
1102.0654584103
 30
0.0
 10
1779.0026624876
 20
1101.7162341642
 30
0.0
 10
1779.2828269339
 20
1101.4161511774
 30
0.0
 10
1779.358920892
 20
1101.3410085969
 30
0.0
  0
SPLINE
  5
6FE
100
AcDbEntity
  8
0
100
AcDbSpline
 62
7
  6
CONTINUOUS
 70
0
 71
3
 72
9
 73
5
 74
0
 42
0.0000001
 43
0.0000001
 44
0.0000000001
 40
0.0
 40
0.0
 40
0.0
 40
0.0
 40
0.2405071794
 40
1.0
 40
1.0
 40
1.0
 40
1.0
 10
1779.358920892
 20
1101.3410085969
 30
0.0
 10
1779.437493577
 20
1101.2634182801
 30
0.0
 10
1779.7777777004
 20
1100.9546595467
 30
0.0
 10
1780.1665413798
 20
1100.701074203
 30
0.0
 10
1780.4756124062
 20
1100.5395953259
 30
0.0
  0
SPLINE
  5
6FF
100
AcDbEntity
  8
0
100
AcDbSpline
 62
7
  6
CONTINUOUS
 70
0
 71
3
 72
9
 73
5
 74
0
 42
0.0000001
 43
0.0000001
 44
0.0000000001
 40
0.0
 40
0.0
 40
0.0
 40
0.0
 40
0.2401933227
 40
1.0
 40
1.0
 40
1.0
 40
1.0
 10
1780.4756124062
 20
1100.5395953259
 30
0.0
 10
1780.6975860045
 20
1100.42362183
 30
0.0
 10
1781.6549032655
 20
1100.0054424417
 30
0.0
 10
1782.713375679
 20
1099.8341074189
 30
0.0
 10
1783.5056080344
 20
1099.8341074189
 30
0.0
  0
SPLINE
  5
700
100
AcDbEntity
  8
0
100
AcDbSpline
 62
7
  6
CONTINUOUS
 70
0
 71
3
 72
11
 73
7
 74
0
 42
0.0000001
 43
0.0000001
 44
0.0000000001
 40
0.0
 40
0.0
 40
0.0
 40
0.0
 40
0.2880108602
 40
0.5553333993
 40
0.7905022209
 40
1.0
 40
1.0
 40
1.0
 40
1.0
 10
1793.0306080344
 20
1010.2931757172
 30
0.0
 10
1792.5603653044
 20
1010.2931757172
 30
0.0
 10
1791.6478955114
 20
1010.4160219527
 30
0.0
 10
1790.4534397334
 20
1010.9565113801
 30
0.0
 10
1789.6026927183
 20
1011.7973871379
 30
0.0
 10
1789.3806080344
 20
1012.5320630631
 30
0.0
 10
1789.3806080344
 20
1012.8741154685
 30
0.0
  0
SPLINE
  5
701
100
AcDbEntity
  8
0
100
AcDbSpline
 62
7
  6
CONTINUOUS
 70
0
 71
3
 72
11
 73
7
 74
0
 42
0.0000001
 43
0.0000001
 44
0.0000000001
 40
0.0
 40
0.0
 40
0.0
 40
0.0
 40
0.2094979882
 40
0.4446669138
 40
0.7119894099
 40
1.0
 40
1.0
 40
1.0
 40
1.0
 10
1796.6806080344
 20
1012.8741154685
 30
0.0
 10
1796.6806080344
 20
1012.5320627227
 30
0.0
 10
1796.4585229462
 20
1011.7973862808
 30
0.0
 10
1795.607775201
 20
1010.9565106378
 30
0.0
 10
1794.4133195837
 20
1010.4160217689
 30
0.0
 10
1793.5008503217
 20
1010.2931757172
 30
0.0
 10
1793.0306080344
 20
1010.2931757172
 30
0.0
  0
SPLINE
  5
702
100
AcDbEntity
  8
0
100
AcDbSpline
 62
7
  6
CONTINUOUS
 70
0
 71
3
 72
11
 73
7
 74
0
 42
0.0000001
 43
0.0000001
 44
0.0000000001
 40
0.0
 40
0.0
 40
0.0
 40
0.0
 40
0.2094979882
 40
0.4446669138
 40
0.7119894099
 40
1.0
 40
1.0
 40
1.0
 40
1.0
 10
1847.4806080344
 20
1012.8741154685
 30
0.0
 10
1847.4806080344
 20
1012.5320627227
 30
0.0
 10
1847.2585229462
 20
1011.7973862808
 30
0.0
 10
1846.407775201
 20
1010.9565106378
 30
0.0
 10
1845.2133195837
 20
1010.4160217689
 30
0.0
 10
1844.3008503217
 20
1010.2931757172
 30
0.0
 10
1843.8306080344
 20
1010.2931757172
 30
0.0
  0
SPLINE
  5
703
100
AcDbEntity
  8
0
100
AcDbSpline
 62
7
  6
CONTINUOUS
 70
0
 71
3
 72
9
 73
5
 74
0
 42
0.0000001
 43
0.0000001
 44
0.0000000001
 40
0.0
 40
0.0
 40
0.0
 40
0.0
 40
0.2582360031
 40
1.0
 40
1.0
 40
1.0
 40
1.0
 10
1853.3556080344
 20
1099.8341074189
 30
0.0
 10
1853.6229807968
 20
1099.8341074189
 30
0.0
 10
1854.6566625477
 20
1099.8918133037
 30
0.0
 10
1855.6845975083
 20
1100.1768112543
 30
0.0
 10
1856.3666983863
 20
1100.5297640936
 30
0.0
  0
SPLINE
  5
704
100
AcDbEntity
  8
0
100
AcDbSpline
 62
7
  6
CONTINUOUS
 70
0
 71
3
 72
9
 73
5
 74
0
 42
0.0000001
 43
0.0000001
 44
0.0000000001
 40
0.0
 40
0.0
 40
0.0
 40
0.0
 40
0.2598593291
 40
1.0
 40
1.0
 40
1.0
 40
1.0
 10
1856.3666983863
 20
1100.5297640936
 30
0.0
 10
1856.4719388164
 20
1100.5842207141
 30
0.0
 10
1856.8697736136
 20
1100.8070150693
 30
0.0
 10
1857.2384311319
 20
1101.0842630859
 30
0.0
 10
1857.4804022046
 20
1101.3195447474
 30
0.0
  0
SPLINE
  5
705
100
AcDbEntity
  8
0
100
AcDbSpline
 62
7
  6
CONTINUOUS
 70
0
 71
3
 72
9
 73
5
 74
0
 42
0.0000001
 43
0.0000001
 44
0.0000000001
 40
0.0
 40
0.0
 40
0.0
 40
0.0
 40
0.2604933086
 40
1.0
 40
1.0
 40
1.0
 40
1.0
 10
1857.4804022046
 20
1101.3195447474
 30
0.0
 10
1857.5570919955
 20
1101.3941144108
 30
0.0
 10
1857.8397048718
 20
1101.6919917982
 30
0.0
 10
1858.0726163066
 20
1102.039018475
 30
0.0
 10
1858.2005968054
 20
1102.3143979274
 30
0.0
  0
SPLINE
  5
706
100
AcDbEntity
  8
0
100
AcDbSpline
 62
7
  6
CONTINUOUS
 70
0
 71
3
 72
8
 73
4
 74
0
 42
0.0000001
 43
0.0000001
 44
0.0000000001
 40
0.0
 40
0.0
 40
0.0
 40
0.0
 40
1.0
 40
1.0
 40
1.0
 40
1.0
 10
1858.2005968054
 20
1102.3143979274
 30
0.0
 10
1858.3627796381
 20
1102.6633715606
 30
0.0
 10
1858.4555659053
 20
1103.0555327268
 30
0.0
 10
1858.4555482775
 20
1103.4403519928
 30
0.0
  0
SPLINE
  5
707
100
AcDbEntity
  8
0
100
AcDbSpline
 62
7
  6
CONTINUOUS
 70
0
 71
3
 72
9
 73
5
 74
0
 42
0.0000001
 43
0.0000001
 44
0.0000000001
 40
0.0
 40
0.0
 40
0.0
 40
0.0
 40
0.2582360031
 40
1.0
 40
1.0
 40
1.0
 40
1.0
 10
1783.5056080344
 20
1099.8341074189
 30
0.0
 10
1783.7729807968
 20
1099.8341074189
 30
0.0
 10
1784.8066625477
 20
1099.8918133037
 30
0.0
 10
1785.8345975083
 20
1100.1768112543
 30
0.0
 10
1786.5166983863
 20
1100.5297640936
 30
0.0
  0
SPLINE
  5
708
100
AcDbEntity
  8
0
100
AcDbSpline
 62
7
  6
CONTINUOUS
 70
0
 71
3
 72
9
 73
5
 74
0
 42
0.0000001
 43
0.0000001
 44
0.0000000001
 40
0.0
 40
0.0
 40
0.0
 40
0.0
 40
0.2598593291
 40
1.0
 40
1.0
 40
1.0
 40
1.0
 10
1786.5166983863
 20
1100.5297640936
 30
0.0
 10
1786.6219388164
 20
1100.5842207141
 30
0.0
 10
1787.0197736136
 20
1100.8070150693
 30
0.0
 10
1787.3884311319
 20
1101.0842630859
 30
0.0
 10
1787.6304022046
 20
1101.3195447474
 30
0.0
  0
SPLINE
  5
709
100
AcDbEntity
  8
0
100
AcDbSpline
 62
7
  6
CONTINUOUS
 70
0
 71
3
 72
9
 73
5
 74
0
 42
0.0000001
 43
0.0000001
 44
0.0000000001
 40
0.0
 40
0.0
 40
0.0
 40
0.0
 40
0.2604933086
 40
1.0
 40
1.0
 40
1.0
 40
1.0
 10
1787.6304022046
 20
1101.3195447474
 30
0.0
 10
1787.7070919955
 20
1101.3941144108
 30
0.0
 10
1787.9897048718
 20
1101.6919917982
 30
0.0
 10
1788.2226163066
 20
1102.039018475
 30
0.0
 10
1788.3505968054
 20
1102.3143979274
 30
0.0
  0
SPLINE
  5
70A
100
AcDbEntity
  8
0
100
AcDbSpline
 62
7
  6
CONTINUOUS
 70
0
 71
3
 72
8
 73
4
 74
0
 42
0.0000001
 43
0.0000001
 44
0.0000000001
 40
0.0
 40
0.0
 40
0.0
 40
0.0
 40
1.0
 40
1.0
 40
1.0
 40
1.0
 10
1788.3505968054
 20
1102.3143979274
 30
0.0
 10
1788.5127796381
 20
1102.6633715606
 30
0.0
 10
1788.6055659053
 20
1103.0555327268
 30
0.0
 10
1788.6055482775
 20
1103.4403519928
 30
0.0
  0
ENDSEC
  0
SECTION
  2
OBJECTS
  0
DICTIONARY
  5
C
100
AcDbDictionary
280
0
281
1
  3
ACAD_GROUP
350
D
  3
ACAD_MLINESTYLE
350
17
  3
ACAD_LAYOUT
350
1A
  3
ACAD_PLOTSETTINGS
350
19
  3
ACAD_PLOTSTYLENAME
350
E
  0
DICTIONARY
  5
D
102
{ACAD_REACTORS
330
C
102
}
100
AcDbDictionary
280
0
281
1
  0
ACDBDICTIONARYWDFLT
  5
E
102
{ACAD_REACTORS
330
C
102
}
100
AcDbDictionary
281
1
  3
Normal
350
F
100
AcDbDictionaryWithDefault
340
F
  0
DICTIONARY
  5
17
102
{ACAD_REACTORS
330
C
102
}
100
AcDbDictionary
280
0
281
1
  3
Standard
350
18
  0
DICTIONARY
  5
19
102
{ACAD_REACTORS
330
C
102
}
100
AcDbDictionary
281
1
  0
DICTIONARY
  5
1A
102
{ACAD_REACTORS
330
C
102
}
100
AcDbDictionary
281
1
  3
Model
350
70B
  3
Layout1
350
70C
  0
ACDBPLACEHOLDER
  5
F
102
{ACAD_REACTORS
330
E
102
}
  0
MLINESTYLE
  5
18
102
{ACAD_REACTORS
330
17
102
}
100
AcDbMlineStyle
  2
STANDARD
 70
0
  3

 62
256
 51
90.0
 52
90.0
 71
2
 49
0.5
 62
256
  6
BYLAYER
 49
-0.5
 62
256
  6
BYLAYER
  0
LAYOUT
  5
70B
102
{ACAD_REACTORS
330
1A
102
}
100
AcDbPlotSettings
  1

  2
none_device
  4

  6

 40
0.0
 41
0.0
 42
0.0
 43
0.0
 44
431.8
 45
279.4
 46
0.0
 47
0.0
 48
0.0
 49
0.0
140
0.0
141
0.0
142
1.0
143
1.0
 70
1024
 72
1
 73
0
 74
0
  7

 75
0
147
1.0
148
0.0
149
0.0
100
AcDbLayout
  1
Model
 70
0
 71
0
 10
0.0
 20
0.0
 11
431.8
 21
279.4
 12
0.0
 22
0.0
 32
0.0
 14
0.0
 24
0.0
 34
0.0
 15
0.0
 25
0.0
 35
0.0
146
0.0
 13
0.0
 23
0.0
 33
0.0
 16
1.0
 26
0.0
 36
0.0
 17
0.0
 27
1.0
 37
0.0
 76
0
330
204
345
0
346
0
  0
LAYOUT
  5
70C
102
{ACAD_REACTORS
330
1A
102
}
100
AcDbPlotSettings
  1

  2
none_device
  4

  6

 40
0.0
 41
0.0
 42
0.0
 43
0.0
 44
431.8
 45
279.4
 46
0.0
 47
0.0
 48
0.0
 49
0.0
140
0.0
141
0.0
142
1.0
143
1.0
 70
0
 72
1
 73
0
 74
0
  7

 75
0
147
1.0
148
0.0
149
0.0
100
AcDbLayout
  1
Layout1
 70
0
 71
1
 10
0.0
 20
0.0
 11
431.8
 21
279.4
 12
0.0
 22
0.0
 32
0.0
 14
0.0
 24
0.0
 34
0.0
 15
0.0
 25
0.0
 35
0.0
146
0.0
 13
0.0
 23
0.0
 33
0.0
 16
1.0
 26
0.0
 36
0.0
 17
0.0
 27
1.0
 37
0.0
 76
0
330
205
345
0
346
0
  0
ENDSEC
  0
EOF
