999
DXF file: Z:\MARKETING MODELS L&T Project Work\YM-500 YOKE\fg-001423-2d-B.dxf
999
Pro/ENGINEER 2018400 by Parametric Technology Corporation
  0
SECTION
  2
HEADER
  9
$ACADVER
  1
AC1015
  9
$DWGCODEPAGE
  3
ANSI_1252
  9
$EXTMAX
 10
2590.8
 20
1676.4
 30
0.0
  9
$EXTMIN
 10
0.0
 20
0.0
 30
0.0
  9
$LIMMIN
 10
0.0
 20
0.0
  9
$LIMMAX
 10
2590.8
 20
1676.4
  9
$VIEWCTR
 10
1295.4
 20
838.2
  9
$VIEWSIZE
 40
1676.4
  9
$CLAYER
  8
0
  9
$LTSCALE
 40
142.494
  9
$CELTYPE
  6
BYLAYER
  9
$DIMSCALE
 40
1.0
  9
$DIMASZ
 40
12.0
  9
$DIMEXO
 40
1.5875
  9
$DIMDLI
 40
98.4504
  9
$DIMEXE
 40
3.175
  9
$DIMCEN
 40
23.3172
  9
$DIMLFAC
 40
1.0
  9
$DIMBLK
  1
_FILLED
  9
$DIMALT
 70
1
  9
$DIMALTD
 70
1
  9
$DIMALTTD
 70
2
  9
$DIMALTF
 40
0.0393700787
  9
$DIMTXT
 40
13.716
  9
$DIMTOL
 70
1
  9
$DIMLIM
 70
0
  9
$DIMTFAC
 40
1.0
  9
$DIMTP
 40
0.02
  9
$DIMTM
 40
0.02
  9
$DIMGAP
 40
0.625
  9
$DIMDSEP
 70
46
  9
$AUNITS
 70
0
  9
$PDMODE
 70
3
  9
$PDSIZE
 40
7.9375
  9
$HANDSEED
  5
628
  9
$TILEMODE
 70
1
  9
$MEASUREMENT
 70
1
  9
$INSUNITS
 70
4
  0
ENDSEC
  0
SECTION
  2
CLASSES
  0
CLASS
  1
ACDBDICTIONARYWDFLT
  2
AcDbDictionaryWithDefault
  3
AutoCAD 2000
 90
0
280
0
281
0
  0
CLASS
  1
ACDBPLACEHOLDER
  2
AcDbPlaceHolder
  3
AutoCAD 2000
 90
0
280
0
281
0
  0
CLASS
  1
LAYOUT
  2
AcDbLayout
  3
AutoCAD 2000
 90
0
280
0
281
0
  0
ENDSEC
  0
SECTION
  2
TABLES
  0
TABLE
  2
VPORT
  5
8
100
AcDbSymbolTable
 70
2
  0
VPORT
  5
1F4
100
AcDbSymbolTableRecord
100
AcDbViewportTableRecord
  2
*ACTIVE
 70
0
 10
0.0
 20
0.0
 11
1.0
 21
1.0
 12
1295.4
 22
838.2
 13
0.0
 23
0.0
 14
1.0
 24
1.0
 15
0.0
 25
0.0
 16
0.0
 26
0.0
 36
1.0
 17
0.0
 27
0.0
 37
0.0
 40
1676.4
 41
1.5454545455
 42
50.0
 43
0.0
 44
0.0
 50
0.0
 51
0.0
 71
0
 72
100
 73
1
 74
1
 75
0
 76
0
 77
0
 78
0
  0
ENDTAB
  0
TABLE
  2
LTYPE
  5
5
100
AcDbSymbolTable
 70
6
  0
LTYPE
  5
14
100
AcDbSymbolTableRecord
100
AcDbLinetypeTableRecord
  2
BYBLOCK
 70
0
  3

 72
65
 73
0
 40
0.0
  0
LTYPE
  5
15
100
AcDbSymbolTableRecord
100
AcDbLinetypeTableRecord
  2
BYLAYER
 70
0
  3

 72
65
 73
0
 40
0.0
  0
LTYPE
  5
16
100
AcDbSymbolTableRecord
100
AcDbLinetypeTableRecord
  2
CONTINUOUS
 70
64
  3
Solid line
 72
65
 73
0
 40
0.0
  0
LTYPE
  5
1F5
100
AcDbSymbolTableRecord
100
AcDbLinetypeTableRecord
  2
CENTER
 70
64
  3
____ _ ____ _ ____ _ ____ _ ____ _ ____ _ ____
 72
65
 73
4
 40
0.6
 49
0.375
 74
0
 49
-0.075
 74
0
 49
0.075
 74
0
 49
-0.075
 74
0
  0
LTYPE
  5
1F6
100
AcDbSymbolTableRecord
100
AcDbLinetypeTableRecord
  2
HIDDEN
 70
64
  3
- - - - - - - - - - - - - - - - - - - -
 72
65
 73
2
 40
0.2
 49
0.1
 74
0
 49
-0.1
 74
0
  0
LTYPE
  5
1F7
100
AcDbSymbolTableRecord
100
AcDbLinetypeTableRecord
  2
PHANTOM
 70
64
  3
_____ _ _ _____ _ _ _____ _ _ _____
 72
65
 73
6
 40
0.8
 49
0.45
 74
0
 49
-0.05
 74
0
 49
0.1
 74
0
 49
-0.05
 74
0
 49
0.1
 74
0
 49
-0.05
 74
0
  0
LTYPE
  5
1F8
100
AcDbSymbolTableRecord
100
AcDbLinetypeTableRecord
  2
DOT
 70
64
  3
. . . . . . . . . . . . . . . . . . . .
 72
65
 73
2
 40
0.2
 49
0.1
 74
0
 49
-0.1
 74
0
  0
LTYPE
  5
1F9
100
AcDbSymbolTableRecord
100
AcDbLinetypeTableRecord
  2
DASHED
 70
64
  3
- - - - - - - - - - - - - - - - - - - -
 72
65
 73
2
 40
0.2
 49
0.1
 74
0
 49
-0.1
 74
0
  0
ENDTAB
  0
TABLE
  2
LAYER
  5
2
100
AcDbSymbolTable
 70
36
  0
LAYER
  5
10
100
AcDbSymbolTableRecord
100
AcDbLayerTableRecord
  2
0
 70
0
 62
7
  6
CONTINUOUS
370
-3
390
F
  0
LAYER
  5
1FA
100
AcDbSymbolTableRecord
100
AcDbLayerTableRecord
  2
DEFAULT_1
 70
0
 62
7
  6
CENTER
370
-3
390
F
  0
LAYER
  5
1FB
100
AcDbSymbolTableRecord
100
AcDbLayerTableRecord
  2
DEFAULT_2
 70
0
 62
8
  6
HIDDEN
370
-3
390
F
  0
LAYER
  5
1FC
100
AcDbSymbolTableRecord
100
AcDbLayerTableRecord
  2
DEFAULT_3
 70
0
 62
7
  6
PHANTOM
370
-3
390
F
  0
LAYER
  5
1FD
100
AcDbSymbolTableRecord
100
AcDbLayerTableRecord
  2
1_ALL_PLANES
 70
0
 62
7
  6
CONTINUOUS
370
-3
390
F
  0
LAYER
  5
1FE
100
AcDbSymbolTableRecord
100
AcDbLayerTableRecord
  2
1__DEF_PLANES
 70
0
 62
7
  6
CONTINUOUS
370
-3
390
F
  0
LAYER
  5
1FF
100
AcDbSymbolTableRecord
100
AcDbLayerTableRecord
  2
2_ALL_CSYS
 70
0
 62
7
  6
CONTINUOUS
370
-3
390
F
  0
LAYER
  5
200
100
AcDbSymbolTableRecord
100
AcDbLayerTableRecord
  2
2__DEF_CSYS
 70
0
 62
7
  6
CONTINUOUS
370
-3
390
F
  0
LAYER
  5
201
100
AcDbSymbolTableRecord
100
AcDbLayerTableRecord
  2
3_ALL_AXES
 70
0
 62
7
  6
CONTINUOUS
370
-3
390
F
  0
LAYER
  5
202
100
AcDbSymbolTableRecord
100
AcDbLayerTableRecord
  2
3_AXES_OTHER
 70
0
 62
7
  6
CONTINUOUS
370
-3
390
F
  0
LAYER
  5
203
100
AcDbSymbolTableRecord
100
AcDbLayerTableRecord
  2
3_HOLES
 70
0
 62
7
  6
CONTINUOUS
370
-3
390
F
  0
LAYER
  5
204
100
AcDbSymbolTableRecord
100
AcDbLayerTableRecord
  2
4_ALL_POINTS
 70
0
 62
7
  6
CONTINUOUS
370
-3
390
F
  0
LAYER
  5
205
100
AcDbSymbolTableRecord
100
AcDbLayerTableRecord
  2
5_ALL_CURVES
 70
0
 62
7
  6
CONTINUOUS
370
-3
390
F
  0
LAYER
  5
206
100
AcDbSymbolTableRecord
100
AcDbLayerTableRecord
  2
6_ALL_SURFS
 70
0
 62
7
  6
CONTINUOUS
370
-3
390
F
  0
LAYER
  5
207
100
AcDbSymbolTableRecord
100
AcDbLayerTableRecord
  2
6_COPYGEOM
 70
0
 62
7
  6
CONTINUOUS
370
-3
390
F
  0
LAYER
  5
208
100
AcDbSymbolTableRecord
100
AcDbLayerTableRecord
  2
7_ALL_ROUNDS
 70
0
 62
7
  6
CONTINUOUS
370
-3
390
F
  0
LAYER
  5
209
100
AcDbSymbolTableRecord
100
AcDbLayerTableRecord
  2
7_MERGES
 70
0
 62
7
  6
CONTINUOUS
370
-3
390
F
  0
LAYER
  5
20A
100
AcDbSymbolTableRecord
100
AcDbLayerTableRecord
  2
8_GDT
 70
0
 62
7
  6
CONTINUOUS
370
-3
390
F
  0
LAYER
  5
20B
100
AcDbSymbolTableRecord
100
AcDbLayerTableRecord
  2
8_SET_DATUMS
 70
0
 62
7
  6
CONTINUOUS
370
-3
390
F
  0
LAYER
  5
20C
100
AcDbSymbolTableRecord
100
AcDbLayerTableRecord
  2
9_COSMETICS
 70
0
 62
7
  6
CONTINUOUS
370
-3
390
F
  0
LAYER
  5
20D
100
AcDbSymbolTableRecord
100
AcDbLayerTableRecord
  2
9_THREADS
 70
0
 62
7
  6
CONTINUOUS
370
-3
390
F
  0
ENDTAB
  0
TABLE
  2
STYLE
  5
3
100
AcDbSymbolTable
 70
1
  0
STYLE
  5
11
100
AcDbSymbolTableRecord
100
AcDbTextStyleTableRecord
  2
STANDARD
 70
0
 40
0.0
 41
1.0
 50
0.0
 71
0
 42
0.2
  3
gothic.ttf
  4

  0
STYLE
  5
20E
100
AcDbSymbolTableRecord
100
AcDbTextStyleTableRecord
  2
TEXTSTYLE_1
 70
0
 40
0.0
 41
0.8
 50
0.0
 71
0
 42
0.2
  3
gdt
  4

  0
STYLE
  5
20F
100
AcDbSymbolTableRecord
100
AcDbTextStyleTableRecord
  2
TEXTSTYLE_2
 70
0
 40
0.0
 41
1.0
 50
0.0
 71
0
 42
0.2
  3
gothic.ttf
  4

  0
ENDTAB
  0
TABLE
  2
VIEW
  5
6
100
AcDbSymbolTable
 70
0
  0
ENDTAB
  0
TABLE
  2
UCS
  5
7
100
AcDbSymbolTable
 70
0
  0
ENDTAB
  0
TABLE
  2
APPID
  5
9
100
AcDbSymbolTable
 70
1
  0
APPID
  5
210
100
AcDbSymbolTableRecord
100
AcDbRegAppTableRecord
  2
ACAD
 70
0
  0
ENDTAB
  0
TABLE
  2
BLOCK_RECORD
  5
1
100
AcDbSymbolTable
 70
0
  0
BLOCK_RECORD
  5
211
100
AcDbSymbolTableRecord
100
AcDbBlockTableRecord
  2
*Model_Space
  0
BLOCK_RECORD
  5
212
100
AcDbSymbolTableRecord
100
AcDbBlockTableRecord
  2
*Paper_Space
  0
BLOCK_RECORD
  5
213
100
AcDbSymbolTableRecord
100
AcDbBlockTableRecord
  2
_FILLED
  0
BLOCK_RECORD
  5
214
100
AcDbSymbolTableRecord
100
AcDbBlockTableRecord
  2
*D0
  0
BLOCK_RECORD
  5
215
100
AcDbSymbolTableRecord
100
AcDbBlockTableRecord
  2
*D1
  0
BLOCK_RECORD
  5
216
100
AcDbSymbolTableRecord
100
AcDbBlockTableRecord
  2
*D2
  0
BLOCK_RECORD
  5
217
100
AcDbSymbolTableRecord
100
AcDbBlockTableRecord
  2
*D3
  0
BLOCK_RECORD
  5
218
100
AcDbSymbolTableRecord
100
AcDbBlockTableRecord
  2
*D4
  0
BLOCK_RECORD
  5
219
100
AcDbSymbolTableRecord
100
AcDbBlockTableRecord
  2
*D5
  0
BLOCK_RECORD
  5
21A
100
AcDbSymbolTableRecord
100
AcDbBlockTableRecord
  2
*D6
  0
BLOCK_RECORD
  5
21B
100
AcDbSymbolTableRecord
100
AcDbBlockTableRecord
  2
*D7
  0
BLOCK_RECORD
  5
21C
100
AcDbSymbolTableRecord
100
AcDbBlockTableRecord
  2
*D8
  0
BLOCK_RECORD
  5
21D
100
AcDbSymbolTableRecord
100
AcDbBlockTableRecord
  2
*D9
  0
BLOCK_RECORD
  5
21E
100
AcDbSymbolTableRecord
100
AcDbBlockTableRecord
  2
*D10
  0
BLOCK_RECORD
  5
21F
100
AcDbSymbolTableRecord
100
AcDbBlockTableRecord
  2
*D11
  0
BLOCK_RECORD
  5
220
100
AcDbSymbolTableRecord
100
AcDbBlockTableRecord
  2
*D12
  0
BLOCK_RECORD
  5
221
100
AcDbSymbolTableRecord
100
AcDbBlockTableRecord
  2
*D13
  0
BLOCK_RECORD
  5
222
100
AcDbSymbolTableRecord
100
AcDbBlockTableRecord
  2
*D14
  0
BLOCK_RECORD
  5
223
100
AcDbSymbolTableRecord
100
AcDbBlockTableRecord
  2
*D15
  0
BLOCK_RECORD
  5
224
100
AcDbSymbolTableRecord
100
AcDbBlockTableRecord
  2
*D16
  0
ENDTAB
  0
TABLE
  2
DIMSTYLE
  5
A
100
AcDbSymbolTable
 70
1
100
AcDbDimStyleTable
 71
0
  0
DIMSTYLE
105
225
100
AcDbSymbolTableRecord
100
AcDbDimStyleTableRecord
  2
STANDARD
 70
0
  3

  4

 40
1.0
 41
12.0
 42
1.5875
 43
0.38
 44
3.175
 45
0.0
 46
0.0
 47
0.02
 48
0.02
140
13.716
141
0.09
142
0.0
143
0.0393700787
144
1.0
145
0.0
146
1.0
147
0.625
 71
1.0
 72
0.0
 73
1
 74
1
 75
0
 76
0
 77
0
 78
4
 79
1
170
1
171
1
172
0
173
0
174
0
175
0
176
0
177
0
178
0
270
2
179
2
271
2
272
2
273
2
274
2
275
0
280
0
281
0
282
0
283
1
284
4
285
0
286
0
287
3
288
0
340
11
278
46
341
213
342
213
343
213
344
213
  0
DIMSTYLE
105
226
100
AcDbSymbolTableRecord
100
AcDbDimStyleTableRecord
  2
DIMSTYLE_1
 70
0
  3

  4

 40
1.0
 41
12.0
 42
1.5875
 43
0.38
 44
3.175
 45
0.0
 46
0.0
 47
0.02
 48
0.02
140
13.716
141
0.09
142
0.0
143
0.0393700787
144
1.0
145
0.0
146
1.0
147
1.143
 71
0.0
 72
0.0
 73
1
 74
1
 75
0
 76
0
 77
0
 78
4
 79
1
170
1
171
2
172
0
173
0
174
0
175
0
176
0
177
0
178
0
270
2
179
2
271
1
272
1
273
2
274
2
275
0
280
0
281
0
282
0
283
1
284
4
285
0
286
0
287
3
288
0
340
11
278
46
341
213
342
213
343
213
344
213
  0
DIMSTYLE
105
227
100
AcDbSymbolTableRecord
100
AcDbDimStyleTableRecord
  2
DIMSTYLE_2
 70
0
  3

  4

 40
1.0
 41
12.0
 42
1.5875
 43
0.38
 44
3.175
 45
0.0
 46
0.0
 47
1.0
 48
1.0
140
13.716
141
0.09
142
0.0
143
0.0393700787
144
1.0
145
0.0
146
1.0
147
1.143
 71
1.0
 72
0.0
 73
1
 74
1
 75
0
 76
0
 77
0
 78
4
 79
1
170
1
171
2
172
0
173
0
174
0
175
0
176
0
177
0
178
0
270
2
179
2
271
1
272
1
273
2
274
2
275
0
280
0
281
0
282
0
283
1
284
4
285
0
286
0
287
3
288
0
340
11
278
46
341
213
342
213
343
213
344
213
  0
DIMSTYLE
105
228
100
AcDbSymbolTableRecord
100
AcDbDimStyleTableRecord
  2
DIMSTYLE_3
 70
0
  3

  4

 40
1.0
 41
12.0
 42
1.5875
 43
0.38
 44
3.175
 45
0.0
 46
0.0
 47
0.02
 48
0.02
140
13.716
141
0.09
142
0.0
143
0.0393700787
144
1.0
145
0.0
146
1.0
147
1.143
 71
0.0
 72
0.0
 73
1
 74
1
 75
0
 76
0
 77
0
 78
4
 79
1
170
1
171
3
172
0
173
0
174
0
175
0
176
0
177
0
178
0
270
2
179
2
271
2
272
2
273
2
274
3
275
0
280
0
281
0
282
0
283
1
284
4
285
0
286
0
287
3
288
0
340
11
278
46
341
213
342
213
343
213
344
213
  0
DIMSTYLE
105
229
100
AcDbSymbolTableRecord
100
AcDbDimStyleTableRecord
  2
DIMSTYLE_4
 70
0
  3
<>
  4

 40
1.0
 41
12.0
 42
1.5875
 43
0.38
 44
3.175
 45
0.0
 46
0.0
 47
0.02
 48
0.02
140
13.716
141
0.09
142
0.0
143
0.0393700787
144
1.0
145
0.0
146
1.0
147
0.625
 71
0.0
 72
0.0
 73
1
 74
1
 75
0
 76
0
 77
0
 78
4
 79
1
170
1
171
3
172
0
173
0
174
0
175
0
176
0
177
0
178
0
270
2
179
2
271
2
272
2
273
2
274
3
275
0
280
0
281
0
282
0
283
1
284
4
285
0
286
0
287
3
288
1
340
11
278
46
289
1
341
213
342
213
343
213
344
213
  0
DIMSTYLE
105
22A
100
AcDbSymbolTableRecord
100
AcDbDimStyleTableRecord
  2
DIMSTYLE_5
 70
0
  3
<>
  4

 40
1.0
 41
12.0
 42
1.5875
 43
0.38
 44
3.175
 45
0.0
 46
0.0
 47
0.02
 48
0.02
140
13.716
141
0.09
142
0.0
143
0.0393700787
144
1.0
145
0.0
146
1.0
147
0.625
 71
0.0
 72
0.0
 73
1
 74
1
 75
0
 76
0
 77
0
 78
4
 79
1
170
1
171
3
172
0
173
0
174
0
175
0
176
0
177
0
178
0
270
2
179
2
271
2
272
2
273
2
274
3
275
0
280
0
281
0
282
0
283
1
284
4
285
0
286
0
287
3
288
0
340
11
278
46
341
213
342
213
343
213
344
213
  0
DIMSTYLE
105
22B
100
AcDbSymbolTableRecord
100
AcDbDimStyleTableRecord
  2
DIMSTYLE_6
 70
0
  3

  4

 40
1.0
 41
12.0
 42
1.5875
 43
0.38
 44
3.175
 45
0.0
 46
0.0
 47
0.02
 48
0.02
140
13.716
141
0.09
142
0.0
143
0.0393700787
144
1.0
145
0.0
146
1.0
147
1.143
 71
0.0
 72
0.0
 73
1
 74
1
 75
0
 76
0
 77
0
 78
4
 79
1
170
1
171
2
172
0
173
0
174
0
175
0
176
0
177
0
178
0
270
2
179
2
271
1
272
2
273
2
274
3
275
0
280
0
281
0
282
0
283
1
284
4
285
0
286
0
287
3
288
0
340
11
278
46
341
213
342
213
343
213
344
213
  0
DIMSTYLE
105
22C
100
AcDbSymbolTableRecord
100
AcDbDimStyleTableRecord
  2
DIMSTYLE_7
 70
0
  3

  4

 40
1.0
 41
12.0
 42
1.5875
 43
0.38
 44
3.175
 45
0.0
 46
0.0
 47
2.0
 48
2.0
140
13.716
141
0.09
142
0.0
143
0.0393700787
144
1.0
145
0.0
146
1.0
147
1.143
 71
1.0
 72
0.0
 73
1
 74
1
 75
0
 76
0
 77
0
 78
4
 79
1
170
1
171
2
172
0
173
0
174
0
175
0
176
0
177
0
178
0
270
2
179
2
271
1
272
1
273
2
274
2
275
0
280
0
281
0
282
0
283
1
284
4
285
0
286
0
287
3
288
0
340
11
278
46
341
213
342
213
343
213
344
213
  0
ENDTAB
  0
ENDSEC
  0
SECTION
  2
BLOCKS
  0
BLOCK
  5
20
100
AcDbEntity
  8
0
100
AcDbBlockBegin
  2
*Model_Space
 70
0
 10
0.0
 20
0.0
 30
0.0
  3
*Model_Space
  1

  0
ENDBLK
  5
21
100
AcDbEntity
  8
0
100
AcDbBlockEnd
  0
BLOCK
  5
1C
100
AcDbEntity
  8
0
100
AcDbBlockBegin
  2
*Paper_Space
 70
0
 10
0.0
 20
0.0
 30
0.0
  3
*Paper_Space
  1

  0
ENDBLK
  5
1D
100
AcDbEntity
  8
0
100
AcDbBlockEnd
  0
BLOCK
  5
22D
100
AcDbEntity
  8
0
100
AcDbBlockBegin
  2
_FILLED
 70
64
 10
0.0
 20
0.0
  3
_FILLED
  1

  0
SOLID
  5
22E
100
AcDbEntity
  8
0
  6
BYBLOCK
 62
0
100
AcDbTrace
 10
0.0
 20
0.0
 11
-1.0
 21
0.1275
 12
-1.0
 22
-0.1275
 13
-1.0
 23
-0.1275
  0
ENDBLK
  5
22F
100
AcDbEntity
  8
0
  6
BYBLOCK
 62
0
100
AcDbBlockEnd
  0
BLOCK
  5
230
100
AcDbEntity
  8
0
100
AcDbBlockBegin
 62
2
  6
CONTINUOUS
  2
*D0
 70
65
 10
0.0
 20
0.0
  3
*D0
  1

  0
MTEXT
  5
231
100
AcDbEntity
  8
0
100
AcDbMText
 62
2
  6
CONTINUOUS
  7
STANDARD
 71
2
 72
1
 10
1573.3288689566
 20
529.9885720203
 30
0.0
 11
1.0
 21
0.0
 31
0.0
 73
2
 44
0.9
  1
112,5\P[4.43]
 40
13.716
 41
50.580936803
  0
LINE
  5
232
100
AcDbEntity
  8
0
100
AcDbLine
 62
2
  6
CONTINUOUS
 10
1519.5030243898
 20
562.2286600188
 11
1593.8065566889
 21
562.2286600188
  0
LINE
  5
233
100
AcDbEntity
  8
0
100
AcDbLine
 62
2
  6
CONTINUOUS
 10
1519.5030243898
 20
449.7286600188
 11
1593.8065566889
 21
449.7286600188
  0
LINE
  5
234
100
AcDbEntity
  8
0
100
AcDbLine
 62
2
  6
CONTINUOUS
 10
1574.7565566889
 20
562.2286600188
 11
1574.7565566889
 21
536.8465720203
  0
LINE
  5
235
100
AcDbEntity
  8
0
100
AcDbLine
 62
2
  6
CONTINUOUS
 10
1574.7565566889
 20
449.7286600188
 11
1574.7565566889
 21
488.8405720203
  0
INSERT
  5
236
100
AcDbEntity
  8
0
100
AcDbBlockReference
 62
2
  6
CONTINUOUS
  2
_FILLED
 10
1574.7565566889
 20
562.2286600188
 41
12.0
 42
12.0
 43
12.0
 50
90.0
  0
INSERT
  5
237
100
AcDbEntity
  8
0
100
AcDbBlockReference
 62
2
  6
CONTINUOUS
  2
_FILLED
 10
1574.7565566889
 20
449.7286600188
 41
12.0
 42
12.0
 43
12.0
 50
270.0
  0
ENDBLK
  5
238
100
AcDbEntity
  8
0
  6
BYBLOCK
 62
0
100
AcDbBlockEnd
  0
BLOCK
  5
239
100
AcDbEntity
  8
0
100
AcDbBlockBegin
 62
2
  6
CONTINUOUS
  2
*D1
 70
65
 10
0.0
 20
0.0
  3
*D1
  1

  0
TEXT
  5
23A
100
AcDbEntity
  8
0
100
AcDbText
 62
2
  6
CONTINUOUS
 10
1322.2036266203
 20
656.2028027108
  7
STANDARD
 40
13.716
  1
2X 
 41
1.0
 72
1
 11
1335.9706154679
 21
656.2028027108
100
AcDbText
  0
TEXT
  5
23B
100
AcDbEntity
  8
0
100
AcDbText
 62
2
  6
CONTINUOUS
 10
1349.7376043154
 20
656.2028027108
  7
STANDARD
 40
13.716
  1
254,3
 41
1.0
 72
1
 11
1373.6003849846
 21
656.2028027108
100
AcDbText
  0
TEXT
  5
23C
100
AcDbEntity
  8
0
100
AcDbText
 62
2
  6
CONTINUOUS
 10
1397.4631656537
 20
656.2028027108
  7
TEXTSTYLE_1
 40
13.716
  1
`
 41
1.0
 72
1
 11
1405.4641656537
 21
656.2028027108
100
AcDbText
  0
TEXT
  5
23D
100
AcDbEntity
  8
0
100
AcDbText
 62
2
  6
CONTINUOUS
 10
1413.4651656537
 20
656.2028027108
  7
STANDARD
 40
13.716
  1
1,0
 41
1.0
 72
1
 11
1426.7222660255
 21
656.2028027108
100
AcDbText
  0
TEXT
  5
23E
100
AcDbEntity
  8
0
100
AcDbText
 62
2
  6
CONTINUOUS
 10
1349.7376043154
 20
635.6288027108
  7
STANDARD
 40
13.716
  1
[
 41
1.0
 72
1
 11
1353.102868256
 21
635.6288027108
100
AcDbText
  0
TEXT
  5
23F
100
AcDbEntity
  8
0
100
AcDbText
 62
2
  6
CONTINUOUS
 10
1356.4681321965
 20
635.6288027108
  7
STANDARD
 40
13.716
  1
10.01
 41
1.0
 72
1
 11
1380.3309128656
 21
635.6288027108
100
AcDbText
  0
TEXT
  5
240
100
AcDbEntity
  8
0
100
AcDbText
 62
2
  6
CONTINUOUS
 10
1404.1936935348
 20
635.6288027108
  7
TEXTSTYLE_1
 40
13.716
  1
`
 41
1.0
 72
1
 11
1412.1946935348
 21
635.6288027108
100
AcDbText
  0
TEXT
  5
241
100
AcDbEntity
  8
0
100
AcDbText
 62
2
  6
CONTINUOUS
 10
1420.1956935348
 20
635.6288027108
  7
STANDARD
 40
13.716
  1
.03
 41
1.0
 72
1
 11
1433.4527939065
 21
635.6288027108
100
AcDbText
  0
TEXT
  5
242
100
AcDbEntity
  8
0
100
AcDbText
 62
2
  6
CONTINUOUS
 10
1446.7098942783
 20
635.6288027108
  7
STANDARD
 40
13.716
  1
]
 41
1.0
 72
1
 11
1450.0751582188
 21
635.6288027108
100
AcDbText
  0
LINE
  5
243
100
AcDbEntity
  8
0
100
AcDbLine
 62
2
  6
CONTINUOUS
 10
1514.9780243898
 20
561.7536600188
 11
1514.9780243898
 21
682.1108027108
  0
LINE
  5
244
100
AcDbEntity
  8
0
100
AcDbLine
 62
2
  6
CONTINUOUS
 10
1260.6660243898
 20
514.8761535133
 11
1260.6660243898
 21
682.1108027108
  0
LINE
  5
245
100
AcDbEntity
  8
0
100
AcDbLine
 62
2
  6
CONTINUOUS
 10
1514.9780243898
 20
663.0608027108
 11
1460.2984221593
 21
663.0608027108
  0
LINE
  5
246
100
AcDbEntity
  8
0
100
AcDbLine
 62
2
  6
CONTINUOUS
 10
1260.6660243898
 20
663.0608027108
 11
1315.3456266203
 21
663.0608027108
  0
INSERT
  5
247
100
AcDbEntity
  8
0
100
AcDbBlockReference
 62
2
  6
CONTINUOUS
  2
_FILLED
 10
1514.9780243898
 20
663.0608027108
 41
12.0
 42
12.0
 43
12.0
  0
INSERT
  5
248
100
AcDbEntity
  8
0
100
AcDbBlockReference
 62
2
  6
CONTINUOUS
  2
_FILLED
 10
1260.6660243898
 20
663.0608027108
 41
12.0
 42
12.0
 43
12.0
 50
180.0
  0
ENDBLK
  5
249
100
AcDbEntity
  8
0
  6
BYBLOCK
 62
0
100
AcDbBlockEnd
  0
BLOCK
  5
24A
100
AcDbEntity
  8
0
100
AcDbBlockBegin
 62
2
  6
CONTINUOUS
  2
*D2
 70
65
 10
0.0
 20
0.0
  3
*D2
  1

  0
MTEXT
  5
24B
100
AcDbEntity
  8
0
100
AcDbMText
 62
2
  6
CONTINUOUS
  7
STANDARD
 71
1
 72
1
 10
1315.6953532278
 20
603.3702547193
 30
0.0
 11
1.0
 21
0.0
 31
0.0
 73
2
 44
0.9
  1
2X 25,40\P[1.000]
 40
13.716
 41
75.2595390335
  0
LINE
  5
24C
100
AcDbEntity
  8
0
100
AcDbLine
 62
2
  6
CONTINUOUS
 10
1286.0660243898
 20
515.5036600188
 11
1286.0660243898
 21
615.5622547193
  0
LINE
  5
24D
100
AcDbEntity
  8
0
100
AcDbLine
 62
2
  6
CONTINUOUS
 10
1260.6660243898
 20
520.0036600188
 11
1260.6660243898
 21
615.5622547193
  0
LINE
  5
24E
100
AcDbEntity
  8
0
100
AcDbLine
 62
2
  6
CONTINUOUS
 10
1286.0660243898
 20
596.5122547193
 11
1308.8373532278
 21
596.5122547193
  0
LINE
  5
24F
100
AcDbEntity
  8
0
100
AcDbLine
 62
2
  6
CONTINUOUS
 10
1260.6660243898
 20
596.5122547193
 11
1236.6660243898
 21
596.5122547193
  0
INSERT
  5
250
100
AcDbEntity
  8
0
100
AcDbBlockReference
 62
2
  6
CONTINUOUS
  2
_FILLED
 10
1286.0660243898
 20
596.5122547193
 41
12.0
 42
12.0
 43
12.0
 50
180.0
  0
INSERT
  5
251
100
AcDbEntity
  8
0
100
AcDbBlockReference
 62
2
  6
CONTINUOUS
  2
_FILLED
 10
1260.6660243898
 20
596.5122547193
 41
12.0
 42
12.0
 43
12.0
  0
ENDBLK
  5
252
100
AcDbEntity
  8
0
  6
BYBLOCK
 62
0
100
AcDbBlockEnd
  0
BLOCK
  5
253
100
AcDbEntity
  8
0
100
AcDbBlockBegin
 62
2
  6
CONTINUOUS
  2
*D3
 70
65
 10
0.0
 20
0.0
  3
*D3
  1

  0
MTEXT
  5
254
100
AcDbEntity
  8
0
100
AcDbMText
 62
2
  6
CONTINUOUS
  7
STANDARD
 71
1
 72
1
 10
1298.368954145
 20
325.5614673483
 30
0.0
 11
1.0
 21
0.0
 31
0.0
 73
2
 44
0.9
  1
2X 12,70\P[.500]
 40
13.716
 41
75.2595390335
  0
LINE
  5
255
100
AcDbEntity
  8
0
100
AcDbLine
 62
2
  6
CONTINUOUS
 10
1247.9660243898
 20
496.4536600188
 11
1247.9660243898
 21
299.6534673483
  0
LINE
  5
256
100
AcDbEntity
  8
0
100
AcDbLine
 62
2
  6
CONTINUOUS
 10
1260.6660243898
 20
500.9536600188
 11
1260.6660243898
 21
299.6534673483
  0
LINE
  5
257
100
AcDbEntity
  8
0
100
AcDbLine
 62
2
  6
CONTINUOUS
 10
1247.9660243898
 20
318.7034673483
 11
1223.9660243898
 21
318.7034673483
  0
LINE
  5
258
100
AcDbEntity
  8
0
100
AcDbLine
 62
2
  6
CONTINUOUS
 10
1260.6660243898
 20
318.7034673483
 11
1291.510954145
 21
318.7034673483
  0
INSERT
  5
259
100
AcDbEntity
  8
0
100
AcDbBlockReference
 62
2
  6
CONTINUOUS
  2
_FILLED
 10
1247.9660243898
 20
318.7034673483
 41
12.0
 42
12.0
 43
12.0
  0
INSERT
  5
25A
100
AcDbEntity
  8
0
100
AcDbBlockReference
 62
2
  6
CONTINUOUS
  2
_FILLED
 10
1260.6660243898
 20
318.7034673483
 41
12.0
 42
12.0
 43
12.0
 50
180.0
  0
ENDBLK
  5
25B
100
AcDbEntity
  8
0
  6
BYBLOCK
 62
0
100
AcDbBlockEnd
  0
BLOCK
  5
25C
100
AcDbEntity
  8
0
100
AcDbBlockBegin
 62
2
  6
CONTINUOUS
  2
*D4
 70
65
 10
0.0
 20
0.0
  3
*D4
  1

  0
MTEXT
  5
25D
100
AcDbEntity
  8
0
100
AcDbMText
 62
2
  6
CONTINUOUS
  7
STANDARD
 71
2
 72
1
 10
1357.7914965088
 20
237.0825538324
 30
0.0
 11
1.0
 21
0.0
 31
0.0
 73
2
 44
0.9
  1
300,9\P[11.85]
 40
13.716
 41
61.1866171004
  0
LINE
  5
25E
100
AcDbEntity
  8
0
100
AcDbLine
 62
2
  6
CONTINUOUS
 10
1214.0660243898
 20
465.2036600188
 11
1214.0660243898
 21
211.1745538324
  0
LINE
  5
25F
100
AcDbEntity
  8
0
100
AcDbLine
 62
2
  6
CONTINUOUS
 10
1514.9780243898
 20
450.2036600188
 11
1514.9780243898
 21
211.1745538324
  0
LINE
  5
260
100
AcDbEntity
  8
0
100
AcDbLine
 62
2
  6
CONTINUOUS
 10
1214.0660243898
 20
230.2245538324
 11
1327.0707158396
 21
230.2245538324
  0
LINE
  5
261
100
AcDbEntity
  8
0
100
AcDbLine
 62
2
  6
CONTINUOUS
 10
1514.9780243898
 20
230.2245538324
 11
1401.97333294
 21
230.2245538324
  0
INSERT
  5
262
100
AcDbEntity
  8
0
100
AcDbBlockReference
 62
2
  6
CONTINUOUS
  2
_FILLED
 10
1214.0660243898
 20
230.2245538324
 41
12.0
 42
12.0
 43
12.0
 50
180.0
  0
INSERT
  5
263
100
AcDbEntity
  8
0
100
AcDbBlockReference
 62
2
  6
CONTINUOUS
  2
_FILLED
 10
1514.9780243898
 20
230.2245538324
 41
12.0
 42
12.0
 43
12.0
  0
ENDBLK
  5
264
100
AcDbEntity
  8
0
  6
BYBLOCK
 62
0
100
AcDbBlockEnd
  0
BLOCK
  5
265
100
AcDbEntity
  8
0
100
AcDbBlockBegin
 62
2
  6
CONTINUOUS
  2
*D5
 70
65
 10
0.0
 20
0.0
  3
*D5
  1

  0
MTEXT
  5
266
100
AcDbEntity
  8
0
100
AcDbMText
 62
2
  6
CONTINUOUS
  7
STANDARD
 71
2
 72
1
 10
1116.0778020978
 20
527.2788028838
 30
0.0
 11
1.0
 21
0.0
 31
0.0
 73
2
 44
0.9
  1
92,50\P[3.642]
 40
13.716
 41
61.1866171004
  0
LINE
  5
267
100
AcDbEntity
  8
0
100
AcDbLine
 62
2
  6
CONTINUOUS
 10
1219.5410243898
 20
459.7286600188
 11
1103.7583299788
 21
459.7286600188
  0
LINE
  5
268
100
AcDbEntity
  8
0
100
AcDbLine
 62
2
  6
CONTINUOUS
 10
1222.5641135382
 20
552.2286600188
 11
1103.7583299788
 21
552.2286600188
  0
LINE
  5
269
100
AcDbEntity
  8
0
100
AcDbLine
 62
2
  6
CONTINUOUS
 10
1122.8083299788
 20
459.7286600188
 11
1122.8083299788
 21
486.1308028838
  0
LINE
  5
26A
100
AcDbEntity
  8
0
100
AcDbLine
 62
2
  6
CONTINUOUS
 10
1122.8083299788
 20
552.2286600188
 11
1122.8083299788
 21
534.1368028838
  0
INSERT
  5
26B
100
AcDbEntity
  8
0
100
AcDbBlockReference
 62
2
  6
CONTINUOUS
  2
_FILLED
 10
1122.8083299788
 20
459.7286600188
 41
12.0
 42
12.0
 43
12.0
 50
270.0
  0
INSERT
  5
26C
100
AcDbEntity
  8
0
100
AcDbBlockReference
 62
2
  6
CONTINUOUS
  2
_FILLED
 10
1122.8083299788
 20
552.2286600188
 41
12.0
 42
12.0
 43
12.0
 50
90.0
  0
ENDBLK
  5
26D
100
AcDbEntity
  8
0
  6
BYBLOCK
 62
0
100
AcDbBlockEnd
  0
BLOCK
  5
26E
100
AcDbEntity
  8
0
100
AcDbBlockBegin
 62
2
  6
CONTINUOUS
  2
*D6
 70
65
 10
0.0
 20
0.0
  3
*D6
  1

  0
MTEXT
  5
26F
100
AcDbEntity
  8
0
100
AcDbMText
 62
2
  6
CONTINUOUS
  7
STANDARD
 71
1
 72
1
 10
1339.7286029846
 20
360.9895041962
 30
0.0
 11
1.0
 21
0.0
 31
0.0
 73
2
 44
0.9
  1
4X \fgdt;{\fgdt;n}\fCentury Gothic;9,90\P[.390]
 40
13.716
 41
82.9418587361
  0
LINE
  5
270
100
AcDbEntity
  8
0
100
AcDbLine
 62
2
  6
CONTINUOUS
 10
1249.6153823884
 20
501.3115283308
 11
1301.6286029846
 21
354.1315041962
  0
LINE
  5
271
100
AcDbEntity
  8
0
100
AcDbLine
 62
2
  6
CONTINUOUS
 10
1301.6286029846
 20
354.1315041962
 11
1332.8706029846
 21
354.1315041962
  0
INSERT
  5
272
100
AcDbEntity
  8
0
100
AcDbBlockReference
 62
2
  6
CONTINUOUS
  2
_FILLED
 10
1249.6153823884
 20
501.3115283308
 41
12.0
 42
12.0
 43
12.0
 50
109.4633389485
  0
ENDBLK
  5
273
100
AcDbEntity
  8
0
  6
BYBLOCK
 62
0
100
AcDbBlockEnd
  0
BLOCK
  5
274
100
AcDbEntity
  8
0
100
AcDbBlockBegin
 62
2
  6
CONTINUOUS
  2
*D7
 70
65
 10
0.0
 20
0.0
  3
*D7
  1

  0
MTEXT
  5
275
100
AcDbEntity
  8
0
100
AcDbMText
 62
2
  6
CONTINUOUS
  7
STANDARD
 71
1
 72
1
 10
1352.2305021666
 20
420.2437855323
 30
0.0
 11
1.0
 21
0.0
 31
0.0
 73
2
 44
0.9
  1
2X R4,95\P[.195]
 40
13.716
 41
76.2793159851
  0
LINE
  5
276
100
AcDbEntity
  8
0
100
AcDbLine
 62
2
  6
CONTINUOUS
 10
1263.0536955979
 20
506.1425873485
 11
1314.1305021666
 21
413.3857855323
  0
LINE
  5
277
100
AcDbEntity
  8
0
100
AcDbLine
 62
2
  6
CONTINUOUS
 10
1314.1305021666
 20
413.3857855323
 11
1345.3725021666
 21
413.3857855323
  0
INSERT
  5
278
100
AcDbEntity
  8
0
100
AcDbBlockReference
 62
2
  6
CONTINUOUS
  2
_FILLED
 10
1263.0536955979
 20
506.1425873485
 41
12.0
 42
12.0
 43
12.0
 50
118.8395085022
  0
ENDBLK
  5
279
100
AcDbEntity
  8
0
  6
BYBLOCK
 62
0
100
AcDbBlockEnd
  0
BLOCK
  5
27A
100
AcDbEntity
  8
0
100
AcDbBlockBegin
 62
2
  6
CONTINUOUS
  2
*D8
 70
65
 10
0.0
 20
0.0
  3
*D8
  1

  0
MTEXT
  5
27B
100
AcDbEntity
  8
0
100
AcDbMText
 62
2
  6
CONTINUOUS
  7
STANDARD
 71
1
 72
1
 10
507.6007082809
 20
384.1156000538
 30
0.0
 11
1.0
 21
0.0
 31
0.0
 73
2
 44
0.9
  1
4X 25,40\P[1.000]
 40
13.716
 41
75.2595390335
  0
LINE
  5
27C
100
AcDbEntity
  8
0
100
AcDbLine
 62
2
  6
CONTINUOUS
 10
453.3886445484
 20
447.6436600188
 11
453.3886445484
 21
358.2076000538
  0
LINE
  5
27D
100
AcDbEntity
  8
0
100
AcDbLine
 62
2
  6
CONTINUOUS
 10
478.7886445484
 20
447.6436600188
 11
478.7886445484
 21
358.2076000538
  0
LINE
  5
27E
100
AcDbEntity
  8
0
100
AcDbLine
 62
2
  6
CONTINUOUS
 10
453.3886445484
 20
377.2576000538
 11
429.3886445484
 21
377.2576000538
  0
LINE
  5
27F
100
AcDbEntity
  8
0
100
AcDbLine
 62
2
  6
CONTINUOUS
 10
478.7886445484
 20
377.2576000538
 11
500.7427082809
 21
377.2576000538
  0
INSERT
  5
280
100
AcDbEntity
  8
0
100
AcDbBlockReference
 62
2
  6
CONTINUOUS
  2
_FILLED
 10
453.3886445484
 20
377.2576000538
 41
12.0
 42
12.0
 43
12.0
  0
INSERT
  5
281
100
AcDbEntity
  8
0
100
AcDbBlockReference
 62
2
  6
CONTINUOUS
  2
_FILLED
 10
478.7886445484
 20
377.2576000538
 41
12.0
 42
12.0
 43
12.0
 50
180.0
  0
ENDBLK
  5
282
100
AcDbEntity
  8
0
  6
BYBLOCK
 62
0
100
AcDbBlockEnd
  0
BLOCK
  5
283
100
AcDbEntity
  8
0
100
AcDbBlockBegin
 62
2
  6
CONTINUOUS
  2
*D9
 70
65
 10
0.0
 20
0.0
  3
*D9
  1

  0
MTEXT
  5
284
100
AcDbEntity
  8
0
100
AcDbMText
 62
2
  6
CONTINUOUS
  7
STANDARD
 71
2
 72
1
 10
662.5581166673
 20
291.7298907972
 30
0.0
 11
1.0
 21
0.0
 31
0.0
 73
2
 44
0.9
  1
2X 381,0\P[15.00]
 40
13.716
 41
75.2595390335
  0
LINE
  5
285
100
AcDbEntity
  8
0
100
AcDbLine
 62
2
  6
CONTINUOUS
 10
478.7886445484
 20
447.6436600188
 11
478.7886445484
 21
265.8218907972
  0
LINE
  5
286
100
AcDbEntity
  8
0
100
AcDbLine
 62
2
  6
CONTINUOUS
 10
859.7886445484
 20
447.6436600188
 11
859.7886445484
 21
265.8218907972
  0
LINE
  5
287
100
AcDbEntity
  8
0
100
AcDbLine
 62
2
  6
CONTINUOUS
 10
478.7886445484
 20
284.8718907972
 11
618.0703471506
 21
284.8718907972
  0
LINE
  5
288
100
AcDbEntity
  8
0
100
AcDbLine
 62
2
  6
CONTINUOUS
 10
859.7886445484
 20
284.8718907972
 11
720.5069419461
 21
284.8718907972
  0
INSERT
  5
289
100
AcDbEntity
  8
0
100
AcDbBlockReference
 62
2
  6
CONTINUOUS
  2
_FILLED
 10
478.7886445484
 20
284.8718907972
 41
12.0
 42
12.0
 43
12.0
 50
180.0
  0
INSERT
  5
28A
100
AcDbEntity
  8
0
100
AcDbBlockReference
 62
2
  6
CONTINUOUS
  2
_FILLED
 10
859.7886445484
 20
284.8718907972
 41
12.0
 42
12.0
 43
12.0
  0
ENDBLK
  5
28B
100
AcDbEntity
  8
0
  6
BYBLOCK
 62
0
100
AcDbBlockEnd
  0
BLOCK
  5
28C
100
AcDbEntity
  8
0
100
AcDbBlockBegin
 62
2
  6
CONTINUOUS
  2
*D10
 70
65
 10
0.0
 20
0.0
  3
*D10
  1

  0
MTEXT
  5
28D
100
AcDbEntity
  8
0
100
AcDbMText
 62
2
  6
CONTINUOUS
  7
STANDARD
 71
1
 72
1
 10
725.8108629562
 20
386.229271045
 30
0.0
 11
1.0
 21
0.0
 31
0.0
 73
2
 44
0.9
  1
63,50\P[2.500]
 40
13.716
 41
61.1866171004
  0
LINE
  5
28E
100
AcDbEntity
  8
0
100
AcDbLine
 62
2
  6
CONTINUOUS
 10
637.5386445484
 20
480.5997887849
 11
637.5386445484
 21
360.321271045
  0
LINE
  5
28F
100
AcDbEntity
  8
0
100
AcDbLine
 62
2
  6
CONTINUOUS
 10
701.0386445484
 20
480.5997887849
 11
701.0386445484
 21
360.321271045
  0
LINE
  5
290
100
AcDbEntity
  8
0
100
AcDbLine
 62
2
  6
CONTINUOUS
 10
637.5386445484
 20
379.371271045
 11
669.2886445484
 21
379.371271045
  0
LINE
  5
291
100
AcDbEntity
  8
0
100
AcDbLine
 62
2
  6
CONTINUOUS
 10
701.0386445484
 20
379.371271045
 11
669.2886445484
 21
379.371271045
  0
LINE
  5
292
100
AcDbEntity
  8
0
100
AcDbLine
 62
2
  6
CONTINUOUS
 10
669.2886445484
 20
379.371271045
 11
718.9528629562
 21
379.371271045
  0
INSERT
  5
293
100
AcDbEntity
  8
0
100
AcDbBlockReference
 62
2
  6
CONTINUOUS
  2
_FILLED
 10
637.5386445484
 20
379.371271045
 41
12.0
 42
12.0
 43
12.0
 50
180.0
  0
INSERT
  5
294
100
AcDbEntity
  8
0
100
AcDbBlockReference
 62
2
  6
CONTINUOUS
  2
_FILLED
 10
701.0386445484
 20
379.371271045
 41
12.0
 42
12.0
 43
12.0
  0
ENDBLK
  5
295
100
AcDbEntity
  8
0
  6
BYBLOCK
 62
0
100
AcDbBlockEnd
  0
BLOCK
  5
296
100
AcDbEntity
  8
0
100
AcDbBlockBegin
 62
2
  6
CONTINUOUS
  2
*D11
 70
65
 10
0.0
 20
0.0
  3
*D11
  1

  0
MTEXT
  5
297
100
AcDbEntity
  8
0
100
AcDbMText
 62
2
  6
CONTINUOUS
  7
STANDARD
 71
2
 72
1
 10
977.132284099
 20
522.2312556565
 30
0.0
 11
1.0
 21
0.0
 31
0.0
 73
2
 44
0.9
  1
4X 58,71\P[2.311]
 40
13.716
 41
75.2595390335
  0
LINE
  5
298
100
AcDbEntity
  8
0
100
AcDbLine
 62
2
  6
CONTINUOUS
 10
914.1686445484
 20
535.3336600188
 11
1002.9128119801
 21
535.3336600188
  0
LINE
  5
299
100
AcDbEntity
  8
0
100
AcDbLine
 62
2
  6
CONTINUOUS
 10
914.1686445484
 20
476.6236600188
 11
1002.9128119801
 21
476.6236600188
  0
LINE
  5
29A
100
AcDbEntity
  8
0
100
AcDbLine
 62
2
  6
CONTINUOUS
 10
983.8628119801
 20
535.3336600188
 11
983.8628119801
 21
559.3336600188
  0
LINE
  5
29B
100
AcDbEntity
  8
0
100
AcDbLine
 62
2
  6
CONTINUOUS
 10
983.8628119801
 20
476.6236600188
 11
983.8628119801
 21
452.6236600188
  0
INSERT
  5
29C
100
AcDbEntity
  8
0
100
AcDbBlockReference
 62
2
  6
CONTINUOUS
  2
_FILLED
 10
983.8628119801
 20
535.3336600188
 41
12.0
 42
12.0
 43
12.0
 50
270.0
  0
INSERT
  5
29D
100
AcDbEntity
  8
0
100
AcDbBlockReference
 62
2
  6
CONTINUOUS
  2
_FILLED
 10
983.8628119801
 20
476.6236600188
 41
12.0
 42
12.0
 43
12.0
 50
90.0
  0
ENDBLK
  5
29E
100
AcDbEntity
  8
0
  6
BYBLOCK
 62
0
100
AcDbBlockEnd
  0
BLOCK
  5
29F
100
AcDbEntity
  8
0
100
AcDbBlockBegin
 62
2
  6
CONTINUOUS
  2
*D12
 70
65
 10
0.0
 20
0.0
  3
*D12
  1

  0
MTEXT
  5
2A0
100
AcDbEntity
  8
0
100
AcDbMText
 62
2
  6
CONTINUOUS
  7
STANDARD
 71
2
 72
1
 10
662.5581166673
 20
857.7289459611
 30
0.0
 11
1.0
 21
0.0
 31
0.0
 73
2
 44
0.9
  1
523,1\P[20.59]
 40
13.716
 41
61.1866171004
  0
LINE
  5
2A1
100
AcDbEntity
  8
0
100
AcDbLine
 62
2
  6
CONTINUOUS
 10
407.7386445484
 20
1122.4927958151
 11
407.7386445484
 21
831.8209459611
  0
LINE
  5
2A2
100
AcDbEntity
  8
0
100
AcDbLine
 62
2
  6
CONTINUOUS
 10
930.8386445484
 20
1122.4927958151
 11
930.8386445484
 21
831.8209459611
  0
LINE
  5
2A3
100
AcDbEntity
  8
0
100
AcDbLine
 62
2
  6
CONTINUOUS
 10
407.7386445484
 20
850.8709459611
 11
631.8373359982
 21
850.8709459611
  0
LINE
  5
2A4
100
AcDbEntity
  8
0
100
AcDbLine
 62
2
  6
CONTINUOUS
 10
930.8386445484
 20
850.8709459611
 11
706.7399530986
 21
850.8709459611
  0
INSERT
  5
2A5
100
AcDbEntity
  8
0
100
AcDbBlockReference
 62
2
  6
CONTINUOUS
  2
_FILLED
 10
407.7386445484
 20
850.8709459611
 41
12.0
 42
12.0
 43
12.0
 50
180.0
  0
INSERT
  5
2A6
100
AcDbEntity
  8
0
100
AcDbBlockReference
 62
2
  6
CONTINUOUS
  2
_FILLED
 10
930.8386445484
 20
850.8709459611
 41
12.0
 42
12.0
 43
12.0
  0
ENDBLK
  5
2A7
100
AcDbEntity
  8
0
  6
BYBLOCK
 62
0
100
AcDbBlockEnd
  0
BLOCK
  5
2A8
100
AcDbEntity
  8
0
100
AcDbBlockBegin
 62
2
  6
CONTINUOUS
  2
*D13
 70
65
 10
0.0
 20
0.0
  3
*D13
  1

  0
TEXT
  5
2A9
100
AcDbEntity
  8
0
100
AcDbText
 62
2
  6
CONTINUOUS
 10
617.4372356264
 20
924.6143228209
  7
STANDARD
 40
13.716
  1
503,1
 41
1.0
 72
1
 11
641.3000162956
 21
924.6143228209
100
AcDbText
  0
TEXT
  5
2AA
100
AcDbEntity
  8
0
100
AcDbText
 62
2
  6
CONTINUOUS
 10
665.1627969647
 20
924.6143228209
  7
TEXTSTYLE_1
 40
13.716
  1
`
 41
1.0
 72
1
 11
673.1637969647
 21
924.6143228209
100
AcDbText
  0
TEXT
  5
2AB
100
AcDbEntity
  8
0
100
AcDbText
 62
2
  6
CONTINUOUS
 10
681.1647969647
 20
924.6143228209
  7
STANDARD
 40
13.716
  1
2,0
 41
1.0
 72
1
 11
694.4218973365
 21
924.6143228209
100
AcDbText
  0
TEXT
  5
2AC
100
AcDbEntity
  8
0
100
AcDbText
 62
2
  6
CONTINUOUS
 10
617.4372356264
 20
904.0403228209
  7
STANDARD
 40
13.716
  1
[
 41
1.0
 72
1
 11
620.802499567
 21
904.0403228209
100
AcDbText
  0
TEXT
  5
2AD
100
AcDbEntity
  8
0
100
AcDbText
 62
2
  6
CONTINUOUS
 10
624.1677635075
 20
904.0403228209
  7
STANDARD
 40
13.716
  1
19.81
 41
1.0
 72
1
 11
648.0305441766
 21
904.0403228209
100
AcDbText
  0
TEXT
  5
2AE
100
AcDbEntity
  8
0
100
AcDbText
 62
2
  6
CONTINUOUS
 10
671.8933248458
 20
904.0403228209
  7
TEXTSTYLE_1
 40
13.716
  1
`
 41
1.0
 72
1
 11
679.8943248458
 21
904.0403228209
100
AcDbText
  0
TEXT
  5
2AF
100
AcDbEntity
  8
0
100
AcDbText
 62
2
  6
CONTINUOUS
 10
687.8953248458
 20
904.0403228209
  7
STANDARD
 40
13.716
  1
.07
 41
1.0
 72
1
 11
701.1524252175
 21
904.0403228209
100
AcDbText
  0
TEXT
  5
2B0
100
AcDbEntity
  8
0
100
AcDbText
 62
2
  6
CONTINUOUS
 10
714.4095255893
 20
904.0403228209
  7
STANDARD
 40
13.716
  1
]
 41
1.0
 72
1
 11
717.7747895298
 21
904.0403228209
100
AcDbText
  0
LINE
  5
2B1
100
AcDbEntity
  8
0
100
AcDbLine
 62
2
  6
CONTINUOUS
 10
417.7386445484
 20
998.0807958151
 11
417.7386445484
 21
912.4223228209
  0
LINE
  5
2B2
100
AcDbEntity
  8
0
100
AcDbLine
 62
2
  6
CONTINUOUS
 10
920.8386445484
 20
998.0807958151
 11
920.8386445484
 21
912.4223228209
  0
LINE
  5
2B3
100
AcDbEntity
  8
0
100
AcDbLine
 62
2
  6
CONTINUOUS
 10
417.7386445484
 20
931.4723228209
 11
610.5792356264
 21
931.4723228209
  0
LINE
  5
2B4
100
AcDbEntity
  8
0
100
AcDbLine
 62
2
  6
CONTINUOUS
 10
920.8386445484
 20
931.4723228209
 11
727.9980534703
 21
931.4723228209
  0
INSERT
  5
2B5
100
AcDbEntity
  8
0
100
AcDbBlockReference
 62
2
  6
CONTINUOUS
  2
_FILLED
 10
417.7386445484
 20
931.4723228209
 41
12.0
 42
12.0
 43
12.0
 50
180.0
  0
INSERT
  5
2B6
100
AcDbEntity
  8
0
100
AcDbBlockReference
 62
2
  6
CONTINUOUS
  2
_FILLED
 10
920.8386445484
 20
931.4723228209
 41
12.0
 42
12.0
 43
12.0
  0
ENDBLK
  5
2B7
100
AcDbEntity
  8
0
  6
BYBLOCK
 62
0
100
AcDbBlockEnd
  0
BLOCK
  5
2B8
100
AcDbEntity
  8
0
100
AcDbBlockBegin
 62
2
  6
CONTINUOUS
  2
*D14
 70
65
 10
0.0
 20
0.0
  3
*D14
  1

  0
MTEXT
  5
2B9
100
AcDbEntity
  8
0
100
AcDbMText
 62
2
  6
CONTINUOUS
  7
STANDARD
 71
1
 72
1
 10
976.3173776783
 20
1017.4703527313
 30
0.0
 11
1.0
 21
0.0
 31
0.0
 73
2
 44
0.9
  1
2,50\P[.098]
 40
13.716
 41
50.580936803
  0
LINE
  5
2BA
100
AcDbEntity
  8
0
100
AcDbLine
 62
2
  6
CONTINUOUS
 10
918.3386445484
 20
1010.6123527313
 11
894.3386445484
 21
1010.6123527313
  0
LINE
  5
2BB
100
AcDbEntity
  8
0
100
AcDbLine
 62
2
  6
CONTINUOUS
 10
920.8386445484
 20
1010.6123527313
 11
969.4593776783
 21
1010.6123527313
  0
INSERT
  5
2BC
100
AcDbEntity
  8
0
100
AcDbBlockReference
 62
2
  6
CONTINUOUS
  2
_FILLED
 10
918.3386445484
 20
1010.6123527313
 41
12.0
 42
12.0
 43
12.0
  0
INSERT
  5
2BD
100
AcDbEntity
  8
0
100
AcDbBlockReference
 62
2
  6
CONTINUOUS
  2
_FILLED
 10
920.8386445484
 20
1010.6123527313
 41
12.0
 42
12.0
 43
12.0
 50
180.0
  0
ENDBLK
  5
2BE
100
AcDbEntity
  8
0
  6
BYBLOCK
 62
0
100
AcDbBlockEnd
  0
BLOCK
  5
2BF
100
AcDbEntity
  8
0
100
AcDbBlockBegin
 62
2
  6
CONTINUOUS
  2
*D15
 70
65
 10
0.0
 20
0.0
  3
*D15
  1

  0
MTEXT
  5
2C0
100
AcDbEntity
  8
0
100
AcDbMText
 62
2
  6
CONTINUOUS
  7
TEXTSTYLE_1
 71
3
 72
1
 10
526.9110093473
 20
720.665462636
 30
0.0
 11
1.0
 21
0.0
 31
0.0
 73
2
 44
0.9
  1
{\fgdt;n}\fCentury Gothic;13,10{\ftxt.shx;\W0.208178;\H13.716000; } THRU\P[.516]
 40
13.716
 41
119.5518513011
  0
LINE
  5
2C1
100
AcDbEntity
  8
0
100
AcDbLine
 62
2
  6
CONTINUOUS
 10
666.3521096366
 20
511.8312719751
 11
565.0110093473
 21
713.807462636
  0
LINE
  5
2C2
100
AcDbEntity
  8
0
100
AcDbLine
 62
2
  6
CONTINUOUS
 10
565.0110093473
 20
713.807462636
 11
533.7690093473
 21
713.807462636
  0
INSERT
  5
2C3
100
AcDbEntity
  8
0
100
AcDbBlockReference
 62
2
  6
CONTINUOUS
  2
_FILLED
 10
666.3521096366
 20
511.8312719751
 41
12.0
 42
12.0
 43
12.0
 50
296.6451063603
  0
ENDBLK
  5
2C4
100
AcDbEntity
  8
0
  6
BYBLOCK
 62
0
100
AcDbBlockEnd
  0
BLOCK
  5
2C5
100
AcDbEntity
  8
0
100
AcDbBlockBegin
 62
2
  6
CONTINUOUS
  2
*D16
 70
65
 10
0.0
 20
0.0
  3
*D16
  1

  0
MTEXT
  5
2C6
100
AcDbEntity
  8
0
100
AcDbMText
 62
2
  6
CONTINUOUS
  7
STANDARD
 71
1
 72
1
 10
832.3990064232
 20
687.3725105629
 30
0.0
 11
1.0
 21
0.0
 31
0.0
 73
2
 44
0.9
  1
2X \fgdt;{\fgdt;n}\fCentury Gothic;6,53{\ftxt.shx;\W0.981413;\H13.716000; } THRU\P[.257]
 40
13.716
 41
147.0858289963
  0
LINE
  5
2C7
100
AcDbEntity
  8
0
100
AcDbLine
 62
2
  6
CONTINUOUS
 10
702.5768858677
 20
508.8574635278
 11
794.2990064232
 21
680.5145105629
  0
LINE
  5
2C8
100
AcDbEntity
  8
0
100
AcDbLine
 62
2
  6
CONTINUOUS
 10
794.2990064232
 20
680.5145105629
 11
825.5410064232
 21
680.5145105629
  0
INSERT
  5
2C9
100
AcDbEntity
  8
0
100
AcDbBlockReference
 62
2
  6
CONTINUOUS
  2
_FILLED
 10
702.5768858677
 20
508.8574635278
 41
12.0
 42
12.0
 43
12.0
 50
241.8829141703
  0
ENDBLK
  5
2CA
100
AcDbEntity
  8
0
  6
BYBLOCK
 62
0
100
AcDbBlockEnd
  0
ENDSEC
  0
SECTION
  2
ENTITIES
  0
MTEXT
  5
2CB
100
AcDbEntity
  8
0
100
AcDbMText
 62
2
  6
CONTINUOUS
  7
TEXTSTYLE_2
 71
1
 72
1
 10
34.606717246
 20
260.2771643606
 30
0.0
 11
1.0
 21
0.0
 31
0.0
 73
2
 44
1.0
  1
A
 40
14.2875
 41
14.7124070632
  0
MTEXT
  5
2CC
100
AcDbEntity
  8
0
100
AcDbMText
 62
2
  6
CONTINUOUS
  7
TEXTSTYLE_2
 71
1
 72
1
 10
34.5502725646
 20
652.5100290362
 30
0.0
 11
1.0
 21
0.0
 31
0.0
 73
2
 44
1.0
  1
B
 40
14.2875
 41
11.4193773234
  0
MTEXT
  5
2CD
100
AcDbEntity
  8
0
100
AcDbMText
 62
2
  6
CONTINUOUS
  7
TEXTSTYLE_2
 71
1
 72
1
 10
34.5530069128
 20
1044.8151302414
 30
0.0
 11
1.0
 21
0.0
 31
0.0
 73
2
 44
1.0
  1
C
 40
14.2875
 41
16.1995817844
  0
MTEXT
  5
2CE
100
AcDbEntity
  8
0
100
AcDbMText
 62
2
  6
CONTINUOUS
  7
TEXTSTYLE_2
 71
1
 72
1
 10
34.5235656796
 20
1437.2709148616
 30
0.0
 11
1.0
 21
0.0
 31
0.0
 73
2
 44
1.0
  1
D
 40
14.2875
 41
14.818633829
  0
MTEXT
  5
2CF
100
AcDbEntity
  8
0
100
AcDbMText
 62
2
  6
CONTINUOUS
  7
TEXTSTYLE_2
 71
1
 72
1
 10
2188.2495888396
 20
70.8999073911
 30
0.0
 11
1.0
 21
0.0
 31
0.0
 73
2
 44
1.0000002
  1
SCALE:  
 40
7.937502
 41
42.9333286617
  0
MTEXT
  5
2D0
100
AcDbEntity
  8
0
100
AcDbMText
 62
2
  6
CONTINUOUS
  7
TEXTSTYLE_2
 71
1
 72
1
 10
2188.9063651549
 20
111.4136238432
 30
0.0
 11
1.0
 21
0.0
 31
0.0
 73
2
 44
1.0000002
  1
SIZE
 40
7.937502
 41
19.2683598736
  0
MTEXT
  5
2D1
100
AcDbEntity
  8
0
100
AcDbMText
 62
2
  6
CONTINUOUS
  7
TEXTSTYLE_2
 71
1
 72
1
 10
2259.1111601508
 20
70.3315739272
 30
0.0
 11
1.0
 21
0.0
 31
0.0
 73
2
 44
1.0000002
  1
CAD FILE:                   
 40
7.992
 41
109.511197026
  0
MTEXT
  5
2D2
100
AcDbEntity
  8
0
100
AcDbMText
 62
2
  6
CONTINUOUS
  7
TEXTSTYLE_2
 71
1
 72
1
 10
2288.8099291002
 20
111.1366040436
 30
0.0
 11
1.0
 21
0.0
 31
0.0
 73
2
 44
1.0000002
  1
DWG. NO.
 40
7.937502
 41
55.5034991152
  0
MTEXT
  5
2D3
100
AcDbEntity
  8
0
100
AcDbMText
 62
2
  6
CONTINUOUS
  7
TEXTSTYLE_2
 71
1
 72
1
 10
2193.7061255074
 20
93.9218206253
 30
0.0
 11
1.0
 21
0.0
 31
0.0
 73
2
 44
1.0000002
  1
B
 40
11.112498
 41
8.8817363197
  0
MTEXT
  5
2D4
100
AcDbEntity
  8
0
100
AcDbMText
 62
2
  6
CONTINUOUS
  7
TEXTSTYLE_2
 71
1
 72
1
 10
2436.6892704972
 20
70.625750423
 30
0.0
 11
1.0
 21
0.0
 31
0.0
 73
2
 44
1.0000002
  1
SHEET:
 40
7.937502
 41
32.7237535985
  0
MTEXT
  5
2D5
100
AcDbEntity
  8
0
100
AcDbMText
 62
2
  6
CONTINUOUS
  7
TEXTSTYLE_2
 71
1
 72
1
 10
1982.0585808745
 20
212.7114785883
 30
0.0
 11
1.0
 21
0.0
 31
0.0
 73
2
 44
1.0000002
  1
DRAWN BY
 40
7.937502
 41
57.893601948
  0
MTEXT
  5
2D6
100
AcDbEntity
  8
0
100
AcDbMText
 62
2
  6
CONTINUOUS
  7
TEXTSTYLE_2
 71
1
 72
1
 10
1982.8637412268
 20
172.4537161019
 30
0.0
 11
1.0
 21
0.0
 31
0.0
 73
2
 44
1.0000002
  1
MECH ENGINEER
 40
7.937502
 41
88.7583866766
  0
MTEXT
  5
2D7
100
AcDbEntity
  8
0
100
AcDbMText
 62
2
  6
CONTINUOUS
  7
TEXTSTYLE_2
 71
1
 72
1
 10
1982.8637412268
 20
132.1668140999
 30
0.0
 11
1.0
 21
0.0
 31
0.0
 73
2
 44
1.0000002
  1
TECH DIRECTOR
 40
7.937502
 41
83.7421214721
  0
MTEXT
  5
2D8
100
AcDbEntity
  8
0
100
AcDbMText
 62
2
  6
CONTINUOUS
  7
TEXTSTYLE_2
 71
1
 72
1
 10
1982.8637412268
 20
91.2321072419
 30
0.0
 11
1.0
 21
0.0
 31
0.0
 73
2
 44
1.0000002
  1
MFG ENGINEER
 40
7.937502
 41
81.2930037546
  0
MTEXT
  5
2D9
100
AcDbEntity
  8
0
100
AcDbMText
 62
2
  6
CONTINUOUS
  7
TEXTSTYLE_2
 71
1
 72
1
 10
1799.1010034456
 20
224.035604292
 30
0.0
 11
1.0
 21
0.0
 31
0.0
 73
2
 44
1.0000002
  1
DECIMALS                    ANGLES
 40
7.937502
 41
158.5729953457
  0
MTEXT
  5
2DA
100
AcDbEntity
  8
0
100
AcDbMText
 62
2
  6
CONTINUOUS
  7
TEXTSTYLE_2
 71
1
 72
1
 10
1778.9326772827
 20
162.472684706
 30
0.0
 11
1.0
 21
0.0
 31
0.0
 73
2
 44
1.0000002
  1
MATERIAL
 40
7.937502
 41
51.5199943941
  0
MTEXT
  5
2DB
100
AcDbEntity
  8
0
100
AcDbMText
 62
2
  6
CONTINUOUS
  7
TEXTSTYLE_2
 71
1
 72
1
 10
1779.4771812817
 20
134.7003241945
 30
0.0
 11
1.0
 21
0.0
 31
0.0
 73
2
 44
1.0000002
  1
FINISH
 40
7.937502
 41
31.6319782305
  0
MTEXT
  5
2DC
100
AcDbEntity
  8
0
100
AcDbMText
 62
2
  6
CONTINUOUS
  7
TEXTSTYLE_2
 71
1
 72
1
 10
1789.8483238295
 20
103.1341739529
 30
0.0
 11
1.0
 21
0.0
 31
0.0
 73
2
 44
1.0000002
  1
DO  NOT  SCALE  DRAWING
 40
9.525
 41
175.9115241636
  0
MTEXT
  5
2DD
100
AcDbEntity
  8
0
100
AcDbMText
 62
2
  6
CONTINUOUS
  7
TEXTSTYLE_2
 71
1
 72
1
 10
2377.2892815538
 20
52.6260213218
 30
0.0
 11
1.0
 21
0.0
 31
0.0
 73
2
 44
1.0
  1
1
 40
14.2875
 41
11.0475836431
  0
MTEXT
  5
2DE
100
AcDbEntity
  8
0
100
AcDbMText
 62
2
  6
CONTINUOUS
  7
TEXTSTYLE_2
 71
1
 72
1
 10
2066.704867684
 20
53.1223018718
 30
0.0
 11
1.0
 21
0.0
 31
0.0
 73
2
 44
1.0
  1
2
 40
14.2875
 41
11.0475836431
  0
MTEXT
  5
2DF
100
AcDbEntity
  8
0
100
AcDbMText
 62
2
  6
CONTINUOUS
  7
TEXTSTYLE_2
 71
1
 72
1
 10
1755.915022225
 20
52.8058891748
 30
0.0
 11
1.0
 21
0.0
 31
0.0
 73
2
 44
1.0
  1
3
 40
14.2875
 41
11.0475836431
  0
MTEXT
  5
2E0
100
AcDbEntity
  8
0
100
AcDbMText
 62
2
  6
CONTINUOUS
  7
TEXTSTYLE_2
 71
1
 72
1
 10
1445.6232000868
 20
52.9910843672
 30
0.0
 11
1.0
 21
0.0
 31
0.0
 73
2
 44
1.0
  1
4
 40
14.2875
 41
11.0475836431
  0
MTEXT
  5
2E1
100
AcDbEntity
  8
0
100
AcDbMText
 62
2
  6
CONTINUOUS
  7
TEXTSTYLE_2
 71
1
 72
1
 10
1135.3626032908
 20
52.8334841174
 30
0.0
 11
1.0
 21
0.0
 31
0.0
 73
2
 44
1.0
  1
5
 40
14.2875
 41
11.0475836431
  0
MTEXT
  5
2E2
100
AcDbEntity
  8
0
100
AcDbMText
 62
2
  6
CONTINUOUS
  7
TEXTSTYLE_2
 71
1
 72
1
 10
824.810143066
 20
53.2574786186
 30
0.0
 11
1.0
 21
0.0
 31
0.0
 73
2
 44
1.0
  1
6
 40
14.2875
 41
11.0475836431
  0
MTEXT
  5
2E3
100
AcDbEntity
  8
0
100
AcDbMText
 62
2
  6
CONTINUOUS
  7
TEXTSTYLE_2
 71
1
 72
1
 10
514.1910917782
 20
53.013194423
 30
0.0
 11
1.0
 21
0.0
 31
0.0
 73
2
 44
1.0
  1
7
 40
14.2875
 41
11.0475836431
  0
MTEXT
  5
2E4
100
AcDbEntity
  8
0
100
AcDbMText
 62
2
  6
CONTINUOUS
  7
TEXTSTYLE_2
 71
1
 72
1
 10
203.4431037934
 20
52.7963441396
 30
0.0
 11
1.0
 21
0.0
 31
0.0
 73
2
 44
1.0
  1
8
 40
14.2875
 41
11.0475836431
  0
MTEXT
  5
2E5
100
AcDbEntity
  8
0
100
AcDbMText
 62
2
  6
CONTINUOUS
  7
TEXTSTYLE_2
 71
1
 72
1
 10
207.7573609323
 20
1641.7109852731
 30
0.0
 11
1.0
 21
0.0
 31
0.0
 73
2
 44
1.0000002
  1
8
 40
14.2875
 41
11.0475836431
  0
MTEXT
  5
2E6
100
AcDbEntity
  8
0
100
AcDbMText
 62
2
  6
CONTINUOUS
  7
TEXTSTYLE_2
 71
1
 72
1
 10
1778.4753334491
 20
74.4507005395
 30
0.0
 11
1.0
 21
0.0
 31
0.0
 73
2
 44
1.0000002
  1
PROJECTION SYMBOL
 40
9.42
 41
135.9771747212
  0
MTEXT
  5
2E7
100
AcDbEntity
  8
0
100
AcDbMText
 62
2
  6
CONTINUOUS
  7
TEXTSTYLE_2
 71
1
 72
1
 10
2046.9333461759
 20
229.4535849239
 30
0.0
 11
1.0
 21
0.0
 31
0.0
 73
2
 44
1.0000002
  1
APPROVALS
 40
7.937502
 41
64.1786871747
  0
MTEXT
  5
2E8
100
AcDbEntity
  8
0
100
AcDbMText
 62
2
  6
CONTINUOUS
  7
TEXTSTYLE_2
 71
1
 72
1
 10
514.6893412084
 20
1641.8451161726
 30
0.0
 11
1.0
 21
0.0
 31
0.0
 73
2
 44
1.0000002
  1
7
 40
14.2875
 41
11.0475836431
  0
MTEXT
  5
2E9
100
AcDbEntity
  8
0
100
AcDbMText
 62
2
  6
CONTINUOUS
  7
TEXTSTYLE_2
 71
1
 72
1
 10
1135.3939835818
 20
1641.245623817
 30
0.0
 11
1.0
 21
0.0
 31
0.0
 73
2
 44
1.0
  1
5
 40
14.2875
 41
11.0475836431
  0
MTEXT
  5
2EA
100
AcDbEntity
  8
0
100
AcDbMText
 62
2
  6
CONTINUOUS
  7
TEXTSTYLE_2
 71
1
 72
1
 10
1445.8578226984
 20
1641.2966742434
 30
0.0
 11
1.0
 21
0.0
 31
0.0
 73
2
 44
1.0
  1
4
 40
14.2875
 41
11.0475836431
  0
MTEXT
  5
2EB
100
AcDbEntity
  8
0
100
AcDbMText
 62
2
  6
CONTINUOUS
  7
TEXTSTYLE_2
 71
1
 72
1
 10
1756.1978670484
 20
1641.2597977244
 30
0.0
 11
1.0
 21
0.0
 31
0.0
 73
2
 44
1.0
  1
3
 40
14.2875
 41
11.0475836431
  0
MTEXT
  5
2EC
100
AcDbEntity
  8
0
100
AcDbMText
 62
2
  6
CONTINUOUS
  7
TEXTSTYLE_2
 71
1
 72
1
 10
2066.7992707306
 20
1641.5763774356
 30
0.0
 11
1.0
 21
0.0
 31
0.0
 73
2
 44
1.0
  1
2
 40
14.2875
 41
11.0475836431
  0
MTEXT
  5
2ED
100
AcDbEntity
  8
0
100
AcDbMText
 62
2
  6
CONTINUOUS
  7
TEXTSTYLE_2
 71
1
 72
1
 10
2377.86368482
 20
1641.7006491566
 30
0.0
 11
1.0
 21
0.0
 31
0.0
 73
2
 44
1.0
  1
1
 40
14.2875
 41
11.0475836431
  0
MTEXT
  5
2EE
100
AcDbEntity
  8
0
100
AcDbMText
 62
2
  6
CONTINUOUS
  7
TEXTSTYLE_2
 71
1
 72
1
 10
2543.0364752818
 20
1436.8487286212
 30
0.0
 11
1.0
 21
0.0
 31
0.0
 73
2
 44
1.0
  1
D
 40
14.2875
 41
14.818633829
  0
MTEXT
  5
2EF
100
AcDbEntity
  8
0
100
AcDbMText
 62
2
  6
CONTINUOUS
  7
TEXTSTYLE_2
 71
1
 72
1
 10
2541.4555682338
 20
1044.72196484
 30
0.0
 11
1.0
 21
0.0
 31
0.0
 73
2
 44
1.0
  1
C
 40
14.2875
 41
16.1995817844
  0
MTEXT
  5
2F0
100
AcDbEntity
  8
0
100
AcDbMText
 62
2
  6
CONTINUOUS
  7
TEXTSTYLE_2
 71
1
 72
1
 10
2545.8165345028
 20
651.9321728108
 30
0.0
 11
1.0
 21
0.0
 31
0.0
 73
2
 44
1.0
  1
B
 40
14.2875
 41
11.4193773234
  0
MTEXT
  5
2F1
100
AcDbEntity
  8
0
100
AcDbMText
 62
2
  6
CONTINUOUS
  7
TEXTSTYLE_2
 71
1
 72
1
 10
2542.6792993012
 20
259.7428015676
 30
0.0
 11
1.0
 21
0.0
 31
0.0
 73
2
 44
1.0
  1
A
 40
14.2875
 41
14.7124070632
  0
MTEXT
  5
2F2
100
AcDbEntity
  8
0
100
AcDbMText
 62
2
  6
CONTINUOUS
  7
TEXTSTYLE_2
 71
1
 72
1
 10
1779.9282550155
 20
278.9928761877
 30
0.0
 11
1.0
 21
0.0
 31
0.0
 73
2
 44
1.2
  1
UNLESS  OTHERWISE  SPECIFIED\PDIMENSIONS ARE IN MM [IN]\PTOLERANCES ARE:
 40
9.525
 41
192.5537174721
  0
MTEXT
  5
2F3
100
AcDbEntity
  8
0
100
AcDbMText
 62
2
  6
CONTINUOUS
  7
TEXTSTYLE_2
 71
1
 72
1
 10
1987.1214455768
 20
274.4845693859
 30
0.0
 11
1.0
 21
0.0
 31
0.0
 73
2
 44
1.0000002
  1
CAD GENERATED DRAWING\PDO NOT MANUALLY UPDATE
 40
9.525
 41
178.9921003717
  0
MTEXT
  5
2F4
100
AcDbEntity
  8
0
100
AcDbMText
 62
2
  6
CONTINUOUS
  7
TEXTSTYLE_2
 71
1
 72
1
 10
60.1373270235
 20
1608.2302161401
 30
0.0
 11
1.0
 21
0.0
 31
0.0
 73
2
 44
1.0000002
  1
PROPERTY OF QSC, LLC, THAT MAY NOT BE DISCLOSED, REPRODUCED OR
 40
7.937502
 41
386.7245398216
  0
MTEXT
  5
2F5
100
AcDbEntity
  8
0
100
AcDbMText
 62
2
  6
CONTINUOUS
  7
TEXTSTYLE_2
 71
1
 72
1
 10
60.1373270235
 20
1619.6987884907
 30
0.0
 11
1.0
 21
0.0
 31
0.0
 73
2
 44
1.0000002
  1
THIS DOCUMENT CONTAINS PROPRIETARY INFORMATION WHICH IS THE
 40
7.937502
 41
370.8200283792
  0
MTEXT
  5
2F6
100
AcDbEntity
  8
0
100
AcDbMText
 62
2
  6
CONTINUOUS
  7
TEXTSTYLE_2
 71
1
 72
1
 10
59.9640061479
 20
1596.3436844267
 30
0.0
 11
1.0
 21
0.0
 31
0.0
 73
2
 44
1.0000002
  1
USED WITHOUT THE EXPRESS WRITTEN CONSENT FROM QSC, LLC.
 40
7.937502
 41
335.5586347361
  0
MTEXT
  5
2F7
100
AcDbEntity
  8
0
100
AcDbMText
 62
2
  6
CONTINUOUS
  7
TEXTSTYLE_2
 71
1
 72
1
 10
2496.759115133
 20
111.4074996881
 30
0.0
 11
1.0
 21
0.0
 31
0.0
 73
2
 44
1.0000002
  1
REV
 40
7.937502
 41
20.4191501264
  0
MTEXT
  5
2F8
100
AcDbEntity
  8
0
100
AcDbMText
 62
2
  6
CONTINUOUS
  7
TEXTSTYLE_2
 71
1
 72
1
 10
824.8280185228
 20
1641.4681128584
 30
0.0
 11
1.0
 21
0.0
 31
0.0
 73
2
 44
1.0
  1
6
 40
14.2875
 41
11.0475836431
  0
MTEXT
  5
2F9
100
AcDbEntity
  8
0
100
AcDbMText
 62
2
  6
CONTINUOUS
  7
TEXTSTYLE_2
 71
1
 72
1
 10
2214.1240221696
 20
110.745329585
 30
0.0
 11
1.0
 21
0.0
 31
0.0
 73
2
 44
1.0000002
  1
CAGE CODE
 40
7.937502
 41
68.6048035316
  0
MTEXT
  5
2FA
100
AcDbEntity
  8
0
100
AcDbMText
 62
2
  6
CONTINUOUS
  7
TEXTSTYLE_2
 71
1
 72
1
 10
2224.1861255074
 20
93.9218206253
 30
0.0
 11
1.0
 21
0.0
 31
0.0
 73
2
 44
1.0000002
  1
00PW4
 40
11.112498
 41
49.8203441933
  0
MTEXT
  5
2FB
100
AcDbEntity
  8
0
100
AcDbMText
 62
2
  6
CONTINUOUS
  7
TEXTSTYLE_2
 71
1
 72
1
 10
2345.0589903496
 20
257.4851228019
 30
0.0
 11
1.0
 21
0.0
 31
0.0
 73
2
 44
1.0000002
  1
1675 MACARTHUR BOULEVARD\PCOSTA MESA, CA 92626 USA
 40
9.144
 41
189.3385873606
  0
MTEXT
  5
2FC
100
AcDbEntity
  8
0
100
AcDbMText
 62
2
  6
CONTINUOUS
  7
TEXTSTYLE_2
 71
1
 72
1
 10
2346.3490781961
 20
279.0421999238
 30
0.0
 11
1.0
 21
0.0
 31
0.0
 73
2
 44
1.0000002
  1
QSC, LLC
 40
15.24
 41
95.0658736059
  0
MTEXT
  5
2FD
100
AcDbEntity
  8
0
100
AcDbMText
 62
2
  6
CONTINUOUS
  7
TEXTSTYLE_2
 71
3
 72
1
 10
2535.9881759914
 20
44.488576805
 30
0.0
 11
1.0
 21
0.0
 31
0.0
 73
2
 44
1.0000002
  1
Form: QMS100206 Rev B
 40
6.0
 41
96.156133829
  0
DIMENSION
  5
2FE
100
AcDbEntity
  8
0
100
AcDbDimension
 62
2
  6
CONTINUOUS
  2
*D0
 10
1574.7565566889
 20
449.7286600188
 11
1574.7565566889
 21
512.8435720203
 70
160
 71
2
 72
2
 41
0.9
 42
112.5
  1
<>\P[]
  3
DIMSTYLE_1
100
AcDbAlignedDimension
 13
1517.9155243898
 23
562.2286600188
 14
1517.9155243898
 24
449.7286600188
 50
270.0
100
AcDbRotatedDimension
  0
DIMENSION
  5
2FF
100
AcDbEntity
  8
0
100
AcDbDimension
 62
2
  6
CONTINUOUS
  2
*D1
 10
1260.6660243898
 20
663.0608027108
 11
1387.8220243898
 21
652.7738027108
 70
160
 71
2
 72
2
 41
0.9
 42
254.312
  1
2X <>\P[]
  3
DIMSTYLE_2
100
AcDbAlignedDimension
 13
1514.9780243898
 23
560.1661600188
 14
1260.6660243898
 24
513.2886535133
 50
180.0
100
AcDbRotatedDimension
  0
DIMENSION
  5
300
100
AcDbEntity
  8
0
100
AcDbDimension
 62
2
  6
CONTINUOUS
  2
*D2
 10
1260.6660243898
 20
596.5122547193
 11
1360.0556506256
 21
586.2252547193
 70
160
 71
1
 72
2
 41
0.9
 42
25.4
  1
2X <>\P[]
  3
DIMSTYLE_3
100
AcDbAlignedDimension
 13
1286.0660243898
 23
513.9161600188
 14
1260.6660243898
 24
518.4161600188
 50
180.0
100
AcDbRotatedDimension
  0
DIMENSION
  5
301
100
AcDbEntity
  8
0
100
AcDbDimension
 62
2
  6
CONTINUOUS
  2
*D3
 10
1260.6660243898
 20
318.7034673483
 11
1337.4264113941
 21
308.4164673483
 70
160
 71
1
 72
2
 41
0.9
 42
12.7
  1
2X <>\P[]
  3
DIMSTYLE_3
100
AcDbAlignedDimension
 13
1247.9660243898
 23
498.0411600188
 14
1260.6660243898
 24
502.5411600188
100
AcDbRotatedDimension
  0
DIMENSION
  5
302
100
AcDbEntity
  8
0
100
AcDbDimension
 62
2
  6
CONTINUOUS
  2
*D4
 10
1514.9780243898
 20
230.2245538324
 11
1364.5220243898
 21
219.9375538324
 70
160
 71
2
 72
2
 41
0.9
 42
300.912
  1
<>\P[]
  3
DIMSTYLE_1
100
AcDbAlignedDimension
 13
1214.0660243898
 23
466.7911600188
 14
1514.9780243898
 24
451.7911600188
100
AcDbRotatedDimension
  0
DIMENSION
  5
303
100
AcDbEntity
  8
0
100
AcDbDimension
 62
2
  6
CONTINUOUS
  2
*D5
 10
1122.8083299788
 20
552.2286600188
 11
1122.8083299788
 21
510.1338028838
 70
160
 71
2
 72
2
 41
0.9
 42
92.5
  1
<>\P[]
  3
DIMSTYLE_3
100
AcDbAlignedDimension
 13
1221.1285243898
 23
459.7286600188
 14
1224.1516135382
 24
552.2286600188
 50
90.0
100
AcDbRotatedDimension
  0
DIMENSION
  5
304
100
AcDbEntity
  8
0
100
AcDbDimension
 62
2
  6
CONTINUOUS
  2
*D6
 10
1249.6153823884
 20
501.3115283308
 11
1387.9300602336
 21
343.8445041962
 70
163
 71
1
 72
2
 41
0.9
 42
9.9
  1
4X %%c<>\P[]
  3
DIMSTYLE_4
100
AcDbDiametricDimension
 15
1246.3166663912
 25
510.6457917067
  0
DIMENSION
  5
305
100
AcDbEntity
  8
0
100
AcDbDimension
 62
2
  6
CONTINUOUS
  2
*D7
 10
1260.6660243898
 20
510.4786600188
 11
1397.1006880402
 21
403.0987855323
 70
164
 71
1
 72
2
 41
0.9
 42
4.95
  1
2X R<>\P[]
  3
DIMSTYLE_5
100
AcDbRadialDimension
 15
1263.0536955979
 25
506.1425873485
  0
DIMENSION
  5
306
100
AcDbEntity
  8
0
100
AcDbDimension
 62
2
  6
CONTINUOUS
  2
*D8
 10
478.7886445484
 20
377.2576000538
 11
551.9610056787
 21
366.9706000538
 70
160
 71
1
 72
2
 41
0.9
 42
25.4
  1
4X <>\P[]
  3
DIMSTYLE_3
100
AcDbAlignedDimension
 13
453.3886445484
 23
449.2311600188
 14
478.7886445484
 24
449.2311600188
100
AcDbRotatedDimension
  0
DIMENSION
  5
307
100
AcDbEntity
  8
0
100
AcDbDimension
 62
2
  6
CONTINUOUS
  2
*D9
 10
859.7886445484
 20
284.8718907972
 11
669.2886445484
 21
274.5848907972
 70
160
 71
2
 72
2
 41
0.9
 42
381.0
  1
2X <>\P[]
  3
DIMSTYLE_6
100
AcDbAlignedDimension
 13
478.7886445484
 23
449.2311600188
 14
859.7886445484
 24
449.2311600188
100
AcDbRotatedDimension
  0
DIMENSION
  5
308
100
AcDbEntity
  8
0
100
AcDbDimension
 62
2
  6
CONTINUOUS
  2
*D10
 10
701.0386445484
 20
379.371271045
 11
756.4041715064
 21
369.084271045
 70
160
 71
1
 72
2
 41
0.9
 42
63.5
  1
<>\P[]
  3
DIMSTYLE_3
100
AcDbAlignedDimension
 13
637.5386445484
 23
482.1872887849
 14
701.0386445484
 24
482.1872887849
100
AcDbRotatedDimension
  0
DIMENSION
  5
309
100
AcDbEntity
  8
0
100
AcDbDimension
 62
2
  6
CONTINUOUS
  2
*D11
 10
983.8628119801
 20
476.6236600188
 11
983.8628119801
 21
505.0862556565
 70
160
 71
2
 72
2
 41
0.9
 42
58.71
  1
4X <>\P[]
  3
DIMSTYLE_3
100
AcDbAlignedDimension
 13
912.5811445484
 23
535.3336600188
 14
912.5811445484
 24
476.6236600188
 50
270.0
100
AcDbRotatedDimension
  0
DIMENSION
  5
30A
100
AcDbEntity
  8
0
100
AcDbDimension
 62
2
  6
CONTINUOUS
  2
*D12
 10
930.8386445484
 20
850.8709459611
 11
669.2886445484
 21
840.5839459611
 70
160
 71
2
 72
2
 41
0.9
 42
523.1
  1
<>\P[]
  3
DIMSTYLE_1
100
AcDbAlignedDimension
 13
407.7386445484
 23
1124.0802958151
 14
930.8386445484
 24
1124.0802958151
100
AcDbRotatedDimension
  0
DIMENSION
  5
30B
100
AcDbEntity
  8
0
100
AcDbDimension
 62
2
  6
CONTINUOUS
  2
*D13
 10
920.8386445484
 20
931.4723228209
 11
669.2886445484
 21
921.1853228209
 70
160
 71
2
 72
2
 41
0.9
 42
503.1
  1
<>\P[]
  3
DIMSTYLE_7
100
AcDbAlignedDimension
 13
417.7386445484
 23
999.6682958151
 14
920.8386445484
 24
999.6682958151
100
AcDbRotatedDimension
  0
DIMENSION
  5
30C
100
AcDbEntity
  8
0
100
AcDbDimension
 62
2
  6
CONTINUOUS
  2
*D14
 10
920.8386445484
 20
1010.6123527313
 11
1001.6078460798
 21
1000.3253527313
 70
160
 71
1
 72
2
 41
0.9
 42
2.5
  1
<>\P[]
  3
DIMSTYLE_3
100
AcDbAlignedDimension
 13
918.3386445484
 23
1007.6057958151
 14
920.8386445484
 24
1007.6057958151
100
AcDbRotatedDimension
  0
DIMENSION
  5
30D
100
AcDbEntity
  8
0
100
AcDbDimension
 62
2
  6
CONTINUOUS
  2
*D15
 10
666.3521096366
 20
511.8312719751
 11
467.1350836967
 21
703.520462636
 70
163
 71
3
 72
2
 41
0.9
 42
13.096
  1
%%c<> THRU\P[]
  3
DIMSTYLE_4
100
AcDbDiametricDimension
 15
672.2251794601
 25
500.1260480624
  0
DIMENSION
  5
30E
100
AcDbEntity
  8
0
100
AcDbDimension
 62
2
  6
CONTINUOUS
  2
*D16
 10
702.5768858677
 20
508.8574635278
 11
905.9419209213
 21
670.2275105629
 70
163
 71
1
 72
2
 41
0.9
 42
6.528
  1
2X %%c<> THRU\P[]
  3
DIMSTYLE_4
100
AcDbDiametricDimension
 15
699.500403229
 25
503.0998565098
  0
LINE
  5
30F
100
AcDbEntity
  8
0
100
AcDbLine
 62
2
  6
CONTINUOUS
 10
2184.7234522805
 20
228.0909793987
 11
2538.1234522805
 21
228.0909793987
  0
LINE
  5
310
100
AcDbEntity
  8
0
100
AcDbLine
 62
2
  6
CONTINUOUS
 10
2184.7234522805
 20
228.0909793987
 11
2184.7234522805
 21
113.4347293987
  0
LINE
  5
311
100
AcDbEntity
  8
0
100
AcDbLine
 62
2
  6
CONTINUOUS
 10
2184.7234522805
 20
113.4347293987
 11
2538.1234522805
 21
113.4347293987
  0
LINE
  5
312
100
AcDbEntity
  8
0
100
AcDbLine
 62
2
  6
CONTINUOUS
 10
2538.1234522805
 20
228.0909793987
 11
2538.1234522805
 21
113.4347293987
  0
MTEXT
  5
313
100
AcDbEntity
  8
0
100
AcDbMText
 62
2
  6
CONTINUOUS
  7
TEXTSTYLE_2
 71
2
 72
1
 10
2361.4234522805
 20
196.1628537637
 30
0.0
 11
1.0
 21
0.0
 31
0.0
 73
2
 44
0.99999996
  1
FINISHED GOOD, YOKE \PMOUNT, YM-500
 40
19.05
 41
297.2224907063
  0
LINE
  5
314
100
AcDbEntity
  8
0
100
AcDbLine
 62
2
  6
CONTINUOUS
 10
2475.0963079631
 20
113.3851279957
 11
2537.8713079631
 21
113.3851279957
  0
LINE
  5
315
100
AcDbEntity
  8
0
100
AcDbLine
 62
2
  6
CONTINUOUS
 10
2475.0963079631
 20
113.3851279957
 11
2475.0963079631
 21
75.8851279957
  0
LINE
  5
316
100
AcDbEntity
  8
0
100
AcDbLine
 62
2
  6
CONTINUOUS
 10
2475.0963079631
 20
75.8851279957
 11
2537.8713079631
 21
75.8851279957
  0
LINE
  5
317
100
AcDbEntity
  8
0
100
AcDbLine
 62
2
  6
CONTINUOUS
 10
2537.8713079631
 20
113.3851279957
 11
2537.8713079631
 21
75.8851279957
  0
MTEXT
  5
318
100
AcDbEntity
  8
0
100
AcDbMText
 62
2
  6
CONTINUOUS
  7
TEXTSTYLE_2
 71
2
 72
1
 10
2506.4838079631
 20
98.8538779957
 30
0.0
 11
1.0
 21
0.0
 31
0.0
 73
2
 44
0.9
  1
B
 40
19.05
 41
15.2258364312
  0
LINE
  5
319
100
AcDbEntity
  8
0
100
AcDbLine
 62
2
  6
CONTINUOUS
 10
2285.1184433402
 20
113.2682802498
 11
2474.1184433402
 21
113.2682802498
  0
LINE
  5
31A
100
AcDbEntity
  8
0
100
AcDbLine
 62
2
  6
CONTINUOUS
 10
2285.1184433402
 20
113.2682802498
 11
2285.1184433402
 21
75.8620302498
  0
LINE
  5
31B
100
AcDbEntity
  8
0
100
AcDbLine
 62
2
  6
CONTINUOUS
 10
2285.1184433402
 20
75.8620302498
 11
2474.1184433402
 21
75.8620302498
  0
LINE
  5
31C
100
AcDbEntity
  8
0
100
AcDbLine
 62
2
  6
CONTINUOUS
 10
2474.1184433402
 20
113.2682802498
 11
2474.1184433402
 21
75.8620302498
  0
MTEXT
  5
31D
100
AcDbEntity
  8
0
100
AcDbMText
 62
2
  6
CONTINUOUS
  7
TEXTSTYLE_2
 71
2
 72
1
 10
2379.6184433402
 20
100.3307802498
 30
0.0
 11
1.0
 21
0.0
 31
0.0
 73
2
 44
0.9
  1
FG-001423-2D
 40
15.0
 41
139.0706319703
  0
LINE
  5
31E
100
AcDbEntity
  8
0
100
AcDbLine
 62
2
  6
CONTINUOUS
 10
1775.8149780003
 20
165.848527959
 11
1976.8149780003
 21
165.848527959
  0
LINE
  5
31F
100
AcDbEntity
  8
0
100
AcDbLine
 62
2
  6
CONTINUOUS
 10
1775.8149780003
 20
165.848527959
 11
1775.8149780003
 21
138.239152959
  0
LINE
  5
320
100
AcDbEntity
  8
0
100
AcDbLine
 62
2
  6
CONTINUOUS
 10
1775.8149780003
 20
138.239152959
 11
1976.8149780003
 21
138.239152959
  0
LINE
  5
321
100
AcDbEntity
  8
0
100
AcDbLine
 62
2
  6
CONTINUOUS
 10
1976.8149780003
 20
165.848527959
 11
1976.8149780003
 21
138.239152959
  0
MTEXT
  5
322
100
AcDbEntity
  8
0
100
AcDbMText
 62
2
  6
CONTINUOUS
  7
TEXTSTYLE_2
 71
2
 72
1
 10
1896.4149780003
 20
158.901840459
 30
0.0
 11
1.0
 21
0.0
 31
0.0
 73
2
 44
0.9
  1
-
 40
13.716
 41
6.373605948
  0
LINE
  5
323
100
AcDbEntity
  8
0
100
AcDbLine
 62
2
  6
CONTINUOUS
 10
1775.9405705727
 20
137.9202744335
 11
1976.9405705727
 21
137.9202744335
  0
LINE
  5
324
100
AcDbEntity
  8
0
100
AcDbLine
 62
2
  6
CONTINUOUS
 10
1775.9405705727
 20
137.9202744335
 11
1775.9405705727
 21
110.3108994335
  0
LINE
  5
325
100
AcDbEntity
  8
0
100
AcDbLine
 62
2
  6
CONTINUOUS
 10
1775.9405705727
 20
110.3108994335
 11
1976.9405705727
 21
110.3108994335
  0
LINE
  5
326
100
AcDbEntity
  8
0
100
AcDbLine
 62
2
  6
CONTINUOUS
 10
1976.9405705727
 20
137.9202744335
 11
1976.9405705727
 21
110.3108994335
  0
MTEXT
  5
327
100
AcDbEntity
  8
0
100
AcDbMText
 62
2
  6
CONTINUOUS
  7
TEXTSTYLE_2
 71
2
 72
1
 10
1896.5405705727
 20
130.9735869335
 30
0.0
 11
1.0
 21
0.0
 31
0.0
 73
2
 44
0.9
  1
-
 40
13.716
 41
6.373605948
  0
LINE
  5
328
100
AcDbEntity
  8
0
100
AcDbLine
 62
2
  6
CONTINUOUS
 10
1977.1245317151
 20
216.4410214464
 11
2184.1245317151
 21
216.4410214464
  0
LINE
  5
329
100
AcDbEntity
  8
0
100
AcDbLine
 62
2
  6
CONTINUOUS
 10
1977.1245317151
 20
216.4410214464
 11
1977.1245317151
 21
177.8160214464
  0
LINE
  5
32A
100
AcDbEntity
  8
0
100
AcDbLine
 62
2
  6
CONTINUOUS
 10
1977.1245317151
 20
177.8160214464
 11
2184.1245317151
 21
177.8160214464
  0
LINE
  5
32B
100
AcDbEntity
  8
0
100
AcDbLine
 62
2
  6
CONTINUOUS
 10
2184.1245317151
 20
216.4410214464
 11
2184.1245317151
 21
177.8160214464
  0
MTEXT
  5
32C
100
AcDbEntity
  8
0
100
AcDbMText
 62
2
  6
CONTINUOUS
  7
TEXTSTYLE_2
 71
1
 72
1
 10
1977.4995317151
 20
197.0628964464
 30
0.0
 11
1.0
 21
0.0
 31
0.0
 73
2
 44
0.9
  1
 ENG. SERVICES
 40
9.525
 41
98.2243494424
  0
LINE
  5
32D
100
AcDbEntity
  8
0
100
AcDbLine
 62
2
  6
CONTINUOUS
 10
1977.1817450294
 20
178.0144924244
 11
2184.1817450294
 21
178.0144924244
  0
LINE
  5
32E
100
AcDbEntity
  8
0
100
AcDbLine
 62
2
  6
CONTINUOUS
 10
1977.1817450294
 20
178.0144924244
 11
1977.1817450294
 21
137.1394924244
  0
LINE
  5
32F
100
AcDbEntity
  8
0
100
AcDbLine
 62
2
  6
CONTINUOUS
 10
1977.1817450294
 20
137.1394924244
 11
2184.1817450294
 21
137.1394924244
  0
LINE
  5
330
100
AcDbEntity
  8
0
100
AcDbLine
 62
2
  6
CONTINUOUS
 10
2184.1817450294
 20
178.0144924244
 11
2184.1817450294
 21
137.1394924244
  0
MTEXT
  5
331
100
AcDbEntity
  8
0
100
AcDbMText
 62
2
  6
CONTINUOUS
  7
TEXTSTYLE_2
 71
1
 72
1
 10
1977.5567450294
 20
157.2301174244
 30
0.0
 11
1.0
 21
0.0
 31
0.0
 73
2
 44
0.9
  1
 J. KRAUSS
 40
9.525
 41
65.1524163569
  0
LINE
  5
332
100
AcDbEntity
  8
0
100
AcDbLine
 62
2
  6
CONTINUOUS
 10
1977.2241882362
 20
137.0594087834
 11
2184.2241882362
 21
137.0594087834
  0
LINE
  5
333
100
AcDbEntity
  8
0
100
AcDbLine
 62
2
  6
CONTINUOUS
 10
1977.2241882362
 20
137.0594087834
 11
1977.2241882362
 21
96.1844087834
  0
LINE
  5
334
100
AcDbEntity
  8
0
100
AcDbLine
 62
2
  6
CONTINUOUS
 10
1977.2241882362
 20
96.1844087834
 11
2184.2241882362
 21
96.1844087834
  0
LINE
  5
335
100
AcDbEntity
  8
0
100
AcDbLine
 62
2
  6
CONTINUOUS
 10
2184.2241882362
 20
137.0594087834
 11
2184.2241882362
 21
96.1844087834
  0
MTEXT
  5
336
100
AcDbEntity
  8
0
100
AcDbMText
 62
2
  6
CONTINUOUS
  7
TEXTSTYLE_2
 71
1
 72
1
 10
1977.5991882362
 20
116.2750337834
 30
0.0
 11
1.0
 21
0.0
 31
0.0
 73
2
 44
0.9
  1
 L. MERCS
 40
9.525
 41
62.0010223048
  0
LINE
  5
337
100
AcDbEntity
  8
0
100
AcDbLine
 62
2
  6
CONTINUOUS
 10
1977.19614978
 20
96.7106342314
 11
2184.19614978
 21
96.7106342314
  0
LINE
  5
338
100
AcDbEntity
  8
0
100
AcDbLine
 62
2
  6
CONTINUOUS
 10
1977.19614978
 20
96.7106342314
 11
1977.19614978
 21
55.8356342314
  0
LINE
  5
339
100
AcDbEntity
  8
0
100
AcDbLine
 62
2
  6
CONTINUOUS
 10
1977.19614978
 20
55.8356342314
 11
2184.19614978
 21
55.8356342314
  0
LINE
  5
33A
100
AcDbEntity
  8
0
100
AcDbLine
 62
2
  6
CONTINUOUS
 10
2184.19614978
 20
96.7106342314
 11
2184.19614978
 21
55.8356342314
  0
MTEXT
  5
33B
100
AcDbEntity
  8
0
100
AcDbMText
 62
2
  6
CONTINUOUS
  7
TEXTSTYLE_2
 71
1
 72
1
 10
1977.57114978
 20
75.9262592314
 30
0.0
 11
1.0
 21
0.0
 31
0.0
 73
2
 44
0.9
  1
 M. JEN
 40
9.525
 41
46.5981412639
  0
LINE
  5
33C
100
AcDbEntity
  8
0
100
AcDbLine
 62
2
  6
CONTINUOUS
 10
2184.6618382672
 20
74.7097227876
 11
2255.4618382672
 21
74.7097227876
  0
LINE
  5
33D
100
AcDbEntity
  8
0
100
AcDbLine
 62
2
  6
CONTINUOUS
 10
2184.6618382672
 20
74.7097227876
 11
2184.6618382672
 21
56.1003477876
  0
LINE
  5
33E
100
AcDbEntity
  8
0
100
AcDbLine
 62
2
  6
CONTINUOUS
 10
2184.6618382672
 20
56.1003477876
 11
2255.4618382672
 21
56.1003477876
  0
LINE
  5
33F
100
AcDbEntity
  8
0
100
AcDbLine
 62
2
  6
CONTINUOUS
 10
2255.4618382672
 20
74.7097227876
 11
2255.4618382672
 21
56.1003477876
  0
MTEXT
  5
340
100
AcDbEntity
  8
0
100
AcDbMText
 62
2
  6
CONTINUOUS
  7
TEXTSTYLE_2
 71
2
 72
1
 10
2237.7618382672
 20
70.7390352876
 30
0.0
 11
1.0
 21
0.0
 31
0.0
 73
2
 44
0.9
  1
1:6
 40
10.668
 41
20.6221561338
  0
LINE
  5
341
100
AcDbEntity
  8
0
100
AcDbLine
 62
2
  6
CONTINUOUS
 10
2434.7575902779
 20
74.8506481348
 11
2538.2575902779
 21
74.8506481348
  0
LINE
  5
342
100
AcDbEntity
  8
0
100
AcDbLine
 62
2
  6
CONTINUOUS
 10
2434.7575902779
 20
74.8506481348
 11
2434.7575902779
 21
56.8037731348
  0
LINE
  5
343
100
AcDbEntity
  8
0
100
AcDbLine
 62
2
  6
CONTINUOUS
 10
2434.7575902779
 20
56.8037731348
 11
2538.2575902779
 21
56.8037731348
  0
LINE
  5
344
100
AcDbEntity
  8
0
100
AcDbLine
 62
2
  6
CONTINUOUS
 10
2538.2575902779
 20
74.8506481348
 11
2538.2575902779
 21
56.8037731348
  0
MTEXT
  5
345
100
AcDbEntity
  8
0
100
AcDbMText
 62
2
  6
CONTINUOUS
  7
TEXTSTYLE_2
 71
2
 72
1
 10
2507.2075902779
 20
71.3834596348
 30
0.0
 11
1.0
 21
0.0
 31
0.0
 73
2
 44
0.9
  1
1 OF 1
 40
11.112498
 41
46.7633744833
  0
LINE
  5
346
100
AcDbEntity
  8
0
100
AcDbLine
 62
2
  6
CONTINUOUS
 10
2255.4181379213
 20
74.8090052045
 11
2434.2181379213
 21
74.8090052045
  0
LINE
  5
347
100
AcDbEntity
  8
0
100
AcDbLine
 62
2
  6
CONTINUOUS
 10
2255.4181379213
 20
74.8090052045
 11
2255.4181379213
 21
56.7621302045
  0
LINE
  5
348
100
AcDbEntity
  8
0
100
AcDbLine
 62
2
  6
CONTINUOUS
 10
2255.4181379213
 20
56.7621302045
 11
2434.2181379213
 21
56.7621302045
  0
LINE
  5
349
100
AcDbEntity
  8
0
100
AcDbLine
 62
2
  6
CONTINUOUS
 10
2434.2181379213
 20
74.8090052045
 11
2434.2181379213
 21
56.7621302045
  0
MTEXT
  5
34A
100
AcDbEntity
  8
0
100
AcDbMText
 62
2
  6
CONTINUOUS
  7
TEXTSTYLE_2
 71
2
 72
1
 10
2367.1681379213
 20
69.5955677045
 30
0.0
 11
1.0
 21
0.0
 31
0.0
 73
2
 44
0.9
  1
FG-001423-2D.  
 40
7.62
 41
79.4859479554
  0
LINE
  5
34B
100
AcDbEntity
  8
0
100
AcDbLine
 62
2
  6
CONTINUOUS
 10
1776.3492208192
 20
284.2798121721
 11
1976.5992208192
 21
284.2798121721
  0
LINE
  5
34C
100
AcDbEntity
  8
0
100
AcDbLine
 62
2
  6
CONTINUOUS
 10
1776.3492208192
 20
284.2798121721
 11
1776.3492208192
 21
166.9048121721
  0
LINE
  5
34D
100
AcDbEntity
  8
0
100
AcDbLine
 62
2
  6
CONTINUOUS
 10
1776.3492208192
 20
166.9048121721
 11
1976.5992208192
 21
166.9048121721
  0
LINE
  5
34E
100
AcDbEntity
  8
0
100
AcDbLine
 62
2
  6
CONTINUOUS
 10
1976.5992208192
 20
284.2798121721
 11
1976.5992208192
 21
166.9048121721
  0
MTEXT
  5
34F
100
AcDbEntity
  8
0
100
AcDbMText
 62
2
  6
CONTINUOUS
  7
TEXTSTYLE_2
 71
1
 72
1
 10
1796.7492208192
 20
208.1548121721
 30
0.0
 11
1.0
 21
0.0
 31
0.0
 73
2
 44
0.9
  1
.X \fgdt;{\fgdt;`}\fCentury Gothic;{\ftxt.shx;\W0.166667;\H9.525000; } .5 [.02]               \fgdt;{\fgdt;`}\fCentury Gothic;1\fgdt;{\fgdt;~}\P\fCentury Gothic;.XX \fgdt;{\fgdt;`}\fCentury Gothic; .25 [.01]
 40
9.525
 41
154.3769981413
  0
LINE
  5
350
100
AcDbEntity
  8
0
100
AcDbLine
 62
2
  6
CONTINUOUS
 10
1685.5978664877
 20
1625.2794494114
 11
2537.0878664877
 21
1625.2794494114
  0
LINE
  5
351
100
AcDbEntity
  8
0
100
AcDbLine
 62
2
  6
CONTINUOUS
 10
1685.5978664877
 20
1625.2794494114
 11
1685.5978664877
 21
1515.5514494114
  0
LINE
  5
352
100
AcDbEntity
  8
0
100
AcDbLine
 62
2
  6
CONTINUOUS
 10
1685.5978664877
 20
1597.8474494114
 11
2537.0878664877
 21
1597.8474494114
  0
LINE
  5
353
100
AcDbEntity
  8
0
100
AcDbLine
 62
2
  6
CONTINUOUS
 10
1685.5978664877
 20
1570.4154494114
 11
2537.0878664877
 21
1570.4154494114
  0
LINE
  5
354
100
AcDbEntity
  8
0
100
AcDbLine
 62
2
  6
CONTINUOUS
 10
1685.5978664877
 20
1542.9834494114
 11
2537.0878664877
 21
1542.9834494114
  0
LINE
  5
355
100
AcDbEntity
  8
0
100
AcDbLine
 62
2
  6
CONTINUOUS
 10
1685.5978664877
 20
1515.5514494114
 11
2537.0878664877
 21
1515.5514494114
  0
LINE
  5
356
100
AcDbEntity
  8
0
100
AcDbLine
 62
2
  6
CONTINUOUS
 10
1744.8538664877
 20
1597.8474494114
 11
1744.8538664877
 21
1515.5514494114
  0
LINE
  5
357
100
AcDbEntity
  8
0
100
AcDbLine
 62
2
  6
CONTINUOUS
 10
2365.9138664877
 20
1597.8474494114
 11
2365.9138664877
 21
1515.5514494114
  0
LINE
  5
358
100
AcDbEntity
  8
0
100
AcDbLine
 62
2
  6
CONTINUOUS
 10
2420.7778664877
 20
1597.8474494114
 11
2420.7778664877
 21
1515.5514494114
  0
LINE
  5
359
100
AcDbEntity
  8
0
100
AcDbLine
 62
2
  6
CONTINUOUS
 10
2537.0878664877
 20
1625.2794494114
 11
2537.0878664877
 21
1515.5514494114
  0
MTEXT
  5
35A
100
AcDbEntity
  8
0
100
AcDbMText
 62
2
  6
CONTINUOUS
  7
TEXTSTYLE_2
 71
2
 72
1
 10
2111.3428664877
 20
1618.4214494114
 30
0.0
 11
1.0
 21
0.0
 31
0.0
 73
2
 44
0.9
  1
REVISION
 40
13.716
 41
84.2335762082
  0
MTEXT
  5
35B
100
AcDbEntity
  8
0
100
AcDbMText
 62
2
  6
CONTINUOUS
  7
TEXTSTYLE_2
 71
2
 72
1
 10
1715.2258664877
 20
1590.9894494114
 30
0.0
 11
1.0
 21
0.0
 31
0.0
 73
2
 44
0.9
  1
REV
 40
13.716
 41
35.2842825279
  0
MTEXT
  5
35C
100
AcDbEntity
  8
0
100
AcDbMText
 62
2
  6
CONTINUOUS
  7
TEXTSTYLE_2
 71
1
 72
1
 10
1750.3402664877
 20
1590.9894494114
 30
0.0
 11
1.0
 21
0.0
 31
0.0
 73
2
 44
0.9
  1
                                                  DESCRIPTION
 40
13.716
 41
385.2207434944
  0
MTEXT
  5
35D
100
AcDbEntity
  8
0
100
AcDbMText
 62
2
  6
CONTINUOUS
  7
TEXTSTYLE_2
 71
2
 72
1
 10
2393.3458664877
 20
1590.9894494114
 30
0.0
 11
1.0
 21
0.0
 31
0.0
 73
2
 44
0.9
  1
BY
 40
13.716
 41
22.2821263941
  0
MTEXT
  5
35E
100
AcDbEntity
  8
0
100
AcDbMText
 62
2
  6
CONTINUOUS
  7
TEXTSTYLE_2
 71
2
 72
1
 10
2478.9328664877
 20
1590.9894494114
 30
0.0
 11
1.0
 21
0.0
 31
0.0
 73
2
 44
0.9
  1
DATE
 40
13.716
 41
46.7567732342
  0
MTEXT
  5
35F
100
AcDbEntity
  8
0
100
AcDbMText
 62
2
  6
CONTINUOUS
  7
STANDARD
 71
2
 72
1
 10
1715.2258664877
 20
1563.5574494114
 30
0.0
 11
1.0
 21
0.0
 31
0.0
 73
2
 44
0.9
  1
A
 40
13.716
 41
14.1239107807
  0
MTEXT
  5
360
100
AcDbEntity
  8
0
100
AcDbMText
 62
2
  6
CONTINUOUS
  7
STANDARD
 71
1
 72
1
 10
1750.3402664877
 20
1563.5574494114
 30
0.0
 11
1.0
 21
0.0
 31
0.0
 73
2
 44
0.9
  1
RELEASE TO SALES AND MARKETING
 40
13.716
 41
323.7791821561
  0
MTEXT
  5
361
100
AcDbEntity
  8
0
100
AcDbMText
 62
2
  6
CONTINUOUS
  7
STANDARD
 71
2
 72
1
 10
2393.3458664877
 20
1563.5574494114
 30
0.0
 11
1.0
 21
0.0
 31
0.0
 73
2
 44
0.9
  1
JK
 40
13.716
 41
20.5485055762
  0
MTEXT
  5
362
100
AcDbEntity
  8
0
100
AcDbMText
 62
2
  6
CONTINUOUS
  7
STANDARD
 71
2
 72
1
 10
2478.9328664877
 20
1563.5574494114
 30
0.0
 11
1.0
 21
0.0
 31
0.0
 73
2
 44
0.9
  1
11-MAY-16
 40
13.716
 41
98.2045204461
  0
MTEXT
  5
363
100
AcDbEntity
  8
0
100
AcDbMText
 62
2
  6
CONTINUOUS
  7
STANDARD
 71
2
 72
1
 10
1715.2258664877
 20
1536.1254494114
 30
0.0
 11
1.0
 21
0.0
 31
0.0
 73
2
 44
0.9
  1
B
 40
13.716
 41
10.9626022305
  0
MTEXT
  5
364
100
AcDbEntity
  8
0
100
AcDbMText
 62
2
  6
CONTINUOUS
  7
STANDARD
 71
1
 72
1
 10
1750.3402664877
 20
1536.1254494114
 30
0.0
 11
1.0
 21
0.0
 31
0.0
 73
2
 44
0.9
  1
UPDATED DRAWING FORMAT, SIMPLIFY PART FOR CUSTOMER USE
 40
13.716
 41
591.623598513
  0
MTEXT
  5
365
100
AcDbEntity
  8
0
100
AcDbMText
 62
2
  6
CONTINUOUS
  7
STANDARD
 71
2
 72
1
 10
2393.3458664877
 20
1536.1254494114
 30
0.0
 11
1.0
 21
0.0
 31
0.0
 73
2
 44
0.9
  1
SS
 40
13.716
 41
19.0698289963
  0
MTEXT
  5
366
100
AcDbEntity
  8
0
100
AcDbMText
 62
2
  6
CONTINUOUS
  7
STANDARD
 71
2
 72
1
 10
2478.9328664877
 20
1536.1254494114
 30
0.0
 11
1.0
 21
0.0
 31
0.0
 73
2
 44
0.9
  1
12-MAR-19
 40
13.716
 41
98.5104535316
  0
TEXT
  5
367
100
AcDbEntity
  8
0
100
AcDbText
 62
2
  6
CONTINUOUS
 10
67.7127540555
 20
1545.1041240094
  7
STANDARD
 40
13.716
  1
NOTE: UNLESS OTHERWISE SPECIFIED 
 41
1.0
 72
0
100
AcDbText
  0
TEXT
  5
368
100
AcDbEntity
  8
0
100
AcDbText
 62
2
  6
CONTINUOUS
 10
67.7127540555
 20
1524.5301240094
  7
STANDARD
 40
13.716
  1
 1. NET WEIGHT APPROX. 5.2 LBS (2.35 KG) 
 41
1.0
 72
0
100
AcDbText
  0
TEXT
  5
369
100
AcDbEntity
  8
0
100
AcDbText
 62
2
  6
CONTINUOUS
 10
67.7127540555
 20
1500.5271240094
  7
STANDARD
 40
13.716
  1
 
 41
1.0
 72
0
100
AcDbText
  0
TEXT
  5
36A
100
AcDbEntity
  8
0
100
AcDbText
 62
2
  6
CONTINUOUS
 10
79.8735942042
 20
1500.5271240094
  7
STANDARD
 40
13.716
  1
2
 41
1.0
 72
0
100
AcDbText
  0
TEXT
  5
36B
100
AcDbEntity
  8
0
100
AcDbText
 62
2
  6
CONTINUOUS
 10
97.3372745016
 20
1500.5271240094
  7
STANDARD
 40
13.716
  1
 SUSPENSION POINT (WALL MOUNT).
 41
1.0
 72
0
100
AcDbText
  0
TEXT
  5
36C
100
AcDbEntity
  8
0
100
AcDbText
 62
2
  6
CONTINUOUS
 10
67.7127540555
 20
1473.0951240094
  7
STANDARD
 40
13.716
  1
 
 41
1.0
 72
0
100
AcDbText
  0
TEXT
  5
36D
100
AcDbEntity
  8
0
100
AcDbText
 62
2
  6
CONTINUOUS
 10
79.8735942042
 20
1473.0951240094
  7
STANDARD
 40
13.716
  1
3
 41
1.0
 72
0
100
AcDbText
  0
TEXT
  5
36E
100
AcDbEntity
  8
0
100
AcDbText
 62
2
  6
CONTINUOUS
 10
97.3372745016
 20
1473.0951240094
  7
STANDARD
 40
13.716
  1
 SUSPENSION POINT (CEILING MOUNT). 
 41
1.0
 72
0
100
AcDbText
  0
TEXT
  5
36F
100
AcDbEntity
  8
0
100
AcDbText
 62
2
  6
CONTINUOUS
 10
67.7127540555
 20
1449.0921240094
  7
STANDARD
 40
13.716
  1
  4. PARTS ARE SYMMETRICAL ABOVE CENTER LINES UNLESS OTHERWISE NOTED.
 41
1.0
 72
0
100
AcDbText
  0
MTEXT
  5
370
100
AcDbEntity
  8
0
100
AcDbMText
 62
2
  6
CONTINUOUS
  7
TEXTSTYLE_1
 71
1
 72
1
 10
660.1663257235
 20
429.3578888837
 30
0.0
 11
1.0
 21
0.0
 31
0.0
 73
2
 44
0.9
  1
{\fgdt;q}
 40
13.716
 41
21.717
  0
TEXT
  5
371
100
AcDbEntity
  8
0
100
AcDbText
 62
2
  6
CONTINUOUS
 10
1457.2471625157
 20
406.7857352835
  7
STANDARD
 40
13.716
  1
2
 41
1.0
 72
0
100
AcDbText
  0
TEXT
  5
372
100
AcDbEntity
  8
0
100
AcDbText
 62
2
  6
CONTINUOUS
 10
1458.815446156
 20
345.1965472456
  7
STANDARD
 40
13.716
  1
3
 41
1.0
 72
0
100
AcDbText
  0
LWPOLYLINE
  5
373
100
AcDbEntity
  8
0
100
AcDbPolyline
 62
7
  6
CONTINUOUS
 90
2
 70
0
 43
1.4999999933
 10
44.3510728346
 20
846.6186834482
 10
44.3510728346
 20
835.62016082
  0
LWPOLYLINE
  5
374
100
AcDbEntity
  8
0
100
AcDbPolyline
 62
7
  6
CONTINUOUS
 90
2
 70
0
 43
1.4999999933
 10
53.8760728346
 20
1625.9794221344
 10
53.8760728346
 20
56.2594221344
  0
LINE
  5
375
100
AcDbEntity
  8
0
100
AcDbLine
 62
2
  6
CONTINUOUS
 10
73.0155942042
 20
1521.1011240094
 11
73.0155942042
 21
1466.2371240094
  0
LWPOLYLINE
  5
376
100
AcDbEntity
  8
0
100
AcDbPolyline
 62
2
  6
CONTINUOUS
 90
3
 70
0
 10
97.3372745016
 20
1466.2371240094
 10
97.3372745016
 20
1521.1011240094
 10
73.0155942042
 20
1521.1011240094
  0
LWPOLYLINE
  5
377
100
AcDbEntity
  8
0
100
AcDbPolyline
 62
7
  6
CONTINUOUS
 90
2
 70
0
 43
1.4999999933
 10
364.3910728346
 20
56.2594221344
 10
364.3910728346
 20
37.2094221344
  0
LWPOLYLINE
  5
378
100
AcDbEntity
  8
0
100
AcDbPolyline
 62
7
  6
CONTINUOUS
 90
2
 70
0
 43
1.4999999933
 10
364.3910728346
 20
1625.9794221344
 10
364.3910728346
 20
1645.0294221344
  0
LWPOLYLINE
  5
379
100
AcDbEntity
  8
0
100
AcDbPolyline
 62
7
  6
CONTINUOUS
 90
2
 70
0
 43
1.4999999933
 10
450.1160728346
 20
1625.9794221344
 10
450.1160728346
 20
1584.0694221344
  0
LWPOLYLINE
  5
37A
100
AcDbEntity
  8
0
100
AcDbPolyline
 62
7
  6
CONTINUOUS
 90
2
 70
0
 43
1.4999999933
 10
1947.3349178228
 20
74.3035879982
 10
1970.1949178234
 20
78.1135879982
  0
LWPOLYLINE
  5
37B
100
AcDbEntity
  8
0
100
AcDbPolyline
 62
7
  6
CONTINUOUS
 90
2
 70
0
 43
1.4999999933
 10
1301.4353341484
 20
46.7344221344
 10
1290.4368115208
 20
46.7344221344
  0
LWPOLYLINE
  5
37C
100
AcDbEntity
  8
0
100
AcDbPolyline
 62
7
  6
CONTINUOUS
 90
2
 70
0
 43
1.4999999933
 10
2537.9960728346
 20
56.2594221344
 10
53.8760728346
 20
56.2594221344
  0
LWPOLYLINE
  5
37D
100
AcDbEntity
  8
0
100
AcDbPolyline
 62
7
  6
CONTINUOUS
 90
2
 70
0
 43
0.5999999819
 10
1922.2193978228
 20
70.4935879982
 10
1941.9704378234
 20
70.4935879982
  0
LWPOLYLINE
  5
37E
100
AcDbEntity
  8
0
100
AcDbPolyline
 62
7
  6
CONTINUOUS
 90
2
 70
0
 43
0.5999999819
 10
1944.497598872
 20
70.4935879982
 10
1972.5266888684
 20
70.4935879982
  0
LWPOLYLINE
  5
37F
100
AcDbEntity
  8
0
100
AcDbPolyline
 62
7
  6
CONTINUOUS
 90
2
 70
0
 43
1.4999999933
 10
2184.6793802234
 20
75.3094221344
 10
2537.9960728346
 20
75.3094221344
  0
LWPOLYLINE
  5
380
100
AcDbEntity
  8
0
100
AcDbPolyline
 62
7
  6
CONTINUOUS
 90
2
 70
0
 43
1.4999999933
 10
1775.9960728346
 20
83.6914221344
 10
1976.705145926
 20
83.6914221344
  0
LWPOLYLINE
  5
381
100
AcDbEntity
  8
0
100
AcDbPolyline
 62
7
  6
CONTINUOUS
 90
2
 70
0
 43
1.4999999933
 10
1976.4883645466
 20
96.7594221344
 10
2184.462598844
 20
96.7594221344
  0
LWPOLYLINE
  5
382
100
AcDbEntity
  8
0
100
AcDbPolyline
 62
7
  6
CONTINUOUS
 90
2
 70
0
 43
1.4999999933
 10
1775.9960728346
 20
111.1234221344
 10
1976.705145926
 20
111.1234221344
  0
LWPOLYLINE
  5
383
100
AcDbEntity
  8
0
100
AcDbPolyline
 62
7
  6
CONTINUOUS
 90
2
 70
0
 43
1.4999999933
 10
2184.6793802234
 20
114.0094221344
 10
2537.9960728346
 20
114.0094221344
  0
LWPOLYLINE
  5
384
100
AcDbEntity
  8
0
100
AcDbPolyline
 62
7
  6
CONTINUOUS
 90
2
 70
0
 43
1.4999999933
 10
44.3510728346
 20
835.62016082
 10
53.8760728346
 20
841.1194221344
  0
LWPOLYLINE
  5
385
100
AcDbEntity
  8
0
100
AcDbPolyline
 62
7
  6
CONTINUOUS
 90
2
 70
0
 43
1.4999999933
 10
1976.705145926
 20
137.2594221344
 10
2184.6793802234
 20
137.2594221344
  0
LWPOLYLINE
  5
386
100
AcDbEntity
  8
0
100
AcDbPolyline
 62
7
  6
CONTINUOUS
 90
2
 70
0
 43
1.4999999933
 10
1775.9960728346
 20
138.5554221344
 10
1976.705145926
 20
138.5554221344
  0
LWPOLYLINE
  5
387
100
AcDbEntity
  8
0
100
AcDbPolyline
 62
7
  6
CONTINUOUS
 90
2
 70
0
 43
1.4999999933
 10
1976.705145926
 20
166.3901256176
 10
1775.9960728346
 20
166.3901256176
  0
LWPOLYLINE
  5
388
100
AcDbEntity
  8
0
100
AcDbPolyline
 62
7
  6
CONTINUOUS
 90
2
 70
0
 43
1.4999999933
 10
1976.705145926
 20
177.7594221344
 10
2184.6793802234
 20
177.7594221344
  0
LWPOLYLINE
  5
389
100
AcDbEntity
  8
0
100
AcDbPolyline
 62
7
  6
CONTINUOUS
 90
2
 70
0
 43
1.4999999933
 10
1976.705145926
 20
216.6082053386
 10
2184.6793802234
 20
216.6082053386
  0
LWPOLYLINE
  5
38A
100
AcDbEntity
  8
0
100
AcDbPolyline
 62
7
  6
CONTINUOUS
 90
2
 70
0
 43
1.4999999933
 10
1947.3349178228
 20
66.6835879982
 10
1970.1949178234
 20
62.8735879982
  0
LWPOLYLINE
  5
38B
100
AcDbEntity
  8
0
100
AcDbPolyline
 62
7
  6
CONTINUOUS
 90
2
 70
0
 43
1.4999999933
 10
674.9060728346
 20
56.2594221344
 10
674.9060728346
 20
37.2094221344
  0
LWPOLYLINE
  5
38C
100
AcDbEntity
  8
0
100
AcDbPolyline
 62
7
  6
CONTINUOUS
 90
2
 70
0
 43
1.4999999933
 10
674.9060728346
 20
1625.9794221344
 10
674.9060728346
 20
1645.0294221344
  0
LWPOLYLINE
  5
38D
100
AcDbEntity
  8
0
100
AcDbPolyline
 62
7
  6
CONTINUOUS
 90
2
 70
0
 43
1.4999999933
 10
2184.6793802234
 20
227.7094221344
 10
2537.9960728346
 20
227.7094221344
  0
LWPOLYLINE
  5
38E
100
AcDbEntity
  8
0
100
AcDbPolyline
 62
7
  6
CONTINUOUS
 90
2
 70
0
 43
1.4999999933
 10
1976.705145926
 20
232.6102053386
 10
2184.6793802234
 20
232.6102053386
  0
LINE
  5
38F
100
AcDbEntity
  8
0
100
AcDbLine
 62
7
  6
CONTINUOUS
 10
2221.7562939324
 20
239.9587897241
 11
2229.8861699441
 21
239.9587897241
  0
LINE
  5
390
100
AcDbEntity
  8
0
100
AcDbLine
 62
7
  6
CONTINUOUS
 10
2200.1414392303
 20
243.1041981362
 11
2221.23417801
 21
243.1041981362
  0
LINE
  5
391
100
AcDbEntity
  8
0
100
AcDbLine
 62
7
  6
CONTINUOUS
 10
2230.4082858665
 20
243.1041981362
 11
2234.5559077495
 21
243.1041981362
  0
LINE
  5
392
100
AcDbEntity
  8
0
100
AcDbLine
 62
7
  6
CONTINUOUS
 10
2245.9798307973
 20
243.1041981252
 11
2283.7105406402
 21
243.1041981252
  0
LINE
  5
393
100
AcDbEntity
  8
0
100
AcDbLine
 62
7
  6
CONTINUOUS
 10
2276.3723075882
 20
248.3911732788
 11
2245.9798307973
 21
248.3911732788
  0
LINE
  5
394
100
AcDbEntity
  8
0
100
AcDbLine
 62
7
  6
CONTINUOUS
 10
2337.3575171167
 20
248.508771642
 11
2306.076484565
 21
248.508771642
  0
LINE
  5
395
100
AcDbEntity
  8
0
100
AcDbLine
 62
7
  6
CONTINUOUS
 10
2205.5236424983
 20
248.6975583569
 11
2221.1154309281
 21
248.6975583569
  0
LINE
  5
396
100
AcDbEntity
  8
0
100
AcDbLine
 62
7
  6
CONTINUOUS
 10
2230.2481070772
 20
248.6975583842
 11
2232.6460365684
 21
248.6975583842
  0
LINE
  5
397
100
AcDbEntity
  8
0
100
AcDbLine
 62
7
  6
CONTINUOUS
 10
2221.6375468562
 20
251.8348386617
 11
2229.7259911769
 21
251.8348386617
  0
LINE
  5
398
100
AcDbEntity
  8
0
100
AcDbLine
 62
7
  6
CONTINUOUS
 10
2250.2996252666
 20
253.8780537501
 11
2276.3723075935
 21
253.8780537501
  0
LINE
  5
399
100
AcDbEntity
  8
0
100
AcDbLine
 62
7
  6
CONTINUOUS
 10
2283.7105406402
 20
259.3653580461
 11
2257.9853899212
 21
259.3653580461
  0
LINE
  5
39A
100
AcDbEntity
  8
0
100
AcDbLine
 62
7
  6
CONTINUOUS
 10
2257.9853899159
 20
264.64888971
 11
2288.4191200346
 21
264.64888971
  0
LINE
  5
39B
100
AcDbEntity
  8
0
100
AcDbLine
 62
7
  6
CONTINUOUS
 10
2306.0764845708
 20
264.7030511234
 11
2337.3575171109
 21
264.7030511234
  0
LINE
  5
39C
100
AcDbEntity
  8
0
100
AcDbLine
 62
7
  6
CONTINUOUS
 10
2205.5236425036
 20
264.9489362628
 11
2232.6460365573
 21
264.9489362628
  0
LINE
  5
39D
100
AcDbEntity
  8
0
100
AcDbLine
 62
7
  6
CONTINUOUS
 10
2234.5559077495
 20
270.1022870114
 11
2200.1414392303
 21
270.1022870114
  0
LINE
  5
39E
100
AcDbEntity
  8
0
100
AcDbLine
 62
7
  6
CONTINUOUS
 10
2337.3575171181
 20
270.1339897241
 11
2300.8627159625
 21
270.1339897241
  0
LINE
  5
39F
100
AcDbEntity
  8
0
100
AcDbLine
 62
7
  6
CONTINUOUS
 10
2288.4191200346
 20
270.1339897188
 11
2250.2996252666
 21
270.1339897188
  0
LWPOLYLINE
  5
3A0
100
AcDbEntity
  8
0
100
AcDbPolyline
 62
7
  6
CONTINUOUS
 90
2
 70
0
 43
1.4999999933
 10
1775.9960728346
 20
284.8594221344
 10
2537.9960728346
 20
284.8594221344
  0
LINE
  5
3A1
100
AcDbEntity
  8
0
100
AcDbLine
 62
7
  6
CONTINUOUS
 10
2300.8627159625
 20
243.1042118301
 11
2337.360479994
 21
243.0589055085
  0
LWPOLYLINE
  5
3A2
100
AcDbEntity
  8
0
100
AcDbPolyline
 62
7
  6
CONTINUOUS
 90
2
 70
0
 43
1.4999999933
 10
53.8760728346
 20
841.1194221344
 10
44.3510728346
 20
846.6186834482
  0
LWPOLYLINE
  5
3A3
100
AcDbEntity
  8
0
100
AcDbPolyline
 62
7
  6
CONTINUOUS
 90
2
 70
0
 43
1.4999999933
 10
1295.9360728346
 20
1625.9794221344
 10
1301.4353341484
 20
1635.5044221344
  0
LWPOLYLINE
  5
3A4
100
AcDbEntity
  8
0
100
AcDbPolyline
 62
7
  6
CONTINUOUS
 90
2
 70
0
 43
1.4999999933
 10
53.8760728346
 20
448.6894221344
 10
34.8260728346
 20
448.6894221344
  0
LWPOLYLINE
  5
3A5
100
AcDbEntity
  8
0
100
AcDbPolyline
 62
7
  6
CONTINUOUS
 90
2
 70
0
 43
1.4999999933
 10
2537.9960728346
 20
448.6894221344
 10
2557.0460728346
 20
448.6894221344
  0
LWPOLYLINE
  5
3A6
100
AcDbEntity
  8
0
100
AcDbPolyline
 62
7
  6
CONTINUOUS
 90
2
 70
0
 43
1.4999999933
 10
1295.9360728346
 20
56.2594221344
 10
1301.4353341484
 20
46.7344221344
  0
LWPOLYLINE
  5
3A7
100
AcDbEntity
  8
0
100
AcDbPolyline
 62
7
  6
CONTINUOUS
 90
2
 70
0
 43
1.4999999933
 10
985.4210728346
 20
56.2594221344
 10
985.4210728346
 20
37.2094221344
  0
LWPOLYLINE
  5
3A8
100
AcDbEntity
  8
0
100
AcDbPolyline
 62
7
  6
CONTINUOUS
 90
2
 70
0
 43
1.4999999933
 10
985.4210728346
 20
1625.9794221344
 10
985.4210728346
 20
1645.0294221344
  0
LWPOLYLINE
  5
3A9
100
AcDbEntity
  8
0
100
AcDbPolyline
 62
7
  6
CONTINUOUS
 90
2
 70
0
 43
1.4999999933
 10
1295.9360728346
 20
56.2594221344
 10
1295.9360728346
 20
37.2094221344
  0
LWPOLYLINE
  5
3AA
100
AcDbEntity
  8
0
100
AcDbPolyline
 62
7
  6
CONTINUOUS
 90
2
 70
0
 43
1.4999999933
 10
1295.9360728346
 20
1625.9794221344
 10
1295.9360728346
 20
1645.0294221344
  0
LWPOLYLINE
  5
3AB
100
AcDbEntity
  8
0
100
AcDbPolyline
 62
7
  6
CONTINUOUS
 90
2
 70
0
 43
1.4999999933
 10
53.8760728346
 20
841.1194221344
 10
34.8260728346
 20
841.1194221344
  0
LWPOLYLINE
  5
3AC
100
AcDbEntity
  8
0
100
AcDbPolyline
 62
7
  6
CONTINUOUS
 90
2
 70
0
 43
1.4999999933
 10
2537.9960728346
 20
841.1194221344
 10
2557.0460728346
 20
841.1194221344
  0
LWPOLYLINE
  5
3AD
100
AcDbEntity
  8
0
100
AcDbPolyline
 62
7
  6
CONTINUOUS
 90
2
 70
0
 43
1.4999999933
 10
1606.4510728346
 20
56.2594221344
 10
1606.4510728346
 20
37.2094221344
  0
LWPOLYLINE
  5
3AE
100
AcDbEntity
  8
0
100
AcDbPolyline
 62
7
  6
CONTINUOUS
 90
2
 70
0
 43
1.4999999933
 10
1606.4510728346
 20
1625.9794221344
 10
1606.4510728346
 20
1645.0294221344
  0
LWPOLYLINE
  5
3AF
100
AcDbEntity
  8
0
100
AcDbPolyline
 62
7
  6
CONTINUOUS
 90
2
 70
0
 43
1.4999999933
 10
1295.9360728346
 20
56.2594221344
 10
1290.4368115208
 20
46.7344221344
  0
LWPOLYLINE
  5
3B0
100
AcDbEntity
  8
0
100
AcDbPolyline
 62
7
  6
CONTINUOUS
 90
2
 70
0
 43
1.4999999933
 10
53.8760728346
 20
1233.5494221344
 10
34.8260728346
 20
1233.5494221344
  0
LWPOLYLINE
  5
3B1
100
AcDbEntity
  8
0
100
AcDbPolyline
 62
7
  6
CONTINUOUS
 90
2
 70
0
 43
1.4999999933
 10
2537.9960728346
 20
1233.5494221344
 10
2557.0460728346
 20
1233.5494221344
  0
LWPOLYLINE
  5
3B2
100
AcDbEntity
  8
0
100
AcDbPolyline
 62
7
  6
CONTINUOUS
 90
2
 70
0
 43
1.4999999933
 10
1295.9360728346
 20
1625.9794221344
 10
1290.4368115208
 20
1635.5044221344
  0
LWPOLYLINE
  5
3B3
100
AcDbEntity
  8
0
100
AcDbPolyline
 62
7
  6
CONTINUOUS
 90
2
 70
0
 43
1.4999999933
 10
1775.9960728346
 20
56.2594221344
 10
1775.9960728346
 20
284.8594221344
  0
LWPOLYLINE
  5
3B4
100
AcDbEntity
  8
0
100
AcDbPolyline
 62
7
  6
CONTINUOUS
 90
2
 70
0
 43
1.4999999933
 10
1916.9660728346
 20
37.2094221344
 10
1916.9660728346
 20
83.6914221344
  0
LWPOLYLINE
  5
3B5
100
AcDbEntity
  8
0
100
AcDbPolyline
 62
7
  6
CONTINUOUS
 90
2
 70
0
 43
1.4999999933
 10
1916.9660728346
 20
1625.9794221344
 10
1916.9660728346
 20
1645.0294221344
  0
LWPOLYLINE
  5
3B6
100
AcDbEntity
  8
0
100
AcDbPolyline
 62
7
  6
CONTINUOUS
 90
2
 70
0
 43
0.5999999819
 10
1932.0949178228
 20
60.6180679982
 10
1932.0949178228
 20
80.3691079982
  0
LWPOLYLINE
  5
3B7
100
AcDbEntity
  8
0
100
AcDbPolyline
 62
7
  6
CONTINUOUS
 90
2
 70
0
 43
1.4999999933
 10
2537.9960728346
 20
841.1194221344
 10
2547.5210728346
 20
846.6186834482
  0
LINE
  5
3B8
100
AcDbEntity
  8
0
100
AcDbLine
 62
2
  6
CONTINUOUS
 10
73.0155942042
 20
1466.2371240094
 11
97.3372745016
 21
1466.2371240094
  0
LWPOLYLINE
  5
3B9
100
AcDbEntity
  8
0
100
AcDbPolyline
 62
7
  6
CONTINUOUS
 90
2
 70
0
 43
1.4999999933
 10
2547.5210728346
 20
835.62016082
 10
2537.9960728346
 20
841.1194221344
  0
LWPOLYLINE
  5
3BA
100
AcDbEntity
  8
0
100
AcDbPolyline
 62
7
  6
CONTINUOUS
 90
2
 70
0
 43
1.4999999933
 10
1947.3349178228
 20
74.3035879982
 10
1947.3349178228
 20
66.6835879982
  0
LWPOLYLINE
  5
3BB
100
AcDbEntity
  8
0
100
AcDbPolyline
 62
7
  6
CONTINUOUS
 90
2
 70
0
 43
1.4999999933
 10
1970.1949178234
 20
78.1135879982
 10
1970.1949178234
 20
62.8735879982
  0
LWPOLYLINE
  5
3BC
100
AcDbEntity
  8
0
100
AcDbPolyline
 62
7
  6
CONTINUOUS
 90
2
 70
0
 43
1.4999999933
 10
1976.705145926
 20
284.8594221344
 10
1976.705145926
 20
56.2594221344
  0
LINE
  5
3BD
100
AcDbEntity
  8
0
100
AcDbLine
 62
2
  6
CONTINUOUS
 10
97.3372745016
 20
1493.6691240094
 11
73.0155942042
 21
1493.6691240094
  0
LWPOLYLINE
  5
3BE
100
AcDbEntity
  8
0
100
AcDbPolyline
 62
7
  6
CONTINUOUS
 90
2
 70
0
 43
1.4999999933
 10
53.8760728346
 20
1583.4694221344
 10
450.1160728346
 20
1583.4694221344
  0
LWPOLYLINE
  5
3BF
100
AcDbEntity
  8
0
100
AcDbPolyline
 62
7
  6
CONTINUOUS
 90
2
 70
0
 43
1.4999999933
 10
53.8760728346
 20
1625.3794221344
 10
2537.9960728346
 20
1625.3794221344
  0
LWPOLYLINE
  5
3C0
100
AcDbEntity
  8
0
100
AcDbPolyline
 62
7
  6
CONTINUOUS
 90
2
 70
0
 43
1.4999999933
 10
1301.4353341484
 20
1635.5044221344
 10
1290.4368115208
 20
1635.5044221344
  0
LWPOLYLINE
  5
3C1
100
AcDbEntity
  8
0
100
AcDbPolyline
 62
7
  6
CONTINUOUS
 90
2
 70
0
 43
1.4999999933
 10
2184.6793802234
 20
284.8594221344
 10
2184.6793802234
 20
56.2594221344
  0
LINE
  5
3C2
100
AcDbEntity
  8
0
100
AcDbLine
 62
7
  6
CONTINUOUS
 10
2204.1661410866
 20
250.0550597685
 11
2204.1661410866
 21
263.5914348458
  0
LINE
  5
3C3
100
AcDbEntity
  8
0
100
AcDbLine
 62
7
  6
CONTINUOUS
 10
2293.1950646085
 20
256.6662243938
 11
2293.1974471653
 21
256.4596692357
  0
LWPOLYLINE
  5
3C4
100
AcDbEntity
  8
0
100
AcDbPolyline
 62
7
  6
CONTINUOUS
 90
2
 70
0
 43
1.4999999933
 10
2212.2194137316
 20
113.4094221344
 10
2212.2194137316
 20
75.3094221344
  0
LINE
  5
3C5
100
AcDbEntity
  8
0
100
AcDbLine
 62
7
  6
CONTINUOUS
 10
2221.1154309281
 20
248.6975583569
 11
2221.1154309281
 21
251.312722734
  0
LINE
  5
3C6
100
AcDbEntity
  8
0
100
AcDbLine
 62
7
  6
CONTINUOUS
 10
2221.23417801
 20
243.1041981362
 11
2221.23417801
 21
240.4809056465
  0
LWPOLYLINE
  5
3C7
100
AcDbEntity
  8
0
100
AcDbPolyline
 62
7
  6
CONTINUOUS
 90
2
 70
0
 43
1.4999999933
 10
2227.4810728346
 20
56.2594221344
 10
2227.4810728346
 20
37.2094221344
  0
LWPOLYLINE
  5
3C8
100
AcDbEntity
  8
0
100
AcDbPolyline
 62
7
  6
CONTINUOUS
 90
2
 70
0
 43
1.4999999933
 10
2227.4810728346
 20
1625.9794221344
 10
2227.4810728346
 20
1645.0294221344
  0
LINE
  5
3C9
100
AcDbEntity
  8
0
100
AcDbLine
 62
7
  6
CONTINUOUS
 10
2230.2481070772
 20
248.6975583842
 11
2230.2481070772
 21
251.3127227503
  0
LINE
  5
3CA
100
AcDbEntity
  8
0
100
AcDbLine
 62
7
  6
CONTINUOUS
 10
2230.4082858665
 20
240.4809056465
 11
2230.4082858665
 21
243.1041981362
  0
LINE
  5
3CB
100
AcDbEntity
  8
0
100
AcDbLine
 62
7
  6
CONTINUOUS
 10
2234.0035379743
 20
250.0550597901
 11
2234.0035379743
 21
263.5914348679
  0
LINE
  5
3CC
100
AcDbEntity
  8
0
100
AcDbLine
 62
7
  6
CONTINUOUS
 10
2240.9552406828
 20
248.1559756557
 11
2240.9552406828
 21
265.0505094809
  0
LINE
  5
3CD
100
AcDbEntity
  8
0
100
AcDbLine
 62
7
  6
CONTINUOUS
 10
2244.6223293861
 20
247.0336718671
 11
2244.6223293861
 21
244.4616995364
  0
LWPOLYLINE
  5
3CE
100
AcDbEntity
  8
0
100
AcDbPolyline
 62
7
  6
CONTINUOUS
 90
2
 70
0
 43
1.4999999933
 10
2255.7415500212
 20
75.3094221344
 10
2255.7415500212
 20
56.2594221344
  0
LINE
  5
3CF
100
AcDbEntity
  8
0
100
AcDbLine
 62
7
  6
CONTINUOUS
 10
2256.62788851
 20
260.7228594573
 11
2256.62788851
 21
263.2913883041
  0
LINE
  5
3D0
100
AcDbEntity
  8
0
100
AcDbLine
 62
7
  6
CONTINUOUS
 10
2277.7298089941
 20
252.5205523389
 11
2277.7298089941
 21
249.7486746847
  0
LWPOLYLINE
  5
3D1
100
AcDbEntity
  8
0
100
AcDbPolyline
 62
7
  6
CONTINUOUS
 90
2
 70
0
 43
1.4999999933
 10
2284.6094137316
 20
113.4094221344
 10
2284.6094137316
 20
75.3094221344
  0
LINE
  5
3D2
100
AcDbEntity
  8
0
100
AcDbLine
 62
7
  6
CONTINUOUS
 10
2289.7766214458
 20
266.0063911217
 11
2289.7766214458
 21
268.7764882961
  0
LINE
  5
3D3
100
AcDbEntity
  8
0
100
AcDbLine
 62
7
  6
CONTINUOUS
 10
2304.7189831538
 20
249.8662730532
 11
2304.7189831538
 21
263.3455497065
  0
LINE
  5
3D4
100
AcDbEntity
  8
0
100
AcDbLine
 62
7
  6
CONTINUOUS
 10
2338.7150185226
 20
244.4164036793
 11
2338.7150185226
 21
247.1512702361
  0
LINE
  5
3D5
100
AcDbEntity
  8
0
100
AcDbLine
 62
7
  6
CONTINUOUS
 10
2338.7150185226
 20
266.0605525351
 11
2338.7150185226
 21
268.7764883311
  0
LWPOLYLINE
  5
3D6
100
AcDbEntity
  8
0
100
AcDbPolyline
 62
7
  6
CONTINUOUS
 90
2
 70
0
 43
1.4999999933
 10
2434.1581508102
 20
75.3094221344
 10
2434.1581508102
 20
56.2594221344
  0
LWPOLYLINE
  5
3D7
100
AcDbEntity
  8
0
100
AcDbPolyline
 62
7
  6
CONTINUOUS
 90
2
 70
0
 43
1.4999999933
 10
2474.7096158168
 20
113.4094221344
 10
2474.7096158168
 20
75.3094221344
  0
LWPOLYLINE
  5
3D8
100
AcDbEntity
  8
0
100
AcDbPolyline
 62
7
  6
CONTINUOUS
 90
2
 70
0
 43
1.4999999933
 10
2537.9960728346
 20
56.2594221344
 10
2537.9960728346
 20
1625.9794221344
  0
LWPOLYLINE
  5
3D9
100
AcDbEntity
  8
0
100
AcDbPolyline
 62
7
  6
CONTINUOUS
 90
2
 70
0
 43
1.4999999933
 10
2547.5210728346
 20
846.6186834482
 10
2547.5210728346
 20
835.62016082
  0
LINE
  5
3DA
100
AcDbEntity
  8
0
100
AcDbLine
 62
3
  6
CONTINUOUS
 10
1764.7641711737
 20
1238.8634220942
 11
1764.7641711737
 21
1289.8877752401
  0
LINE
  5
3DB
100
AcDbEntity
  8
0
100
AcDbLine
 62
7
  6
CONTINUOUS
 10
1766.5319381267
 20
1237.842534094
 11
1766.5319381267
 21
1288.86688724
  0
LINE
  5
3DC
100
AcDbEntity
  8
4_ALL_POINTS
100
AcDbLine
 62
3
  6
CONTINUOUS
 10
1764.7641711737
 20
1289.8877752401
 11
1771.5641367819
 21
1301.6656609612
  0
LINE
  5
3DD
100
AcDbEntity
  8
4_ALL_POINTS
100
AcDbLine
 62
7
  6
CONTINUOUS
 10
1773.3319037349
 20
1300.6447729611
 11
1766.5319381267
 21
1288.86688724
  0
LINE
  5
3DE
100
AcDbEntity
  8
0
100
AcDbLine
 62
3
  6
CONTINUOUS
 10
1969.4093589305
 20
1433.7890292578
 11
1961.6311843374
 21
1429.2971220572
  0
LINE
  5
3DF
100
AcDbEntity
  8
0
100
AcDbLine
 62
3
  6
CONTINUOUS
 10
1964.4575286767
 20
1425.6239299428
 11
1845.6656722228
 21
1357.0214591451
  0
LINE
  5
3E0
100
AcDbEntity
  8
0
100
AcDbLine
 62
7
  6
CONTINUOUS
 10
1966.2252956297
 20
1424.6030419426
 11
1847.4334391758
 21
1356.0005711449
  0
LINE
  5
3E1
100
AcDbEntity
  8
0
100
AcDbLine
 62
9
  6
CONTINUOUS
 10
1845.6656722228
 20
1354.1629727447
 11
1847.4334391758
 21
1355.1838607448
  0
LINE
  5
3E2
100
AcDbEntity
  8
0
100
AcDbLine
 62
3
  6
CONTINUOUS
 10
1844.640545957
 20
1355.5922159449
 11
1844.640545957
 21
1348.2623432265
  0
LINE
  5
3E3
100
AcDbEntity
  8
0
100
AcDbLine
 62
9
  6
CONTINUOUS
 10
1845.6656722228
 20
1348.854355144
 11
1845.6656722228
 21
1354.1629727447
  0
LINE
  5
3E4
100
AcDbEntity
  8
0
100
AcDbLine
 62
9
  6
CONTINUOUS
 10
1847.4334391758
 20
1355.1838607448
 11
1847.4334391758
 21
1356.0005711449
  0
LINE
  5
3E5
100
AcDbEntity
  8
0
100
AcDbLine
 62
9
  6
CONTINUOUS
 10
1849.5547595194
 20
1351.9170191444
 11
1849.5547595194
 21
1351.1003087443
  0
LINE
  5
3E6
100
AcDbEntity
  8
0
100
AcDbLine
 62
9
  6
CONTINUOUS
 10
1851.3225264723
 20
1350.0794207441
 11
1851.3225264723
 21
1274.5633780881
  0
LINE
  5
3E7
100
AcDbEntity
  8
0
100
AcDbLine
 62
7
  6
CONTINUOUS
 10
1852.3476527382
 20
1275.9926212883
 11
1852.3476527382
 21
1351.5086639443
  0
LINE
  5
3E8
100
AcDbEntity
  8
0
100
AcDbLine
 62
9
  6
CONTINUOUS
 10
1851.3225264723
 20
1352.9379071445
 11
1849.5547595194
 21
1351.9170191444
  0
LINE
  5
3E9
100
AcDbEntity
  8
4_ALL_POINTS
100
AcDbLine
 62
3
  6
CONTINUOUS
 10
1777.5084197285
 20
1309.49344217
 11
1849.5547595194
 21
1351.1003087443
  0
LINE
  5
3EA
100
AcDbEntity
  8
4_ALL_POINTS
100
AcDbLine
 62
7
  6
CONTINUOUS
 10
1779.2761866815
 20
1308.4725541699
 11
1851.3225264723
 21
1350.0794207441
  0
LINE
  5
3EB
100
AcDbEntity
  8
4_ALL_POINTS
100
AcDbLine
 62
9
  6
CONTINUOUS
 10
2002.7494436634
 20
1393.2207515538
 11
2000.9816767105
 21
1392.1998635536
  0
LINE
  5
3EC
100
AcDbEntity
  8
4_ALL_POINTS
100
AcDbLine
 62
9
  6
CONTINUOUS
 10
2020.7099559056
 20
1382.8485294724
 11
2018.9421889526
 21
1381.8276414722
  0
LINE
  5
3ED
100
AcDbEntity
  8
0
100
AcDbLine
 62
7
  6
CONTINUOUS
 10
1852.3476527382
 20
1283.3224940067
 11
1969.7629123211
 21
1351.1299780985
  0
LINE
  5
3EE
100
AcDbEntity
  8
0
100
AcDbLine
 62
7
  6
CONTINUOUS
 10
1972.9448928364
 20
1348.068917847
 11
1971.1771258835
 21
1347.0480298469
  0
LINE
  5
3EF
100
AcDbEntity
  8
0
100
AcDbLine
 62
7
  6
CONTINUOUS
 10
1969.4093589305
 20
1343.9861677209
 11
1961.6311843374
 21
1339.4942605203
  0
LINE
  5
3F0
100
AcDbEntity
  8
0
100
AcDbLine
 62
7
  6
CONTINUOUS
 10
1851.3225264723
 20
1274.5633780881
 11
1777.1385398445
 21
1231.7220173398
  0
LINE
  5
3F1
100
AcDbEntity
  8
4_ALL_POINTS
100
AcDbLine
 62
9
  6
CONTINUOUS
 10
2002.7494436634
 20
1345.2905151826
 11
2000.9816767105
 21
1344.2696271824
  0
LINE
  5
3F2
100
AcDbEntity
  8
0
100
AcDbLine
 62
3
  6
CONTINUOUS
 10
2120.5095927887
 20
1033.4199209461
 11
2131.1161945065
 21
1027.2994041919
  0
LINE
  5
3F3
100
AcDbEntity
  8
0
100
AcDbLine
 62
7
  6
CONTINUOUS
 10
2120.5095927887
 20
1033.4199209461
 11
2118.7418258357
 21
1034.4408089463
  0
LINE
  5
3F4
100
AcDbEntity
  8
0
100
AcDbLine
 62
7
  6
CONTINUOUS
 10
1764.7641711737
 20
1238.8634220942
 11
1777.1385398445
 21
1231.7220173398
  0
LINE
  5
3F5
100
AcDbEntity
  8
6_ALL_SURFS
100
AcDbLine
 62
7
  6
CONTINUOUS
 10
1785.2549152888
 20
1252.5237098491
 11
1787.0226822418
 21
1251.502821849
  0
LINE
  5
3F6
100
AcDbEntity
  8
4_ALL_POINTS
100
AcDbLine
 62
7
  6
CONTINUOUS
 10
1783.4888621576
 20
1292.5377892028
 11
1773.3319037349
 21
1300.6447729611
  0
LINE
  5
3F7
100
AcDbEntity
  8
4_ALL_POINTS
100
AcDbLine
 62
7
  6
CONTINUOUS
 10
1785.2566291106
 20
1291.5169012027
 11
1798.5698032832
 21
1280.8907193974
  0
LINE
  5
3F8
100
AcDbEntity
  8
4_ALL_POINTS
100
AcDbLine
 62
9
  6
CONTINUOUS
 10
2020.7099559056
 20
1334.9182931012
 11
2018.9421889526
 21
1333.897405101
  0
LINE
  5
3F9
100
AcDbEntity
  8
0
100
AcDbLine
 62
7
  6
CONTINUOUS
 10
2120.5095927887
 20
1084.4442740921
 11
2118.7418258357
 21
1085.4651620922
  0
LINE
  5
3FA
100
AcDbEntity
  8
0
100
AcDbLine
 62
7
  6
CONTINUOUS
 10
1764.7641711737
 20
1289.8877752401
 11
1766.5319381267
 21
1288.86688724
  0
LINE
  5
3FB
100
AcDbEntity
  8
4_ALL_POINTS
100
AcDbLine
 62
7
  6
CONTINUOUS
 10
1798.5698032832
 20
1280.8907193974
 11
1798.776495181
 21
1280.7522912548
  0
LINE
  5
3FC
100
AcDbEntity
  8
4_ALL_POINTS
100
AcDbLine
 62
3
  6
CONTINUOUS
 10
1777.5084197285
 20
1309.49344217
 11
1800.3964249768
 21
1291.2249134348
  0
LINE
  5
3FD
100
AcDbEntity
  8
4_ALL_POINTS
100
AcDbLine
 62
7
  6
CONTINUOUS
 10
1779.2761866815
 20
1308.4725541699
 11
1788.6073825491
 21
1301.0246696561
  0
LINE
  5
3FE
100
AcDbEntity
  8
4_ALL_POINTS
100
AcDbLine
 62
3
  6
CONTINUOUS
 10
1788.6073825491
 20
1301.0246696561
 11
1802.1641919298
 21
1290.2040254347
  0
LINE
  5
3FF
100
AcDbEntity
  8
4_ALL_POINTS
100
AcDbLine
 62
7
  6
CONTINUOUS
 10
1790.375149502
 20
1300.0037816559
 11
1803.9319588827
 21
1289.1831374346
  0
LINE
  5
400
100
AcDbEntity
  8
0
100
AcDbLine
 62
7
  6
CONTINUOUS
 10
1961.6311843374
 20
1429.2971220572
 11
1961.6311843374
 21
1427.2561479313
  0
LINE
  5
401
100
AcDbEntity
  8
0
100
AcDbLine
 62
7
  6
CONTINUOUS
 10
1961.6311843374
 20
1337.4532863944
 11
1961.6311843374
 21
1339.4942605203
  0
LINE
  5
402
100
AcDbEntity
  8
0
100
AcDbLine
 62
9
  6
CONTINUOUS
 10
1969.7629123211
 20
1351.1299780985
 11
1969.7629123211
 21
1422.5600631307
  0
LINE
  5
403
100
AcDbEntity
  8
0
100
AcDbLine
 62
9
  6
CONTINUOUS
 10
1971.1771258835
 20
1351.1299780985
 11
1971.1771258835
 21
1421.7433527306
  0
LINE
  5
404
100
AcDbEntity
  8
4_ALL_POINTS
100
AcDbLine
 62
7
  6
CONTINUOUS
 10
1783.4888621576
 20
1292.5377892028
 11
1785.2566291106
 21
1291.5169012027
  0
LINE
  5
405
100
AcDbEntity
  8
4_ALL_POINTS
100
AcDbLine
 62
7
  6
CONTINUOUS
 10
2127.3095583969
 20
1096.2221598132
 11
2125.5417914439
 21
1097.2430478133
  0
LINE
  5
406
100
AcDbEntity
  8
4_ALL_POINTS
100
AcDbLine
 62
7
  6
CONTINUOUS
 10
1771.5641367819
 20
1301.6656609612
 11
1773.3319037349
 21
1300.6447729611
  0
LINE
  5
407
100
AcDbEntity
  8
4_ALL_POINTS
100
AcDbLine
 62
9
  6
CONTINUOUS
 10
2156.1418465918
 20
1085.7814122868
 11
2152.6063126858
 21
1087.8231882871
  0
LINE
  5
408
100
AcDbEntity
  8
4_ALL_POINTS
100
AcDbLine
 62
9
  6
CONTINUOUS
 10
1800.3964249768
 20
1291.2249134348
 11
1803.9319588827
 21
1289.1831374346
  0
LINE
  5
409
100
AcDbEntity
  8
4_ALL_POINTS
100
AcDbLine
 62
7
  6
CONTINUOUS
 10
2140.8172702581
 20
1097.6229445083
 11
2139.0495033051
 21
1098.6438325084
  0
LINE
  5
40A
100
AcDbEntity
  8
4_ALL_POINTS
100
AcDbLine
 62
7
  6
CONTINUOUS
 10
1788.6073825491
 20
1301.0246696561
 11
1790.375149502
 21
1300.0037816559
  0
LINE
  5
40B
100
AcDbEntity
  8
4_ALL_POINTS
100
AcDbLine
 62
7
  6
CONTINUOUS
 10
2133.2538413435
 20
1104.0499410219
 11
2131.4860743905
 21
1105.0708290221
  0
LINE
  5
40C
100
AcDbEntity
  8
4_ALL_POINTS
100
AcDbLine
 62
7
  6
CONTINUOUS
 10
1777.5084197285
 20
1309.49344217
 11
1779.2761866815
 21
1308.4725541699
  0
LINE
  5
40D
100
AcDbEntity
  8
4_ALL_POINTS
100
AcDbLine
 62
3
  6
CONTINUOUS
 10
2150.98638289
 20
1077.3505661071
 11
2150.7796909922
 21
1077.4889942496
  0
LINE
  5
40E
100
AcDbEntity
  8
0
100
AcDbLine
 62
3
  6
CONTINUOUS
 10
2206.7143946967
 20
1070.1407649402
 11
2210.6034819932
 21
1067.8948113399
  0
LINE
  5
40F
100
AcDbEntity
  8
4_ALL_POINTS
100
AcDbLine
 62
3
  6
CONTINUOUS
 10
2127.3095583969
 20
1096.2221598132
 11
2150.7796909922
 21
1077.4889942496
  0
LINE
  5
410
100
AcDbEntity
  8
4_ALL_POINTS
100
AcDbLine
 62
7
  6
CONTINUOUS
 10
2139.0495033051
 20
1098.6438325084
 11
2152.6063126858
 21
1087.8231882871
  0
LINE
  5
411
100
AcDbEntity
  8
4_ALL_POINTS
100
AcDbLine
 62
7
  6
CONTINUOUS
 10
2140.8172702581
 20
1097.6229445083
 11
2131.4860743905
 21
1105.0708290221
  0
LINE
  5
412
100
AcDbEntity
  8
4_ALL_POINTS
100
AcDbLine
 62
3
  6
CONTINUOUS
 10
2140.8172702581
 20
1097.6229445083
 11
2154.3740796388
 21
1086.8023002869
  0
LINE
  5
413
100
AcDbEntity
  8
4_ALL_POINTS
100
AcDbLine
 62
3
  6
CONTINUOUS
 10
2156.1418465918
 20
1085.7814122868
 11
2133.2538413435
 21
1104.0499410219
  0
LINE
  5
414
100
AcDbEntity
  8
6_ALL_SURFS
100
AcDbLine
 62
7
  6
CONTINUOUS
 10
1822.7622797704
 20
1317.4713626908
 11
1824.5300467233
 21
1316.4504746907
  0
LINE
  5
415
100
AcDbEntity
  8
0
100
AcDbLine
 62
9
  6
CONTINUOUS
 10
1851.3225264723
 20
1350.0794207441
 11
1849.5547595194
 21
1351.1003087443
  0
LINE
  5
416
100
AcDbEntity
  8
0
100
AcDbLine
 62
9
  6
CONTINUOUS
 10
2203.5324141814
 20
1146.6776955963
 11
2205.3001811343
 21
1145.6568075962
  0
LINE
  5
417
100
AcDbEntity
  8
0
100
AcDbLine
 62
3
  6
CONTINUOUS
 10
2210.6034819932
 20
1143.4108539959
 11
2206.7143946967
 21
1145.6568075962
  0
LINE
  5
418
100
AcDbEntity
  8
0
100
AcDbLine
 62
3
  6
CONTINUOUS
 10
1845.6656722228
 20
1354.1629727447
 11
1849.5547595194
 21
1351.9170191444
  0
LINE
  5
419
100
AcDbEntity
  8
0
100
AcDbLine
 62
7
  6
CONTINUOUS
 10
2212.3712489462
 20
1144.431741996
 11
2208.4821616497
 21
1146.6776955963
  0
LINE
  5
41A
100
AcDbEntity
  8
0
100
AcDbLine
 62
7
  6
CONTINUOUS
 10
1847.4334391758
 20
1355.1838607448
 11
1851.3225264723
 21
1352.9379071445
  0
LINE
  5
41B
100
AcDbEntity
  8
0
100
AcDbLine
 62
9
  6
CONTINUOUS
 10
2215.5532294615
 20
1143.4108539959
 11
2213.7854625086
 21
1144.431741996
  0
LINE
  5
41C
100
AcDbEntity
  8
0
100
AcDbLine
 62
9
  6
CONTINUOUS
 10
1845.6656722228
 20
1357.0214591451
 11
1847.4334391758
 21
1356.0005711449
  0
LINE
  5
41D
100
AcDbEntity
  8
0
100
AcDbLine
 62
3
  6
CONTINUOUS
 10
1961.6311843374
 20
1337.4532863944
 11
2254.8261205523
 21
1168.1327820253
  0
LINE
  5
41E
100
AcDbEntity
  8
0
100
AcDbLine
 62
3
  6
CONTINUOUS
 10
2321.9755770774
 20
1129.3538726971
 11
2326.5689941078
 21
1126.7011676457
  0
LINE
  5
41F
100
AcDbEntity
  8
0
100
AcDbLine
 62
7
  6
CONTINUOUS
 10
1961.6311843374
 20
1339.4942605203
 11
2256.5931932434
 21
1169.1532690882
  0
LINE
  5
420
100
AcDbEntity
  8
0
100
AcDbLine
 62
7
  6
CONTINUOUS
 10
2323.7426497686
 20
1130.3743597601
 11
2326.5689941078
 21
1128.7421417715
  0
LINE
  5
421
100
AcDbEntity
  8
0
100
AcDbLine
 62
7
  6
CONTINUOUS
 10
2118.7418258357
 20
1034.4408089463
 11
2118.7418258357
 21
1085.4651620922
  0
LINE
  5
422
100
AcDbEntity
  8
0
100
AcDbLine
 62
3
  6
CONTINUOUS
 10
2120.5095927887
 20
1033.4199209461
 11
2120.5095927887
 21
1084.4442740921
  0
LINE
  5
423
100
AcDbEntity
  8
0
100
AcDbLine
 62
9
  6
CONTINUOUS
 10
2334.3471687009
 20
1133.2340489721
 11
2331.5208243616
 21
1134.8662669607
  0
LINE
  5
424
100
AcDbEntity
  8
0
100
AcDbLine
 62
9
  6
CONTINUOUS
 10
2264.3713678365
 20
1173.6451762888
 11
1969.4093589305
 21
1343.9861677209
  0
LINE
  5
425
100
AcDbEntity
  8
4_ALL_POINTS
100
AcDbLine
 62
9
  6
CONTINUOUS
 10
2336.1149356538
 20
1136.2959110981
 11
2335.0556640057
 21
1136.9076420237
  0
LINE
  5
426
100
AcDbEntity
  8
4_ALL_POINTS
100
AcDbLine
 62
9
  6
CONTINUOUS
 10
2267.9062074806
 20
1175.6865513519
 11
1971.1771258835
 21
1347.0480298469
  0
LINE
  5
427
100
AcDbEntity
  8
4_ALL_POINTS
100
AcDbLine
 62
7
  6
CONTINUOUS
 10
2000.9816767105
 20
1344.2696271824
 11
2018.9421889526
 21
1333.897405101
  0
LINE
  5
428
100
AcDbEntity
  8
4_ALL_POINTS
100
AcDbLine
 62
3
  6
CONTINUOUS
 10
2002.7494436634
 20
1345.2905151826
 11
2020.7099559056
 21
1334.9182931012
  0
LINE
  5
429
100
AcDbEntity
  8
4_ALL_POINTS
100
AcDbLine
 62
7
  6
CONTINUOUS
 10
2018.9421889526
 20
1340.7795698534
 11
2000.9816767105
 21
1351.1517919348
  0
LINE
  5
42A
100
AcDbEntity
  8
4_ALL_POINTS
100
AcDbLine
 62
7
  6
CONTINUOUS
 10
2000.9816767105
 20
1392.1998635536
 11
2018.9421889526
 21
1381.8276414722
  0
LINE
  5
42B
100
AcDbEntity
  8
4_ALL_POINTS
100
AcDbLine
 62
7
  6
CONTINUOUS
 10
2288.3498725847
 20
1226.244310251
 11
2306.3103848268
 21
1215.8720881696
  0
LINE
  5
42C
100
AcDbEntity
  8
4_ALL_POINTS
100
AcDbLine
 62
3
  6
CONTINUOUS
 10
2002.7494436634
 20
1393.2207515538
 11
2020.7099559056
 21
1382.8485294724
  0
LINE
  5
42D
100
AcDbEntity
  8
4_ALL_POINTS
100
AcDbLine
 62
3
  6
CONTINUOUS
 10
2290.1176395377
 20
1227.2651982511
 11
2308.0781517798
 21
1216.8929761697
  0
LINE
  5
42E
100
AcDbEntity
  8
4_ALL_POINTS
100
AcDbLine
 62
7
  6
CONTINUOUS
 10
2306.3103848268
 20
1222.7542529219
 11
2288.3498725847
 21
1233.1264750033
  0
LINE
  5
42F
100
AcDbEntity
  8
4_ALL_POINTS
100
AcDbLine
 62
7
  6
CONTINUOUS
 10
2018.9421889526
 20
1388.7098062246
 11
2000.9816767105
 21
1399.082028306
  0
LINE
  5
430
100
AcDbEntity
  8
4_ALL_POINTS
100
AcDbLine
 62
7
  6
CONTINUOUS
 10
2118.7418258357
 20
1085.4651620922
 11
2125.5417914439
 21
1097.2430478133
  0
LINE
  5
431
100
AcDbEntity
  8
4_ALL_POINTS
100
AcDbLine
 62
3
  6
CONTINUOUS
 10
2127.3095583969
 20
1096.2221598132
 11
2120.5095927887
 21
1084.4442740921
  0
LINE
  5
432
100
AcDbEntity
  8
4_ALL_POINTS
100
AcDbLine
 62
9
  6
CONTINUOUS
 10
2290.1176395377
 20
1227.2651982511
 11
2288.3498725847
 21
1226.244310251
  0
LINE
  5
433
100
AcDbEntity
  8
4_ALL_POINTS
100
AcDbLine
 62
9
  6
CONTINUOUS
 10
2308.0781517798
 20
1216.8929761697
 11
2306.3103848268
 21
1215.8720881696
  0
LINE
  5
434
100
AcDbEntity
  8
0
100
AcDbLine
 62
7
  6
CONTINUOUS
 10
1961.6311843374
 20
1427.2561479313
 11
2326.5689941078
 21
1216.5040291826
  0
LINE
  5
435
100
AcDbEntity
  8
0
100
AcDbLine
 62
3
  6
CONTINUOUS
 10
1961.6311843374
 20
1429.2971220572
 11
2326.5689941078
 21
1218.5450033084
  0
LINE
  5
436
100
AcDbEntity
  8
0
100
AcDbLine
 62
9
  6
CONTINUOUS
 10
2337.8827026068
 20
1214.0563036055
 11
2336.1149356538
 21
1215.0771916057
  0
LINE
  5
437
100
AcDbEntity
  8
4_ALL_POINTS
100
AcDbLine
 62
9
  6
CONTINUOUS
 10
2336.1149356538
 20
1219.9758502575
 11
2334.3475159681
 21
1220.9965377103
  0
LINE
  5
438
100
AcDbEntity
  8
0
100
AcDbLine
 62
9
  6
CONTINUOUS
 10
2334.3471687009
 20
1223.036910509
 11
1969.4093589305
 21
1433.7890292578
  0
LINE
  5
439
100
AcDbEntity
  8
0
100
AcDbLine
 62
3
  6
CONTINUOUS
 10
2336.8476596663
 20
1223.2848057801
 11
1971.9098498959
 21
1434.0369245289
  0
LINE
  5
43A
100
AcDbEntity
  8
0
100
AcDbLine
 62
9
  6
CONTINUOUS
 10
2205.3001811343
 20
1145.6568075962
 11
2205.3001811343
 21
1070.1407649402
  0
LINE
  5
43B
100
AcDbEntity
  8
0
100
AcDbLine
 62
9
  6
CONTINUOUS
 10
2206.7143946967
 20
1145.6568075962
 11
2206.7143946967
 21
1070.1407649402
  0
LINE
  5
43C
100
AcDbEntity
  8
0
100
AcDbLine
 62
9
  6
CONTINUOUS
 10
2210.6034819932
 20
1067.8948113399
 11
2210.6034819932
 21
1143.4108539959
  0
LINE
  5
43D
100
AcDbEntity
  8
0
100
AcDbLine
 62
9
  6
CONTINUOUS
 10
2215.5532294615
 20
1067.8948113399
 11
2215.5532294615
 21
1143.4108539959
  0
LINE
  5
43E
100
AcDbEntity
  8
0
100
AcDbLine
 62
3
  6
CONTINUOUS
 10
2326.5689941078
 20
1218.5450033084
 11
2334.3471687009
 21
1223.036910509
  0
LINE
  5
43F
100
AcDbEntity
  8
4_ALL_POINTS
100
AcDbLine
 62
7
  6
CONTINUOUS
 10
2131.4860743905
 20
1105.0708290221
 11
2203.5324141814
 21
1146.6776955963
  0
LINE
  5
440
100
AcDbEntity
  8
0
100
AcDbLine
 62
7
  6
CONTINUOUS
 10
2326.5689941078
 20
1216.5040291826
 11
2334.3471687009
 21
1220.9959363832
  0
LINE
  5
441
100
AcDbEntity
  8
4_ALL_POINTS
100
AcDbLine
 62
3
  6
CONTINUOUS
 10
2133.2538413435
 20
1104.0499410219
 11
2205.3001811343
 21
1145.6568075962
  0
LINE
  5
442
100
AcDbEntity
  8
0
100
AcDbLine
 62
9
  6
CONTINUOUS
 10
2208.4821616497
 20
1146.6776955963
 11
2206.7143946967
 21
1145.6568075962
  0
LINE
  5
443
100
AcDbEntity
  8
0
100
AcDbLine
 62
7
  6
CONTINUOUS
 10
2337.8827026068
 20
1220.9967382576
 11
2336.1149356538
 21
1219.9758502575
  0
LINE
  5
444
100
AcDbEntity
  8
0
100
AcDbLine
 62
9
  6
CONTINUOUS
 10
2337.8827026068
 20
1216.9147900059
 11
2336.1149356538
 21
1215.8939020058
  0
LINE
  5
445
100
AcDbEntity
  8
0
100
AcDbLine
 62
9
  6
CONTINUOUS
 10
2210.6034819932
 20
1143.4108539959
 11
2212.3712489462
 21
1144.431741996
  0
LINE
  5
446
100
AcDbEntity
  8
0
100
AcDbLine
 62
7
  6
CONTINUOUS
 10
2336.1149356538
 20
1215.0771916057
 11
2213.7854625086
 21
1144.431741996
  0
LINE
  5
447
100
AcDbEntity
  8
0
100
AcDbLine
 62
3
  6
CONTINUOUS
 10
2337.8827026068
 20
1214.0563036055
 11
2215.5532294615
 21
1143.4108539959
  0
LINE
  5
448
100
AcDbEntity
  8
0
100
AcDbLine
 62
3
  6
CONTINUOUS
 10
2205.3001811343
 20
1070.1407649402
 11
2131.1161945065
 21
1027.2994041919
  0
LINE
  5
449
100
AcDbEntity
  8
0
100
AcDbLine
 62
3
  6
CONTINUOUS
 10
2215.5532294615
 20
1067.8948113399
 11
2337.8827026068
 21
1138.5402609495
  0
LINE
  5
44A
100
AcDbEntity
  8
0
100
AcDbLine
 62
7
  6
CONTINUOUS
 10
2337.8827026068
 20
1137.3167990982
 11
2336.1149356538
 21
1136.2959110981
  0
LINE
  5
44B
100
AcDbEntity
  8
0
100
AcDbLine
 62
7
  6
CONTINUOUS
 10
2326.5689941078
 20
1128.7421417715
 11
2334.3471687009
 21
1133.2340489721
  0
LINE
  5
44C
100
AcDbEntity
  8
0
100
AcDbLine
 62
3
  6
CONTINUOUS
 10
2326.5689941078
 20
1126.7011676457
 11
2334.3471687009
 21
1131.1930748463
  0
LINE
  5
44D
100
AcDbEntity
  8
0
100
AcDbLine
 62
7
  6
CONTINUOUS
 10
2326.5689941078
 20
1218.5450033084
 11
2326.5689941078
 21
1216.5040291826
  0
LINE
  5
44E
100
AcDbEntity
  8
0
100
AcDbLine
 62
7
  6
CONTINUOUS
 10
2326.5689941078
 20
1126.7011676457
 11
2326.5689941078
 21
1128.7421417715
  0
LINE
  5
44F
100
AcDbEntity
  8
0
100
AcDbLine
 62
9
  6
CONTINUOUS
 10
2334.3471687009
 20
1223.036910509
 11
2334.3471687009
 21
1220.9959363832
  0
LINE
  5
450
100
AcDbEntity
  8
0
100
AcDbLine
 62
9
  6
CONTINUOUS
 10
2334.3471687009
 20
1131.1930748463
 11
2334.3471687009
 21
1133.2340489721
  0
LINE
  5
451
100
AcDbEntity
  8
0
100
AcDbLine
 62
9
  6
CONTINUOUS
 10
2336.1149356538
 20
1215.0771916057
 11
2336.1149356538
 21
1215.8939020058
  0
LINE
  5
452
100
AcDbEntity
  8
0
100
AcDbLine
 62
9
  6
CONTINUOUS
 10
2337.8827026068
 20
1138.5402609495
 11
2337.8827026068
 21
1214.0563036055
  0
LINE
  5
453
100
AcDbEntity
  8
0
100
AcDbLine
 62
3
  6
CONTINUOUS
 10
2338.9078288727
 20
1139.9695041497
 11
2338.9078288727
 21
1215.4855468057
  0
LINE
  5
454
100
AcDbEntity
  8
0
100
AcDbLine
 62
3
  6
CONTINUOUS
 10
407.7386445484
 20
459.7286600188
 11
407.7386445484
 21
552.2286600188
  0
LINE
  5
455
100
AcDbEntity
  8
0
100
AcDbLine
 62
7
  6
CONTINUOUS
 10
411.2386445484
 20
562.2286600188
 11
411.2386445484
 21
557.2286600188
  0
LINE
  5
456
100
AcDbEntity
  8
0
100
AcDbLine
 62
7
  6
CONTINUOUS
 10
411.2386445484
 20
449.7286600188
 11
411.2386445484
 21
454.7286600188
  0
LINE
  5
457
100
AcDbEntity
  8
0
100
AcDbLine
 62
9
  6
CONTINUOUS
 10
411.2386445484
 20
459.7286600188
 11
411.2386445484
 21
552.2286600188
  0
LINE
  5
458
100
AcDbEntity
  8
0
100
AcDbLine
 62
9
  6
CONTINUOUS
 10
416.7386445484
 20
552.2286600188
 11
416.7386445484
 21
459.7286600188
  0
LINE
  5
459
100
AcDbEntity
  8
0
100
AcDbLine
 62
3
  6
CONTINUOUS
 10
417.7386445484
 20
459.7286600188
 11
417.7386445484
 21
537.2286600188
  0
LINE
  5
45A
100
AcDbEntity
  8
4_ALL_POINTS
100
AcDbLine
 62
3
  6
CONTINUOUS
 10
417.7386445484
 20
537.2286600188
 11
417.7386445484
 21
552.2286600188
  0
LINE
  5
45B
100
AcDbEntity
  8
4_ALL_POINTS
100
AcDbLine
 62
7
  6
CONTINUOUS
 10
420.2386445484
 20
552.2286600188
 11
420.2386445484
 21
537.2286600188
  0
LINE
  5
45C
100
AcDbEntity
  8
0
100
AcDbLine
 62
7
  6
CONTINUOUS
 10
420.2386445484
 20
459.7286600188
 11
420.2386445484
 21
537.2286600188
  0
LINE
  5
45D
100
AcDbEntity
  8
4_ALL_POINTS
100
AcDbLine
 62
7
  6
CONTINUOUS
 10
422.7386445484
 20
543.4780125724
 11
422.7386445484
 21
505.9786600188
  0
LINE
  5
45E
100
AcDbEntity
  8
6_ALL_SURFS
100
AcDbLine
 62
7
  6
CONTINUOUS
 10
422.7386445484
 20
505.9786600188
 11
422.7386445484
 21
468.4786600188
  0
LINE
  5
45F
100
AcDbEntity
  8
3_AXES_OTHER
100
AcDbLine
 62
7
  6
CENTER
 10
453.3886445484
 20
535.3336600188
 11
453.3886445484
 21
515.8786600188
  0
LINE
  5
460
100
AcDbEntity
  8
3_AXES_OTHER
100
AcDbLine
 62
7
  6
CENTER
 10
453.3886445484
 20
476.6236600188
 11
453.3886445484
 21
457.1686600188
  0
LINE
  5
461
100
AcDbEntity
  8
3_AXES_OTHER
100
AcDbLine
 62
7
  6
CENTER
 10
453.3886445484
 20
476.6236600188
 11
453.3886445484
 21
496.0786600188
  0
LINE
  5
462
100
AcDbEntity
  8
3_AXES_OTHER
100
AcDbLine
 62
7
  6
CENTER
 10
453.3886445484
 20
535.3336600188
 11
453.3886445484
 21
554.7886600188
  0
LINE
  5
463
100
AcDbEntity
  8
3_AXES_OTHER
100
AcDbLine
 62
7
  6
CENTER
 10
478.7886445484
 20
535.3336600188
 11
478.7886445484
 21
515.8786600188
  0
LINE
  5
464
100
AcDbEntity
  8
3_AXES_OTHER
100
AcDbLine
 62
7
  6
CENTER
 10
478.7886445484
 20
476.6236600188
 11
478.7886445484
 21
457.1686600188
  0
LINE
  5
465
100
AcDbEntity
  8
3_AXES_OTHER
100
AcDbLine
 62
7
  6
CENTER
 10
478.7886445484
 20
476.6236600188
 11
478.7886445484
 21
496.0786600188
  0
LINE
  5
466
100
AcDbEntity
  8
3_AXES_OTHER
100
AcDbLine
 62
7
  6
CENTER
 10
478.7886445484
 20
535.3336600188
 11
478.7886445484
 21
554.7886600188
  0
LINE
  5
467
100
AcDbEntity
  8
0
100
AcDbLine
 62
3
  6
CONTINUOUS
 10
411.2386445484
 20
449.7286600188
 11
927.3386445484
 21
449.7286600188
  0
LINE
  5
468
100
AcDbEntity
  8
0
100
AcDbLine
 62
7
  6
CONTINUOUS
 10
411.2386445484
 20
452.2286600188
 11
927.3386445484
 21
452.2286600188
  0
LINE
  5
469
100
AcDbEntity
  8
4_ALL_POINTS
100
AcDbLine
 62
9
  6
CONTINUOUS
 10
927.3386445484
 20
454.7286600188
 11
411.2386445484
 21
454.7286600188
  0
LINE
  5
46A
100
AcDbEntity
  8
0
100
AcDbLine
 62
7
  6
CONTINUOUS
 10
920.8386445484
 20
459.7286600188
 11
918.3386445484
 21
459.7286600188
  0
LINE
  5
46B
100
AcDbEntity
  8
0
100
AcDbLine
 62
3
  6
CONTINUOUS
 10
417.7386445484
 20
459.7286600188
 11
407.7386445484
 21
459.7286600188
  0
LINE
  5
46C
100
AcDbEntity
  8
0
100
AcDbLine
 62
7
  6
CONTINUOUS
 10
417.7386445484
 20
459.7286600188
 11
420.2386445484
 21
459.7286600188
  0
LINE
  5
46D
100
AcDbEntity
  8
0
100
AcDbLine
 62
3
  6
CONTINUOUS
 10
920.8386445484
 20
459.7286600188
 11
930.8386445484
 21
459.7286600188
  0
LINE
  5
46E
100
AcDbEntity
  8
6_ALL_SURFS
100
AcDbLine
 62
7
  6
CONTINUOUS
 10
918.3386445484
 20
468.4786600188
 11
915.8386445484
 21
468.4786600188
  0
LINE
  5
46F
100
AcDbEntity
  8
6_ALL_SURFS
100
AcDbLine
 62
7
  6
CONTINUOUS
 10
420.2386445484
 20
468.4786600188
 11
422.7386445484
 21
468.4786600188
  0
LINE
  5
470
100
AcDbEntity
  8
4_ALL_POINTS
100
AcDbLine
 62
7
  6
CONTINUOUS
 10
453.3886445484
 20
472.4086600188
 11
478.7886445484
 21
472.4086600188
  0
LINE
  5
471
100
AcDbEntity
  8
4_ALL_POINTS
100
AcDbLine
 62
7
  6
CONTINUOUS
 10
859.7886445484
 20
472.4086600188
 11
885.1886445484
 21
472.4086600188
  0
LINE
  5
472
100
AcDbEntity
  8
3_AXES_OTHER
100
AcDbLine
 62
7
  6
CENTER
 10
637.5386445484
 20
505.9786600188
 11
637.5386445484
 21
490.1247887849
  0
LINE
  5
473
100
AcDbEntity
  8
3_AXES_OTHER
100
AcDbLine
 62
7
  6
CENTER
 10
637.5386445484
 20
505.9786600188
 11
637.5386445484
 21
521.8325312526
  0
LINE
  5
474
100
AcDbEntity
  8
0
100
AcDbLine
 62
7
  6
CONTINUOUS
 10
920.8386445484
 20
474.7286600188
 11
918.3386445484
 21
474.7286600188
  0
LINE
  5
475
100
AcDbEntity
  8
0
100
AcDbLine
 62
7
  6
CONTINUOUS
 10
417.7386445484
 20
474.7286600188
 11
420.2386445484
 21
474.7286600188
  0
LINE
  5
476
100
AcDbEntity
  8
3_AXES_OTHER
100
AcDbLine
 62
7
  6
CENTER
 10
885.1886445484
 20
476.6236600188
 11
865.7336445484
 21
476.6236600188
  0
LINE
  5
477
100
AcDbEntity
  8
3_AXES_OTHER
100
AcDbLine
 62
7
  6
CENTER
 10
859.7886445484
 20
476.6236600188
 11
840.3336445484
 21
476.6236600188
  0
LINE
  5
478
100
AcDbEntity
  8
3_AXES_OTHER
100
AcDbLine
 62
7
  6
CENTER
 10
478.7886445484
 20
476.6236600188
 11
459.3336445484
 21
476.6236600188
  0
LINE
  5
479
100
AcDbEntity
  8
3_AXES_OTHER
100
AcDbLine
 62
7
  6
CENTER
 10
453.3886445484
 20
476.6236600188
 11
433.9336445484
 21
476.6236600188
  0
LINE
  5
47A
100
AcDbEntity
  8
3_AXES_OTHER
100
AcDbLine
 62
7
  6
CENTER
 10
453.3886445484
 20
476.6236600188
 11
459.3336445484
 21
476.6236600188
  0
LINE
  5
47B
100
AcDbEntity
  8
3_AXES_OTHER
100
AcDbLine
 62
7
  6
CENTER
 10
478.7886445484
 20
476.6236600188
 11
498.2436445484
 21
476.6236600188
  0
LINE
  5
47C
100
AcDbEntity
  8
3_AXES_OTHER
100
AcDbLine
 62
7
  6
CENTER
 10
859.7886445484
 20
476.6236600188
 11
865.7336445484
 21
476.6236600188
  0
LINE
  5
47D
100
AcDbEntity
  8
3_AXES_OTHER
100
AcDbLine
 62
7
  6
CENTER
 10
885.1886445484
 20
476.6236600188
 11
904.6436445484
 21
476.6236600188
  0
LINE
  5
47E
100
AcDbEntity
  8
4_ALL_POINTS
100
AcDbLine
 62
7
  6
CONTINUOUS
 10
885.1886445484
 20
480.8386600188
 11
859.7886445484
 21
480.8386600188
  0
LINE
  5
47F
100
AcDbEntity
  8
4_ALL_POINTS
100
AcDbLine
 62
7
  6
CONTINUOUS
 10
478.7886445484
 20
480.8386600188
 11
453.3886445484
 21
480.8386600188
  0
LINE
  5
480
100
AcDbEntity
  8
3_AXES_OTHER
100
AcDbLine
 62
7
  6
CENTER
 10
669.2886445484
 20
505.9786600188
 11
669.2886445484
 21
434.7248170373
  0
LINE
  5
481
100
AcDbEntity
  8
3_AXES_OTHER
100
AcDbLine
 62
7
  6
CENTER
 10
669.2886445484
 20
505.9786600188
 11
669.2886445484
 21
587.5364189573
  0
LINE
  5
482
100
AcDbEntity
  8
3_AXES_OTHER
100
AcDbLine
 62
7
  6
CENTER
 10
701.0386445484
 20
505.9786600188
 11
685.1847733145
 21
505.9786600188
  0
LINE
  5
483
100
AcDbEntity
  8
3_AXES_OTHER
100
AcDbLine
 62
7
  6
CENTER
 10
669.2886445484
 20
505.9786600188
 11
653.4347733145
 21
505.9786600188
  0
LINE
  5
484
100
AcDbEntity
  8
3_AXES_OTHER
100
AcDbLine
 62
7
  6
CENTER
 10
637.5386445484
 20
505.9786600188
 11
393.9338021971
 21
505.9786600188
  0
LINE
  5
485
100
AcDbEntity
  8
3_AXES_OTHER
100
AcDbLine
 62
7
  6
CENTER
 10
637.5386445484
 20
505.9786600188
 11
653.3925157822
 21
505.9786600188
  0
LINE
  5
486
100
AcDbEntity
  8
3_AXES_OTHER
100
AcDbLine
 62
7
  6
CENTER
 10
669.2886445484
 20
505.9786600188
 11
685.1425157822
 21
505.9786600188
  0
LINE
  5
487
100
AcDbEntity
  8
3_AXES_OTHER
100
AcDbLine
 62
7
  6
CENTER
 10
701.0386445484
 20
505.9786600188
 11
939.6895233399
 21
505.9786600188
  0
LINE
  5
488
100
AcDbEntity
  8
3_AXES_OTHER
100
AcDbLine
 62
7
  6
CENTER
 10
701.0386445484
 20
505.9786600188
 11
701.0386445484
 21
490.1247887849
  0
LINE
  5
489
100
AcDbEntity
  8
3_AXES_OTHER
100
AcDbLine
 62
7
  6
CENTER
 10
701.0386445484
 20
505.9786600188
 11
701.0386445484
 21
521.8325312526
  0
LINE
  5
48A
100
AcDbEntity
  8
4_ALL_POINTS
100
AcDbLine
 62
7
  6
CONTINUOUS
 10
918.3386445484
 20
529.7301004073
 11
915.8386445484
 21
529.7301004073
  0
LINE
  5
48B
100
AcDbEntity
  8
4_ALL_POINTS
100
AcDbLine
 62
7
  6
CONTINUOUS
 10
420.2386445484
 20
529.7301004073
 11
422.7386445484
 21
529.7301004073
  0
LINE
  5
48C
100
AcDbEntity
  8
4_ALL_POINTS
100
AcDbLine
 62
7
  6
CONTINUOUS
 10
453.3886445484
 20
531.1186600188
 11
478.7886445484
 21
531.1186600188
  0
LINE
  5
48D
100
AcDbEntity
  8
4_ALL_POINTS
100
AcDbLine
 62
7
  6
CONTINUOUS
 10
859.7886445484
 20
531.1186600188
 11
885.1886445484
 21
531.1186600188
  0
LINE
  5
48E
100
AcDbEntity
  8
3_AXES_OTHER
100
AcDbLine
 62
7
  6
CENTER
 10
885.1886445484
 20
535.3336600188
 11
865.7336445484
 21
535.3336600188
  0
LINE
  5
48F
100
AcDbEntity
  8
3_AXES_OTHER
100
AcDbLine
 62
7
  6
CENTER
 10
859.7886445484
 20
535.3336600188
 11
840.3336445484
 21
535.3336600188
  0
LINE
  5
490
100
AcDbEntity
  8
3_AXES_OTHER
100
AcDbLine
 62
7
  6
CENTER
 10
478.7886445484
 20
535.3336600188
 11
459.3336445484
 21
535.3336600188
  0
LINE
  5
491
100
AcDbEntity
  8
3_AXES_OTHER
100
AcDbLine
 62
7
  6
CENTER
 10
453.3886445484
 20
535.3336600188
 11
433.9336445484
 21
535.3336600188
  0
LINE
  5
492
100
AcDbEntity
  8
3_AXES_OTHER
100
AcDbLine
 62
7
  6
CENTER
 10
453.3886445484
 20
535.3336600188
 11
459.3336445484
 21
535.3336600188
  0
LINE
  5
493
100
AcDbEntity
  8
3_AXES_OTHER
100
AcDbLine
 62
7
  6
CENTER
 10
478.7886445484
 20
535.3336600188
 11
498.2436445484
 21
535.3336600188
  0
LINE
  5
494
100
AcDbEntity
  8
3_AXES_OTHER
100
AcDbLine
 62
7
  6
CENTER
 10
859.7886445484
 20
535.3336600188
 11
865.7336445484
 21
535.3336600188
  0
LINE
  5
495
100
AcDbEntity
  8
3_AXES_OTHER
100
AcDbLine
 62
7
  6
CENTER
 10
885.1886445484
 20
535.3336600188
 11
904.6436445484
 21
535.3336600188
  0
LINE
  5
496
100
AcDbEntity
  8
4_ALL_POINTS
100
AcDbLine
 62
7
  6
CONTINUOUS
 10
918.3386445484
 20
536.5049626814
 11
915.8386445484
 21
536.5049626814
  0
LINE
  5
497
100
AcDbEntity
  8
4_ALL_POINTS
100
AcDbLine
 62
7
  6
CONTINUOUS
 10
420.2386445484
 20
536.5049626814
 11
422.7386445484
 21
536.5049626814
  0
LINE
  5
498
100
AcDbEntity
  8
0
100
AcDbLine
 62
7
  6
CONTINUOUS
 10
920.8386445484
 20
537.2286600188
 11
918.3386445484
 21
537.2286600188
  0
LINE
  5
499
100
AcDbEntity
  8
0
100
AcDbLine
 62
7
  6
CONTINUOUS
 10
417.7386445484
 20
537.2286600188
 11
420.2386445484
 21
537.2286600188
  0
LINE
  5
49A
100
AcDbEntity
  8
4_ALL_POINTS
100
AcDbLine
 62
7
  6
CONTINUOUS
 10
885.1886445484
 20
539.5486600188
 11
859.7886445484
 21
539.5486600188
  0
LINE
  5
49B
100
AcDbEntity
  8
4_ALL_POINTS
100
AcDbLine
 62
7
  6
CONTINUOUS
 10
478.7886445484
 20
539.5486600188
 11
453.3886445484
 21
539.5486600188
  0
LINE
  5
49C
100
AcDbEntity
  8
6_ALL_SURFS
100
AcDbLine
 62
7
  6
CONTINUOUS
 10
918.3386445484
 20
543.4786600188
 11
915.8386445484
 21
543.4786600188
  0
LINE
  5
49D
100
AcDbEntity
  8
6_ALL_SURFS
100
AcDbLine
 62
7
  6
CONTINUOUS
 10
420.2386445484
 20
543.4786600188
 11
422.7386445484
 21
543.4786600188
  0
LINE
  5
49E
100
AcDbEntity
  8
4_ALL_POINTS
100
AcDbLine
 62
7
  6
CONTINUOUS
 10
920.8386445484
 20
546.8452636055
 11
918.3386445484
 21
546.8452636055
  0
LINE
  5
49F
100
AcDbEntity
  8
4_ALL_POINTS
100
AcDbLine
 62
7
  6
CONTINUOUS
 10
417.7386445484
 20
546.8452636055
 11
420.2386445484
 21
546.8452636055
  0
LINE
  5
4A0
100
AcDbEntity
  8
4_ALL_POINTS
100
AcDbLine
 62
7
  6
CONTINUOUS
 10
920.8386445484
 20
552.2286600188
 11
918.3386445484
 21
552.2286600188
  0
LINE
  5
4A1
100
AcDbEntity
  8
0
100
AcDbLine
 62
3
  6
CONTINUOUS
 10
407.7386445484
 20
552.2286600188
 11
417.7386445484
 21
552.2286600188
  0
LINE
  5
4A2
100
AcDbEntity
  8
4_ALL_POINTS
100
AcDbLine
 62
7
  6
CONTINUOUS
 10
417.7386445484
 20
552.2286600188
 11
420.2386445484
 21
552.2286600188
  0
LINE
  5
4A3
100
AcDbEntity
  8
0
100
AcDbLine
 62
3
  6
CONTINUOUS
 10
920.8386445484
 20
552.2286600188
 11
930.8386445484
 21
552.2286600188
  0
LINE
  5
4A4
100
AcDbEntity
  8
4_ALL_POINTS
100
AcDbLine
 62
9
  6
CONTINUOUS
 10
927.3386445484
 20
557.2286600188
 11
411.2386445484
 21
557.2286600188
  0
LINE
  5
4A5
100
AcDbEntity
  8
0
100
AcDbLine
 62
7
  6
CONTINUOUS
 10
411.2386445484
 20
559.7286600188
 11
927.3386445484
 21
559.7286600188
  0
LINE
  5
4A6
100
AcDbEntity
  8
0
100
AcDbLine
 62
3
  6
CONTINUOUS
 10
411.2386445484
 20
562.2286600188
 11
927.3386445484
 21
562.2286600188
  0
LINE
  5
4A7
100
AcDbEntity
  8
3_AXES_OTHER
100
AcDbLine
 62
7
  6
CENTER
 10
859.7886445484
 20
535.3336600188
 11
859.7886445484
 21
515.8786600188
  0
LINE
  5
4A8
100
AcDbEntity
  8
3_AXES_OTHER
100
AcDbLine
 62
7
  6
CENTER
 10
859.7886445484
 20
476.6236600188
 11
859.7886445484
 21
457.1686600188
  0
LINE
  5
4A9
100
AcDbEntity
  8
3_AXES_OTHER
100
AcDbLine
 62
7
  6
CENTER
 10
859.7886445484
 20
476.6236600188
 11
859.7886445484
 21
496.0786600188
  0
LINE
  5
4AA
100
AcDbEntity
  8
3_AXES_OTHER
100
AcDbLine
 62
7
  6
CENTER
 10
859.7886445484
 20
535.3336600188
 11
859.7886445484
 21
554.7886600188
  0
LINE
  5
4AB
100
AcDbEntity
  8
3_AXES_OTHER
100
AcDbLine
 62
7
  6
CENTER
 10
885.1886445484
 20
535.3336600188
 11
885.1886445484
 21
515.8786600188
  0
LINE
  5
4AC
100
AcDbEntity
  8
3_AXES_OTHER
100
AcDbLine
 62
7
  6
CENTER
 10
885.1886445484
 20
476.6236600188
 11
885.1886445484
 21
457.1686600188
  0
LINE
  5
4AD
100
AcDbEntity
  8
3_AXES_OTHER
100
AcDbLine
 62
7
  6
CENTER
 10
885.1886445484
 20
476.6236600188
 11
885.1886445484
 21
496.0786600188
  0
LINE
  5
4AE
100
AcDbEntity
  8
3_AXES_OTHER
100
AcDbLine
 62
7
  6
CENTER
 10
885.1886445484
 20
535.3336600188
 11
885.1886445484
 21
554.7886600188
  0
LINE
  5
4AF
100
AcDbEntity
  8
6_ALL_SURFS
100
AcDbLine
 62
7
  6
CONTINUOUS
 10
915.8386445484
 20
468.4786600188
 11
915.8386445484
 21
505.9786600188
  0
LINE
  5
4B0
100
AcDbEntity
  8
4_ALL_POINTS
100
AcDbLine
 62
7
  6
CONTINUOUS
 10
915.8386445484
 20
505.9786600188
 11
915.8386445484
 21
543.4780125724
  0
LINE
  5
4B1
100
AcDbEntity
  8
0
100
AcDbLine
 62
7
  6
CONTINUOUS
 10
918.3386445484
 20
459.7286600188
 11
918.3386445484
 21
537.2286600188
  0
LINE
  5
4B2
100
AcDbEntity
  8
4_ALL_POINTS
100
AcDbLine
 62
7
  6
CONTINUOUS
 10
918.3386445484
 20
537.2286600188
 11
918.3386445484
 21
552.2286600188
  0
LINE
  5
4B3
100
AcDbEntity
  8
0
100
AcDbLine
 62
3
  6
CONTINUOUS
 10
920.8386445484
 20
459.7286600188
 11
920.8386445484
 21
537.2286600188
  0
LINE
  5
4B4
100
AcDbEntity
  8
4_ALL_POINTS
100
AcDbLine
 62
3
  6
CONTINUOUS
 10
920.8386445484
 20
537.2286600188
 11
920.8386445484
 21
552.2286600188
  0
LINE
  5
4B5
100
AcDbEntity
  8
0
100
AcDbLine
 62
9
  6
CONTINUOUS
 10
921.8386445484
 20
552.2286600188
 11
921.8386445484
 21
459.7286600188
  0
LINE
  5
4B6
100
AcDbEntity
  8
0
100
AcDbLine
 62
7
  6
CONTINUOUS
 10
927.3386445484
 20
562.2286600188
 11
927.3386445484
 21
557.2286600188
  0
LINE
  5
4B7
100
AcDbEntity
  8
0
100
AcDbLine
 62
7
  6
CONTINUOUS
 10
927.3386445484
 20
449.7286600188
 11
927.3386445484
 21
454.7286600188
  0
LINE
  5
4B8
100
AcDbEntity
  8
0
100
AcDbLine
 62
9
  6
CONTINUOUS
 10
927.3386445484
 20
459.7286600188
 11
927.3386445484
 21
552.2286600188
  0
LINE
  5
4B9
100
AcDbEntity
  8
0
100
AcDbLine
 62
3
  6
CONTINUOUS
 10
930.8386445484
 20
459.7286600188
 11
930.8386445484
 21
552.2286600188
  0
LINE
  5
4BA
100
AcDbEntity
  8
0
100
AcDbLine
 62
3
  6
CONTINUOUS
 10
407.7386445484
 20
1305.0177958151
 11
407.7386445484
 21
1132.0177958151
  0
LINE
  5
4BB
100
AcDbEntity
  8
0
100
AcDbLine
 62
7
  6
CONTINUOUS
 10
410.2386445484
 20
1305.0177958151
 11
410.2386445484
 21
1132.0177958151
  0
LINE
  5
4BC
100
AcDbEntity
  8
0
100
AcDbLine
 62
9
  6
CONTINUOUS
 10
411.2386445484
 20
1128.5177958151
 11
411.2386445484
 21
1131.0177958151
  0
LINE
  5
4BD
100
AcDbEntity
  8
0
100
AcDbLine
 62
3
  6
CONTINUOUS
 10
411.2386445484
 20
1292.5177958151
 11
411.2386445484
 21
1308.5177958151
  0
LINE
  5
4BE
100
AcDbEntity
  8
0
100
AcDbLine
 62
9
  6
CONTINUOUS
 10
416.7386445484
 20
1131.0177958151
 11
416.7386445484
 21
1128.5177958151
  0
LINE
  5
4BF
100
AcDbEntity
  8
4_ALL_POINTS
100
AcDbLine
 62
3
  6
CONTINUOUS
 10
417.7386445484
 20
1007.6057958151
 11
417.7386445484
 21
1127.5177958151
  0
LINE
  5
4C0
100
AcDbEntity
  8
4_ALL_POINTS
100
AcDbLine
 62
7
  6
CONTINUOUS
 10
420.2386445484
 20
1007.6057958151
 11
420.2386445484
 21
1127.5177958151
  0
LINE
  5
4C1
100
AcDbEntity
  8
4_ALL_POINTS
100
AcDbLine
 62
7
  6
CONTINUOUS
 10
422.7386445484
 20
1023.1057958151
 11
422.7386445484
 21
1098.1057958151
  0
LINE
  5
4C2
100
AcDbEntity
  8
0
100
AcDbLine
 62
7
  6
CONTINUOUS
 10
920.8386445484
 20
1007.6057958151
 11
918.3386445484
 21
1007.6057958151
  0
LINE
  5
4C3
100
AcDbEntity
  8
0
100
AcDbLine
 62
7
  6
CONTINUOUS
 10
417.7386445484
 20
1007.6057958151
 11
420.2386445484
 21
1007.6057958151
  0
LINE
  5
4C4
100
AcDbEntity
  8
4_ALL_POINTS
100
AcDbLine
 62
7
  6
CONTINUOUS
 10
920.8386445484
 20
1017.2223994018
 11
918.3386445484
 21
1017.2223994018
  0
LINE
  5
4C5
100
AcDbEntity
  8
4_ALL_POINTS
100
AcDbLine
 62
7
  6
CONTINUOUS
 10
417.7386445484
 20
1017.2223994018
 11
420.2386445484
 21
1017.2223994018
  0
LINE
  5
4C6
100
AcDbEntity
  8
6_ALL_SURFS
100
AcDbLine
 62
7
  6
CONTINUOUS
 10
918.3386445484
 20
1023.1057958151
 11
915.8386445484
 21
1023.1057958151
  0
LINE
  5
4C7
100
AcDbEntity
  8
6_ALL_SURFS
100
AcDbLine
 62
7
  6
CONTINUOUS
 10
420.2386445484
 20
1023.1057958151
 11
422.7386445484
 21
1023.1057958151
  0
LINE
  5
4C8
100
AcDbEntity
  8
4_ALL_POINTS
100
AcDbLine
 62
7
  6
CONTINUOUS
 10
920.8386445484
 20
1025.6288849635
 11
918.3386445484
 21
1025.6288849635
  0
LINE
  5
4C9
100
AcDbEntity
  8
4_ALL_POINTS
100
AcDbLine
 62
7
  6
CONTINUOUS
 10
417.7386445484
 20
1025.6288849635
 11
420.2386445484
 21
1025.6288849635
  0
LINE
  5
4CA
100
AcDbEntity
  8
4_ALL_POINTS
100
AcDbLine
 62
7
  6
CONTINUOUS
 10
918.3386445484
 20
1031.5865077557
 11
915.8386445484
 21
1031.5865077557
  0
LINE
  5
4CB
100
AcDbEntity
  8
4_ALL_POINTS
100
AcDbLine
 62
7
  6
CONTINUOUS
 10
420.2386445484
 20
1031.5865077557
 11
422.7386445484
 21
1031.5865077557
  0
LINE
  5
4CC
100
AcDbEntity
  8
4_ALL_POINTS
100
AcDbLine
 62
7
  6
CONTINUOUS
 10
918.3386445484
 20
1038.8251887126
 11
915.8386445484
 21
1038.8251887126
  0
LINE
  5
4CD
100
AcDbEntity
  8
4_ALL_POINTS
100
AcDbLine
 62
7
  6
CONTINUOUS
 10
420.2386445484
 20
1038.8251887126
 11
422.7386445484
 21
1038.8251887126
  0
LINE
  5
4CE
100
AcDbEntity
  8
6_ALL_SURFS
100
AcDbLine
 62
7
  6
CONTINUOUS
 10
918.3386445484
 20
1098.1057958151
 11
915.8386445484
 21
1098.1057958151
  0
LINE
  5
4CF
100
AcDbEntity
  8
6_ALL_SURFS
100
AcDbLine
 62
7
  6
CONTINUOUS
 10
420.2386445484
 20
1098.1057958151
 11
422.7386445484
 21
1098.1057958151
  0
LINE
  5
4D0
100
AcDbEntity
  8
0
100
AcDbLine
 62
9
  6
CONTINUOUS
 10
420.2386445484
 20
1127.5177958151
 11
417.7386445484
 21
1127.5177958151
  0
LINE
  5
4D1
100
AcDbEntity
  8
0
100
AcDbLine
 62
9
  6
CONTINUOUS
 10
918.3386445484
 20
1127.5177958151
 11
920.8386445484
 21
1127.5177958151
  0
LINE
  5
4D2
100
AcDbEntity
  8
0
100
AcDbLine
 62
3
  6
CONTINUOUS
 10
927.3386445484
 20
1128.5177958151
 11
921.8386445484
 21
1128.5177958151
  0
LINE
  5
4D3
100
AcDbEntity
  8
0
100
AcDbLine
 62
3
  6
CONTINUOUS
 10
411.2386445484
 20
1128.5177958151
 11
416.7386445484
 21
1128.5177958151
  0
LINE
  5
4D4
100
AcDbEntity
  8
0
100
AcDbLine
 62
7
  6
CONTINUOUS
 10
927.3386445484
 20
1131.0177958151
 11
921.8386445484
 21
1131.0177958151
  0
LINE
  5
4D5
100
AcDbEntity
  8
0
100
AcDbLine
 62
7
  6
CONTINUOUS
 10
411.2386445484
 20
1131.0177958151
 11
416.7386445484
 21
1131.0177958151
  0
LINE
  5
4D6
100
AcDbEntity
  8
0
100
AcDbLine
 62
9
  6
CONTINUOUS
 10
930.8386445484
 20
1132.0177958151
 11
928.3386445484
 21
1132.0177958151
  0
LINE
  5
4D7
100
AcDbEntity
  8
0
100
AcDbLine
 62
9
  6
CONTINUOUS
 10
407.7386445484
 20
1132.0177958151
 11
410.2386445484
 21
1132.0177958151
  0
LINE
  5
4D8
100
AcDbEntity
  8
0
100
AcDbLine
 62
3
  6
CONTINUOUS
 10
411.2386445484
 20
1292.5177958151
 11
927.3386445484
 21
1292.5177958151
  0
LINE
  5
4D9
100
AcDbEntity
  8
0
100
AcDbLine
 62
9
  6
CONTINUOUS
 10
927.3386445484
 20
1303.5177958151
 11
411.2386445484
 21
1303.5177958151
  0
LINE
  5
4DA
100
AcDbEntity
  8
0
100
AcDbLine
 62
9
  6
CONTINUOUS
 10
930.8386445484
 20
1305.0177958151
 11
928.3386445484
 21
1305.0177958151
  0
LINE
  5
4DB
100
AcDbEntity
  8
0
100
AcDbLine
 62
9
  6
CONTINUOUS
 10
407.7386445484
 20
1305.0177958151
 11
410.2386445484
 21
1305.0177958151
  0
LINE
  5
4DC
100
AcDbEntity
  8
4_ALL_POINTS
100
AcDbLine
 62
3
  6
CONTINUOUS
 10
927.3386445484
 20
1308.5177958151
 11
411.2386445484
 21
1308.5177958151
  0
LINE
  5
4DD
100
AcDbEntity
  8
4_ALL_POINTS
100
AcDbLine
 62
7
  6
CONTINUOUS
 10
915.8386445484
 20
1023.1057958151
 11
915.8386445484
 21
1098.1057958151
  0
LINE
  5
4DE
100
AcDbEntity
  8
4_ALL_POINTS
100
AcDbLine
 62
7
  6
CONTINUOUS
 10
918.3386445484
 20
1007.6057958151
 11
918.3386445484
 21
1127.5177958151
  0
LINE
  5
4DF
100
AcDbEntity
  8
4_ALL_POINTS
100
AcDbLine
 62
3
  6
CONTINUOUS
 10
920.8386445484
 20
1007.6057958151
 11
920.8386445484
 21
1127.5177958151
  0
LINE
  5
4E0
100
AcDbEntity
  8
0
100
AcDbLine
 62
9
  6
CONTINUOUS
 10
921.8386445484
 20
1131.0177958151
 11
921.8386445484
 21
1128.5177958151
  0
LINE
  5
4E1
100
AcDbEntity
  8
0
100
AcDbLine
 62
9
  6
CONTINUOUS
 10
927.3386445484
 20
1128.5177958151
 11
927.3386445484
 21
1131.0177958151
  0
LINE
  5
4E2
100
AcDbEntity
  8
0
100
AcDbLine
 62
3
  6
CONTINUOUS
 10
927.3386445484
 20
1292.5177958151
 11
927.3386445484
 21
1308.5177958151
  0
LINE
  5
4E3
100
AcDbEntity
  8
0
100
AcDbLine
 62
7
  6
CONTINUOUS
 10
928.3386445484
 20
1305.0177958151
 11
928.3386445484
 21
1132.0177958151
  0
LINE
  5
4E4
100
AcDbEntity
  8
0
100
AcDbLine
 62
3
  6
CONTINUOUS
 10
930.8386445484
 20
1305.0177958151
 11
930.8386445484
 21
1132.0177958151
  0
LWPOLYLINE
  5
4E5
100
AcDbEntity
  8
0
100
AcDbPolyline
 62
2
  6
CONTINUOUS
 90
5
 70
0
 10
1451.957446156
 20
338.3385472456
 10
1476.2791264534
 20
338.3385472456
 10
1476.2791264534
 20
365.7705472456
 10
1451.957446156
 20
365.7705472456
 10
1451.957446156
 20
338.3385472456
  0
LINE
  5
4E6
100
AcDbEntity
  8
0
100
AcDbLine
 62
3
  6
CONTINUOUS
 10
1214.0660243898
 20
474.7286600188
 11
1214.0660243898
 21
537.2286600188
  0
LINE
  5
4E7
100
AcDbEntity
  8
4_ALL_POINTS
100
AcDbLine
 62
3
  6
CONTINUOUS
 10
1223.6826279765
 20
546.8452636055
 11
1214.0660243898
 21
537.2286600188
  0
LINE
  5
4E8
100
AcDbEntity
  8
0
100
AcDbLine
 62
3
  6
CONTINUOUS
 10
1214.0660243898
 20
474.7286600188
 11
1229.0660243898
 21
459.7286600188
  0
LINE
  5
4E9
100
AcDbEntity
  8
3_AXES_OTHER
100
AcDbLine
 62
7
  6
CENTER
 10
1247.9660243898
 20
505.9786600188
 11
1247.9660243898
 21
485.7886600188
  0
LINE
  5
4EA
100
AcDbEntity
  8
3_AXES_OTHER
100
AcDbLine
 62
7
  6
CENTER
 10
1247.9660243898
 20
505.9786600188
 11
1247.9660243898
 21
526.1686600188
  0
LWPOLYLINE
  5
4EB
100
AcDbEntity
  8
0
100
AcDbPolyline
 62
2
  6
CONTINUOUS
 90
5
 70
0
 10
1450.3891625157
 20
399.9277352835
 10
1474.7108428131
 20
399.9277352835
 10
1474.7108428131
 20
427.3597352835
 10
1450.3891625157
 20
427.3597352835
 10
1450.3891625157
 20
399.9277352835
  0
LINE
  5
4EC
100
AcDbEntity
  8
3_AXES_OTHER
100
AcDbLine
 62
7
  6
CENTER
 10
1260.6660243898
 20
510.4786600188
 11
1260.6660243898
 21
490.2886600188
  0
LINE
  5
4ED
100
AcDbEntity
  8
3_AXES_OTHER
100
AcDbLine
 62
7
  6
CENTER
 10
1260.6660243898
 20
510.4786600188
 11
1260.6660243898
 21
530.6686600188
  0
LINE
  5
4EE
100
AcDbEntity
  8
3_AXES_OTHER
100
AcDbLine
 62
7
  6
CENTER
 10
1286.0660243898
 20
505.9786600188
 11
1286.0660243898
 21
485.7886600188
  0
LINE
  5
4EF
100
AcDbEntity
  8
3_AXES_OTHER
100
AcDbLine
 62
7
  6
CENTER
 10
1286.0660243898
 20
505.9786600188
 11
1286.0660243898
 21
526.1686600188
  0
LINE
  5
4F0
100
AcDbEntity
  8
4_ALL_POINTS
100
AcDbLine
 62
3
  6
CONTINUOUS
 10
1223.6826279765
 20
546.8452636055
 11
1256.8744078036
 21
507.2964997992
  0
LINE
  5
4F1
100
AcDbEntity
  8
4_ALL_POINTS
100
AcDbLine
 62
3
  6
CONTINUOUS
 10
1264.457640976
 20
513.6608202384
 11
1232.0891135382
 21
552.2286600188
  0
LINE
  5
4F2
100
AcDbEntity
  8
0
100
AcDbLine
 62
3
  6
CONTINUOUS
 10
1498.9780243898
 20
449.7286600188
 11
1509.9780243898
 21
449.7286600188
  0
LINE
  5
4F3
100
AcDbEntity
  8
0
100
AcDbLine
 62
7
  6
CONTINUOUS
 10
1498.9780243898
 20
452.2286600188
 11
1509.9780243898
 21
452.2286600188
  0
LINE
  5
4F4
100
AcDbEntity
  8
0
100
AcDbLine
 62
7
  6
CONTINUOUS
 10
1514.9780243898
 20
454.7286600188
 11
1512.4780243898
 21
454.7286600188
  0
LINE
  5
4F5
100
AcDbEntity
  8
0
100
AcDbLine
 62
3
  6
CONTINUOUS
 10
1229.0660243898
 20
459.7286600188
 11
1514.9780243898
 21
459.7286600188
  0
LINE
  5
4F6
100
AcDbEntity
  8
0
100
AcDbLine
 62
9
  6
CONTINUOUS
 10
1333.9780243898
 20
552.2286600188
 11
1333.9780243898
 21
459.7286600188
  0
LINE
  5
4F7
100
AcDbEntity
  8
0
100
AcDbLine
 62
3
  6
CONTINUOUS
 10
1334.9780243898
 20
459.7286600188
 11
1334.9780243898
 21
552.2286600188
  0
LINE
  5
4F8
100
AcDbEntity
  8
0
100
AcDbLine
 62
9
  6
CONTINUOUS
 10
1338.4780243898
 20
459.7286600188
 11
1338.4780243898
 21
552.2286600188
  0
LINE
  5
4F9
100
AcDbEntity
  8
3_AXES_OTHER
100
AcDbLine
 62
7
  6
CENTER
 10
1286.0660243898
 20
505.9786600188
 11
1265.8760243898
 21
505.9786600188
  0
LINE
  5
4FA
100
AcDbEntity
  8
3_AXES_OTHER
100
AcDbLine
 62
7
  6
CENTER
 10
1247.9660243898
 20
505.9786600188
 11
1227.7760243898
 21
505.9786600188
  0
LINE
  5
4FB
100
AcDbEntity
  8
3_AXES_OTHER
100
AcDbLine
 62
7
  6
CENTER
 10
1247.9660243898
 20
505.9786600188
 11
1265.8760243898
 21
505.9786600188
  0
LINE
  5
4FC
100
AcDbEntity
  8
3_AXES_OTHER
100
AcDbLine
 62
7
  6
CENTER
 10
1286.0660243898
 20
505.9786600188
 11
1306.2560243898
 21
505.9786600188
  0
LINE
  5
4FD
100
AcDbEntity
  8
3_AXES_OTHER
100
AcDbLine
 62
7
  6
CENTER
 10
1260.6660243898
 20
510.4786600188
 11
1240.4760243898
 21
510.4786600188
  0
LINE
  5
4FE
100
AcDbEntity
  8
3_AXES_OTHER
100
AcDbLine
 62
7
  6
CENTER
 10
1260.6660243898
 20
510.4786600188
 11
1280.8560243898
 21
510.4786600188
  0
LINE
  5
4FF
100
AcDbEntity
  8
4_ALL_POINTS
100
AcDbLine
 62
3
  6
CONTINUOUS
 10
1232.0891135382
 20
552.2286600188
 11
1333.9780243898
 21
552.2286600188
  0
LINE
  5
500
100
AcDbEntity
  8
0
100
AcDbLine
 62
3
  6
CONTINUOUS
 10
1333.9780243898
 20
552.2286600188
 11
1514.9780243898
 21
552.2286600188
  0
LINE
  5
501
100
AcDbEntity
  8
0
100
AcDbLine
 62
7
  6
CONTINUOUS
 10
1514.9780243898
 20
557.2286600188
 11
1512.4780243898
 21
557.2286600188
  0
LINE
  5
502
100
AcDbEntity
  8
0
100
AcDbLine
 62
7
  6
CONTINUOUS
 10
1498.9780243898
 20
559.7286600188
 11
1509.9780243898
 21
559.7286600188
  0
LINE
  5
503
100
AcDbEntity
  8
0
100
AcDbLine
 62
3
  6
CONTINUOUS
 10
1498.9780243898
 20
562.2286600188
 11
1509.9780243898
 21
562.2286600188
  0
LINE
  5
504
100
AcDbEntity
  8
0
100
AcDbLine
 62
7
  6
CONTINUOUS
 10
1498.9780243898
 20
562.2286600188
 11
1498.9780243898
 21
559.7286600188
  0
LINE
  5
505
100
AcDbEntity
  8
0
100
AcDbLine
 62
7
  6
CONTINUOUS
 10
1498.9780243898
 20
449.7286600188
 11
1498.9780243898
 21
452.2286600188
  0
LINE
  5
506
100
AcDbEntity
  8
0
100
AcDbLine
 62
9
  6
CONTINUOUS
 10
1509.9780243898
 20
562.2286600188
 11
1509.9780243898
 21
559.7286600188
  0
LINE
  5
507
100
AcDbEntity
  8
0
100
AcDbLine
 62
9
  6
CONTINUOUS
 10
1509.9780243898
 20
449.7286600188
 11
1509.9780243898
 21
452.2286600188
  0
LINE
  5
508
100
AcDbEntity
  8
0
100
AcDbLine
 62
9
  6
CONTINUOUS
 10
1511.4780243898
 20
459.7286600188
 11
1511.4780243898
 21
552.2286600188
  0
LINE
  5
509
100
AcDbEntity
  8
4_ALL_POINTS
100
AcDbLine
 62
7
  6
CONTINUOUS
 10
1512.4780243898
 20
557.2286600188
 11
1512.4780243898
 21
552.2286600188
  0
LINE
  5
50A
100
AcDbEntity
  8
4_ALL_POINTS
100
AcDbLine
 62
7
  6
CONTINUOUS
 10
1512.4780243898
 20
459.7286600188
 11
1512.4780243898
 21
454.7286600188
  0
LINE
  5
50B
100
AcDbEntity
  8
4_ALL_POINTS
100
AcDbLine
 62
3
  6
CONTINUOUS
 10
1514.9780243898
 20
557.2286600188
 11
1514.9780243898
 21
552.2286600188
  0
LINE
  5
50C
100
AcDbEntity
  8
4_ALL_POINTS
100
AcDbLine
 62
3
  6
CONTINUOUS
 10
1514.9780243898
 20
459.7286600188
 11
1514.9780243898
 21
454.7286600188
  0
LINE
  5
50D
100
AcDbEntity
  8
0
100
AcDbLine
 62
3
  6
CONTINUOUS
 10
1514.9780243898
 20
459.7286600188
 11
1514.9780243898
 21
552.2286600188
  0
LINE
  5
50E
100
AcDbEntity
  8
0
100
AcDbLine
 62
3
  6
CONTINUOUS
 10
1733.7855601041
 20
459.7286600188
 11
1733.7855601041
 21
552.2286600188
  0
LINE
  5
50F
100
AcDbEntity
  8
0
100
AcDbLine
 62
3
  6
CONTINUOUS
 10
1737.2855601041
 20
562.2286600188
 11
1737.2855601041
 21
557.2286600188
  0
LINE
  5
510
100
AcDbEntity
  8
0
100
AcDbLine
 62
3
  6
CONTINUOUS
 10
1737.2855601041
 20
449.7286600188
 11
1737.2855601041
 21
454.7286600188
  0
LINE
  5
511
100
AcDbEntity
  8
0
100
AcDbLine
 62
9
  6
CONTINUOUS
 10
1737.2855601041
 20
459.7286600188
 11
1737.2855601041
 21
552.2286600188
  0
LINE
  5
512
100
AcDbEntity
  8
0
100
AcDbLine
 62
3
  6
CONTINUOUS
 10
1737.2855601041
 20
449.7286600188
 11
2253.3855601041
 21
449.7286600188
  0
LINE
  5
513
100
AcDbEntity
  8
4_ALL_POINTS
100
AcDbLine
 62
9
  6
CONTINUOUS
 10
1737.2855601041
 20
454.7286600188
 11
2253.3855601041
 21
454.7286600188
  0
LINE
  5
514
100
AcDbEntity
  8
0
100
AcDbLine
 62
3
  6
CONTINUOUS
 10
2256.8855601041
 20
459.7286600188
 11
2253.3855601041
 21
459.7286600188
  0
LINE
  5
515
100
AcDbEntity
  8
0
100
AcDbLine
 62
3
  6
CONTINUOUS
 10
1733.7855601041
 20
459.7286600188
 11
1737.2855601041
 21
459.7286600188
  0
LINE
  5
516
100
AcDbEntity
  8
4_ALL_POINTS
100
AcDbLine
 62
3
  6
CONTINUOUS
 10
2211.2355601041
 20
472.4086600188
 11
2185.8355601041
 21
472.4086600188
  0
LINE
  5
517
100
AcDbEntity
  8
4_ALL_POINTS
100
AcDbLine
 62
3
  6
CONTINUOUS
 10
1804.8355601041
 20
472.4086600188
 11
1779.4355601041
 21
472.4086600188
  0
LINE
  5
518
100
AcDbEntity
  8
4_ALL_POINTS
100
AcDbLine
 62
3
  6
CONTINUOUS
 10
1779.4355601041
 20
480.8386600188
 11
1804.8355601041
 21
480.8386600188
  0
LINE
  5
519
100
AcDbEntity
  8
4_ALL_POINTS
100
AcDbLine
 62
3
  6
CONTINUOUS
 10
2185.8355601041
 20
480.8386600188
 11
2211.2355601041
 21
480.8386600188
  0
LINE
  5
51A
100
AcDbEntity
  8
4_ALL_POINTS
100
AcDbLine
 62
3
  6
CONTINUOUS
 10
2211.2355601041
 20
531.1186600188
 11
2185.8355601041
 21
531.1186600188
  0
LINE
  5
51B
100
AcDbEntity
  8
4_ALL_POINTS
100
AcDbLine
 62
3
  6
CONTINUOUS
 10
1804.8355601041
 20
531.1186600188
 11
1779.4355601041
 21
531.1186600188
  0
LINE
  5
51C
100
AcDbEntity
  8
4_ALL_POINTS
100
AcDbLine
 62
3
  6
CONTINUOUS
 10
1779.4355601041
 20
539.5486600188
 11
1804.8355601041
 21
539.5486600188
  0
LINE
  5
51D
100
AcDbEntity
  8
4_ALL_POINTS
100
AcDbLine
 62
3
  6
CONTINUOUS
 10
2185.8355601041
 20
539.5486600188
 11
2211.2355601041
 21
539.5486600188
  0
LINE
  5
51E
100
AcDbEntity
  8
0
100
AcDbLine
 62
3
  6
CONTINUOUS
 10
2256.8855601041
 20
552.2286600188
 11
2253.3855601041
 21
552.2286600188
  0
LINE
  5
51F
100
AcDbEntity
  8
0
100
AcDbLine
 62
3
  6
CONTINUOUS
 10
1733.7855601041
 20
552.2286600188
 11
1737.2855601041
 21
552.2286600188
  0
LINE
  5
520
100
AcDbEntity
  8
4_ALL_POINTS
100
AcDbLine
 62
9
  6
CONTINUOUS
 10
1737.2855601041
 20
557.2286600188
 11
2253.3855601041
 21
557.2286600188
  0
LINE
  5
521
100
AcDbEntity
  8
0
100
AcDbLine
 62
3
  6
CONTINUOUS
 10
1737.2855601041
 20
562.2286600188
 11
2253.3855601041
 21
562.2286600188
  0
LINE
  5
522
100
AcDbEntity
  8
0
100
AcDbLine
 62
3
  6
CONTINUOUS
 10
2253.3855601041
 20
562.2286600188
 11
2253.3855601041
 21
557.2286600188
  0
LINE
  5
523
100
AcDbEntity
  8
0
100
AcDbLine
 62
3
  6
CONTINUOUS
 10
2253.3855601041
 20
449.7286600188
 11
2253.3855601041
 21
454.7286600188
  0
LINE
  5
524
100
AcDbEntity
  8
0
100
AcDbLine
 62
9
  6
CONTINUOUS
 10
2253.3855601041
 20
459.7286600188
 11
2253.3855601041
 21
552.2286600188
  0
LINE
  5
525
100
AcDbEntity
  8
0
100
AcDbLine
 62
3
  6
CONTINUOUS
 10
2256.8855601041
 20
459.7286600188
 11
2256.8855601041
 21
552.2286600188
  0
LWPOLYLINE
  5
526
100
AcDbEntity
  8
0
100
AcDbPolyline
 62
7
  6
CONTINUOUS
 90
2
 70
1
 43
1.5
 10
1924.4749178228
 20
70.4935879982
 42
1.0
 10
1939.7149178228
 20
70.4935879982
 42
1.0
  0
LWPOLYLINE
  5
527
100
AcDbEntity
  8
0
100
AcDbPolyline
 62
7
  6
CONTINUOUS
 90
2
 70
1
 43
1.5
 10
1928.2849178228
 20
70.4935879982
 42
1.0
 10
1935.9049178228
 20
70.4935879982
 42
1.0
  0
ARC
  5
528
100
AcDbEntity
  8
0
100
AcDbCircle
 62
7
  6
CONTINUOUS
 10
2306.0764845708
 20
263.3455497065
 40
1.3575014169
100
AcDbArc
 50
90.0
 51
180.0
  0
ARC
  5
529
100
AcDbEntity
  8
0
100
AcDbCircle
 62
7
  6
CONTINUOUS
 10
2205.5236425036
 20
263.5914348458
 40
1.3575014169
100
AcDbArc
 50
90.0
 51
180.0
  0
ARC
  5
52A
100
AcDbEntity
  8
0
100
AcDbCircle
 62
7
  6
CONTINUOUS
 10
2337.3575171109
 20
266.0605525351
 40
1.3575014114
100
AcDbArc
 50
270.0
 51
360.0
  0
ARC
  5
52B
100
AcDbEntity
  8
0
100
AcDbCircle
 62
7
  6
CONTINUOUS
 10
2276.3723075829
 20
252.5205523389
 40
1.3575014114
100
AcDbArc
 50
0.0
 51
89.9999995368
  0
ARC
  5
52C
100
AcDbEntity
  8
0
100
AcDbCircle
 62
7
  6
CONTINUOUS
 10
2245.9798307973
 20
247.0336718671
 40
1.3575014114
100
AcDbArc
 50
90.0
 51
180.0
  0
ARC
  5
52D
100
AcDbEntity
  8
0
100
AcDbCircle
 62
7
  6
CONTINUOUS
 10
2245.9798307973
 20
244.4616995364
 40
1.3575014114
100
AcDbArc
 50
180.0
 51
270.0
  0
ARC
  5
52E
100
AcDbEntity
  8
0
100
AcDbCircle
 62
7
  6
CONTINUOUS
 10
2288.4191200346
 20
266.0063911217
 40
1.3575014114
100
AcDbArc
 50
270.0
 51
360.0
  0
ARC
  5
52F
100
AcDbEntity
  8
0
100
AcDbCircle
 62
7
  6
CONTINUOUS
 10
2288.4191200346
 20
268.7764883071
 40
1.3575014114
100
AcDbArc
 50
359.9999995369
 51
90.0
  0
ARC
  5
530
100
AcDbEntity
  8
0
100
AcDbCircle
 62
7
  6
CONTINUOUS
 10
2205.5236424983
 20
250.0550597685
 40
1.3575014114
100
AcDbArc
 50
180.0
 51
270.0
  0
ARC
  5
531
100
AcDbEntity
  8
0
100
AcDbCircle
 62
7
  6
CONTINUOUS
 10
2257.9853899212
 20
260.7228594573
 40
1.3575014114
100
AcDbArc
 50
180.0
 51
270.0
  0
ARC
  5
532
100
AcDbEntity
  8
0
100
AcDbCircle
 62
7
  6
CONTINUOUS
 10
2306.076484565
 20
249.8662730532
 40
1.3575014114
100
AcDbArc
 50
180.0
 51
270.0
  0
ARC
  5
533
100
AcDbEntity
  8
0
100
AcDbCircle
 62
7
  6
CONTINUOUS
 10
2337.3575171167
 20
268.7764883181
 40
1.3575014059
100
AcDbArc
 50
0.000000539
 51
89.9999999245
  0
ARC
  5
534
100
AcDbEntity
  8
0
100
AcDbCircle
 62
7
  6
CONTINUOUS
 10
2337.3575171181
 20
244.4164036793
 40
1.3575014041
100
AcDbArc
 50
270.1250535673
 51
360.0
  0
ARC
  5
535
100
AcDbEntity
  8
0
100
AcDbCircle
 62
7
  6
CONTINUOUS
 10
2337.3575171167
 20
247.1512702361
 40
1.3575014059
100
AcDbArc
 50
0.0
 51
90.0
  0
ARC
  5
536
100
AcDbEntity
  8
0
100
AcDbCircle
 62
7
  6
CONTINUOUS
 10
2257.9853899159
 20
263.2913883041
 40
1.3575014059
100
AcDbArc
 50
90.0
 51
180.0
  0
ARC
  5
537
100
AcDbEntity
  8
0
100
AcDbCircle
 62
7
  6
CONTINUOUS
 10
2232.6460365684
 20
250.0550597901
 40
1.3575014059
100
AcDbArc
 50
270.0
 51
360.0
  0
ARC
  5
538
100
AcDbEntity
  8
0
100
AcDbCircle
 62
7
  6
CONTINUOUS
 10
2232.6460365684
 20
263.5914348569
 40
1.3575014059
100
AcDbArc
 50
0.0000004631
 51
90.0000004631
  0
ARC
  5
539
100
AcDbEntity
  8
0
100
AcDbCircle
 62
7
  6
CONTINUOUS
 10
2276.3723075882
 20
249.7486746847
 40
1.3575014059
100
AcDbArc
 50
270.0
 51
360.0
  0
ARC
  5
53A
100
AcDbEntity
  8
0
100
AcDbCircle
 62
7
  6
CONTINUOUS
 10
2221.6375468562
 20
251.312722734
 40
0.5221159279
100
AcDbArc
 50
90.0000000001
 51
180.0
  0
ARC
  5
53B
100
AcDbEntity
  8
0
100
AcDbCircle
 62
7
  6
CONTINUOUS
 10
2221.7562939324
 20
240.4809056465
 40
0.5221159224
100
AcDbArc
 50
180.0
 51
270.0
  0
ARC
  5
53C
100
AcDbEntity
  8
0
100
AcDbCircle
 62
7
  6
CONTINUOUS
 10
2229.8861699441
 20
240.4809056465
 40
0.5221159224
100
AcDbArc
 50
270.0
 51
360.0
  0
ARC
  5
53D
100
AcDbEntity
  8
0
100
AcDbCircle
 62
7
  6
CONTINUOUS
 10
2229.7259911658
 20
251.3127227503
 40
0.5221159114
100
AcDbArc
 50
0.0
 51
89.9999987958
  0
ARC
  5
53E
100
AcDbEntity
  8
4_ALL_POINTS
100
AcDbCircle
 62
7
  6
CONTINUOUS
 10
2190.058688464
 20
1062.2419106976
 40
62.666074411
100
AcDbArc
 50
144.2053166479
 51
144.4870307454
  0
ARC
  5
53F
100
AcDbEntity
  8
6_ALL_SURFS
100
AcDbCircle
 62
7
  6
CONTINUOUS
 10
1793.4811212339
 20
1262.6089457307
 40
12.8497659038
100
AcDbArc
 50
228.9646029337
 51
230.754497383
  0
ARC
  5
540
100
AcDbEntity
  8
6_ALL_SURFS
100
AcDbCircle
 62
7
  6
CONTINUOUS
 10
1793.3440498856
 20
1262.4385052685
 40
12.63105227
100
AcDbArc
 50
230.7469022326
 51
239.9699563239
  0
ARC
  5
541
100
AcDbEntity
  8
4_ALL_POINTS
100
AcDbCircle
 62
7
  6
CONTINUOUS
 10
1818.2251005604
 20
1305.524826334
 40
12.6141773998
100
AcDbArc
 50
60.011723228
 51
68.9909384242
  0
ARC
  5
542
100
AcDbEntity
  8
4_ALL_POINTS
100
AcDbCircle
 62
7
  6
CONTINUOUS
 10
1785.5566091704
 20
1280.0560094016
 40
8.5700108394
100
AcDbArc
 50
328.7715823666
 51
333.2879559333
  0
ARC
  5
543
100
AcDbEntity
  8
4_ALL_POINTS
100
AcDbCircle
 62
7
  6
CONTINUOUS
 10
1812.4973775335
 20
1295.6143425237
 40
8.5700108394
100
AcDbArc
 50
328.7715823667
 51
333.2879559333
  0
ARC
  5
544
100
AcDbEntity
  8
4_ALL_POINTS
100
AcDbCircle
 62
7
  6
CONTINUOUS
 10
1785.7108406213
 20
1279.9543860436
 40
8.3854425304
100
AcDbArc
 50
321.8958334043
 51
328.8189839324
  0
ARC
  5
545
100
AcDbEntity
  8
4_ALL_POINTS
100
AcDbCircle
 62
7
  6
CONTINUOUS
 10
1812.6516089847
 20
1295.5127191657
 40
8.3854425302
100
AcDbArc
 50
321.8958334042
 51
328.8189839325
  0
ARC
  5
546
100
AcDbEntity
  8
4_ALL_POINTS
100
AcDbCircle
 62
7
  6
CONTINUOUS
 10
1785.9290582413
 20
1279.8757293766
 40
8.1562760812
100
AcDbArc
 50
333.2431492895
 51
341.0790902639
  0
ARC
  5
547
100
AcDbEntity
  8
4_ALL_POINTS
100
AcDbCircle
 62
7
  6
CONTINUOUS
 10
1812.8698266044
 20
1295.4340624987
 40
8.1562760812
100
AcDbArc
 50
333.2431492895
 51
341.0790902638
  0
ARC
  5
548
100
AcDbEntity
  8
4_ALL_POINTS
100
AcDbCircle
 62
7
  6
CONTINUOUS
 10
1786.2104495912
 20
1279.5648959044
 40
7.7519536899
100
AcDbArc
 50
316.7073925917
 51
321.8823867423
  0
ARC
  5
549
100
AcDbEntity
  8
4_ALL_POINTS
100
AcDbCircle
 62
7
  6
CONTINUOUS
 10
1813.1512179546
 20
1295.1232290265
 40
7.7519536898
100
AcDbArc
 50
316.7073925916
 51
321.8823867423
  0
ARC
  5
54A
100
AcDbEntity
  8
4_ALL_POINTS
100
AcDbCircle
 62
7
  6
CONTINUOUS
 10
1786.6886435071
 20
1279.6114570707
 40
7.3520407049
100
AcDbArc
 50
341.1078296469
 51
345.2797379662
  0
ARC
  5
54B
100
AcDbEntity
  8
4_ALL_POINTS
100
AcDbCircle
 62
7
  6
CONTINUOUS
 10
1813.6294118707
 20
1295.1697901927
 40
7.3520407045
100
AcDbArc
 50
341.1078296467
 51
345.2797379663
  0
ARC
  5
54C
100
AcDbEntity
  8
4_ALL_POINTS
100
AcDbCircle
 62
3
  6
CONTINUOUS
 10
2168.3519441972
 20
1091.3777400344
 40
4.8017487965
100
AcDbArc
 50
357.2934824121
 51
359.9782609378
  0
ARC
  5
54D
100
AcDbEntity
  8
4_ALL_POINTS
100
AcDbCircle
 62
3
  6
CONTINUOUS
 10
2141.411175834
 20
1075.8194069123
 40
4.8017487965
100
AcDbArc
 50
357.2934824121
 51
359.9782609378
  0
ARC
  5
54E
100
AcDbEntity
  8
4_ALL_POINTS
100
AcDbCircle
 62
3
  6
CONTINUOUS
 10
2141.9442980436
 20
1075.8224358293
 40
4.2686289974
100
AcDbArc
 50
359.9348901637
 51
5.5300298594
  0
ARC
  5
54F
100
AcDbEntity
  8
4_ALL_POINTS
100
AcDbCircle
 62
3
  6
CONTINUOUS
 10
2168.8850664067
 20
1091.3807689515
 40
4.2686289974
100
AcDbArc
 50
359.9348901637
 51
5.5300298594
  0
ARC
  5
550
100
AcDbEntity
  8
4_ALL_POINTS
100
AcDbCircle
 62
7
  6
CONTINUOUS
 10
1788.5639292575
 20
1276.4126959521
 40
3.7871712568
100
AcDbArc
 50
292.3200966308
 51
294.1746476797
  0
ARC
  5
551
100
AcDbEntity
  8
4_ALL_POINTS
100
AcDbCircle
 62
7
  6
CONTINUOUS
 10
1815.5046976209
 20
1291.9710290738
 40
3.7871712564
100
AcDbArc
 50
292.3200966306
 51
294.1746476798
  0
ARC
  5
552
100
AcDbEntity
  8
4_ALL_POINTS
100
AcDbCircle
 62
7
  6
CONTINUOUS
 10
1818.4006220427
 20
1295.139444664
 40
2.4992325288
100
AcDbArc
 50
19.8364599437
 51
25.8260958653
  0
ARC
  5
553
100
AcDbEntity
  8
4_ALL_POINTS
100
AcDbCircle
 62
7
  6
CONTINUOUS
 10
1791.4598536792
 20
1279.5811115418
 40
2.499232529
100
AcDbArc
 50
19.8364599439
 51
25.8260958649
  0
CIRCLE
  5
554
100
AcDbEntity
  8
3_HOLES
100
AcDbCircle
 62
7
  6
CONTINUOUS
 10
669.2886445484
 20
505.9786600188
 40
6.548
  0
ARC
  5
555
100
AcDbEntity
  8
4_ALL_POINTS
100
AcDbCircle
 62
7
  6
CONTINUOUS
 10
859.7886445484
 20
476.6236600188
 40
4.215
100
AcDbArc
 50
90.0
 51
270.0
  0
ARC
  5
556
100
AcDbEntity
  8
4_ALL_POINTS
100
AcDbCircle
 62
7
  6
CONTINUOUS
 10
885.1886445484
 20
476.6236600188
 40
4.215
100
AcDbArc
 50
270.0
 51
90.0
  0
ARC
  5
557
100
AcDbEntity
  8
4_ALL_POINTS
100
AcDbCircle
 62
7
  6
CONTINUOUS
 10
859.7886445484
 20
535.3336600188
 40
4.215
100
AcDbArc
 50
90.0
 51
270.0
  0
ARC
  5
558
100
AcDbEntity
  8
4_ALL_POINTS
100
AcDbCircle
 62
7
  6
CONTINUOUS
 10
885.1886445484
 20
535.3336600188
 40
4.215
100
AcDbArc
 50
270.0
 51
90.0
  0
ARC
  5
559
100
AcDbEntity
  8
4_ALL_POINTS
100
AcDbCircle
 62
7
  6
CONTINUOUS
 10
478.7886445484
 20
476.6236600188
 40
4.215
100
AcDbArc
 50
270.0
 51
90.0
  0
ARC
  5
55A
100
AcDbEntity
  8
4_ALL_POINTS
100
AcDbCircle
 62
7
  6
CONTINUOUS
 10
453.3886445484
 20
476.6236600188
 40
4.215
100
AcDbArc
 50
90.0
 51
270.0
  0
ARC
  5
55B
100
AcDbEntity
  8
4_ALL_POINTS
100
AcDbCircle
 62
7
  6
CONTINUOUS
 10
478.7886445484
 20
535.3336600188
 40
4.215
100
AcDbArc
 50
270.0
 51
90.0
  0
ARC
  5
55C
100
AcDbEntity
  8
4_ALL_POINTS
100
AcDbCircle
 62
7
  6
CONTINUOUS
 10
453.3886445484
 20
535.3336600188
 40
4.215
100
AcDbArc
 50
90.0
 51
270.0
  0
CIRCLE
  5
55D
100
AcDbEntity
  8
3_HOLES
100
AcDbCircle
 62
7
  6
CONTINUOUS
 10
637.5386445484
 20
505.9786600188
 40
3.264
  0
CIRCLE
  5
55E
100
AcDbEntity
  8
3_HOLES
100
AcDbCircle
 62
7
  6
CONTINUOUS
 10
701.0386445484
 20
505.9786600188
 40
3.264
  0
ARC
  5
55F
100
AcDbEntity
  8
4_ALL_POINTS
100
AcDbCircle
 62
7
  6
CONTINUOUS
 10
927.3386445484
 20
554.7286600188
 40
2.5
100
AcDbArc
 50
90.0
 51
270.0
  0
ARC
  5
560
100
AcDbEntity
  8
4_ALL_POINTS
100
AcDbCircle
 62
7
  6
CONTINUOUS
 10
927.3386445484
 20
457.2286600188
 40
2.5
100
AcDbArc
 50
90.0
 51
270.0
  0
ARC
  5
561
100
AcDbEntity
  8
4_ALL_POINTS
100
AcDbCircle
 62
7
  6
CONTINUOUS
 10
411.2386445484
 20
457.2286600188
 40
2.5
100
AcDbArc
 50
270.0
 51
90.0
  0
ARC
  5
562
100
AcDbEntity
  8
4_ALL_POINTS
100
AcDbCircle
 62
7
  6
CONTINUOUS
 10
411.2386445484
 20
554.7286600188
 40
2.5
100
AcDbArc
 50
270.0
 51
90.0
  0
ARC
  5
563
100
AcDbEntity
  8
0
100
AcDbCircle
 62
7
  6
CONTINUOUS
 10
921.8386445484
 20
1127.5177958151
 40
3.5
100
AcDbArc
 50
90.0
 51
180.0
  0
ARC
  5
564
100
AcDbEntity
  8
0
100
AcDbCircle
 62
7
  6
CONTINUOUS
 10
416.7386445484
 20
1127.5177958151
 40
3.5
100
AcDbArc
 50
0.0
 51
90.0
  0
ARC
  5
565
100
AcDbEntity
  8
0
100
AcDbCircle
 62
3
  6
CONTINUOUS
 10
927.3386445484
 20
1305.0177958151
 40
3.5
100
AcDbArc
 50
0.0
 51
90.0
  0
ARC
  5
566
100
AcDbEntity
  8
0
100
AcDbCircle
 62
3
  6
CONTINUOUS
 10
411.2386445484
 20
1305.0177958151
 40
3.5
100
AcDbArc
 50
90.0
 51
180.0
  0
ARC
  5
567
100
AcDbEntity
  8
0
100
AcDbCircle
 62
3
  6
CONTINUOUS
 10
927.3386445484
 20
1132.0177958151
 40
3.5
100
AcDbArc
 50
270.0
 51
360.0
  0
ARC
  5
568
100
AcDbEntity
  8
0
100
AcDbCircle
 62
3
  6
CONTINUOUS
 10
411.2386445484
 20
1132.0177958151
 40
3.5
100
AcDbArc
 50
180.0
 51
270.0
  0
ARC
  5
569
100
AcDbEntity
  8
0
100
AcDbCircle
 62
7
  6
CONTINUOUS
 10
927.3386445484
 20
1305.0177958151
 40
1.0
100
AcDbArc
 50
0.0
 51
90.0
  0
ARC
  5
56A
100
AcDbEntity
  8
0
100
AcDbCircle
 62
7
  6
CONTINUOUS
 10
411.2386445484
 20
1305.0177958151
 40
1.0
100
AcDbArc
 50
90.0
 51
180.0
  0
ARC
  5
56B
100
AcDbEntity
  8
0
100
AcDbCircle
 62
7
  6
CONTINUOUS
 10
927.3386445484
 20
1132.0177958151
 40
1.0
100
AcDbArc
 50
270.0
 51
360.0
  0
ARC
  5
56C
100
AcDbEntity
  8
0
100
AcDbCircle
 62
7
  6
CONTINUOUS
 10
411.2386445484
 20
1132.0177958151
 40
1.0
100
AcDbArc
 50
180.0
 51
270.0
  0
ARC
  5
56D
100
AcDbEntity
  8
0
100
AcDbCircle
 62
3
  6
CONTINUOUS
 10
921.8386445484
 20
1127.5177958151
 40
1.0
100
AcDbArc
 50
90.0
 51
180.0
  0
ARC
  5
56E
100
AcDbEntity
  8
0
100
AcDbCircle
 62
3
  6
CONTINUOUS
 10
416.7386445484
 20
1127.5177958151
 40
1.0
100
AcDbArc
 50
0.0
 51
90.0
  0
ARC
  5
56F
100
AcDbEntity
  8
0
100
AcDbCircle
 62
3
  6
CONTINUOUS
 10
1509.9780243898
 20
557.2286600188
 40
5.0
100
AcDbArc
 50
0.0
 51
90.0
  0
ARC
  5
570
100
AcDbEntity
  8
0
100
AcDbCircle
 62
3
  6
CONTINUOUS
 10
1509.9780243898
 20
454.7286600188
 40
5.0
100
AcDbArc
 50
270.0
 51
360.0
  0
ARC
  5
571
100
AcDbEntity
  8
4_ALL_POINTS
100
AcDbCircle
 62
3
  6
CONTINUOUS
 10
1260.6660243898
 20
510.4786600188
 40
4.95
100
AcDbArc
 50
220.0054632513
 51
40.0054632513
  0
CIRCLE
  5
572
100
AcDbEntity
  8
4_ALL_POINTS
100
AcDbCircle
 62
3
  6
CONTINUOUS
 10
1247.9660243898
 20
505.9786600188
 40
4.95
  0
CIRCLE
  5
573
100
AcDbEntity
  8
4_ALL_POINTS
100
AcDbCircle
 62
3
  6
CONTINUOUS
 10
1286.0660243898
 20
505.9786600188
 40
4.95
  0
ARC
  5
574
100
AcDbEntity
  8
0
100
AcDbCircle
 62
7
  6
CONTINUOUS
 10
1509.9780243898
 20
557.2286600188
 40
2.5
100
AcDbArc
 50
0.0
 51
90.0
  0
ARC
  5
575
100
AcDbEntity
  8
0
100
AcDbCircle
 62
7
  6
CONTINUOUS
 10
1509.9780243898
 20
454.7286600188
 40
2.5
100
AcDbArc
 50
270.0
 51
360.0
  0
CIRCLE
  5
576
100
AcDbEntity
  8
3_HOLES
100
AcDbCircle
 62
3
  6
CONTINUOUS
 10
1995.3355601041
 20
505.9786600188
 40
6.548
  0
ARC
  5
577
100
AcDbEntity
  8
4_ALL_POINTS
100
AcDbCircle
 62
3
  6
CONTINUOUS
 10
2211.2355601041
 20
535.3336600188
 40
4.215
100
AcDbArc
 50
270.0
 51
90.0
  0
ARC
  5
578
100
AcDbEntity
  8
4_ALL_POINTS
100
AcDbCircle
 62
3
  6
CONTINUOUS
 10
2185.8355601041
 20
535.3336600188
 40
4.215
100
AcDbArc
 50
90.0
 51
270.0
  0
ARC
  5
579
100
AcDbEntity
  8
4_ALL_POINTS
100
AcDbCircle
 62
3
  6
CONTINUOUS
 10
2211.2355601041
 20
476.6236600188
 40
4.215
100
AcDbArc
 50
270.0
 51
90.0
  0
ARC
  5
57A
100
AcDbEntity
  8
4_ALL_POINTS
100
AcDbCircle
 62
3
  6
CONTINUOUS
 10
2185.8355601041
 20
476.6236600188
 40
4.215
100
AcDbArc
 50
90.0
 51
270.0
  0
ARC
  5
57B
100
AcDbEntity
  8
4_ALL_POINTS
100
AcDbCircle
 62
3
  6
CONTINUOUS
 10
1779.4355601041
 20
535.3336600188
 40
4.215
100
AcDbArc
 50
90.0
 51
270.0
  0
ARC
  5
57C
100
AcDbEntity
  8
4_ALL_POINTS
100
AcDbCircle
 62
3
  6
CONTINUOUS
 10
1804.8355601041
 20
535.3336600188
 40
4.215
100
AcDbArc
 50
270.0
 51
90.0
  0
ARC
  5
57D
100
AcDbEntity
  8
4_ALL_POINTS
100
AcDbCircle
 62
3
  6
CONTINUOUS
 10
1779.4355601041
 20
476.6236600188
 40
4.215
100
AcDbArc
 50
90.0
 51
270.0
  0
ARC
  5
57E
100
AcDbEntity
  8
4_ALL_POINTS
100
AcDbCircle
 62
3
  6
CONTINUOUS
 10
1804.8355601041
 20
476.6236600188
 40
4.215
100
AcDbArc
 50
270.0
 51
90.0
  0
CIRCLE
  5
57F
100
AcDbEntity
  8
3_HOLES
100
AcDbCircle
 62
3
  6
CONTINUOUS
 10
1963.5855601041
 20
505.9786600188
 40
3.264
  0
CIRCLE
  5
580
100
AcDbEntity
  8
3_HOLES
100
AcDbCircle
 62
3
  6
CONTINUOUS
 10
2027.0855601041
 20
505.9786600188
 40
3.264
  0
ARC
  5
581
100
AcDbEntity
  8
4_ALL_POINTS
100
AcDbCircle
 62
3
  6
CONTINUOUS
 10
1737.2855601041
 20
554.7286600188
 40
2.5
100
AcDbArc
 50
270.0
 51
90.0
  0
ARC
  5
582
100
AcDbEntity
  8
4_ALL_POINTS
100
AcDbCircle
 62
3
  6
CONTINUOUS
 10
2253.3855601041
 20
554.7286600188
 40
2.5
100
AcDbArc
 50
90.0
 51
270.0
  0
ARC
  5
583
100
AcDbEntity
  8
4_ALL_POINTS
100
AcDbCircle
 62
3
  6
CONTINUOUS
 10
2253.3855601041
 20
457.2286600188
 40
2.5
100
AcDbArc
 50
90.0
 51
270.0
  0
ARC
  5
584
100
AcDbEntity
  8
4_ALL_POINTS
100
AcDbCircle
 62
3
  6
CONTINUOUS
 10
1737.2855601041
 20
457.2286600188
 40
2.5
100
AcDbArc
 50
270.0
 51
90.0
  0
SPLINE
  5
585
100
AcDbEntity
  8
0
100
AcDbSpline
 62
7
  6
CONTINUOUS
 70
0
 71
3
 72
13
 73
9
 74
0
 42
0.0000001
 43
0.0000001
 44
0.0000000001
 40
0.0
 40
0.0
 40
0.0
 40
0.0
 40
0.1317357684
 40
0.2713541552
 40
0.4178991716
 40
0.5930152361
 40
0.7698067128
 40
1.0
 40
1.0
 40
1.0
 40
1.0
 10
2300.8627159627
 20
270.1339897241
 30
0.0
 10
2300.0955620215
 20
270.0768515893
 30
0.0
 10
2298.515350319
 20
269.9591563819
 30
0.0
 10
2296.3738487557
 20
268.632159958
 30
0.0
 10
2294.8365061918
 20
266.4043719495
 30
0.0
 10
2293.8368466287
 20
263.6802776133
 30
0.0
 10
2293.2737773199
 20
260.3503018883
 30
0.0
 10
2293.2219338684
 20
257.9972825642
 30
0.0
 10
2293.1950646085
 20
256.6662243939
 30
0.0
  0
SPLINE
  5
586
100
AcDbEntity
  8
0
100
AcDbSpline
 62
7
  6
CONTINUOUS
 70
0
 71
3
 72
13
 73
9
 74
0
 42
0.0000001
 43
0.0000001
 44
0.0000000001
 40
0.0
 40
0.0
 40
0.0
 40
0.0
 40
0.2249509061
 40
0.4029463322
 40
0.5792549365
 40
0.726797924
 40
0.8673671114
 40
1.0
 40
1.0
 40
1.0
 40
1.0
 10
2293.1974471654
 20
256.4596692355
 30
0.0
 10
2293.2237868781
 20
255.1677395871
 30
0.0
 10
2293.280308539
 20
252.8542563917
 30
0.0
 10
2293.8368461679
 20
249.5628811117
 30
0.0
 10
2294.8365177023
 20
246.8390914463
 30
0.0
 10
2296.3738123151
 20
244.6103579774
 30
0.0
 10
2298.5154773182
 20
243.2865336254
 30
0.0
 10
2300.0953037656
 20
243.1613691782
 30
0.0
 10
2300.8627159627
 20
243.1042118301
 30
0.0
  0
SPLINE
  5
587
100
AcDbEntity
  8
0
100
AcDbSpline
 62
7
  6
CONTINUOUS
 70
0
 71
3
 72
13
 73
9
 74
0
 42
0.0000001
 43
0.0000001
 44
0.0000000001
 40
0.0
 40
0.0
 40
0.0
 40
0.0
 40
0.1604571392
 40
0.3334692485
 40
0.4767982758
 40
0.6242014838
 40
0.7505998515
 40
1.0
 40
1.0
 40
1.0
 40
1.0
 10
2283.7105406403
 20
243.104198125
 30
0.0
 10
2284.3466851212
 20
243.1348273466
 30
0.0
 10
2285.6687491837
 20
243.198482337
 30
0.0
 10
2287.4465508609
 20
243.9703223002
 30
0.0
 10
2288.7861830016
 20
245.267720858
 30
0.0
 10
2289.5411184009
 20
246.7551381804
 30
0.0
 10
2290.1199161102
 20
248.7505237553
 30
0.0
 10
2290.1434037398
 20
250.2437756556
 30
0.0
 10
2290.1589913922
 20
251.2347780855
 30
0.0
  0
SPLINE
  5
588
100
AcDbEntity
  8
0
100
AcDbSpline
 62
7
  6
CONTINUOUS
 70
0
 71
3
 72
13
 73
9
 74
0
 42
0.0000001
 43
0.0000001
 44
0.0000000001
 40
0.0
 40
0.0
 40
0.0
 40
0.0
 40
0.2494001485
 40
0.3757985162
 40
0.5232017242
 40
0.6665307515
 40
0.8395428608
 40
1.0
 40
1.0
 40
1.0
 40
1.0
 10
2290.1589913922
 20
251.2347780855
 30
0.0
 10
2290.1434037398
 20
252.2257805264
 30
0.0
 10
2290.1199161102
 20
253.7190324158
 30
0.0
 10
2289.5411184009
 20
255.7144180126
 30
0.0
 10
2288.7861830016
 20
257.201835335
 30
0.0
 10
2287.4465508609
 20
258.4992338708
 30
0.0
 10
2285.6687491837
 20
259.2710738341
 30
0.0
 10
2284.3466851212
 20
259.3347288464
 30
0.0
 10
2283.7105406403
 20
259.365358046
 30
0.0
  0
SPLINE
  5
589
100
AcDbEntity
  8
0
100
AcDbSpline
 62
7
  6
CONTINUOUS
 70
0
 71
3
 72
13
 73
9
 74
0
 42
0.0000001
 43
0.0000001
 44
0.0000000001
 40
0.0
 40
0.0
 40
0.0
 40
0.0
 40
0.1133740464
 40
0.2392044088
 40
0.3655787964
 40
0.4912154373
 40
0.7445390876
 40
1.0
 40
1.0
 40
1.0
 40
1.0
 10
2250.2996252669
 20
270.1339897186
 30
0.0
 10
2249.8641558622
 20
270.1125408133
 30
0.0
 10
2248.9453723858
 20
270.0672864185
 30
0.0
 10
2247.5806104153
 20
269.6595363146
 30
0.0
 10
2246.3596978258
 20
268.83616185
 30
0.0
 10
2245.1125247363
 20
267.3194746933
 30
0.0
 10
2244.3277243162
 20
264.9384776481
 30
0.0
 10
2244.242612586
 20
262.986240645
 30
0.0
 10
2244.199877985
 20
262.0060217344
 30
0.0
  0
SPLINE
  5
58A
100
AcDbEntity
  8
0
100
AcDbSpline
 62
7
  6
CONTINUOUS
 70
0
 71
3
 72
13
 73
9
 74
0
 42
0.0000001
 43
0.0000001
 44
0.0000000001
 40
0.0
 40
0.0
 40
0.0
 40
0.0
 40
0.2554609124
 40
0.5087845627
 40
0.6344212036
 40
0.7607955912
 40
0.8866259536
 40
1.0
 40
1.0
 40
1.0
 40
1.0
 10
2244.199877985
 20
262.0060217344
 30
0.0
 10
2244.242612586
 20
261.0258028127
 30
0.0
 10
2244.3277243162
 20
259.0735657987
 30
0.0
 10
2245.1125247363
 20
256.6925687644
 30
0.0
 10
2246.3596978258
 20
255.1758816077
 30
0.0
 10
2247.5806104153
 20
254.3525071541
 30
0.0
 10
2248.9453723858
 20
253.9447570392
 30
0.0
 10
2249.8641558622
 20
253.8995026444
 30
0.0
 10
2250.2996252669
 20
253.8780537501
 30
0.0
  0
SPLINE
  5
58B
100
AcDbEntity
  8
0
100
AcDbSpline
 62
7
  6
CONTINUOUS
 70
0
 71
3
 72
12
 73
8
 74
0
 42
0.0000001
 43
0.0000001
 44
0.0000000001
 40
0.0
 40
0.0
 40
0.0
 40
0.0
 40
0.2415790084
 40
0.4893269843
 40
0.7378634303
 40
0.8656387112
 40
1.0
 40
1.0
 40
1.0
 40
1.0
 10
2234.5559077497
 20
243.104198136
 30
0.0
 10
2235.2996172065
 20
243.1273192191
 30
0.0
 10
2236.806027546
 20
243.1741518318
 30
0.0
 10
2239.0105018768
 20
243.9603260026
 30
0.0
 10
2240.349322535
 20
245.444414792
 30
0.0
 10
2240.9391624803
 20
246.9272940277
 30
0.0
 10
2240.9497922596
 20
247.7396121344
 30
0.0
 10
2240.9552406827
 20
248.1559756559
 30
0.0
  0
SPLINE
  5
58C
100
AcDbEntity
  8
0
100
AcDbSpline
 62
7
  6
CONTINUOUS
 70
0
 71
3
 72
12
 73
8
 74
0
 42
0.0000001
 43
0.0000001
 44
0.0000000001
 40
0.0
 40
0.0
 40
0.0
 40
0.0
 40
0.1343612888
 40
0.2621365697
 40
0.5106730157
 40
0.7584209916
 40
1.0
 40
1.0
 40
1.0
 40
1.0
 10
2240.9552406827
 20
265.0505094807
 30
0.0
 10
2240.9497922596
 20
265.4668730241
 30
0.0
 10
2240.9391624803
 20
266.2791911308
 30
0.0
 10
2240.349322535
 20
267.7620703665
 30
0.0
 10
2239.0105018768
 20
269.2461591559
 30
0.0
 10
2236.806027546
 20
270.0323333157
 30
0.0
 10
2235.2996172065
 20
270.0791659174
 30
0.0
 10
2234.5559077497
 20
270.1022870115
 30
0.0
  0
SPLINE
  5
58D
100
AcDbEntity
  8
0
100
AcDbSpline
 62
7
  6
CONTINUOUS
 70
0
 71
3
 72
12
 73
8
 74
0
 42
0.0000001
 43
0.0000001
 44
0.0000000001
 40
0.0
 40
0.0
 40
0.0
 40
0.0
 40
0.1341799809
 40
0.290831959
 40
0.5815217441
 40
0.760783857
 40
1.0
 40
1.0
 40
1.0
 40
1.0
 10
2200.1414392304
 20
270.1022870115
 30
0.0
 10
2199.3907985741
 20
269.9739953931
 30
0.0
 10
2197.7638025832
 20
269.6959263165
 30
0.0
 10
2195.0250159421
 20
267.6497851774
 30
0.0
 10
2193.7277876054
 20
264.20735819
 30
0.0
 10
2192.9687908985
 20
260.3050499404
 30
0.0
 10
2192.9118153917
 20
257.944756034
 30
0.0
 10
2192.8792462778
 20
256.5955332381
 30
0.0
  0
SPLINE
  5
58E
100
AcDbEntity
  8
0
100
AcDbSpline
 62
7
  6
CONTINUOUS
 70
0
 71
3
 72
12
 73
8
 74
0
 42
0.0000001
 43
0.0000001
 44
0.0000000001
 40
0.0
 40
0.0
 40
0.0
 40
0.0
 40
0.2392679579
 40
0.4185688994
 40
0.7093216488
 40
0.8660075581
 40
1.0
 40
1.0
 40
1.0
 40
1.0
 10
2192.8792462778
 20
256.5955332381
 30
0.0
 10
2192.9118284054
 20
255.2463630239
 30
0.0
 10
2192.9688266479
 20
252.8861611135
 30
0.0
 10
2193.7276595748
 20
248.9831906554
 30
0.0
 10
2195.0256804987
 20
245.5439685156
 30
0.0
 10
2197.7616156712
 20
243.4911831486
 30
0.0
 10
2199.3905555375
 20
243.2262999321
 30
0.0
 10
2200.1414392304
 20
243.104198136
 30
0.0
  0
SPLINE
  5
58F
100
AcDbEntity
  8
4_ALL_POINTS
100
AcDbSpline
 62
7
  6
CONTINUOUS
 70
0
 71
3
 72
8
 73
4
 74
0
 42
0.0000001
 43
0.0000001
 44
0.0000000001
 40
0.0
 40
0.0
 40
0.0
 40
0.0
 40
1.0
 40
1.0
 40
1.0
 40
1.0
 10
2141.9305407389
 20
1069.4055757083
 30
0.0
 10
2141.9893048599
 20
1069.4239583661
 30
0.0
 10
2142.0475156663
 20
1069.443740892
 30
0.0
 10
2142.1051728871
 20
1069.4648677271
 30
0.0
  0
SPLINE
  5
590
100
AcDbEntity
  8
4_ALL_POINTS
100
AcDbSpline
 62
7
  6
CONTINUOUS
 70
0
 71
3
 72
9
 73
5
 74
0
 42
0.0000001
 43
0.0000001
 44
0.0000000001
 40
0.0
 40
0.0
 40
0.0
 40
0.0
 40
0.2667157287
 40
1.0
 40
1.0
 40
1.0
 40
1.0
 10
2146.1906365306
 20
1075.3493974399
 30
0.0
 10
2146.2014890777
 20
1075.4661703689
 30
0.0
 10
2146.2279143241
 20
1075.9049064183
 30
0.0
 10
2146.195640855
 20
1076.3493514439
 30
0.0
 10
2146.1256253886
 20
1076.6640862158
 30
0.0
  0
SPLINE
  5
591
100
AcDbEntity
  8
4_ALL_POINTS
100
AcDbSpline
 62
7
  6
CONTINUOUS
 70
0
 71
3
 72
8
 73
4
 74
0
 42
0.0000001
 43
0.0000001
 44
0.0000000001
 40
0.0
 40
0.0
 40
0.0
 40
0.0
 40
1.0
 40
1.0
 40
1.0
 40
1.0
 10
2146.1256253886
 20
1076.6640862158
 30
0.0
 10
2146.0775495454
 20
1076.8801976028
 30
0.0
 10
2146.006537388
 20
1077.0933925257
 30
0.0
 10
2145.907695674
 20
1077.2914978862
 30
0.0
  0
SPLINE
  5
592
100
AcDbEntity
  8
4_ALL_POINTS
100
AcDbSpline
 62
7
  6
CONTINUOUS
 70
0
 71
3
 72
8
 73
4
 74
0
 42
0.0000001
 43
0.0000001
 44
0.0000000001
 40
0.0
 40
0.0
 40
0.0
 40
0.0
 40
1.0
 40
1.0
 40
1.0
 40
1.0
 10
2168.8713091022
 20
1084.9639088305
 30
0.0
 10
2168.9300732231
 20
1084.9822914882
 30
0.0
 10
2168.9882840295
 20
1085.0020740141
 30
0.0
 10
2169.0459412503
 20
1085.0232008493
 30
0.0
  0
SPLINE
  5
593
100
AcDbEntity
  8
4_ALL_POINTS
100
AcDbSpline
 62
7
  6
CONTINUOUS
 70
0
 71
3
 72
9
 73
5
 74
0
 42
0.0000001
 43
0.0000001
 44
0.0000000001
 40
0.0
 40
0.0
 40
0.0
 40
0.0
 40
0.2667157287
 40
1.0
 40
1.0
 40
1.0
 40
1.0
 10
2173.1314048938
 20
1090.907730562
 30
0.0
 10
2173.1422574409
 20
1091.024503491
 30
0.0
 10
2173.1686826873
 20
1091.4632395405
 30
0.0
 10
2173.1364092183
 20
1091.907684566
 30
0.0
 10
2173.0663937518
 20
1092.222419338
 30
0.0
  0
SPLINE
  5
594
100
AcDbEntity
  8
4_ALL_POINTS
100
AcDbSpline
 62
7
  6
CONTINUOUS
 70
0
 71
3
 72
8
 73
4
 74
0
 42
0.0000001
 43
0.0000001
 44
0.0000000001
 40
0.0
 40
0.0
 40
0.0
 40
0.0
 40
1.0
 40
1.0
 40
1.0
 40
1.0
 10
2173.0663937518
 20
1092.222419338
 30
0.0
 10
2173.0183179086
 20
1092.438530725
 30
0.0
 10
2172.9473057512
 20
1092.6517256478
 30
0.0
 10
2172.8484640372
 20
1092.8498310083
 30
0.0
  0
SPLINE
  5
595
100
AcDbEntity
  8
4_ALL_POINTS
100
AcDbSpline
 62
7
  6
CONTINUOUS
 70
0
 71
3
 72
9
 73
5
 74
0
 42
0.0000001
 43
0.0000001
 44
0.0000000001
 40
0.0
 40
0.0
 40
0.0
 40
0.0
 40
0.4355188168
 40
1.0
 40
1.0
 40
1.0
 40
1.0
 10
1821.6867918708
 20
1296.0217877301
 30
0.0
 10
1821.272855427
 20
1296.2604297751
 30
0.0
 10
1820.0628052516
 20
1296.3306429795
 30
0.0
 10
1819.0916532484
 20
1295.7453215809
 30
0.0
 10
1818.6035936955
 20
1295.3641268388
 30
0.0
  0
SPLINE
  5
596
100
AcDbEntity
  8
4_ALL_POINTS
100
AcDbSpline
 62
7
  6
CONTINUOUS
 70
0
 71
3
 72
9
 73
5
 74
0
 42
0.0000001
 43
0.0000001
 44
0.0000000001
 40
0.0
 40
0.0
 40
0.0
 40
0.0
 40
0.510159341
 40
1.0
 40
1.0
 40
1.0
 40
1.0
 10
1818.6035936955
 20
1295.3641268388
 30
0.0
 10
1817.73414862
 20
1294.6850541945
 30
0.0
 10
1816.378481526
 20
1292.9194460836
 30
0.0
 10
1815.7112147582
 20
1290.7733109724
 30
0.0
 10
1815.7112147582
 20
1289.7140388306
 30
0.0
  0
SPLINE
  5
597
100
AcDbEntity
  8
0
100
AcDbSpline
 62
7
  6
CONTINUOUS
 70
0
 71
3
 72
9
 73
5
 74
0
 42
0.0000001
 43
0.0000001
 44
0.0000000001
 40
0.0
 40
0.0
 40
0.0
 40
0.0
 40
0.2953793213
 40
1.0
 40
1.0
 40
1.0
 40
1.0
 10
2334.3471687009
 20
1220.9959363832
 30
0.0
 10
2334.456827764
 20
1221.0592646524
 30
0.0
 10
2334.8371731822
 20
1221.2465824606
 30
0.0
 10
2335.33576658
 20
1221.2708510528
 30
0.0
 10
2335.5973561015
 20
1221.11978344
 30
0.0
  0
SPLINE
  5
598
100
AcDbEntity
  8
0
100
AcDbSpline
 62
7
  6
CONTINUOUS
 70
0
 71
3
 72
9
 73
5
 74
0
 42
0.0000001
 43
0.0000001
 44
0.0000000001
 40
0.0
 40
0.0
 40
0.0
 40
0.0
 40
0.500025651
 40
1.0
 40
1.0
 40
1.0
 40
1.0
 10
1969.4093589305
 20
1343.9861677209
 30
0.0
 10
1969.9340433235
 20
1344.289173725
 30
0.0
 10
1970.7629533403
 20
1345.2459342677
 30
0.0
 10
1971.1771258835
 20
1346.4421989915
 30
0.0
 10
1971.1771258835
 20
1347.0480298469
 30
0.0
  0
SPLINE
  5
599
100
AcDbEntity
  8
4_ALL_POINTS
100
AcDbSpline
 62
7
  6
CONTINUOUS
 70
0
 71
3
 72
9
 73
5
 74
0
 42
0.0000001
 43
0.0000001
 44
0.0000000001
 40
0.0
 40
0.0
 40
0.0
 40
0.0
 40
0.4355188168
 40
1.0
 40
1.0
 40
1.0
 40
1.0
 10
1794.7460235076
 20
1280.463454608
 30
0.0
 10
1794.3320870638
 20
1280.702096653
 30
0.0
 10
1793.1220368884
 20
1280.7723098574
 30
0.0
 10
1792.1508848852
 20
1280.1869884588
 30
0.0
 10
1791.6628253322
 20
1279.8057937167
 30
0.0
  0
SPLINE
  5
59A
100
AcDbEntity
  8
4_ALL_POINTS
100
AcDbSpline
 62
7
  6
CONTINUOUS
 70
0
 71
3
 72
9
 73
5
 74
0
 42
0.0000001
 43
0.0000001
 44
0.0000000001
 40
0.0
 40
0.0
 40
0.0
 40
0.0
 40
0.510159341
 40
1.0
 40
1.0
 40
1.0
 40
1.0
 10
1791.6628253322
 20
1279.8057937167
 30
0.0
 10
1790.7933802568
 20
1279.1267210723
 30
0.0
 10
1789.4377131628
 20
1277.3611129615
 30
0.0
 10
1788.770446395
 20
1275.2149778503
 30
0.0
 10
1788.770446395
 20
1274.1557057085
 30
0.0
  0
SPLINE
  5
59B
100
AcDbEntity
  8
0
100
AcDbSpline
 62
7
  6
CONTINUOUS
 70
0
 71
3
 72
9
 73
5
 74
0
 42
0.0000001
 43
0.0000001
 44
0.0000000001
 40
0.0
 40
0.0
 40
0.0
 40
0.0
 40
0.2953286985
 40
1.0
 40
1.0
 40
1.0
 40
1.0
 10
2336.1149356538
 20
1215.0771916057
 30
0.0
 10
2336.1587899341
 20
1215.1025175167
 30
0.0
 10
2336.2997217486
 20
1215.1968444747
 30
0.0
 10
2336.4077824146
 20
1215.3647123685
 30
0.0
 10
2336.4077824146
 20
1215.4855468057
 30
0.0
  0
SPLINE
  5
59C
100
AcDbEntity
  8
6_ALL_SURFS
100
AcDbSpline
 62
7
  6
CONTINUOUS
 70
0
 71
3
 72
15
 73
11
 74
0
 42
0.0000001
 43
0.0000001
 44
0.0000000001
 40
0.0
 40
0.0
 40
0.0
 40
0.0
 40
0.0869261962
 40
0.1863949337
 40
0.303791437
 40
0.4376134563
 40
0.5821231431
 40
0.7294441681
 40
0.8711797095
 40
1.0
 40
1.0
 40
1.0
 40
1.0
 10
1787.0227887319
 20
1251.5030062459
 30
0.0
 10
1788.8957927163
 20
1250.4213634543
 30
0.0
 10
1793.6018906459
 20
1249.2115825257
 30
0.0
 10
1801.1772650899
 20
1250.7288861179
 30
0.0
 10
1808.9164850145
 20
1254.9567597574
 30
0.0
 10
1816.3380524171
 20
1261.528264175
 30
0.0
 10
1822.8901131042
 20
1269.9154721781
 30
0.0
 10
1828.0486053195
 20
1279.4492627402
 30
0.0
 10
1831.3959257102
 20
1289.3450196096
 30
0.0
 10
1832.292868777
 20
1296.0846724353
 30
0.0
 10
1832.292868777
 20
1299.2899682719
 30
0.0
  0
SPLINE
  5
59D
100
AcDbEntity
  8
0
100
AcDbSpline
 62
7
  6
CONTINUOUS
 70
0
 71
3
 72
8
 73
4
 74
0
 42
0.0000001
 43
0.0000001
 44
0.0000000001
 40
0.0
 40
0.0
 40
0.0
 40
0.0
 40
1.0
 40
1.0
 40
1.0
 40
1.0
 10
1969.7629123211
 20
1351.1299780985
 30
0.0
 10
1970.1711338833
 20
1351.3657266476
 30
0.0
 10
1970.7689043213
 20
1351.3657266476
 30
0.0
 10
1971.1771258835
 20
1351.1299780985
 30
0.0
  0
SPLINE
  5
59E
100
AcDbEntity
  8
0
100
AcDbSpline
 62
7
  6
CONTINUOUS
 70
0
 71
3
 72
8
 73
4
 74
0
 42
0.0000001
 43
0.0000001
 44
0.0000000001
 40
0.0
 40
0.0
 40
0.0
 40
0.0
 40
1.0
 40
1.0
 40
1.0
 40
1.0
 10
2212.3712489462
 20
1144.431741996
 30
0.0
 10
2212.7794705084
 20
1144.195993447
 30
0.0
 10
2213.3772409464
 20
1144.195993447
 30
0.0
 10
2213.7854625086
 20
1144.431741996
 30
0.0
  0
SPLINE
  5
59F
100
AcDbEntity
  8
3_HOLES
100
AcDbSpline
 62
7
  6
CONTINUOUS
 70
0
 71
3
 72
9
 73
5
 74
0
 42
0.0000001
 43
0.0000001
 44
0.0000000001
 40
0.0
 40
0.0
 40
0.0
 40
0.0
 40
0.220868224
 40
1.0
 40
1.0
 40
1.0
 40
1.0
 10
2132.8277110695
 20
1293.6506956267
 30
0.0
 10
2132.9353111444
 20
1293.7127565312
 30
0.0
 10
2133.3753874437
 20
1294.0830298449
 30
0.0
 10
2133.5033869998
 20
1294.7061676041
 30
0.0
 10
2133.5033869998
 20
1295.144346281
 30
0.0
  0
SPLINE
  5
5A0
100
AcDbEntity
  8
3_HOLES
100
AcDbSpline
 62
7
  6
CONTINUOUS
 70
0
 71
3
 72
11
 73
7
 74
0
 42
0.0000001
 43
0.0000001
 44
0.0000000001
 40
0.0
 40
0.0
 40
0.0
 40
0.0
 40
0.1835966076
 40
0.4352332009
 40
0.7284441349
 40
1.0
 40
1.0
 40
1.0
 40
1.0
 10
2174.4643504678
 20
1273.3731844776
 30
0.0
 10
2174.8058461024
 20
1273.5701502141
 30
0.0
 10
2175.870160384
 20
1273.507566674
 30
0.0
 10
2177.1089944523
 20
1272.4884284342
 30
0.0
 10
2178.0857859035
 20
1271.0096044551
 30
0.0
 10
2178.4046676051
 20
1269.7968879063
 30
0.0
 10
2178.4046676051
 20
1269.2137910774
 30
0.0
  0
SPLINE
  5
5A1
100
AcDbEntity
  8
0
100
AcDbSpline
 62
7
  6
CONTINUOUS
 70
0
 71
3
 72
9
 73
5
 74
0
 42
0.0000001
 43
0.0000001
 44
0.0000000001
 40
0.0
 40
0.0
 40
0.0
 40
0.0
 40
0.2953286985
 40
1.0
 40
1.0
 40
1.0
 40
1.0
 10
1847.4334391758
 20
1355.1838607448
 30
0.0
 10
1847.3895848956
 20
1355.2091866558
 30
0.0
 10
1847.248653081
 20
1355.3035136138
 30
0.0
 10
1847.140592415
 20
1355.4713815077
 30
0.0
 10
1847.140592415
 20
1355.5922159449
 30
0.0
  0
SPLINE
  5
5A2
100
AcDbEntity
  8
3_HOLES
100
AcDbSpline
 62
7
  6
CONTINUOUS
 70
0
 71
3
 72
9
 73
5
 74
0
 42
0.0000001
 43
0.0000001
 44
0.0000000001
 40
0.0
 40
0.0
 40
0.0
 40
0.0
 40
0.4491734844
 40
1.0
 40
1.0
 40
1.0
 40
1.0
 10
2156.9205551087
 20
1277.8417824415
 30
0.0
 10
2157.3619889815
 20
1278.0967381926
 30
0.0
 10
2158.1246589861
 20
1279.0512523756
 30
0.0
 10
2158.2761659719
 20
1280.2128924775
 30
0.0
 10
2158.2761659719
 20
1280.8380302022
 30
0.0
  0
SPLINE
  5
5A3
100
AcDbEntity
  8
0
100
AcDbSpline
 62
7
  6
CONTINUOUS
 70
0
 71
3
 72
9
 73
5
 74
0
 42
0.0000001
 43
0.0000001
 44
0.0000000001
 40
0.0
 40
0.0
 40
0.0
 40
0.0
 40
0.5
 40
1.0
 40
1.0
 40
1.0
 40
1.0
 10
2203.5324141814
 20
1146.6776955963
 30
0.0
 10
2204.2669502634
 20
1147.1018912578
 30
0.0
 10
2206.0072879155
 20
1147.4373359628
 30
0.0
 10
2207.7476255676
 20
1147.1018912578
 30
0.0
 10
2208.4821616497
 20
1146.6776955963
 30
0.0
  0
SPLINE
  5
5A4
100
AcDbEntity
  8
0
100
AcDbSpline
 62
7
  6
CONTINUOUS
 70
0
 71
3
 72
9
 73
5
 74
0
 42
0.0000001
 43
0.0000001
 44
0.0000000001
 40
0.0
 40
0.0
 40
0.0
 40
0.0
 40
0.2953286985
 40
1.0
 40
1.0
 40
1.0
 40
1.0
 10
1851.3225264723
 20
1274.5633780881
 30
0.0
 10
1851.4760164532
 20
1274.6520187765
 30
0.0
 10
1851.9692778042
 20
1274.9821631296
 30
0.0
 10
1852.3474901351
 20
1275.5697007581
 30
0.0
 10
1852.3474901351
 20
1275.9926212883
 30
0.0
  0
SPLINE
  5
5A5
100
AcDbEntity
  8
4_ALL_POINTS
100
AcDbSpline
 62
7
  6
CONTINUOUS
 70
0
 71
3
 72
9
 73
5
 74
0
 42
0.0000001
 43
0.0000001
 44
0.0000000001
 40
0.0
 40
0.0
 40
0.0
 40
0.0
 40
0.4491405675
 40
1.0
 40
1.0
 40
1.0
 40
1.0
 10
2286.2420357101
 20
1233.3353198448
 30
0.0
 10
2286.5262283228
 20
1233.4997203205
 30
0.0
 10
2287.3045260936
 20
1233.6174358605
 30
0.0
 10
2288.0011694126
 20
1233.3278515951
 30
0.0
 10
2288.3498725847
 20
1233.1264750033
 30
0.0
  0
SPLINE
  5
5A6
100
AcDbEntity
  8
4_ALL_POINTS
100
AcDbSpline
 62
7
  6
CONTINUOUS
 70
0
 71
3
 72
9
 73
5
 74
0
 42
0.0000001
 43
0.0000001
 44
0.0000000001
 40
0.0
 40
0.0
 40
0.0
 40
0.0
 40
0.4491405675
 40
1.0
 40
1.0
 40
1.0
 40
1.0
 10
1998.8738398359
 20
1351.3606367763
 30
0.0
 10
1999.1580324486
 20
1351.525037252
 30
0.0
 10
1999.9363302193
 20
1351.642752792
 30
0.0
 10
2000.6329735384
 20
1351.3531685265
 30
0.0
 10
2000.9816767105
 20
1351.1517919348
 30
0.0
  0
SPLINE
  5
5A7
100
AcDbEntity
  8
4_ALL_POINTS
100
AcDbSpline
 62
7
  6
CONTINUOUS
 70
0
 71
3
 72
9
 73
5
 74
0
 42
0.0000001
 43
0.0000001
 44
0.0000000001
 40
0.0
 40
0.0
 40
0.0
 40
0.0
 40
0.4491405675
 40
1.0
 40
1.0
 40
1.0
 40
1.0
 10
1998.8738398359
 20
1399.2908731475
 30
0.0
 10
1999.1580324486
 20
1399.4552736232
 30
0.0
 10
1999.9363302194
 20
1399.5729891632
 30
0.0
 10
2000.6329735384
 20
1399.2834048977
 30
0.0
 10
2000.9816767105
 20
1399.082028306
 30
0.0
  0
SPLINE
  5
5A8
100
AcDbEntity
  8
4_ALL_POINTS
100
AcDbSpline
 62
7
  6
CONTINUOUS
 70
0
 71
3
 72
9
 73
5
 74
0
 42
0.0000001
 43
0.0000001
 44
0.0000000001
 40
0.0
 40
0.0
 40
0.0
 40
0.0
 40
0.2949886282
 40
1.0
 40
1.0
 40
1.0
 40
1.0
 10
2336.1149356538
 20
1219.9758502575
 30
0.0
 10
2336.0054264305
 20
1220.0390919941
 30
0.0
 10
2335.6249880428
 20
1220.2260141079
 30
0.0
 10
2335.1263293712
 20
1220.2510878464
 30
0.0
 10
2334.8646902493
 20
1220.0997977577
 30
0.0
  0
SPLINE
  5
5A9
100
AcDbEntity
  8
4_ALL_POINTS
100
AcDbSpline
 62
7
  6
CONTINUOUS
 70
0
 71
3
 72
12
 73
8
 74
0
 42
0.0000001
 43
0.0000001
 44
0.0000000001
 40
0.0
 40
0.0
 40
0.0
 40
0.0
 40
0.2710939121
 40
0.56380653
 40
0.6985347413
 40
0.8167317409
 40
1.0
 40
1.0
 40
1.0
 40
1.0
 10
2306.3103848268
 20
1222.7542529219
 30
0.0
 10
2306.9623619218
 20
1222.3777351962
 30
0.0
 10
2308.10611199
 20
1221.2381143175
 30
0.0
 10
2309.0084920848
 20
1219.484700075
 30
0.0
 10
2309.3082692563
 20
1217.9846924794
 30
0.0
 10
2309.2989389034
 20
1216.778288288
 30
0.0
 10
2308.8587920062
 20
1215.9181055744
 30
0.0
 10
2308.4182217014
 20
1215.663243328
 30
0.0
  0
SPLINE
  5
5AA
100
AcDbEntity
  8
4_ALL_POINTS
100
AcDbSpline
 62
7
  6
CONTINUOUS
 70
0
 71
3
 72
12
 73
8
 74
0
 42
0.0000001
 43
0.0000001
 44
0.0000000001
 40
0.0
 40
0.0
 40
0.0
 40
0.0
 40
0.2710939121
 40
0.56380653
 40
0.6985347413
 40
0.8167317409
 40
1.0
 40
1.0
 40
1.0
 40
1.0
 10
2018.9421889526
 20
1340.7795698534
 30
0.0
 10
2019.5941660476
 20
1340.4030521277
 30
0.0
 10
2020.7379161158
 20
1339.263431249
 30
0.0
 10
2021.6402962106
 20
1337.5100170064
 30
0.0
 10
2021.9400733821
 20
1336.0100094109
 30
0.0
 10
2021.9307430292
 20
1334.8036052194
 30
0.0
 10
2021.490596132
 20
1333.9434225059
 30
0.0
 10
2021.0500258272
 20
1333.6885602595
 30
0.0
  0
SPLINE
  5
5AB
100
AcDbEntity
  8
4_ALL_POINTS
100
AcDbSpline
 62
7
  6
CONTINUOUS
 70
0
 71
3
 72
12
 73
8
 74
0
 42
0.0000001
 43
0.0000001
 44
0.0000000001
 40
0.0
 40
0.0
 40
0.0
 40
0.0
 40
0.2710939121
 40
0.56380653
 40
0.6985347413
 40
0.8167317409
 40
1.0
 40
1.0
 40
1.0
 40
1.0
 10
2018.9421889526
 20
1388.7098062246
 30
0.0
 10
2019.5941660476
 20
1388.3332884989
 30
0.0
 10
2020.7379161158
 20
1387.1936676201
 30
0.0
 10
2021.6402962106
 20
1385.4402533776
 30
0.0
 10
2021.9400733821
 20
1383.9402457821
 30
0.0
 10
2021.9307430292
 20
1382.7338415906
 30
0.0
 10
2021.490596132
 20
1381.8736588771
 30
0.0
 10
2021.0500258272
 20
1381.6187966307
 30
0.0
  0
SPLINE
  5
5AC
100
AcDbEntity
  8
3_HOLES
100
AcDbSpline
 62
7
  6
CONTINUOUS
 70
0
 71
3
 72
13
 73
9
 74
0
 42
0.0000001
 43
0.0000001
 44
0.0000000001
 40
0.0
 40
0.0
 40
0.0
 40
0.0
 40
0.269862811
 40
0.5613214909
 40
0.6954688556
 40
0.8131492768
 40
0.9128602066
 40
1.0
 40
1.0
 40
1.0
 40
1.0
 10
2158.2761659719
 20
1280.8380302022
 30
0.0
 10
2158.2761659719
 20
1282.0076343337
 30
0.0
 10
2157.6329758844
 20
1284.4325169863
 30
0.0
 10
2155.9675818399
 20
1287.0065657967
 30
0.0
 10
2154.1946020816
 20
1288.579297626
 30
0.0
 10
2152.8429514431
 20
1289.3172374791
 30
0.0
 10
2151.5202904891
 20
1289.5823149768
 30
0.0
 10
2150.6985480702
 20
1289.370984725
 30
0.0
 10
2150.3715064286
 20
1289.1820976628
 30
0.0
  0
SPLINE
  5
5AD
100
AcDbEntity
  8
3_HOLES
100
AcDbSpline
 62
7
  6
CONTINUOUS
 70
0
 71
3
 72
9
 73
5
 74
0
 42
0.0000001
 43
0.0000001
 44
0.0000000001
 40
0.0
 40
0.0
 40
0.0
 40
0.0
 40
0.2949610644
 40
1.0
 40
1.0
 40
1.0
 40
1.0
 10
2178.4046676051
 20
1269.2137910774
 30
0.0
 10
2178.4046676051
 20
1269.0488001292
 30
0.0
 10
2178.3676223273
 20
1268.4969442693
 30
0.0
 10
2178.070615019
 20
1267.9171798191
 30
0.0
 10
2177.7289916749
 20
1267.7201404232
 30
0.0
  0
SPLINE
  5
5AE
100
AcDbEntity
  8
3_HOLES
100
AcDbSpline
 62
7
  6
CONTINUOUS
 70
0
 71
3
 72
11
 73
7
 74
0
 42
0.0000001
 43
0.0000001
 44
0.0000000001
 40
0.0
 40
0.0
 40
0.0
 40
0.0
 40
0.2715558651
 40
0.5647667991
 40
0.8164033924
 40
1.0
 40
1.0
 40
1.0
 40
1.0
 10
2133.5033869998
 20
1295.144346281
 30
0.0
 10
2133.5033869998
 20
1295.7274431098
 30
0.0
 10
2133.1845052982
 20
1296.9401596587
 30
0.0
 10
2132.207713847
 20
1298.4189836377
 30
0.0
 10
2130.9688797786
 20
1299.4381218776
 30
0.0
 10
2129.904565497
 20
1299.5007054176
 30
0.0
 10
2129.5630698624
 20
1299.3037396812
 30
0.0
  0
SPLINE
  5
5AF
100
AcDbEntity
  8
4_ALL_POINTS
100
AcDbSpline
 62
7
  6
CONTINUOUS
 70
0
 71
3
 72
10
 73
6
 74
0
 42
0.0000001
 43
0.0000001
 44
0.0000000001
 40
0.0
 40
0.0
 40
0.0
 40
0.0
 40
0.4226076188
 40
0.7223549488
 40
1.0
 40
1.0
 40
1.0
 40
1.0
 10
1972.427371288
 20
1346.9240823467
 30
0.0
 10
1973.0158347729
 20
1347.2643552087
 30
0.0
 10
1972.9912802185
 20
1348.8743911211
 30
0.0
 10
1972.2420368468
 20
1350.2088633805
 30
0.0
 10
1971.563858675
 20
1350.9066393459
 30
0.0
 10
1971.1771258835
 20
1351.1299780985
 30
0.0
  0
SPLINE
  5
5B0
100
AcDbEntity
  8
0
100
AcDbSpline
 62
7
  6
CONTINUOUS
 70
0
 71
3
 72
9
 73
5
 74
0
 42
0.0000001
 43
0.0000001
 44
0.0000000001
 40
0.0
 40
0.0
 40
0.0
 40
0.0
 40
0.2209565774
 40
1.0
 40
1.0
 40
1.0
 40
1.0
 10
1852.3474901351
 20
1351.5086639443
 30
0.0
 10
1852.3474901351
 20
1351.6419868375
 30
0.0
 10
1852.2403111753
 20
1352.2496237231
 30
0.0
 10
1851.7295894995
 20
1352.7028276511
 30
0.0
 10
1851.3225264723
 20
1352.9379071445
 30
0.0
  0
SPLINE
  5
5B1
100
AcDbEntity
  8
4_ALL_POINTS
100
AcDbSpline
 62
7
  6
CONTINUOUS
 70
0
 71
3
 72
11
 73
7
 74
0
 42
0.0000001
 43
0.0000001
 44
0.0000000001
 40
0.0
 40
0.0
 40
0.0
 40
0.0
 40
0.2897788258
 40
0.5490595457
 40
0.7822227502
 40
1.0
 40
1.0
 40
1.0
 40
1.0
 10
1832.292868777
 20
1299.2899682719
 30
0.0
 10
1832.292868777
 20
1301.189768782
 30
0.0
 10
1832.0057721808
 20
1304.8018042183
 30
0.0
 10
1830.5419528091
 20
1309.7642722165
 30
0.0
 10
1828.080165706
 20
1313.7914755129
 30
0.0
 10
1825.7663088171
 20
1315.7362330469
 30
0.0
 10
1824.5299539398
 20
1316.4503146681
 30
0.0
  0
SPLINE
  5
5B2
100
AcDbEntity
  8
4_ALL_POINTS
100
AcDbSpline
 62
7
  6
CONTINUOUS
 70
0
 71
3
 72
9
 73
5
 74
0
 42
0.0000001
 43
0.0000001
 44
0.0000000001
 40
0.0
 40
0.0
 40
0.0
 40
0.0
 40
0.5508262249
 40
1.0
 40
1.0
 40
1.0
 40
1.0
 10
1815.7112147582
 20
1289.7140388306
 30
0.0
 10
1815.7112147582
 20
1289.2414606241
 30
0.0
 10
1815.8258045718
 20
1288.3634563933
 30
0.0
 10
1816.4021378041
 20
1287.6414811563
 30
0.0
 10
1816.7359947794
 20
1287.4490064117
 30
0.0
  0
SPLINE
  5
5B3
100
AcDbEntity
  8
4_ALL_POINTS
100
AcDbSpline
 62
7
  6
CONTINUOUS
 70
0
 71
3
 72
9
 73
5
 74
0
 42
0.0000001
 43
0.0000001
 44
0.0000000001
 40
0.0
 40
0.0
 40
0.0
 40
0.0
 40
0.5508262249
 40
1.0
 40
1.0
 40
1.0
 40
1.0
 10
1788.770446395
 20
1274.1557057085
 30
0.0
 10
1788.770446395
 20
1273.683127502
 30
0.0
 10
1788.8850362085
 20
1272.8051232712
 30
0.0
 10
1789.4613694409
 20
1272.0831480342
 30
0.0
 10
1789.7952264161
 20
1271.8906732896
 30
0.0
  0
SPLINE
  5
5B4
100
AcDbEntity
  8
4_ALL_POINTS
100
AcDbSpline
 62
7
  6
CONTINUOUS
 70
0
 71
3
 72
12
 73
8
 74
0
 42
0.0000001
 43
0.0000001
 44
0.0000000001
 40
0.0
 40
0.0
 40
0.0
 40
0.0
 40
0.1970248624
 40
0.3978519294
 40
0.6210384764
 40
0.8311287806
 40
1.0
 40
1.0
 40
1.0
 40
1.0
 10
2152.6063126858
 20
1087.8231882871
 30
0.0
 10
2153.1683422545
 20
1087.3745929108
 30
0.0
 10
2153.6155136659
 20
1085.7628843655
 30
0.0
 10
2153.1194146507
 20
1083.5550943258
 30
0.0
 10
2152.0282396571
 20
1081.4688343511
 30
0.0
 10
2150.4998960264
 20
1079.8612043751
 30
0.0
 10
2149.189684488
 20
1079.2275203762
 30
0.0
 10
2148.5761201973
 20
1079.1689748995
 30
0.0
  0
SPLINE
  5
5B5
100
AcDbEntity
  8
4_ALL_POINTS
100
AcDbSpline
 62
7
  6
CONTINUOUS
 70
0
 71
3
 72
9
 73
5
 74
0
 42
0.0000001
 43
0.0000001
 44
0.0000000001
 40
0.0
 40
0.0
 40
0.0
 40
0.0
 40
0.489840659
 40
1.0
 40
1.0
 40
1.0
 40
1.0
 10
2144.4451573318
 20
1076.8384730415
 30
0.0
 10
2144.4451573318
 20
1075.7792008997
 30
0.0
 10
2143.7778905641
 20
1073.6330657885
 30
0.0
 10
2142.4222234701
 20
1071.8674576777
 30
0.0
 10
2141.5527783946
 20
1071.1883850333
 30
0.0
  0
SPLINE
  5
5B6
100
AcDbEntity
  8
4_ALL_POINTS
100
AcDbSpline
 62
7
  6
CONTINUOUS
 70
0
 71
3
 72
8
 73
4
 74
0
 42
0.0000001
 43
0.0000001
 44
0.0000000001
 40
0.0
 40
0.0
 40
0.0
 40
0.0
 40
1.0
 40
1.0
 40
1.0
 40
1.0
 10
2141.5527783946
 20
1071.1883850333
 30
0.0
 10
2141.3751521811
 20
1071.0496515976
 30
0.0
 10
2141.1891358556
 20
1070.9207794863
 30
0.0
 10
2140.9953622707
 20
1070.8056715556
 30
0.0
  0
SPLINE
  5
5B7
100
AcDbEntity
  8
4_ALL_POINTS
100
AcDbSpline
 62
7
  6
CONTINUOUS
 70
0
 71
3
 72
9
 73
5
 74
0
 42
0.0000001
 43
0.0000001
 44
0.0000000001
 40
0.0
 40
0.0
 40
0.0
 40
0.0
 40
0.489840659
 40
1.0
 40
1.0
 40
1.0
 40
1.0
 10
2171.3859256951
 20
1092.3968061637
 30
0.0
 10
2171.3859256951
 20
1091.3375340219
 30
0.0
 10
2170.7186589273
 20
1089.1913989107
 30
0.0
 10
2169.3629918333
 20
1087.4257907998
 30
0.0
 10
2168.4935467578
 20
1086.7467181554
 30
0.0
  0
SPLINE
  5
5B8
100
AcDbEntity
  8
4_ALL_POINTS
100
AcDbSpline
 62
7
  6
CONTINUOUS
 70
0
 71
3
 72
8
 73
4
 74
0
 42
0.0000001
 43
0.0000001
 44
0.0000000001
 40
0.0
 40
0.0
 40
0.0
 40
0.0
 40
1.0
 40
1.0
 40
1.0
 40
1.0
 10
2168.4935467578
 20
1086.7467181554
 30
0.0
 10
2168.3159205443
 20
1086.6079847197
 30
0.0
 10
2168.1299042188
 20
1086.4791126084
 30
0.0
 10
2167.936130634
 20
1086.3640046777
 30
0.0
  0
SPLINE
  5
5B9
100
AcDbEntity
  8
4_ALL_POINTS
100
AcDbSpline
 62
7
  6
CONTINUOUS
 70
0
 71
3
 72
9
 73
5
 74
0
 42
0.0000001
 43
0.0000001
 44
0.0000000001
 40
0.0
 40
0.0
 40
0.0
 40
0.0
 40
0.4491405675
 40
1.0
 40
1.0
 40
1.0
 40
1.0
 10
2021.0500258272
 20
1381.6187966307
 30
0.0
 10
2020.7658332145
 20
1381.454396155
 30
0.0
 10
2019.9875354437
 20
1381.336680615
 30
0.0
 10
2019.2908921247
 20
1381.6262648805
 30
0.0
 10
2018.9421889526
 20
1381.8276414722
 30
0.0
  0
SPLINE
  5
5BA
100
AcDbEntity
  8
0
100
AcDbSpline
 62
7
  6
CONTINUOUS
 70
0
 71
3
 72
9
 73
5
 74
0
 42
0.0000001
 43
0.0000001
 44
0.0000000001
 40
0.0
 40
0.0
 40
0.0
 40
0.0
 40
0.500025651
 40
1.0
 40
1.0
 40
1.0
 40
1.0
 10
2334.3471687009
 20
1133.2340489721
 30
0.0
 10
2334.8718530939
 20
1133.5370549762
 30
0.0
 10
2335.7007631107
 20
1134.493815519
 30
0.0
 10
2336.1149356538
 20
1135.6900802428
 30
0.0
 10
2336.1149356538
 20
1136.2959110981
 30
0.0
  0
SPLINE
  5
5BB
100
AcDbEntity
  8
4_ALL_POINTS
100
AcDbSpline
 62
7
  6
CONTINUOUS
 70
0
 71
3
 72
9
 73
5
 74
0
 42
0.0000001
 43
0.0000001
 44
0.0000000001
 40
0.0
 40
0.0
 40
0.0
 40
0.0
 40
0.2949886282
 40
1.0
 40
1.0
 40
1.0
 40
1.0
 10
1971.1771258835
 20
1347.0480298469
 30
0.0
 10
1971.2866351068
 20
1346.9847881102
 30
0.0
 10
1971.6670734945
 20
1346.7978659965
 30
0.0
 10
1972.1657321661
 20
1346.772792258
 30
0.0
 10
1972.427371288
 20
1346.9240823467
 30
0.0
  0
SPLINE
  5
5BC
100
AcDbEntity
  8
4_ALL_POINTS
100
AcDbSpline
 62
7
  6
CONTINUOUS
 70
0
 71
3
 72
12
 73
8
 74
0
 42
0.0000001
 43
0.0000001
 44
0.0000000001
 40
0.0
 40
0.0
 40
0.0
 40
0.0
 40
0.2710939121
 40
0.56380653
 40
0.6985347413
 40
0.8167317409
 40
1.0
 40
1.0
 40
1.0
 40
1.0
 10
2288.3498725847
 20
1226.244310251
 30
0.0
 10
2287.6978954897
 20
1226.6208279767
 30
0.0
 10
2286.5541454215
 20
1227.7604488554
 30
0.0
 10
2285.6517653267
 20
1229.5138630979
 30
0.0
 10
2285.3519881552
 20
1231.0138706935
 30
0.0
 10
2285.3613185081
 20
1232.2202748849
 30
0.0
 10
2285.8014654053
 20
1233.0804575985
 30
0.0
 10
2286.2420357101
 20
1233.3353198448
 30
0.0
  0
SPLINE
  5
5BD
100
AcDbEntity
  8
4_ALL_POINTS
100
AcDbSpline
 62
7
  6
CONTINUOUS
 70
0
 71
3
 72
12
 73
8
 74
0
 42
0.0000001
 43
0.0000001
 44
0.0000000001
 40
0.0
 40
0.0
 40
0.0
 40
0.0
 40
0.2710939121
 40
0.56380653
 40
0.6985347413
 40
0.8167317409
 40
1.0
 40
1.0
 40
1.0
 40
1.0
 10
2000.9816767105
 20
1344.2696271824
 30
0.0
 10
2000.3296996155
 20
1344.6461449081
 30
0.0
 10
1999.1859495473
 20
1345.7857657869
 30
0.0
 10
1998.2835694525
 20
1347.5391800294
 30
0.0
 10
1997.983792281
 20
1349.0391876249
 30
0.0
 10
1997.9931226339
 20
1350.2455918164
 30
0.0
 10
1998.4332695311
 20
1351.1057745299
 30
0.0
 10
1998.8738398359
 20
1351.3606367763
 30
0.0
  0
SPLINE
  5
5BE
100
AcDbEntity
  8
4_ALL_POINTS
100
AcDbSpline
 62
7
  6
CONTINUOUS
 70
0
 71
3
 72
12
 73
8
 74
0
 42
0.0000001
 43
0.0000001
 44
0.0000000001
 40
0.0
 40
0.0
 40
0.0
 40
0.0
 40
0.2710939121
 40
0.56380653
 40
0.6985347413
 40
0.8167317409
 40
1.0
 40
1.0
 40
1.0
 40
1.0
 10
2000.9816767105
 20
1392.1998635536
 30
0.0
 10
2000.3296996155
 20
1392.5763812793
 30
0.0
 10
1999.1859495473
 20
1393.716002158
 30
0.0
 10
1998.2835694525
 20
1395.4694164006
 30
0.0
 10
1997.983792281
 20
1396.9694239961
 30
0.0
 10
1997.9931226339
 20
1398.1758281876
 30
0.0
 10
1998.4332695311
 20
1399.0360109011
 30
0.0
 10
1998.8738398359
 20
1399.2908731475
 30
0.0
  0
SPLINE
  5
5BF
100
AcDbEntity
  8
3_HOLES
100
AcDbSpline
 62
7
  6
CONTINUOUS
 70
0
 71
3
 72
13
 73
9
 74
0
 42
0.0000001
 43
0.0000001
 44
0.0000000001
 40
0.0
 40
0.0
 40
0.0
 40
0.0
 40
0.269862811
 40
0.5613214909
 40
0.6954688556
 40
0.8131492768
 40
0.9128602066
 40
1.0
 40
1.0
 40
1.0
 40
1.0
 10
2149.0158955654
 20
1286.1858499021
 30
0.0
 10
2149.0158955654
 20
1285.0162457707
 30
0.0
 10
2149.6590856529
 20
1282.591363118
 30
0.0
 10
2151.3244796974
 20
1280.0173143077
 30
0.0
 10
2153.0974594557
 20
1278.4445824783
 30
0.0
 10
2154.4491100942
 20
1277.7066426252
 30
0.0
 10
2155.7717710482
 20
1277.4415651276
 30
0.0
 10
2156.5935134671
 20
1277.6528953793
 30
0.0
 10
2156.9205551087
 20
1277.8417824415
 30
0.0
  0
SPLINE
  5
5C0
100
AcDbEntity
  8
3_HOLES
100
AcDbSpline
 62
7
  6
CONTINUOUS
 70
0
 71
3
 72
9
 73
5
 74
0
 42
0.0000001
 43
0.0000001
 44
0.0000000001
 40
0.0
 40
0.0
 40
0.0
 40
0.0
 40
0.2949610644
 40
1.0
 40
1.0
 40
1.0
 40
1.0
 10
2173.7886745375
 20
1271.8795338234
 30
0.0
 10
2173.7886745375
 20
1272.0445247716
 30
0.0
 10
2173.8257198153
 20
1272.5963806315
 30
0.0
 10
2174.1227271236
 20
1273.1761450817
 30
0.0
 10
2174.4643504678
 20
1273.3731844776
 30
0.0
  0
SPLINE
  5
5C1
100
AcDbEntity
  8
3_HOLES
100
AcDbSpline
 62
7
  6
CONTINUOUS
 70
0
 71
3
 72
11
 73
7
 74
0
 42
0.0000001
 43
0.0000001
 44
0.0000000001
 40
0.0
 40
0.0
 40
0.0
 40
0.0
 40
0.2715558651
 40
0.5647667991
 40
0.8164033924
 40
1.0
 40
1.0
 40
1.0
 40
1.0
 10
2128.8873939322
 20
1297.8100890269
 30
0.0
 10
2128.8873939322
 20
1297.226992198
 30
0.0
 10
2129.2062756338
 20
1296.0142756492
 30
0.0
 10
2130.1830670849
 20
1294.5354516702
 30
0.0
 10
2131.4219011533
 20
1293.5163134303
 30
0.0
 10
2132.4862154349
 20
1293.4537298903
 30
0.0
 10
2132.8277110695
 20
1293.6506956267
 30
0.0
  0
SPLINE
  5
5C2
100
AcDbEntity
  8
3_HOLES
100
AcDbSpline
 62
7
  6
CONTINUOUS
 70
0
 71
3
 72
9
 73
5
 74
0
 42
0.0000001
 43
0.0000001
 44
0.0000000001
 40
0.0
 40
0.0
 40
0.0
 40
0.0
 40
0.220868224
 40
1.0
 40
1.0
 40
1.0
 40
1.0
 10
2129.5630698624
 20
1299.3037396812
 30
0.0
 10
2129.4554697876
 20
1299.2416787766
 30
0.0
 10
2129.0153934882
 20
1298.8714054629
 30
0.0
 10
2128.8873939322
 20
1298.2482677037
 30
0.0
 10
2128.8873939322
 20
1297.8100890269
 30
0.0
  0
SPLINE
  5
5C3
100
AcDbEntity
  8
4_ALL_POINTS
100
AcDbSpline
 62
7
  6
CONTINUOUS
 70
0
 71
3
 72
9
 73
5
 74
0
 42
0.0000001
 43
0.0000001
 44
0.0000000001
 40
0.0
 40
0.0
 40
0.0
 40
0.0
 40
0.2660813182
 40
1.0
 40
1.0
 40
1.0
 40
1.0
 10
2335.277233302
 20
1137.0233692749
 30
0.0
 10
2335.3404287184
 20
1136.9475926509
 30
0.0
 10
2335.5883990403
 20
1136.6721239791
 30
0.0
 10
2335.8792567939
 20
1136.4320159843
 30
0.0
 10
2336.1149356538
 20
1136.2959110981
 30
0.0
  0
SPLINE
  5
5C4
100
AcDbEntity
  8
4_ALL_POINTS
100
AcDbSpline
 62
7
  6
CONTINUOUS
 70
0
 71
3
 72
14
 73
10
 74
0
 42
0.0000001
 43
0.0000001
 44
0.0000000001
 40
0.0
 40
0.0
 40
0.0
 40
0.0
 40
0.0929182397
 40
0.2058953879
 40
0.3428419712
 40
0.4953459976
 40
0.6495428744
 40
0.7910497364
 40
1.0
 40
1.0
 40
1.0
 40
1.0
 10
1798.7755072305
 20
1280.7505788638
 30
0.0
 10
1799.1001086262
 20
1280.5636656823
 30
0.0
 10
1799.9797934851
 20
1280.4207373511
 30
0.0
 10
1801.3022332099
 20
1280.9349403878
 30
0.0
 10
1802.5785202805
 20
1281.9641758069
 30
0.0
 10
1803.6765363243
 20
1283.3921201896
 30
0.0
 10
1804.4510453608
 20
1285.0526274396
 30
0.0
 10
1804.9081750647
 20
1287.0008874573
 30
0.0
 10
1804.5902839491
 20
1288.6576818406
 30
0.0
 10
1803.9319588827
 20
1289.1831374346
 30
0.0
  0
SPLINE
  5
5C5
100
AcDbEntity
  8
4_ALL_POINTS
100
AcDbSpline
 62
7
  6
CONTINUOUS
 70
0
 71
3
 72
10
 73
6
 74
0
 42
0.0000001
 43
0.0000001
 44
0.0000000001
 40
0.0
 40
0.0
 40
0.0
 40
0.0
 40
0.4226076188
 40
0.7223549488
 40
1.0
 40
1.0
 40
1.0
 40
1.0
 10
2334.8646902493
 20
1220.0997977577
 30
0.0
 10
2334.2762267644
 20
1219.7595248956
 30
0.0
 10
2334.3007813188
 20
1218.1494889832
 30
0.0
 10
2335.0500246905
 20
1216.8150167238
 30
0.0
 10
2335.7282028623
 20
1216.1172407584
 30
0.0
 10
2336.1149356538
 20
1215.8939020058
 30
0.0
  0
SPLINE
  5
5C6
100
AcDbEntity
  8
4_ALL_POINTS
100
AcDbSpline
 62
7
  6
CONTINUOUS
 70
0
 71
3
 72
12
 73
8
 74
0
 42
0.0000001
 43
0.0000001
 44
0.0000000001
 40
0.0
 40
0.0
 40
0.0
 40
0.0
 40
0.1832734144
 40
0.3014789665
 40
0.4362165209
 40
0.7289351958
 40
1.0
 40
1.0
 40
1.0
 40
1.0
 10
1789.7952264161
 20
1271.8906732896
 30
0.0
 10
1790.3131584549
 20
1271.5920758533
 30
0.0
 10
1791.4467214939
 20
1271.6493870511
 30
0.0
 10
1792.6794905724
 20
1272.3482942581
 30
0.0
 10
1794.029436589
 20
1273.5340611022
 30
0.0
 10
1795.2832252732
 20
1275.48154673
 30
0.0
 10
1795.7708035288
 20
1277.3142039762
 30
0.0
 10
1795.7708035288
 20
1278.198422189
 30
0.0
  0
SPLINE
  5
5C7
100
AcDbEntity
  8
4_ALL_POINTS
100
AcDbSpline
 62
7
  6
CONTINUOUS
 70
0
 71
3
 72
11
 73
7
 74
0
 42
0.0000001
 43
0.0000001
 44
0.0000000001
 40
0.0
 40
0.0
 40
0.0
 40
0.0
 40
0.1930307398
 40
0.4235386878
 40
0.6963042665
 40
1.0
 40
1.0
 40
1.0
 40
1.0
 10
1822.7474798745
 20
1317.3004603642
 30
0.0
 10
1820.4078300338
 20
1318.1993364717
 30
0.0
 10
1814.6434660776
 20
1318.5701003504
 30
0.0
 10
1806.0502160821
 20
1315.2720010424
 30
0.0
 10
1797.5897014038
 20
1308.9292086312
 30
0.0
 10
1792.6657598323
 20
1303.2135584988
 30
0.0
 10
1790.375149502
 20
1300.0037816559
 30
0.0
  0
SPLINE
  5
5C8
100
AcDbEntity
  8
3_HOLES
100
AcDbSpline
 62
7
  6
CONTINUOUS
 70
0
 71
3
 72
11
 73
7
 74
0
 42
0.0000001
 43
0.0000001
 44
0.0000000001
 40
0.0
 40
0.0
 40
0.0
 40
0.0
 40
0.1835966076
 40
0.4352332009
 40
0.7284441349
 40
1.0
 40
1.0
 40
1.0
 40
1.0
 10
2177.7289916749
 20
1267.7201404232
 30
0.0
 10
2177.3874960403
 20
1267.5231746867
 30
0.0
 10
2176.3231817587
 20
1267.5857582268
 30
0.0
 10
2175.0843476903
 20
1268.6048964666
 30
0.0
 10
2174.1075562391
 20
1270.0837204457
 30
0.0
 10
2173.7886745375
 20
1271.2964369945
 30
0.0
 10
2173.7886745375
 20
1271.8795338234
 30
0.0
  0
SPLINE
  5
5C9
100
AcDbEntity
  8
3_HOLES
100
AcDbSpline
 62
7
  6
CONTINUOUS
 70
0
 71
3
 72
9
 73
5
 74
0
 42
0.0000001
 43
0.0000001
 44
0.0000000001
 40
0.0
 40
0.0
 40
0.0
 40
0.0
 40
0.4491734844
 40
1.0
 40
1.0
 40
1.0
 40
1.0
 10
2150.3715064286
 20
1289.1820976628
 30
0.0
 10
2149.9300725558
 20
1288.9271419117
 30
0.0
 10
2149.1674025512
 20
1287.9726277288
 30
0.0
 10
2149.0158955654
 20
1286.8109876268
 30
0.0
 10
2149.0158955654
 20
1286.1858499021
 30
0.0
  0
SPLINE
  5
5CA
100
AcDbEntity
  8
4_ALL_POINTS
100
AcDbSpline
 62
7
  6
CONTINUOUS
 70
0
 71
3
 72
9
 73
5
 74
0
 42
0.0000001
 43
0.0000001
 44
0.0000000001
 40
0.0
 40
0.0
 40
0.0
 40
0.0
 40
0.2362839353
 40
1.0
 40
1.0
 40
1.0
 40
1.0
 10
1794.0030365758
 20
1279.2193101892
 30
0.0
 10
1794.0030365758
 20
1279.1017732058
 30
0.0
 10
1793.9838612758
 20
1278.6043854474
 30
0.0
 10
1793.8956829339
 20
1278.1107961777
 30
0.0
 10
1793.7993751904
 20
1277.7433035827
 30
0.0
  0
SPLINE
  5
5CB
100
AcDbEntity
  8
4_ALL_POINTS
100
AcDbSpline
 62
7
  6
CONTINUOUS
 70
0
 71
3
 72
8
 73
4
 74
0
 42
0.0000001
 43
0.0000001
 44
0.0000000001
 40
0.0
 40
0.0
 40
0.0
 40
0.0
 40
1.0
 40
1.0
 40
1.0
 40
1.0
 10
1791.8527962114
 20
1274.2491917527
 30
0.0
 10
1791.6475019776
 20
1274.0315578287
 30
0.0
 10
1791.4285826833
 20
1273.8256802581
 30
0.0
 10
1791.1961621807
 20
1273.6372898196
 30
0.0
  0
SPLINE
  5
5CC
100
AcDbEntity
  8
4_ALL_POINTS
100
AcDbSpline
 62
7
  6
CONTINUOUS
 70
0
 71
3
 72
8
 73
4
 74
0
 42
0.0000001
 43
0.0000001
 44
0.0000000001
 40
0.0
 40
0.0
 40
0.0
 40
0.0
 40
1.0
 40
1.0
 40
1.0
 40
1.0
 10
1791.1961621807
 20
1273.6372898196
 30
0.0
 10
1791.0280913009
 20
1273.5010585217
 30
0.0
 10
1790.8524232098
 20
1273.3735057058
 30
0.0
 10
1790.6695889096
 20
1273.257840647
 30
0.0
  0
SPLINE
  5
5CD
100
AcDbEntity
  8
4_ALL_POINTS
100
AcDbSpline
 62
7
  6
CONTINUOUS
 70
0
 71
3
 72
8
 73
4
 74
0
 42
0.0000001
 43
0.0000001
 44
0.0000000001
 40
0.0
 40
0.0
 40
0.0
 40
0.0
 40
1.0
 40
1.0
 40
1.0
 40
1.0
 10
1790.6695889096
 20
1273.257840647
 30
0.0
 10
1790.4919081079
 20
1273.1454358064
 30
0.0
 10
1790.3066726272
 20
1273.0437306659
 30
0.0
 10
1790.1148493487
 20
1272.9576542738
 30
0.0
  0
SPLINE
  5
5CE
100
AcDbEntity
  8
4_ALL_POINTS
100
AcDbSpline
 62
7
  6
CONTINUOUS
 70
0
 71
3
 72
8
 73
4
 74
0
 42
0.0000001
 43
0.0000001
 44
0.0000000001
 40
0.0
 40
0.0
 40
0.0
 40
0.0
 40
1.0
 40
1.0
 40
1.0
 40
1.0
 10
1790.0022236406
 20
1272.9092725697
 30
0.0
 10
1789.8307629558
 20
1272.8389080265
 30
0.0
 10
1789.6532390704
 20
1272.7810975263
 30
0.0
 10
1789.4723029949
 20
1272.7409469106
 30
0.0
  0
SPLINE
  5
5CF
100
AcDbEntity
  8
4_ALL_POINTS
100
AcDbSpline
 62
7
  6
CONTINUOUS
 70
0
 71
3
 72
8
 73
4
 74
0
 42
0.0000001
 43
0.0000001
 44
0.0000000001
 40
0.0
 40
0.0
 40
0.0
 40
0.0
 40
1.0
 40
1.0
 40
1.0
 40
1.0
 10
1789.4723029949
 20
1272.7409469106
 30
0.0
 10
1789.3553600104
 20
1272.7149966803
 30
0.0
 10
1789.2364524557
 20
1272.6963329546
 30
0.0
 10
1789.1170468974
 20
1272.6867732101
 30
0.0
  0
SPLINE
  5
5D0
100
AcDbEntity
  8
0
100
AcDbSpline
 62
7
  6
CONTINUOUS
 70
0
 71
3
 72
9
 73
5
 74
0
 42
0.0000001
 43
0.0000001
 44
0.0000000001
 40
0.0
 40
0.0
 40
0.0
 40
0.0
 40
0.4970432323
 40
1.0
 40
1.0
 40
1.0
 40
1.0
 10
1847.140592415
 20
1355.5922159449
 30
0.0
 10
1847.140592415
 20
1355.6073550201
 30
0.0
 10
1847.1426639926
 20
1355.637847988
 30
0.0
 10
1847.1488115267
 20
1355.6677818689
 30
0.0
 10
1847.1528576164
 20
1355.6825570772
 30
0.0
  0
SPLINE
  5
5D1
100
AcDbEntity
  8
0
100
AcDbSpline
 62
7
  6
CONTINUOUS
 70
0
 71
3
 72
8
 73
4
 74
0
 42
0.0000001
 43
0.0000001
 44
0.0000000001
 40
0.0
 40
0.0
 40
0.0
 40
0.0
 40
1.0
 40
1.0
 40
1.0
 40
1.0
 10
1847.1528576164
 20
1355.6825570772
 30
0.0
 10
1847.1901950487
 20
1355.8189031255
 30
0.0
 10
1847.3110206966
 20
1355.9298742942
 30
0.0
 10
1847.4334391758
 20
1356.0005711449
 30
0.0
  0
SPLINE
  5
5D2
100
AcDbEntity
  8
4_ALL_POINTS
100
AcDbSpline
 62
7
  6
CONTINUOUS
 70
0
 71
3
 72
9
 73
5
 74
0
 42
0.0000001
 43
0.0000001
 44
0.0000000001
 40
0.0
 40
0.0
 40
0.0
 40
0.0
 40
0.2362839353
 40
1.0
 40
1.0
 40
1.0
 40
1.0
 10
1820.943804939
 20
1294.7776433113
 30
0.0
 10
1820.943804939
 20
1294.6601063279
 30
0.0
 10
1820.924629639
 20
1294.1627185695
 30
0.0
 10
1820.8364512971
 20
1293.6691292998
 30
0.0
 10
1820.7401435536
 20
1293.3016367048
 30
0.0
  0
SPLINE
  5
5D3
100
AcDbEntity
  8
4_ALL_POINTS
100
AcDbSpline
 62
7
  6
CONTINUOUS
 70
0
 71
3
 72
8
 73
4
 74
0
 42
0.0000001
 43
0.0000001
 44
0.0000000001
 40
0.0
 40
0.0
 40
0.0
 40
0.0
 40
1.0
 40
1.0
 40
1.0
 40
1.0
 10
1818.7935645746
 20
1289.8075248749
 30
0.0
 10
1818.5882703408
 20
1289.5898909508
 30
0.0
 10
1818.3693510465
 20
1289.3840133802
 30
0.0
 10
1818.1369305439
 20
1289.1956229417
 30
0.0
  0
SPLINE
  5
5D4
100
AcDbEntity
  8
4_ALL_POINTS
100
AcDbSpline
 62
7
  6
CONTINUOUS
 70
0
 71
3
 72
8
 73
4
 74
0
 42
0.0000001
 43
0.0000001
 44
0.0000000001
 40
0.0
 40
0.0
 40
0.0
 40
0.0
 40
1.0
 40
1.0
 40
1.0
 40
1.0
 10
1818.1369305439
 20
1289.1956229417
 30
0.0
 10
1817.9688596641
 20
1289.0593916438
 30
0.0
 10
1817.793191573
 20
1288.9318388279
 30
0.0
 10
1817.6103572728
 20
1288.8161737691
 30
0.0
  0
SPLINE
  5
5D5
100
AcDbEntity
  8
4_ALL_POINTS
100
AcDbSpline
 62
7
  6
CONTINUOUS
 70
0
 71
3
 72
8
 73
4
 74
0
 42
0.0000001
 43
0.0000001
 44
0.0000000001
 40
0.0
 40
0.0
 40
0.0
 40
0.0
 40
1.0
 40
1.0
 40
1.0
 40
1.0
 10
1817.6103572728
 20
1288.8161737691
 30
0.0
 10
1817.4326764712
 20
1288.7037689286
 30
0.0
 10
1817.2474409904
 20
1288.602063788
 30
0.0
 10
1817.0556177119
 20
1288.5159873959
 30
0.0
  0
SPLINE
  5
5D6
100
AcDbEntity
  8
4_ALL_POINTS
100
AcDbSpline
 62
7
  6
CONTINUOUS
 70
0
 71
3
 72
8
 73
4
 74
0
 42
0.0000001
 43
0.0000001
 44
0.0000000001
 40
0.0
 40
0.0
 40
0.0
 40
0.0
 40
1.0
 40
1.0
 40
1.0
 40
1.0
 10
1816.9429920038
 20
1288.4676056919
 30
0.0
 10
1816.771531319
 20
1288.3972411487
 30
0.0
 10
1816.5940074336
 20
1288.3394306484
 30
0.0
 10
1816.4130713581
 20
1288.2992800327
 30
0.0
  0
SPLINE
  5
5D7
100
AcDbEntity
  8
4_ALL_POINTS
100
AcDbSpline
 62
7
  6
CONTINUOUS
 70
0
 71
3
 72
8
 73
4
 74
0
 42
0.0000001
 43
0.0000001
 44
0.0000000001
 40
0.0
 40
0.0
 40
0.0
 40
0.0
 40
1.0
 40
1.0
 40
1.0
 40
1.0
 10
1816.4130713581
 20
1288.2992800327
 30
0.0
 10
1816.2961283736
 20
1288.2733298024
 30
0.0
 10
1816.1772208189
 20
1288.2546660767
 30
0.0
 10
1816.0578152606
 20
1288.2451063322
 30
0.0
  0
SPLINE
  5
5D8
100
AcDbEntity
  8
0
100
AcDbSpline
 62
7
  6
CONTINUOUS
 70
0
 71
3
 72
9
 73
5
 74
0
 42
0.0000001
 43
0.0000001
 44
0.0000000001
 40
0.0
 40
0.0
 40
0.0
 40
0.0
 40
0.4970432323
 40
1.0
 40
1.0
 40
1.0
 40
1.0
 10
2336.4077824146
 20
1215.4855468057
 30
0.0
 10
2336.4077824146
 20
1215.500685881
 30
0.0
 10
2336.405710837
 20
1215.5311788489
 30
0.0
 10
2336.3995633029
 20
1215.5611127298
 30
0.0
 10
2336.3955172132
 20
1215.575887938
 30
0.0
  0
SPLINE
  5
5D9
100
AcDbEntity
  8
0
100
AcDbSpline
 62
7
  6
CONTINUOUS
 70
0
 71
3
 72
8
 73
4
 74
0
 42
0.0000001
 43
0.0000001
 44
0.0000000001
 40
0.0
 40
0.0
 40
0.0
 40
0.0
 40
1.0
 40
1.0
 40
1.0
 40
1.0
 10
2336.3955172132
 20
1215.575887938
 30
0.0
 10
2336.358179781
 20
1215.7122339864
 30
0.0
 10
2336.237354133
 20
1215.8232051551
 30
0.0
 10
2336.1149356538
 20
1215.8939020058
 30
0.0
  0
SPLINE
  5
5DA
100
AcDbEntity
  8
6_ALL_SURFS
100
AcDbSpline
 62
7
  6
CONTINUOUS
 70
0
 71
3
 72
9
 73
5
 74
0
 42
0.0000001
 43
0.0000001
 44
0.0000000001
 40
0.0
 40
0.0
 40
0.0
 40
0.0
 40
0.5461597323
 40
1.0
 40
1.0
 40
1.0
 40
1.0
 10
1779.2598601881
 20
1268.6633282677
 30
0.0
 10
1779.2598601881
 20
1265.5395305446
 30
0.0
 10
1779.9590585313
 20
1259.7469141225
 30
0.0
 10
1783.0868874357
 20
1254.6204580165
 30
0.0
 10
1785.0449266201
 20
1252.9163142913
 30
0.0
  0
SPLINE
  5
5DB
100
AcDbEntity
  8
4_ALL_POINTS
100
AcDbSpline
 62
7
  6
CONTINUOUS
 70
0
 71
3
 72
9
 73
5
 74
0
 42
0.0000001
 43
0.0000001
 44
0.0000000001
 40
0.0
 40
0.0
 40
0.0
 40
0.0
 40
0.5251326871
 40
1.0
 40
1.0
 40
1.0
 40
1.0
 10
1785.2566291106
 20
1291.5169012027
 30
0.0
 10
1783.3861626464
 20
1287.7981912224
 30
0.0
 10
1780.4903247798
 20
1280.3599857683
 30
0.0
 10
1779.2598601881
 20
1272.4275095896
 30
0.0
 10
1779.2598601881
 20
1268.6633282677
 30
0.0
  0
SPLINE
  5
5DC
100
AcDbEntity
  8
4_ALL_POINTS
100
AcDbSpline
 62
7
  6
CONTINUOUS
 70
0
 71
3
 72
9
 73
5
 74
0
 42
0.0000001
 43
0.0000001
 44
0.0000000001
 40
0.0
 40
0.0
 40
0.0
 40
0.0
 40
0.5508262249
 40
1.0
 40
1.0
 40
1.0
 40
1.0
 10
1822.711571892
 20
1293.7567553112
 30
0.0
 10
1822.711571892
 20
1294.2293335177
 30
0.0
 10
1822.5969820784
 20
1295.1073377485
 30
0.0
 10
1822.0206488461
 20
1295.8293129854
 30
0.0
 10
1821.6867918708
 20
1296.0217877301
 30
0.0
  0
SPLINE
  5
5DD
100
AcDbEntity
  8
4_ALL_POINTS
100
AcDbSpline
 62
7
  6
CONTINUOUS
 70
0
 71
3
 72
9
 73
5
 74
0
 42
0.0000001
 43
0.0000001
 44
0.0000000001
 40
0.0
 40
0.0
 40
0.0
 40
0.0
 40
0.5508262249
 40
1.0
 40
1.0
 40
1.0
 40
1.0
 10
1795.7708035288
 20
1278.198422189
 30
0.0
 10
1795.7708035288
 20
1278.6710003955
 30
0.0
 10
1795.6562137152
 20
1279.5490046264
 30
0.0
 10
1795.0798804828
 20
1280.2709798633
 30
0.0
 10
1794.7460235076
 20
1280.463454608
 30
0.0
  0
SPLINE
  5
5DE
100
AcDbEntity
  8
0
100
AcDbSpline
 62
7
  6
CONTINUOUS
 70
0
 71
3
 72
9
 73
5
 74
0
 42
0.0000001
 43
0.0000001
 44
0.0000000001
 40
0.0
 40
0.0
 40
0.0
 40
0.0
 40
0.2953286985
 40
1.0
 40
1.0
 40
1.0
 40
1.0
 10
1851.3225264723
 20
1350.0794207441
 30
0.0
 10
1851.4760164532
 20
1350.1680614325
 30
0.0
 10
1851.9692778042
 20
1350.4982057856
 30
0.0
 10
1852.3474901351
 20
1351.0857434141
 30
0.0
 10
1852.3474901351
 20
1351.5086639443
 30
0.0
  0
SPLINE
  5
5DF
100
AcDbEntity
  8
0
100
AcDbSpline
 62
7
  6
CONTINUOUS
 70
0
 71
3
 72
9
 73
5
 74
0
 42
0.0000001
 43
0.0000001
 44
0.0000000001
 40
0.0
 40
0.0
 40
0.0
 40
0.0
 40
0.2209374349
 40
1.0
 40
1.0
 40
1.0
 40
1.0
 10
2335.5973561015
 20
1221.11978344
 30
0.0
 10
2335.6797705077
 20
1221.0721892263
 30
0.0
 10
2336.0171450516
 20
1220.7889793921
 30
0.0
 10
2336.1149356538
 20
1220.3114359593
 30
0.0
 10
2336.1149356538
 20
1219.9758502575
 30
0.0
  0
SPLINE
  5
5E0
100
AcDbEntity
  8
4_ALL_POINTS
100
AcDbSpline
 62
7
  6
CONTINUOUS
 70
0
 71
3
 72
12
 73
8
 74
0
 42
0.0000001
 43
0.0000001
 44
0.0000000001
 40
0.0
 40
0.0
 40
0.0
 40
0.0
 40
0.1832734144
 40
0.3014789665
 40
0.4362165209
 40
0.7289351958
 40
1.0
 40
1.0
 40
1.0
 40
1.0
 10
1816.7359947794
 20
1287.4490064117
 30
0.0
 10
1817.2539268181
 20
1287.1504089754
 30
0.0
 10
1818.3874898571
 20
1287.2077201733
 30
0.0
 10
1819.6202589357
 20
1287.9066273802
 30
0.0
 10
1820.9702049522
 20
1289.0923942243
 30
0.0
 10
1822.2239936364
 20
1291.0398798521
 30
0.0
 10
1822.711571892
 20
1292.8725370983
 30
0.0
 10
1822.711571892
 20
1293.7567553112
 30
0.0
  0
SPLINE
  5
5E1
100
AcDbEntity
  8
4_ALL_POINTS
100
AcDbSpline
 62
7
  6
CONTINUOUS
 70
0
 71
3
 72
9
 73
5
 74
0
 42
0.0000001
 43
0.0000001
 44
0.0000000001
 40
0.0
 40
0.0
 40
0.0
 40
0.0
 40
0.4491405675
 40
1.0
 40
1.0
 40
1.0
 40
1.0
 10
2308.4182217014
 20
1215.663243328
 30
0.0
 10
2308.1340290887
 20
1215.4988428524
 30
0.0
 10
2307.3557313179
 20
1215.3811273124
 30
0.0
 10
2306.6590879989
 20
1215.6707115778
 30
0.0
 10
2306.3103848268
 20
1215.8720881696
 30
0.0
  0
SPLINE
  5
5E2
100
AcDbEntity
  8
4_ALL_POINTS
100
AcDbSpline
 62
7
  6
CONTINUOUS
 70
0
 71
3
 72
9
 73
5
 74
0
 42
0.0000001
 43
0.0000001
 44
0.0000000001
 40
0.0
 40
0.0
 40
0.0
 40
0.0
 40
0.4491405675
 40
1.0
 40
1.0
 40
1.0
 40
1.0
 10
2021.0500258272
 20
1333.6885602595
 30
0.0
 10
2020.7658332145
 20
1333.5241597838
 30
0.0
 10
2019.9875354437
 20
1333.4064442438
 30
0.0
 10
2019.2908921247
 20
1333.6960285093
 30
0.0
 10
2018.9421889526
 20
1333.897405101
 30
0.0
  0
SPLINE
  5
5E3
100
AcDbEntity
  8
4_ALL_POINTS
100
AcDbSpline
 62
3
  6
CONTINUOUS
 70
0
 71
3
 72
10
 73
6
 74
0
 42
0.0000001
 43
0.0000001
 44
0.0000000001
 40
0.0
 40
0.0
 40
0.0
 40
0.0
 40
0.5244231129
 40
0.7867202989
 40
1.0
 40
1.0
 40
1.0
 40
1.0
 10
2002.7494436634
 20
1393.2207515538
 30
0.0
 10
2001.6527067361
 20
1393.8541187329
 30
0.0
 10
2000.4016511108
 20
1395.4967618821
 30
0.0
 10
1999.7045786311
 20
1397.8097835659
 30
0.0
 10
1999.7691035175
 20
1399.0126537482
 30
0.0
 10
1999.9622784388
 20
1399.4901290331
 30
0.0
  0
SPLINE
  5
5E4
100
AcDbEntity
  8
4_ALL_POINTS
100
AcDbSpline
 62
3
  6
CONTINUOUS
 70
0
 71
3
 72
10
 73
6
 74
0
 42
0.0000001
 43
0.0000001
 44
0.0000000001
 40
0.0
 40
0.0
 40
0.0
 40
0.0
 40
0.5244231129
 40
0.7867202989
 40
1.0
 40
1.0
 40
1.0
 40
1.0
 10
2002.7494436634
 20
1345.2905151826
 30
0.0
 10
2001.6527067361
 20
1345.9238823617
 30
0.0
 10
2000.4016511108
 20
1347.5665255109
 30
0.0
 10
1999.7045786311
 20
1349.8795471947
 30
0.0
 10
1999.7691035175
 20
1351.082417377
 30
0.0
 10
1999.9622784388
 20
1351.5598926619
 30
0.0
  0
SPLINE
  5
5E5
100
AcDbEntity
  8
4_ALL_POINTS
100
AcDbSpline
 62
3
  6
CONTINUOUS
 70
0
 71
3
 72
10
 73
6
 74
0
 42
0.0000001
 43
0.0000001
 44
0.0000000001
 40
0.0
 40
0.0
 40
0.0
 40
0.0
 40
0.5244231129
 40
0.7867202989
 40
1.0
 40
1.0
 40
1.0
 40
1.0
 10
2290.1176395377
 20
1227.2651982511
 30
0.0
 10
2289.0209026103
 20
1227.8985654303
 30
0.0
 10
2287.769846985
 20
1229.5412085795
 30
0.0
 10
2287.0727745053
 20
1231.8542302633
 30
0.0
 10
2287.1372993917
 20
1233.0571004456
 30
0.0
 10
2287.330474313
 20
1233.5345757305
 30
0.0
  0
SPLINE
  5
5E6
100
AcDbEntity
  8
3_HOLES
100
AcDbSpline
 62
3
  6
CONTINUOUS
 70
0
 71
3
 72
11
 73
7
 74
0
 42
0.0000001
 43
0.0000001
 44
0.0000000001
 40
0.0
 40
0.0
 40
0.0
 40
0.0
 40
0.257676584
 40
0.5401041763
 40
0.7987792918
 40
1.0
 40
1.0
 40
1.0
 40
1.0
 10
2150.7836625184
 20
1287.2067379023
 30
0.0
 10
2150.7836625184
 20
1286.1831041991
 30
0.0
 10
2151.2854960442
 20
1284.039124234
 30
0.0
 10
2152.8923005006
 20
1281.2584518494
 30
0.0
 10
2155.0360871946
 20
1279.1849570636
 30
0.0
 10
2156.8718425346
 20
1278.5089253216
 30
0.0
 10
2157.6694488209
 20
1278.5618429651
 30
0.0
  0
SPLINE
  5
5E7
100
AcDbEntity
  8
4_ALL_POINTS
100
AcDbSpline
 62
3
  6
CONTINUOUS
 70
0
 71
3
 72
9
 73
5
 74
0
 42
0.0000001
 43
0.0000001
 44
0.0000000001
 40
0.0
 40
0.0
 40
0.0
 40
0.0
 40
0.449168643
 40
1.0
 40
1.0
 40
1.0
 40
1.0
 10
2142.0051257295
 20
1068.4889678198
 30
0.0
 10
2141.6713243568
 20
1068.6815272132
 30
0.0
 10
2141.0948925086
 20
1069.4033389703
 30
0.0
 10
2140.980334104
 20
1070.2813997608
 30
0.0
 10
2140.980334104
 20
1070.7539805607
 30
0.0
  0
SPLINE
  5
5E8
100
AcDbEntity
  8
3_HOLES
100
AcDbSpline
 62
3
  6
CONTINUOUS
 70
0
 71
3
 72
8
 73
4
 74
0
 42
0.0000001
 43
0.0000001
 44
0.0000000001
 40
0.0
 40
0.0
 40
0.0
 40
0.0
 40
1.0
 40
1.0
 40
1.0
 40
1.0
 10
2175.5564414905
 20
1272.9004218235
 30
0.0
 10
2175.5564414905
 20
1273.0687112393
 30
0.0
 10
2175.5704970966
 20
1273.2379971005
 30
0.0
 10
2175.6027999714
 20
1273.4031571796
 30
0.0
  0
SPLINE
  5
5E9
100
AcDbEntity
  8
3_HOLES
100
AcDbSpline
 62
3
  6
CONTINUOUS
 70
0
 71
3
 72
9
 73
5
 74
0
 42
0.0000001
 43
0.0000001
 44
0.0000000001
 40
0.0
 40
0.0
 40
0.0
 40
0.0
 40
0.2306768963
 40
1.0
 40
1.0
 40
1.0
 40
1.0
 10
2130.6551608852
 20
1298.8309770271
 30
0.0
 10
2130.6551608852
 20
1298.5521987968
 30
0.0
 10
2130.8176486682
 20
1297.3474759646
 30
0.0
 10
2131.4405995854
 20
1296.2213614571
 30
0.0
 10
2132.0799253835
 20
1295.5463155187
 30
0.0
  0
SPLINE
  5
5EA
100
AcDbEntity
  8
3_HOLES
100
AcDbSpline
 62
3
  6
CONTINUOUS
 70
0
 71
3
 72
9
 73
5
 74
0
 42
0.0000001
 43
0.0000001
 44
0.0000000001
 40
0.0
 40
0.0
 40
0.0
 40
0.0
 40
0.2744717187
 40
1.0
 40
1.0
 40
1.0
 40
1.0
 10
2132.0799253835
 20
1295.5463155187
 30
0.0
 10
2132.1830003854
 20
1295.437481554
 30
0.0
 10
2132.5760067041
 20
1295.059753055
 30
0.0
 10
2133.0478960766
 20
1294.75008521
 30
0.0
 10
2133.4226983422
 20
1294.6215379482
 30
0.0
  0
SPLINE
  5
5EB
100
AcDbEntity
  8
4_ALL_POINTS
100
AcDbSpline
 62
3
  6
CONTINUOUS
 70
0
 71
3
 72
9
 73
5
 74
0
 42
0.0000001
 43
0.0000001
 44
0.0000000001
 40
0.0
 40
0.0
 40
0.0
 40
0.0
 40
0.449168643
 40
1.0
 40
1.0
 40
1.0
 40
1.0
 10
2168.9458940927
 20
1084.0473009419
 30
0.0
 10
2168.61209272
 20
1084.2398603354
 30
0.0
 10
2168.0356608718
 20
1084.9616720925
 30
0.0
 10
2167.9211024672
 20
1085.8397328829
 30
0.0
 10
2167.9211024672
 20
1086.3123136828
 30
0.0
  0
SPLINE
  5
5EC
100
AcDbEntity
  8
0
100
AcDbSpline
 62
3
  6
CONTINUOUS
 70
0
 71
3
 72
9
 73
5
 74
0
 42
0.0000001
 43
0.0000001
 44
0.0000000001
 40
0.0
 40
0.0
 40
0.0
 40
0.0
 40
0.5508569429
 40
1.0
 40
1.0
 40
1.0
 40
1.0
 10
1969.4093589305
 20
1433.7890292578
 30
0.0
 10
1969.8229990036
 20
1434.0279070048
 30
0.0
 10
1970.6494738636
 20
1434.3715805648
 30
0.0
 10
1971.572470509
 20
1434.2314924496
 30
0.0
 10
1971.9097337318
 20
1434.0367233714
 30
0.0
  0
SPLINE
  5
5ED
100
AcDbEntity
  8
0
100
AcDbSpline
 62
3
  6
CONTINUOUS
 70
0
 71
3
 72
9
 73
5
 74
0
 42
0.0000001
 43
0.0000001
 44
0.0000000001
 40
0.0
 40
0.0
 40
0.0
 40
0.0
 40
0.500025651
 40
1.0
 40
1.0
 40
1.0
 40
1.0
 10
2334.3471687009
 20
1131.1930748463
 30
0.0
 10
2335.3965374868
 20
1131.7990868545
 30
0.0
 10
2337.0543575205
 20
1133.71260794
 30
0.0
 10
2337.8827026068
 20
1136.1051373876
 30
0.0
 10
2337.8827026068
 20
1137.3167990982
 30
0.0
  0
SPLINE
  5
5EE
100
AcDbEntity
  8
4_ALL_POINTS
100
AcDbSpline
 62
3
  6
CONTINUOUS
 70
0
 71
3
 72
12
 73
8
 74
0
 42
0.0000001
 43
0.0000001
 44
0.0000000001
 40
0.0
 40
0.0
 40
0.0
 40
0.0
 40
0.2230316573
 40
0.5158588339
 40
0.6644156811
 40
0.7986733925
 40
1.0
 40
1.0
 40
1.0
 40
1.0
 10
1797.7437648196
 20
1281.5464826718
 30
0.0
 10
1798.5803933655
 20
1281.4759757835
 30
0.0
 10
1800.4987164636
 20
1282.4605453704
 30
0.0
 10
1802.0115060897
 20
1284.4794892891
 30
0.0
 10
1802.8139857495
 20
1286.5213753176
 30
0.0
 10
1803.1162926742
 20
1288.2960686698
 30
0.0
 10
1802.7565300854
 20
1289.731238641
 30
0.0
 10
1802.1641919298
 20
1290.2040254347
 30
0.0
  0
SPLINE
  5
5EF
100
AcDbEntity
  8
4_ALL_POINTS
100
AcDbSpline
 62
3
  6
CONTINUOUS
 70
0
 71
3
 72
8
 73
4
 74
0
 42
0.0000001
 43
0.0000001
 44
0.0000000001
 40
0.0
 40
0.0
 40
0.0
 40
0.0
 40
1.0
 40
1.0
 40
1.0
 40
1.0
 10
1816.0131173504
 20
1288.2420430639
 30
0.0
 10
1816.2935732333
 20
1288.2591186045
 30
0.0
 10
1816.5726516946
 20
1288.3271276251
 30
0.0
 10
1816.8358267425
 20
1288.4255449534
 30
0.0
  0
SPLINE
  5
5F0
100
AcDbEntity
  8
4_ALL_POINTS
100
AcDbSpline
 62
3
  6
CONTINUOUS
 70
0
 71
3
 72
9
 73
5
 74
0
 42
0.0000001
 43
0.0000001
 44
0.0000000001
 40
0.0
 40
0.0
 40
0.0
 40
0.0
 40
0.4873977247
 40
1.0
 40
1.0
 40
1.0
 40
1.0
 10
1816.8358267425
 20
1288.4255449534
 30
0.0
 10
1818.0283750043
 20
1288.871512057
 30
0.0
 10
1819.9745186588
 20
1290.8799968961
 30
0.0
 10
1820.943804939
 20
1293.4385948
 30
0.0
 10
1820.943804939
 20
1294.7776433113
 30
0.0
  0
SPLINE
  5
5F1
100
AcDbEntity
  8
0
100
AcDbSpline
 62
3
  6
CONTINUOUS
 70
0
 71
3
 72
9
 73
5
 74
0
 42
0.0000001
 43
0.0000001
 44
0.0000000001
 40
0.0
 40
0.0
 40
0.0
 40
0.0
 40
0.2953286985
 40
1.0
 40
1.0
 40
1.0
 40
1.0
 10
2337.8827026068
 20
1138.5402609495
 30
0.0
 10
2338.0361925877
 20
1138.6289016379
 30
0.0
 10
2338.5294539386
 20
1138.959045991
 30
0.0
 10
2338.9076662696
 20
1139.5465836195
 30
0.0
 10
2338.9076662696
 20
1139.9695041497
 30
0.0
  0
SPLINE
  5
5F2
100
AcDbEntity
  8
4_ALL_POINTS
100
AcDbSpline
 62
3
  6
CONTINUOUS
 70
0
 71
3
 72
8
 73
4
 74
0
 42
0.0000001
 43
0.0000001
 44
0.0000000001
 40
0.0
 40
0.0
 40
0.0
 40
0.0
 40
1.0
 40
1.0
 40
1.0
 40
1.0
 10
1789.0723489872
 20
1272.6837099418
 30
0.0
 10
1789.3528048701
 20
1272.7007854824
 30
0.0
 10
1789.6318833313
 20
1272.7687945029
 30
0.0
 10
1789.8950583793
 20
1272.8672118313
 30
0.0
  0
SPLINE
  5
5F3
100
AcDbEntity
  8
4_ALL_POINTS
100
AcDbSpline
 62
3
  6
CONTINUOUS
 70
0
 71
3
 72
9
 73
5
 74
0
 42
0.0000001
 43
0.0000001
 44
0.0000000001
 40
0.0
 40
0.0
 40
0.0
 40
0.0
 40
0.4873977247
 40
1.0
 40
1.0
 40
1.0
 40
1.0
 10
1789.8950583793
 20
1272.8672118313
 30
0.0
 10
1791.0876066411
 20
1273.3131789349
 30
0.0
 10
1793.0337502956
 20
1275.321663774
 30
0.0
 10
1794.0030365758
 20
1277.8802616779
 30
0.0
 10
1794.0030365758
 20
1279.2193101892
 30
0.0
  0
SPLINE
  5
5F4
100
AcDbEntity
  8
4_ALL_POINTS
100
AcDbSpline
 62
3
  6
CONTINUOUS
 70
0
 71
3
 72
13
 73
9
 74
0
 42
0.0000001
 43
0.0000001
 44
0.0000000001
 40
0.0
 40
0.0
 40
0.0
 40
0.0
 40
0.0933365942
 40
0.1920492648
 40
0.3001374627
 40
0.419684699
 40
0.6924715806
 40
1.0
 40
1.0
 40
1.0
 40
1.0
 10
1822.7621869869
 20
1317.4712026682
 30
0.0
 10
1821.6575427092
 20
1318.1092121841
 30
0.0
 10
1819.1640236968
 20
1319.0700496529
 30
0.0
 10
1815.0263510835
 20
1319.3823251928
 30
0.0
 10
1810.5938538056
 20
1318.6193687499
 30
0.0
 10
1804.1875583222
 20
1316.1238094671
 30
0.0
 10
1796.3013058664
 20
1310.4700322322
 30
0.0
 10
1791.0488929999
 20
1304.4458991873
 30
0.0
 10
1788.6073825491
 20
1301.0246696561
 30
0.0
  0
SPLINE
  5
5F5
100
AcDbEntity
  8
4_ALL_POINTS
100
AcDbSpline
 62
3
  6
CONTINUOUS
 70
0
 71
3
 72
12
 73
8
 74
0
 42
0.0000001
 43
0.0000001
 44
0.0000000001
 40
0.0
 40
0.0
 40
0.0
 40
0.0
 40
0.1088604392
 40
0.2384483506
 40
0.4585807943
 40
0.6798204237
 40
1.0
 40
1.0
 40
1.0
 40
1.0
 10
1796.3662324883
 20
1282.5707000472
 30
0.0
 10
1796.7585806849
 20
1282.6081373828
 30
0.0
 10
1797.5972028638
 20
1282.8985192303
 30
0.0
 10
1798.9500626109
 20
1283.8797427311
 30
0.0
 10
1800.2476646678
 20
1285.5596127269
 30
0.0
 10
1801.3329995751
 20
1287.9996670629
 30
0.0
 10
1801.3024264408
 20
1290.5017698668
 30
0.0
 10
1800.3964249768
 20
1291.2249134348
 30
0.0
  0
SPLINE
  5
5F6
100
AcDbEntity
  8
0
100
AcDbSpline
 62
3
  6
CONTINUOUS
 70
0
 71
3
 72
9
 73
5
 74
0
 42
0.0000001
 43
0.0000001
 44
0.0000000001
 40
0.0
 40
0.0
 40
0.0
 40
0.0
 40
0.5
 40
1.0
 40
1.0
 40
1.0
 40
1.0
 10
2210.6034819932
 20
1067.8948113399
 30
0.0
 10
2211.3380180753
 20
1067.4706156784
 30
0.0
 10
2213.0783557274
 20
1067.1351709734
 30
0.0
 10
2214.8186933795
 20
1067.4706156784
 30
0.0
 10
2215.5532294615
 20
1067.8948113399
 30
0.0
  0
SPLINE
  5
5F7
100
AcDbEntity
  8
4_ALL_POINTS
100
AcDbSpline
 62
3
  6
CONTINUOUS
 70
0
 71
3
 72
8
 73
4
 74
0
 42
0.0000001
 43
0.0000001
 44
0.0000000001
 40
0.0
 40
0.0
 40
0.0
 40
0.0
 40
1.0
 40
1.0
 40
1.0
 40
1.0
 10
1815.7265952143
 20
1289.7658940951
 30
0.0
 10
1815.9844227085
 20
1289.9191653273
 30
0.0
 10
1816.2286416543
 20
1290.0967553547
 30
0.0
 10
1816.4580643982
 20
1290.2899710166
 30
0.0
  0
SPLINE
  5
5F8
100
AcDbEntity
  8
4_ALL_POINTS
100
AcDbSpline
 62
3
  6
CONTINUOUS
 70
0
 71
3
 72
9
 73
5
 74
0
 42
0.0000001
 43
0.0000001
 44
0.0000000001
 40
0.0
 40
0.0
 40
0.0
 40
0.0
 40
0.5109418034
 40
1.0
 40
1.0
 40
1.0
 40
1.0
 10
1816.4580643982
 20
1290.2899710166
 30
0.0
 10
1817.2614140343
 20
1290.9665374681
 30
0.0
 10
1818.5218920331
 20
1292.6568187571
 30
0.0
 10
1819.1523462109
 20
1294.6885489051
 30
0.0
 10
1819.1748541702
 20
1295.6936047428
 30
0.0
  0
SPLINE
  5
5F9
100
AcDbEntity
  8
4_ALL_POINTS
100
AcDbSpline
 62
3
  6
CONTINUOUS
 70
0
 71
3
 72
8
 73
4
 74
0
 42
0.0000001
 43
0.0000001
 44
0.0000000001
 40
0.0
 40
0.0
 40
0.0
 40
0.0
 40
1.0
 40
1.0
 40
1.0
 40
1.0
 10
1788.7858268511
 20
1274.2075609729
 30
0.0
 10
1789.0436543453
 20
1274.3608322052
 30
0.0
 10
1789.2878732911
 20
1274.5384222326
 30
0.0
 10
1789.517296035
 20
1274.7316378945
 30
0.0
  0
SPLINE
  5
5FA
100
AcDbEntity
  8
4_ALL_POINTS
100
AcDbSpline
 62
3
  6
CONTINUOUS
 70
0
 71
3
 72
9
 73
5
 74
0
 42
0.0000001
 43
0.0000001
 44
0.0000000001
 40
0.0
 40
0.0
 40
0.0
 40
0.0
 40
0.5109418034
 40
1.0
 40
1.0
 40
1.0
 40
1.0
 10
1789.517296035
 20
1274.7316378945
 30
0.0
 10
1790.3206456711
 20
1275.4082043459
 30
0.0
 10
1791.5811236699
 20
1277.0984856349
 30
0.0
 10
1792.2115778477
 20
1279.130215783
 30
0.0
 10
1792.234085807
 20
1280.1352716206
 30
0.0
  0
SPLINE
  5
5FB
100
AcDbEntity
  8
3_HOLES
100
AcDbSpline
 62
3
  6
CONTINUOUS
 70
0
 71
3
 72
8
 73
4
 74
0
 42
0.0000001
 43
0.0000001
 44
0.0000000001
 40
0.0
 40
0.0
 40
0.0
 40
0.0
 40
1.0
 40
1.0
 40
1.0
 40
1.0
 10
2130.701519366
 20
1299.3337123832
 30
0.0
 10
2130.6692164912
 20
1299.1685523041
 30
0.0
 10
2130.6551608852
 20
1298.9992664428
 30
0.0
 10
2130.6551608852
 20
1298.8309770271
 30
0.0
  0
SPLINE
  5
5FC
100
AcDbEntity
  8
3_HOLES
100
AcDbSpline
 62
3
  6
CONTINUOUS
 70
0
 71
3
 72
8
 73
4
 74
0
 42
0.0000001
 43
0.0000001
 44
0.0000000001
 40
0.0
 40
0.0
 40
0.0
 40
0.0
 40
1.0
 40
1.0
 40
1.0
 40
1.0
 10
2178.3239789475
 20
1268.6909827446
 30
0.0
 10
2178.1644252647
 20
1268.7457054369
 30
0.0
 10
2178.0105070799
 20
1268.8184995387
 30
0.0
 10
2177.8644380243
 20
1268.9028546318
 30
0.0
  0
SPLINE
  5
5FD
100
AcDbEntity
  8
3_HOLES
100
AcDbSpline
 62
3
  6
CONTINUOUS
 70
0
 71
3
 72
9
 73
5
 74
0
 42
0.0000001
 43
0.0000001
 44
0.0000000001
 40
0.0
 40
0.0
 40
0.0
 40
0.0
 40
0.2355584699
 40
1.0
 40
1.0
 40
1.0
 40
1.0
 10
2177.8644380243
 20
1268.9028546318
 30
0.0
 10
2177.7871064789
 20
1268.9475137124
 30
0.0
 10
2177.4672166631
 20
1269.1515594745
 30
0.0
 10
2177.1804837052
 20
1269.4053486387
 30
0.0
 10
2176.9812059888
 20
1269.6157603152
 30
0.0
  0
SPLINE
  5
5FE
100
AcDbEntity
  8
3_HOLES
100
AcDbSpline
 62
3
  6
CONTINUOUS
 70
0
 71
3
 72
9
 73
5
 74
0
 42
0.0000001
 43
0.0000001
 44
0.0000000001
 40
0.0
 40
0.0
 40
0.0
 40
0.0
 40
0.2592227799
 40
1.0
 40
1.0
 40
1.0
 40
1.0
 10
2176.9812059888
 20
1269.6157603152
 30
0.0
 10
2176.7659924828
 20
1269.8429981392
 30
0.0
 10
2176.0254288769
 20
1270.7935636619
 30
0.0
 10
2175.5564414905
 20
1272.0060352299
 30
0.0
 10
2175.5564414905
 20
1272.9004218235
 30
0.0
  0
SPLINE
  5
5FF
100
AcDbEntity
  8
3_HOLES
100
AcDbSpline
 62
3
  6
CONTINUOUS
 70
0
 71
3
 72
8
 73
4
 74
0
 42
0.0000001
 43
0.0000001
 44
0.0000000001
 40
0.0
 40
0.0
 40
0.0
 40
0.0
 40
1.0
 40
1.0
 40
1.0
 40
1.0
 10
2151.3695129744
 20
1289.4711015614
 30
0.0
 10
2151.2164364251
 20
1289.2424152371
 30
0.0
 10
2151.097828308
 20
1288.988677742
 30
0.0
 10
2151.0102774653
 20
1288.7277855903
 30
0.0
  0
SPLINE
  5
600
100
AcDbEntity
  8
3_HOLES
100
AcDbSpline
 62
3
  6
CONTINUOUS
 70
0
 71
3
 72
9
 73
5
 74
0
 42
0.0000001
 43
0.0000001
 44
0.0000000001
 40
0.0
 40
0.0
 40
0.0
 40
0.0
 40
0.2343686937
 40
1.0
 40
1.0
 40
1.0
 40
1.0
 10
2151.0102774653
 20
1288.7277855903
 30
0.0
 10
2150.9719586376
 20
1288.6135995802
 30
0.0
 10
2150.832764973
 20
1288.1182693724
 30
0.0
 10
2150.7836625184
 20
1287.6002024056
 30
0.0
 10
2150.7836625184
 20
1287.2067379023
 30
0.0
  0
SPLINE
  5
601
100
AcDbEntity
  8
4_ALL_POINTS
100
AcDbSpline
 62
3
  6
CONTINUOUS
 70
0
 71
3
 72
9
 73
5
 74
0
 42
0.0000001
 43
0.0000001
 44
0.0000000001
 40
0.0
 40
0.0
 40
0.0
 40
0.0
 40
0.4999778334
 40
1.0
 40
1.0
 40
1.0
 40
1.0
 10
2167.9211024672
 20
1086.3123136828
 30
0.0
 10
2167.9211024672
 20
1087.5118671142
 30
0.0
 10
2168.7411695996
 20
1089.8804713357
 30
0.0
 10
2170.3824131944
 20
1091.7748529958
 30
0.0
 10
2171.4212810341
 20
1092.3748006923
 30
0.0
  0
SPLINE
  5
602
100
AcDbEntity
  8
4_ALL_POINTS
100
AcDbSpline
 62
3
  6
CONTINUOUS
 70
0
 71
3
 72
9
 73
5
 74
0
 42
0.0000001
 43
0.0000001
 44
0.0000000001
 40
0.0
 40
0.0
 40
0.0
 40
0.0
 40
0.4999778334
 40
1.0
 40
1.0
 40
1.0
 40
1.0
 10
2140.980334104
 20
1070.7539805607
 30
0.0
 10
2140.980334104
 20
1071.953533992
 30
0.0
 10
2141.8004012364
 20
1074.3221382135
 30
0.0
 10
2143.4416448312
 20
1076.2165198737
 30
0.0
 10
2144.4805126709
 20
1076.8164675702
 30
0.0
  0
SPLINE
  5
603
100
AcDbEntity
  8
0
100
AcDbSpline
 62
3
  6
CONTINUOUS
 70
0
 71
3
 72
8
 73
4
 74
0
 42
0.0000001
 43
0.0000001
 44
0.0000000001
 40
0.0
 40
0.0
 40
0.0
 40
0.0
 40
1.0
 40
1.0
 40
1.0
 40
1.0
 10
2205.3001811343
 20
1070.1407649402
 30
0.0
 10
2205.7084026965
 20
1070.3765134892
 30
0.0
 10
2206.3061731345
 20
1070.3765134892
 30
0.0
 10
2206.7143946967
 20
1070.1407649402
 30
0.0
  0
SPLINE
  5
604
100
AcDbEntity
  8
4_ALL_POINTS
100
AcDbSpline
 62
3
  6
CONTINUOUS
 70
0
 71
3
 72
9
 73
5
 74
0
 42
0.0000001
 43
0.0000001
 44
0.0000000001
 40
0.0
 40
0.0
 40
0.0
 40
0.0
 40
0.2334409325
 40
1.0
 40
1.0
 40
1.0
 40
1.0
 10
2309.0578547277
 20
1216.5184406551
 30
0.0
 10
2308.9772445166
 20
1216.5326634595
 30
0.0
 10
2308.6352662934
 20
1216.6123815932
 30
0.0
 10
2308.3109168198
 20
1216.7585540188
 30
0.0
 10
2308.0781517798
 20
1216.8929761697
 30
0.0
  0
SPLINE
  5
605
100
AcDbEntity
  8
4_ALL_POINTS
100
AcDbSpline
 62
3
  6
CONTINUOUS
 70
0
 71
3
 72
9
 73
5
 74
0
 42
0.0000001
 43
0.0000001
 44
0.0000000001
 40
0.0
 40
0.0
 40
0.0
 40
0.0
 40
0.2334409325
 40
1.0
 40
1.0
 40
1.0
 40
1.0
 10
2021.6896588534
 20
1334.5437575866
 30
0.0
 10
2021.6090486424
 20
1334.5579803909
 30
0.0
 10
2021.2670704192
 20
1334.6376985247
 30
0.0
 10
2020.9427209456
 20
1334.7838709502
 30
0.0
 10
2020.7099559056
 20
1334.9182931012
 30
0.0
  0
SPLINE
  5
606
100
AcDbEntity
  8
4_ALL_POINTS
100
AcDbSpline
 62
3
  6
CONTINUOUS
 70
0
 71
3
 72
9
 73
5
 74
0
 42
0.0000001
 43
0.0000001
 44
0.0000000001
 40
0.0
 40
0.0
 40
0.0
 40
0.0
 40
0.2334409325
 40
1.0
 40
1.0
 40
1.0
 40
1.0
 10
2021.6896588534
 20
1382.4739939578
 30
0.0
 10
2021.6090486424
 20
1382.4882167621
 30
0.0
 10
2021.2670704192
 20
1382.5679348959
 30
0.0
 10
2020.9427209456
 20
1382.7141073214
 30
0.0
 10
2020.7099559056
 20
1382.8485294724
 30
0.0
  0
SPLINE
  5
607
100
AcDbEntity
  8
0
100
AcDbSpline
 62
3
  6
CONTINUOUS
 70
0
 71
3
 72
9
 73
5
 74
0
 42
0.0000001
 43
0.0000001
 44
0.0000000001
 40
0.0
 40
0.0
 40
0.0
 40
0.0
 40
0.2953286985
 40
1.0
 40
1.0
 40
1.0
 40
1.0
 10
1849.5547595194
 20
1351.1003087443
 30
0.0
 10
1849.5986137996
 20
1351.1256346552
 30
0.0
 10
1849.7395456142
 20
1351.2199616132
 30
0.0
 10
1849.8476062802
 20
1351.3878295071
 30
0.0
 10
1849.8476062802
 20
1351.5086639443
 30
0.0
  0
SPLINE
  5
608
100
AcDbEntity
  8
4_ALL_POINTS
100
AcDbSpline
 62
3
  6
CONTINUOUS
 70
0
 71
3
 72
9
 73
5
 74
0
 42
0.0000001
 43
0.0000001
 44
0.0000000001
 40
0.0
 40
0.0
 40
0.0
 40
0.0
 40
0.2660813182
 40
1.0
 40
1.0
 40
1.0
 40
1.0
 10
2337.0450002549
 20
1138.0442572751
 30
0.0
 10
2337.1081956714
 20
1137.968480651
 30
0.0
 10
2337.3561659933
 20
1137.6930119793
 30
0.0
 10
2337.6470237468
 20
1137.4529039845
 30
0.0
 10
2337.8827026068
 20
1137.3167990982
 30
0.0
  0
SPLINE
  5
609
100
AcDbEntity
  8
4_ALL_POINTS
100
AcDbSpline
 62
3
  6
CONTINUOUS
 70
0
 71
3
 72
9
 73
5
 74
0
 42
0.0000001
 43
0.0000001
 44
0.0000000001
 40
0.0
 40
0.0
 40
0.0
 40
0.0
 40
0.4999970888
 40
1.0
 40
1.0
 40
1.0
 40
1.0
 10
2336.1149357627
 20
1219.9759401856
 30
0.0
 10
2336.1151210334
 20
1219.3701903439
 30
0.0
 10
2336.5292196568
 20
1218.1741819676
 30
0.0
 10
2337.3581360681
 20
1217.217727949
 30
0.0
 10
2337.8827026068
 20
1216.9147900059
 30
0.0
  0
SPLINE
  5
60A
100
AcDbEntity
  8
0
100
AcDbSpline
 62
3
  6
CONTINUOUS
 70
0
 71
3
 72
9
 73
5
 74
0
 42
0.0000001
 43
0.0000001
 44
0.0000000001
 40
0.0
 40
0.0
 40
0.0
 40
0.0
 40
0.2209565774
 40
1.0
 40
1.0
 40
1.0
 40
1.0
 10
1844.6407085601
 20
1355.5922159449
 30
0.0
 10
1844.6407085601
 20
1355.7255388381
 30
0.0
 10
1844.7478875199
 20
1356.3331757236
 30
0.0
 10
1845.2586091957
 20
1356.7863796517
 30
0.0
 10
1845.6656722228
 20
1357.0214591451
 30
0.0
  0
SPLINE
  5
60B
100
AcDbEntity
  8
4_ALL_POINTS
100
AcDbSpline
 62
3
  6
CONTINUOUS
 70
0
 71
3
 72
9
 73
5
 74
0
 42
0.0000001
 43
0.0000001
 44
0.0000000001
 40
0.0
 40
0.0
 40
0.0
 40
0.0
 40
0.271959568
 40
1.0
 40
1.0
 40
1.0
 40
1.0
 10
1794.0030365758
 20
1279.2193101892
 30
0.0
 10
1794.0030365758
 20
1279.3536093519
 30
0.0
 10
1793.9814390226
 20
1279.8463059139
 30
0.0
 10
1793.8679780675
 20
1280.3414950688
 30
0.0
 10
1793.7117100444
 20
1280.6652785958
 30
0.0
  0
SPLINE
  5
60C
100
AcDbEntity
  8
4_ALL_POINTS
100
AcDbSpline
 62
3
  6
CONTINUOUS
 70
0
 71
3
 72
9
 73
5
 74
0
 42
0.0000001
 43
0.0000001
 44
0.0000000001
 40
0.0
 40
0.0
 40
0.0
 40
0.0
 40
0.271959568
 40
1.0
 40
1.0
 40
1.0
 40
1.0
 10
1820.943804939
 20
1294.7776433113
 30
0.0
 10
1820.943804939
 20
1294.911942474
 30
0.0
 10
1820.9222073858
 20
1295.404639036
 30
0.0
 10
1820.8087464307
 20
1295.899828191
 30
0.0
 10
1820.6524784076
 20
1296.2236117179
 30
0.0
  0
SPLINE
  5
60D
100
AcDbEntity
  8
4_ALL_POINTS
100
AcDbSpline
 62
3
  6
CONTINUOUS
 70
0
 71
3
 72
9
 73
5
 74
0
 42
0.0000001
 43
0.0000001
 44
0.0000000001
 40
0.0
 40
0.0
 40
0.0
 40
0.0
 40
0.5251326871
 40
1.0
 40
1.0
 40
1.0
 40
1.0
 10
1783.4888621576
 20
1292.5377892028
 30
0.0
 10
1781.6183956934
 20
1288.8190792226
 30
0.0
 10
1778.7225578268
 20
1281.3808737685
 30
0.0
 10
1777.4920932351
 20
1273.4483975897
 30
0.0
 10
1777.4920932351
 20
1269.6842162679
 30
0.0
  0
SPLINE
  5
60E
100
AcDbEntity
  8
6_ALL_SURFS
100
AcDbSpline
 62
3
  6
CONTINUOUS
 70
0
 71
3
 72
11
 73
7
 74
0
 42
0.0000001
 43
0.0000001
 44
0.0000000001
 40
0.0
 40
0.0
 40
0.0
 40
0.0
 40
0.2897720882
 40
0.5490629527
 40
0.7822214201
 40
1.0
 40
1.0
 40
1.0
 40
1.0
 10
1777.4920932351
 20
1269.6842162679
 30
0.0
 10
1777.4920932351
 20
1267.7844634778
 30
0.0
 10
1777.7792636138
 20
1264.1724338478
 30
0.0
 10
1779.2429455345
 20
1259.2099148285
 30
0.0
 10
1781.7049129343
 20
1255.1828204641
 30
0.0
 10
1784.0186192568
 20
1253.2379054743
 30
0.0
 10
1785.255021779
 20
1252.523894246
 30
0.0
  0
SPLINE
  5
60F
100
AcDbEntity
  8
0
100
AcDbSpline
 62
3
  6
CONTINUOUS
 70
0
 71
3
 72
9
 73
5
 74
0
 42
0.0000001
 43
0.0000001
 44
0.0000000001
 40
0.0
 40
0.0
 40
0.0
 40
0.0
 40
0.2209565774
 40
1.0
 40
1.0
 40
1.0
 40
1.0
 10
2338.9076662696
 20
1215.4855468057
 30
0.0
 10
2338.9076662696
 20
1215.6188696989
 30
0.0
 10
2338.8004873097
 20
1216.2265065845
 30
0.0
 10
2338.2897656339
 20
1216.6797105126
 30
0.0
 10
2337.8827026068
 20
1216.9147900059
 30
0.0
  0
SPLINE
  5
610
100
AcDbEntity
  8
0
100
AcDbSpline
 62
3
  6
CONTINUOUS
 70
0
 71
3
 72
9
 73
5
 74
0
 42
0.0000001
 43
0.0000001
 44
0.0000000001
 40
0.0
 40
0.0
 40
0.0
 40
0.0
 40
0.449176048
 40
1.0
 40
1.0
 40
1.0
 40
1.0
 10
2336.8475435022
 20
1223.2846046226
 30
0.0
 10
2337.1846284784
 20
1223.0899384817
 30
0.0
 10
2337.7670472429
 20
1222.3611122292
 30
0.0
 10
2337.8827026068
 20
1221.4740838423
 30
0.0
 10
2337.8827026068
 20
1220.9967382576
 30
0.0
  0
SPLINE
  5
611
100
AcDbEntity
  8
4_ALL_POINTS
100
AcDbSpline
 62
3
  6
CONTINUOUS
 70
0
 71
3
 72
9
 73
5
 74
0
 42
0.0000001
 43
0.0000001
 44
0.0000000001
 40
0.0
 40
0.0
 40
0.0
 40
0.0
 40
0.5508646847
 40
1.0
 40
1.0
 40
1.0
 40
1.0
 10
2171.4212810341
 20
1092.3748006923
 30
0.0
 10
2171.830792489
 20
1092.6112941562
 30
0.0
 10
2172.6489468832
 20
1092.9514291168
 30
0.0
 10
2173.56287253
 20
1092.8130244692
 30
0.0
 10
2173.8966657647
 20
1092.6200440626
 30
0.0
  0
SPLINE
  5
612
100
AcDbEntity
  8
4_ALL_POINTS
100
AcDbSpline
 62
3
  6
CONTINUOUS
 70
0
 71
3
 72
9
 73
5
 74
0
 42
0.0000001
 43
0.0000001
 44
0.0000000001
 40
0.0
 40
0.0
 40
0.0
 40
0.0
 40
0.5508646847
 40
1.0
 40
1.0
 40
1.0
 40
1.0
 10
2144.4805126709
 20
1076.8164675702
 30
0.0
 10
2144.8900241258
 20
1077.0529610341
 30
0.0
 10
2145.70817852
 20
1077.3930959947
 30
0.0
 10
2146.6221041668
 20
1077.2546913471
 30
0.0
 10
2146.9558974015
 20
1077.0617109405
 30
0.0
  0
SPLINE
  5
613
100
AcDbEntity
  8
4_ALL_POINTS
100
AcDbSpline
 62
3
  6
CONTINUOUS
 70
0
 71
3
 72
8
 73
4
 74
0
 42
0.0000001
 43
0.0000001
 44
0.0000000001
 40
0.0
 40
0.0
 40
0.0
 40
0.0
 40
1.0
 40
1.0
 40
1.0
 40
1.0
 10
2145.916180128
 20
1077.2747030581
 30
0.0
 10
2145.9777615857
 20
1077.1488182625
 30
0.0
 10
2146.0280586638
 20
1077.0170146966
 30
0.0
 10
2146.0683932369
 20
1076.8828044886
 30
0.0
  0
SPLINE
  5
614
100
AcDbEntity
  8
4_ALL_POINTS
100
AcDbSpline
 62
3
  6
CONTINUOUS
 70
0
 71
3
 72
8
 73
4
 74
0
 42
0.0000001
 43
0.0000001
 44
0.0000000001
 40
0.0
 40
0.0
 40
0.0
 40
0.0
 40
1.0
 40
1.0
 40
1.0
 40
1.0
 10
2146.0683932369
 20
1076.8828044886
 30
0.0
 10
2146.1317968738
 20
1076.6718337344
 30
0.0
 10
2146.1715691531
 20
1076.4530341687
 30
0.0
 10
2146.1930601031
 20
1076.2337927051
 30
0.0
  0
SPLINE
  5
615
100
AcDbEntity
  8
0
100
AcDbSpline
 62
3
  6
CONTINUOUS
 70
0
 71
3
 72
9
 73
5
 74
0
 42
0.0000001
 43
0.0000001
 44
0.0000000001
 40
0.0
 40
0.0
 40
0.0
 40
0.0
 40
0.2953286985
 40
1.0
 40
1.0
 40
1.0
 40
1.0
 10
2337.8827026068
 20
1214.0563036055
 30
0.0
 10
2338.0361925877
 20
1214.1449442939
 30
0.0
 10
2338.5294539386
 20
1214.475088647
 30
0.0
 10
2338.9076662696
 20
1215.0626262755
 30
0.0
 10
2338.9076662696
 20
1215.4855468057
 30
0.0
  0
SPLINE
  5
616
100
AcDbEntity
  8
4_ALL_POINTS
100
AcDbSpline
 62
3
  6
CONTINUOUS
 70
0
 71
3
 72
8
 73
4
 74
0
 42
0.0000001
 43
0.0000001
 44
0.0000000001
 40
0.0
 40
0.0
 40
0.0
 40
0.0
 40
1.0
 40
1.0
 40
1.0
 40
1.0
 10
2172.8569484912
 20
1092.8330361802
 30
0.0
 10
2172.9185299489
 20
1092.7071513846
 30
0.0
 10
2172.9688270271
 20
1092.5753478187
 30
0.0
 10
2173.0091616001
 20
1092.4411376107
 30
0.0
  0
SPLINE
  5
617
100
AcDbEntity
  8
4_ALL_POINTS
100
AcDbSpline
 62
3
  6
CONTINUOUS
 70
0
 71
3
 72
8
 73
4
 74
0
 42
0.0000001
 43
0.0000001
 44
0.0000000001
 40
0.0
 40
0.0
 40
0.0
 40
0.0
 40
1.0
 40
1.0
 40
1.0
 40
1.0
 10
2173.0091616001
 20
1092.4411376107
 30
0.0
 10
2173.0725652371
 20
1092.2301668565
 30
0.0
 10
2173.1123375163
 20
1092.0113672908
 30
0.0
 10
2173.1338284663
 20
1091.7921258272
 30
0.0
  0
SPLINE
  5
618
100
AcDbEntity
  8
0
100
AcDbSpline
 62
3
  6
CONTINUOUS
 70
0
 71
3
 72
9
 73
5
 74
0
 42
0.0000001
 43
0.0000001
 44
0.0000000001
 40
0.0
 40
0.0
 40
0.0
 40
0.0
 40
0.2953286985
 40
1.0
 40
1.0
 40
1.0
 40
1.0
 10
1845.6656722228
 20
1354.1629727447
 30
0.0
 10
1845.5121822419
 20
1354.2516134331
 30
0.0
 10
1845.018920891
 20
1354.5817577861
 30
0.0
 10
1844.6407085601
 20
1355.1692954147
 30
0.0
 10
1844.6407085601
 20
1355.5922159449
 30
0.0
  0
SPLINE
  5
619
100
AcDbEntity
  8
0
100
AcDbSpline
 62
3
  6
CONTINUOUS
 70
0
 71
3
 72
9
 73
5
 74
0
 42
0.0000001
 43
0.0000001
 44
0.0000000001
 40
0.0
 40
0.0
 40
0.0
 40
0.0
 40
0.4970432323
 40
1.0
 40
1.0
 40
1.0
 40
1.0
 10
1849.8476062802
 20
1351.5086639443
 30
0.0
 10
1849.8476062802
 20
1351.5238030196
 30
0.0
 10
1849.8455347026
 20
1351.5542959875
 30
0.0
 10
1849.8393871685
 20
1351.5842298683
 30
0.0
 10
1849.8353410788
 20
1351.5990050766
 30
0.0
  0
SPLINE
  5
61A
100
AcDbEntity
  8
0
100
AcDbSpline
 62
3
  6
CONTINUOUS
 70
0
 71
3
 72
8
 73
4
 74
0
 42
0.0000001
 43
0.0000001
 44
0.0000000001
 40
0.0
 40
0.0
 40
0.0
 40
0.0
 40
1.0
 40
1.0
 40
1.0
 40
1.0
 10
1849.8353410788
 20
1351.5990050766
 30
0.0
 10
1849.7980036465
 20
1351.735351125
 30
0.0
 10
1849.6771779986
 20
1351.8463222936
 30
0.0
 10
1849.5547595194
 20
1351.9170191444
 30
0.0
  0
SPLINE
  5
61B
100
AcDbEntity
  8
4_ALL_POINTS
100
AcDbSpline
 62
3
  6
CONTINUOUS
 70
0
 71
3
 72
9
 73
5
 74
0
 42
0.0000001
 43
0.0000001
 44
0.0000000001
 40
0.0
 40
0.0
 40
0.0
 40
0.0
 40
0.5161200724
 40
1.0
 40
1.0
 40
1.0
 40
1.0
 10
2173.1483366908
 20
1091.1510010842
 30
0.0
 10
2173.0869001386
 20
1089.8410253494
 30
0.0
 10
2172.1086243242
 20
1087.3828565777
 30
0.0
 10
2170.1973203691
 20
1085.4544760499
 30
0.0
 10
2169.0457144515
 20
1085.0238198056
 30
0.0
  0
SPLINE
  5
61C
100
AcDbEntity
  8
4_ALL_POINTS
100
AcDbSpline
 62
3
  6
CONTINUOUS
 70
0
 71
3
 72
8
 73
4
 74
0
 42
0.0000001
 43
0.0000001
 44
0.0000000001
 40
0.0
 40
0.0
 40
0.0
 40
0.0
 40
1.0
 40
1.0
 40
1.0
 40
1.0
 10
2169.0457144515
 20
1085.0238198056
 30
0.0
 10
2168.7838521219
 20
1084.9258933834
 30
0.0
 10
2168.5062799812
 20
1084.8580817758
 30
0.0
 10
2168.2272545861
 20
1084.8405805543
 30
0.0
  0
SPLINE
  5
61D
100
AcDbEntity
  8
4_ALL_POINTS
100
AcDbSpline
 62
3
  6
CONTINUOUS
 70
0
 71
3
 72
9
 73
5
 74
0
 42
0.0000001
 43
0.0000001
 44
0.0000000001
 40
0.0
 40
0.0
 40
0.0
 40
0.0
 40
0.5161200724
 40
1.0
 40
1.0
 40
1.0
 40
1.0
 10
2146.2075683276
 20
1075.592667962
 30
0.0
 10
2146.1461317754
 20
1074.2826922273
 30
0.0
 10
2145.167855961
 20
1071.8245234556
 30
0.0
 10
2143.2565520059
 20
1069.8961429278
 30
0.0
 10
2142.1049460883
 20
1069.4654866835
 30
0.0
  0
SPLINE
  5
61E
100
AcDbEntity
  8
4_ALL_POINTS
100
AcDbSpline
 62
3
  6
CONTINUOUS
 70
0
 71
3
 72
8
 73
4
 74
0
 42
0.0000001
 43
0.0000001
 44
0.0000000001
 40
0.0
 40
0.0
 40
0.0
 40
0.0
 40
1.0
 40
1.0
 40
1.0
 40
1.0
 10
2142.1049460883
 20
1069.4654866835
 30
0.0
 10
2141.8430837587
 20
1069.3675602612
 30
0.0
 10
2141.565511618
 20
1069.2997486536
 30
0.0
 10
2141.2864862229
 20
1069.2822474322
 30
0.0
  0
SPLINE
  5
61F
100
AcDbEntity
  8
4_ALL_POINTS
100
AcDbSpline
 62
3
  6
CONTINUOUS
 70
0
 71
3
 72
12
 73
8
 74
0
 42
0.0000001
 43
0.0000001
 44
0.0000000001
 40
0.0
 40
0.0
 40
0.0
 40
0.0
 40
0.2013266075
 40
0.3355843189
 40
0.4841411661
 40
0.7769683427
 40
1.0
 40
1.0
 40
1.0
 40
1.0
 10
2154.3740796388
 20
1086.8023002869
 30
0.0
 10
2154.9664177944
 20
1086.3295134932
 30
0.0
 10
2155.3261803833
 20
1084.8943435221
 30
0.0
 10
2155.0238734585
 20
1083.1196501699
 30
0.0
 10
2154.2213937987
 20
1081.0777641413
 30
0.0
 10
2152.7086041726
 20
1079.0588202227
 30
0.0
 10
2150.7902810745
 20
1078.0742506357
 30
0.0
 10
2149.9536525286
 20
1078.144757524
 30
0.0
  0
SPLINE
  5
620
100
AcDbEntity
  8
4_ALL_POINTS
100
AcDbSpline
 62
3
  6
CONTINUOUS
 70
0
 71
3
 72
15
 73
11
 74
0
 42
0.0000001
 43
0.0000001
 44
0.0000000001
 40
0.0
 40
0.0
 40
0.0
 40
0.0
 40
0.0932390009
 40
0.2075480289
 40
0.3462965238
 40
0.5000016078
 40
0.6537065307
 40
0.7924543597
 40
0.9067619981
 40
1.0
 40
1.0
 40
1.0
 40
1.0
 10
2173.8966657647
 20
1092.6200440626
 30
0.0
 10
2174.230436765
 20
1092.4270765107
 30
0.0
 10
2174.8062207551
 20
1091.7037702181
 30
0.0
 10
2175.0017089535
 20
1090.2464937807
 30
0.0
 10
2174.7070557836
 20
1088.5724715581
 30
0.0
 10
2173.9556606168
 20
1086.8700404391
 30
0.0
 10
2172.856664668
 20
1085.3683538923
 30
0.0
 10
2171.5539989799
 20
1084.2764721146
 30
0.0
 10
2170.1940979497
 20
1083.7174580937
 30
0.0
 10
2169.2798459152
 20
1083.8546547587
 30
0.0
 10
2168.9458940927
 20
1084.0473009419
 30
0.0
  0
SPLINE
  5
621
100
AcDbEntity
  8
4_ALL_POINTS
100
AcDbSpline
 62
3
  6
CONTINUOUS
 70
0
 71
3
 72
15
 73
11
 74
0
 42
0.0000001
 43
0.0000001
 44
0.0000000001
 40
0.0
 40
0.0
 40
0.0
 40
0.0
 40
0.0932390009
 40
0.2075480289
 40
0.3462965238
 40
0.5000016078
 40
0.6537065307
 40
0.7924543597
 40
0.9067619981
 40
1.0
 40
1.0
 40
1.0
 40
1.0
 10
2146.9558974015
 20
1077.0617109405
 30
0.0
 10
2147.2896684018
 20
1076.8687433885
 30
0.0
 10
2147.8654523919
 20
1076.145437096
 30
0.0
 10
2148.0609405903
 20
1074.6881606586
 30
0.0
 10
2147.7662874204
 20
1073.014138436
 30
0.0
 10
2147.0148922536
 20
1071.311707317
 30
0.0
 10
2145.9158963047
 20
1069.8100207702
 30
0.0
 10
2144.6132306167
 20
1068.7181389925
 30
0.0
 10
2143.2533295865
 20
1068.1591249716
 30
0.0
 10
2142.339077552
 20
1068.2963216366
 30
0.0
 10
2142.0051257295
 20
1068.4889678198
 30
0.0
  0
SPLINE
  5
622
100
AcDbEntity
  8
4_ALL_POINTS
100
AcDbSpline
 62
3
  6
CONTINUOUS
 70
0
 71
3
 72
14
 73
10
 74
0
 42
0.0000001
 43
0.0000001
 44
0.0000000001
 40
0.0
 40
0.0
 40
0.0
 40
0.0
 40
0.2089502636
 40
0.3504571256
 40
0.5046540024
 40
0.6571580288
 40
0.7941046121
 40
0.9070817603
 40
1.0
 40
1.0
 40
1.0
 40
1.0
 10
2156.1418465918
 20
1085.7814122868
 30
0.0
 10
2156.8001716582
 20
1085.2559566928
 30
0.0
 10
2157.1180627737
 20
1083.5991623096
 30
0.0
 10
2156.6609330698
 20
1081.6509022919
 30
0.0
 10
2155.8864240334
 20
1079.9903950418
 30
0.0
 10
2154.7884079895
 20
1078.5624506591
 30
0.0
 10
2153.5121209189
 20
1077.53321524
 30
0.0
 10
2152.1896811942
 20
1077.0190122034
 30
0.0
 10
2151.3099963352
 20
1077.1619405345
 30
0.0
 10
2150.9853949395
 20
1077.348853716
 30
0.0
  0
SPLINE
  5
623
100
AcDbEntity
  8
0
100
AcDbSpline
 62
3
  6
CONTINUOUS
 70
0
 71
3
 72
8
 73
4
 74
0
 42
0.0000001
 43
0.0000001
 44
0.0000000001
 40
0.0
 40
0.0
 40
0.0
 40
0.0
 40
1.0
 40
1.0
 40
1.0
 40
1.0
 10
2205.3001811343
 20
1145.6568075962
 30
0.0
 10
2205.7084026965
 20
1145.8925561453
 30
0.0
 10
2206.3061731345
 20
1145.8925561453
 30
0.0
 10
2206.7143946967
 20
1145.6568075962
 30
0.0
  0
SPLINE
  5
624
100
AcDbEntity
  8
0
100
AcDbSpline
 62
3
  6
CONTINUOUS
 70
0
 71
3
 72
9
 73
5
 74
0
 42
0.0000001
 43
0.0000001
 44
0.0000000001
 40
0.0
 40
0.0
 40
0.0
 40
0.0
 40
0.5508569429
 40
1.0
 40
1.0
 40
1.0
 40
1.0
 10
2334.3471687009
 20
1223.036910509
 30
0.0
 10
2334.760808774
 20
1223.2757882561
 30
0.0
 10
2335.587283634
 20
1223.619461816
 30
0.0
 10
2336.5102802794
 20
1223.4793737008
 30
0.0
 10
2336.8475435022
 20
1223.2846046226
 30
0.0
  0
SPLINE
  5
625
100
AcDbEntity
  8
0
100
AcDbSpline
 62
3
  6
CONTINUOUS
 70
0
 71
3
 72
9
 73
5
 74
0
 42
0.0000001
 43
0.0000001
 44
0.0000000001
 40
0.0
 40
0.0
 40
0.0
 40
0.0
 40
0.5
 40
1.0
 40
1.0
 40
1.0
 40
1.0
 10
2210.6034819932
 20
1143.4108539959
 30
0.0
 10
2211.3380180753
 20
1142.9866583345
 30
0.0
 10
2213.0783557274
 20
1142.6512136295
 30
0.0
 10
2214.8186933795
 20
1142.9866583345
 30
0.0
 10
2215.5532294615
 20
1143.4108539959
 30
0.0
  0
ENDSEC
  0
SECTION
  2
OBJECTS
  0
DICTIONARY
  5
C
100
AcDbDictionary
280
0
281
1
  3
ACAD_GROUP
350
D
  3
ACAD_MLINESTYLE
350
17
  3
ACAD_LAYOUT
350
1A
  3
ACAD_PLOTSETTINGS
350
19
  3
ACAD_PLOTSTYLENAME
350
E
  0
DICTIONARY
  5
D
102
{ACAD_REACTORS
330
C
102
}
100
AcDbDictionary
280
0
281
1
  0
ACDBDICTIONARYWDFLT
  5
E
102
{ACAD_REACTORS
330
C
102
}
100
AcDbDictionary
281
1
  3
Normal
350
F
100
AcDbDictionaryWithDefault
340
F
  0
DICTIONARY
  5
17
102
{ACAD_REACTORS
330
C
102
}
100
AcDbDictionary
280
0
281
1
  3
Standard
350
18
  0
DICTIONARY
  5
19
102
{ACAD_REACTORS
330
C
102
}
100
AcDbDictionary
281
1
  0
DICTIONARY
  5
1A
102
{ACAD_REACTORS
330
C
102
}
100
AcDbDictionary
281
1
  3
Model
350
626
  3
Layout1
350
627
  0
ACDBPLACEHOLDER
  5
F
102
{ACAD_REACTORS
330
E
102
}
  0
MLINESTYLE
  5
18
102
{ACAD_REACTORS
330
17
102
}
100
AcDbMlineStyle
  2
STANDARD
 70
0
  3

 62
256
 51
90.0
 52
90.0
 71
2
 49
0.5
 62
256
  6
BYLAYER
 49
-0.5
 62
256
  6
BYLAYER
  0
LAYOUT
  5
626
102
{ACAD_REACTORS
330
1A
102
}
100
AcDbPlotSettings
  1

  2
none_device
  4

  6

 40
0.0
 41
0.0
 42
0.0
 43
0.0
 44
431.8
 45
279.4
 46
0.0
 47
0.0
 48
0.0
 49
0.0
140
0.0
141
0.0
142
1.0
143
1.0
 70
1024
 72
1
 73
0
 74
0
  7

 75
0
147
1.0
148
0.0
149
0.0
100
AcDbLayout
  1
Model
 70
0
 71
0
 10
0.0
 20
0.0
 11
431.8
 21
279.4
 12
0.0
 22
0.0
 32
0.0
 14
0.0
 24
0.0
 34
0.0
 15
0.0
 25
0.0
 35
0.0
146
0.0
 13
0.0
 23
0.0
 33
0.0
 16
1.0
 26
0.0
 36
0.0
 17
0.0
 27
1.0
 37
0.0
 76
0
330
211
345
0
346
0
  0
LAYOUT
  5
627
102
{ACAD_REACTORS
330
1A
102
}
100
AcDbPlotSettings
  1

  2
none_device
  4

  6

 40
0.0
 41
0.0
 42
0.0
 43
0.0
 44
431.8
 45
279.4
 46
0.0
 47
0.0
 48
0.0
 49
0.0
140
0.0
141
0.0
142
1.0
143
1.0
 70
0
 72
1
 73
0
 74
0
  7

 75
0
147
1.0
148
0.0
149
0.0
100
AcDbLayout
  1
Layout1
 70
0
 71
1
 10
0.0
 20
0.0
 11
431.8
 21
279.4
 12
0.0
 22
0.0
 32
0.0
 14
0.0
 24
0.0
 34
0.0
 15
0.0
 25
0.0
 35
0.0
146
0.0
 13
0.0
 23
0.0
 33
0.0
 16
1.0
 26
0.0
 36
0.0
 17
0.0
 27
1.0
 37
0.0
 76
0
330
212
345
0
346
0
  0
ENDSEC
  0
EOF
