999
DXF file: fg-001265-2d-A.dxf
999
Pro/ENGINEER 2016130 by Parametric Technology Corporation
  0
SECTION
  2
HEADER
  9
$ACADVER
  1
AC1015
  9
$DWGCODEPAGE
  3
ANSI_1252
  9
$EXTMAX
 10
136.0
 20
88.0
 30
0.0
  9
$EXTMIN
 10
0.0
 20
0.0
 30
0.0
  9
$LIMMIN
 10
0.0
 20
0.0
  9
$LIMMAX
 10
136.0
 20
88.0
  9
$VIEWCTR
 10
68.0
 20
44.0
  9
$VIEWSIZE
 40
88.0
  9
$CLAYER
  8
0
  9
$LTSCALE
 40
7.48
  9
$CELTYPE
  6
BYLAYER
  9
$DIMSCALE
 40
1.0
  9
$DIMASZ
 40
1.2
  9
$DIMEXO
 40
0.0625
  9
$DIMDLI
 40
5.168
  9
$DIMEXE
 40
0.125
  9
$DIMCEN
 40
1.224
  9
$DIMLFAC
 40
1.0
  9
$DIMBLK
  1
_FILLED
  9
$DIMALT
 70
0
  9
$DIMALTF
 40
25.4
  9
$DIMTXT
 40
0.625
  9
$DIMTOL
 70
1
  9
$DIMLIM
 70
0
  9
$DIMTFAC
 40
1.0
  9
$DIMTP
 40
0.01
  9
$DIMTM
 40
0.01
  9
$DIMGAP
 40
0.09
  9
$DIMDSEP
 70
46
  9
$AUNITS
 70
0
  9
$PDMODE
 70
3
  9
$PDSIZE
 40
0.3125
  9
$HANDSEED
  5
6B7
  9
$TILEMODE
 70
1
  9
$MEASUREMENT
 70
0
  9
$INSUNITS
 70
1
  0
ENDSEC
  0
SECTION
  2
CLASSES
  0
CLASS
  1
ACDBDICTIONARYWDFLT
  2
AcDbDictionaryWithDefault
  3
AutoCAD 2000
 90
0
280
0
281
0
  0
CLASS
  1
ACDBPLACEHOLDER
  2
AcDbPlaceHolder
  3
AutoCAD 2000
 90
0
280
0
281
0
  0
CLASS
  1
LAYOUT
  2
AcDbLayout
  3
AutoCAD 2000
 90
0
280
0
281
0
  0
ENDSEC
  0
SECTION
  2
TABLES
  0
TABLE
  2
VPORT
  5
8
100
AcDbSymbolTable
 70
2
  0
VPORT
  5
1F4
100
AcDbSymbolTableRecord
100
AcDbViewportTableRecord
  2
*ACTIVE
 70
0
 10
0.0
 20
0.0
 11
1.0
 21
1.0
 12
68.0
 22
44.0
 13
0.0
 23
0.0
 14
1.0
 24
1.0
 15
0.0
 25
0.0
 16
0.0
 26
0.0
 36
1.0
 17
0.0
 27
0.0
 37
0.0
 40
88.0
 41
1.5454545455
 42
50.0
 43
0.0
 44
0.0
 50
0.0
 51
0.0
 71
0
 72
100
 73
1
 74
1
 75
0
 76
0
 77
0
 78
0
  0
ENDTAB
  0
TABLE
  2
LTYPE
  5
5
100
AcDbSymbolTable
 70
6
  0
LTYPE
  5
14
100
AcDbSymbolTableRecord
100
AcDbLinetypeTableRecord
  2
BYBLOCK
 70
0
  3

 72
65
 73
0
 40
0.0
  0
LTYPE
  5
15
100
AcDbSymbolTableRecord
100
AcDbLinetypeTableRecord
  2
BYLAYER
 70
0
  3

 72
65
 73
0
 40
0.0
  0
LTYPE
  5
16
100
AcDbSymbolTableRecord
100
AcDbLinetypeTableRecord
  2
CONTINUOUS
 70
64
  3
Solid line
 72
65
 73
0
 40
0.0
  0
LTYPE
  5
1F5
100
AcDbSymbolTableRecord
100
AcDbLinetypeTableRecord
  2
CENTER
 70
64
  3
____ _ ____ _ ____ _ ____ _ ____ _ ____ _ ____
 72
65
 73
4
 40
0.6
 49
0.375
 74
0
 49
-0.075
 74
0
 49
0.075
 74
0
 49
-0.075
 74
0
  0
LTYPE
  5
1F6
100
AcDbSymbolTableRecord
100
AcDbLinetypeTableRecord
  2
HIDDEN
 70
64
  3
- - - - - - - - - - - - - - - - - - - -
 72
65
 73
2
 40
0.2
 49
0.1
 74
0
 49
-0.1
 74
0
  0
LTYPE
  5
1F7
100
AcDbSymbolTableRecord
100
AcDbLinetypeTableRecord
  2
PHANTOM
 70
64
  3
_____ _ _ _____ _ _ _____ _ _ _____
 72
65
 73
6
 40
0.8
 49
0.45
 74
0
 49
-0.05
 74
0
 49
0.1
 74
0
 49
-0.05
 74
0
 49
0.1
 74
0
 49
-0.05
 74
0
  0
LTYPE
  5
1F8
100
AcDbSymbolTableRecord
100
AcDbLinetypeTableRecord
  2
DOT
 70
64
  3
. . . . . . . . . . . . . . . . . . . .
 72
65
 73
2
 40
0.2
 49
0.1
 74
0
 49
-0.1
 74
0
  0
LTYPE
  5
1F9
100
AcDbSymbolTableRecord
100
AcDbLinetypeTableRecord
  2
DASHED
 70
64
  3
- - - - - - - - - - - - - - - - - - - -
 72
65
 73
2
 40
0.2
 49
0.1
 74
0
 49
-0.1
 74
0
  0
ENDTAB
  0
TABLE
  2
LAYER
  5
2
100
AcDbSymbolTable
 70
36
  0
LAYER
  5
10
100
AcDbSymbolTableRecord
100
AcDbLayerTableRecord
  2
0
 70
0
 62
7
  6
CONTINUOUS
370
-3
390
F
  0
LAYER
  5
1FA
100
AcDbSymbolTableRecord
100
AcDbLayerTableRecord
  2
DEFAULT_1
 70
0
 62
7
  6
CENTER
370
-3
390
F
  0
LAYER
  5
1FB
100
AcDbSymbolTableRecord
100
AcDbLayerTableRecord
  2
DEFAULT_2
 70
0
 62
8
  6
HIDDEN
370
-3
390
F
  0
LAYER
  5
1FC
100
AcDbSymbolTableRecord
100
AcDbLayerTableRecord
  2
DEFAULT_3
 70
0
 62
7
  6
PHANTOM
370
-3
390
F
  0
LAYER
  5
1FD
100
AcDbSymbolTableRecord
100
AcDbLayerTableRecord
  2
1_ALL_PLANES
 70
0
 62
7
  6
CONTINUOUS
370
-3
390
F
  0
LAYER
  5
1FE
100
AcDbSymbolTableRecord
100
AcDbLayerTableRecord
  2
1__DEF_PLANES
 70
0
 62
7
  6
CONTINUOUS
370
-3
390
F
  0
LAYER
  5
1FF
100
AcDbSymbolTableRecord
100
AcDbLayerTableRecord
  2
2_ALL_CSYS
 70
0
 62
7
  6
CONTINUOUS
370
-3
390
F
  0
LAYER
  5
200
100
AcDbSymbolTableRecord
100
AcDbLayerTableRecord
  2
2__DEF_CSYS
 70
0
 62
7
  6
CONTINUOUS
370
-3
390
F
  0
LAYER
  5
201
100
AcDbSymbolTableRecord
100
AcDbLayerTableRecord
  2
3_ALL_AXES
 70
0
 62
7
  6
CONTINUOUS
370
-3
390
F
  0
LAYER
  5
202
100
AcDbSymbolTableRecord
100
AcDbLayerTableRecord
  2
3_AXES_OTHER
 70
0
 62
7
  6
CONTINUOUS
370
-3
390
F
  0
LAYER
  5
203
100
AcDbSymbolTableRecord
100
AcDbLayerTableRecord
  2
3_HOLES
 70
0
 62
7
  6
CONTINUOUS
370
-3
390
F
  0
LAYER
  5
204
100
AcDbSymbolTableRecord
100
AcDbLayerTableRecord
  2
4_ALL_POINTS
 70
0
 62
7
  6
CONTINUOUS
370
-3
390
F
  0
LAYER
  5
205
100
AcDbSymbolTableRecord
100
AcDbLayerTableRecord
  2
5_ALL_CURVES
 70
0
 62
7
  6
CONTINUOUS
370
-3
390
F
  0
LAYER
  5
206
100
AcDbSymbolTableRecord
100
AcDbLayerTableRecord
  2
6_ALL_SURFS
 70
0
 62
7
  6
CONTINUOUS
370
-3
390
F
  0
LAYER
  5
207
100
AcDbSymbolTableRecord
100
AcDbLayerTableRecord
  2
6_COPYGEOM
 70
0
 62
7
  6
CONTINUOUS
370
-3
390
F
  0
LAYER
  5
208
100
AcDbSymbolTableRecord
100
AcDbLayerTableRecord
  2
7_ALL_ROUNDS
 70
0
 62
7
  6
CONTINUOUS
370
-3
390
F
  0
LAYER
  5
209
100
AcDbSymbolTableRecord
100
AcDbLayerTableRecord
  2
7_MERGES
 70
0
 62
7
  6
CONTINUOUS
370
-3
390
F
  0
LAYER
  5
20A
100
AcDbSymbolTableRecord
100
AcDbLayerTableRecord
  2
8_GDT
 70
0
 62
7
  6
CONTINUOUS
370
-3
390
F
  0
LAYER
  5
20B
100
AcDbSymbolTableRecord
100
AcDbLayerTableRecord
  2
8_SET_DATUMS
 70
0
 62
7
  6
CONTINUOUS
370
-3
390
F
  0
LAYER
  5
20C
100
AcDbSymbolTableRecord
100
AcDbLayerTableRecord
  2
9_COSMETICS
 70
0
 62
7
  6
CONTINUOUS
370
-3
390
F
  0
LAYER
  5
20D
100
AcDbSymbolTableRecord
100
AcDbLayerTableRecord
  2
9_THREADS
 70
0
 62
7
  6
CONTINUOUS
370
-3
390
F
  0
ENDTAB
  0
TABLE
  2
STYLE
  5
3
100
AcDbSymbolTable
 70
1
  0
STYLE
  5
11
100
AcDbSymbolTableRecord
100
AcDbTextStyleTableRecord
  2
STANDARD
 70
0
 40
0.0
 41
0.8
 50
0.0
 71
0
 42
0.2
  3
txt
  4

  0
STYLE
  5
20E
100
AcDbSymbolTableRecord
100
AcDbTextStyleTableRecord
  2
TEXTSTYLE_1
 70
0
 40
0.0
 41
0.8
 50
0.0
 71
0
 42
0.2
  3
gdt
  4

  0
ENDTAB
  0
TABLE
  2
VIEW
  5
6
100
AcDbSymbolTable
 70
0
  0
ENDTAB
  0
TABLE
  2
UCS
  5
7
100
AcDbSymbolTable
 70
0
  0
ENDTAB
  0
TABLE
  2
APPID
  5
9
100
AcDbSymbolTable
 70
1
  0
APPID
  5
20F
100
AcDbSymbolTableRecord
100
AcDbRegAppTableRecord
  2
ACAD
 70
0
  0
ENDTAB
  0
TABLE
  2
BLOCK_RECORD
  5
1
100
AcDbSymbolTable
 70
0
  0
BLOCK_RECORD
  5
210
100
AcDbSymbolTableRecord
100
AcDbBlockTableRecord
  2
*Model_Space
  0
BLOCK_RECORD
  5
211
100
AcDbSymbolTableRecord
100
AcDbBlockTableRecord
  2
*Paper_Space
  0
BLOCK_RECORD
  5
212
100
AcDbSymbolTableRecord
100
AcDbBlockTableRecord
  2
_FILLED
  0
BLOCK_RECORD
  5
213
100
AcDbSymbolTableRecord
100
AcDbBlockTableRecord
  2
*D0
  0
BLOCK_RECORD
  5
214
100
AcDbSymbolTableRecord
100
AcDbBlockTableRecord
  2
*D1
  0
BLOCK_RECORD
  5
215
100
AcDbSymbolTableRecord
100
AcDbBlockTableRecord
  2
*D2
  0
BLOCK_RECORD
  5
216
100
AcDbSymbolTableRecord
100
AcDbBlockTableRecord
  2
*D3
  0
BLOCK_RECORD
  5
217
100
AcDbSymbolTableRecord
100
AcDbBlockTableRecord
  2
*D4
  0
BLOCK_RECORD
  5
218
100
AcDbSymbolTableRecord
100
AcDbBlockTableRecord
  2
*D5
  0
BLOCK_RECORD
  5
219
100
AcDbSymbolTableRecord
100
AcDbBlockTableRecord
  2
*D6
  0
BLOCK_RECORD
  5
21A
100
AcDbSymbolTableRecord
100
AcDbBlockTableRecord
  2
*D7
  0
BLOCK_RECORD
  5
21B
100
AcDbSymbolTableRecord
100
AcDbBlockTableRecord
  2
*D8
  0
BLOCK_RECORD
  5
21C
100
AcDbSymbolTableRecord
100
AcDbBlockTableRecord
  2
*D9
  0
BLOCK_RECORD
  5
21D
100
AcDbSymbolTableRecord
100
AcDbBlockTableRecord
  2
*D10
  0
BLOCK_RECORD
  5
21E
100
AcDbSymbolTableRecord
100
AcDbBlockTableRecord
  2
*D11
  0
BLOCK_RECORD
  5
21F
100
AcDbSymbolTableRecord
100
AcDbBlockTableRecord
  2
*D12
  0
BLOCK_RECORD
  5
220
100
AcDbSymbolTableRecord
100
AcDbBlockTableRecord
  2
*D13
  0
BLOCK_RECORD
  5
221
100
AcDbSymbolTableRecord
100
AcDbBlockTableRecord
  2
*D14
  0
BLOCK_RECORD
  5
222
100
AcDbSymbolTableRecord
100
AcDbBlockTableRecord
  2
*D15
  0
BLOCK_RECORD
  5
223
100
AcDbSymbolTableRecord
100
AcDbBlockTableRecord
  2
*D16
  0
BLOCK_RECORD
  5
224
100
AcDbSymbolTableRecord
100
AcDbBlockTableRecord
  2
*D17
  0
BLOCK_RECORD
  5
225
100
AcDbSymbolTableRecord
100
AcDbBlockTableRecord
  2
*D18
  0
BLOCK_RECORD
  5
226
100
AcDbSymbolTableRecord
100
AcDbBlockTableRecord
  2
*D19
  0
BLOCK_RECORD
  5
227
100
AcDbSymbolTableRecord
100
AcDbBlockTableRecord
  2
*D20
  0
BLOCK_RECORD
  5
228
100
AcDbSymbolTableRecord
100
AcDbBlockTableRecord
  2
*D21
  0
BLOCK_RECORD
  5
229
100
AcDbSymbolTableRecord
100
AcDbBlockTableRecord
  2
*D22
  0
BLOCK_RECORD
  5
22A
100
AcDbSymbolTableRecord
100
AcDbBlockTableRecord
  2
*D23
  0
BLOCK_RECORD
  5
22B
100
AcDbSymbolTableRecord
100
AcDbBlockTableRecord
  2
*D24
  0
BLOCK_RECORD
  5
22C
100
AcDbSymbolTableRecord
100
AcDbBlockTableRecord
  2
CG_3D_BL2
  0
BLOCK_RECORD
  5
22D
100
AcDbSymbolTableRecord
100
AcDbBlockTableRecord
  2
CG_3D_BL1
  0
BLOCK_RECORD
  5
22E
100
AcDbSymbolTableRecord
100
AcDbBlockTableRecord
  2
RD010411_BL0
  0
ENDTAB
  0
TABLE
  2
DIMSTYLE
  5
A
100
AcDbSymbolTable
 70
1
100
AcDbDimStyleTable
 71
0
  0
DIMSTYLE
105
22F
100
AcDbSymbolTableRecord
100
AcDbDimStyleTableRecord
  2
STANDARD
 70
0
  3

  4

 40
1.0
 41
1.2
 42
0.0625
 43
0.38
 44
0.125
 45
0.0
 46
0.0
 47
0.01
 48
0.01
140
0.625
141
0.09
142
0.0
143
25.4
144
1.0
145
0.0
146
1.0
147
0.09
 71
1.0
 72
0.0
 73
1
 74
1
 75
0
 76
0
 77
0
 78
4
170
0
171
2
172
0
173
0
174
0
175
0
176
0
177
0
178
0
270
2
271
3
272
3
273
2
274
2
275
0
280
0
281
0
282
0
283
1
284
4
285
0
286
0
287
3
288
0
340
11
278
46
341
212
342
212
343
212
344
212
  0
DIMSTYLE
105
230
100
AcDbSymbolTableRecord
100
AcDbDimStyleTableRecord
  2
DIMSTYLE_1
 70
0
  3

  4

 40
1.0
 41
1.2
 42
0.0625
 43
0.38
 44
0.125
 45
0.0
 46
0.0
 47
0.01
 48
0.01
140
0.625
141
0.09
142
0.0
143
25.4
144
1.0
145
0.0
146
1.0
147
0.078125
 71
0.0
 72
0.0
 73
1
 74
1
 75
0
 76
0
 77
0
 78
4
170
0
171
2
172
0
173
0
174
0
175
0
176
0
177
0
178
0
270
2
271
0
272
0
273
2
274
2
275
0
280
0
281
0
282
0
283
1
284
4
285
0
286
0
287
3
288
0
340
11
278
46
341
212
342
212
343
212
344
212
  0
DIMSTYLE
105
231
100
AcDbSymbolTableRecord
100
AcDbDimStyleTableRecord
  2
DIMSTYLE_2
 70
0
  3
<>
  4

 40
1.0
 41
1.2
 42
0.0625
 43
0.38
 44
0.125
 45
0.0
 46
0.0
 47
0.01
 48
0.01
140
0.625
141
0.09
142
0.0
143
25.4
144
1.0
145
0.0
146
1.0
147
0.09
 71
0.0
 72
0.0
 73
1
 74
1
 75
0
 76
0
 77
0
 78
4
170
0
171
2
172
0
173
0
174
0
175
0
176
0
177
0
178
0
270
2
271
3
272
3
273
2
274
2
275
0
280
0
281
0
282
0
283
1
284
4
285
0
286
0
287
3
288
1
340
11
278
46
289
2
341
212
342
212
343
212
344
212
  0
ENDTAB
  0
ENDSEC
  0
SECTION
  2
BLOCKS
  0
BLOCK
  5
20
100
AcDbEntity
  8
0
100
AcDbBlockBegin
  2
*Model_Space
 70
0
 10
0.0
 20
0.0
 30
0.0
  3
*Model_Space
  1

  0
ENDBLK
  5
21
100
AcDbEntity
  8
0
100
AcDbBlockEnd
  0
BLOCK
  5
1C
100
AcDbEntity
  8
0
100
AcDbBlockBegin
  2
*Paper_Space
 70
0
 10
0.0
 20
0.0
 30
0.0
  3
*Paper_Space
  1

  0
ENDBLK
  5
1D
100
AcDbEntity
  8
0
100
AcDbBlockEnd
  0
BLOCK
  5
232
100
AcDbEntity
  8
0
100
AcDbBlockBegin
 62
2
  6
CONTINUOUS
  2
CG_3D_BL2
 70
64
 10
47.0562371458
 20
39.1702699378
  3
CG_3D_BL2
  1

  0
ARC
  5
233
100
AcDbEntity
  8
0
100
AcDbCircle
 62
7
  6
CONTINUOUS
 10
47.0562371458
 20
39.1702699378
 40
0.75
100
AcDbArc
 50
90.0
 51
180.0
  0
ARC
  5
234
100
AcDbEntity
  8
0
100
AcDbCircle
 62
7
  6
CONTINUOUS
 10
47.0562371458
 20
39.1702699378
 40
0.75
100
AcDbArc
 50
180.0
 51
270.0
  0
ARC
  5
235
100
AcDbEntity
  8
0
100
AcDbCircle
 62
7
  6
CONTINUOUS
 10
47.0562371458
 20
39.1702699378
 40
0.75
100
AcDbArc
 50
270.0
 51
360.0
  0
ARC
  5
236
100
AcDbEntity
  8
0
100
AcDbCircle
 62
7
  6
CONTINUOUS
 10
47.0562371458
 20
39.1702699378
 40
0.75
100
AcDbArc
 50
0.0
 51
90.0
  0
LINE
  5
237
100
AcDbEntity
  8
0
100
AcDbLine
 62
7
  6
CONTINUOUS
 10
47.0562371458
 20
39.1702699378
 11
47.8062371458
 21
39.1702699378
  0
LINE
  5
238
100
AcDbEntity
  8
0
100
AcDbLine
 62
7
  6
CONTINUOUS
 10
47.0562371458
 20
39.1702699378
 11
47.0562371458
 21
38.4202699378
  0
LINE
  5
239
100
AcDbEntity
  8
0
100
AcDbLine
 62
7
  6
CONTINUOUS
 10
46.3062371458
 20
39.1702699378
 11
47.0562371458
 21
39.1702699378
  0
LINE
  5
23A
100
AcDbEntity
  8
0
100
AcDbLine
 62
7
  6
CONTINUOUS
 10
47.0562371458
 20
39.9202699378
 11
47.0562371458
 21
39.1702699378
  0
LINE
  5
23B
100
AcDbEntity
  8
0
100
AcDbLine
 62
2
  6
CONTINUOUS
 10
47.0562371458
 20
39.1653269433
 11
47.0611801403
 21
39.1702699378
  0
LWPOLYLINE
  5
23C
100
AcDbEntity
  8
0
100
AcDbPolyline
 62
7
  6
CONTINUOUS
 90
8
 70
0
 10
47.0562371458
 20
39.1702699378
 10
47.0562371458
 20
38.4202699378
 10
47.2879998916
 20
38.4569775506
 10
47.497076085
 20
38.5635071921
 10
47.6629998916
 20
38.7294309986
 10
47.769529533
 20
38.9385071921
 10
47.8062371458
 20
39.1702699378
 10
47.0562371458
 20
39.1702699378
  0
HATCH
  5
23D
100
AcDbEntity
  8
0
100
AcDbHatch
 62
7
  6
CONTINUOUS
 10
0.0
 20
0.0
 30
0.0
210
0.0
220
0.0
230
1.0
  2
SOLID
 70
1
 71
1
 91
1
 92
1
 93
7
 72
1
 10
47.0562371458
 20
39.1702699378
 11
47.0562371458
 21
38.4202699378
 72
1
 10
47.0562371458
 20
38.4202699378
 11
47.2879998916
 21
38.4569775506
 72
1
 10
47.2879998916
 20
38.4569775506
 11
47.497076085
 21
38.5635071921
 72
1
 10
47.497076085
 20
38.5635071921
 11
47.6629998916
 21
38.7294309986
 72
1
 10
47.6629998916
 20
38.7294309986
 11
47.769529533
 21
38.9385071921
 72
1
 10
47.769529533
 20
38.9385071921
 11
47.8062371458
 21
39.1702699378
 72
1
 10
47.8062371458
 20
39.1702699378
 11
47.0562371458
 21
39.1702699378
 97
1
330
23C
 75
0
 76
1
 98
1
 10
0.0
 20
0.0
  0
LWPOLYLINE
  5
23E
100
AcDbEntity
  8
0
100
AcDbPolyline
 62
7
  6
CONTINUOUS
 90
8
 70
0
 10
47.0562371458
 20
39.1702699378
 10
46.3062371458
 20
39.1702699378
 10
46.3429447586
 20
39.4020326836
 10
46.4494744
 20
39.6111088771
 10
46.6153982066
 20
39.7770326836
 10
46.8244744
 20
39.8835623251
 10
47.0562371458
 20
39.9202699378
 10
47.0562371458
 20
39.1702699378
  0
HATCH
  5
23F
100
AcDbEntity
  8
0
100
AcDbHatch
 62
7
  6
CONTINUOUS
 10
0.0
 20
0.0
 30
0.0
210
0.0
220
0.0
230
1.0
  2
SOLID
 70
1
 71
1
 91
1
 92
1
 93
7
 72
1
 10
47.0562371458
 20
39.1702699378
 11
46.3062371458
 21
39.1702699378
 72
1
 10
46.3062371458
 20
39.1702699378
 11
46.3429447586
 21
39.4020326836
 72
1
 10
46.3429447586
 20
39.4020326836
 11
46.4494744
 21
39.6111088771
 72
1
 10
46.4494744
 20
39.6111088771
 11
46.6153982066
 21
39.7770326836
 72
1
 10
46.6153982066
 20
39.7770326836
 11
46.8244744
 21
39.8835623251
 72
1
 10
46.8244744
 20
39.8835623251
 11
47.0562371458
 21
39.9202699378
 72
1
 10
47.0562371458
 20
39.9202699378
 11
47.0562371458
 21
39.1702699378
 97
1
330
23E
 75
0
 76
1
 98
1
 10
0.0
 20
0.0
  0
ENDBLK
  5
240
100
AcDbEntity
  8
0
  6
BYBLOCK
 62
0
100
AcDbBlockEnd
  0
BLOCK
  5
241
100
AcDbEntity
  8
0
100
AcDbBlockBegin
 62
2
  6
CONTINUOUS
  2
CG_3D_BL1
 70
64
 10
19.9892741526
 20
39.1661214709
  3
CG_3D_BL1
  1

  0
ARC
  5
242
100
AcDbEntity
  8
0
100
AcDbCircle
 62
7
  6
CONTINUOUS
 10
19.9892741526
 20
39.1661214709
 40
0.75
100
AcDbArc
 50
90.0
 51
180.0
  0
ARC
  5
243
100
AcDbEntity
  8
0
100
AcDbCircle
 62
7
  6
CONTINUOUS
 10
19.9892741526
 20
39.1661214709
 40
0.75
100
AcDbArc
 50
180.0
 51
270.0
  0
ARC
  5
244
100
AcDbEntity
  8
0
100
AcDbCircle
 62
7
  6
CONTINUOUS
 10
19.9892741526
 20
39.1661214709
 40
0.75
100
AcDbArc
 50
270.0
 51
360.0
  0
ARC
  5
245
100
AcDbEntity
  8
0
100
AcDbCircle
 62
7
  6
CONTINUOUS
 10
19.9892741526
 20
39.1661214709
 40
0.75
100
AcDbArc
 50
0.0
 51
90.0
  0
LINE
  5
246
100
AcDbEntity
  8
0
100
AcDbLine
 62
7
  6
CONTINUOUS
 10
19.9892741526
 20
39.1661214709
 11
20.7392741526
 21
39.1661214709
  0
LINE
  5
247
100
AcDbEntity
  8
0
100
AcDbLine
 62
7
  6
CONTINUOUS
 10
19.9892741526
 20
39.1661214709
 11
19.9892741526
 21
38.4161214709
  0
LINE
  5
248
100
AcDbEntity
  8
0
100
AcDbLine
 62
7
  6
CONTINUOUS
 10
19.2392741526
 20
39.1661214709
 11
19.9892741526
 21
39.1661214709
  0
LINE
  5
249
100
AcDbEntity
  8
0
100
AcDbLine
 62
7
  6
CONTINUOUS
 10
19.9892741526
 20
39.9161214709
 11
19.9892741526
 21
39.1661214709
  0
LINE
  5
24A
100
AcDbEntity
  8
0
100
AcDbLine
 62
2
  6
CONTINUOUS
 10
19.9892741526
 20
39.1611784764
 11
19.9942171471
 21
39.1661214709
  0
LWPOLYLINE
  5
24B
100
AcDbEntity
  8
0
100
AcDbPolyline
 62
7
  6
CONTINUOUS
 90
8
 70
0
 10
19.9892741526
 20
39.1661214709
 10
19.9892741526
 20
38.4161214709
 10
20.2210368984
 20
38.4528290837
 10
20.4301130918
 20
38.5593587251
 10
20.5960368984
 20
38.7252825317
 10
20.7025665398
 20
38.9343587251
 10
20.7392741526
 20
39.1661214709
 10
19.9892741526
 20
39.1661214709
  0
HATCH
  5
24C
100
AcDbEntity
  8
0
100
AcDbHatch
 62
7
  6
CONTINUOUS
 10
0.0
 20
0.0
 30
0.0
210
0.0
220
0.0
230
1.0
  2
SOLID
 70
1
 71
1
 91
1
 92
1
 93
7
 72
1
 10
19.9892741526
 20
39.1661214709
 11
19.9892741526
 21
38.4161214709
 72
1
 10
19.9892741526
 20
38.4161214709
 11
20.2210368984
 21
38.4528290837
 72
1
 10
20.2210368984
 20
38.4528290837
 11
20.4301130918
 21
38.5593587251
 72
1
 10
20.4301130918
 20
38.5593587251
 11
20.5960368984
 21
38.7252825317
 72
1
 10
20.5960368984
 20
38.7252825317
 11
20.7025665398
 21
38.9343587251
 72
1
 10
20.7025665398
 20
38.9343587251
 11
20.7392741526
 21
39.1661214709
 72
1
 10
20.7392741526
 20
39.1661214709
 11
19.9892741526
 21
39.1661214709
 97
1
330
24B
 75
0
 76
1
 98
1
 10
0.0
 20
0.0
  0
LWPOLYLINE
  5
24D
100
AcDbEntity
  8
0
100
AcDbPolyline
 62
7
  6
CONTINUOUS
 90
8
 70
0
 10
19.9892741526
 20
39.1661214709
 10
19.2392741526
 20
39.1661214709
 10
19.2759817654
 20
39.3978842167
 10
19.3825114068
 20
39.6069604101
 10
19.5484352134
 20
39.7728842167
 10
19.7575114068
 20
39.8794138581
 10
19.9892741526
 20
39.9161214709
 10
19.9892741526
 20
39.1661214709
  0
HATCH
  5
24E
100
AcDbEntity
  8
0
100
AcDbHatch
 62
7
  6
CONTINUOUS
 10
0.0
 20
0.0
 30
0.0
210
0.0
220
0.0
230
1.0
  2
SOLID
 70
1
 71
1
 91
1
 92
1
 93
7
 72
1
 10
19.9892741526
 20
39.1661214709
 11
19.2392741526
 21
39.1661214709
 72
1
 10
19.2392741526
 20
39.1661214709
 11
19.2759817654
 21
39.3978842167
 72
1
 10
19.2759817654
 20
39.3978842167
 11
19.3825114068
 21
39.6069604101
 72
1
 10
19.3825114068
 20
39.6069604101
 11
19.5484352134
 21
39.7728842167
 72
1
 10
19.5484352134
 20
39.7728842167
 11
19.7575114068
 21
39.8794138581
 72
1
 10
19.7575114068
 20
39.8794138581
 11
19.9892741526
 21
39.9161214709
 72
1
 10
19.9892741526
 20
39.9161214709
 11
19.9892741526
 21
39.1661214709
 97
1
330
24D
 75
0
 76
1
 98
1
 10
0.0
 20
0.0
  0
ENDBLK
  5
24F
100
AcDbEntity
  8
0
  6
BYBLOCK
 62
0
100
AcDbBlockEnd
  0
BLOCK
  5
250
100
AcDbEntity
  8
0
100
AcDbBlockBegin
 62
7
  6
CONTINUOUS
  2
RD010411_BL0
 70
64
 10
115.5552811952
 20
10.8044426607
  3
RD010411_BL0
  1

  0
ARC
  5
251
100
AcDbEntity
  8
0
100
AcDbCircle
 62
7
  6
CONTINUOUS
 10
118.1639274738
 20
11.2059504908
 40
0.0494860531
100
AcDbArc
 50
270.0
 51
360.0
  0
LINE
  5
252
100
AcDbEntity
  8
0
100
AcDbLine
 62
7
  6
CONTINUOUS
 10
118.2134135269
 20
11.2059504908
 11
118.2134135269
 21
11.3049566076
  0
ARC
  5
253
100
AcDbEntity
  8
0
100
AcDbCircle
 62
7
  6
CONTINUOUS
 10
118.1639274738
 20
11.3049566076
 40
0.0494860531
100
AcDbArc
 50
0.0
 51
90.0
  0
LINE
  5
254
100
AcDbEntity
  8
0
100
AcDbLine
 62
7
  6
CONTINUOUS
 10
118.1639274738
 20
11.3544426607
 11
116.8335541449
 21
11.3544426607
  0
SPLINE
  5
255
100
AcDbEntity
  8
0
100
AcDbSpline
 62
7
  6
CONTINUOUS
 70
0
 71
3
 72
13
 73
9
 74
0
 42
0.0000001
 43
0.0000001
 44
0.0000000001
 40
0.0
 40
0.0
 40
0.0
 40
0.0
 40
0.1310616762
 40
0.2699656353
 40
0.4157607805
 40
0.5899807757
 40
0.76586761
 40
0.9948829976
 40
0.9948829976
 40
0.9948829976
 40
0.9948829976
 10
116.8335541449
 20
11.3544426607
 30
0.0
 10
116.8055884869
 20
11.35235976
 30
0.0
 10
116.7479838022
 20
11.3480693253
 30
0.0
 10
116.6699179828
 20
11.2996952938
 30
0.0
 10
116.6138760403
 20
11.2184840077
 30
0.0
 10
116.5774346737
 20
11.1191804813
 30
0.0
 10
116.5569086712
 20
10.9977902902
 30
0.0
 10
116.5550187813
 20
10.9120138494
 30
0.0
 10
116.5540392955
 20
10.8634917519
 30
0.0
  0
LINE
  5
256
100
AcDbEntity
  8
0
100
AcDbLine
 62
7
  6
CONTINUOUS
 10
116.5540392955
 20
10.8634917519
 11
116.5541261489
 21
10.8559620363
  0
SPLINE
  5
257
100
AcDbEntity
  8
0
100
AcDbSpline
 62
7
  6
CONTINUOUS
 70
0
 71
3
 72
13
 73
9
 74
0
 42
0.0000001
 43
0.0000001
 44
0.0000000001
 40
0.0
 40
0.0
 40
0.0
 40
0.0
 40
0.2222860645
 40
0.3981728988
 40
0.572392894
 40
0.7181880393
 40
0.8570919984
 40
0.9881536746
 40
0.9881536746
 40
0.9881536746
 40
0.9881536746
 10
116.5541261489
 20
10.8559620363
 30
0.0
 10
116.5550863306
 20
10.8088663218
 30
0.0
 10
116.5571467585
 20
10.724531122
 30
0.0
 10
116.577434657
 20
10.6045480629
 30
0.0
 10
116.6138764598
 20
10.5052556427
 30
0.0
 10
116.6699166543
 20
10.4240098907
 30
0.0
 10
116.7479884318
 20
10.3757514937
 30
0.0
 10
116.8055790723
 20
10.3711887768
 30
0.0
 10
116.8335541449
 20
10.3691051757
 30
0.0
  0
LINE
  5
258
100
AcDbEntity
  8
0
100
AcDbLine
 62
7
  6
CONTINUOUS
 10
116.8335541449
 20
10.3691051757
 11
118.164035482
 21
10.3720090866
  0
ARC
  5
259
100
AcDbEntity
  8
0
100
AcDbCircle
 62
7
  6
CONTINUOUS
 10
118.1639274738
 20
10.4214950217
 40
0.0494860529
100
AcDbArc
 50
270.125053868
 51
360.0
  0
LINE
  5
25A
100
AcDbEntity
  8
0
100
AcDbLine
 62
7
  6
CONTINUOUS
 10
118.2134135269
 20
10.4214950217
 11
118.2134135269
 21
10.5166357387
  0
ARC
  5
25B
100
AcDbEntity
  8
0
100
AcDbCircle
 62
7
  6
CONTINUOUS
 10
118.1639274738
 20
10.5166357387
 40
0.0494860531
100
AcDbArc
 50
0.0
 51
90.0
  0
LINE
  5
25C
100
AcDbEntity
  8
0
100
AcDbLine
 62
7
  6
CONTINUOUS
 10
118.1639274738
 20
10.5661217918
 11
117.023615701
 21
10.5661217918
  0
LINE
  5
25D
100
AcDbEntity
  8
0
100
AcDbLine
 62
7
  6
CONTINUOUS
 10
116.9741296479
 20
10.6156078448
 11
116.9741296479
 21
11.1069783847
  0
ARC
  5
25E
100
AcDbEntity
  8
0
100
AcDbCircle
 62
7
  6
CONTINUOUS
 10
117.0236157014
 20
11.1069783847
 40
0.0494860531
100
AcDbArc
 50
90.0
 51
180.0
  0
LINE
  5
25F
100
AcDbEntity
  8
0
100
AcDbLine
 62
7
  6
CONTINUOUS
 10
117.023615701
 20
11.1564644378
 11
118.1639274738
 21
11.1564644378
  0
LINE
  5
260
100
AcDbEntity
  8
0
100
AcDbLine
 62
7
  6
CONTINUOUS
 10
114.990338532
 20
10.7618524023
 11
115.9407862689
 21
10.7618524023
  0
ARC
  5
261
100
AcDbEntity
  8
0
100
AcDbCircle
 62
7
  6
CONTINUOUS
 10
115.9407862688
 20
10.7123663494
 40
0.0494860531
100
AcDbArc
 50
0.0
 51
90.0
  0
LINE
  5
262
100
AcDbEntity
  8
0
100
AcDbLine
 62
7
  6
CONTINUOUS
 10
115.990272322
 20
10.7123663492
 11
115.990272322
 21
10.6113209404
  0
LINE
  5
263
100
AcDbEntity
  8
0
100
AcDbLine
 62
7
  6
CONTINUOUS
 10
115.9407862689
 20
10.5618348873
 11
114.8328657094
 21
10.5618348873
  0
ARC
  5
264
100
AcDbEntity
  8
0
100
AcDbCircle
 62
7
  6
CONTINUOUS
 10
114.8328657094
 20
10.5123488342
 40
0.0494860531
100
AcDbArc
 50
90.0
 51
180.0
  0
LINE
  5
265
100
AcDbEntity
  8
0
100
AcDbLine
 62
7
  6
CONTINUOUS
 10
114.7833796563
 20
10.5123488342
 11
114.7833796563
 21
10.4185907294
  0
ARC
  5
266
100
AcDbEntity
  8
0
100
AcDbCircle
 62
7
  6
CONTINUOUS
 10
114.8328657094
 20
10.4185907294
 40
0.0494860531
100
AcDbArc
 50
180.0
 51
270.0
  0
LINE
  5
267
100
AcDbEntity
  8
0
100
AcDbLine
 62
7
  6
CONTINUOUS
 10
114.8328657094
 20
10.3691046763
 11
116.2082925776
 21
10.3691046763
  0
SPLINE
  5
268
100
AcDbEntity
  8
0
100
AcDbSpline
 62
7
  6
CONTINUOUS
 70
0
 71
3
 72
13
 73
9
 74
0
 42
0.0000001
 43
0.0000001
 44
0.0000000001
 40
0.0
 40
0.0
 40
0.0
 40
0.0
 40
0.1604571392
 40
0.3334692485
 40
0.4767982758
 40
0.6242014838
 40
0.7505998515
 40
1.0
 40
1.0
 40
1.0
 40
1.0
 10
116.2082925776
 20
10.3691046763
 30
0.0
 10
116.2314824463
 20
10.3702212271
 30
0.0
 10
116.2796766744
 20
10.372541692
 30
0.0
 10
116.3444842596
 20
10.4006781737
 30
0.0
 10
116.3933189103
 20
10.4479732508
 30
0.0
 10
116.4208391566
 20
10.5021952295
 30
0.0
 10
116.4419385189
 20
10.5749345696
 30
0.0
 10
116.4427947319
 20
10.6293692409
 30
0.0
 10
116.4433629605
 20
10.665495022
 30
0.0
  0
SPLINE
  5
269
100
AcDbEntity
  8
0
100
AcDbSpline
 62
7
  6
CONTINUOUS
 70
0
 71
3
 72
13
 73
9
 74
0
 42
0.0000001
 43
0.0000001
 44
0.0000000001
 40
0.0
 40
0.0
 40
0.0
 40
0.0
 40
0.2494001485
 40
0.3757985162
 40
0.5232017242
 40
0.6665307515
 40
0.8395428608
 40
1.0
 40
1.0
 40
1.0
 40
1.0
 10
116.4433629605
 20
10.665495022
 30
0.0
 10
116.4427947319
 20
10.7016208038
 30
0.0
 10
116.4419385189
 20
10.7560554744
 30
0.0
 10
116.4208391566
 20
10.8287948152
 30
0.0
 10
116.3933189103
 20
10.8830167939
 30
0.0
 10
116.3444842596
 20
10.9303118703
 30
0.0
 10
116.2796766744
 20
10.9584483519
 30
0.0
 10
116.2314824463
 20
10.9607688176
 30
0.0
 10
116.2082925776
 20
10.9618853676
 30
0.0
  0
LINE
  5
26A
100
AcDbEntity
  8
0
100
AcDbLine
 62
7
  6
CONTINUOUS
 10
116.2082925776
 20
10.9618853676
 11
115.2705136799
 21
10.9618853676
  0
LINE
  5
26B
100
AcDbEntity
  8
0
100
AcDbLine
 62
7
  6
CONTINUOUS
 10
115.2210276269
 20
11.0113714207
 11
115.2210276269
 21
11.1050039977
  0
ARC
  5
26C
100
AcDbEntity
  8
0
100
AcDbCircle
 62
7
  6
CONTINUOUS
 10
115.2705136795
 20
11.1050039977
 40
0.0494860531
100
AcDbArc
 50
90.0
 51
180.0
  0
LINE
  5
26D
100
AcDbEntity
  8
0
100
AcDbLine
 62
7
  6
CONTINUOUS
 10
115.2705136799
 20
11.1544900508
 11
116.3799380787
 21
11.1544900508
  0
ARC
  5
26E
100
AcDbEntity
  8
0
100
AcDbCircle
 62
7
  6
CONTINUOUS
 10
116.3799380787
 20
11.2039761039
 40
0.0494860531
100
AcDbArc
 50
270.0
 51
360.0
  0
LINE
  5
26F
100
AcDbEntity
  8
0
100
AcDbLine
 62
7
  6
CONTINUOUS
 10
116.4294241318
 20
11.2039761039
 11
116.4294241318
 21
11.3049566076
  0
ARC
  5
270
100
AcDbEntity
  8
0
100
AcDbCircle
 62
7
  6
CONTINUOUS
 10
116.3799380787
 20
11.3049566076
 40
0.0494860531
100
AcDbArc
 50
0.0
 51
90.0
  0
LINE
  5
271
100
AcDbEntity
  8
0
100
AcDbLine
 62
7
  6
CONTINUOUS
 10
116.3799380787
 20
11.3544426607
 11
114.990338532
 21
11.3544426607
  0
SPLINE
  5
272
100
AcDbEntity
  8
0
100
AcDbSpline
 62
7
  6
CONTINUOUS
 70
0
 71
3
 72
13
 73
9
 74
0
 42
0.0000001
 43
0.0000001
 44
0.0000000001
 40
0.0
 40
0.0
 40
0.0
 40
0.0
 40
0.1133740464
 40
0.2392044088
 40
0.3655787964
 40
0.4912154373
 40
0.7445390876
 40
1.0
 40
1.0
 40
1.0
 40
1.0
 10
114.990338532
 20
11.3544426607
 30
0.0
 10
114.9744640275
 20
11.3536607674
 30
0.0
 10
114.9409708999
 20
11.3520110736
 30
0.0
 10
114.8912201718
 20
11.3371470423
 30
0.0
 10
114.8467132972
 20
11.3071319338
 30
0.0
 10
114.801249128
 20
11.2518429589
 30
0.0
 10
114.7726401885
 20
11.1650466243
 30
0.0
 10
114.7695375447
 20
11.0938802129
 30
0.0
 10
114.767979707
 20
11.0581475315
 30
0.0
  0
SPLINE
  5
273
100
AcDbEntity
  8
0
100
AcDbSpline
 62
7
  6
CONTINUOUS
 70
0
 71
3
 72
13
 73
9
 74
0
 42
0.0000001
 43
0.0000001
 44
0.0000000001
 40
0.0
 40
0.0
 40
0.0
 40
0.0
 40
0.2554609124
 40
0.5087845627
 40
0.6344212036
 40
0.7607955912
 40
0.8866259536
 40
1.0
 40
1.0
 40
1.0
 40
1.0
 10
114.767979707
 20
11.0581475315
 30
0.0
 10
114.7695375447
 20
11.0224148501
 30
0.0
 10
114.7726401885
 20
10.951248438
 30
0.0
 10
114.801249128
 20
10.8644521042
 30
0.0
 10
114.8467132972
 20
10.8091631292
 30
0.0
 10
114.8912201718
 20
10.7791480207
 30
0.0
 10
114.9409708999
 20
10.7642839894
 30
0.0
 10
114.9744640275
 20
10.7626342957
 30
0.0
 10
114.990338532
 20
10.7618524023
 30
0.0
  0
LINE
  5
274
100
AcDbEntity
  8
0
100
AcDbLine
 62
7
  6
CONTINUOUS
 10
113.1618832232
 20
10.3691046763
 11
113.9307932107
 21
10.3691046763
  0
LINE
  5
275
100
AcDbEntity
  8
0
100
AcDbLine
 62
7
  6
CONTINUOUS
 10
113.9307932107
 20
10.3691046763
 11
113.9307932107
 21
10.273475758
  0
ARC
  5
276
100
AcDbEntity
  8
0
100
AcDbCircle
 62
7
  6
CONTINUOUS
 10
113.949826308
 20
10.273475758
 40
0.0190330973
100
AcDbArc
 50
180.0
 51
270.0
  0
LINE
  5
277
100
AcDbEntity
  8
0
100
AcDbLine
 62
7
  6
CONTINUOUS
 10
113.949826308
 20
10.2544426607
 11
114.2461909917
 21
10.2544426607
  0
ARC
  5
278
100
AcDbEntity
  8
0
100
AcDbCircle
 62
7
  6
CONTINUOUS
 10
114.2461909917
 20
10.273475758
 40
0.0190330973
100
AcDbArc
 50
270.0
 51
360.0
  0
LINE
  5
279
100
AcDbEntity
  8
0
100
AcDbLine
 62
7
  6
CONTINUOUS
 10
114.2652240891
 20
10.273475758
 11
114.2652240891
 21
10.3691046763
  0
LINE
  5
27A
100
AcDbEntity
  8
0
100
AcDbLine
 62
7
  6
CONTINUOUS
 10
114.2652240891
 20
10.3691046763
 11
114.4164205705
 21
10.3691046763
  0
SPLINE
  5
27B
100
AcDbEntity
  8
0
100
AcDbSpline
 62
7
  6
CONTINUOUS
 70
0
 71
3
 72
12
 73
8
 74
0
 42
0.0000001
 43
0.0000001
 44
0.0000000001
 40
0.0
 40
0.0
 40
0.0
 40
0.0
 40
0.2415790084
 40
0.4893269843
 40
0.7378634303
 40
0.8656387112
 40
1.0
 40
1.0
 40
1.0
 40
1.0
 10
114.4164205705
 20
10.3691046763
 30
0.0
 10
114.4435315892
 20
10.3699475273
 30
0.0
 10
114.4984459349
 20
10.3716547527
 30
0.0
 10
114.5788073498
 20
10.4003137705
 30
0.0
 10
114.6276124192
 20
10.4544144118
 30
0.0
 10
114.6491143126
 20
10.5084709602
 30
0.0
 10
114.6495018082
 20
10.538083023
 30
0.0
 10
114.6497004239
 20
10.5532610457
 30
0.0
  0
LINE
  5
27C
100
AcDbEntity
  8
0
100
AcDbLine
 62
7
  6
CONTINUOUS
 10
114.6497004239
 20
10.5532610457
 11
114.6497004239
 21
11.1691306077
  0
SPLINE
  5
27D
100
AcDbEntity
  8
0
100
AcDbSpline
 62
7
  6
CONTINUOUS
 70
0
 71
3
 72
12
 73
8
 74
0
 42
0.0000001
 43
0.0000001
 44
0.0000000001
 40
0.0
 40
0.0
 40
0.0
 40
0.0
 40
0.1343612888
 40
0.2621365697
 40
0.5106730157
 40
0.7584209916
 40
1.0
 40
1.0
 40
1.0
 40
1.0
 10
114.6497004239
 20
11.1691306077
 30
0.0
 10
114.6495018082
 20
11.1843086311
 30
0.0
 10
114.6491143126
 20
11.213920694
 30
0.0
 10
114.6276124192
 20
11.2679772424
 30
0.0
 10
114.5788073498
 20
11.3220778836
 30
0.0
 10
114.4984459349
 20
11.3507369007
 30
0.0
 10
114.4435315892
 20
11.3524441261
 30
0.0
 10
114.4164205705
 20
11.3532869771
 30
0.0
  0
LINE
  5
27E
100
AcDbEntity
  8
0
100
AcDbLine
 62
7
  6
CONTINUOUS
 10
114.4164205705
 20
11.3532869771
 11
113.1618832232
 21
11.3532869771
  0
SPLINE
  5
27F
100
AcDbEntity
  8
0
100
AcDbSpline
 62
7
  6
CONTINUOUS
 70
0
 71
3
 72
12
 73
8
 74
0
 42
0.0000001
 43
0.0000001
 44
0.0000000001
 40
0.0
 40
0.0
 40
0.0
 40
0.0
 40
0.1341799809
 40
0.290831959
 40
0.5815217441
 40
0.760783857
 40
1.0
 40
1.0
 40
1.0
 40
1.0
 10
113.1618832232
 20
11.3532869771
 30
0.0
 10
113.1345195363
 20
11.3486102634
 30
0.0
 10
113.0752093879
 20
11.3384735951
 30
0.0
 10
112.9753702716
 20
11.2638840233
 30
0.0
 10
112.9280813993
 20
11.138394559
 30
0.0
 10
112.900413103
 20
10.9961406855
 30
0.0
 10
112.8983361307
 20
10.9100990589
 30
0.0
 10
112.8971488636
 20
10.8609147924
 30
0.0
  0
SPLINE
  5
280
100
AcDbEntity
  8
0
100
AcDbSpline
 62
7
  6
CONTINUOUS
 70
0
 71
3
 72
12
 73
8
 74
0
 42
0.0000001
 43
0.0000001
 44
0.0000000001
 40
0.0
 40
0.0
 40
0.0
 40
0.0
 40
0.2392679579
 40
0.4185688994
 40
0.7093216488
 40
0.8660075581
 40
1.0
 40
1.0
 40
1.0
 40
1.0
 10
112.8971488636
 20
10.8609147924
 30
0.0
 10
112.898336605
 20
10.8117324428
 30
0.0
 10
112.9004144063
 20
10.7256941698
 30
0.0
 10
112.9280767324
 20
10.5834161563
 30
0.0
 10
112.975394497
 20
10.458043521
 30
0.0
 10
113.0751296666
 20
10.3832117416
 30
0.0
 10
113.1345106768
 20
10.373555748
 30
0.0
 10
113.1618832232
 20
10.3691046763
 30
0.0
  0
LINE
  5
281
100
AcDbEntity
  8
0
100
AcDbLine
 62
7
  6
CONTINUOUS
 10
114.3962846064
 20
10.6224898337
 11
114.3962846064
 21
11.115941827
  0
ARC
  5
282
100
AcDbEntity
  8
0
100
AcDbCircle
 62
7
  6
CONTINUOUS
 10
113.3580848588
 20
10.6224898337
 40
0.0494860531
100
AcDbArc
 50
180.0
 51
270.0
  0
LINE
  5
283
100
AcDbEntity
  8
0
100
AcDbLine
 62
7
  6
CONTINUOUS
 10
113.3580848588
 20
10.5730037806
 11
113.9264644311
 21
10.5730037806
  0
LINE
  5
284
100
AcDbEntity
  8
0
100
AcDbLine
 62
7
  6
CONTINUOUS
 10
113.9264644311
 20
10.5730037806
 11
113.9264644311
 21
10.6683363985
  0
ARC
  5
285
100
AcDbEntity
  8
0
100
AcDbCircle
 62
7
  6
CONTINUOUS
 10
113.9454975288
 20
10.6683363985
 40
0.0190330973
100
AcDbArc
 50
90.0
 51
180.0
  0
LINE
  5
286
100
AcDbEntity
  8
0
100
AcDbLine
 62
7
  6
CONTINUOUS
 10
113.9454975285
 20
10.6873694958
 11
114.2403518712
 21
10.6873694958
  0
ARC
  5
287
100
AcDbEntity
  8
0
100
AcDbCircle
 62
7
  6
CONTINUOUS
 10
114.2403518705
 20
10.6683363992
 40
0.0190330973
100
AcDbArc
 50
0.0
 51
90.0
  0
LINE
  5
288
100
AcDbEntity
  8
0
100
AcDbLine
 62
7
  6
CONTINUOUS
 10
114.2593849685
 20
10.5730037806
 11
114.3467985533
 21
10.5730037806
  0
ARC
  5
289
100
AcDbEntity
  8
0
100
AcDbCircle
 62
7
  6
CONTINUOUS
 10
114.3467985533
 20
10.6224898337
 40
0.0494860531
100
AcDbArc
 50
270.0
 51
360.0
  0
LINE
  5
28A
100
AcDbEntity
  8
0
100
AcDbLine
 62
7
  6
CONTINUOUS
 10
114.2593849685
 20
10.5730037806
 11
114.2593849685
 21
10.6683363985
  0
LINE
  5
28B
100
AcDbEntity
  8
0
100
AcDbLine
 62
7
  6
CONTINUOUS
 10
113.3085988057
 20
10.6224898337
 11
113.3085988057
 21
11.115941827
  0
ARC
  5
28C
100
AcDbEntity
  8
0
100
AcDbCircle
 62
7
  6
CONTINUOUS
 10
113.3580848595
 20
11.115941827
 40
0.0494860531
100
AcDbArc
 50
90.0
 51
180.0
  0
LINE
  5
28D
100
AcDbEntity
  8
0
100
AcDbLine
 62
7
  6
CONTINUOUS
 10
113.3580848588
 20
11.16542788
 11
114.3467985533
 21
11.16542788
  0
ARC
  5
28E
100
AcDbEntity
  8
0
100
AcDbCircle
 62
7
  6
CONTINUOUS
 10
114.3467985538
 20
11.1159418265
 40
0.0494860531
100
AcDbArc
 50
0.0000000277
 51
90.0000000277
  0
ARC
  5
28F
100
AcDbEntity
  8
0
100
AcDbCircle
 62
7
  6
CONTINUOUS
 10
115.2705136799
 20
11.0113714207
 40
0.0494860531
100
AcDbArc
 50
180.0
 51
270.0
  0
ARC
  5
290
100
AcDbEntity
  8
0
100
AcDbCircle
 62
7
  6
CONTINUOUS
 10
115.9407862689
 20
10.6113209404
 40
0.0494860531
100
AcDbArc
 50
270.0
 51
360.0
  0
ARC
  5
291
100
AcDbEntity
  8
0
100
AcDbCircle
 62
7
  6
CONTINUOUS
 10
117.023615701
 20
10.6156078448
 40
0.0494860531
100
AcDbArc
 50
180.0
 51
270.0
  0
ENDBLK
  5
292
100
AcDbEntity
  8
0
  6
BYBLOCK
 62
0
100
AcDbBlockEnd
  0
BLOCK
  5
293
100
AcDbEntity
  8
0
100
AcDbBlockBegin
  2
_FILLED
 70
64
 10
0.0
 20
0.0
  3
_FILLED
  1

  0
SOLID
  5
294
100
AcDbEntity
  8
0
  6
BYBLOCK
 62
0
100
AcDbTrace
 10
0.0
 20
0.0
 11
-1.0
 21
0.1666666667
 12
-1.0
 22
-0.1666666667
 13
-1.0
 23
-0.1666666667
  0
ENDBLK
  5
295
100
AcDbEntity
  8
0
  6
BYBLOCK
 62
0
100
AcDbBlockEnd
  0
BLOCK
  5
296
100
AcDbEntity
  8
0
100
AcDbBlockBegin
 62
2
  6
CONTINUOUS
  2
*D0
 70
65
 10
0.0
 20
0.0
  3
*D0
  1

  0
MTEXT
  5
297
100
AcDbEntity
  8
0
100
AcDbMText
 62
2
  6
CONTINUOUS
  7
STANDARD
 71
2
 72
1
 10
56.926026865
 20
42.2348749952
 30
0.0
 11
1.0
 21
0.0
 31
0.0
 44
0.9
  1
164\P[6.4]
 40
0.625
 41
2.8125
  0
LINE
  5
298
100
AcDbEntity
  8
0
100
AcDbLine
 62
2
  6
CONTINUOUS
 10
53.350527274
 20
39.6201588657
 11
56.8438368054
 21
38.6841293979
  0
LINE
  5
299
100
AcDbEntity
  8
0
100
AcDbLine
 62
2
  6
CONTINUOUS
 10
55.6744418673
 20
45.6615487523
 11
58.5098570366
 21
44.9018015474
  0
LINE
  5
29A
100
AcDbEntity
  8
0
100
AcDbLine
 62
2
  6
CONTINUOUS
 10
56.3608738922
 20
38.8135389204
 11
56.7752133947
 21
40.3598749952
  0
LINE
  5
29B
100
AcDbEntity
  8
0
100
AcDbLine
 62
2
  6
CONTINUOUS
 10
58.0268941235
 20
45.03121107
 11
57.3613522531
 21
42.5473749952
  0
INSERT
  5
29C
100
AcDbEntity
  8
0
100
AcDbBlockReference
 62
2
  6
CONTINUOUS
  2
_FILLED
 10
56.3608738922
 20
38.8135389204
 41
1.2
 42
1.2
 43
1.2
 50
255.0
  0
INSERT
  5
29D
100
AcDbEntity
  8
0
100
AcDbBlockReference
 62
2
  6
CONTINUOUS
  2
_FILLED
 10
58.0268941235
 20
45.03121107
 41
1.2
 42
1.2
 43
1.2
 50
75.0
  0
ENDBLK
  5
29E
100
AcDbEntity
  8
0
  6
BYBLOCK
 62
0
100
AcDbBlockEnd
  0
BLOCK
  5
29F
100
AcDbEntity
  8
0
100
AcDbBlockBegin
 62
2
  6
CONTINUOUS
  2
*D1
 70
65
 10
0.0
 20
0.0
  3
*D1
  1

  0
MTEXT
  5
2A0
100
AcDbEntity
  8
0
100
AcDbMText
 62
2
  6
CONTINUOUS
  7
STANDARD
 71
1
 72
1
 10
59.7367603754
 20
47.9929679886
 30
0.0
 11
1.0
 21
0.0
 31
0.0
 44
0.9
  1
20\P[.8]
 40
0.625
 41
2.0758928571
  0
LINE
  5
2A1
100
AcDbEntity
  8
0
100
AcDbLine
 62
2
  6
CONTINUOUS
 10
55.6744418673
 20
45.6615487523
 11
58.5098570366
 21
44.9018015474
  0
LINE
  5
2A2
100
AcDbEntity
  8
0
100
AcDbLine
 62
2
  6
CONTINUOUS
 10
54.6237256005
 20
46.759994271
 11
58.7140837725
 21
45.663986102
  0
LINE
  5
2A3
100
AcDbEntity
  8
0
100
AcDbLine
 62
2
  6
CONTINUOUS
 10
58.0268941235
 20
45.03121107
 11
57.5092560333
 21
43.0993594174
  0
LINE
  5
2A4
100
AcDbEntity
  8
0
100
AcDbLine
 62
2
  6
CONTINUOUS
 10
58.2311208594
 20
45.7933956246
 11
58.7367603754
 21
47.6804679886
  0
LINE
  5
2A5
100
AcDbEntity
  8
0
100
AcDbLine
 62
2
  6
CONTINUOUS
 10
58.7367603754
 20
47.6804679886
 11
59.4242603754
 21
47.6804679886
  0
INSERT
  5
2A6
100
AcDbEntity
  8
0
100
AcDbBlockReference
 62
2
  6
CONTINUOUS
  2
_FILLED
 10
58.0268941235
 20
45.03121107
 41
1.2
 42
1.2
 43
1.2
 50
75.0
  0
INSERT
  5
2A7
100
AcDbEntity
  8
0
100
AcDbBlockReference
 62
2
  6
CONTINUOUS
  2
_FILLED
 10
58.2311208594
 20
45.7933956246
 41
1.2
 42
1.2
 43
1.2
 50
255.0
  0
ENDBLK
  5
2A8
100
AcDbEntity
  8
0
  6
BYBLOCK
 62
0
100
AcDbBlockEnd
  0
BLOCK
  5
2A9
100
AcDbEntity
  8
0
100
AcDbBlockBegin
 62
2
  6
CONTINUOUS
  2
*D2
 70
65
 10
0.0
 20
0.0
  3
*D2
  1

  0
MTEXT
  5
2AA
100
AcDbEntity
  8
0
100
AcDbMText
 62
2
  6
CONTINUOUS
  7
STANDARD
 71
2
 72
1
 10
19.5425218103
 20
56.4529963654
 30
0.0
 11
1.0
 21
0.0
 31
0.0
 44
0.9
  1
415\P[16.3]
 40
0.625
 41
3.28125
  0
LINE
  5
2AB
100
AcDbEntity
  8
0
100
AcDbLine
 62
2
  6
CONTINUOUS
 10
11.8275330588
 20
39.7743053315
 11
11.8275330588
 21
56.6404963654
  0
LINE
  5
2AC
100
AcDbEntity
  8
0
100
AcDbLine
 62
2
  6
CONTINUOUS
 10
28.1503677045
 20
39.7743053315
 11
28.1503677045
 21
56.6404963654
  0
LINE
  5
2AD
100
AcDbEntity
  8
0
100
AcDbLine
 62
2
  6
CONTINUOUS
 10
11.8275330588
 20
56.1404963654
 11
18.5827003817
 21
56.1404963654
  0
LINE
  5
2AE
100
AcDbEntity
  8
0
100
AcDbLine
 62
2
  6
CONTINUOUS
 10
28.1503677045
 20
56.1404963654
 11
21.3952003817
 21
56.1404963654
  0
INSERT
  5
2AF
100
AcDbEntity
  8
0
100
AcDbBlockReference
 62
2
  6
CONTINUOUS
  2
_FILLED
 10
11.8275330588
 20
56.1404963654
 41
1.2
 42
1.2
 43
1.2
 50
180.0
  0
INSERT
  5
2B0
100
AcDbEntity
  8
0
100
AcDbBlockReference
 62
2
  6
CONTINUOUS
  2
_FILLED
 10
28.1503677045
 20
56.1404963654
 41
1.2
 42
1.2
 43
1.2
  0
ENDBLK
  5
2B1
100
AcDbEntity
  8
0
  6
BYBLOCK
 62
0
100
AcDbBlockEnd
  0
BLOCK
  5
2B2
100
AcDbEntity
  8
0
100
AcDbBlockBegin
 62
2
  6
CONTINUOUS
  2
*D3
 70
65
 10
0.0
 20
0.0
  3
*D3
  1

  0
MTEXT
  5
2B3
100
AcDbEntity
  8
0
100
AcDbMText
 62
2
  6
CONTINUOUS
  7
STANDARD
 71
2
 72
1
 10
123.5582068048
 20
41.195543956
 30
0.0
 11
1.0
 21
0.0
 31
0.0
 44
0.9
  1
24\P[.9]
 40
0.625
 41
2.0758928571
  0
LINE
  5
2B4
100
AcDbEntity
  8
0
100
AcDbLine
 62
2
  6
CONTINUOUS
 10
120.4450392599
 20
37.6142352851
 11
124.2590996619
 21
37.6142352851
  0
LINE
  5
2B5
100
AcDbEntity
  8
0
100
AcDbLine
 62
2
  6
CONTINUOUS
 10
114.3426770552
 20
36.6779754426
 11
124.2590996619
 21
36.6779754426
  0
LINE
  5
2B6
100
AcDbEntity
  8
0
100
AcDbLine
 62
2
  6
CONTINUOUS
 10
123.7590996619
 20
37.6142352851
 11
123.7590996619
 21
39.320543956
  0
LINE
  5
2B7
100
AcDbEntity
  8
0
100
AcDbLine
 62
2
  6
CONTINUOUS
 10
123.7590996619
 20
36.6779754426
 11
123.7590996619
 21
34.6779754426
  0
INSERT
  5
2B8
100
AcDbEntity
  8
0
100
AcDbBlockReference
 62
2
  6
CONTINUOUS
  2
_FILLED
 10
123.7590996619
 20
37.6142352851
 41
1.2
 42
1.2
 43
1.2
 50
270.0
  0
INSERT
  5
2B9
100
AcDbEntity
  8
0
100
AcDbBlockReference
 62
2
  6
CONTINUOUS
  2
_FILLED
 10
123.7590996619
 20
36.6779754426
 41
1.2
 42
1.2
 43
1.2
 50
90.0
  0
ENDBLK
  5
2BA
100
AcDbEntity
  8
0
  6
BYBLOCK
 62
0
100
AcDbBlockEnd
  0
BLOCK
  5
2BB
100
AcDbEntity
  8
0
100
AcDbBlockBegin
 62
2
  6
CONTINUOUS
  2
*D4
 70
65
 10
0.0
 20
0.0
  3
*D4
  1

  0
MTEXT
  5
2BC
100
AcDbEntity
  8
0
100
AcDbMText
 62
2
  6
CONTINUOUS
  7
STANDARD
 71
2
 72
1
 10
101.3952290136
 20
36.3536218503
 30
0.0
 11
1.0
 21
0.0
 31
0.0
 44
0.9
  1
60\P[2.4]
 40
0.625
 41
2.8125
  0
LINE
  5
2BD
100
AcDbEntity
  8
0
100
AcDbLine
 62
2
  6
CONTINUOUS
 10
110.2993699686
 20
36.6779754426
 11
101.3416575851
 21
36.6779754426
  0
LINE
  5
2BE
100
AcDbEntity
  8
0
100
AcDbLine
 62
2
  6
CONTINUOUS
 10
110.2993699686
 20
34.3157707182
 11
101.3416575851
 21
34.3157707182
  0
LINE
  5
2BF
100
AcDbEntity
  8
0
100
AcDbLine
 62
2
  6
CONTINUOUS
 10
101.8416575851
 20
36.6779754426
 11
101.8416575851
 21
38.6779754426
  0
LINE
  5
2C0
100
AcDbEntity
  8
0
100
AcDbLine
 62
2
  6
CONTINUOUS
 10
101.8416575851
 20
34.3157707182
 11
101.8416575851
 21
32.3157707182
  0
INSERT
  5
2C1
100
AcDbEntity
  8
0
100
AcDbBlockReference
 62
2
  6
CONTINUOUS
  2
_FILLED
 10
101.8416575851
 20
36.6779754426
 41
1.2
 42
1.2
 43
1.2
 50
270.0
  0
INSERT
  5
2C2
100
AcDbEntity
  8
0
100
AcDbBlockReference
 62
2
  6
CONTINUOUS
  2
_FILLED
 10
101.8416575851
 20
34.3157707182
 41
1.2
 42
1.2
 43
1.2
 50
90.0
  0
ENDBLK
  5
2C3
100
AcDbEntity
  8
0
  6
BYBLOCK
 62
0
100
AcDbBlockEnd
  0
BLOCK
  5
2C4
100
AcDbEntity
  8
0
100
AcDbBlockBegin
 62
2
  6
CONTINUOUS
  2
*D5
 70
65
 10
0.0
 20
0.0
  3
*D5
  1

  0
MTEXT
  5
2C5
100
AcDbEntity
  8
0
100
AcDbMText
 62
2
  6
CONTINUOUS
  7
STANDARD
 71
2
 72
1
 10
111.9192377976
 20
25.2203934538
 30
0.0
 11
1.0
 21
0.0
 31
0.0
 44
0.9
  1
90\P[3.5]
 40
0.625
 41
2.6785714286
  0
LINE
  5
2C6
100
AcDbEntity
  8
0
100
AcDbLine
 62
2
  6
CONTINUOUS
 10
114.0926770552
 20
34.0657707182
 11
114.0926770552
 21
24.4078934538
  0
LINE
  5
2C7
100
AcDbEntity
  8
0
100
AcDbLine
 62
2
  6
CONTINUOUS
 10
110.5493699686
 20
34.0657707182
 11
110.5493699686
 21
24.4078934538
  0
LINE
  5
2C8
100
AcDbEntity
  8
0
100
AcDbLine
 62
2
  6
CONTINUOUS
 10
114.0926770552
 20
24.9078934538
 11
116.0926770552
 21
24.9078934538
  0
LINE
  5
2C9
100
AcDbEntity
  8
0
100
AcDbLine
 62
2
  6
CONTINUOUS
 10
110.5493699686
 20
24.9078934538
 11
108.5493699686
 21
24.9078934538
  0
INSERT
  5
2CA
100
AcDbEntity
  8
0
100
AcDbBlockReference
 62
2
  6
CONTINUOUS
  2
_FILLED
 10
114.0926770552
 20
24.9078934538
 41
1.2
 42
1.2
 43
1.2
 50
180.0
  0
INSERT
  5
2CB
100
AcDbEntity
  8
0
100
AcDbBlockReference
 62
2
  6
CONTINUOUS
  2
_FILLED
 10
110.5493699686
 20
24.9078934538
 41
1.2
 42
1.2
 43
1.2
  0
ENDBLK
  5
2CC
100
AcDbEntity
  8
0
  6
BYBLOCK
 62
0
100
AcDbBlockEnd
  0
BLOCK
  5
2CD
100
AcDbEntity
  8
0
100
AcDbBlockBegin
 62
2
  6
CONTINUOUS
  2
*D6
 70
65
 10
0.0
 20
0.0
  3
*D6
  1

  0
MTEXT
  5
2CE
100
AcDbEntity
  8
0
100
AcDbMText
 62
2
  6
CONTINUOUS
  7
STANDARD
 71
2
 72
1
 10
19.6318075245
 20
52.9242662515
 30
0.0
 11
1.0
 21
0.0
 31
0.0
 44
0.9
  1
400\P[15.7]
 40
0.625
 41
3.28125
  0
LINE
  5
2CF
100
AcDbEntity
  8
0
100
AcDbLine
 62
2
  6
CONTINUOUS
 10
12.1149346336
 20
48.9250927331
 11
12.1149346336
 21
53.1117662515
  0
LINE
  5
2D0
100
AcDbEntity
  8
0
100
AcDbLine
 62
2
  6
CONTINUOUS
 10
27.8629661297
 20
48.9250927331
 11
27.8629661297
 21
53.1117662515
  0
LINE
  5
2D1
100
AcDbEntity
  8
0
100
AcDbLine
 62
2
  6
CONTINUOUS
 10
12.1149346336
 20
52.6117662515
 11
18.5827003817
 21
52.6117662515
  0
LINE
  5
2D2
100
AcDbEntity
  8
0
100
AcDbLine
 62
2
  6
CONTINUOUS
 10
27.8629661297
 20
52.6117662515
 11
21.3952003817
 21
52.6117662515
  0
INSERT
  5
2D3
100
AcDbEntity
  8
0
100
AcDbBlockReference
 62
2
  6
CONTINUOUS
  2
_FILLED
 10
12.1149346336
 20
52.6117662515
 41
1.2
 42
1.2
 43
1.2
 50
180.0
  0
INSERT
  5
2D4
100
AcDbEntity
  8
0
100
AcDbBlockReference
 62
2
  6
CONTINUOUS
  2
_FILLED
 10
27.8629661297
 20
52.6117662515
 41
1.2
 42
1.2
 43
1.2
  0
ENDBLK
  5
2D5
100
AcDbEntity
  8
0
  6
BYBLOCK
 62
0
100
AcDbBlockEnd
  0
BLOCK
  5
2D6
100
AcDbEntity
  8
0
100
AcDbBlockBegin
 62
2
  6
CONTINUOUS
  2
*D7
 70
65
 10
0.0
 20
0.0
  3
*D7
  1

  0
MTEXT
  5
2D7
100
AcDbEntity
  8
0
100
AcDbMText
 62
2
  6
CONTINUOUS
  7
STANDARD
 71
2
 72
1
 10
7.2326440377
 20
45.4668908397
 30
0.0
 11
1.0
 21
0.0
 31
0.0
 44
0.9
  1
516\P[20.3]
 40
0.625
 41
3.4821428571
  0
LINE
  5
2D8
100
AcDbEntity
  8
0
100
AcDbLine
 62
2
  6
CONTINUOUS
 10
11.8649346336
 20
28.540053363
 11
7.2460368949
 21
28.540053363
  0
LINE
  5
2D9
100
AcDbEntity
  8
0
100
AcDbLine
 62
2
  6
CONTINUOUS
 10
12.573596051
 20
48.8522580874
 11
7.2460368949
 21
48.8522580874
  0
LINE
  5
2DA
100
AcDbEntity
  8
0
100
AcDbLine
 62
2
  6
CONTINUOUS
 10
7.7460368949
 20
28.540053363
 11
7.7460368949
 21
43.5918908397
  0
LINE
  5
2DB
100
AcDbEntity
  8
0
100
AcDbLine
 62
2
  6
CONTINUOUS
 10
7.7460368949
 20
48.8522580874
 11
7.7460368949
 21
45.7793908397
  0
INSERT
  5
2DC
100
AcDbEntity
  8
0
100
AcDbBlockReference
 62
2
  6
CONTINUOUS
  2
_FILLED
 10
7.7460368949
 20
28.540053363
 41
1.2
 42
1.2
 43
1.2
 50
270.0
  0
INSERT
  5
2DD
100
AcDbEntity
  8
0
100
AcDbBlockReference
 62
2
  6
CONTINUOUS
  2
_FILLED
 10
7.7460368949
 20
48.8522580874
 41
1.2
 42
1.2
 43
1.2
 50
90.0
  0
ENDBLK
  5
2DE
100
AcDbEntity
  8
0
  6
BYBLOCK
 62
0
100
AcDbBlockEnd
  0
BLOCK
  5
2DF
100
AcDbEntity
  8
0
100
AcDbBlockBegin
 62
2
  6
CONTINUOUS
  2
*D8
 70
65
 10
0.0
 20
0.0
  3
*D8
  1

  0
MTEXT
  5
2E0
100
AcDbEntity
  8
0
100
AcDbMText
 62
2
  6
CONTINUOUS
  7
STANDARD
 71
2
 72
1
 10
44.6964933003
 20
24.9125136521
 30
0.0
 11
1.0
 21
0.0
 31
0.0
 44
0.9
  1
138\P[5.4]
 40
0.625
 41
2.7455357143
  0
LINE
  5
2E1
100
AcDbEntity
  8
0
100
AcDbLine
 62
2
  6
CONTINUOUS
 10
42.2562598919
 20
28.290053363
 11
42.2562598919
 21
24.1000136521
  0
LINE
  5
2E2
100
AcDbEntity
  8
0
100
AcDbLine
 62
2
  6
CONTINUOUS
 10
47.6724409943
 20
29.1789746228
 11
47.6724409943
 21
24.1000136521
  0
LINE
  5
2E3
100
AcDbEntity
  8
0
100
AcDbLine
 62
2
  6
CONTINUOUS
 10
42.2562598919
 20
24.6000136521
 11
43.7366718717
 21
24.6000136521
  0
LINE
  5
2E4
100
AcDbEntity
  8
0
100
AcDbLine
 62
2
  6
CONTINUOUS
 10
47.6724409943
 20
24.6000136521
 11
46.1920290146
 21
24.6000136521
  0
INSERT
  5
2E5
100
AcDbEntity
  8
0
100
AcDbBlockReference
 62
2
  6
CONTINUOUS
  2
_FILLED
 10
42.2562598919
 20
24.6000136521
 41
1.2
 42
1.2
 43
1.2
 50
180.0
  0
INSERT
  5
2E6
100
AcDbEntity
  8
0
100
AcDbBlockReference
 62
2
  6
CONTINUOUS
  2
_FILLED
 10
47.6724409943
 20
24.6000136521
 41
1.2
 42
1.2
 43
1.2
  0
ENDBLK
  5
2E7
100
AcDbEntity
  8
0
  6
BYBLOCK
 62
0
100
AcDbBlockEnd
  0
BLOCK
  5
2E8
100
AcDbEntity
  8
0
100
AcDbBlockBegin
 62
2
  6
CONTINUOUS
  2
*D9
 70
65
 10
0.0
 20
0.0
  3
*D9
  1

  0
MTEXT
  5
2E9
100
AcDbEntity
  8
0
100
AcDbMText
 62
2
  6
CONTINUOUS
  7
STANDARD
 71
2
 72
1
 10
38.0155376863
 20
34.1675139929
 30
0.0
 11
1.0
 21
0.0
 31
0.0
 44
0.9
  1
270\P[10.6]
 40
0.625
 41
3.3482142857
  0
LINE
  5
2EA
100
AcDbEntity
  8
0
100
AcDbLine
 62
2
  6
CONTINUOUS
 10
42.0062598919
 20
28.540053363
 11
37.895001972
 21
28.540053363
  0
LINE
  5
2EB
100
AcDbEntity
  8
0
100
AcDbLine
 62
2
  6
CONTINUOUS
 10
42.7729409943
 20
39.1699746228
 11
37.895001972
 21
39.1699746228
  0
LINE
  5
2EC
100
AcDbEntity
  8
0
100
AcDbLine
 62
2
  6
CONTINUOUS
 10
38.395001972
 20
28.540053363
 11
38.395001972
 21
32.2925139929
  0
LINE
  5
2ED
100
AcDbEntity
  8
0
100
AcDbLine
 62
2
  6
CONTINUOUS
 10
38.395001972
 20
39.1699746228
 11
38.395001972
 21
34.4800139929
  0
INSERT
  5
2EE
100
AcDbEntity
  8
0
100
AcDbBlockReference
 62
2
  6
CONTINUOUS
  2
_FILLED
 10
38.395001972
 20
28.540053363
 41
1.2
 42
1.2
 43
1.2
 50
270.0
  0
INSERT
  5
2EF
100
AcDbEntity
  8
0
100
AcDbBlockReference
 62
2
  6
CONTINUOUS
  2
_FILLED
 10
38.395001972
 20
39.1699746228
 41
1.2
 42
1.2
 43
1.2
 50
90.0
  0
ENDBLK
  5
2F0
100
AcDbEntity
  8
0
  6
BYBLOCK
 62
0
100
AcDbBlockEnd
  0
BLOCK
  5
2F1
100
AcDbEntity
  8
0
100
AcDbBlockBegin
 62
2
  6
CONTINUOUS
  2
*D10
 70
65
 10
0.0
 20
0.0
  3
*D10
  1

  0
MTEXT
  5
2F2
100
AcDbEntity
  8
0
100
AcDbMText
 62
2
  6
CONTINUOUS
  7
STANDARD
 71
2
 72
1
 10
46.2579152454
 20
51.8212947563
 30
0.0
 11
1.0
 21
0.0
 31
0.0
 44
0.9
  1
216\P[8.5]
 40
0.625
 41
2.7455357143
  0
LINE
  5
2F3
100
AcDbEntity
  8
0
100
AcDbLine
 62
2
  6
CONTINUOUS
 10
50.7506420274
 20
48.9250927331
 11
50.7506420274
 21
52.0087947563
  0
LINE
  5
2F4
100
AcDbEntity
  8
0
100
AcDbLine
 62
2
  6
CONTINUOUS
 10
42.2562598919
 20
48.9250927331
 11
42.2562598919
 21
52.0087947563
  0
LINE
  5
2F5
100
AcDbEntity
  8
0
100
AcDbLine
 62
2
  6
CONTINUOUS
 10
50.7506420274
 20
51.5087947563
 11
47.7311295311
 21
51.5087947563
  0
LINE
  5
2F6
100
AcDbEntity
  8
0
100
AcDbLine
 62
2
  6
CONTINUOUS
 10
42.2562598919
 20
51.5087947563
 11
45.2757723883
 21
51.5087947563
  0
INSERT
  5
2F7
100
AcDbEntity
  8
0
100
AcDbBlockReference
 62
2
  6
CONTINUOUS
  2
_FILLED
 10
50.7506420274
 20
51.5087947563
 41
1.2
 42
1.2
 43
1.2
  0
INSERT
  5
2F8
100
AcDbEntity
  8
0
100
AcDbBlockReference
 62
2
  6
CONTINUOUS
  2
_FILLED
 10
42.2562598919
 20
51.5087947563
 41
1.2
 42
1.2
 43
1.2
 50
180.0
  0
ENDBLK
  5
2F9
100
AcDbEntity
  8
0
  6
BYBLOCK
 62
0
100
AcDbBlockEnd
  0
BLOCK
  5
2FA
100
AcDbEntity
  8
0
100
AcDbBlockBegin
 62
2
  6
CONTINUOUS
  2
*D11
 70
65
 10
0.0
 20
0.0
  3
*D11
  1

  0
MTEXT
  5
2FB
100
AcDbEntity
  8
0
100
AcDbMText
 62
2
  6
CONTINUOUS
  7
STANDARD
 71
2
 72
1
 10
47.9844305894
 20
55.1154437035
 30
0.0
 11
1.0
 21
0.0
 31
0.0
 44
0.9
  1
308\P[12.1]
 40
0.625
 41
3.1473214286
  0
LINE
  5
2FC
100
AcDbEntity
  8
0
100
AcDbLine
 62
2
  6
CONTINUOUS
 10
42.2562598919
 20
48.9250927331
 11
42.2562598919
 21
55.3029437035
  0
LINE
  5
2FD
100
AcDbEntity
  8
0
100
AcDbLine
 62
2
  6
CONTINUOUS
 10
54.3822441439
 20
47.0746990323
 11
54.3822441439
 21
55.3029437035
  0
LINE
  5
2FE
100
AcDbEntity
  8
0
100
AcDbLine
 62
2
  6
CONTINUOUS
 10
42.2562598919
 20
54.8029437035
 11
46.9576448751
 21
54.8029437035
  0
LINE
  5
2FF
100
AcDbEntity
  8
0
100
AcDbLine
 62
2
  6
CONTINUOUS
 10
54.3822441439
 20
54.8029437035
 11
49.6808591608
 21
54.8029437035
  0
INSERT
  5
300
100
AcDbEntity
  8
0
100
AcDbBlockReference
 62
2
  6
CONTINUOUS
  2
_FILLED
 10
42.2562598919
 20
54.8029437035
 41
1.2
 42
1.2
 43
1.2
 50
180.0
  0
INSERT
  5
301
100
AcDbEntity
  8
0
100
AcDbBlockReference
 62
2
  6
CONTINUOUS
  2
_FILLED
 10
54.3822441439
 20
54.8029437035
 41
1.2
 42
1.2
 43
1.2
  0
ENDBLK
  5
302
100
AcDbEntity
  8
0
  6
BYBLOCK
 62
0
100
AcDbBlockEnd
  0
BLOCK
  5
303
100
AcDbEntity
  8
0
100
AcDbBlockBegin
 62
2
  6
CONTINUOUS
  2
*D12
 70
65
 10
0.0
 20
0.0
  3
*D12
  1

  0
MTEXT
  5
304
100
AcDbEntity
  8
0
100
AcDbMText
 62
2
  6
CONTINUOUS
  7
STANDARD
 71
2
 72
1
 10
48.4205030085
 20
58.548942068
 30
0.0
 11
1.0
 21
0.0
 31
0.0
 44
0.9
  1
335\P[13.2]
 40
0.625
 41
3.28125
  0
LINE
  5
305
100
AcDbEntity
  8
0
100
AcDbLine
 62
2
  6
CONTINUOUS
 10
42.2562598919
 20
48.9250927331
 11
42.2562598919
 21
58.736442068
  0
LINE
  5
306
100
AcDbEntity
  8
0
100
AcDbLine
 62
2
  6
CONTINUOUS
 10
55.4329604107
 20
45.9762535135
 11
55.4329604107
 21
58.736442068
  0
LINE
  5
307
100
AcDbEntity
  8
0
100
AcDbLine
 62
2
  6
CONTINUOUS
 10
42.2562598919
 20
58.236442068
 11
47.4383601513
 21
58.236442068
  0
LINE
  5
308
100
AcDbEntity
  8
0
100
AcDbLine
 62
2
  6
CONTINUOUS
 10
55.4329604107
 20
58.236442068
 11
50.2508601513
 21
58.236442068
  0
INSERT
  5
309
100
AcDbEntity
  8
0
100
AcDbBlockReference
 62
2
  6
CONTINUOUS
  2
_FILLED
 10
42.2562598919
 20
58.236442068
 41
1.2
 42
1.2
 43
1.2
 50
180.0
  0
INSERT
  5
30A
100
AcDbEntity
  8
0
100
AcDbBlockReference
 62
2
  6
CONTINUOUS
  2
_FILLED
 10
55.4329604107
 20
58.236442068
 41
1.2
 42
1.2
 43
1.2
  0
ENDBLK
  5
30B
100
AcDbEntity
  8
0
  6
BYBLOCK
 62
0
100
AcDbBlockEnd
  0
BLOCK
  5
30C
100
AcDbEntity
  8
0
100
AcDbBlockBegin
 62
2
  6
CONTINUOUS
  2
*D13
 70
65
 10
0.0
 20
0.0
  3
*D13
  1

  0
MTEXT
  5
30D
100
AcDbEntity
  8
0
100
AcDbMText
 62
2
  6
CONTINUOUS
  7
STANDARD
 71
2
 72
1
 10
46.3199207851
 20
22.4357395011
 30
0.0
 11
1.0
 21
0.0
 31
0.0
 44
0.9
  1
184\P[7.2]
 40
0.625
 41
2.8125
  0
LINE
  5
30E
100
AcDbEntity
  8
0
100
AcDbLine
 62
2
  6
CONTINUOUS
 10
42.2562598919
 20
28.290053363
 11
42.2562598919
 21
21.6232395011
  0
LINE
  5
30F
100
AcDbEntity
  8
0
100
AcDbLine
 62
2
  6
CONTINUOUS
 10
49.4828881029
 20
28.290053363
 11
49.4828881029
 21
21.6232395011
  0
LINE
  5
310
100
AcDbEntity
  8
0
100
AcDbLine
 62
2
  6
CONTINUOUS
 10
42.2562598919
 20
22.1232395011
 11
45.337777928
 21
22.1232395011
  0
LINE
  5
311
100
AcDbEntity
  8
0
100
AcDbLine
 62
2
  6
CONTINUOUS
 10
49.4828881029
 20
22.1232395011
 11
47.837777928
 21
22.1232395011
  0
INSERT
  5
312
100
AcDbEntity
  8
0
100
AcDbBlockReference
 62
2
  6
CONTINUOUS
  2
_FILLED
 10
42.2562598919
 20
22.1232395011
 41
1.2
 42
1.2
 43
1.2
 50
180.0
  0
INSERT
  5
313
100
AcDbEntity
  8
0
100
AcDbBlockReference
 62
2
  6
CONTINUOUS
  2
_FILLED
 10
49.4828881029
 20
22.1232395011
 41
1.2
 42
1.2
 43
1.2
  0
ENDBLK
  5
314
100
AcDbEntity
  8
0
  6
BYBLOCK
 62
0
100
AcDbBlockEnd
  0
BLOCK
  5
315
100
AcDbEntity
  8
0
100
AcDbBlockBegin
 62
2
  6
CONTINUOUS
  2
*D14
 70
65
 10
0.0
 20
0.0
  3
*D14
  1

  0
MTEXT
  5
316
100
AcDbEntity
  8
0
100
AcDbMText
 62
2
  6
CONTINUOUS
  7
STANDARD
 71
2
 72
1
 10
71.6994711761
 20
67.1701767913
 30
0.0
 11
1.0
 21
0.0
 31
0.0
 44
0.9
  1
175\P[6.9]
 40
0.625
 41
2.8125
  0
LINE
  5
317
100
AcDbEntity
  8
0
100
AcDbLine
 62
2
  6
CONTINUOUS
 10
60.5153617089
 20
66.3596850045
 11
71.5794831606
 21
63.3950625966
  0
LINE
  5
318
100
AcDbEntity
  8
0
100
AcDbLine
 62
2
  6
CONTINUOUS
 10
62.3016207091
 20
73.0260943489
 11
73.3657421608
 21
70.061471941
  0
LINE
  5
319
100
AcDbEntity
  8
0
100
AcDbLine
 62
2
  6
CONTINUOUS
 10
71.0965202474
 20
63.5244721191
 11
71.5709791344
 21
65.2951767913
  0
LINE
  5
31A
100
AcDbEntity
  8
0
100
AcDbLine
 62
2
  6
CONTINUOUS
 10
72.8827792477
 20
70.1908814635
 11
72.1571179928
 21
67.4826767913
  0
INSERT
  5
31B
100
AcDbEntity
  8
0
100
AcDbBlockReference
 62
2
  6
CONTINUOUS
  2
_FILLED
 10
71.0965202474
 20
63.5244721191
 41
1.2
 42
1.2
 43
1.2
 50
255.0
  0
INSERT
  5
31C
100
AcDbEntity
  8
0
100
AcDbBlockReference
 62
2
  6
CONTINUOUS
  2
_FILLED
 10
72.8827792477
 20
70.1908814635
 41
1.2
 42
1.2
 43
1.2
 50
75.0
  0
ENDBLK
  5
31D
100
AcDbEntity
  8
0
  6
BYBLOCK
 62
0
100
AcDbBlockEnd
  0
BLOCK
  5
31E
100
AcDbEntity
  8
0
100
AcDbBlockBegin
 62
2
  6
CONTINUOUS
  2
*D15
 70
65
 10
0.0
 20
0.0
  3
*D15
  1

  0
MTEXT
  5
31F
100
AcDbEntity
  8
0
100
AcDbMText
 62
2
  6
CONTINUOUS
  7
STANDARD
 71
2
 72
1
 10
67.220342006
 20
68.8651969602
 30
0.0
 11
1.0
 21
0.0
 31
0.0
 44
0.9
  1
51\P[2.0]
 40
0.625
 41
2.8125
  0
LINE
  5
320
100
AcDbEntity
  8
0
100
AcDbLine
 62
2
  6
CONTINUOUS
 10
61.914426824
 20
68.5220484569
 11
67.8400421045
 21
66.9342846278
  0
LINE
  5
321
100
AcDbEntity
  8
0
100
AcDbLine
 62
2
  6
CONTINUOUS
 10
62.4320649142
 20
70.4539001094
 11
68.3576801947
 21
68.8661362804
  0
LINE
  5
322
100
AcDbEntity
  8
0
100
AcDbLine
 62
2
  6
CONTINUOUS
 10
67.3570791913
 20
67.0636941503
 11
66.8394411011
 21
65.1318424978
  0
LINE
  5
323
100
AcDbEntity
  8
0
100
AcDbLine
 62
2
  6
CONTINUOUS
 10
67.8747172815
 20
68.9955458029
 11
68.3923553717
 21
70.9273974555
  0
INSERT
  5
324
100
AcDbEntity
  8
0
100
AcDbBlockReference
 62
2
  6
CONTINUOUS
  2
_FILLED
 10
67.3570791913
 20
67.0636941503
 41
1.2
 42
1.2
 43
1.2
 50
75.0
  0
INSERT
  5
325
100
AcDbEntity
  8
0
100
AcDbBlockReference
 62
2
  6
CONTINUOUS
  2
_FILLED
 10
67.8747172815
 20
68.9955458029
 41
1.2
 42
1.2
 43
1.2
 50
255.0
  0
ENDBLK
  5
326
100
AcDbEntity
  8
0
  6
BYBLOCK
 62
0
100
AcDbBlockEnd
  0
BLOCK
  5
327
100
AcDbEntity
  8
0
100
AcDbBlockBegin
 62
2
  6
CONTINUOUS
  2
*D16
 70
65
 10
0.0
 20
0.0
  3
*D16
  1

  0
MTEXT
  5
328
100
AcDbEntity
  8
0
100
AcDbMText
 62
2
  6
CONTINUOUS
  7
STANDARD
 71
1
 72
1
 10
66.5689439815
 20
78.315007446
 30
0.0
 11
1.0
 21
0.0
 31
0.0
 44
0.9
  1
24\P[.9]
 40
0.625
 41
2.0758928571
  0
LINE
  5
329
100
AcDbEntity
  8
0
100
AcDbLine
 62
2
  6
CONTINUOUS
 10
62.6726111101
 20
77.7647697633
 11
63.0554725668
 21
79.193628172
  0
LINE
  5
32A
100
AcDbEntity
  8
0
100
AcDbLine
 62
2
  6
CONTINUOUS
 10
61.833665952
 20
71.0218296755
 11
63.9584611
 21
78.9516731237
  0
LINE
  5
32B
100
AcDbEntity
  8
0
100
AcDbLine
 62
2
  6
CONTINUOUS
 10
62.9260630442
 20
78.7106652588
 11
60.9942113916
 21
79.2283033491
  0
LINE
  5
32C
100
AcDbEntity
  8
0
100
AcDbLine
 62
2
  6
CONTINUOUS
 10
63.8290515775
 20
78.4687102106
 11
65.5689439815
 21
78.002507446
  0
LINE
  5
32D
100
AcDbEntity
  8
0
100
AcDbLine
 62
2
  6
CONTINUOUS
 10
65.5689439815
 20
78.002507446
 11
66.2564439815
 21
78.002507446
  0
INSERT
  5
32E
100
AcDbEntity
  8
0
100
AcDbBlockReference
 62
2
  6
CONTINUOUS
  2
_FILLED
 10
62.9260630442
 20
78.7106652588
 41
1.2
 42
1.2
 43
1.2
 50
345.0
  0
INSERT
  5
32F
100
AcDbEntity
  8
0
100
AcDbBlockReference
 62
2
  6
CONTINUOUS
  2
_FILLED
 10
63.8290515775
 20
78.4687102106
 41
1.2
 42
1.2
 43
1.2
 50
165.0
  0
ENDBLK
  5
330
100
AcDbEntity
  8
0
  6
BYBLOCK
 62
0
100
AcDbBlockEnd
  0
BLOCK
  5
331
100
AcDbEntity
  8
0
100
AcDbBlockBegin
 62
2
  6
CONTINUOUS
  2
*D17
 70
65
 10
0.0
 20
0.0
  3
*D17
  1

  0
MTEXT
  5
332
100
AcDbEntity
  8
0
100
AcDbMText
 62
2
  6
CONTINUOUS
  7
STANDARD
 71
1
 72
1
 10
67.5076422126
 20
81.0929967345
 30
0.0
 11
1.0
 21
0.0
 31
0.0
 44
0.9
  1
33\P[1.3]
 40
0.625
 41
2.5446428571
  0
LINE
  5
333
100
AcDbEntity
  8
0
100
AcDbLine
 62
2
  6
CONTINUOUS
 10
60.634665873
 20
70.1590545957
 11
63.8128507471
 21
82.0202020216
  0
LINE
  5
334
100
AcDbEntity
  8
0
100
AcDbLine
 62
2
  6
CONTINUOUS
 10
61.8896088757
 20
69.8227936316
 11
65.0677937498
 21
81.6839410575
  0
LINE
  5
335
100
AcDbEntity
  8
0
100
AcDbLine
 62
2
  6
CONTINUOUS
 10
63.6834412246
 20
81.5372391085
 11
61.751589572
 21
82.0548771987
  0
LINE
  5
336
100
AcDbEntity
  8
0
100
AcDbLine
 62
2
  6
CONTINUOUS
 10
64.9383842272
 20
81.2009781444
 11
66.5076422126
 21
80.7804967345
  0
LINE
  5
337
100
AcDbEntity
  8
0
100
AcDbLine
 62
2
  6
CONTINUOUS
 10
66.5076422126
 20
80.7804967345
 11
67.1951422126
 21
80.7804967345
  0
INSERT
  5
338
100
AcDbEntity
  8
0
100
AcDbBlockReference
 62
2
  6
CONTINUOUS
  2
_FILLED
 10
63.6834412246
 20
81.5372391085
 41
1.2
 42
1.2
 43
1.2
 50
345.0
  0
INSERT
  5
339
100
AcDbEntity
  8
0
100
AcDbBlockReference
 62
2
  6
CONTINUOUS
  2
_FILLED
 10
64.9383842272
 20
81.2009781444
 41
1.2
 42
1.2
 43
1.2
 50
165.0
  0
ENDBLK
  5
33A
100
AcDbEntity
  8
0
  6
BYBLOCK
 62
0
100
AcDbBlockEnd
  0
BLOCK
  5
33B
100
AcDbEntity
  8
0
100
AcDbBlockBegin
 62
2
  6
CONTINUOUS
  2
*D18
 70
65
 10
0.0
 20
0.0
  3
*D18
  1

  0
MTEXT
  5
33C
100
AcDbEntity
  8
0
100
AcDbMText
 62
2
  6
CONTINUOUS
  7
STANDARD
 71
1
 72
1
 10
64.7211497641
 20
60.8476749898
 30
0.0
 11
1.0
 21
0.0
 31
0.0
 44
0.9
  1
2X \Fgdt;{\Fgdt;n}\Ftxt;7,3{\Ftxt.shx;\W0.928571;\H0.625000; }X 10.8[.42] LONG SLOT\P[.29]
 40
0.625
 41
20.4017857143
  0
LINE
  5
33D
100
AcDbEntity
  8
0
100
AcDbLine
 62
2
  6
CONTINUOUS
 10
61.3216840663
 20
68.5542412846
 11
63.7211497641
 21
60.5351749898
  0
LINE
  5
33E
100
AcDbEntity
  8
0
100
AcDbLine
 62
2
  6
CONTINUOUS
 10
63.7211497641
 20
60.5351749898
 11
64.4086497641
 21
60.5351749898
  0
INSERT
  5
33F
100
AcDbEntity
  8
0
100
AcDbBlockReference
 62
2
  6
CONTINUOUS
  2
_FILLED
 10
61.3216840663
 20
68.5542412846
 41
1.2
 42
1.2
 43
1.2
 50
106.6582392545
  0
ENDBLK
  5
340
100
AcDbEntity
  8
0
  6
BYBLOCK
 62
0
100
AcDbBlockEnd
  0
BLOCK
  5
341
100
AcDbEntity
  8
0
100
AcDbBlockBegin
 62
2
  6
CONTINUOUS
  2
*D19
 70
65
 10
0.0
 20
0.0
  3
*D19
  1

  0
MTEXT
  5
342
100
AcDbEntity
  8
0
100
AcDbMText
 62
2
  6
CONTINUOUS
  7
STANDARD
 71
1
 72
1
 10
68.3839603636
 20
45.8274937296
 30
0.0
 11
1.0
 21
0.0
 31
0.0
 44
0.9
  1
38\P[1.5]
 40
0.625
 41
2.5446428571
  0
LINE
  5
343
100
AcDbEntity
  8
0
100
AcDbLine
 62
2
  6
CONTINUOUS
 10
69.4337925117
 20
42.7916488023
 11
66.3574739358
 21
43.6159458804
  0
LINE
  5
344
100
AcDbEntity
  8
0
100
AcDbLine
 62
2
  6
CONTINUOUS
 10
69.6916894075
 20
41.1628279343
 11
65.9675445351
 21
42.1607095454
  0
LINE
  5
345
100
AcDbEntity
  8
0
100
AcDbLine
 62
2
  6
CONTINUOUS
 10
66.840436849
 20
43.4865363578
 11
67.3839603636
 21
45.5149937296
  0
LINE
  5
346
100
AcDbEntity
  8
0
100
AcDbLine
 62
2
  6
CONTINUOUS
 10
67.3839603636
 20
45.5149937296
 11
68.0714603636
 21
45.5149937296
  0
LINE
  5
347
100
AcDbEntity
  8
0
100
AcDbLine
 62
2
  6
CONTINUOUS
 10
66.4505074482
 20
42.0313000228
 11
65.932869358
 21
40.0994483702
  0
INSERT
  5
348
100
AcDbEntity
  8
0
100
AcDbBlockReference
 62
2
  6
CONTINUOUS
  2
_FILLED
 10
66.840436849
 20
43.4865363578
 41
1.2
 42
1.2
 43
1.2
 50
255.0
  0
INSERT
  5
349
100
AcDbEntity
  8
0
100
AcDbBlockReference
 62
2
  6
CONTINUOUS
  2
_FILLED
 10
66.4505074482
 20
42.0313000228
 41
1.2
 42
1.2
 43
1.2
 50
75.0
  0
ENDBLK
  5
34A
100
AcDbEntity
  8
0
  6
BYBLOCK
 62
0
100
AcDbBlockEnd
  0
BLOCK
  5
34B
100
AcDbEntity
  8
0
100
AcDbBlockBegin
 62
2
  6
CONTINUOUS
  2
*D20
 70
65
 10
0.0
 20
0.0
  3
*D20
  1

  0
MTEXT
  5
34C
100
AcDbEntity
  8
0
100
AcDbMText
 62
2
  6
CONTINUOUS
  7
STANDARD
 71
2
 72
1
 10
87.325024725
 20
34.6054017083
 30
0.0
 11
1.0
 21
0.0
 31
0.0
 44
0.9
  1
127\P[5.0]
 40
0.625
 41
2.7455357143
  0
LINE
  5
34D
100
AcDbEntity
  8
0
100
AcDbLine
 62
2
  6
CONTINUOUS
 10
84.0575885847
 20
37.3134968512
 11
88.5733476453
 21
36.1035028577
  0
LINE
  5
34E
100
AcDbEntity
  8
0
100
AcDbLine
 62
2
  6
CONTINUOUS
 10
82.7470726201
 20
32.4882676436
 11
87.2792524198
 21
31.2738737263
  0
LINE
  5
34F
100
AcDbEntity
  8
0
100
AcDbLine
 62
2
  6
CONTINUOUS
 10
88.0903847322
 20
36.2329123803
 11
87.7380286846
 21
34.9179017083
  0
LINE
  5
350
100
AcDbEntity
  8
0
100
AcDbLine
 62
2
  6
CONTINUOUS
 10
86.7962895067
 20
31.4032832488
 11
87.1518898261
 21
32.7304017083
  0
INSERT
  5
351
100
AcDbEntity
  8
0
100
AcDbBlockReference
 62
2
  6
CONTINUOUS
  2
_FILLED
 10
88.0903847322
 20
36.2329123803
 41
1.2
 42
1.2
 43
1.2
 50
75.0
  0
INSERT
  5
352
100
AcDbEntity
  8
0
100
AcDbBlockReference
 62
2
  6
CONTINUOUS
  2
_FILLED
 10
86.7962895067
 20
31.4032832488
 41
1.2
 42
1.2
 43
1.2
 50
255.0
  0
ENDBLK
  5
353
100
AcDbEntity
  8
0
  6
BYBLOCK
 62
0
100
AcDbBlockEnd
  0
BLOCK
  5
354
100
AcDbEntity
  8
0
100
AcDbBlockBegin
 62
2
  6
CONTINUOUS
  2
*D21
 70
65
 10
0.0
 20
0.0
  3
*D21
  1

  0
MTEXT
  5
355
100
AcDbEntity
  8
0
100
AcDbMText
 62
2
  6
CONTINUOUS
  7
STANDARD
 71
2
 72
1
 10
86.0449983179
 20
29.828278122
 30
0.0
 11
1.0
 21
0.0
 31
0.0
 44
0.9
  1
127\P[5.0]
 40
0.625
 41
2.7455357143
  0
LINE
  5
356
100
AcDbEntity
  8
0
100
AcDbLine
 62
2
  6
CONTINUOUS
 10
82.7799140982
 20
32.479467796
 11
87.2792524198
 21
31.2738737263
  0
LINE
  5
357
100
AcDbEntity
  8
0
100
AcDbLine
 62
2
  6
CONTINUOUS
 10
81.4735033184
 20
27.6531386074
 11
85.9851571943
 21
26.4442445948
  0
LINE
  5
358
100
AcDbEntity
  8
0
100
AcDbLine
 62
2
  6
CONTINUOUS
 10
86.7962895067
 20
31.4032832488
 11
86.4580022775
 21
30.140778122
  0
LINE
  5
359
100
AcDbEntity
  8
0
100
AcDbLine
 62
2
  6
CONTINUOUS
 10
85.5021942812
 20
26.5736541174
 11
85.8718634191
 21
27.953278122
  0
INSERT
  5
35A
100
AcDbEntity
  8
0
100
AcDbBlockReference
 62
2
  6
CONTINUOUS
  2
_FILLED
 10
86.7962895067
 20
31.4032832488
 41
1.2
 42
1.2
 43
1.2
 50
75.0
  0
INSERT
  5
35B
100
AcDbEntity
  8
0
100
AcDbBlockReference
 62
2
  6
CONTINUOUS
  2
_FILLED
 10
85.5021942812
 20
26.5736541174
 41
1.2
 42
1.2
 43
1.2
 50
255.0
  0
ENDBLK
  5
35C
100
AcDbEntity
  8
0
  6
BYBLOCK
 62
0
100
AcDbBlockEnd
  0
BLOCK
  5
35D
100
AcDbEntity
  8
0
100
AcDbBlockBegin
 62
2
  6
CONTINUOUS
  2
*D22
 70
65
 10
0.0
 20
0.0
  3
*D22
  1

  0
MTEXT
  5
35E
100
AcDbEntity
  8
0
100
AcDbMText
 62
2
  6
CONTINUOUS
  7
STANDARD
 71
1
 72
1
 10
82.5417296574
 20
43.8278259353
 30
0.0
 11
1.0
 21
0.0
 31
0.0
 44
0.9
  1
70\P[2.8]
 40
0.625
 41
2.8125
  0
LINE
  5
35F
100
AcDbEntity
  8
0
100
AcDbLine
 62
2
  6
CONTINUOUS
 10
75.8106239675
 20
40.5141133346
 11
77.0742479256
 21
45.2300221478
  0
LINE
  5
360
100
AcDbEntity
  8
0
100
AcDbLine
 62
2
  6
CONTINUOUS
 10
78.4669199898
 20
39.8023609606
 11
79.7305439479
 21
44.5182697737
  0
LINE
  5
361
100
AcDbEntity
  8
0
100
AcDbLine
 62
2
  6
CONTINUOUS
 10
76.944838403
 20
44.7470592346
 11
75.0129867505
 21
45.2646973248
  0
LINE
  5
362
100
AcDbEntity
  8
0
100
AcDbLine
 62
2
  6
CONTINUOUS
 10
79.6011344253
 20
44.0353068606
 11
81.5417296574
 21
43.5153259353
  0
LINE
  5
363
100
AcDbEntity
  8
0
100
AcDbLine
 62
2
  6
CONTINUOUS
 10
81.5417296574
 20
43.5153259353
 11
82.2292296574
 21
43.5153259353
  0
INSERT
  5
364
100
AcDbEntity
  8
0
100
AcDbBlockReference
 62
2
  6
CONTINUOUS
  2
_FILLED
 10
76.944838403
 20
44.7470592346
 41
1.2
 42
1.2
 43
1.2
 50
345.0
  0
INSERT
  5
365
100
AcDbEntity
  8
0
100
AcDbBlockReference
 62
2
  6
CONTINUOUS
  2
_FILLED
 10
79.6011344253
 20
44.0353068606
 41
1.2
 42
1.2
 43
1.2
 50
165.0
  0
ENDBLK
  5
366
100
AcDbEntity
  8
0
  6
BYBLOCK
 62
0
100
AcDbBlockEnd
  0
BLOCK
  5
367
100
AcDbEntity
  8
0
100
AcDbBlockBegin
 62
2
  6
CONTINUOUS
  2
*D23
 70
65
 10
0.0
 20
0.0
  3
*D23
  1

  0
MTEXT
  5
368
100
AcDbEntity
  8
0
100
AcDbMText
 62
2
  6
CONTINUOUS
  7
STANDARD
 71
2
 72
1
 10
44.3884027491
 20
27.4078133566
 30
0.0
 11
1.0
 21
0.0
 31
0.0
 44
0.9
  1
122\P[4.8]
 40
0.625
 41
2.8125
  0
LINE
  5
369
100
AcDbEntity
  8
0
100
AcDbLine
 62
2
  6
CONTINUOUS
 10
42.2562598919
 20
28.290053363
 11
42.2562598919
 21
26.5953133566
  0
LINE
  5
36A
100
AcDbEntity
  8
0
100
AcDbLine
 62
2
  6
CONTINUOUS
 10
47.0562598919
 20
38.918053363
 11
47.0562598919
 21
26.5953133566
  0
LINE
  5
36B
100
AcDbEntity
  8
0
100
AcDbLine
 62
2
  6
CONTINUOUS
 10
42.2562598919
 20
27.0953133566
 11
40.2562598919
 21
27.0953133566
  0
LINE
  5
36C
100
AcDbEntity
  8
0
100
AcDbLine
 62
2
  6
CONTINUOUS
 10
47.0562598919
 20
27.0953133566
 11
49.0562598919
 21
27.0953133566
  0
INSERT
  5
36D
100
AcDbEntity
  8
0
100
AcDbBlockReference
 62
2
  6
CONTINUOUS
  2
_FILLED
 10
42.2562598919
 20
27.0953133566
 41
1.2
 42
1.2
 43
1.2
  0
INSERT
  5
36E
100
AcDbEntity
  8
0
100
AcDbBlockReference
 62
2
  6
CONTINUOUS
  2
_FILLED
 10
47.0562598919
 20
27.0953133566
 41
1.2
 42
1.2
 43
1.2
 50
180.0
  0
ENDBLK
  5
36F
100
AcDbEntity
  8
0
  6
BYBLOCK
 62
0
100
AcDbBlockEnd
  0
BLOCK
  5
370
100
AcDbEntity
  8
0
100
AcDbBlockBegin
 62
2
  6
CONTINUOUS
  2
*D24
 70
65
 10
0.0
 20
0.0
  3
*D24
  1

  0
MTEXT
  5
371
100
AcDbEntity
  8
0
100
AcDbMText
 62
2
  6
CONTINUOUS
  7
STANDARD
 71
2
 72
1
 10
35.2026589967
 20
38.920073048
 30
0.0
 11
1.0
 21
0.0
 31
0.0
 44
0.9
  1
511\P[20.1]
 40
0.625
 41
3.3482142857
  0
LINE
  5
372
100
AcDbEntity
  8
0
100
AcDbLine
 62
2
  6
CONTINUOUS
 10
42.0062598919
 20
28.540053363
 11
35.2383732824
 21
28.540053363
  0
LINE
  5
373
100
AcDbEntity
  8
0
100
AcDbLine
 62
2
  6
CONTINUOUS
 10
42.0062598919
 20
48.6750927331
 11
35.2383732824
 21
48.6750927331
  0
LINE
  5
374
100
AcDbEntity
  8
0
100
AcDbLine
 62
2
  6
CONTINUOUS
 10
35.7383732824
 20
28.540053363
 11
35.7383732824
 21
37.045073048
  0
LINE
  5
375
100
AcDbEntity
  8
0
100
AcDbLine
 62
2
  6
CONTINUOUS
 10
35.7383732824
 20
48.6750927331
 11
35.7383732824
 21
39.232573048
  0
INSERT
  5
376
100
AcDbEntity
  8
0
100
AcDbBlockReference
 62
2
  6
CONTINUOUS
  2
_FILLED
 10
35.7383732824
 20
28.540053363
 41
1.2
 42
1.2
 43
1.2
 50
270.0
  0
INSERT
  5
377
100
AcDbEntity
  8
0
100
AcDbBlockReference
 62
2
  6
CONTINUOUS
  2
_FILLED
 10
35.7383732824
 20
48.6750927331
 41
1.2
 42
1.2
 43
1.2
 50
90.0
  0
ENDBLK
  5
378
100
AcDbEntity
  8
0
  6
BYBLOCK
 62
0
100
AcDbBlockEnd
  0
ENDSEC
  0
SECTION
  2
ENTITIES
  0
MTEXT
  5
379
100
AcDbEntity
  8
0
100
AcDbMText
 62
2
  6
CONTINUOUS
  7
STANDARD
 71
1
 72
1
 10
9.8516309789
 20
1.4596667342
 30
0.0
 11
1.0
 21
0.0
 31
0.0
 44
0.9
  1
8
 40
0.625
 41
0.7366071429
  0
MTEXT
  5
37A
100
AcDbEntity
  8
0
100
AcDbMText
 62
2
  6
CONTINUOUS
  7
STANDARD
 71
1
 72
1
 10
26.1016309789
 20
1.4596667342
 30
0.0
 11
1.0
 21
0.0
 31
0.0
 44
0.9
  1
7
 40
0.625
 41
0.7366071429
  0
MTEXT
  5
37B
100
AcDbEntity
  8
0
100
AcDbMText
 62
2
  6
CONTINUOUS
  7
STANDARD
 71
1
 72
1
 10
42.3516309789
 20
1.4596667342
 30
0.0
 11
1.0
 21
0.0
 31
0.0
 44
0.9
  1
6
 40
0.625
 41
0.7366071429
  0
MTEXT
  5
37C
100
AcDbEntity
  8
0
100
AcDbMText
 62
2
  6
CONTINUOUS
  7
STANDARD
 71
1
 72
1
 10
58.6016309789
 20
1.4596667342
 30
0.0
 11
1.0
 21
0.0
 31
0.0
 44
0.9
  1
5
 40
0.625
 41
0.6696428571
  0
MTEXT
  5
37D
100
AcDbEntity
  8
0
100
AcDbMText
 62
2
  6
CONTINUOUS
  7
STANDARD
 71
1
 72
1
 10
74.8516309789
 20
1.4596667342
 30
0.0
 11
1.0
 21
0.0
 31
0.0
 44
0.9
  1
4
 40
0.625
 41
0.7366071429
  0
MTEXT
  5
37E
100
AcDbEntity
  8
0
100
AcDbMText
 62
2
  6
CONTINUOUS
  7
STANDARD
 71
1
 72
1
 10
91.1016309789
 20
1.4596667342
 30
0.0
 11
1.0
 21
0.0
 31
0.0
 44
0.9
  1
3
 40
0.625
 41
0.6696428571
  0
MTEXT
  5
37F
100
AcDbEntity
  8
0
100
AcDbMText
 62
2
  6
CONTINUOUS
  7
STANDARD
 71
1
 72
1
 10
107.3516309789
 20
1.4596667342
 30
0.0
 11
1.0
 21
0.0
 31
0.0
 44
0.9
  1
2
 40
0.625
 41
0.7366071429
  0
MTEXT
  5
380
100
AcDbEntity
  8
0
100
AcDbMText
 62
2
  6
CONTINUOUS
  7
STANDARD
 71
1
 72
1
 10
123.6016309789
 20
1.4596667342
 30
0.0
 11
1.0
 21
0.0
 31
0.0
 44
0.9
  1
1
 40
0.625
 41
0.5357142857
  0
MTEXT
  5
381
100
AcDbEntity
  8
0
100
AcDbMText
 62
2
  6
CONTINUOUS
  7
STANDARD
 71
1
 72
1
 10
9.8516309789
 20
87.4596667342
 30
0.0
 11
1.0
 21
0.0
 31
0.0
 44
0.9
  1
8
 40
0.625
 41
0.9151785714
  0
MTEXT
  5
382
100
AcDbEntity
  8
0
100
AcDbMText
 62
2
  6
CONTINUOUS
  7
STANDARD
 71
1
 72
1
 10
26.1016309789
 20
87.4596667342
 30
0.0
 11
1.0
 21
0.0
 31
0.0
 44
0.9
  1
7
 40
0.625
 41
0.7366071429
  0
MTEXT
  5
383
100
AcDbEntity
  8
0
100
AcDbMText
 62
2
  6
CONTINUOUS
  7
STANDARD
 71
1
 72
1
 10
42.3516309789
 20
87.4596667342
 30
0.0
 11
1.0
 21
0.0
 31
0.0
 44
0.9
  1
6
 40
0.625
 41
0.7366071429
  0
MTEXT
  5
384
100
AcDbEntity
  8
0
100
AcDbMText
 62
2
  6
CONTINUOUS
  7
STANDARD
 71
1
 72
1
 10
58.6016309789
 20
87.4596667342
 30
0.0
 11
1.0
 21
0.0
 31
0.0
 44
0.9
  1
5
 40
0.625
 41
0.6696428571
  0
MTEXT
  5
385
100
AcDbEntity
  8
0
100
AcDbMText
 62
2
  6
CONTINUOUS
  7
STANDARD
 71
1
 72
1
 10
74.8516309789
 20
87.4596667342
 30
0.0
 11
1.0
 21
0.0
 31
0.0
 44
0.9
  1
4
 40
0.625
 41
0.7366071429
  0
MTEXT
  5
386
100
AcDbEntity
  8
0
100
AcDbMText
 62
2
  6
CONTINUOUS
  7
STANDARD
 71
1
 72
1
 10
91.1016309789
 20
87.4596667342
 30
0.0
 11
1.0
 21
0.0
 31
0.0
 44
0.9
  1
3
 40
0.625
 41
0.6696428571
  0
MTEXT
  5
387
100
AcDbEntity
  8
0
100
AcDbMText
 62
2
  6
CONTINUOUS
  7
STANDARD
 71
1
 72
1
 10
107.3516309789
 20
87.4596667342
 30
0.0
 11
1.0
 21
0.0
 31
0.0
 44
0.9
  1
2
 40
0.625
 41
0.7366071429
  0
MTEXT
  5
388
100
AcDbEntity
  8
0
100
AcDbMText
 62
2
  6
CONTINUOUS
  7
STANDARD
 71
1
 72
1
 10
123.6016309789
 20
87.4596667342
 30
0.0
 11
1.0
 21
0.0
 31
0.0
 44
0.9
  1
1
 40
0.625
 41
0.5357142857
  0
MTEXT
  5
389
100
AcDbEntity
  8
0
100
AcDbMText
 62
2
  6
CONTINUOUS
  7
STANDARD
 71
1
 72
1
 10
0.7928772371
 20
12.8779597969
 30
0.0
 11
1.0
 21
0.0
 31
0.0
 44
0.9
  1
A
 40
0.625
 41
0.8035714286
  0
MTEXT
  5
38A
100
AcDbEntity
  8
0
100
AcDbMText
 62
2
  6
CONTINUOUS
  7
STANDARD
 71
1
 72
1
 10
0.7928772371
 20
33.8779597969
 30
0.0
 11
1.0
 21
0.0
 31
0.0
 44
0.9
  1
B
 40
0.625
 41
0.7366071429
  0
MTEXT
  5
38B
100
AcDbEntity
  8
0
100
AcDbMText
 62
2
  6
CONTINUOUS
  7
STANDARD
 71
1
 72
1
 10
0.7928772371
 20
54.8779597969
 30
0.0
 11
1.0
 21
0.0
 31
0.0
 44
0.9
  1
C
 40
0.625
 41
0.78125
  0
MTEXT
  5
38C
100
AcDbEntity
  8
0
100
AcDbMText
 62
2
  6
CONTINUOUS
  7
STANDARD
 71
1
 72
1
 10
0.7928772371
 20
75.8779597969
 30
0.0
 11
1.0
 21
0.0
 31
0.0
 44
0.9
  1
D
 40
0.625
 41
0.8482142857
  0
MTEXT
  5
38D
100
AcDbEntity
  8
0
100
AcDbMText
 62
2
  6
CONTINUOUS
  7
STANDARD
 71
1
 72
1
 10
132.7928772371
 20
12.8779597969
 30
0.0
 11
1.0
 21
0.0
 31
0.0
 44
0.9
  1
A
 40
0.625
 41
0.8035714286
  0
MTEXT
  5
38E
100
AcDbEntity
  8
0
100
AcDbMText
 62
2
  6
CONTINUOUS
  7
STANDARD
 71
1
 72
1
 10
132.7928772371
 20
33.8779597969
 30
0.0
 11
1.0
 21
0.0
 31
0.0
 44
0.9
  1
B
 40
0.625
 41
0.7366071429
  0
MTEXT
  5
38F
100
AcDbEntity
  8
0
100
AcDbMText
 62
2
  6
CONTINUOUS
  7
STANDARD
 71
1
 72
1
 10
132.7928772371
 20
54.8779597969
 30
0.0
 11
1.0
 21
0.0
 31
0.0
 44
0.9
  1
C
 40
0.625
 41
0.78125
  0
MTEXT
  5
390
100
AcDbEntity
  8
0
100
AcDbMText
 62
2
  6
CONTINUOUS
  7
STANDARD
 71
1
 72
1
 10
132.7928772371
 20
75.8779597969
 30
0.0
 11
1.0
 21
0.0
 31
0.0
 44
0.9
  1
D
 40
0.625
 41
0.8482142857
  0
MTEXT
  5
391
100
AcDbEntity
  8
0
100
AcDbMText
 62
5
  6
CONTINUOUS
  7
STANDARD
 71
1
 72
1
 10
2.2651584424
 20
85.8247284615
 30
0.0
 11
1.0
 21
0.0
 31
0.0
 44
0.9
  1
THIS DOCUMENT CONTAINS PROPRIETARY INFORMATION\PWHICH IS THE PROPERTY OF QSC, LLC, THAT MAY NOT BE\PDISCLOSED, REPRODUCED OR USED WITHOUT EXPRESS\PWRITTEN CONSENT FROM QSC, LLC.
 40
0.3
 41
17.775
  0
MTEXT
  5
392
100
AcDbEntity
  8
0
100
AcDbMText
 62
2
  6
CONTINUOUS
  7
STANDARD
 71
2
 72
1
 10
96.9972564215
 20
11.9130298612
 30
0.0
 11
1.0
 21
0.0
 31
0.0
 44
0.9
  1
UNLESS OTHERWISE SPECIFIED\PDIMENSIONS IN MILLIMETERS [IN]
 40
0.4
 41
13.1428571429
  0
MTEXT
  5
393
100
AcDbEntity
  8
0
100
AcDbMText
 62
2
  6
CONTINUOUS
  7
STANDARD
 71
2
 72
1
 10
96.9397891167
 20
10.3679419945
 30
0.0
 11
1.0
 21
0.0
 31
0.0
 44
0.9
  1
TOLERANCES ARE:
 40
0.36
 41
6.1842857143
  0
MTEXT
  5
394
100
AcDbEntity
  8
0
100
AcDbMText
 62
2
  6
CONTINUOUS
  7
STANDARD
 71
2
 72
1
 10
93.9971065635
 20
9.454822291
 30
0.0
 11
1.0
 21
0.0
 31
0.0
 44
0.9
  1
DECIMALS\P.X\Fgdt;{\Fgdt;`}\Ftxt;.5[.02]
 40
0.36
 41
3.7157142857
  0
MTEXT
  5
395
100
AcDbEntity
  8
0
100
AcDbMText
 62
2
  6
CONTINUOUS
  7
STANDARD
 71
2
 72
1
 10
97.5
 20
9.43
 30
0.0
 11
1.0
 21
0.0
 31
0.0
 44
0.9
  1
DECIMALS\P.XX\Fgdt;{\Fgdt;`}\Ftxt;.25[.010]
 40
0.36
 41
4.9114285714
  0
MTEXT
  5
396
100
AcDbEntity
  8
0
100
AcDbMText
 62
2
  6
CONTINUOUS
  7
STANDARD
 71
2
 72
1
 10
100.5171879775
 20
9.4500027785
 30
0.0
 11
1.0
 21
0.0
 31
0.0
 44
0.9
  1
ANGLES\P\Fgdt;{\Fgdt;`}\Ftxt; 1/2
 40
0.36
 41
2.5714285714
  0
MTEXT
  5
397
100
AcDbEntity
  8
0
100
AcDbMText
 62
2
  6
CONTINUOUS
  7
STANDARD
 71
2
 72
1
 10
97.0
 20
7.93
 30
0.0
 11
1.0
 21
0.0
 31
0.0
 44
0.9
  1
DEBURR EDGES .25 [.010] R MAX
 40
0.36
 41
11.7642857143
  0
MTEXT
  5
398
100
AcDbEntity
  8
0
100
AcDbMText
 62
2
  6
CONTINUOUS
  7
STANDARD
 71
2
 72
1
 10
93.8356979232
 20
6.7448796703
 30
0.0
 11
1.0
 21
0.0
 31
0.0
 44
0.9
  1
MATERIAL
 40
0.36
 41
3.4585714286
  0
MTEXT
  5
399
100
AcDbEntity
  8
0
100
AcDbMText
 62
2
  6
CONTINUOUS
  7
STANDARD
 71
2
 72
1
 10
93.4525588641
 20
4.3085865078
 30
0.0
 11
1.0
 21
0.0
 31
0.0
 44
0.9
  1
FINISH
 40
0.36
 41
2.4557142857
  0
MTEXT
  5
39A
100
AcDbEntity
  8
0
100
AcDbMText
 62
2
  6
CONTINUOUS
  7
STANDARD
 71
2
 72
1
 10
121.0791692592
 20
2.7236102469
 30
0.0
 11
1.0
 21
0.0
 31
0.0
 44
0.9
  1
DO NOT SCALE DRAWING
 40
0.5
 41
12.4642857143
  0
MTEXT
  5
39B
100
AcDbEntity
  8
0
100
AcDbMText
 62
2
  6
CONTINUOUS
  7
STANDARD
 71
2
 72
1
 10
102.8841465771
 20
12.0357444726
 30
0.0
 11
1.0
 21
0.0
 31
0.0
 44
0.9
  1
DESIGNER
 40
0.36
 41
3.4071428571
  0
MTEXT
  5
39C
100
AcDbEntity
  8
0
100
AcDbMText
 62
2
  6
CONTINUOUS
  7
STANDARD
 71
2
 72
1
 10
102.7433651965
 20
9.9863999415
 30
0.0
 11
1.0
 21
0.0
 31
0.0
 44
0.9
  1
ENGINEER
 40
0.36
 41
3.3042857143
  0
MTEXT
  5
39D
100
AcDbEntity
  8
0
100
AcDbMText
 62
2
  6
CONTINUOUS
  7
STANDARD
 71
2
 72
1
 10
104.2793711084
 20
7.8985005175
 30
0.0
 11
1.0
 21
0.0
 31
0.0
 44
0.9
  1
TECHNICAL DIRECTOR
 40
0.36
 41
7.6885714286
  0
MTEXT
  5
39E
100
AcDbEntity
  8
0
100
AcDbMText
 62
2
  6
CONTINUOUS
  7
STANDARD
 71
2
 72
1
 10
104.8126451159
 20
5.8092477111
 30
0.0
 11
1.0
 21
0.0
 31
0.0
 44
0.9
  1
MANUFACTURING ENGINEER
 40
0.36
 41
9.3085714286
  0
MTEXT
  5
39F
100
AcDbEntity
  8
0
100
AcDbMText
 62
2
  6
CONTINUOUS
  7
STANDARD
 71
2
 72
1
 10
103.8260940015
 20
2.7040098754
 30
0.0
 11
1.0
 21
0.0
 31
0.0
 44
0.9
  1
MODEL INFO:
 40
0.36
 41
4.41
  0
MTEXT
  5
3A0
100
AcDbEntity
  8
0
100
AcDbMText
 62
2
  6
CONTINUOUS
  7
STANDARD
 71
2
 72
1
 10
103.4554035731
 20
3.673444166
 30
0.0
 11
1.0
 21
0.0
 31
0.0
 44
0.9
  1
DRAWING INFO:
 40
0.36
 41
5.6057142857
  0
MTEXT
  5
3A1
100
AcDbEntity
  8
0
100
AcDbMText
 62
2
  6
CONTINUOUS
  7
STANDARD
 71
2
 72
1
 10
112.9574583256
 20
2.6680813209
 30
0.0
 11
1.0
 21
0.0
 31
0.0
 44
0.9
  1
SCALE:
 40
0.36
 41
2.3657142857
  0
MTEXT
  5
3A2
100
AcDbEntity
  8
0
100
AcDbMText
 62
2
  6
CONTINUOUS
  7
STANDARD
 71
2
 72
1
 10
126.4649709371
 20
2.6747235461
 30
0.0
 11
1.0
 21
0.0
 31
0.0
 44
0.9
  1
SHEET
 40
0.36
 41
2.1857142857
  0
MTEXT
  5
3A3
100
AcDbEntity
  8
0
100
AcDbMText
 62
2
  6
CONTINUOUS
  7
STANDARD
 71
2
 72
1
 10
112.9679178031
 20
4.8413186693
 30
0.0
 11
1.0
 21
0.0
 31
0.0
 44
0.9
  1
SIZE
 40
0.36
 41
1.6842857143
  0
MTEXT
  5
3A4
100
AcDbEntity
  8
0
100
AcDbMText
 62
2
  6
CONTINUOUS
  7
STANDARD
 71
2
 72
1
 10
115.9347904347
 20
4.8456657724
 30
0.0
 11
1.0
 21
0.0
 31
0.0
 44
0.9
  1
CAGE CODE
 40
0.36
 41
3.9985714286
  0
MTEXT
  5
3A5
100
AcDbEntity
  8
0
100
AcDbMText
 62
2
  6
CONTINUOUS
  7
STANDARD
 71
2
 72
1
 10
119.7637989921
 20
4.8373318629
 30
0.0
 11
1.0
 21
0.0
 31
0.0
 44
0.9
  1
DRAWING NO.
 40
0.36
 41
4.9885714286
  0
MTEXT
  5
3A6
100
AcDbEntity
  8
0
100
AcDbMText
 62
2
  6
CONTINUOUS
  7
STANDARD
 71
2
 72
1
 10
131.0485306378
 20
4.8426956267
 30
0.0
 11
1.0
 21
0.0
 31
0.0
 44
0.9
  1
REV
 40
0.36
 41
1.3628571429
  0
MTEXT
  5
3A7
100
AcDbEntity
  8
0
100
AcDbMText
 62
2
  6
CONTINUOUS
  7
STANDARD
 71
2
 72
1
 10
121.6685660019
 20
11.9740712106
 30
0.0
 11
1.0
 21
0.0
 31
0.0
 44
0.9
  1
QSC, LLC
 40
0.625
 41
5.7589285714
  0
MTEXT
  5
3A8
100
AcDbEntity
  8
0
100
AcDbMText
 62
2
  6
CONTINUOUS
  7
STANDARD
 71
1
 72
1
 10
119.6485296552
 20
11.0171606556
 30
0.0
 11
1.0
 21
0.0
 31
0.0
 44
0.9
  1
1675 MACARTHUR BOULEVARD\PCOSTA MESA, CA  92626
 40
0.5
 41
14.3392857143
  0
MTEXT
  5
3A9
100
AcDbEntity
  8
0
100
AcDbMText
 62
2
  6
CONTINUOUS
  7
STANDARD
 71
1
 72
1
 10
114.5204339557
 20
3.9851059671
 30
0.0
 11
1.0
 21
0.0
 31
0.0
 44
0.9
  1
00PW4
 40
0.625
 41
4.3973214286
  0
INSERT
  5
3AA
100
AcDbEntity
  8
0
100
AcDbBlockReference
 62
7
  6
CONTINUOUS
  2
RD010411_BL0
 10
115.5552811952
 20
10.8044426607
  0
DIMENSION
  5
3AB
100
AcDbEntity
  8
0
100
AcDbDimension
 62
2
  6
CONTINUOUS
  2
*D0
 10
58.0268941235
 20
45.03121107
 11
57.1938840079
 21
41.4536249952
 70
160
 71
2
 42
163.5
  3
DIMSTYLE_1
100
AcDbAlignedDimension
 13
53.2901569098
 23
39.636335056
 14
55.6140715031
 24
45.6777249426
 50
75.0
100
AcDbRotatedDimension
  0
DIMENSION
  5
3AC
100
AcDbEntity
  8
0
100
AcDbDimension
 62
2
  6
CONTINUOUS
  2
*D1
 10
58.2311208594
 20
45.7933956246
 11
60.4287246611
 21
47.2117179886
 70
160
 71
1
 42
20.0424164679
  3
DIMSTYLE_1
100
AcDbAlignedDimension
 13
55.6140715031
 23
45.6777249426
 14
54.5633552363
 24
46.7761704613
 50
75.0
100
AcDbRotatedDimension
  0
DIMENSION
  5
3AD
100
AcDbEntity
  8
0
100
AcDbDimension
 62
2
  6
CONTINUOUS
  2
*D2
 10
28.1503677045
 20
56.1404963654
 11
19.9889503817
 21
55.6717463654
 70
160
 71
2
 42
414.6
  3
DIMSTYLE_1
100
AcDbAlignedDimension
 13
11.8275330588
 23
39.7118053315
 14
28.1503677045
 24
39.7118053315
100
AcDbRotatedDimension
  0
DIMENSION
  5
3AE
100
AcDbEntity
  8
0
100
AcDbDimension
 62
2
  6
CONTINUOUS
  2
*D3
 10
123.7590996619
 20
36.6779754426
 11
123.7590996619
 21
40.414293956
 70
160
 71
2
 42
23.781
  3
DIMSTYLE_1
100
AcDbAlignedDimension
 13
120.3825392599
 23
37.6142352851
 14
114.2801770552
 24
36.6779754426
 50
270.0
100
AcDbRotatedDimension
  0
DIMENSION
  5
3AF
100
AcDbEntity
  8
0
100
AcDbDimension
 62
2
  6
CONTINUOUS
  2
*D4
 10
101.8416575851
 20
34.3157707182
 11
101.8416575851
 21
35.5723718503
 70
160
 71
2
 42
60.0
  3
DIMSTYLE_1
100
AcDbAlignedDimension
 13
110.3618699686
 23
36.6779754426
 14
110.3618699686
 24
34.3157707182
 50
270.0
100
AcDbRotatedDimension
  0
DIMENSION
  5
3B0
100
AcDbEntity
  8
0
100
AcDbDimension
 62
2
  6
CONTINUOUS
  2
*D5
 10
110.5493699686
 20
24.9078934538
 11
112.3210235119
 21
24.4391434538
 70
160
 71
2
 42
90.0
  3
DIMSTYLE_1
100
AcDbAlignedDimension
 13
114.0926770552
 23
34.1282707182
 14
110.5493699686
 24
34.1282707182
 50
180.0
100
AcDbRotatedDimension
  0
DIMENSION
  5
3B1
100
AcDbEntity
  8
0
100
AcDbDimension
 62
2
  6
CONTINUOUS
  2
*D6
 10
27.8629661297
 20
52.6117662515
 11
19.9889503817
 21
52.1430162515
 70
160
 71
2
 42
400.0
  3
DIMSTYLE_1
100
AcDbAlignedDimension
 13
12.1149346336
 23
48.8625927331
 14
27.8629661297
 24
48.8625927331
100
AcDbRotatedDimension
  0
DIMENSION
  5
3B2
100
AcDbEntity
  8
0
100
AcDbDimension
 62
2
  6
CONTINUOUS
  2
*D7
 10
7.7460368949
 20
48.8522580874
 11
7.7460368949
 21
44.6856408397
 70
160
 71
2
 42
515.93
  3
DIMSTYLE_1
100
AcDbAlignedDimension
 13
11.9274346336
 23
28.540053363
 14
12.636096051
 24
48.8522580874
 50
90.0
100
AcDbRotatedDimension
  0
DIMENSION
  5
3B3
100
AcDbEntity
  8
0
100
AcDbDimension
 62
2
  6
CONTINUOUS
  2
*D8
 10
47.6724409943
 20
24.6000136521
 11
44.9643504431
 21
24.1312636521
 70
160
 71
2
 42
137.571
  3
DIMSTYLE_1
100
AcDbAlignedDimension
 13
42.2562598919
 23
28.352553363
 14
47.6724409943
 24
29.2414746228
100
AcDbRotatedDimension
  0
DIMENSION
  5
3B4
100
AcDbEntity
  8
0
100
AcDbDimension
 62
2
  6
CONTINUOUS
  2
*D9
 10
38.395001972
 20
39.1699746228
 11
38.395001972
 21
33.3862639929
 70
160
 71
2
 42
270.0
  3
DIMSTYLE_1
100
AcDbAlignedDimension
 13
42.0687598919
 23
28.540053363
 14
42.8354409943
 24
39.1699746228
 50
90.0
100
AcDbRotatedDimension
  0
DIMENSION
  5
3B5
100
AcDbEntity
  8
0
100
AcDbDimension
 62
2
  6
CONTINUOUS
  2
*D10
 10
42.2562598919
 20
51.5087947563
 11
46.5034509597
 21
51.0400447563
 70
160
 71
2
 42
215.7573062413
  3
DIMSTYLE_1
100
AcDbAlignedDimension
 13
50.7506420274
 23
48.8625927331
 14
42.2562598919
 24
48.8625927331
 50
180.0
100
AcDbRotatedDimension
  0
DIMENSION
  5
3B6
100
AcDbEntity
  8
0
100
AcDbDimension
 62
2
  6
CONTINUOUS
  2
*D11
 10
54.3822441439
 20
54.8029437035
 11
48.3192520179
 21
54.3341937035
 70
160
 71
2
 42
308.0
  3
DIMSTYLE_1
100
AcDbAlignedDimension
 13
42.2562598919
 23
48.8625927331
 14
54.3822441439
 24
47.0121990323
100
AcDbRotatedDimension
  0
DIMENSION
  5
3B7
100
AcDbEntity
  8
0
100
AcDbDimension
 62
2
  6
CONTINUOUS
  2
*D12
 10
55.4329604107
 20
58.236442068
 11
48.8446101513
 21
57.767692068
 70
160
 71
2
 42
334.6881931758
  3
DIMSTYLE_1
100
AcDbAlignedDimension
 13
42.2562598919
 23
48.8625927331
 14
55.4329604107
 24
45.9137535135
100
AcDbRotatedDimension
  0
DIMENSION
  5
3B8
100
AcDbEntity
  8
0
100
AcDbDimension
 62
2
  6
CONTINUOUS
  2
*D13
 10
49.4828881029
 20
22.1232395011
 11
46.587777928
 21
21.6544895011
 70
160
 71
2
 42
183.5563565592
  3
DIMSTYLE_1
100
AcDbAlignedDimension
 13
42.2562598919
 23
28.352553363
 14
49.4828881029
 24
28.352553363
100
AcDbRotatedDimension
  0
DIMENSION
  5
3B9
100
AcDbEntity
  8
0
100
AcDbDimension
 62
2
  6
CONTINUOUS
  2
*D14
 10
72.8827792477
 20
70.1908814635
 11
71.9896497475
 21
66.3889267913
 70
160
 71
2
 42
175.3
  3
DIMSTYLE_1
100
AcDbAlignedDimension
 13
60.4549913447
 23
66.3758611948
 14
62.241250345
 24
73.0422705393
 50
75.0
100
AcDbRotatedDimension
  0
DIMENSION
  5
3BA
100
AcDbEntity
  8
0
100
AcDbDimension
 62
2
  6
CONTINUOUS
  2
*D15
 10
67.8747172815
 20
68.9955458029
 11
67.7560562917
 21
68.0839469602
 70
160
 71
2
 42
50.8
  3
DIMSTYLE_1
100
AcDbAlignedDimension
 13
61.8540564598
 23
68.5382246472
 14
62.3716945501
 24
70.4700762997
 50
75.0
100
AcDbRotatedDimension
  0
DIMENSION
  5
3BB
100
AcDbEntity
  8
0
100
AcDbDimension
 62
2
  6
CONTINUOUS
  2
*D16
 10
63.8290515775
 20
78.4687102106
 11
67.2609082672
 21
77.533757446
 70
160
 71
1
 42
23.745
  3
DIMSTYLE_1
100
AcDbAlignedDimension
 13
62.6564349197
 23
77.7043993992
 14
61.8174897617
 24
70.9614593114
 50
345.0
100
AcDbRotatedDimension
  0
DIMENSION
  5
3BC
100
AcDbEntity
  8
0
100
AcDbDimension
 62
2
  6
CONTINUOUS
  2
*D17
 10
64.9383842272
 20
81.2009781444
 11
68.3558564983
 21
80.3117467345
 70
160
 71
1
 42
33.0
  3
DIMSTYLE_1
100
AcDbAlignedDimension
 13
60.6184896827
 23
70.0986842315
 14
61.8734326854
 24
69.7624232674
 50
345.0
100
AcDbRotatedDimension
  0
DIMENSION
  5
3BD
100
AcDbEntity
  8
0
100
AcDbDimension
 62
2
  6
CONTINUOUS
  2
*D18
 10
61.3216840663
 20
68.5542412846
 11
71.5217450022
 21
60.0664249898
 70
163
 71
1
 42
7.3
  1
2X %%c<>X 10.8[.42] LONG SLOT
  3
DIMSTYLE_2
100
AcDbDiametricDimension
 15
61.2392968633
 25
68.8295811001
  0
DIMENSION
  5
3BE
100
AcDbEntity
  8
0
100
AcDbDimension
 62
2
  6
CONTINUOUS
  2
*D19
 10
66.4505074482
 20
42.0313000228
 11
69.2321746493
 21
45.0462437296
 70
160
 71
1
 42
38.2669164679
  3
DIMSTYLE_1
100
AcDbAlignedDimension
 13
69.4941628758
 23
42.775472612
 14
69.7520597716
 24
41.146651744
 50
255.0
100
AcDbRotatedDimension
  0
DIMENSION
  5
3BF
100
AcDbEntity
  8
0
100
AcDbDimension
 62
2
  6
CONTINUOUS
  2
*D20
 10
86.7962895067
 20
31.4032832488
 11
87.5705604393
 21
33.8241517083
 70
160
 71
2
 42
127.0
  3
DIMSTYLE_1
100
AcDbAlignedDimension
 13
83.9972182205
 23
37.3296730416
 14
82.686702256
 24
32.5044438339
 50
255.0
100
AcDbRotatedDimension
  0
DIMENSION
  5
3C0
100
AcDbEntity
  8
0
100
AcDbDimension
 62
2
  6
CONTINUOUS
  2
*D21
 10
85.5021942812
 20
26.5736541174
 11
86.2905340322
 21
29.047028122
 70
160
 71
2
 42
127.0
  3
DIMSTYLE_1
100
AcDbAlignedDimension
 13
82.7195437341
 23
32.4956439863
 14
81.4131329543
 24
27.6693147977
 50
255.0
100
AcDbRotatedDimension
  0
DIMENSION
  5
3C1
100
AcDbEntity
  8
0
100
AcDbDimension
 62
2
  6
CONTINUOUS
  2
*D22
 10
79.6011344253
 20
44.0353068606
 11
83.4792296574
 21
43.0465759353
 70
160
 71
1
 42
69.85
  3
DIMSTYLE_1
100
AcDbAlignedDimension
 13
75.7944477772
 23
40.4537429705
 14
78.4507437995
 24
39.7419905965
 50
345.0
100
AcDbRotatedDimension
  0
DIMENSION
  5
3C2
100
AcDbEntity
  8
0
100
AcDbDimension
 62
2
  6
CONTINUOUS
  2
*D23
 10
47.0562598919
 20
27.0953133566
 11
44.6562598919
 21
26.6265633566
 70
160
 71
2
 42
121.92
  3
DIMSTYLE_1
100
AcDbAlignedDimension
 13
42.2562598919
 23
28.352553363
 14
47.0562598919
 24
38.980553363
100
AcDbRotatedDimension
  0
DIMENSION
  5
3C3
100
AcDbEntity
  8
0
100
AcDbDimension
 62
2
  6
CONTINUOUS
  2
*D24
 10
35.7383732824
 20
48.6750927331
 11
35.7383732824
 21
38.138823048
 70
160
 71
2
 42
511.43
  3
DIMSTYLE_1
100
AcDbAlignedDimension
 13
42.0687598919
 23
28.540053363
 14
42.0687598919
 24
48.6750927331
 50
90.0
100
AcDbRotatedDimension
  0
LWPOLYLINE
  5
3C4
100
AcDbEntity
  8
0
100
AcDbPolyline
 62
2
  6
CONTINUOUS
 90
2
 70
0
 43
0.08
 10
132.0429429496
 20
85.9984084347
 10
91.7129429496
 20
85.9984084347
  0
LWPOLYLINE
  5
3C5
100
AcDbEntity
  8
0
100
AcDbPolyline
 62
2
  6
CONTINUOUS
 90
2
 70
0
 43
0.08
 10
132.0029429496
 20
85.9984084347
 10
132.0029429496
 20
80.9984084347
  0
LWPOLYLINE
  5
3C6
100
AcDbEntity
  8
0
100
AcDbPolyline
 62
2
  6
CONTINUOUS
 90
2
 70
0
 43
0.08
 10
132.0029429496
 20
84.7484084347
 10
91.7529429496
 20
84.7484084347
  0
LWPOLYLINE
  5
3C7
100
AcDbEntity
  8
0
100
AcDbPolyline
 62
2
  6
CONTINUOUS
 90
2
 70
0
 43
0.08
 10
132.0029429496
 20
83.4984084347
 10
91.7529429496
 20
83.4984084347
  0
LWPOLYLINE
  5
3C8
100
AcDbEntity
  8
0
100
AcDbPolyline
 62
2
  6
CONTINUOUS
 90
2
 70
0
 43
0.08
 10
132.0029429496
 20
82.2484084347
 10
91.7529429496
 20
82.2484084347
  0
LWPOLYLINE
  5
3C9
100
AcDbEntity
  8
0
100
AcDbPolyline
 62
2
  6
CONTINUOUS
 90
2
 70
0
 43
0.08
 10
132.0429429496
 20
80.9984084347
 10
91.7129429496
 20
80.9984084347
  0
LWPOLYLINE
  5
3CA
100
AcDbEntity
  8
0
100
AcDbPolyline
 62
2
  6
CONTINUOUS
 90
2
 70
0
 43
0.08
 10
129.0029429496
 20
84.7484084347
 10
129.0029429496
 20
80.9984084347
  0
LWPOLYLINE
  5
3CB
100
AcDbEntity
  8
0
100
AcDbPolyline
 62
2
  6
CONTINUOUS
 90
2
 70
0
 43
0.08
 10
124.5029429496
 20
84.7484084347
 10
124.5029429496
 20
80.9984084347
  0
LWPOLYLINE
  5
3CC
100
AcDbEntity
  8
0
100
AcDbPolyline
 62
2
  6
CONTINUOUS
 90
2
 70
0
 43
0.08
 10
122.5029429496
 20
84.7484084347
 10
122.5029429496
 20
80.9984084347
  0
LWPOLYLINE
  5
3CD
100
AcDbEntity
  8
0
100
AcDbPolyline
 62
2
  6
CONTINUOUS
 90
2
 70
0
 43
0.08
 10
97.0029429496
 20
84.7484084347
 10
97.0029429496
 20
80.9984084347
  0
LWPOLYLINE
  5
3CE
100
AcDbEntity
  8
0
100
AcDbPolyline
 62
2
  6
CONTINUOUS
 90
2
 70
0
 43
0.08
 10
93.7529429496
 20
84.7484084347
 10
93.7529429496
 20
80.9984084347
  0
LWPOLYLINE
  5
3CF
100
AcDbEntity
  8
0
100
AcDbPolyline
 62
2
  6
CONTINUOUS
 90
2
 70
0
 43
0.08
 10
91.7529429496
 20
85.9984084347
 10
91.7529429496
 20
80.9984084347
  0
MTEXT
  5
3D0
100
AcDbEntity
  8
0
100
AcDbMText
 62
2
  6
CONTINUOUS
  7
STANDARD
 71
2
 72
1
 10
111.8779429496
 20
85.6859084347
 30
0.0
 11
1.0
 21
0.0
 31
0.0
 44
0.9
  1
REVISIONS
 40
0.625
 41
6.3392857143
  0
MTEXT
  5
3D1
100
AcDbEntity
  8
0
100
AcDbMText
 62
2
  6
CONTINUOUS
  7
STANDARD
 71
2
 72
1
 10
130.5029429496
 20
84.4354084347
 30
0.0
 11
1.0
 21
0.0
 31
0.0
 44
0.9
  1
ISSUED
 40
0.624
 41
4.3234285714
  0
MTEXT
  5
3D2
100
AcDbEntity
  8
0
100
AcDbMText
 62
2
  6
CONTINUOUS
  7
STANDARD
 71
2
 72
1
 10
126.7529429496
 20
84.4354084347
 30
0.0
 11
1.0
 21
0.0
 31
0.0
 44
0.9
  1
EFF DATE
 40
0.624
 41
5.8611428571
  0
MTEXT
  5
3D3
100
AcDbEntity
  8
0
100
AcDbMText
 62
2
  6
CONTINUOUS
  7
STANDARD
 71
2
 72
1
 10
123.5029429496
 20
84.4359084347
 30
0.0
 11
1.0
 21
0.0
 31
0.0
 44
0.9
  1
BY
 40
0.625
 41
1.5401785714
  0
MTEXT
  5
3D4
100
AcDbEntity
  8
0
100
AcDbMText
 62
2
  6
CONTINUOUS
  7
STANDARD
 71
2
 72
1
 10
109.7529429496
 20
84.4354084347
 30
0.0
 11
1.0
 21
0.0
 31
0.0
 44
0.9
  1
DESCRIPTION
 40
0.624
 41
7.9782857143
  0
MTEXT
  5
3D5
100
AcDbEntity
  8
0
100
AcDbMText
 62
2
  6
CONTINUOUS
  7
STANDARD
 71
2
 72
1
 10
95.3779429496
 20
84.4359084347
 30
0.0
 11
1.0
 21
0.0
 31
0.0
 44
0.9
  1
ECO
 40
0.625
 41
2.1875
  0
MTEXT
  5
3D6
100
AcDbEntity
  8
0
100
AcDbMText
 62
2
  6
CONTINUOUS
  7
STANDARD
 71
2
 72
1
 10
92.7529429496
 20
84.4354084347
 30
0.0
 11
1.0
 21
0.0
 31
0.0
 44
0.9
  1
REV
 40
0.624
 41
2.184
  0
MTEXT
  5
3D7
100
AcDbEntity
  8
0
100
AcDbMText
 62
2
  6
CONTINUOUS
  7
STANDARD
 71
1
 72
1
 10
97.2529429496
 20
83.1859084347
 30
0.0
 11
1.0
 21
0.0
 31
0.0
 44
0.9
  1
RELEASE FOR MARKETING DATA
 40
0.625
 41
19.3080357143
  0
MTEXT
  5
3D8
100
AcDbEntity
  8
0
100
AcDbMText
 62
2
  6
CONTINUOUS
  7
STANDARD
 71
2
 72
1
 10
95.3779429496
 20
83.1859084347
 30
0.0
 11
1.0
 21
0.0
 31
0.0
 44
0.9
  1
-
 40
0.625
 41
0.8482142857
  0
MTEXT
  5
3D9
100
AcDbEntity
  8
0
100
AcDbMText
 62
2
  6
CONTINUOUS
  7
STANDARD
 71
2
 72
1
 10
92.7529429496
 20
83.1859084347
 30
0.0
 11
1.0
 21
0.0
 31
0.0
 44
0.9
  1
A
 40
0.625
 41
0.9821428571
  0
LINE
  5
3DA
100
AcDbEntity
  8
0
100
AcDbLine
 62
2
  6
CONTINUOUS
 10
92.5
 20
7.0
 11
101.5
 21
7.0
  0
LINE
  5
3DB
100
AcDbEntity
  8
0
100
AcDbLine
 62
2
  6
CONTINUOUS
 10
92.5
 20
7.0
 11
92.5
 21
4.5
  0
LINE
  5
3DC
100
AcDbEntity
  8
0
100
AcDbLine
 62
2
  6
CONTINUOUS
 10
92.5
 20
4.5
 11
101.5
 21
4.5
  0
LINE
  5
3DD
100
AcDbEntity
  8
0
100
AcDbLine
 62
2
  6
CONTINUOUS
 10
101.5
 20
7.0
 11
101.5
 21
4.5
  0
LINE
  5
3DE
100
AcDbEntity
  8
0
100
AcDbLine
 62
2
  6
CONTINUOUS
 10
92.5
 20
4.5
 11
101.5
 21
4.5
  0
LINE
  5
3DF
100
AcDbEntity
  8
0
100
AcDbLine
 62
2
  6
CONTINUOUS
 10
92.5
 20
4.5
 11
92.5
 21
2.0
  0
LINE
  5
3E0
100
AcDbEntity
  8
0
100
AcDbLine
 62
2
  6
CONTINUOUS
 10
92.5
 20
2.0
 11
101.5
 21
2.0
  0
LINE
  5
3E1
100
AcDbEntity
  8
0
100
AcDbLine
 62
2
  6
CONTINUOUS
 10
101.5
 20
4.5
 11
101.5
 21
2.0
  0
LINE
  5
3E2
100
AcDbEntity
  8
0
100
AcDbLine
 62
2
  6
CONTINUOUS
 10
101.5
 20
11.0
 11
108.5
 21
11.0
  0
LINE
  5
3E3
100
AcDbEntity
  8
0
100
AcDbLine
 62
2
  6
CONTINUOUS
 10
101.5
 20
11.0
 11
101.5
 21
9.28125
  0
LINE
  5
3E4
100
AcDbEntity
  8
0
100
AcDbLine
 62
2
  6
CONTINUOUS
 10
101.5
 20
9.28125
 11
108.5
 21
9.28125
  0
LINE
  5
3E5
100
AcDbEntity
  8
0
100
AcDbLine
 62
2
  6
CONTINUOUS
 10
108.5
 20
11.0
 11
108.5
 21
9.28125
  0
MTEXT
  5
3E6
100
AcDbEntity
  8
0
100
AcDbMText
 62
2
  6
CONTINUOUS
  7
STANDARD
 71
1
 72
1
 10
101.75
 20
10.21875
 30
0.0
 11
1.0
 21
0.0
 31
0.0
 44
0.9
  1
V. VU 
 40
0.625
 41
4.3080357143
  0
LINE
  5
3E7
100
AcDbEntity
  8
0
100
AcDbLine
 62
2
  6
CONTINUOUS
 10
101.5
 20
9.25
 11
108.5
 21
9.25
  0
LINE
  5
3E8
100
AcDbEntity
  8
0
100
AcDbLine
 62
2
  6
CONTINUOUS
 10
101.5
 20
9.25
 11
101.5
 21
7.49
  0
LINE
  5
3E9
100
AcDbEntity
  8
0
100
AcDbLine
 62
2
  6
CONTINUOUS
 10
101.5
 20
7.49
 11
108.5
 21
7.49
  0
LINE
  5
3EA
100
AcDbEntity
  8
0
100
AcDbLine
 62
2
  6
CONTINUOUS
 10
108.5
 20
9.25
 11
108.5
 21
7.49
  0
LINE
  5
3EB
100
AcDbEntity
  8
0
100
AcDbLine
 62
2
  6
CONTINUOUS
 10
101.5
 20
7.5
 11
108.5
 21
7.5
  0
LINE
  5
3EC
100
AcDbEntity
  8
0
100
AcDbLine
 62
2
  6
CONTINUOUS
 10
101.5
 20
7.5
 11
101.5
 21
5.78125
  0
LINE
  5
3ED
100
AcDbEntity
  8
0
100
AcDbLine
 62
2
  6
CONTINUOUS
 10
101.5
 20
5.78125
 11
108.5
 21
5.78125
  0
LINE
  5
3EE
100
AcDbEntity
  8
0
100
AcDbLine
 62
2
  6
CONTINUOUS
 10
108.5
 20
7.5
 11
108.5
 21
5.78125
  0
LINE
  5
3EF
100
AcDbEntity
  8
0
100
AcDbLine
 62
2
  6
CONTINUOUS
 10
101.5
 20
5.75
 11
108.5
 21
5.75
  0
LINE
  5
3F0
100
AcDbEntity
  8
0
100
AcDbLine
 62
2
  6
CONTINUOUS
 10
101.5
 20
5.75
 11
101.5
 21
3.99
  0
LINE
  5
3F1
100
AcDbEntity
  8
0
100
AcDbLine
 62
2
  6
CONTINUOUS
 10
101.5
 20
3.99
 11
108.5
 21
3.99
  0
LINE
  5
3F2
100
AcDbEntity
  8
0
100
AcDbLine
 62
2
  6
CONTINUOUS
 10
108.5
 20
5.75
 11
108.5
 21
3.99
  0
LINE
  5
3F3
100
AcDbEntity
  8
0
100
AcDbLine
 62
2
  6
CONTINUOUS
 10
108.5
 20
11.0
 11
112.0
 21
11.0
  0
LINE
  5
3F4
100
AcDbEntity
  8
0
100
AcDbLine
 62
2
  6
CONTINUOUS
 10
108.5
 20
11.0
 11
108.5
 21
9.24
  0
LINE
  5
3F5
100
AcDbEntity
  8
0
100
AcDbLine
 62
2
  6
CONTINUOUS
 10
108.5
 20
9.24
 11
112.0
 21
9.24
  0
LINE
  5
3F6
100
AcDbEntity
  8
0
100
AcDbLine
 62
2
  6
CONTINUOUS
 10
112.0
 20
11.0
 11
112.0
 21
9.24
  0
MTEXT
  5
3F7
100
AcDbEntity
  8
0
100
AcDbMText
 62
2
  6
CONTINUOUS
  7
STANDARD
 71
2
 72
1
 10
110.25
 20
10.0325
 30
0.0
 11
1.0
 21
0.0
 31
0.0
 44
0.9
  1
27-MAY-14
 40
0.48
 41
4.9885714286
  0
LINE
  5
3F8
100
AcDbEntity
  8
0
100
AcDbLine
 62
2
  6
CONTINUOUS
 10
108.5
 20
9.25
 11
112.0
 21
9.25
  0
LINE
  5
3F9
100
AcDbEntity
  8
0
100
AcDbLine
 62
2
  6
CONTINUOUS
 10
108.5
 20
9.25
 11
108.5
 21
7.49
  0
LINE
  5
3FA
100
AcDbEntity
  8
0
100
AcDbLine
 62
2
  6
CONTINUOUS
 10
108.5
 20
7.49
 11
112.0
 21
7.49
  0
LINE
  5
3FB
100
AcDbEntity
  8
0
100
AcDbLine
 62
2
  6
CONTINUOUS
 10
112.0
 20
9.25
 11
112.0
 21
7.49
  0
LINE
  5
3FC
100
AcDbEntity
  8
0
100
AcDbLine
 62
2
  6
CONTINUOUS
 10
108.5
 20
7.5
 11
112.0
 21
7.5
  0
LINE
  5
3FD
100
AcDbEntity
  8
0
100
AcDbLine
 62
2
  6
CONTINUOUS
 10
108.5
 20
7.5
 11
108.5
 21
5.74
  0
LINE
  5
3FE
100
AcDbEntity
  8
0
100
AcDbLine
 62
2
  6
CONTINUOUS
 10
108.5
 20
5.74
 11
112.0
 21
5.74
  0
LINE
  5
3FF
100
AcDbEntity
  8
0
100
AcDbLine
 62
2
  6
CONTINUOUS
 10
112.0
 20
7.5
 11
112.0
 21
5.74
  0
LINE
  5
400
100
AcDbEntity
  8
0
100
AcDbLine
 62
2
  6
CONTINUOUS
 10
108.5
 20
5.75
 11
112.0
 21
5.75
  0
LINE
  5
401
100
AcDbEntity
  8
0
100
AcDbLine
 62
2
  6
CONTINUOUS
 10
108.5
 20
5.75
 11
108.5
 21
4.03125
  0
LINE
  5
402
100
AcDbEntity
  8
0
100
AcDbLine
 62
2
  6
CONTINUOUS
 10
108.5
 20
4.03125
 11
112.0
 21
4.03125
  0
LINE
  5
403
100
AcDbEntity
  8
0
100
AcDbLine
 62
2
  6
CONTINUOUS
 10
112.0
 20
5.75
 11
112.0
 21
4.03125
  0
LINE
  5
404
100
AcDbEntity
  8
0
100
AcDbLine
 62
2
  6
CONTINUOUS
 10
101.5
 20
4.0
 11
112.0
 21
4.0
  0
LINE
  5
405
100
AcDbEntity
  8
0
100
AcDbLine
 62
2
  6
CONTINUOUS
 10
101.5
 20
4.0
 11
101.5
 21
3.0
  0
LINE
  5
406
100
AcDbEntity
  8
0
100
AcDbLine
 62
2
  6
CONTINUOUS
 10
101.5
 20
3.0
 11
112.0
 21
3.0
  0
LINE
  5
407
100
AcDbEntity
  8
0
100
AcDbLine
 62
2
  6
CONTINUOUS
 10
112.0
 20
4.0
 11
112.0
 21
3.0
  0
MTEXT
  5
408
100
AcDbEntity
  8
0
100
AcDbMText
 62
2
  6
CONTINUOUS
  7
STANDARD
 71
3
 72
1
 10
111.75
 20
3.7525
 30
0.0
 11
1.0
 21
0.0
 31
0.0
 44
0.9
  1
FG-001265-2D.A.7
 40
0.44
 41
7.81
  0
LINE
  5
409
100
AcDbEntity
  8
0
100
AcDbLine
 62
2
  6
CONTINUOUS
 10
101.5
 20
3.0
 11
112.0
 21
3.0
  0
LINE
  5
40A
100
AcDbEntity
  8
0
100
AcDbLine
 62
2
  6
CONTINUOUS
 10
101.5
 20
3.0
 11
101.5
 21
2.0
  0
LINE
  5
40B
100
AcDbEntity
  8
0
100
AcDbLine
 62
2
  6
CONTINUOUS
 10
101.5
 20
2.0
 11
112.0
 21
2.0
  0
LINE
  5
40C
100
AcDbEntity
  8
0
100
AcDbLine
 62
2
  6
CONTINUOUS
 10
112.0
 20
3.0
 11
112.0
 21
2.0
  0
MTEXT
  5
40D
100
AcDbEntity
  8
0
100
AcDbMText
 62
2
  6
CONTINUOUS
  7
STANDARD
 71
3
 72
1
 10
111.75
 20
2.7525
 30
0.0
 11
1.0
 21
0.0
 31
0.0
 44
0.9
  1
FG-001265-3D.A.4
 40
0.44
 41
7.7628571429
  0
LINE
  5
40E
100
AcDbEntity
  8
0
100
AcDbLine
 62
2
  6
CONTINUOUS
 10
112.0
 20
9.5
 11
132.0
 21
9.5
  0
LINE
  5
40F
100
AcDbEntity
  8
0
100
AcDbLine
 62
2
  6
CONTINUOUS
 10
112.0
 20
9.5
 11
112.0
 21
5.0
  0
LINE
  5
410
100
AcDbEntity
  8
0
100
AcDbLine
 62
2
  6
CONTINUOUS
 10
112.0
 20
5.0
 11
132.0
 21
5.0
  0
LINE
  5
411
100
AcDbEntity
  8
0
100
AcDbLine
 62
2
  6
CONTINUOUS
 10
132.0
 20
9.5
 11
132.0
 21
5.0
  0
MTEXT
  5
412
100
AcDbEntity
  8
0
100
AcDbMText
 62
2
  6
CONTINUOUS
  7
STANDARD
 71
2
 72
1
 10
122.0
 20
9.69
 30
0.0
 11
1.0
 21
0.0
 31
0.0
 44
1.02
  1
 \PSPEAKER, FINISHED, SR-1290\P \P 
 40
0.8
 41
23.2
  0
LINE
  5
413
100
AcDbEntity
  8
0
100
AcDbLine
 62
2
  6
CONTINUOUS
 10
112.0043692118
 20
4.99176187
 11
114.0043692118
 21
4.99176187
  0
LINE
  5
414
100
AcDbEntity
  8
0
100
AcDbLine
 62
2
  6
CONTINUOUS
 10
112.0043692118
 20
4.99176187
 11
112.0043692118
 21
2.99176187
  0
LINE
  5
415
100
AcDbEntity
  8
0
100
AcDbLine
 62
2
  6
CONTINUOUS
 10
112.0043692118
 20
2.99176187
 11
114.0043692118
 21
2.99176187
  0
LINE
  5
416
100
AcDbEntity
  8
0
100
AcDbLine
 62
2
  6
CONTINUOUS
 10
114.0043692118
 20
4.99176187
 11
114.0043692118
 21
2.99176187
  0
MTEXT
  5
417
100
AcDbEntity
  8
0
100
AcDbMText
 62
2
  6
CONTINUOUS
  7
STANDARD
 71
2
 72
1
 10
113.0043692118
 20
4.10426187
 30
0.0
 11
1.0
 21
0.0
 31
0.0
 44
0.9
  1
D
 40
0.8
 41
1.0857142857
  0
LINE
  5
418
100
AcDbEntity
  8
0
100
AcDbLine
 62
2
  6
CONTINUOUS
 10
118.0020699904
 20
4.9798983565
 11
130.0020699904
 21
4.9798983565
  0
LINE
  5
419
100
AcDbEntity
  8
0
100
AcDbLine
 62
2
  6
CONTINUOUS
 10
118.0020699904
 20
4.9798983565
 11
118.0020699904
 21
2.9798983565
  0
LINE
  5
41A
100
AcDbEntity
  8
0
100
AcDbLine
 62
2
  6
CONTINUOUS
 10
118.0020699904
 20
2.9798983565
 11
130.0020699904
 21
2.9798983565
  0
LINE
  5
41B
100
AcDbEntity
  8
0
100
AcDbLine
 62
2
  6
CONTINUOUS
 10
130.0020699904
 20
4.9798983565
 11
130.0020699904
 21
2.9798983565
  0
MTEXT
  5
41C
100
AcDbEntity
  8
0
100
AcDbMText
 62
2
  6
CONTINUOUS
  7
STANDARD
 71
2
 72
1
 10
124.0020699904
 20
4.2123983565
 30
0.0
 11
1.0
 21
0.0
 31
0.0
 44
0.9
  1
FG-001265-2D
 40
0.92
 41
12.4857142857
  0
LINE
  5
41D
100
AcDbEntity
  8
0
100
AcDbLine
 62
2
  6
CONTINUOUS
 10
129.9947995851
 20
4.9931512905
 11
131.9947995851
 21
4.9931512905
  0
LINE
  5
41E
100
AcDbEntity
  8
0
100
AcDbLine
 62
2
  6
CONTINUOUS
 10
129.9947995851
 20
4.9931512905
 11
129.9947995851
 21
2.9931512905
  0
LINE
  5
41F
100
AcDbEntity
  8
0
100
AcDbLine
 62
2
  6
CONTINUOUS
 10
129.9947995851
 20
2.9931512905
 11
131.9947995851
 21
2.9931512905
  0
LINE
  5
420
100
AcDbEntity
  8
0
100
AcDbLine
 62
2
  6
CONTINUOUS
 10
131.9947995851
 20
4.9931512905
 11
131.9947995851
 21
2.9931512905
  0
MTEXT
  5
421
100
AcDbEntity
  8
0
100
AcDbMText
 62
2
  6
CONTINUOUS
  7
STANDARD
 71
2
 72
1
 10
130.9947995851
 20
4.0256512905
 30
0.0
 11
1.0
 21
0.0
 31
0.0
 44
0.9
  1
A
 40
0.72
 41
0.9257142857
  0
LINE
  5
422
100
AcDbEntity
  8
0
100
AcDbLine
 62
2
  6
CONTINUOUS
 10
125.5024824775
 20
2.9717155345
 11
132.0024824775
 21
2.9717155345
  0
LINE
  5
423
100
AcDbEntity
  8
0
100
AcDbLine
 62
2
  6
CONTINUOUS
 10
125.5024824775
 20
2.9717155345
 11
125.5024824775
 21
1.9717155345
  0
LINE
  5
424
100
AcDbEntity
  8
0
100
AcDbLine
 62
2
  6
CONTINUOUS
 10
125.5024824775
 20
1.9717155345
 11
132.0024824775
 21
1.9717155345
  0
LINE
  5
425
100
AcDbEntity
  8
0
100
AcDbLine
 62
2
  6
CONTINUOUS
 10
132.0024824775
 20
2.9717155345
 11
132.0024824775
 21
1.9717155345
  0
MTEXT
  5
426
100
AcDbEntity
  8
0
100
AcDbMText
 62
2
  6
CONTINUOUS
  7
STANDARD
 71
3
 72
1
 10
131.7524824775
 20
2.8442155345
 30
0.0
 11
1.0
 21
0.0
 31
0.0
 44
0.9
  1
1 OF 1
 40
0.56
 41
3.54
  0
LINE
  5
427
100
AcDbEntity
  8
0
100
AcDbLine
 62
2
  6
CONTINUOUS
 10
111.9930392484
 20
2.9952928676
 11
116.7450392484
 21
2.9952928676
  0
LINE
  5
428
100
AcDbEntity
  8
0
100
AcDbLine
 62
2
  6
CONTINUOUS
 10
111.9930392484
 20
2.9952928676
 11
111.9930392484
 21
1.9796678676
  0
LINE
  5
429
100
AcDbEntity
  8
0
100
AcDbLine
 62
2
  6
CONTINUOUS
 10
111.9930392484
 20
1.9796678676
 11
116.7450392484
 21
1.9796678676
  0
LINE
  5
42A
100
AcDbEntity
  8
0
100
AcDbLine
 62
2
  6
CONTINUOUS
 10
116.7450392484
 20
2.9952928676
 11
116.7450392484
 21
1.9796678676
  0
MTEXT
  5
42B
100
AcDbEntity
  8
0
100
AcDbMText
 62
2
  6
CONTINUOUS
  7
STANDARD
 71
3
 72
1
 10
116.4950392484
 20
2.7721678676
 30
0.0
 11
1.0
 21
0.0
 31
0.0
 44
0.9
  1
0.250
 40
0.48
 41
2.6228571429
  0
MTEXT
  5
42C
100
AcDbEntity
  8
0
100
AcDbMText
 62
2
  6
CONTINUOUS
  7
STANDARD
 71
1
 72
1
 10
2.7731725422
 20
16.5045574168
 30
0.0
 11
1.0
 21
0.0
 31
0.0
 44
0.9
  3
6. GRILL NOT SHOWN FOR CLARITY.\P \P5. PARTS ARE SYMMETRICAL ABOUT CENTER LINES UNLESS OTHERWISE NOTED.\P \P4. SYMBOL \Fgdt;{\Fgdt;j}\Ftxt; INDICATES CENTER OF BALANCE. \P \P3. SYMBOL \Fgdt;{\Fgdt;r}\Ftxt; INDICATES SUSPENSION POINT OF M8 THREAD, 2 P
  1
LACES. \P \P2. TOLERANCES ARE IN MILLIMETER: X.X \Fgdt;{\Fgdt;`}\Ftxt; 0.5, ANGLES: \Fgdt;{\Fgdt;`}\Ftxt; 1\Fgdt;{\Fgdt;~}\Ftxt;.\P \P1. NET WEIGHT APPROX 34 LBS (15 KG)\P \PNOTE:  UNLESS OTHERWISE SPECIFIED
 40
0.72
 41
56.5457142857
  0
LEADER
  5
42D
100
AcDbEntity
  8
0
100
AcDbLeader
 62
2
  6
CONTINUOUS
  3
STANDARD
 71
1
 72
0
 73
0
 75
0
 40
0.625
 41
6.443452381
 76
3
 10
48.019527398
 20
38.8119062334
 30
0.0
 10
52.2624708146
 20
30.995211501
 30
0.0
 10
53.2624708146
 20
30.995211501
 30
0.0
340
42E
1001
ACAD
1000
DSTYLE
1002
{
1070
77
1070
0
1002
}
  0
MTEXT
  5
42E
102
{ACAD_REACTORS
330
42D
102
}
100
AcDbEntity
  8
0
100
AcDbMText
 62
2
  6
CONTINUOUS
  7
STANDARD
 71
1
 72
1
 10
53.2624708146
 20
31.307711501
 30
0.0
 11
1.0
 21
0.0
 31
0.0
 44
0.9
  1
SIDE MOUNTING\PUSES M8 FASTENER
 40
0.625
 41
11.71875
  0
MTEXT
  5
42F
100
AcDbEntity
  8
0
100
AcDbMText
 62
2
  6
CONTINUOUS
  7
STANDARD
 71
3
 72
1
 10
117.9268056983
 20
55.0579830556
 30
0.0
 11
1.0
 21
0.0
 31
0.0
 44
0.9
  1
SCALE  0.200
 40
0.625
 41
8.5491071429
  0
MTEXT
  5
430
100
AcDbEntity
  8
0
100
AcDbMText
 62
2
  6
CONTINUOUS
  7
STANDARD
 71
2
 72
1
 10
112.2167036891
 20
22.7282614685
 30
0.0
 11
1.0
 21
0.0
 31
0.0
 44
0.9
  1
TOP VIEW\PNORMAL TO TERMINAL CUP
 40
0.625
 41
16.1830357143
  0
LEADER
  5
431
100
AcDbEntity
  8
0
100
AcDbLeader
 62
2
  6
CONTINUOUS
  3
STANDARD
 71
1
 72
0
 73
0
 75
0
 40
0.625
 41
6.8898809524
 76
3
 10
114.0926770552
 20
34.8991613842
 30
0.0
 10
120.7434636576
 20
31.4852458183
 30
0.0
 10
121.7434636576
 20
31.4852458183
 30
0.0
340
432
1001
ACAD
1000
DSTYLE
1002
{
1070
77
1070
0
1002
}
  0
MTEXT
  5
432
102
{ACAD_REACTORS
330
431
102
}
100
AcDbEntity
  8
0
100
AcDbMText
 62
2
  6
CONTINUOUS
  7
STANDARD
 71
1
 72
1
 10
121.7434636576
 20
31.7977458183
 30
0.0
 11
1.0
 21
0.0
 31
0.0
 44
0.9
  1
INPUT LOCATION
 40
0.625
 41
10.3348214286
  0
LEADER
  5
433
100
AcDbEntity
  8
0
100
AcDbLeader
 62
2
  6
CONTINUOUS
  3
STANDARD
 71
1
 72
0
 73
0
 75
0
 40
0.625
 41
8.9732142857
 76
3
 10
62.2274186712
 20
71.0835169517
 30
0.0
 10
69.6327106748
 20
74.8359863519
 30
0.0
 10
70.6327106748
 20
74.8359863519
 30
0.0
340
434
1001
ACAD
1000
DSTYLE
1002
{
1070
77
1070
0
1002
}
  0
MTEXT
  5
434
102
{ACAD_REACTORS
330
433
102
}
100
AcDbEntity
  8
0
100
AcDbMText
 62
2
  6
CONTINUOUS
  7
STANDARD
 71
1
 72
1
 10
70.6327106748
 20
75.1484863519
 30
0.0
 11
1.0
 21
0.0
 31
0.0
 44
0.9
  1
REMOVE BRACKET FOR\PCUSTOM MOUNTING
 40
0.625
 41
13.4598214286
  0
LEADER
  5
435
100
AcDbEntity
  8
0
100
AcDbLeader
 62
2
  6
CONTINUOUS
  3
STANDARD
 71
1
 72
0
 73
0
 75
0
 40
0.625
 41
6.5773809524
 76
3
 10
75.7607977063
 20
28.9403130294
 30
0.0
 10
82.4887435487
 20
21.9054653356
 30
0.0
 10
83.4887435487
 20
21.9054653356
 30
0.0
340
436
1001
ACAD
1000
DSTYLE
1002
{
1070
77
1070
0
1002
}
  0
MTEXT
  5
436
102
{ACAD_REACTORS
330
435
102
}
100
AcDbEntity
  8
0
100
AcDbMText
 62
2
  6
CONTINUOUS
  7
STANDARD
 71
1
 72
1
 10
83.4887435487
 20
22.2179653356
 30
0.0
 11
1.0
 21
0.0
 31
0.0
 44
0.9
  1
BACK MOUNTING\PUSES M6 FASTENER
 40
0.625
 41
11.71875
  0
INSERT
  5
437
100
AcDbEntity
  8
0
100
AcDbBlockReference
 62
2
  6
CONTINUOUS
  2
CG_3D_BL1
 10
19.9892741526
 20
39.1661214709
  0
INSERT
  5
438
100
AcDbEntity
  8
0
100
AcDbBlockReference
 62
2
  6
CONTINUOUS
  2
CG_3D_BL2
 10
47.0562371458
 20
39.1702699378
  0
LINE
  5
439
100
AcDbEntity
  8
DEFAULT_3
100
AcDbLine
 62
7
  6
PHANTOM
 10
0.0
 20
-0.0
 11
0.0
 21
88.0
  0
LWPOLYLINE
  5
43A
100
AcDbEntity
  8
0
100
AcDbPolyline
 62
7
  6
CONTINUOUS
 90
2
 70
0
 43
0.0800000033
 10
1.0498508885
 20
43.3253804427
 10
1.0498508885
 20
44.6746195573
  0
LWPOLYLINE
  5
43B
100
AcDbEntity
  8
0
100
AcDbPolyline
 62
7
  6
CONTINUOUS
 90
2
 70
0
 43
0.120000001
 10
2.0
 20
86.0
 10
2.0
 20
2.0
  0
LWPOLYLINE
  5
43C
100
AcDbEntity
  8
0
100
AcDbPolyline
 62
7
  6
CONTINUOUS
 90
2
 70
0
 43
0.120000001
 10
14.25
 20
86.0
 10
14.25
 20
84.0
  0
LWPOLYLINE
  5
43D
100
AcDbEntity
  8
0
100
AcDbPolyline
 62
7
  6
CONTINUOUS
 90
2
 70
0
 43
0.0800000033
 10
18.25
 20
2.0
 10
18.25
 20
-0.0
  0
LWPOLYLINE
  5
43E
100
AcDbEntity
  8
0
100
AcDbPolyline
 62
7
  6
CONTINUOUS
 90
2
 70
0
 43
0.0800000033
 10
18.25
 20
86.0
 10
18.25
 20
88.0
  0
LINE
  5
43F
100
AcDbEntity
  8
DEFAULT_3
100
AcDbLine
 62
7
  6
PHANTOM
 10
0.0
 20
-0.0
 11
136.0
 21
-0.0
  0
LWPOLYLINE
  5
440
100
AcDbEntity
  8
0
100
AcDbPolyline
 62
7
  6
CONTINUOUS
 90
2
 70
0
 43
0.0800000033
 10
66.3253804427
 20
1.0498508885
 10
67.6746195573
 20
1.0498508885
  0
LWPOLYLINE
  5
441
100
AcDbEntity
  8
0
100
AcDbPolyline
 62
7
  6
CONTINUOUS
 90
2
 70
0
 43
0.0800000033
 10
2.0
 20
44.0
 10
1.0498508885
 20
43.3253804427
  0
LWPOLYLINE
  5
442
100
AcDbEntity
  8
0
100
AcDbPolyline
 62
7
  6
CONTINUOUS
 90
2
 70
0
 43
0.120000001
 10
2.0
 20
2.0
 10
132.0
 20
2.0
  0
LWPOLYLINE
  5
443
100
AcDbEntity
  8
0
100
AcDbPolyline
 62
7
  6
CONTINUOUS
 90
2
 70
0
 43
0.0800000033
 10
101.5
 20
3.0
 10
132.0
 20
3.0
  0
LWPOLYLINE
  5
444
100
AcDbEntity
  8
0
100
AcDbPolyline
 62
7
  6
CONTINUOUS
 90
2
 70
0
 43
0.0800000033
 10
101.5
 20
4.0
 10
112.0
 20
4.0
  0
LWPOLYLINE
  5
445
100
AcDbEntity
  8
0
100
AcDbPolyline
 62
7
  6
CONTINUOUS
 90
2
 70
0
 43
0.0800000033
 10
101.5
 20
4.5
 10
92.5
 20
4.5
  0
LWPOLYLINE
  5
446
100
AcDbEntity
  8
0
100
AcDbPolyline
 62
7
  6
CONTINUOUS
 90
2
 70
0
 43
0.0800000033
 10
112.0
 20
5.0
 10
132.0
 20
5.0
  0
LWPOLYLINE
  5
447
100
AcDbEntity
  8
0
100
AcDbPolyline
 62
7
  6
CONTINUOUS
 90
2
 70
0
 43
0.0800000033
 10
101.5262776669
 20
6.0469413799
 10
112.0262776669
 20
6.0469413799
  0
LWPOLYLINE
  5
448
100
AcDbEntity
  8
0
100
AcDbPolyline
 62
7
  6
CONTINUOUS
 90
2
 70
0
 43
0.0800000033
 10
2.0
 20
44.0
 10
1.0498508885
 20
44.6746195573
  0
LWPOLYLINE
  5
449
100
AcDbEntity
  8
0
100
AcDbPolyline
 62
7
  6
CONTINUOUS
 90
2
 70
0
 43
0.0800000033
 10
34.5
 20
2.0
 10
34.5
 20
-0.0
  0
LWPOLYLINE
  5
44A
100
AcDbEntity
  8
0
100
AcDbPolyline
 62
7
  6
CONTINUOUS
 90
2
 70
0
 43
0.0800000033
 10
34.5
 20
86.0
 10
34.5
 20
88.0
  0
LWPOLYLINE
  5
44B
100
AcDbEntity
  8
0
100
AcDbPolyline
 62
7
  6
CONTINUOUS
 90
2
 70
0
 43
0.0800000033
 10
92.5
 20
7.0
 10
101.5
 20
7.0
  0
LWPOLYLINE
  5
44C
100
AcDbEntity
  8
0
100
AcDbPolyline
 62
7
  6
CONTINUOUS
 90
2
 70
0
 43
0.0800000033
 10
101.5317724285
 20
8.1036761417
 10
112.0317724285
 20
8.1036761417
  0
LWPOLYLINE
  5
44D
100
AcDbEntity
  8
0
100
AcDbPolyline
 62
7
  6
CONTINUOUS
 90
2
 70
0
 43
0.0800000033
 10
112.0
 20
9.5
 10
132.0
 20
9.5
  0
LWPOLYLINE
  5
44E
100
AcDbEntity
  8
0
100
AcDbPolyline
 62
7
  6
CONTINUOUS
 90
2
 70
0
 43
0.0800000033
 10
101.5
 20
10.2301193141
 10
112.0
 20
10.2301193141
  0
LWPOLYLINE
  5
44F
100
AcDbEntity
  8
0
100
AcDbPolyline
 62
7
  6
CONTINUOUS
 90
2
 70
0
 43
0.0800000033
 10
92.5
 20
12.25
 10
132.0
 20
12.25
  0
LWPOLYLINE
  5
450
100
AcDbEntity
  8
0
100
AcDbPolyline
 62
7
  6
CONTINUOUS
 90
2
 70
0
 43
0.0800000033
 10
67.0
 20
86.0
 10
67.6746195573
 20
86.9501491115
  0
LWPOLYLINE
  5
451
100
AcDbEntity
  8
0
100
AcDbPolyline
 62
7
  6
CONTINUOUS
 90
2
 70
0
 43
0.0800000033
 10
67.0
 20
2.0
 10
67.6746195573
 20
1.0498508885
  0
LWPOLYLINE
  5
452
100
AcDbEntity
  8
0
100
AcDbPolyline
 62
7
  6
CONTINUOUS
 90
2
 70
0
 43
0.0800000033
 10
2.0
 20
23.0
 10
0.0
 20
23.0
  0
LWPOLYLINE
  5
453
100
AcDbEntity
  8
0
100
AcDbPolyline
 62
7
  6
CONTINUOUS
 90
2
 70
0
 43
0.0800000033
 10
132.0263754034
 20
23.0033641637
 10
134.0263754034
 20
23.0033641637
  0
LWPOLYLINE
  5
454
100
AcDbEntity
  8
0
100
AcDbPolyline
 62
7
  6
CONTINUOUS
 90
2
 70
0
 43
0.0800000033
 10
50.75
 20
2.0
 10
50.75
 20
-0.0
  0
LWPOLYLINE
  5
455
100
AcDbEntity
  8
0
100
AcDbPolyline
 62
7
  6
CONTINUOUS
 90
2
 70
0
 43
0.0800000033
 10
50.75
 20
86.0
 10
50.75
 20
88.0
  0
LINE
  5
456
100
AcDbEntity
  8
0
100
AcDbLine
 62
7
  6
CONTINUOUS
 10
47.0562598919
 20
39.168053363
 11
49.4828881029
 21
39.168053363
  0
LWPOLYLINE
  5
457
100
AcDbEntity
  8
0
100
AcDbPolyline
 62
7
  6
CONTINUOUS
 90
2
 70
0
 43
0.0800000033
 10
67.0
 20
2.0
 10
67.0
 20
-0.0
  0
LWPOLYLINE
  5
458
100
AcDbEntity
  8
0
100
AcDbPolyline
 62
7
  6
CONTINUOUS
 90
2
 70
0
 43
0.0800000033
 10
67.0
 20
86.0
 10
67.0
 20
88.0
  0
LWPOLYLINE
  5
459
100
AcDbEntity
  8
0
100
AcDbPolyline
 62
7
  6
CONTINUOUS
 90
2
 70
0
 43
0.0800000033
 10
2.0
 20
44.0
 10
-0.0
 20
44.0
  0
LWPOLYLINE
  5
45A
100
AcDbEntity
  8
0
100
AcDbPolyline
 62
7
  6
CONTINUOUS
 90
2
 70
0
 43
0.0800000033
 10
132.0043173838
 20
44.0054391926
 10
134.0043173838
 20
44.0054391926
  0
LINE
  5
45B
100
AcDbEntity
  8
0
100
AcDbLine
 62
7
  6
CONTINUOUS
 10
92.5052795902
 20
12.2394528227
 11
101.5036456544
 21
2.0052042328
  0
LWPOLYLINE
  5
45C
100
AcDbEntity
  8
0
100
AcDbPolyline
 62
7
  6
CONTINUOUS
 90
2
 70
0
 43
0.0800000033
 10
83.25
 20
2.0
 10
83.25
 20
-0.0
  0
LWPOLYLINE
  5
45D
100
AcDbEntity
  8
0
100
AcDbPolyline
 62
7
  6
CONTINUOUS
 90
2
 70
0
 43
0.0800000033
 10
83.25
 20
86.0
 10
83.25
 20
88.0
  0
LWPOLYLINE
  5
45E
100
AcDbEntity
  8
0
100
AcDbPolyline
 62
7
  6
CONTINUOUS
 90
2
 70
0
 43
0.0800000033
 10
67.0
 20
2.0
 10
66.3253804427
 20
1.0498508885
  0
LWPOLYLINE
  5
45F
100
AcDbEntity
  8
0
100
AcDbPolyline
 62
7
  6
CONTINUOUS
 90
2
 70
0
 43
0.0800000033
 10
2.0
 20
65.0
 10
0.0
 20
65.0
  0
LWPOLYLINE
  5
460
100
AcDbEntity
  8
0
100
AcDbPolyline
 62
7
  6
CONTINUOUS
 90
2
 70
0
 43
0.0800000033
 10
132.0
 20
65.0
 10
134.0
 20
65.0
  0
LWPOLYLINE
  5
461
100
AcDbEntity
  8
0
100
AcDbPolyline
 62
7
  6
CONTINUOUS
 90
2
 70
0
 43
0.0800000033
 10
67.0
 20
86.0
 10
66.3253804427
 20
86.9501491115
  0
LWPOLYLINE
  5
462
100
AcDbEntity
  8
0
100
AcDbPolyline
 62
7
  6
CONTINUOUS
 90
2
 70
0
 43
0.0800000033
 10
92.5
 20
2.0
 10
92.5
 20
12.25
  0
LWPOLYLINE
  5
463
100
AcDbEntity
  8
0
100
AcDbPolyline
 62
7
  6
CONTINUOUS
 90
2
 70
0
 43
0.0800000033
 10
99.5
 20
2.0
 10
99.5
 20
-0.0
  0
LWPOLYLINE
  5
464
100
AcDbEntity
  8
0
100
AcDbPolyline
 62
7
  6
CONTINUOUS
 90
2
 70
0
 43
0.0800000033
 10
99.5
 20
86.0
 10
99.5
 20
88.0
  0
LWPOLYLINE
  5
465
100
AcDbEntity
  8
0
100
AcDbPolyline
 62
7
  6
CONTINUOUS
 90
2
 70
0
 43
0.0800000033
 10
101.5
 20
2.0
 10
101.5
 20
12.25
  0
LWPOLYLINE
  5
466
100
AcDbEntity
  8
0
100
AcDbPolyline
 62
7
  6
CONTINUOUS
 90
2
 70
0
 43
0.0800000033
 10
132.0043173838
 20
44.0054391926
 10
132.9544664953
 20
44.6800587499
  0
LWPOLYLINE
  5
467
100
AcDbEntity
  8
0
100
AcDbPolyline
 62
7
  6
CONTINUOUS
 90
2
 70
0
 43
0.0800000033
 10
132.0043173838
 20
44.0054391926
 10
132.9544664953
 20
43.3308196353
  0
LWPOLYLINE
  5
468
100
AcDbEntity
  8
0
100
AcDbPolyline
 62
7
  6
CONTINUOUS
 90
2
 70
0
 43
0.120000001
 10
14.25
 20
84.0
 10
2.0
 20
84.0
  0
LWPOLYLINE
  5
469
100
AcDbEntity
  8
0
100
AcDbPolyline
 62
7
  6
CONTINUOUS
 90
2
 70
0
 43
0.120000001
 10
132.0
 20
86.0
 10
2.0
 20
86.0
  0
LWPOLYLINE
  5
46A
100
AcDbEntity
  8
0
100
AcDbPolyline
 62
7
  6
CONTINUOUS
 90
2
 70
0
 43
0.0800000033
 10
66.3253804427
 20
86.9501491115
 10
67.6746195573
 20
86.9501491115
  0
LWPOLYLINE
  5
46B
100
AcDbEntity
  8
0
100
AcDbPolyline
 62
7
  6
CONTINUOUS
 90
2
 70
0
 43
0.0800000033
 10
112.0
 20
2.0
 10
112.0
 20
12.25
  0
LWPOLYLINE
  5
46C
100
AcDbEntity
  8
0
100
AcDbPolyline
 62
7
  6
CONTINUOUS
 90
2
 70
0
 43
0.0800000033
 10
114.0
 20
3.0
 10
114.0
 20
5.0
  0
LWPOLYLINE
  5
46D
100
AcDbEntity
  8
0
100
AcDbPolyline
 62
7
  6
CONTINUOUS
 90
2
 70
0
 43
0.0800000033
 10
115.75
 20
2.0
 10
115.75
 20
-0.0
  0
LWPOLYLINE
  5
46E
100
AcDbEntity
  8
0
100
AcDbPolyline
 62
7
  6
CONTINUOUS
 90
2
 70
0
 43
0.0800000033
 10
115.75
 20
86.0
 10
115.75
 20
88.0
  0
LINE
  5
46F
100
AcDbEntity
  8
0
100
AcDbLine
 62
7
  6
CONTINUOUS
 10
92.5116291591
 20
2.0191034393
 11
101.5008046759
 21
12.2545708441
  0
LINE
  5
470
100
AcDbEntity
  8
DEFAULT_3
100
AcDbLine
 62
7
  6
PHANTOM
 10
0.0
 20
88.0
 11
136.0
 21
88.0
  0
LWPOLYLINE
  5
471
100
AcDbEntity
  8
0
100
AcDbPolyline
 62
7
  6
CONTINUOUS
 90
2
 70
0
 43
0.0800000033
 10
116.7345158662
 20
2.0190006222
 10
116.7345158662
 20
3.0190006222
  0
LWPOLYLINE
  5
472
100
AcDbEntity
  8
0
100
AcDbPolyline
 62
7
  6
CONTINUOUS
 90
2
 70
0
 43
0.0800000033
 10
118.0
 20
3.0
 10
118.0
 20
5.0
  0
LWPOLYLINE
  5
473
100
AcDbEntity
  8
0
100
AcDbPolyline
 62
7
  6
CONTINUOUS
 90
2
 70
0
 43
0.0800000033
 10
125.5
 20
2.0
 10
125.5
 20
3.0
  0
LWPOLYLINE
  5
474
100
AcDbEntity
  8
0
100
AcDbPolyline
 62
7
  6
CONTINUOUS
 90
2
 70
0
 43
0.0800000033
 10
130.0
 20
3.0
 10
130.0
 20
5.0
  0
LWPOLYLINE
  5
475
100
AcDbEntity
  8
0
100
AcDbPolyline
 62
7
  6
CONTINUOUS
 90
2
 70
0
 43
0.120000001
 10
132.0
 20
86.0
 10
132.0
 20
2.0
  0
LWPOLYLINE
  5
476
100
AcDbEntity
  8
0
100
AcDbPolyline
 62
7
  6
CONTINUOUS
 90
2
 70
0
 43
0.0800000033
 10
132.9544664953
 20
43.3308196353
 10
132.9544664953
 20
44.6800587499
  0
LINE
  5
477
100
AcDbEntity
  8
DEFAULT_3
100
AcDbLine
 62
7
  6
PHANTOM
 10
136.0
 20
-0.0
 11
136.0
 21
88.0
  0
LINE
  5
478
100
AcDbEntity
  8
3_AXES_OTHER
100
AcDbLine
 62
7
  6
CONTINUOUS
 10
12.1149346336
 20
28.540053363
 11
27.8629661297
 21
28.540053363
  0
LINE
  5
479
100
AcDbEntity
  8
3_ALL_AXES
100
AcDbLine
 62
7
  6
CONTINUOUS
 10
11.8275330588
 20
39.5241832811
 11
11.8275330588
 21
38.8157659646
  0
LINE
  5
47A
100
AcDbEntity
  8
3_AXES_OTHER
100
AcDbLine
 62
7
  6
CONTINUOUS
 10
12.1149346336
 20
48.6750927331
 11
12.1149346336
 21
28.540053363
  0
LINE
  5
47B
100
AcDbEntity
  8
3_ALL_AXES
100
AcDbLine
 62
7
  6
CONTINUOUS
 10
12.823596051
 20
48.6750927331
 11
12.823596051
 21
48.8522580874
  0
LINE
  5
47C
100
AcDbEntity
  8
3_ALL_AXES
100
AcDbLine
 62
7
  6
CONTINUOUS
 10
15.8157220352
 20
48.6750927331
 11
15.8157220352
 21
48.8522580874
  0
LINE
  5
47D
100
AcDbEntity
  8
3_AXES_OTHER
100
AcDbLine
 62
7
  6
CONTINUOUS
 10
17.5480054998
 20
48.6750927331
 11
17.5480054998
 21
48.7312595097
  0
LINE
  5
47E
100
AcDbEntity
  8
3_ALL_AXES
100
AcDbLine
 62
7
  6
CENTER
 10
19.9889503817
 20
27.6058009726
 11
19.9889503817
 21
49.4629867394
  0
LINE
  5
47F
100
AcDbEntity
  8
3_ALL_AXES
100
AcDbLine
 62
7
  6
CONTINUOUS
 10
11.8275330588
 20
38.8156439142
 11
12.1149346336
 21
38.8156439142
  0
LINE
  5
480
100
AcDbEntity
  8
3_ALL_AXES
100
AcDbLine
 62
7
  6
CONTINUOUS
 10
27.8629661297
 20
38.8156439142
 11
28.1503677045
 21
38.8156439142
  0
LINE
  5
481
100
AcDbEntity
  8
3_ALL_AXES
100
AcDbLine
 62
7
  6
CONTINUOUS
 10
11.8275330588
 20
39.5243053315
 11
12.1149346336
 21
39.5243053315
  0
LINE
  5
482
100
AcDbEntity
  8
3_ALL_AXES
100
AcDbLine
 62
7
  6
CONTINUOUS
 10
27.8629661297
 20
39.5243053315
 11
28.1503677045
 21
39.5243053315
  0
LINE
  5
483
100
AcDbEntity
  8
3_AXES_OTHER
100
AcDbLine
 62
7
  6
CONTINUOUS
 10
22.4298952636
 20
48.6750927331
 11
22.4298952636
 21
48.7312595097
  0
LINE
  5
484
100
AcDbEntity
  8
3_ALL_AXES
100
AcDbLine
 62
7
  6
CONTINUOUS
 10
24.1621787281
 20
48.6750927331
 11
24.1621787281
 21
48.8522580874
  0
LINE
  5
485
100
AcDbEntity
  8
3_ALL_AXES
100
AcDbLine
 62
7
  6
CONTINUOUS
 10
27.1543047124
 20
48.6750927331
 11
27.1543047124
 21
48.8522580874
  0
LINE
  5
486
100
AcDbEntity
  8
3_AXES_OTHER
100
AcDbLine
 62
7
  6
CONTINUOUS
 10
27.8629661297
 20
48.6750927331
 11
27.8629661297
 21
28.540053363
  0
LINE
  5
487
100
AcDbEntity
  8
3_ALL_AXES
100
AcDbLine
 62
7
  6
CONTINUOUS
 10
28.1503677045
 20
39.5241832811
 11
28.1503677045
 21
38.8157659646
  0
LINE
  5
488
100
AcDbEntity
  8
3_AXES_OTHER
100
AcDbLine
 62
7
  6
CONTINUOUS
 10
12.1149346336
 20
48.6750927331
 11
27.8629661297
 21
48.6750927331
  0
LINE
  5
489
100
AcDbEntity
  8
3_AXES_OTHER
100
AcDbLine
 62
7
  6
CONTINUOUS
 10
17.5480054998
 20
48.7312595097
 11
22.4298952636
 21
48.7312595097
  0
LINE
  5
48A
100
AcDbEntity
  8
3_ALL_AXES
100
AcDbLine
 62
7
  6
CONTINUOUS
 10
12.823596051
 20
48.8522580874
 11
15.8157220352
 21
48.8522580874
  0
LINE
  5
48B
100
AcDbEntity
  8
3_ALL_AXES
100
AcDbLine
 62
7
  6
CONTINUOUS
 10
24.1621787281
 20
48.8522580874
 11
27.1543047124
 21
48.8522580874
  0
LINE
  5
48C
100
AcDbEntity
  8
3_AXES_OTHER
100
AcDbLine
 62
7
  6
CONTINUOUS
 10
42.2562598919
 20
28.540053363
 11
49.4828881029
 21
28.540053363
  0
LINE
  5
48D
100
AcDbEntity
  8
3_AXES_OTHER
100
AcDbLine
 62
7
  6
CONTINUOUS
 10
42.2562598919
 20
48.6750927331
 11
42.2562598919
 21
28.540053363
  0
LINE
  5
48E
100
AcDbEntity
  8
3_ALL_AXES
100
AcDbLine
 62
7
  6
CONTINUOUS
 10
46.2720079234
 20
48.6750927331
 11
46.2720079234
 21
48.8522580874
  0
LINE
  5
48F
100
AcDbEntity
  8
3_AXES_OTHER
100
AcDbLine
 62
7
  6
CONTINUOUS
 10
50.8469477457
 20
48.6260225187
 11
50.9005686709
 21
48.7312595097
  0
LINE
  5
490
100
AcDbEntity
  8
3_ALL_AXES
100
AcDbLine
 62
7
  6
CONTINUOUS
 10
51.3246444279
 20
35.4135815429
 11
51.6098587467
 21
35.3371585965
  0
LINE
  5
491
100
AcDbEntity
  8
3_ALL_AXES
100
AcDbLine
 62
7
  6
CONTINUOUS
 10
51.2347460577
 20
48.4284294094
 11
51.3151774455
 21
48.586284896
  0
LINE
  5
492
100
AcDbEntity
  8
3_ALL_AXES
100
AcDbLine
 62
7
  6
CENTER
 10
72.0054487514
 20
30.1900961825
 11
51.0177539616
 21
35.8137320524
  0
LINE
  5
493
100
AcDbEntity
  8
3_ALL_AXES
100
AcDbLine
 62
7
  6
CONTINUOUS
 10
51.4836041564
 20
36.0068273259
 11
51.7688184752
 21
35.9304043795
  0
LINE
  5
494
100
AcDbEntity
  8
3_ALL_AXES
100
AcDbLine
 62
7
  6
CENTER
 10
47.6724409943
 20
38.1794234417
 11
47.6724409943
 21
29.3812815922
  0
LINE
  5
495
100
AcDbEntity
  8
3_ALL_AXES
100
AcDbLine
 62
7
  6
CENTER
 10
47.6724409943
 20
38.1794234417
 11
47.6724409943
 21
40.1605258039
  0
LINE
  5
496
100
AcDbEntity
  8
3_ALL_AXES
100
AcDbLine
 62
7
  6
CONTINUOUS
 10
49.2641339077
 20
48.6750927331
 11
49.2641339077
 21
48.8522580874
  0
LINE
  5
497
100
AcDbEntity
  8
3_ALL_AXES
100
AcDbLine
 62
7
  6
CONTINUOUS
 10
53.9007498309
 20
47.0700326386
 11
53.9811812186
 21
47.2278881251
  0
LINE
  5
498
100
AcDbEntity
  8
3_ALL_AXES
100
AcDbLine
 62
7
  6
CENTER
 10
47.6724409943
 20
39.1699746228
 11
47.4875644548
 21
39.1699746228
  0
LINE
  5
499
100
AcDbEntity
  8
3_ALL_AXES
100
AcDbLine
 62
7
  6
CENTER
 10
47.4875644548
 20
39.1699746228
 11
42.8445727486
 21
39.1699746228
  0
LINE
  5
49A
100
AcDbEntity
  8
3_ALL_AXES
100
AcDbLine
 62
7
  6
CENTER
 10
47.6724409943
 20
39.1699746228
 11
48.426771703
 21
39.1699746228
  0
LINE
  5
49B
100
AcDbEntity
  8
3_AXES_OTHER
100
AcDbLine
 62
7
  6
CONTINUOUS
 10
54.1443734652
 20
46.9459001968
 11
54.1979943903
 21
47.0511371878
  0
LINE
  5
49C
100
AcDbEntity
  8
3_AXES_OTHER
100
AcDbLine
 62
7
  6
CONTINUOUS
 10
52.5119971768
 20
39.8448423281
 11
53.1090458174
 21
39.684863627
  0
LINE
  5
49D
100
AcDbEntity
  8
3_AXES_OTHER
100
AcDbLine
 62
7
  6
CONTINUOUS
 10
49.4828881029
 20
28.540053363
 11
54.3822441439
 21
46.8246990323
  0
LINE
  5
49E
100
AcDbEntity
  8
3_ALL_AXES
100
AcDbLine
 62
7
  6
CONTINUOUS
 10
51.7688184752
 20
35.9304043795
 11
51.6098587467
 21
35.3371585965
  0
LINE
  5
49F
100
AcDbEntity
  8
3_AXES_OTHER
100
AcDbLine
 62
7
  6
CONTINUOUS
 10
54.7750660487
 20
45.9025357765
 11
53.1090458174
 21
39.684863627
  0
LINE
  5
4A0
100
AcDbEntity
  8
3_ALL_AXES
100
AcDbLine
 62
7
  6
CENTER
 10
61.31641725
 20
68.8259917802
 11
55.0283498043
 21
45.3586045914
  0
LINE
  5
4A1
100
AcDbEntity
  8
3_AXES_OTHER
100
AcDbLine
 62
7
  6
CONTINUOUS
 10
55.4329604107
 20
45.7262535135
 11
55.4174720269
 21
45.6684500783
  0
LINE
  5
4A2
100
AcDbEntity
  8
3_AXES_OTHER
100
AcDbLine
 62
7
  6
CONTINUOUS
 10
54.7595776649
 20
45.8447323413
 11
55.4174720269
 21
45.6684500783
  0
LINE
  5
4A3
100
AcDbEntity
  8
3_AXES_OTHER
100
AcDbLine
 62
7
  6
CONTINUOUS
 10
54.178017408
 20
46.0625144776
 11
55.4329604107
 21
45.7262535135
  0
LINE
  5
4A4
100
AcDbEntity
  8
3_AXES_OTHER
100
AcDbLine
 62
7
  6
CONTINUOUS
 10
54.3822441439
 20
46.8246990323
 11
50.7506420274
 21
48.6750927331
  0
LINE
  5
4A5
100
AcDbEntity
  8
3_AXES_OTHER
100
AcDbLine
 62
7
  6
CONTINUOUS
 10
50.7506420274
 20
48.6750927331
 11
42.2562598919
 21
48.6750927331
  0
LINE
  5
4A6
100
AcDbEntity
  8
3_ALL_AXES
100
AcDbLine
 62
7
  6
CONTINUOUS
 10
46.2720079234
 20
48.8522580874
 11
49.2641339077
 21
48.8522580874
  0
LINE
  5
4A7
100
AcDbEntity
  8
3_AXES_OTHER
100
AcDbLine
 62
7
  6
CONTINUOUS
 10
50.9005686709
 20
48.7312595097
 11
51.2883669829
 21
48.5336664005
  0
LINE
  5
4A8
100
AcDbEntity
  8
3_AXES_OTHER
100
AcDbLine
 62
7
  6
CONTINUOUS
 10
53.9543707561
 20
47.1752696296
 11
54.1979943903
 21
47.0511371878
  0
LINE
  5
4A9
100
AcDbEntity
  8
3_ALL_AXES
100
AcDbLine
 62
7
  6
CONTINUOUS
 10
51.3151774455
 20
48.586284896
 11
53.9811812186
 21
47.2278881251
  0
LINE
  5
4AA
100
AcDbEntity
  8
3_AXES_OTHER
100
AcDbLine
 62
7
  6
CONTINUOUS
 10
109.2222666936
 20
71.3384250857
 11
111.4234515875
 21
73.2620354393
  0
LINE
  5
4AB
100
AcDbEntity
  8
3_AXES_OTHER
100
AcDbLine
 62
7
  6
CONTINUOUS
 10
123.9607960201
 20
55.7857914384
 11
119.7686642596
 21
54.7345964097
  0
LINE
  5
4AC
100
AcDbEntity
  8
3_AXES_OTHER
100
AcDbLine
 62
7
  6
CONTINUOUS
 10
119.7686642596
 20
54.7345964097
 11
111.1304574156
 21
58.2629297094
  0
LINE
  5
4AD
100
AcDbEntity
  8
3_AXES_OTHER
100
AcDbLine
 62
7
  6
CONTINUOUS
 10
114.3195299941
 20
72.0653063988
 11
112.3208959341
 21
70.3187047473
  0
LINE
  5
4AE
100
AcDbEntity
  8
3_AXES_OTHER
100
AcDbLine
 62
7
  6
CONTINUOUS
 10
113.0494748209
 20
70.4846253488
 11
114.325198689
 21
71.5994774668
  0
LINE
  5
4AF
100
AcDbEntity
  8
3_AXES_OTHER
100
AcDbLine
 62
7
  6
CONTINUOUS
 10
113.1228112773
 20
70.4546705832
 11
114.3509288688
 21
71.527919687
  0
LINE
  5
4B0
100
AcDbEntity
  8
3_AXES_OTHER
100
AcDbLine
 62
7
  6
CONTINUOUS
 10
112.2398785891
 20
69.5933064921
 11
111.8853625556
 21
69.3858215866
  0
LINE
  5
4B1
100
AcDbEntity
  8
3_AXES_OTHER
100
AcDbLine
 62
7
  6
CONTINUOUS
 10
111.1304574156
 20
58.2629297094
 11
109.2222666936
 21
71.3384250857
  0
LINE
  5
4B2
100
AcDbEntity
  8
3_AXES_OTHER
100
AcDbLine
 62
7
  6
CONTINUOUS
 10
112.1363065505
 20
69.2833218352
 11
112.2390484583
 21
69.343452811
  0
LINE
  5
4B3
100
AcDbEntity
  8
3_AXES_OTHER
100
AcDbLine
 62
7
  6
CONTINUOUS
 10
112.3217552028
 20
69.3096706887
 11
111.8283682389
 21
69.0209098488
  0
LINE
  5
4B4
100
AcDbEntity
  8
3_ALL_AXES
100
AcDbLine
 62
7
  6
CONTINUOUS
 10
112.4967880766
 20
68.994716232
 11
112.4179816462
 21
68.9485937912
  0
LINE
  5
4B5
100
AcDbEntity
  8
3_ALL_AXES
100
AcDbLine
 62
7
  6
CONTINUOUS
 10
112.5028204592
 20
68.9533805362
 11
112.4240140288
 21
68.9072580954
  0
LINE
  5
4B6
100
AcDbEntity
  8
3_ALL_AXES
100
AcDbLine
 62
7
  6
CONTINUOUS
 10
112.6672628845
 20
68.9672796795
 11
112.6415977879
 21
68.9522588635
  0
LINE
  5
4B7
100
AcDbEntity
  8
3_ALL_AXES
100
AcDbLine
 62
7
  6
CONTINUOUS
 10
112.5756289211
 20
68.8842017085
 11
112.6544353515
 21
68.9303241493
  0
LINE
  5
4B8
100
AcDbEntity
  8
3_AXES_OTHER
100
AcDbLine
 62
7
  6
CONTINUOUS
 10
111.8853625556
 20
69.3858215866
 11
111.8958882417
 21
69.0604267679
  0
LINE
  5
4B9
100
AcDbEntity
  8
3_AXES_OTHER
100
AcDbLine
 62
7
  6
CONTINUOUS
 10
111.8993619187
 20
68.9530402772
 11
112.0224267999
 21
65.1485685856
  0
LINE
  5
4BA
100
AcDbEntity
  8
3_AXES_OTHER
100
AcDbLine
 62
7
  6
CONTINUOUS
 10
116.2687952289
 20
70.8056024743
 11
114.9930713608
 21
69.6907503563
  0
LINE
  5
4BB
100
AcDbEntity
  8
3_ALL_AXES
100
AcDbLine
 62
7
  6
CONTINUOUS
 10
112.9101977045
 20
68.5401576468
 11
112.8779449895
 21
68.5212813453
  0
LINE
  5
4BC
100
AcDbEntity
  8
3_ALL_AXES
100
AcDbLine
 62
7
  6
CONTINUOUS
 10
113.5150339154
 20
68.5004954621
 11
113.5938403457
 21
68.5466179029
  0
LINE
  5
4BD
100
AcDbEntity
  8
3_ALL_AXES
100
AcDbLine
 62
7
  6
CONTINUOUS
 10
113.521066298
 20
68.4591597664
 11
113.5998727284
 21
68.5052822071
  0
LINE
  5
4BE
100
AcDbEntity
  8
3_ALL_AXES
100
AcDbLine
 62
7
  6
CONTINUOUS
 10
113.7514876207
 20
68.4822258202
 11
113.6726811903
 21
68.4361033794
  0
LINE
  5
4BF
100
AcDbEntity
  8
3_AXES_OTHER
100
AcDbLine
 62
7
  6
CONTINUOUS
 10
112.1363065505
 20
69.2833218352
 11
112.1389157017
 21
69.202661603
  0
LINE
  5
4C0
100
AcDbEntity
  8
3_AXES_OTHER
100
AcDbLine
 62
7
  6
CONTINUOUS
 10
112.1503059135
 20
68.8505405259
 11
112.2733707947
 21
65.0460688343
  0
LINE
  5
4C1
100
AcDbEntity
  8
3_AXES_OTHER
100
AcDbLine
 62
7
  6
CONTINUOUS
 10
112.2390484583
 20
69.343452811
 11
112.2416576095
 21
69.2627925788
  0
LINE
  5
4C2
100
AcDbEntity
  8
3_AXES_OTHER
100
AcDbLine
 62
7
  6
CONTINUOUS
 10
112.2563946032
 20
68.8072078918
 11
112.3761127025
 21
65.1061998101
  0
LINE
  5
4C3
100
AcDbEntity
  8
3_ALL_AXES
100
AcDbLine
 62
7
  6
CONTINUOUS
 10
113.1688610509
 20
73.282797503
 11
113.1779099024
 21
73.4163950963
  0
LINE
  5
4C4
100
AcDbEntity
  8
3_AXES_OTHER
100
AcDbLine
 62
7
  6
CONTINUOUS
 10
114.9987400557
 20
69.2249214243
 11
116.9973741157
 21
70.9715230759
  0
LINE
  5
4C5
100
AcDbEntity
  8
3_AXES_OTHER
100
AcDbLine
 62
7
  6
CONTINUOUS
 10
115.0244702356
 20
69.1533636445
 11
117.0231042955
 21
70.8999652961
  0
LINE
  5
4C6
100
AcDbEntity
  8
3_AXES_OTHER
100
AcDbLine
 62
7
  6
CONTINUOUS
 10
114.4165203624
 20
68.4540498635
 11
113.9231333986
 21
68.1652890237
  0
LINE
  5
4C7
100
AcDbEntity
  8
3_AXES_OTHER
100
AcDbLine
 62
7
  6
CONTINUOUS
 10
114.422552745
 20
68.4127141677
 11
113.9291657812
 21
68.1239533279
  0
LINE
  5
4C8
100
AcDbEntity
  8
3_AXES_OTHER
100
AcDbLine
 62
7
  6
CONTINUOUS
 10
114.3964851991
 20
68.3601367653
 11
114.4992271069
 21
68.4202677411
  0
LINE
  5
4C9
100
AcDbEntity
  8
3_AXES_OTHER
100
AcDbLine
 62
7
  6
CONTINUOUS
 10
115.0019452275
 20
68.4651219195
 11
114.647429194
 21
68.257637014
  0
LINE
  5
4CA
100
AcDbEntity
  8
3_ALL_AXES
100
AcDbLine
 62
7
  6
CONTINUOUS
 10
114.4879511093
 20
67.9645849533
 11
114.3863918596
 21
67.9051461429
  0
LINE
  5
4CB
100
AcDbEntity
  8
3_AXES_OTHER
100
AcDbLine
 62
7
  6
CONTINUOUS
 10
111.8283682389
 20
69.0209098488
 11
111.8344006216
 21
68.9795741531
  0
LINE
  5
4CC
100
AcDbEntity
  8
3_ALL_AXES
100
AcDbLine
 62
7
  6
CONTINUOUS
 10
111.1394097972
 20
71.1006942557
 11
111.1008145274
 21
71.2080309254
  0
LINE
  5
4CD
100
AcDbEntity
  8
3_AXES_OTHER
100
AcDbLine
 62
7
  6
CONTINUOUS
 10
112.9706332025
 20
64.8633639397
 11
112.4038738609
 21
68.7469690037
  0
LINE
  5
4CE
100
AcDbEntity
  8
3_ALL_AXES
100
AcDbLine
 62
7
  6
CONTINUOUS
 10
112.4179816462
 20
68.9485937912
 11
112.4240140288
 21
68.9072580954
  0
LINE
  5
4CF
100
AcDbEntity
  8
3_ALL_AXES
100
AcDbLine
 62
7
  6
CONTINUOUS
 10
112.4967880766
 20
68.994716232
 11
112.5028204592
 21
68.9533805362
  0
LINE
  5
4D0
100
AcDbEntity
  8
3_AXES_OTHER
100
AcDbLine
 62
7
  6
CONTINUOUS
 10
112.6066630497
 20
68.978065049
 11
112.6136233104
 21
68.930371254
  0
LINE
  5
4D1
100
AcDbEntity
  8
3_AXES_OTHER
100
AcDbLine
 62
7
  6
CONTINUOUS
 10
112.6568330384
 20
68.6342852328
 11
113.1176447537
 21
65.4766650942
  0
LINE
  5
4D2
100
AcDbEntity
  8
3_AXES_OTHER
100
AcDbLine
 62
7
  6
CONTINUOUS
 10
113.1608544816
 20
65.180579073
 11
113.1885363696
 21
64.9908944708
  0
LINE
  5
4D3
100
AcDbEntity
  8
3_AXES_OTHER
100
AcDbLine
 62
7
  6
CONTINUOUS
 10
112.2733707947
 20
65.0460688343
 11
112.3761127025
 21
65.1061998101
  0
LINE
  5
4D4
100
AcDbEntity
  8
3_ALL_AXES
100
AcDbLine
 62
7
  6
CONTINUOUS
 10
113.2850753554
 20
65.58017113
 11
113.1337850736
 21
65.4916266162
  0
LINE
  5
4D5
100
AcDbEntity
  8
3_AXES_OTHER
100
AcDbLine
 62
7
  6
CONTINUOUS
 10
112.3466261139
 20
70.2471469674
 11
112.3208959341
 21
70.3187047473
  0
LINE
  5
4D6
100
AcDbEntity
  8
3_ALL_AXES
100
AcDbLine
 62
7
  6
CONTINUOUS
 10
113.5150339154
 20
68.5004954621
 11
113.521066298
 21
68.4591597664
  0
LINE
  5
4D7
100
AcDbEntity
  8
3_ALL_AXES
100
AcDbLine
 62
7
  6
CONTINUOUS
 10
113.5938403457
 20
68.5466179029
 11
113.5998727284
 21
68.5052822071
  0
LINE
  5
4D8
100
AcDbEntity
  8
3_AXES_OTHER
100
AcDbLine
 62
7
  6
CONTINUOUS
 10
113.9291657812
 20
68.1239533279
 11
113.9231333986
 21
68.1652890237
  0
LINE
  5
4D9
100
AcDbEntity
  8
3_ALL_AXES
100
AcDbLine
 62
7
  6
CONTINUOUS
 10
115.5570899355
 20
73.1210376374
 11
115.5661387871
 21
73.2546352307
  0
LINE
  5
4DA
100
AcDbEntity
  8
3_AXES_OTHER
100
AcDbLine
 62
7
  6
CONTINUOUS
 10
117.8604735376
 20
67.8100917859
 11
120.0616584314
 21
69.7337021396
  0
LINE
  5
4DB
100
AcDbEntity
  8
3_AXES_OTHER
100
AcDbLine
 62
7
  6
CONTINUOUS
 10
113.1885363696
 20
64.9908944708
 11
112.9706332025
 21
64.8633639397
  0
LINE
  5
4DC
100
AcDbEntity
  8
3_ALL_AXES
100
AcDbLine
 62
7
  6
CONTINUOUS
 10
113.5332567145
 20
65.1561196994
 11
113.3819664327
 21
65.0675751856
  0
LINE
  5
4DD
100
AcDbEntity
  8
3_AXES_OTHER
100
AcDbLine
 62
7
  6
CONTINUOUS
 10
115.5571769544
 20
63.7047762683
 11
114.3964851991
 21
68.3601367653
  0
LINE
  5
4DE
100
AcDbEntity
  8
3_AXES_OTHER
100
AcDbLine
 62
7
  6
CONTINUOUS
 10
115.0653983622
 20
64.0077431145
 11
114.4778521219
 21
68.0337862451
  0
LINE
  5
4DF
100
AcDbEntity
  8
3_AXES_OTHER
100
AcDbLine
 62
7
  6
CONTINUOUS
 10
114.4275706589
 20
68.3783299162
 11
114.4165203624
 21
68.4540498635
  0
LINE
  5
4E0
100
AcDbEntity
  8
3_ALL_AXES
100
AcDbLine
 62
7
  6
CONTINUOUS
 10
114.7935222255
 20
64.9640359276
 11
114.6422319437
 21
64.8754914137
  0
LINE
  5
4E1
100
AcDbEntity
  8
3_ALL_AXES
100
AcDbLine
 62
7
  6
CONTINUOUS
 10
114.9919725525
 20
64.5108787936
 11
114.8904133028
 21
64.4514399831
  0
LINE
  5
4E2
100
AcDbEntity
  8
3_AXES_OTHER
100
AcDbLine
 62
7
  6
CONTINUOUS
 10
112.0224267999
 20
65.1485685856
 11
112.2733707947
 21
65.0460688343
  0
LINE
  5
4E3
100
AcDbEntity
  8
3_AXES_OTHER
100
AcDbLine
 62
7
  6
CONTINUOUS
 10
115.5571769544
 20
63.7047762683
 11
115.8081209492
 21
63.602276517
  0
LINE
  5
4E4
100
AcDbEntity
  8
3_AXES_OTHER
100
AcDbLine
 62
7
  6
CONTINUOUS
 10
112.3761127025
 20
65.1061998101
 11
112.9706332025
 21
64.8633639397
  0
LINE
  5
4E5
100
AcDbEntity
  8
3_AXES_OTHER
100
AcDbLine
 62
7
  6
CONTINUOUS
 10
115.0653983622
 20
64.0077431145
 11
115.5288356306
 21
63.8184490658
  0
LINE
  5
4E6
100
AcDbEntity
  8
3_AXES_OTHER
100
AcDbLine
 62
7
  6
CONTINUOUS
 10
113.1885363696
 20
64.9908944708
 11
115.0317950414
 21
64.2380031509
  0
LINE
  5
4E7
100
AcDbEntity
  8
3_ALL_AXES
100
AcDbLine
 62
7
  6
CONTINUOUS
 10
113.3919197632
 20
71.9106339526
 11
113.3533244934
 21
72.0179706223
  0
LINE
  5
4E8
100
AcDbEntity
  8
3_AXES_OTHER
100
AcDbLine
 62
7
  6
CONTINUOUS
 10
115.8081209492
 20
63.602276517
 11
114.647429194
 21
68.257637014
  0
LINE
  5
4E9
100
AcDbEntity
  8
3_AXES_OTHER
100
AcDbLine
 62
7
  6
CONTINUOUS
 10
116.1626369827
 20
63.8097614225
 11
115.0019452275
 21
68.4651219195
  0
LINE
  5
4EA
100
AcDbEntity
  8
3_ALL_AXES
100
AcDbLine
 62
7
  6
CONTINUOUS
 10
121.4122877554
 20
62.6869919327
 11
121.2546404805
 21
62.7513840154
  0
LINE
  5
4EB
100
AcDbEntity
  8
3_AXES_OTHER
100
AcDbLine
 62
7
  6
CONTINUOUS
 10
115.0244702356
 20
69.1533636445
 11
114.9987400557
 21
69.2249214243
  0
LINE
  5
4EC
100
AcDbEntity
  8
3_AXES_OTHER
100
AcDbLine
 62
7
  6
CONTINUOUS
 10
114.3509288688
 20
71.527919687
 11
114.325198689
 21
71.5994774668
  0
LINE
  5
4ED
100
AcDbEntity
  8
3_AXES_OTHER
100
AcDbLine
 62
7
  6
CONTINUOUS
 10
116.1626369827
 20
63.8097614225
 11
115.8081209492
 21
63.602276517
  0
LINE
  5
4EE
100
AcDbEntity
  8
3_ALL_AXES
100
AcDbLine
 62
7
  6
CONTINUOUS
 10
113.8229677573
 20
62.1462883689
 11
113.6536129642
 21
62.0471713758
  0
LINE
  5
4EF
100
AcDbEntity
  8
3_ALL_AXES
100
AcDbLine
 62
7
  6
CONTINUOUS
 10
121.6266605699
 20
63.2118280397
 11
121.469013295
 21
63.2762201225
  0
LINE
  5
4F0
100
AcDbEntity
  8
3_ALL_AXES
100
AcDbLine
 62
7
  6
CONTINUOUS
 10
115.8904235613
 20
69.1601109408
 11
115.8518282916
 21
69.2674476105
  0
LINE
  5
4F1
100
AcDbEntity
  8
3_ALL_AXES
100
AcDbLine
 62
7
  6
CONTINUOUS
 10
114.0711491164
 20
61.7222369382
 11
113.9017943233
 21
61.6231199452
  0
LINE
  5
4F2
100
AcDbEntity
  8
3_ALL_AXES
100
AcDbLine
 62
7
  6
CONTINUOUS
 10
115.3314146274
 20
61.5301531664
 11
115.1620598343
 21
61.4310361733
  0
LINE
  5
4F3
100
AcDbEntity
  8
3_AXES_OTHER
100
AcDbLine
 62
7
  6
CONTINUOUS
 10
119.7686642596
 20
54.7345964097
 11
117.8604735376
 21
67.8100917859
  0
LINE
  5
4F4
100
AcDbEntity
  8
3_ALL_AXES
100
AcDbLine
 62
7
  6
CONTINUOUS
 10
119.3883699785
 20
70.7423975272
 11
119.3974188301
 21
70.8759951205
  0
LINE
  5
4F5
100
AcDbEntity
  8
3_ALL_AXES
100
AcDbLine
 62
7
  6
CONTINUOUS
 10
115.5795959865
 20
61.1061017358
 11
115.4102411934
 21
61.0069847427
  0
LINE
  5
4F6
100
AcDbEntity
  8
3_AXES_OTHER
100
AcDbLine
 62
7
  6
CONTINUOUS
 10
111.8344006216
 20
68.9795741531
 11
113.9291657812
 21
68.1239533279
  0
LINE
  5
4F7
100
AcDbEntity
  8
3_AXES_OTHER
100
AcDbLine
 62
7
  6
CONTINUOUS
 10
113.9231333986
 20
68.1652890237
 11
111.8283682389
 21
69.0209098488
  0
LINE
  5
4F8
100
AcDbEntity
  8
3_AXES_OTHER
100
AcDbLine
 62
7
  6
CONTINUOUS
 10
114.647429194
 20
68.257637014
 11
114.3964851991
 21
68.3601367653
  0
LINE
  5
4F9
100
AcDbEntity
  8
3_AXES_OTHER
100
AcDbLine
 62
7
  6
CONTINUOUS
 10
112.1363065505
 20
69.2833218352
 11
111.8853625556
 21
69.3858215866
  0
LINE
  5
4FA
100
AcDbEntity
  8
3_AXES_OTHER
100
AcDbLine
 62
7
  6
CONTINUOUS
 10
114.4992271069
 20
68.4202677411
 11
114.4165203624
 21
68.4540498635
  0
LINE
  5
4FB
100
AcDbEntity
  8
3_AXES_OTHER
100
AcDbLine
 62
7
  6
CONTINUOUS
 10
112.3217552028
 20
69.3096706887
 11
112.2390484583
 21
69.343452811
  0
LINE
  5
4FC
100
AcDbEntity
  8
3_AXES_OTHER
100
AcDbLine
 62
7
  6
CONTINUOUS
 10
117.0231042955
 20
70.8999652961
 11
116.9973741157
 21
70.9715230759
  0
LINE
  5
4FD
100
AcDbEntity
  8
3_AXES_OTHER
100
AcDbLine
 62
7
  6
CONTINUOUS
 10
115.0019452275
 20
68.4651219195
 11
112.2398785891
 21
69.5933064921
  0
LINE
  5
4FE
100
AcDbEntity
  8
3_AXES_OTHER
100
AcDbLine
 62
7
  6
CONTINUOUS
 10
117.8604735376
 20
67.8100917859
 11
109.2222666936
 21
71.3384250857
  0
LINE
  5
4FF
100
AcDbEntity
  8
3_AXES_OTHER
100
AcDbLine
 62
7
  6
CONTINUOUS
 10
112.3466261139
 20
70.2471469674
 11
115.0244702356
 21
69.1533636445
  0
LINE
  5
500
100
AcDbEntity
  8
3_AXES_OTHER
100
AcDbLine
 62
7
  6
CONTINUOUS
 10
112.3208959341
 20
70.3187047473
 11
114.9987400557
 21
69.2249214243
  0
LINE
  5
501
100
AcDbEntity
  8
3_ALL_AXES
100
AcDbLine
 62
7
  6
CONTINUOUS
 10
118.1429335273
 20
69.9700506378
 11
118.1043382576
 21
70.0773873075
  0
LINE
  5
502
100
AcDbEntity
  8
3_ALL_AXES
100
AcDbLine
 62
7
  6
CONTINUOUS
 10
121.7765988632
 20
70.5806376616
 11
121.7856477147
 21
70.7142352549
  0
LINE
  5
503
100
AcDbEntity
  8
3_AXES_OTHER
100
AcDbLine
 62
7
  6
CONTINUOUS
 10
120.0616584314
 20
69.7337021396
 11
124.9892080571
 21
70.969306354
  0
LINE
  5
504
100
AcDbEntity
  8
3_AXES_OTHER
100
AcDbLine
 62
7
  6
CONTINUOUS
 10
114.9930713608
 20
69.6907503563
 11
113.0494748209
 21
70.4846253488
  0
LINE
  5
505
100
AcDbEntity
  8
3_AXES_OTHER
100
AcDbLine
 62
7
  6
CONTINUOUS
 10
114.3509288688
 20
71.527919687
 11
116.2211889523
 21
70.7639994601
  0
LINE
  5
506
100
AcDbEntity
  8
3_AXES_OTHER
100
AcDbLine
 62
7
  6
CONTINUOUS
 10
114.325198689
 20
71.5994774668
 11
116.2687952289
 21
70.8056024743
  0
LINE
  5
507
100
AcDbEntity
  8
3_AXES_OTHER
100
AcDbLine
 62
7
  6
CONTINUOUS
 10
116.9973741157
 20
70.9715230759
 11
114.3195299941
 21
72.0653063988
  0
LINE
  5
508
100
AcDbEntity
  8
3_AXES_OTHER
100
AcDbLine
 62
7
  6
CONTINUOUS
 10
120.0616584314
 20
69.7337021396
 11
111.4234515875
 21
73.2620354393
  0
LINE
  5
509
100
AcDbEntity
  8
3_AXES_OTHER
100
AcDbLine
 62
7
  6
CONTINUOUS
 10
124.9892080571
 20
70.969306354
 11
123.9607960201
 21
55.7857914384
  0
LINE
  5
50A
100
AcDbEntity
  8
3_AXES_OTHER
100
AcDbLine
 62
7
  6
CONTINUOUS
 10
124.9892080571
 20
70.969306354
 11
116.3510012131
 21
74.4976396537
  0
LINE
  5
50B
100
AcDbEntity
  8
3_AXES_OTHER
100
AcDbLine
 62
7
  6
CONTINUOUS
 10
111.4234515875
 20
73.2620354393
 11
116.3510012131
 21
74.4976396537
  0
LINE
  5
50C
100
AcDbEntity
  8
3_ALL_AXES
100
AcDbLine
 62
7
  6
CONTINUOUS
 10
104.159606189
 20
35.4651587527
 11
104.159606189
 21
34.7566993729
  0
LINE
  5
50D
100
AcDbEntity
  8
3_AXES_OTHER
100
AcDbLine
 62
7
  6
CONTINUOUS
 10
104.4470077638
 20
41.5499325133
 11
104.4470077638
 21
25.9698430435
  0
LINE
  5
50E
100
AcDbEntity
  8
3_AXES_OTHER
100
AcDbLine
 62
7
  6
CONTINUOUS
 10
104.4470077638
 20
25.9698430435
 11
120.1950392599
 21
25.9698430435
  0
LINE
  5
50F
100
AcDbEntity
  8
3_AXES_OTHER
100
AcDbLine
 62
7
  6
CONTINUOUS
 10
108.8702361103
 20
39.1166216688
 11
108.8702361103
 21
39.7212247133
  0
LINE
  5
510
100
AcDbEntity
  8
3_AXES_OTHER
100
AcDbLine
 62
7
  6
CONTINUOUS
 10
109.8033069764
 20
37.7782924779
 11
109.8033069764
 21
38.3828955224
  0
LINE
  5
511
100
AcDbEntity
  8
3_AXES_OTHER
100
AcDbLine
 62
7
  6
CONTINUOUS
 10
109.88007863
 20
37.3472667812
 11
109.88007863
 21
33.6464793796
  0
LINE
  5
512
100
AcDbEntity
  8
3_AXES_OTHER
100
AcDbLine
 62
7
  6
CONTINUOUS
 10
110.2607947406
 20
38.3828955224
 11
110.2607947406
 21
38.2076761688
  0
LINE
  5
513
100
AcDbEntity
  8
3_AXES_OTHER
100
AcDbLine
 62
7
  6
CONTINUOUS
 10
110.411574693
 20
38.2076761688
 11
110.411574693
 21
39.5460053596
  0
LINE
  5
514
100
AcDbEntity
  8
3_AXES_OTHER
100
AcDbLine
 62
7
  6
CONTINUOUS
 10
110.5493699686
 20
34.3157707182
 11
110.5493699686
 21
36.6779754426
  0
LINE
  5
515
100
AcDbEntity
  8
3_ALL_AXES
100
AcDbLine
 62
7
  6
CONTINUOUS
 10
110.6389368977
 20
39.0615561233
 11
110.6389368977
 21
39.2828075042
  0
LINE
  5
516
100
AcDbEntity
  8
3_ALL_AXES
100
AcDbLine
 62
7
  6
CONTINUOUS
 10
110.6389368977
 20
40.0065860242
 11
110.6389368977
 21
40.2954091347
  0
LINE
  5
517
100
AcDbEntity
  8
3_ALL_AXES
100
AcDbLine
 62
7
  6
CONTINUOUS
 10
111.1773227245
 20
38.6255069352
 11
111.1773227245
 21
38.7599059559
  0
LINE
  5
518
100
AcDbEntity
  8
3_ALL_AXES
100
AcDbLine
 62
7
  6
CONTINUOUS
 10
111.2531101261
 20
39.0615561233
 11
111.2531101261
 21
39.2828075042
  0
LINE
  5
519
100
AcDbEntity
  8
3_ALL_AXES
100
AcDbLine
 62
7
  6
CONTINUOUS
 10
111.2531101261
 20
40.0065860242
 11
111.2531101261
 21
40.2954091347
  0
LINE
  5
51A
100
AcDbEntity
  8
3_ALL_AXES
100
AcDbLine
 62
7
  6
CONTINUOUS
 10
111.4647242993
 20
38.7599059559
 11
111.4647242993
 21
38.6255069352
  0
LINE
  5
51B
100
AcDbEntity
  8
3_AXES_OTHER
100
AcDbLine
 62
7
  6
CONTINUOUS
 10
114.3812522832
 20
38.3828955224
 11
115.3143231493
 21
39.7212247133
  0
LINE
  5
51C
100
AcDbEntity
  8
3_ALL_AXES
100
AcDbLine
 62
7
  6
CENTER
 10
112.3210235119
 20
42.3364108432
 11
112.3210235119
 21
25.6165287917
  0
LINE
  5
51D
100
AcDbEntity
  8
3_AXES_OTHER
100
AcDbLine
 62
7
  6
CONTINUOUS
 10
114.8387400473
 20
38.3828955224
 11
115.7718109135
 21
39.7212247133
  0
LINE
  5
51E
100
AcDbEntity
  8
3_AXES_OTHER
100
AcDbLine
 62
7
  6
CONTINUOUS
 10
114.8387400473
 20
37.7782924779
 11
115.7718109135
 21
39.1166216688
  0
LINE
  5
51F
100
AcDbEntity
  8
3_AXES_OTHER
100
AcDbLine
 62
7
  6
CONTINUOUS
 10
104.4470077638
 20
33.5383929451
 11
120.1950392599
 21
33.5383929451
  0
LINE
  5
520
100
AcDbEntity
  8
3_AXES_OTHER
100
AcDbLine
 62
7
  6
CONTINUOUS
 10
109.88007863
 20
33.6464793796
 11
114.7619683938
 21
33.6464793796
  0
LINE
  5
521
100
AcDbEntity
  8
3_AXES_OTHER
100
AcDbLine
 62
7
  6
CONTINUOUS
 10
114.0926770552
 20
34.3157707182
 11
110.5493699686
 21
34.3157707182
  0
LINE
  5
522
100
AcDbEntity
  8
3_AXES_OTHER
100
AcDbLine
 62
7
  6
CONTINUOUS
 10
108.8702361103
 20
39.1166216688
 11
109.8033069764
 21
37.7782924779
  0
LINE
  5
523
100
AcDbEntity
  8
3_AXES_OTHER
100
AcDbLine
 62
7
  6
CONTINUOUS
 10
108.8702361103
 20
39.7212247133
 11
109.8033069764
 21
38.3828955224
  0
LINE
  5
524
100
AcDbEntity
  8
3_ALL_AXES
100
AcDbLine
 62
7
  6
CONTINUOUS
 10
113.1773227245
 20
38.7599059559
 11
113.1773227245
 21
38.6255069352
  0
LINE
  5
525
100
AcDbEntity
  8
3_ALL_AXES
100
AcDbLine
 62
7
  6
CONTINUOUS
 10
113.3889368977
 20
39.0615561233
 11
113.3889368977
 21
39.2828075042
  0
LINE
  5
526
100
AcDbEntity
  8
3_ALL_AXES
100
AcDbLine
 62
7
  6
CONTINUOUS
 10
113.3889368977
 20
40.0065860242
 11
113.3889368977
 21
40.2954091347
  0
LINE
  5
527
100
AcDbEntity
  8
3_ALL_AXES
100
AcDbLine
 62
7
  6
CONTINUOUS
 10
113.4647242993
 20
38.6255069352
 11
113.4647242993
 21
38.7599059559
  0
LINE
  5
528
100
AcDbEntity
  8
3_ALL_AXES
100
AcDbLine
 62
7
  6
CONTINUOUS
 10
104.159606189
 20
34.7565983542
 11
104.4470077638
 21
34.7565983542
  0
LINE
  5
529
100
AcDbEntity
  8
3_ALL_AXES
100
AcDbLine
 62
7
  6
CONTINUOUS
 10
120.1950392599
 20
34.7565983542
 11
120.4824408347
 21
34.7565983542
  0
LINE
  5
52A
100
AcDbEntity
  8
3_AXES_OTHER
100
AcDbLine
 62
7
  6
CONTINUOUS
 10
109.3277238744
 20
39.7212247133
 11
110.2607947406
 21
38.3828955224
  0
LINE
  5
52B
100
AcDbEntity
  8
3_ALL_AXES
100
AcDbLine
 62
7
  6
CONTINUOUS
 10
114.0031101261
 20
39.0615561233
 11
114.0031101261
 21
39.2828075042
  0
LINE
  5
52C
100
AcDbEntity
  8
3_ALL_AXES
100
AcDbLine
 62
7
  6
CONTINUOUS
 10
114.0031101261
 20
40.0065860242
 11
114.0031101261
 21
40.2954091347
  0
LINE
  5
52D
100
AcDbEntity
  8
3_AXES_OTHER
100
AcDbLine
 62
7
  6
CONTINUOUS
 10
114.0926770552
 20
36.6779754426
 11
114.0926770552
 21
34.3157707182
  0
LINE
  5
52E
100
AcDbEntity
  8
3_AXES_OTHER
100
AcDbLine
 62
7
  6
CONTINUOUS
 10
114.2304723308
 20
38.2076761688
 11
114.2304723308
 21
39.5460053596
  0
LINE
  5
52F
100
AcDbEntity
  8
3_AXES_OTHER
100
AcDbLine
 62
7
  6
CONTINUOUS
 10
114.3812522832
 20
38.3828955224
 11
114.3812522832
 21
38.2076761688
  0
LINE
  5
530
100
AcDbEntity
  8
3_ALL_AXES
100
AcDbLine
 62
7
  6
CONTINUOUS
 10
104.159606189
 20
35.4652597715
 11
104.4470077638
 21
35.4652597715
  0
LINE
  5
531
100
AcDbEntity
  8
3_ALL_AXES
100
AcDbLine
 62
7
  6
CONTINUOUS
 10
120.1950392599
 20
35.4652597715
 11
120.4824408347
 21
35.4652597715
  0
LINE
  5
532
100
AcDbEntity
  8
3_AXES_OTHER
100
AcDbLine
 62
7
  6
CONTINUOUS
 10
114.7619683938
 20
33.6464793796
 11
114.7619683938
 21
37.3472667812
  0
LINE
  5
533
100
AcDbEntity
  8
3_AXES_OTHER
100
AcDbLine
 62
7
  6
CONTINUOUS
 10
114.8387400473
 20
37.7782924779
 11
114.8387400473
 21
38.3828955224
  0
LINE
  5
534
100
AcDbEntity
  8
3_AXES_OTHER
100
AcDbLine
 62
7
  6
CONTINUOUS
 10
110.5493699686
 20
36.6779754426
 11
114.0926770552
 21
36.6779754426
  0
LINE
  5
535
100
AcDbEntity
  8
3_AXES_OTHER
100
AcDbLine
 62
7
  6
CONTINUOUS
 10
115.7718109135
 20
39.1166216688
 11
115.7718109135
 21
39.7212247133
  0
LINE
  5
536
100
AcDbEntity
  8
3_AXES_OTHER
100
AcDbLine
 62
7
  6
CONTINUOUS
 10
114.7619683938
 20
37.3472667812
 11
109.88007863
 21
37.3472667812
  0
LINE
  5
537
100
AcDbEntity
  8
3_AXES_OTHER
100
AcDbLine
 62
7
  6
CONTINUOUS
 10
104.4470077638
 20
37.6142352851
 11
120.1950392599
 21
37.6142352851
  0
LINE
  5
538
100
AcDbEntity
  8
3_AXES_OTHER
100
AcDbLine
 62
7
  6
CONTINUOUS
 10
109.8033069764
 20
37.7782924779
 11
114.8387400473
 21
37.7782924779
  0
LINE
  5
539
100
AcDbEntity
  8
3_AXES_OTHER
100
AcDbLine
 62
7
  6
CONTINUOUS
 10
110.2607947406
 20
38.2076761688
 11
110.411574693
 21
38.2076761688
  0
LINE
  5
53A
100
AcDbEntity
  8
3_AXES_OTHER
100
AcDbLine
 62
7
  6
CONTINUOUS
 10
114.2304723308
 20
38.2076761688
 11
114.3812522832
 21
38.2076761688
  0
LINE
  5
53B
100
AcDbEntity
  8
3_AXES_OTHER
100
AcDbLine
 62
7
  6
CONTINUOUS
 10
109.8033069764
 20
38.3828955224
 11
110.2607947406
 21
38.3828955224
  0
LINE
  5
53C
100
AcDbEntity
  8
3_AXES_OTHER
100
AcDbLine
 62
7
  6
CONTINUOUS
 10
114.3812522832
 20
38.3828955224
 11
114.8387400473
 21
38.3828955224
  0
LINE
  5
53D
100
AcDbEntity
  8
3_AXES_OTHER
100
AcDbLine
 62
7
  6
CONTINUOUS
 10
110.411574693
 20
39.0491141639
 11
114.2304723308
 21
39.0491141639
  0
LINE
  5
53E
100
AcDbEntity
  8
3_AXES_OTHER
100
AcDbLine
 62
7
  6
CONTINUOUS
 10
114.2304723308
 20
39.0615561233
 11
110.411574693
 21
39.0615561233
  0
LINE
  5
53F
100
AcDbEntity
  8
3_AXES_OTHER
100
AcDbLine
 62
7
  6
CONTINUOUS
 10
114.2304723308
 20
39.1743862909
 11
114.0031101261
 21
39.1743862909
  0
LINE
  5
540
100
AcDbEntity
  8
3_AXES_OTHER
100
AcDbLine
 62
7
  6
CONTINUOUS
 10
113.3889368977
 20
39.1743862909
 11
111.2531101261
 21
39.1743862909
  0
LINE
  5
541
100
AcDbEntity
  8
3_AXES_OTHER
100
AcDbLine
 62
7
  6
CONTINUOUS
 10
110.6389368977
 20
39.1743862909
 11
110.411574693
 21
39.1743862909
  0
LINE
  5
542
100
AcDbEntity
  8
3_AXES_OTHER
100
AcDbLine
 62
7
  6
CONTINUOUS
 10
115.1921618192
 20
39.5460053596
 11
114.2304723308
 21
39.5460053596
  0
LINE
  5
543
100
AcDbEntity
  8
3_AXES_OTHER
100
AcDbLine
 62
7
  6
CONTINUOUS
 10
110.411574693
 20
39.5460053596
 11
109.4498852045
 21
39.5460053596
  0
LINE
  5
544
100
AcDbEntity
  8
3_AXES_OTHER
100
AcDbLine
 62
7
  6
CONTINUOUS
 10
115.7718109135
 20
39.7212247133
 11
115.3143231493
 21
39.7212247133
  0
LINE
  5
545
100
AcDbEntity
  8
3_AXES_OTHER
100
AcDbLine
 62
7
  6
CONTINUOUS
 10
109.3277238744
 20
39.7212247133
 11
108.8702361103
 21
39.7212247133
  0
LINE
  5
546
100
AcDbEntity
  8
3_AXES_OTHER
100
AcDbLine
 62
7
  6
CONTINUOUS
 10
120.1950392599
 20
41.5499325133
 11
120.1950392599
 21
25.9698430435
  0
LINE
  5
547
100
AcDbEntity
  8
3_ALL_AXES
100
AcDbLine
 62
7
  6
CONTINUOUS
 10
120.4824408347
 20
35.4651587527
 11
120.4824408347
 21
34.7566993729
  0
LINE
  5
548
100
AcDbEntity
  8
3_AXES_OTHER
100
AcDbLine
 62
7
  6
CONTINUOUS
 10
104.4470077638
 20
41.5499325133
 11
120.1950392599
 21
41.5499325133
  0
LINE
  5
549
100
AcDbEntity
  8
3_ALL_AXES
100
AcDbLine
 62
7
  6
CONTINUOUS
 10
54.4532006579
 20
63.1072332103
 11
53.7687601624
 21
63.2906284883
  0
LINE
  5
54A
100
AcDbEntity
  8
3_AXES_OTHER
100
AcDbLine
 62
7
  6
CONTINUOUS
 10
58.5320158747
 20
62.3118579715
 11
46.7557201195
 21
65.4673069089
  0
LINE
  5
54B
100
AcDbEntity
  8
3_AXES_OTHER
100
AcDbLine
 62
7
  6
CONTINUOUS
 10
50.8316105936
 20
80.6787372442
 11
46.7557201195
 21
65.4673069089
  0
LINE
  5
54C
100
AcDbEntity
  8
3_AXES_OTHER
100
AcDbLine
 62
7
  6
CONTINUOUS
 10
59.6768316116
 20
66.5843684669
 11
60.2738802523
 21
66.4243897658
  0
LINE
  5
54D
100
AcDbEntity
  8
3_AXES_OTHER
100
AcDbLine
 62
7
  6
CONTINUOUS
 10
59.9183281222
 20
67.4856457143
 11
60.5153767629
 21
67.3256670131
  0
LINE
  5
54E
100
AcDbEntity
  8
3_AXES_OTHER
100
AcDbLine
 62
7
  6
CONTINUOUS
 10
56.1893907722
 20
68.5642913301
 11
59.709681189
 21
67.6210323558
  0
LINE
  5
54F
100
AcDbEntity
  8
3_AXES_OTHER
100
AcDbLine
 62
7
  6
CONTINUOUS
 10
60.6337833091
 20
67.7675662597
 11
60.4607532891
 21
67.8139295139
  0
LINE
  5
550
100
AcDbEntity
  8
3_AXES_OTHER
100
AcDbLine
 62
7
  6
CONTINUOUS
 10
60.4997780124
 20
67.959571764
 11
61.3307023944
 21
67.7369262468
  0
LINE
  5
551
100
AcDbEntity
  8
3_AXES_OTHER
100
AcDbLine
 62
7
  6
CONTINUOUS
 10
59.2505480104
 20
68.4369581008
 11
57.0186943975
 21
69.034981474
  0
LINE
  5
552
100
AcDbEntity
  8
3_ALL_AXES
100
AcDbLine
 62
7
  6
CONTINUOUS
 10
61.1105782345
 20
68.5886690349
 11
61.2432979642
 21
68.5531068905
  0
LINE
  5
553
100
AcDbEntity
  8
3_ALL_AXES
100
AcDbLine
 62
7
  6
CENTER
 10
61.2804904648
 20
68.6919111924
 11
60.7553158324
 21
68.832631311
  0
LINE
  5
554
100
AcDbEntity
  8
3_ALL_AXES
100
AcDbLine
 62
7
  6
CENTER
 10
60.7553158324
 20
68.832631311
 11
60.6225961028
 21
68.8681934554
  0
LINE
  5
555
100
AcDbEntity
  8
3_ALL_AXES
100
AcDbLine
 62
7
  6
CENTER
 10
61.2804904648
 20
68.6919111924
 11
61.6729453674
 21
68.5867532181
  0
LINE
  5
556
100
AcDbEntity
  8
3_ALL_AXES
100
AcDbLine
 62
7
  6
CENTER
 10
61.6729453674
 20
68.5867532181
 11
61.8056650971
 21
68.5511910737
  0
LINE
  5
557
100
AcDbEntity
  8
3_ALL_AXES
100
AcDbLine
 62
7
  6
CONTINUOUS
 10
61.3176829653
 20
68.8307154942
 11
61.1849632357
 21
68.8662776386
  0
LINE
  5
558
100
AcDbEntity
  8
3_ALL_AXES
100
AcDbLine
 62
7
  6
CONTINUOUS
 10
61.7609360544
 20
70.4849585431
 11
61.6282163247
 21
70.5205206875
  0
LINE
  5
559
100
AcDbEntity
  8
3_ALL_AXES
100
AcDbLine
 62
7
  6
CONTINUOUS
 10
57.993383704
 20
79.0572859275
 11
57.9189987028
 21
78.7796773239
  0
LINE
  5
55A
100
AcDbEntity
  8
3_ALL_AXES
100
AcDbLine
 62
7
  6
CONTINUOUS
 10
53.8431082288
 20
63.5682469886
 11
53.7687232276
 21
63.290638385
  0
LINE
  5
55B
100
AcDbEntity
  8
3_ALL_AXES
100
AcDbLine
 62
7
  6
CENTER
 10
61.798128555
 20
70.6237628449
 11
61.2729539226
 21
70.7644829636
  0
LINE
  5
55C
100
AcDbEntity
  8
3_ALL_AXES
100
AcDbLine
 62
7
  6
CENTER
 10
61.2729539226
 20
70.7644829636
 11
61.140234193
 21
70.8000451079
  0
LINE
  5
55D
100
AcDbEntity
  8
3_ALL_AXES
100
AcDbLine
 62
7
  6
CENTER
 10
61.798128555
 20
70.6237628449
 11
62.1905834576
 21
70.5186048707
  0
LINE
  5
55E
100
AcDbEntity
  8
3_ALL_AXES
100
AcDbLine
 62
7
  6
CENTER
 10
62.1905834576
 20
70.5186048707
 11
62.3233031873
 21
70.4830427263
  0
LINE
  5
55F
100
AcDbEntity
  8
3_ALL_AXES
100
AcDbLine
 62
7
  6
CONTINUOUS
 10
61.7026013259
 20
70.7981292911
 11
61.8353210555
 21
70.7625671467
  0
LINE
  5
560
100
AcDbEntity
  8
3_ALL_AXES
100
AcDbLine
 62
7
  6
CONTINUOUS
 10
58.6778980691
 20
78.8738708561
 11
58.6035130679
 21
78.5962622525
  0
LINE
  5
561
100
AcDbEntity
  8
3_ALL_AXES
100
AcDbLine
 62
7
  6
CONTINUOUS
 10
54.5276225939
 20
63.3848319173
 11
54.4532375927
 21
63.1072233136
  0
LINE
  5
562
100
AcDbEntity
  8
3_AXES_OTHER
100
AcDbLine
 62
7
  6
CONTINUOUS
 10
58.7569770207
 20
78.5551417103
 11
54.6810865466
 21
63.343711375
  0
LINE
  5
563
100
AcDbEntity
  8
3_AXES_OTHER
100
AcDbLine
 62
7
  6
CONTINUOUS
 10
57.4529168192
 20
73.279834734
 11
56.1893907722
 21
68.5642913301
  0
LINE
  5
564
100
AcDbEntity
  8
3_AXES_OTHER
100
AcDbLine
 62
7
  6
CONTINUOUS
 10
57.4766365757
 20
73.2734790444
 11
56.2131105287
 21
68.5579356405
  0
LINE
  5
565
100
AcDbEntity
  8
3_AXES_OTHER
100
AcDbLine
 62
7
  6
CONTINUOUS
 10
57.9357697542
 20
72.4575532994
 11
60.1676233671
 21
71.8595299262
  0
LINE
  5
566
100
AcDbEntity
  8
3_AXES_OTHER
100
AcDbLine
 62
7
  6
CONTINUOUS
 10
61.4881814523
 20
71.6483436203
 11
62.3191058344
 21
71.4256981031
  0
LINE
  5
567
100
AcDbEntity
  8
3_AXES_OTHER
100
AcDbLine
 62
7
  6
CONTINUOUS
 10
61.7002361957
 20
71.7476226163
 11
61.5272061756
 21
71.7939858704
  0
LINE
  5
568
100
AcDbEntity
  8
3_AXES_OTHER
100
AcDbLine
 62
7
  6
CONTINUOUS
 10
57.4529168192
 20
73.279834734
 11
60.9732072359
 21
72.3365757597
  0
LINE
  5
569
100
AcDbEntity
  8
3_AXES_OTHER
100
AcDbLine
 62
7
  6
CONTINUOUS
 10
61.2215941013
 20
72.349500564
 11
61.818642742
 21
72.1895218628
  0
LINE
  5
56A
100
AcDbEntity
  8
3_AXES_OTHER
100
AcDbLine
 62
7
  6
CONTINUOUS
 10
57.0186943975
 20
69.034981474
 11
57.9357697542
 21
72.4575532994
  0
LINE
  5
56B
100
AcDbEntity
  8
3_AXES_OTHER
100
AcDbLine
 62
7
  6
CONTINUOUS
 10
61.4630906119
 20
73.2507778113
 11
62.0601392525
 21
73.0907991102
  0
LINE
  5
56C
100
AcDbEntity
  8
3_AXES_OTHER
100
AcDbLine
 62
7
  6
CONTINUOUS
 10
60.1439036106
 20
71.8658856158
 11
59.2268282539
 21
68.4433137904
  0
LINE
  5
56D
100
AcDbEntity
  8
3_AXES_OTHER
100
AcDbLine
 62
7
  6
CONTINUOUS
 10
60.1676233671
 20
71.8595299262
 11
59.2505480104
 21
68.4369581008
  0
LINE
  5
56E
100
AcDbEntity
  8
3_AXES_OTHER
100
AcDbLine
 62
7
  6
CONTINUOUS
 10
59.709681189
 20
67.6210323558
 11
60.9732072359
 21
72.3365757597
  0
LINE
  5
56F
100
AcDbEntity
  8
3_AXES_OTHER
100
AcDbLine
 62
7
  6
CONTINUOUS
 10
62.6079063488
 20
77.5232883067
 11
58.5320158747
 21
62.3118579715
  0
LINE
  5
570
100
AcDbEntity
  8
3_AXES_OTHER
100
AcDbLine
 62
7
  6
CONTINUOUS
 10
61.5272061756
 20
71.7939858704
 11
61.4881814523
 21
71.6483436203
  0
LINE
  5
571
100
AcDbEntity
  8
3_AXES_OTHER
100
AcDbLine
 62
7
  6
CONTINUOUS
 10
60.4997780124
 20
67.959571764
 11
60.4607532891
 21
67.8139295139
  0
LINE
  5
572
100
AcDbEntity
  8
3_AXES_OTHER
100
AcDbLine
 62
7
  6
CONTINUOUS
 10
62.0601392525
 20
73.0907991102
 11
61.7002361957
 21
71.7476226163
  0
LINE
  5
573
100
AcDbEntity
  8
3_AXES_OTHER
100
AcDbLine
 62
7
  6
CONTINUOUS
 10
60.6337833091
 20
67.7675662597
 11
60.2738802523
 21
66.4243897658
  0
LINE
  5
574
100
AcDbEntity
  8
3_ALL_AXES
100
AcDbLine
 62
7
  6
CENTER
 10
61.6654088253
 20
70.6593249893
 11
61.5246887067
 21
70.134150357
  0
LINE
  5
575
100
AcDbEntity
  8
3_ALL_AXES
100
AcDbLine
 62
7
  6
CENTER
 10
61.1477707351
 20
68.7274733367
 11
61.0070506165
 21
68.2022987044
  0
LINE
  5
576
100
AcDbEntity
  8
3_ALL_AXES
100
AcDbLine
 62
7
  6
CENTER
 10
61.1477707351
 20
68.7274733367
 11
61.2884908537
 21
69.2526479691
  0
LINE
  5
577
100
AcDbEntity
  8
3_ALL_AXES
100
AcDbLine
 62
7
  6
CENTER
 10
61.6654088253
 20
70.6593249893
 11
61.8061289439
 21
71.1844996216
  0
LINE
  5
578
100
AcDbEntity
  8
3_ALL_AXES
100
AcDbLine
 62
7
  6
CENTER
 10
61.798128555
 20
70.6237628449
 11
61.6574084364
 21
70.0985882126
  0
LINE
  5
579
100
AcDbEntity
  8
3_ALL_AXES
100
AcDbLine
 62
7
  6
CENTER
 10
61.2804904648
 20
68.6919111924
 11
61.1397703462
 21
68.16673656
  0
LINE
  5
57A
100
AcDbEntity
  8
3_ALL_AXES
100
AcDbLine
 62
7
  6
CENTER
 10
61.2804904648
 20
68.6919111924
 11
61.4212105834
 21
69.2170858247
  0
LINE
  5
57B
100
AcDbEntity
  8
3_ALL_AXES
100
AcDbLine
 62
7
  6
CENTER
 10
61.798128555
 20
70.6237628449
 11
61.9388486736
 21
71.1489374773
  0
LINE
  5
57C
100
AcDbEntity
  8
3_AXES_OTHER
100
AcDbLine
 62
7
  6
CONTINUOUS
 10
62.3191058344
 20
71.4256981031
 11
61.3307023944
 21
67.7369262468
  0
LINE
  5
57D
100
AcDbEntity
  8
3_AXES_OTHER
100
AcDbLine
 62
7
  6
CONTINUOUS
 10
62.6079063488
 20
77.5232883067
 11
50.8316105936
 21
80.6787372442
  0
LINE
  5
57E
100
AcDbEntity
  8
3_ALL_AXES
100
AcDbLine
 62
7
  6
CONTINUOUS
 10
58.6778611343
 20
78.8738807528
 11
57.9934206387
 21
79.0572760308
  0
LINE
  5
57F
100
AcDbEntity
  8
3_AXES_OTHER
100
AcDbLine
 62
7
  6
CONTINUOUS
 10
79.5032559642
 20
18.5597508449
 11
64.291825629
 21
22.635641319
  0
LINE
  5
580
100
AcDbEntity
  8
3_AXES_OTHER
100
AcDbLine
 62
7
  6
CONTINUOUS
 10
79.9873482625
 20
20.3664078977
 11
64.7759179273
 21
24.4422983717
  0
LINE
  5
581
100
AcDbEntity
  8
3_ALL_AXES
100
AcDbLine
 62
7
  6
CONTINUOUS
 10
66.9428228866
 20
33.6397321895
 11
67.1262024703
 21
34.324114113
  0
LINE
  5
582
100
AcDbEntity
  8
3_AXES_OTHER
100
AcDbLine
 62
7
  6
CONTINUOUS
 10
64.291825629
 20
22.635641319
 11
69.8946011799
 21
43.5454843382
  0
LINE
  5
583
100
AcDbEntity
  8
3_ALL_AXES
100
AcDbLine
 62
7
  6
CONTINUOUS
 10
71.7623447119
 20
42.6060543211
 11
71.8071964649
 21
42.773443342
  0
LINE
  5
584
100
AcDbEntity
  8
3_AXES_OTHER
100
AcDbLine
 62
7
  6
CONTINUOUS
 10
74.6448349751
 20
40.5784472389
 11
72.0775374965
 21
34.6022716
  0
LINE
  5
585
100
AcDbEntity
  8
3_AXES_OTHER
100
AcDbLine
 62
7
  6
CONTINUOUS
 10
75.0867342217
 20
40.4600406927
 11
72.5194367431
 21
34.4838650537
  0
LINE
  5
586
100
AcDbEntity
  8
3_ALL_AXES
100
AcDbLine
 62
7
  6
CONTINUOUS
 10
74.6525164756
 20
41.831635131
 11
74.6973682286
 21
41.999024152
  0
LINE
  5
587
100
AcDbEntity
  8
3_AXES_OTHER
100
AcDbLine
 62
7
  6
CONTINUOUS
 10
74.937583411
 20
41.3743763838
 11
75.1666295204
 21
42.2291881016
  0
LINE
  5
588
100
AcDbEntity
  8
3_AXES_OTHER
100
AcDbLine
 62
7
  6
CONTINUOUS
 10
73.5663562406
 20
34.2033438198
 11
75.2323764718
 21
40.4210159693
  0
LINE
  5
589
100
AcDbEntity
  8
3_AXES_OTHER
100
AcDbLine
 62
7
  6
CONTINUOUS
 10
75.6499859433
 20
41.4471556728
 11
75.7770997353
 21
41.9215508029
  0
LINE
  5
58A
100
AcDbEntity
  8
3_ALL_AXES
100
AcDbLine
 62
7
  6
CENTER
 10
75.562911724
 20
39.589638656
 11
75.3799042417
 21
38.906645434
  0
LINE
  5
58B
100
AcDbEntity
  8
3_ALL_AXES
100
AcDbLine
 62
7
  6
CENTER
 10
74.2688164985
 20
34.7600095246
 11
74.0858090162
 21
34.0770163025
  0
LINE
  5
58C
100
AcDbEntity
  8
3_ALL_AXES
100
AcDbLine
 62
7
  6
CENTER
 10
72.9747212729
 20
29.9303803931
 11
72.7917137907
 21
29.2473871711
  0
LINE
  5
58D
100
AcDbEntity
  8
3_ALL_AXES
100
AcDbLine
 62
7
  6
CENTER
 10
72.9747212729
 20
29.9303803931
 11
74.041315895
 21
33.9109657137
  0
LINE
  5
58E
100
AcDbEntity
  8
3_ALL_AXES
100
AcDbLine
 62
7
  6
CENTER
 10
74.2688164985
 20
34.7600095246
 11
75.3522786308
 21
38.8035452506
  0
LINE
  5
58F
100
AcDbEntity
  8
3_ALL_AXES
100
AcDbLine
 62
7
  6
CENTER
 10
75.562911724
 20
39.589638656
 11
75.7459192063
 21
40.2726318781
  0
LINE
  5
590
100
AcDbEntity
  8
3_ALL_AXES
100
AcDbLine
 62
7
  6
CENTER
 10
75.6310172952
 20
29.2186280191
 11
74.9480240732
 21
29.4016355014
  0
LINE
  5
591
100
AcDbEntity
  8
3_ALL_AXES
100
AcDbLine
 62
7
  6
CENTER
 10
72.9747212729
 20
29.9303803931
 11
72.2917280509
 21
30.1133878754
  0
LINE
  5
592
100
AcDbEntity
  8
3_ALL_AXES
100
AcDbLine
 62
7
  6
CENTER
 10
72.9747212729
 20
29.9303803931
 11
74.7863357174
 21
29.4449597657
  0
LINE
  5
593
100
AcDbEntity
  8
3_ALL_AXES
100
AcDbLine
 62
7
  6
CENTER
 10
75.6310172952
 20
29.2186280191
 11
81.3171944269
 21
27.6950214486
  0
LINE
  5
594
100
AcDbEntity
  8
3_ALL_AXES
100
AcDbLine
 62
7
  6
CONTINUOUS
 10
82.7094526853
 20
29.4150054924
 11
82.4318440817
 21
29.4893904935
  0
LINE
  5
595
100
AcDbEntity
  8
3_ALL_AXES
100
AcDbLine
 62
7
  6
CONTINUOUS
 10
67.2204137464
 20
33.5652809676
 11
66.9428051428
 21
33.6396659687
  0
LINE
  5
596
100
AcDbEntity
  8
3_ALL_AXES
100
AcDbLine
 62
7
  6
CONTINUOUS
 10
82.8928677566
 20
30.0995198575
 11
82.615259153
 21
30.1739048586
  0
LINE
  5
597
100
AcDbEntity
  8
3_ALL_AXES
100
AcDbLine
 62
7
  6
CONTINUOUS
 10
67.4038288177
 20
34.2497953327
 11
67.1262202141
 21
34.3241803338
  0
LINE
  5
598
100
AcDbEntity
  8
3_ALL_AXES
100
AcDbLine
 62
7
  6
CENTER
 10
78.2192077463
 20
38.877886282
 11
78.036200264
 21
38.1948930599
  0
LINE
  5
599
100
AcDbEntity
  8
3_ALL_AXES
100
AcDbLine
 62
7
  6
CENTER
 10
76.9251125208
 20
34.0482571505
 11
76.7421050385
 21
33.3652639285
  0
LINE
  5
59A
100
AcDbEntity
  8
3_ALL_AXES
100
AcDbLine
 62
7
  6
CENTER
 10
75.6310172952
 20
29.2186280191
 11
75.448009813
 21
28.535634797
  0
LINE
  5
59B
100
AcDbEntity
  8
3_ALL_AXES
100
AcDbLine
 62
7
  6
CENTER
 10
75.6310172952
 20
29.2186280191
 11
76.7061498457
 21
33.2310773224
  0
LINE
  5
59C
100
AcDbEntity
  8
3_ALL_AXES
100
AcDbLine
 62
7
  6
CENTER
 10
76.9251125208
 20
34.0482571505
 11
78.0081401743
 21
38.0901713797
  0
LINE
  5
59D
100
AcDbEntity
  8
3_ALL_AXES
100
AcDbLine
 62
7
  6
CENTER
 10
78.2192077463
 20
38.877886282
 11
78.4022152286
 21
39.560879504
  0
LINE
  5
59E
100
AcDbEntity
  8
3_AXES_OTHER
100
AcDbLine
 62
7
  6
CONTINUOUS
 10
79.1996715607
 20
41.0044754462
 11
79.0725577687
 21
40.5300803161
  0
LINE
  5
59F
100
AcDbEntity
  8
3_AXES_OTHER
100
AcDbLine
 62
7
  6
CONTINUOUS
 10
77.2551280969
 20
33.2149403799
 11
78.9211483281
 21
39.4326125294
  0
LINE
  5
5A0
100
AcDbEntity
  8
3_AXES_OTHER
100
AcDbLine
 62
7
  6
CONTINUOUS
 10
78.3020475944
 20
32.934419146
 11
79.0667905783
 21
39.3935878061
  0
LINE
  5
5A1
100
AcDbEntity
  8
3_AXES_OTHER
100
AcDbLine
 62
7
  6
CONTINUOUS
 10
79.6531268149
 20
40.1108503368
 11
79.8821729244
 21
40.9656620546
  0
LINE
  5
5A2
100
AcDbEntity
  8
3_ALL_AXES
100
AcDbLine
 62
7
  6
CONTINUOUS
 10
80.1286313963
 20
40.3643145603
 11
80.1734831493
 21
40.5317035813
  0
LINE
  5
5A3
100
AcDbEntity
  8
3_AXES_OTHER
100
AcDbLine
 62
7
  6
CONTINUOUS
 10
72.0775374965
 20
34.6022716
 11
78.7439468409
 21
32.8160125997
  0
LINE
  5
5A4
100
AcDbEntity
  8
3_AXES_OTHER
100
AcDbLine
 62
7
  6
CONTINUOUS
 10
78.7439468409
 20
32.8160125997
 11
79.5086898248
 21
39.2751812598
  0
LINE
  5
5A5
100
AcDbEntity
  8
3_ALL_AXES
100
AcDbLine
 62
7
  6
CENTER
 10
76.9251125208
 20
34.0482571505
 11
76.2421192987
 21
34.2312646328
  0
LINE
  5
5A6
100
AcDbEntity
  8
3_ALL_AXES
100
AcDbLine
 62
7
  6
CENTER
 10
74.2688164985
 20
34.7600095246
 11
73.5858232764
 21
34.9430170069
  0
LINE
  5
5A7
100
AcDbEntity
  8
3_ALL_AXES
100
AcDbLine
 62
7
  6
CENTER
 10
74.2688164985
 20
34.7600095246
 11
76.1621955391
 21
34.2526801397
  0
LINE
  5
5A8
100
AcDbEntity
  8
3_ALL_AXES
100
AcDbLine
 62
7
  6
CENTER
 10
76.9251125208
 20
34.0482571505
 11
82.5779497946
 21
32.5335839681
  0
LINE
  5
5A9
100
AcDbEntity
  8
3_ALL_AXES
100
AcDbLine
 62
7
  6
CONTINUOUS
 10
83.01880316
 20
39.5898953703
 11
83.063654913
 21
39.7572843912
  0
LINE
  5
5AA
100
AcDbEntity
  8
3_AXES_OTHER
100
AcDbLine
 62
7
  6
CONTINUOUS
 10
79.5032559642
 20
18.5597508449
 11
85.1060315151
 21
39.4695938642
  0
LINE
  5
5AB
100
AcDbEntity
  8
3_ALL_AXES
100
AcDbLine
 62
7
  6
CONTINUOUS
 10
82.7094704291
 20
29.4150717132
 11
82.8928500128
 21
30.0994536367
  0
LINE
  5
5AC
100
AcDbEntity
  8
3_ALL_AXES
100
AcDbLine
 62
7
  6
CENTER
 10
78.2192077463
 20
38.877886282
 11
77.5362145242
 21
39.0608937643
  0
LINE
  5
5AD
100
AcDbEntity
  8
3_ALL_AXES
100
AcDbLine
 62
7
  6
CENTER
 10
75.562911724
 20
39.589638656
 11
69.8462565661
 21
41.121411789
  0
LINE
  5
5AE
100
AcDbEntity
  8
3_ALL_AXES
100
AcDbLine
 62
7
  6
CENTER
 10
75.562911724
 20
39.589638656
 11
77.4288125802
 21
39.0896720285
  0
LINE
  5
5AF
100
AcDbEntity
  8
3_ALL_AXES
100
AcDbLine
 62
7
  6
CENTER
 10
78.2192077463
 20
38.877886282
 11
83.8563405519
 21
37.3674210991
  0
LINE
  5
5B0
100
AcDbEntity
  8
3_AXES_OTHER
100
AcDbLine
 62
7
  6
CONTINUOUS
 10
75.216888088
 20
40.3632125341
 11
78.9056599443
 21
39.3748090941
  0
LINE
  5
5B1
100
AcDbEntity
  8
3_AXES_OTHER
100
AcDbLine
 62
7
  6
CONTINUOUS
 10
79.5086898248
 20
39.2751812598
 11
74.6448349751
 21
40.5784472389
  0
LINE
  5
5B2
100
AcDbEntity
  8
3_AXES_OTHER
100
AcDbLine
 62
7
  6
CONTINUOUS
 10
84.8867043035
 20
38.651053567
 11
69.6752739682
 21
42.726944041
  0
LINE
  5
5B3
100
AcDbEntity
  8
3_AXES_OTHER
100
AcDbLine
 62
7
  6
CONTINUOUS
 10
74.937583411
 20
41.3743763838
 11
79.6531268149
 21
40.1108503368
  0
LINE
  5
5B4
100
AcDbEntity
  8
3_AXES_OTHER
100
AcDbLine
 62
7
  6
CONTINUOUS
 10
74.9674845796
 20
41.4859690644
 11
79.6830279836
 21
40.2224430175
  0
LINE
  5
5B5
100
AcDbEntity
  8
3_AXES_OTHER
100
AcDbLine
 62
7
  6
CONTINUOUS
 10
79.0725577687
 20
40.5300803161
 11
75.6499859433
 21
41.4471556728
  0
LINE
  5
5B6
100
AcDbEntity
  8
3_AXES_OTHER
100
AcDbLine
 62
7
  6
CONTINUOUS
 10
75.7471985666
 20
41.8099581223
 11
79.1697703921
 21
40.8928827656
  0
LINE
  5
5B7
100
AcDbEntity
  8
3_AXES_OTHER
100
AcDbLine
 62
7
  6
CONTINUOUS
 10
75.7770997353
 20
41.9215508029
 11
79.1996715607
 21
41.0044754462
  0
LINE
  5
5B8
100
AcDbEntity
  8
3_AXES_OTHER
100
AcDbLine
 62
7
  6
CONTINUOUS
 10
85.1060315151
 20
39.4695938642
 11
82.5287778411
 21
40.1601669048
  0
LINE
  5
5B9
100
AcDbEntity
  8
3_AXES_OTHER
100
AcDbLine
 62
7
  6
CONTINUOUS
 10
80.8381415383
 20
40.6131715369
 11
79.8580880495
 21
40.8757760777
  0
LINE
  5
5BA
100
AcDbEntity
  8
3_AXES_OTHER
100
AcDbLine
 62
7
  6
CONTINUOUS
 10
75.1425446455
 20
42.1393021247
 11
74.1624911567
 21
42.4019066656
  0
LINE
  5
5BB
100
AcDbEntity
  8
3_AXES_OTHER
100
AcDbLine
 62
7
  6
CONTINUOUS
 10
72.4718548539
 20
42.8549112976
 11
69.8946011799
 21
43.5454843382
  0
LINE
  5
5BC
100
AcDbEntity
  8
3_AXES_OTHER
100
AcDbLine
 62
7
  6
CONTINUOUS
 10
79.8821729244
 20
40.9656620546
 11
75.1666295204
 21
42.2291881016
  0
CIRCLE
  5
5BD
100
AcDbEntity
  8
0
100
AcDbCircle
 62
7
  6
CONTINUOUS
 10
47.0562598919
 20
39.168053363
 40
0.7482987593
  0
CIRCLE
  5
5BE
100
AcDbEntity
  8
0
100
AcDbCircle
 62
7
  6
CONTINUOUS
 10
47.6724409943
 20
39.1699746228
 40
0.4986802013
  0
CIRCLE
  5
5BF
100
AcDbEntity
  8
3_AXES_OTHER
100
AcDbCircle
 62
7
  6
CONTINUOUS
 10
19.9889503817
 20
38.5794234417
 40
6.1417322835
  0
CIRCLE
  5
5C0
100
AcDbEntity
  8
3_AXES_OTHER
100
AcDbCircle
 62
7
  6
CONTINUOUS
 10
19.9889503817
 20
38.5794234417
 40
1.968503937
  0
CIRCLE
  5
5C1
100
AcDbEntity
  8
3_ALL_AXES
100
AcDbCircle
 62
7
  6
CONTINUOUS
 10
47.6724409943
 20
39.1699746228
 40
0.3543307087
  0
ARC
  5
5C2
100
AcDbEntity
  8
3_ALL_AXES
100
AcDbCircle
 62
7
  6
CONTINUOUS
 10
114.2755407205
 20
68.1794437207
 40
0.2618135238
100
AcDbArc
 50
55.0310192831
 51
56.9779594795
  0
ARC
  5
5C3
100
AcDbEntity
  8
3_ALL_AXES
100
AcDbCircle
 62
7
  6
CONTINUOUS
 10
114.2864602614
 20
68.1963754134
 40
0.2416662398
100
AcDbArc
 50
56.961004624
 51
60.1425150101
  0
ARC
  5
5C4
100
AcDbEntity
  8
3_ALL_AXES
100
AcDbCircle
 62
7
  6
CONTINUOUS
 10
112.5758008159
 20
68.8283680452
 40
0.1447558475
100
AcDbArc
 50
116.3277304388
 51
120.2757211155
  0
ARC
  5
5C5
100
AcDbEntity
  8
3_ALL_AXES
100
AcDbCircle
 62
7
  6
CONTINUOUS
 10
113.6728530851
 20
68.3802697161
 40
0.1447558475
100
AcDbArc
 50
116.3277304391
 51
120.2757211155
  0
ARC
  5
5C6
100
AcDbEntity
  8
3_ALL_AXES
100
AcDbCircle
 62
7
  6
CONTINUOUS
 10
112.668675474
 20
68.8788716158
 40
0.0770049507
100
AcDbArc
 50
109.6162920309
 51
120.2872459658
  0
ARC
  5
5C7
100
AcDbEntity
  8
3_ALL_AXES
100
AcDbCircle
 62
7
  6
CONTINUOUS
 10
112.6619777418
 20
68.9750970168
 40
0.0276775013
100
AcDbArc
 50
357.4442083662
 51
8.2459850322
  0
ARC
  5
5C8
100
AcDbEntity
  8
3_ALL_AXES
100
AcDbCircle
 62
7
  6
CONTINUOUS
 10
112.4104340959
 20
68.903820487
 40
0.027672332
100
AcDbArc
 50
177.5668007491
 51
188.2466225155
  0
CIRCLE
  5
5C9
100
AcDbEntity
  8
3_ALL_AXES
100
AcDbCircle
 62
7
  6
CONTINUOUS
 10
107.9903148505
 20
35.5777785922
 40
1.4960629921
  0
CIRCLE
  5
5CA
100
AcDbEntity
  8
3_ALL_AXES
100
AcDbCircle
 62
7
  6
CONTINUOUS
 10
116.6517321733
 20
35.5777785922
 40
1.4960629921
  0
ARC
  5
5CB
100
AcDbEntity
  8
3_ALL_AXES
100
AcDbCircle
 62
7
  6
CONTINUOUS
 10
118.301540477
 20
30.8003881279
 40
1.1848373685
100
AcDbArc
 50
0.0040189903
 51
3.8541152187
  0
ARC
  5
5CC
100
AcDbEntity
  8
3_ALL_AXES
100
AcDbCircle
 62
7
  6
CONTINUOUS
 10
117.679089224
 20
30.8003881279
 40
1.1848373686
100
AcDbArc
 50
176.1458847813
 51
179.9959810096
  0
ARC
  5
5CD
100
AcDbEntity
  8
3_ALL_AXES
100
AcDbCircle
 62
7
  6
CONTINUOUS
 10
106.9629577998
 20
30.8003881279
 40
1.1848373685
100
AcDbArc
 50
0.0040189903
 51
3.8541152187
  0
ARC
  5
5CE
100
AcDbEntity
  8
3_ALL_AXES
100
AcDbCircle
 62
7
  6
CONTINUOUS
 10
106.3405065468
 20
30.8003881279
 40
1.1848373686
100
AcDbArc
 50
176.1458847813
 51
179.9959810096
  0
CIRCLE
  5
5CF
100
AcDbEntity
  8
3_ALL_AXES
100
AcDbCircle
 62
7
  6
CONTINUOUS
 10
107.9903148505
 20
35.5777785922
 40
0.9842519685
  0
CIRCLE
  5
5D0
100
AcDbEntity
  8
3_ALL_AXES
100
AcDbCircle
 62
7
  6
CONTINUOUS
 10
116.6517321733
 20
35.5777785922
 40
0.9842519685
  0
ARC
  5
5D1
100
AcDbEntity
  8
3_ALL_AXES
100
AcDbCircle
 62
7
  6
CONTINUOUS
 10
111.3250842351
 20
38.6383945803
 40
0.1396624724
100
AcDbArc
 50
337.1490333073
 51
354.8423811958
  0
ARC
  5
5D2
100
AcDbEntity
  8
3_ALL_AXES
100
AcDbCircle
 62
7
  6
CONTINUOUS
 10
111.3169627887
 20
38.6383945803
 40
0.1396624724
100
AcDbArc
 50
185.1576188042
 51
202.8509666926
  0
ARC
  5
5D3
100
AcDbEntity
  8
3_ALL_AXES
100
AcDbCircle
 62
7
  6
CONTINUOUS
 10
113.3169627887
 20
38.6383945803
 40
0.1396624724
100
AcDbArc
 50
185.1576188042
 51
202.8509666926
  0
ARC
  5
5D4
100
AcDbEntity
  8
3_ALL_AXES
100
AcDbCircle
 62
7
  6
CONTINUOUS
 10
113.3250842351
 20
38.6383945803
 40
0.1396624724
100
AcDbArc
 50
337.1490333074
 51
354.8423811958
  0
ARC
  5
5D5
100
AcDbEntity
  8
3_ALL_AXES
100
AcDbCircle
 62
7
  6
CONTINUOUS
 10
111.3132527898
 20
38.7598768703
 40
0.1359300685
100
AcDbArc
 50
174.8766918451
 51
179.9877401142
  0
ARC
  5
5D6
100
AcDbEntity
  8
3_ALL_AXES
100
AcDbCircle
 62
7
  6
CONTINUOUS
 10
113.3287942339
 20
38.7598768703
 40
0.1359300685
100
AcDbArc
 50
0.0122598858
 51
5.1233081549
  0
ARC
  5
5D7
100
AcDbEntity
  8
3_ALL_AXES
100
AcDbCircle
 62
7
  6
CONTINUOUS
 10
52.3967759854
 20
66.1269116333
 40
1.3884805139
100
AcDbArc
 50
255.0009724543
 51
256.8737750255
  0
ARC
  5
5D8
100
AcDbEntity
  8
3_ALL_AXES
100
AcDbCircle
 62
7
  6
CONTINUOUS
 10
52.4524647741
 20
66.334745022
 40
1.3884805139
100
AcDbArc
 50
73.1262249745
 51
74.9990275457
  0
ARC
  5
5D9
100
AcDbEntity
  8
3_ALL_AXES
100
AcDbCircle
 62
7
  6
CONTINUOUS
 10
55.3314171267
 20
77.0791414747
 40
1.3884805139
100
AcDbArc
 50
255.0009724543
 51
256.8737750255
  0
ARC
  5
5DA
100
AcDbEntity
  8
3_ALL_AXES
100
AcDbCircle
 62
7
  6
CONTINUOUS
 10
55.3871059154
 20
77.2869748634
 40
1.3884805139
100
AcDbArc
 50
73.1262249745
 51
74.9990275457
  0
ARC
  5
5DB
100
AcDbEntity
  8
3_ALL_AXES
100
AcDbCircle
 62
7
  6
CONTINUOUS
 10
61.2804904648
 20
68.6919111924
 40
0.1437007874
100
AcDbArc
 50
255.0
 51
75.0
  0
ARC
  5
5DC
100
AcDbEntity
  8
3_ALL_AXES
100
AcDbCircle
 62
7
  6
CONTINUOUS
 10
61.1477707351
 20
68.7274733367
 40
0.1437007874
100
AcDbArc
 50
75.0
 51
255.0
  0
ARC
  5
5DD
100
AcDbEntity
  8
3_ALL_AXES
100
AcDbCircle
 62
7
  6
CONTINUOUS
 10
61.798128555
 20
70.6237628449
 40
0.1437007874
100
AcDbArc
 50
255.0
 51
75.0
  0
ARC
  5
5DE
100
AcDbEntity
  8
3_ALL_AXES
100
AcDbCircle
 62
7
  6
CONTINUOUS
 10
61.6654088253
 20
70.6593249893
 40
0.1437007874
100
AcDbArc
 50
75.0
 51
255.0
  0
CIRCLE
  5
5DF
100
AcDbEntity
  8
3_ALL_AXES
100
AcDbCircle
 62
7
  6
CONTINUOUS
 10
72.9747212729
 20
29.9303803931
 40
0.3070866142
  0
CIRCLE
  5
5E0
100
AcDbEntity
  8
3_ALL_AXES
100
AcDbCircle
 62
7
  6
CONTINUOUS
 10
75.6310172952
 20
29.2186280191
 40
0.3070866142
  0
CIRCLE
  5
5E1
100
AcDbEntity
  8
3_ALL_AXES
100
AcDbCircle
 62
7
  6
CONTINUOUS
 10
76.9251125208
 20
34.0482571505
 40
0.3070866142
  0
CIRCLE
  5
5E2
100
AcDbEntity
  8
3_ALL_AXES
100
AcDbCircle
 62
7
  6
CONTINUOUS
 10
78.2192077463
 20
38.877886282
 40
0.3070866142
  0
CIRCLE
  5
5E3
100
AcDbEntity
  8
3_ALL_AXES
100
AcDbCircle
 62
7
  6
CONTINUOUS
 10
75.562911724
 20
39.589638656
 40
0.3070866142
  0
CIRCLE
  5
5E4
100
AcDbEntity
  8
3_ALL_AXES
100
AcDbCircle
 62
7
  6
CONTINUOUS
 10
74.2688164985
 20
34.7600095246
 40
0.3070866142
  0
SPLINE
  5
5E5
100
AcDbEntity
  8
3_ALL_AXES
100
AcDbSpline
 62
7
  6
CONTINUOUS
 70
0
 71
3
 72
11
 73
7
 74
0
 42
0.0000001
 43
0.0000001
 44
0.0000000001
 40
0.0
 40
0.0
 40
0.0
 40
0.0
 40
0.1829857185
 40
0.3728094672
 40
0.5939580225
 40
1.0
 40
1.0
 40
1.0
 40
1.0
 10
113.6535320008
 20
62.0471244953
 30
0.0
 10
113.6267734411
 20
62.0314251792
 30
0.0
 10
113.5982119384
 20
61.9635169862
 30
0.0
 10
113.6134836636
 20
61.8634562396
 30
0.0
 10
113.6673686624
 20
61.7357360163
 30
0.0
 10
113.744928903
 20
61.6490593772
 30
0.0
 10
113.8086592914
 20
61.6230282743
 30
0.0
  0
SPLINE
  5
5E6
100
AcDbEntity
  8
3_ALL_AXES
100
AcDbSpline
 62
7
  6
CONTINUOUS
 70
0
 71
3
 72
11
 73
7
 74
0
 42
0.0000001
 43
0.0000001
 44
0.0000000001
 40
0.0
 40
0.0
 40
0.0
 40
0.0
 40
0.1829857185
 40
0.3728094672
 40
0.5939580225
 40
1.0
 40
1.0
 40
1.0
 40
1.0
 10
115.1619788709
 20
61.4309892928
 30
0.0
 10
115.1352203112
 20
61.4152899767
 30
0.0
 10
115.1066588086
 20
61.3473817837
 30
0.0
 10
115.1219305337
 20
61.2473210372
 30
0.0
 10
115.1758155325
 20
61.1196008138
 30
0.0
 10
115.2533757731
 20
61.0329241748
 30
0.0
 10
115.3171061616
 20
61.0068930718
 30
0.0
  0
SPLINE
  5
5E7
100
AcDbEntity
  8
3_ALL_AXES
100
AcDbSpline
 62
7
  6
CONTINUOUS
 70
0
 71
3
 72
9
 73
5
 74
0
 42
0.0000001
 43
0.0000001
 44
0.0000000001
 40
0.0
 40
0.0
 40
0.0
 40
0.0
 40
0.4318754643
 40
1.0
 40
1.0
 40
1.0
 40
1.0
 10
114.6423074633
 20
64.8755246319
 30
0.0
 10
114.6228533632
 20
64.8641481202
 30
0.0
 10
114.5918716888
 20
64.8154033283
 30
0.0
 10
114.5935964828
 20
64.7616036275
 30
0.0
 10
114.5978775898
 20
64.7322681978
 30
0.0
  0
SPLINE
  5
5E8
100
AcDbEntity
  8
3_ALL_AXES
100
AcDbSpline
 62
7
  6
CONTINUOUS
 70
0
 71
3
 72
8
 73
4
 74
0
 42
0.0000001
 43
0.0000001
 44
0.0000000001
 40
0.0
 40
0.0
 40
0.0
 40
0.0
 40
1.0
 40
1.0
 40
1.0
 40
1.0
 10
114.0910545863
 20
68.2217954693
 30
0.0
 10
114.0911263742
 20
68.2098188513
 30
0.0
 10
114.092126611
 20
68.1978256544
 30
0.0
 10
114.0938561466
 20
68.1859743575
 30
0.0
  0
SPLINE
  5
5E9
100
AcDbEntity
  8
3_ALL_AXES
100
AcDbSpline
 62
7
  6
CONTINUOUS
 70
0
 71
3
 72
8
 73
4
 74
0
 42
0.0000001
 43
0.0000001
 44
0.0000000001
 40
0.0
 40
0.0
 40
0.0
 40
0.0
 40
1.0
 40
1.0
 40
1.0
 40
1.0
 10
112.6298391499
 20
68.9453659942
 30
0.0
 10
112.6200801178
 20
68.9396590356
 30
0.0
 10
112.6114988096
 20
68.9315531514
 30
0.0
 10
112.6049200213
 20
68.9223592606
 30
0.0
  0
SPLINE
  5
5EA
100
AcDbEntity
  8
3_ALL_AXES
100
AcDbSpline
 62
7
  6
CONTINUOUS
 70
0
 71
3
 72
8
 73
4
 74
0
 42
0.0000001
 43
0.0000001
 44
0.0000000001
 40
0.0
 40
0.0
 40
0.0
 40
0.0
 40
1.0
 40
1.0
 40
1.0
 40
1.0
 10
112.6049200213
 20
68.9223592606
 30
0.0
 10
112.5995292601
 20
68.9148256438
 30
0.0
 10
112.595272931
 20
68.9064145427
 30
0.0
 10
112.5920388303
 20
68.8977337431
 30
0.0
  0
SPLINE
  5
5EB
100
AcDbEntity
  8
3_ALL_AXES
100
AcDbSpline
 62
7
  6
CONTINUOUS
 70
0
 71
3
 72
11
 73
7
 74
0
 42
0.0000001
 43
0.0000001
 44
0.0000000001
 40
0.0
 40
0.0
 40
0.0
 40
0.0
 40
0.2821148878
 40
0.5603595682
 40
0.8011222137
 40
1.0
 40
1.0
 40
1.0
 40
1.0
 10
121.7250196777
 20
63.0009514062
 30
0.0
 10
121.7218501298
 20
62.954156079
 30
0.0
 10
121.697533015
 20
62.8618531209
 30
0.0
 10
121.6229938479
 20
62.748931043
 30
0.0
 10
121.5227753571
 20
62.6765803182
 30
0.0
 10
121.442771608
 20
62.6745240289
 30
0.0
 10
121.4121693766
 20
62.6870435333
 30
0.0
  0
SPLINE
  5
5EC
100
AcDbEntity
  8
3_ALL_AXES
100
AcDbSpline
 62
7
  6
CONTINUOUS
 70
0
 71
3
 72
10
 73
6
 74
0
 42
0.0000001
 43
0.0000001
 44
0.0000000001
 40
0.0
 40
0.0
 40
0.0
 40
0.0
 40
0.344625323
 40
0.6235632984
 40
1.0
 40
1.0
 40
1.0
 40
1.0
 10
119.7709036222
 20
71.1303068511
 30
0.0
 10
119.7184608427
 20
71.1171565991
 30
0.0
 10
119.6239485908
 20
71.0874957211
 30
0.0
 10
119.4849013131
 20
71.0222823179
 30
0.0
 10
119.4014128041
 20
70.934907473
 30
0.0
 10
119.3974249585
 20
70.8759851659
 30
0.0
  0
SPLINE
  5
5ED
100
AcDbEntity
  8
3_ALL_AXES
100
AcDbSpline
 62
7
  6
CONTINUOUS
 70
0
 71
3
 72
10
 73
6
 74
0
 42
0.0000001
 43
0.0000001
 44
0.0000000001
 40
0.0
 40
0.0
 40
0.0
 40
0.0
 40
0.344625323
 40
0.6235632984
 40
1.0
 40
1.0
 40
1.0
 40
1.0
 10
113.5513946946
 20
73.6707068269
 30
0.0
 10
113.4989519151
 20
73.6575565749
 30
0.0
 10
113.4044396631
 20
73.6278956969
 30
0.0
 10
113.2653923854
 20
73.5626822938
 30
0.0
 10
113.1819038764
 20
73.4753074488
 30
0.0
 10
113.1779160309
 20
73.4163851417
 30
0.0
  0
SPLINE
  5
5EE
100
AcDbEntity
  8
3_ALL_AXES
100
AcDbSpline
 62
7
  6
CONTINUOUS
 70
0
 71
3
 72
10
 73
6
 74
0
 42
0.0000001
 43
0.0000001
 44
0.0000000001
 40
0.0
 40
0.0
 40
0.0
 40
0.0
 40
0.3436648703
 40
0.6222229459
 40
1.0
 40
1.0
 40
1.0
 40
1.0
 10
120.0205735085
 20
70.6519445767
 30
0.0
 10
119.9884369042
 20
70.6650709874
 30
0.0
 10
119.9310516189
 20
70.6925400883
 30
0.0
 10
119.8483428716
 20
70.7469137166
 30
0.0
 10
119.8033554334
 20
70.8102688785
 30
0.0
 10
119.8059329871
 20
70.848341474
 30
0.0
  0
SPLINE
  5
5EF
100
AcDbEntity
  8
3_ALL_AXES
100
AcDbSpline
 62
7
  6
CONTINUOUS
 70
0
 71
3
 72
10
 73
6
 74
0
 42
0.0000001
 43
0.0000001
 44
0.0000000001
 40
0.0
 40
0.0
 40
0.0
 40
0.0
 40
0.3436648703
 40
0.6222229459
 40
1.0
 40
1.0
 40
1.0
 40
1.0
 10
113.8010645808
 20
73.1923445525
 30
0.0
 10
113.7689279766
 20
73.2054709632
 30
0.0
 10
113.7115426913
 20
73.2329400641
 30
0.0
 10
113.6288339439
 20
73.2873136924
 30
0.0
 10
113.5838465058
 20
73.3506688543
 30
0.0
 10
113.5864240594
 20
73.3887414498
 30
0.0
  0
SPLINE
  5
5F0
100
AcDbEntity
  8
3_ALL_AXES
100
AcDbSpline
 62
7
  6
CONTINUOUS
 70
0
 71
3
 72
14
 73
10
 74
0
 42
0.0000001
 43
0.0000001
 44
0.0000000001
 40
0.0
 40
0.0
 40
0.0
 40
0.0
 40
0.1189473996
 40
0.2548298702
 40
0.5463530038
 40
0.6846398808
 40
0.8069037039
 40
0.9103187475
 40
1.0
 40
1.0
 40
1.0
 40
1.0
 10
117.7860417244
 20
70.3784904671
 30
0.0
 10
117.6913104338
 20
70.4171840956
 30
0.0
 10
117.4729155984
 20
70.4629161795
 30
0.0
 10
117.000892711
 20
70.4448017634
 30
0.0
 10
116.526691785
 20
70.2822698972
 30
0.0
 10
116.1365946929
 20
70.0067756214
 30
0.0
 10
115.9271645389
 20
69.7691025527
 30
0.0
 10
115.8158446049
 20
69.5147100711
 30
0.0
 10
115.825714393
 20
69.3401124894
 30
0.0
 10
115.8518167145
 20
69.2675105168
 30
0.0
  0
SPLINE
  5
5F1
100
AcDbEntity
  8
3_ALL_AXES
100
AcDbSpline
 62
7
  6
CONTINUOUS
 70
0
 71
3
 72
14
 73
10
 74
0
 42
0.0000001
 43
0.0000001
 44
0.0000000001
 40
0.0
 40
0.0
 40
0.0
 40
0.0
 40
0.1189473996
 40
0.2548298702
 40
0.5463530038
 40
0.6846398808
 40
0.8069037039
 40
0.9103187475
 40
1.0
 40
1.0
 40
1.0
 40
1.0
 10
113.0350279602
 20
72.3190737819
 30
0.0
 10
112.9402966696
 20
72.3577674105
 30
0.0
 10
112.7219018342
 20
72.4034994944
 30
0.0
 10
112.2498789468
 20
72.3853850783
 30
0.0
 10
111.7756780208
 20
72.222853212
 30
0.0
 10
111.3855809287
 20
71.9473589362
 30
0.0
 10
111.1761507748
 20
71.7096858676
 30
0.0
 10
111.0648308407
 20
71.4552933859
 30
0.0
 10
111.0747006289
 20
71.2806958043
 30
0.0
 10
111.1008029503
 20
71.2080938317
 30
0.0
  0
SPLINE
  5
5F2
100
AcDbEntity
  8
3_ALL_AXES
100
AcDbSpline
 62
7
  6
CONTINUOUS
 70
0
 71
3
 72
9
 73
5
 74
0
 42
0.0000001
 43
0.0000001
 44
0.0000000001
 40
0.0
 40
0.0
 40
0.0
 40
0.0
 40
0.5308465958
 40
1.0
 40
1.0
 40
1.0
 40
1.0
 10
116.4465316629
 20
69.2078957432
 30
0.0
 10
116.3982535504
 20
69.2276152608
 30
0.0
 10
116.3111178615
 20
69.2781727029
 30
0.0
 10
116.2527813605
 20
69.3624978974
 30
0.0
 10
116.237179221
 20
69.4058661731
 30
0.0
  0
SPLINE
  5
5F3
100
AcDbEntity
  8
3_ALL_AXES
100
AcDbSpline
 62
7
  6
CONTINUOUS
 70
0
 71
3
 72
9
 73
5
 74
0
 42
0.0000001
 43
0.0000001
 44
0.0000000001
 40
0.0
 40
0.0
 40
0.0
 40
0.0
 40
0.5308465958
 40
1.0
 40
1.0
 40
1.0
 40
1.0
 10
111.6955178987
 20
71.148479058
 30
0.0
 10
111.6472397862
 20
71.1681985756
 30
0.0
 10
111.5601040973
 20
71.2187560178
 30
0.0
 10
111.5017675964
 20
71.3030812122
 30
0.0
 10
111.4861654569
 20
71.3464494879
 30
0.0
  0
SPLINE
  5
5F4
100
AcDbEntity
  8
3_ALL_AXES
100
AcDbSpline
 62
7
  6
CONTINUOUS
 70
0
 71
3
 72
9
 73
5
 74
0
 42
0.0000001
 43
0.0000001
 44
0.0000000001
 40
0.0
 40
0.0
 40
0.0
 40
0.0
 40
0.4318754643
 40
1.0
 40
1.0
 40
1.0
 40
1.0
 10
113.1338605932
 20
65.4916598344
 30
0.0
 10
113.114406493
 20
65.4802833227
 30
0.0
 10
113.0834248187
 20
65.4315385308
 30
0.0
 10
113.0851496127
 20
65.37773883
 30
0.0
 10
113.0894307197
 20
65.3484034002
 30
0.0
  0
SPLINE
  5
5F5
100
AcDbEntity
  8
3_ALL_AXES
100
AcDbSpline
 62
7
  6
CONTINUOUS
 70
0
 71
3
 72
8
 73
4
 74
0
 42
0.0000001
 43
0.0000001
 44
0.0000000001
 40
0.0
 40
0.0
 40
0.0
 40
0.0
 40
1.0
 40
1.0
 40
1.0
 40
1.0
 10
113.7864213668
 20
68.5309682855
 30
0.0
 10
113.7878284366
 20
68.5212783828
 30
0.0
 10
113.7831891296
 20
68.5107462685
 30
0.0
 10
113.7770280416
 20
68.5031360744
 30
0.0
  0
SPLINE
  5
5F6
100
AcDbEntity
  8
3_ALL_AXES
100
AcDbSpline
 62
7
  6
CONTINUOUS
 70
0
 71
3
 72
8
 73
4
 74
0
 42
0.0000001
 43
0.0000001
 44
0.0000000001
 40
0.0
 40
0.0
 40
0.0
 40
0.0
 40
1.0
 40
1.0
 40
1.0
 40
1.0
 10
113.7770280416
 20
68.5031360744
 30
0.0
 10
113.7701047991
 20
68.4945844647
 30
0.0
 10
113.760983613
 20
68.4877834675
 30
0.0
 10
113.7514876207
 20
68.4822258202
 30
0.0
  0
SPLINE
  5
5F7
100
AcDbEntity
  8
3_ALL_AXES
100
AcDbSpline
 62
7
  6
CONTINUOUS
 70
0
 71
3
 72
9
 73
5
 74
0
 42
0.0000001
 43
0.0000001
 44
0.0000000001
 40
0.0
 40
0.0
 40
0.0
 40
0.0
 40
0.4899908208
 40
1.0
 40
1.0
 40
1.0
 40
1.0
 10
113.4914280348
 20
68.43246895
 30
0.0
 10
113.4920311559
 20
68.4334574257
 30
0.0
 10
113.4933355721
 20
68.4354305737
 30
0.0
 10
113.4947674998
 20
68.4373127624
 30
0.0
 10
113.495525877
 20
68.4382495122
 30
0.0
  0
SPLINE
  5
5F8
100
AcDbEntity
  8
3_ALL_AXES
100
AcDbSpline
 62
7
  6
CONTINUOUS
 70
0
 71
3
 72
8
 73
4
 74
0
 42
0.0000001
 43
0.0000001
 44
0.0000000001
 40
0.0
 40
0.0
 40
0.0
 40
0.0
 40
1.0
 40
1.0
 40
1.0
 40
1.0
 10
113.495525877
 20
68.4382495122
 30
0.0
 10
113.5024491195
 20
68.4468011218
 30
0.0
 10
113.5115703056
 20
68.4536021191
 30
0.0
 10
113.521066298
 20
68.4591597664
 30
0.0
  0
SPLINE
  5
5F9
100
AcDbEntity
  8
3_ALL_AXES
100
AcDbSpline
 62
7
  6
CONTINUOUS
 70
0
 71
3
 72
9
 73
5
 74
0
 42
0.0000001
 43
0.0000001
 44
0.0000000001
 40
0.0
 40
0.0
 40
0.0
 40
0.0
 40
0.3093696122
 40
1.0
 40
1.0
 40
1.0
 40
1.0
 10
112.6544353515
 20
68.9303241493
 30
0.0
 10
112.6595107827
 20
68.9332946083
 30
0.0
 10
112.6750116607
 20
68.9436236827
 30
0.0
 10
112.6890497019
 20
68.9607474035
 30
0.0
 10
112.6896277116
 20
68.9738628164
 30
0.0
  0
SPLINE
  5
5FA
100
AcDbEntity
  8
3_ALL_AXES
100
AcDbSpline
 62
7
  6
CONTINUOUS
 70
0
 71
3
 72
9
 73
5
 74
0
 42
0.0000001
 43
0.0000001
 44
0.0000000001
 40
0.0
 40
0.0
 40
0.0
 40
0.0
 40
0.5141621028
 40
1.0
 40
1.0
 40
1.0
 40
1.0
 10
113.6726811903
 20
68.4361033794
 30
0.0
 10
113.6482204115
 20
68.4217874053
 30
0.0
 10
113.5935776064
 20
68.4073166331
 30
0.0
 10
113.5362306373
 20
68.4099358557
 30
0.0
 10
113.5114382202
 20
68.4200624842
 30
0.0
  0
SPLINE
  5
5FB
100
AcDbEntity
  8
3_ALL_AXES
100
AcDbSpline
 62
7
  6
CONTINUOUS
 70
0
 71
3
 72
9
 73
5
 74
0
 42
0.0000001
 43
0.0000001
 44
0.0000000001
 40
0.0
 40
0.0
 40
0.0
 40
0.0
 40
0.2889563648
 40
1.0
 40
1.0
 40
1.0
 40
1.0
 10
113.5114382202
 20
68.4200624842
 30
0.0
 10
113.5082624143
 20
68.4213596633
 30
0.0
 10
113.4975842695
 20
68.4263893631
 30
0.0
 10
113.4877018724
 20
68.4343495121
 30
0.0
 10
113.4835697394
 20
68.4417105929
 30
0.0
  0
SPLINE
  5
5FC
100
AcDbEntity
  8
3_ALL_AXES
100
AcDbSpline
 62
7
  6
CONTINUOUS
 70
0
 71
3
 72
8
 73
4
 74
0
 42
0.0000001
 43
0.0000001
 44
0.0000000001
 40
0.0
 40
0.0
 40
0.0
 40
0.0
 40
1.0
 40
1.0
 40
1.0
 40
1.0
 10
113.4835697394
 20
68.4417105929
 30
0.0
 10
113.481836121
 20
68.4447989024
 30
0.0
 10
113.4806091101
 20
68.4482481334
 30
0.0
 10
113.4801001692
 20
68.4517529968
 30
0.0
  0
SPLINE
  5
5FD
100
AcDbEntity
  8
3_ALL_AXES
100
AcDbSpline
 62
7
  6
CONTINUOUS
 70
0
 71
3
 72
8
 73
4
 74
0
 42
0.0000001
 43
0.0000001
 44
0.0000000001
 40
0.0
 40
0.0
 40
0.0
 40
0.0
 40
1.0
 40
1.0
 40
1.0
 40
1.0
 10
112.6838573741
 20
68.9575883015
 30
0.0
 10
112.6780465803
 20
68.9627680884
 30
0.0
 10
112.6710056048
 20
68.9666115269
 30
0.0
 10
112.6637901316
 20
68.9695325652
 30
0.0
  0
SPLINE
  5
5FE
100
AcDbEntity
  8
3_ALL_AXES
100
AcDbSpline
 62
7
  6
CONTINUOUS
 70
0
 71
3
 72
9
 73
5
 74
0
 42
0.0000001
 43
0.0000001
 44
0.0000000001
 40
0.0
 40
0.0
 40
0.0
 40
0.0
 40
0.2196260257
 40
1.0
 40
1.0
 40
1.0
 40
1.0
 10
112.6637901316
 20
68.9695325652
 30
0.0
 10
112.6553301488
 20
68.9729574179
 30
0.0
 10
112.6147547878
 20
68.9831461055
 30
0.0
 10
112.5713916249
 20
68.978812313
 30
0.0
 10
112.5403610644
 20
68.969389235
 30
0.0
  0
SPLINE
  5
5FF
100
AcDbEntity
  8
3_ALL_AXES
100
AcDbSpline
 62
7
  6
CONTINUOUS
 70
0
 71
3
 72
8
 73
4
 74
0
 42
0.0000001
 43
0.0000001
 44
0.0000000001
 40
0.0
 40
0.0
 40
0.0
 40
0.0
 40
1.0
 40
1.0
 40
1.0
 40
1.0
 10
112.5403610644
 20
68.969389235
 30
0.0
 10
112.5305075802
 20
68.9663970186
 30
0.0
 10
112.5208259113
 20
68.9626850068
 30
0.0
 10
112.5116008699
 20
68.9581086414
 30
0.0
  0
SPLINE
  5
600
100
AcDbEntity
  8
3_ALL_AXES
100
AcDbSpline
 62
7
  6
CONTINUOUS
 70
0
 71
3
 72
9
 73
5
 74
0
 42
0.0000001
 43
0.0000001
 44
0.0000000001
 40
0.0
 40
0.0
 40
0.0
 40
0.0
 40
0.2140778749
 40
1.0
 40
1.0
 40
1.0
 40
1.0
 10
112.3830479001
 20
68.8998513259
 30
0.0
 10
112.3835211119
 20
68.8965925137
 30
0.0
 10
112.3886327923
 20
68.881677865
 30
0.0
 10
112.4034534509
 20
68.8725861199
 30
0.0
 10
112.4146592486
 20
68.8680496795
 30
0.0
  0
SPLINE
  5
601
100
AcDbEntity
  8
3_ALL_AXES
100
AcDbSpline
 62
7
  6
CONTINUOUS
 70
0
 71
3
 72
9
 73
5
 74
0
 42
0.0000001
 43
0.0000001
 44
0.0000000001
 40
0.0
 40
0.0
 40
0.0
 40
0.0
 40
0.4861311156
 40
1.0
 40
1.0
 40
1.0
 40
1.0
 10
112.4146592486
 20
68.8680496795
 30
0.0
 10
112.4394553812
 20
68.8580114674
 30
0.0
 10
112.4966814747
 20
68.8554441913
 30
0.0
 10
112.5512240821
 20
68.8699184738
 30
0.0
 10
112.5756289211
 20
68.8842017085
 30
0.0
  0
SPLINE
  5
602
100
AcDbEntity
  8
3_ALL_AXES
100
AcDbSpline
 62
7
  6
CONTINUOUS
 70
0
 71
3
 72
9
 73
5
 74
0
 42
0.0000001
 43
0.0000001
 44
0.0000000001
 40
0.0
 40
0.0
 40
0.0
 40
0.0
 40
0.46914909
 40
1.0
 40
1.0
 40
1.0
 40
1.0
 10
113.3533360705
 20
72.017907716
 30
0.0
 10
113.3296208788
 20
72.0838700369
 30
0.0
 10
113.2409893905
 20
72.2121794308
 30
0.0
 10
113.1084538743
 20
72.2890824767
 30
0.0
 10
113.0350279602
 20
72.3190737819
 30
0.0
  0
SPLINE
  5
603
100
AcDbEntity
  8
3_ALL_AXES
100
AcDbSpline
 62
7
  6
CONTINUOUS
 70
0
 71
3
 72
8
 73
4
 74
0
 42
0.0000001
 43
0.0000001
 44
0.0000000001
 40
0.0
 40
0.0
 40
0.0
 40
0.0
 40
1.0
 40
1.0
 40
1.0
 40
1.0
 10
112.4240140288
 20
68.9072580954
 30
0.0
 10
112.4145180364
 20
68.9017004481
 30
0.0
 10
112.4053968504
 20
68.8948994509
 30
0.0
 10
112.3984736078
 20
68.8863478412
 30
0.0
  0
SPLINE
  5
604
100
AcDbEntity
  8
3_ALL_AXES
100
AcDbSpline
 62
7
  6
CONTINUOUS
 70
0
 71
3
 72
9
 73
5
 74
0
 42
0.0000001
 43
0.0000001
 44
0.0000000001
 40
0.0
 40
0.0
 40
0.0
 40
0.0
 40
0.5100091792
 40
1.0
 40
1.0
 40
1.0
 40
1.0
 10
112.3984736078
 20
68.8863478412
 30
0.0
 10
112.3977152306
 20
68.8854110915
 30
0.0
 10
112.3962833029
 20
68.8835289028
 30
0.0
 10
112.3949788867
 20
68.8815557548
 30
0.0
 10
112.3943757656
 20
68.880567279
 30
0.0
  0
SPLINE
  5
605
100
AcDbEntity
  8
3_ALL_AXES
100
AcDbSpline
 62
7
  6
CONTINUOUS
 70
0
 71
3
 72
9
 73
5
 74
0
 42
0.0000001
 43
0.0000001
 44
0.0000000001
 40
0.0
 40
0.0
 40
0.0
 40
0.0
 40
0.46914909
 40
1.0
 40
1.0
 40
1.0
 40
1.0
 10
118.1043498347
 20
70.0773244012
 30
0.0
 10
118.080634643
 20
70.143286722
 30
0.0
 10
117.9920031547
 20
70.2715961159
 30
0.0
 10
117.8594676384
 20
70.3484991619
 30
0.0
 10
117.7860417244
 20
70.3784904671
 30
0.0
  0
SPLINE
  5
606
100
AcDbEntity
  8
3_ALL_AXES
100
AcDbSpline
 62
7
  6
CONTINUOUS
 70
0
 71
3
 72
8
 73
4
 74
0
 42
0.0000001
 43
0.0000001
 44
0.0000000001
 40
0.0
 40
0.0
 40
0.0
 40
0.0
 40
1.0
 40
1.0
 40
1.0
 40
1.0
 10
113.608653139
 20
68.5100103123
 30
0.0
 10
113.6178781804
 20
68.5145866777
 30
0.0
 10
113.6275598494
 20
68.5182986895
 30
0.0
 10
113.6374133336
 20
68.5212909059
 30
0.0
  0
SPLINE
  5
607
100
AcDbEntity
  8
3_ALL_AXES
100
AcDbSpline
 62
7
  6
CONTINUOUS
 70
0
 71
3
 72
9
 73
5
 74
0
 42
0.0000001
 43
0.0000001
 44
0.0000000001
 40
0.0
 40
0.0
 40
0.0
 40
0.0
 40
0.2680152006
 40
1.0
 40
1.0
 40
1.0
 40
1.0
 10
113.6374133336
 20
68.5212909059
 30
0.0
 10
113.6480811842
 20
68.5245304217
 30
0.0
 10
113.6885562823
 20
68.5333205816
 30
0.0
 10
113.7329274065
 20
68.5328367986
 30
0.0
 10
113.7611156985
 20
68.5213231024
 30
0.0
  0
SPLINE
  5
608
100
AcDbEntity
  8
3_ALL_AXES
100
AcDbSpline
 62
7
  6
CONTINUOUS
 70
0
 71
3
 72
8
 73
4
 74
0
 42
0.0000001
 43
0.0000001
 44
0.0000000001
 40
0.0
 40
0.0
 40
0.0
 40
0.0
 40
1.0
 40
1.0
 40
1.0
 40
1.0
 10
113.7611156985
 20
68.5213231024
 30
0.0
 10
113.7682320488
 20
68.5184163816
 30
0.0
 10
113.7751714178
 20
68.5146050714
 30
0.0
 10
113.7809096433
 20
68.5094899724
 30
0.0
  0
SPLINE
  5
609
100
AcDbEntity
  8
3_ALL_AXES
100
AcDbSpline
 62
7
  6
CONTINUOUS
 70
0
 71
3
 72
14
 73
10
 74
0
 42
0.0000001
 43
0.0000001
 44
0.0000000001
 40
0.0
 40
0.0
 40
0.0
 40
0.0
 40
0.1366561595
 40
0.2520096706
 40
0.3932431083
 40
0.5505905294
 40
0.7122274041
 40
0.8658112374
 40
1.0
 40
1.0
 40
1.0
 40
1.0
 10
115.5661326586
 20
73.2546451853
 30
0.0
 10
115.5727941413
 20
73.3530717472
 30
0.0
 10
115.3890555181
 20
73.4964811635
 30
0.0
 10
115.1395381269
 20
73.5959122847
 30
0.0
 10
114.8452428172
 20
73.6742310967
 30
0.0
 10
114.5174843339
 20
73.7221261659
 30
0.0
 10
114.1758987624
 20
73.7406360646
 30
0.0
 10
113.8514190014
 20
73.7266386568
 30
0.0
 10
113.6453562036
 20
73.6942680785
 30
0.0
 10
113.5513946946
 20
73.6707068269
 30
0.0
  0
SPLINE
  5
60A
100
AcDbEntity
  8
3_ALL_AXES
100
AcDbSpline
 62
7
  6
CONTINUOUS
 70
0
 71
3
 72
9
 73
5
 74
0
 42
0.0000001
 43
0.0000001
 44
0.0000000001
 40
0.0
 40
0.0
 40
0.0
 40
0.0
 40
0.3000205396
 40
1.0
 40
1.0
 40
1.0
 40
1.0
 10
113.0894307197
 20
65.3484034002
 30
0.0
 10
113.0955788162
 20
65.3062747983
 30
0.0
 10
113.1355624407
 20
65.1804803847
 30
0.0
 10
113.2961446778
 20
65.0173986534
 30
0.0
 10
113.3818909131
 20
65.0675419674
 30
0.0
  0
SPLINE
  5
60B
100
AcDbEntity
  8
3_ALL_AXES
100
AcDbSpline
 62
7
  6
CONTINUOUS
 70
0
 71
3
 72
9
 73
5
 74
0
 42
0.0000001
 43
0.0000001
 44
0.0000000001
 40
0.0
 40
0.0
 40
0.0
 40
0.0
 40
0.3243262534
 40
1.0
 40
1.0
 40
1.0
 40
1.0
 10
112.645807013
 20
68.6479666138
 30
0.0
 10
112.6618841979
 20
68.6230495943
 30
0.0
 10
112.7136446618
 20
68.5538675987
 30
0.0
 10
112.8245409669
 20
68.490062293
 30
0.0
 10
112.8778694699
 20
68.5212481272
 30
0.0
  0
SPLINE
  5
60C
100
AcDbEntity
  8
3_ALL_AXES
100
AcDbSpline
 62
7
  6
CONTINUOUS
 70
0
 71
3
 72
9
 73
5
 74
0
 42
0.0000001
 43
0.0000001
 44
0.0000000001
 40
0.0
 40
0.0
 40
0.0
 40
0.0
 40
0.3000205396
 40
1.0
 40
1.0
 40
1.0
 40
1.0
 10
114.0938561466
 20
68.1859743575
 30
0.0
 10
114.1000042431
 20
68.1438457556
 30
0.0
 10
114.1399878676
 20
68.018051342
 30
0.0
 10
114.3005701047
 20
67.8549696107
 30
0.0
 10
114.38631634
 20
67.9051129247
 30
0.0
  0
SPLINE
  5
60D
100
AcDbEntity
  8
3_ALL_AXES
100
AcDbSpline
 62
7
  6
CONTINUOUS
 70
0
 71
3
 72
9
 73
5
 74
0
 42
0.0000001
 43
0.0000001
 44
0.0000000001
 40
0.0
 40
0.0
 40
0.0
 40
0.0
 40
0.3000205396
 40
1.0
 40
1.0
 40
1.0
 40
1.0
 10
114.5978775898
 20
64.7322681978
 30
0.0
 10
114.6040256863
 20
64.6901395958
 30
0.0
 10
114.6440093109
 20
64.5643451823
 30
0.0
 10
114.804591548
 20
64.4012634509
 30
0.0
 10
114.8903377833
 20
64.4514067649
 30
0.0
  0
SPLINE
  5
60E
100
AcDbEntity
  8
3_ALL_AXES
100
AcDbSpline
 62
7
  6
CONTINUOUS
 70
0
 71
3
 72
9
 73
5
 74
0
 42
0.0000001
 43
0.0000001
 44
0.0000000001
 40
0.0
 40
0.0
 40
0.0
 40
0.0
 40
0.2864336998
 40
1.0
 40
1.0
 40
1.0
 40
1.0
 10
115.3171061616
 20
61.0068930718
 30
0.0
 10
115.3255001351
 20
61.0034644972
 30
0.0
 10
115.3553525521
 20
60.9935378986
 30
0.0
 10
115.3908395206
 20
60.9956011101
 30
0.0
 10
115.4103221568
 20
61.0070316232
 30
0.0
  0
SPLINE
  5
60F
100
AcDbEntity
  8
3_ALL_AXES
100
AcDbSpline
 62
7
  6
CONTINUOUS
 70
0
 71
3
 72
9
 73
5
 74
0
 42
0.0000001
 43
0.0000001
 44
0.0000000001
 40
0.0
 40
0.0
 40
0.0
 40
0.0
 40
0.2864336998
 40
1.0
 40
1.0
 40
1.0
 40
1.0
 10
113.8086592914
 20
61.6230282743
 30
0.0
 10
113.817053265
 20
61.6195996997
 30
0.0
 10
113.846905682
 20
61.6096731011
 30
0.0
 10
113.8823926504
 20
61.6117363126
 30
0.0
 10
113.9018752867
 20
61.6231668256
 30
0.0
  0
SPLINE
  5
610
100
AcDbEntity
  8
3_ALL_AXES
100
AcDbSpline
 62
7
  6
CONTINUOUS
 70
0
 71
3
 72
14
 73
10
 74
0
 42
0.0000001
 43
0.0000001
 44
0.0000000001
 40
0.0
 40
0.0
 40
0.0
 40
0.0
 40
0.1366561595
 40
0.2520096706
 40
0.3932431083
 40
0.5505905294
 40
0.7122274041
 40
0.8658112374
 40
1.0
 40
1.0
 40
1.0
 40
1.0
 10
121.7856415863
 20
70.7142452095
 30
0.0
 10
121.7923030689
 20
70.8126717714
 30
0.0
 10
121.6085644457
 20
70.9560811877
 30
0.0
 10
121.3590470546
 20
71.0555123089
 30
0.0
 10
121.0647517449
 20
71.1338311209
 30
0.0
 10
120.7369932616
 20
71.1817261901
 30
0.0
 10
120.3954076901
 20
71.2002360887
 30
0.0
 10
120.070927929
 20
71.186238681
 30
0.0
 10
119.8648651312
 20
71.1538681027
 30
0.0
 10
119.7709036222
 20
71.1303068511
 30
0.0
  0
SPLINE
  5
611
100
AcDbEntity
  8
3_ALL_AXES
100
AcDbSpline
 62
7
  6
CONTINUOUS
 70
0
 71
3
 72
13
 73
9
 74
0
 42
0.0000001
 43
0.0000001
 44
0.0000000001
 40
0.0
 40
0.0
 40
0.0
 40
0.0
 40
0.1370182658
 40
0.2528205514
 40
0.3945267967
 40
0.5522146702
 40
0.7139146287
 40
1.0
 40
1.0
 40
1.0
 40
1.0
 10
115.1576246301
 20
73.2822888771
 30
0.0
 10
115.153210949
 20
73.2170951639
 30
0.0
 10
115.0192793767
 20
73.1397429165
 30
0.0
 10
114.8465321012
 20
73.097130551
 30
0.0
 10
114.6462544835
 20
73.0724549801
 30
0.0
 10
114.4268981328
 20
73.0706785751
 30
0.0
 10
114.1390204108
 20
73.0953339311
 30
0.0
 10
113.9273667581
 20
73.1407555843
 30
0.0
 10
113.8010645808
 20
73.1923445525
 30
0.0
  0
SPLINE
  5
612
100
AcDbEntity
  8
3_ALL_AXES
100
AcDbSpline
 62
7
  6
CONTINUOUS
 70
0
 71
3
 72
9
 73
5
 74
0
 42
0.0000001
 43
0.0000001
 44
0.0000000001
 40
0.0
 40
0.0
 40
0.0
 40
0.0
 40
0.4472506787
 40
1.0
 40
1.0
 40
1.0
 40
1.0
 10
121.6267789488
 20
63.2117764391
 30
0.0
 10
121.660466749
 20
63.1979946152
 30
0.0
 10
121.7203947061
 20
63.1305177336
 30
0.0
 10
121.7280595431
 20
63.0458320964
 30
0.0
 10
121.7250196777
 20
63.0009514062
 30
0.0
  0
SPLINE
  5
613
100
AcDbEntity
  8
3_ALL_AXES
100
AcDbSpline
 62
7
  6
CONTINUOUS
 70
0
 71
3
 72
13
 73
9
 74
0
 42
0.0000001
 43
0.0000001
 44
0.0000000001
 40
0.0
 40
0.0
 40
0.0
 40
0.0
 40
0.1370182658
 40
0.2528205514
 40
0.3945267967
 40
0.5522146702
 40
0.7139146287
 40
1.0
 40
1.0
 40
1.0
 40
1.0
 10
121.3771335577
 20
70.7418889013
 30
0.0
 10
121.3727198767
 20
70.6766951881
 30
0.0
 10
121.2387883044
 20
70.5993429407
 30
0.0
 10
121.0660410289
 20
70.5567305752
 30
0.0
 10
120.8657634111
 20
70.5320550043
 30
0.0
 10
120.6464070605
 20
70.5302785993
 30
0.0
 10
120.3585293384
 20
70.5549339553
 30
0.0
 10
120.1468756857
 20
70.6003556085
 30
0.0
 10
120.0205735085
 20
70.6519445767
 30
0.0
  0
SPLINE
  5
614
100
AcDbEntity
  8
3_ALL_AXES
100
AcDbSpline
 62
7
  6
CONTINUOUS
 70
0
 71
3
 72
13
 73
9
 74
0
 42
0.0000001
 43
0.0000001
 44
0.0000000001
 40
0.0
 40
0.0
 40
0.0
 40
0.0
 40
0.0898629211
 40
0.1934767624
 40
0.3159821618
 40
0.454551251
 40
0.746688756
 40
1.0
 40
1.0
 40
1.0
 40
1.0
 10
117.7189873282
 20
69.9389687449
 30
0.0
 10
117.7361708788
 20
69.8912047212
 30
0.0
 10
117.7427567361
 20
69.7763481289
 30
0.0
 10
117.6695490977
 20
69.6089413663
 30
0.0
 10
117.5319001008
 20
69.4525646791
 30
0.0
 10
117.2746335636
 20
69.2711480833
 30
0.0
 10
116.9029578248
 20
69.1429631877
 30
0.0
 10
116.578995949
 20
69.1537898205
 30
0.0
 10
116.4465316629
 20
69.2078957432
 30
0.0
  0
SPLINE
  5
615
100
AcDbEntity
  8
3_ALL_AXES
100
AcDbSpline
 62
7
  6
CONTINUOUS
 70
0
 71
3
 72
13
 73
9
 74
0
 42
0.0000001
 43
0.0000001
 44
0.0000000001
 40
0.0
 40
0.0
 40
0.0
 40
0.0
 40
0.0898629211
 40
0.1934767624
 40
0.3159821618
 40
0.454551251
 40
0.746688756
 40
1.0
 40
1.0
 40
1.0
 40
1.0
 10
112.967973564
 20
71.8795520598
 30
0.0
 10
112.9851571146
 20
71.8317880361
 30
0.0
 10
112.9917429719
 20
71.7169314437
 30
0.0
 10
112.9185353336
 20
71.5495246812
 30
0.0
 10
112.7808863367
 20
71.3931479939
 30
0.0
 10
112.5236197994
 20
71.2117313981
 30
0.0
 10
112.1519440607
 20
71.0835465026
 30
0.0
 10
111.8279821848
 20
71.0943731353
 30
0.0
 10
111.6955178987
 20
71.148479058
 30
0.0
  0
SPLINE
  5
616
100
AcDbEntity
  8
3_ALL_AXES
100
AcDbSpline
 62
7
  6
CONTINUOUS
 70
0
 71
3
 72
14
 73
10
 74
0
 42
0.0000001
 43
0.0000001
 44
0.0000000001
 40
0.0
 40
0.0
 40
0.0
 40
0.0
 40
0.1189444372
 40
0.2548276778
 40
0.5463490087
 40
0.6846359387
 40
0.8069023261
 40
0.9103179958
 40
1.0
 40
1.0
 40
1.0
 40
1.0
 10
116.2087200946
 20
68.8590077812
 30
0.0
 10
116.3034476113
 20
68.8203156941
 30
0.0
 10
116.5218369697
 20
68.7745842672
 30
0.0
 10
116.9938487421
 20
68.7926900259
 30
0.0
 10
117.4680493709
 20
68.9552093632
 30
0.0
 10
117.8581329628
 20
69.2307042894
 30
0.0
 10
118.0675876133
 20
69.4683587611
 30
0.0
 10
118.1788927138
 20
69.7227497066
 30
0.0
 10
118.1690643095
 20
69.8973480153
 30
0.0
 10
118.1429651526
 20
69.9699505884
 30
0.0
  0
SPLINE
  5
617
100
AcDbEntity
  8
3_ALL_AXES
100
AcDbSpline
 62
7
  6
CONTINUOUS
 70
0
 71
3
 72
11
 73
7
 74
0
 42
0.0000001
 43
0.0000001
 44
0.0000000001
 40
0.0
 40
0.0
 40
0.0
 40
0.0
 40
0.1829857185
 40
0.3728094672
 40
0.5939580225
 40
1.0
 40
1.0
 40
1.0
 40
1.0
 10
113.9018752867
 20
61.6231668256
 30
0.0
 10
113.9286338464
 20
61.6388661418
 30
0.0
 10
113.957195349
 20
61.7067743348
 30
0.0
 10
113.9419236239
 20
61.8068350813
 30
0.0
 10
113.8880386251
 20
61.9345553047
 30
0.0
 10
113.8104783845
 20
62.0212319437
 30
0.0
 10
113.746747996
 20
62.0472630467
 30
0.0
  0
SPLINE
  5
618
100
AcDbEntity
  8
3_ALL_AXES
100
AcDbSpline
 62
7
  6
CONTINUOUS
 70
0
 71
3
 72
14
 73
10
 74
0
 42
0.0000001
 43
0.0000001
 44
0.0000000001
 40
0.0
 40
0.0
 40
0.0
 40
0.0
 40
0.1189444372
 40
0.2548276778
 40
0.5463490087
 40
0.6846359387
 40
0.8069023261
 40
0.9103179958
 40
1.0
 40
1.0
 40
1.0
 40
1.0
 10
111.4577063304
 20
70.7995910961
 30
0.0
 10
111.5524338471
 20
70.760899009
 30
0.0
 10
111.7708232055
 20
70.715167582
 30
0.0
 10
112.2428349779
 20
70.7332733407
 30
0.0
 10
112.7170356067
 20
70.8957926781
 30
0.0
 10
113.1071191987
 20
71.1712876043
 30
0.0
 10
113.3165738491
 20
71.408942076
 30
0.0
 10
113.4278789496
 20
71.6633330214
 30
0.0
 10
113.4180505454
 20
71.8379313301
 30
0.0
 10
113.3919513885
 20
71.9105339033
 30
0.0
  0
SPLINE
  5
619
100
AcDbEntity
  8
3_ALL_AXES
100
AcDbSpline
 62
7
  6
CONTINUOUS
 70
0
 71
3
 72
9
 73
5
 74
0
 42
0.0000001
 43
0.0000001
 44
0.0000000001
 40
0.0
 40
0.0
 40
0.0
 40
0.0
 40
0.4318754643
 40
1.0
 40
1.0
 40
1.0
 40
1.0
 10
113.3818909131
 20
65.0675419674
 30
0.0
 10
113.4013450133
 20
65.0789184791
 30
0.0
 10
113.4323266876
 20
65.127663271
 30
0.0
 10
113.4306018936
 20
65.1814629718
 30
0.0
 10
113.4263207866
 20
65.2107984015
 30
0.0
  0
SPLINE
  5
61A
100
AcDbEntity
  8
3_ALL_AXES
100
AcDbSpline
 62
7
  6
CONTINUOUS
 70
0
 71
3
 72
9
 73
5
 74
0
 42
0.0000001
 43
0.0000001
 44
0.0000000001
 40
0.0
 40
0.0
 40
0.0
 40
0.0
 40
0.4319404452
 40
1.0
 40
1.0
 40
1.0
 40
1.0
 10
113.5332560997
 20
65.1561193453
 30
0.0
 10
113.5526988388
 20
65.1675012795
 30
0.0
 10
113.5836018745
 20
65.2162661404
 30
0.0
 10
113.5818896996
 20
65.2700244508
 30
0.0
 10
113.5776110684
 20
65.2993429154
 30
0.0
  0
SPLINE
  5
61B
100
AcDbEntity
  8
3_ALL_AXES
100
AcDbSpline
 62
7
  6
CONTINUOUS
 70
0
 71
3
 72
11
 73
7
 74
0
 42
0.0000001
 43
0.0000001
 44
0.0000000001
 40
0.0
 40
0.0
 40
0.0
 40
0.0
 40
0.1829460391
 40
0.3727582334
 40
0.5939095703
 40
1.0
 40
1.0
 40
1.0
 40
1.0
 10
114.0711484973
 20
61.7222365913
 30
0.0
 10
114.0979180261
 20
61.737914636
 30
0.0
 10
114.1265698879
 20
61.8057911406
 30
0.0
 10
114.111288202
 20
61.9058757177
 30
0.0
 10
114.0574422429
 20
62.0336377489
 30
0.0
 10
113.9798519476
 20
62.12034127
 30
0.0
 10
113.9161027891
 20
62.1463800397
 30
0.0
  0
SPLINE
  5
61C
100
AcDbEntity
  8
3_ALL_AXES
100
AcDbSpline
 62
7
  6
CONTINUOUS
 70
0
 71
3
 72
9
 73
5
 74
0
 42
0.0000001
 43
0.0000001
 44
0.0000000001
 40
0.0
 40
0.0
 40
0.0
 40
0.0
 40
0.4318754643
 40
1.0
 40
1.0
 40
1.0
 40
1.0
 10
114.38631634
 20
67.9051129247
 30
0.0
 10
114.4057704401
 20
67.9164894364
 30
0.0
 10
114.4367521145
 20
67.9652342283
 30
0.0
 10
114.4350273205
 20
68.0190339291
 30
0.0
 10
114.4307462135
 20
68.0483693588
 30
0.0
  0
SPLINE
  5
61D
100
AcDbEntity
  8
3_ALL_AXES
100
AcDbSpline
 62
7
  6
CONTINUOUS
 70
0
 71
3
 72
10
 73
6
 74
0
 42
0.0000001
 43
0.0000001
 44
0.0000000001
 40
0.0
 40
0.0
 40
0.0
 40
0.0
 40
0.3446630169
 40
0.6235724913
 40
1.0
 40
1.0
 40
1.0
 40
1.0
 10
121.403114071
 20
70.3263259309
 30
0.0
 10
121.4555676857
 20
70.3394788999
 30
0.0
 10
121.5500908507
 20
70.3691415852
 30
0.0
 10
121.6891505462
 20
70.4343688239
 30
0.0
 10
121.7726238205
 20
70.5217681161
 30
0.0
 10
121.7766003384
 20
70.5806954979
 30
0.0
  0
SPLINE
  5
61E
100
AcDbEntity
  8
3_ALL_AXES
100
AcDbSpline
 62
7
  6
CONTINUOUS
 70
0
 71
3
 72
10
 73
6
 74
0
 42
0.0000001
 43
0.0000001
 44
0.0000000001
 40
0.0
 40
0.0
 40
0.0
 40
0.0
 40
0.3446630169
 40
0.6235724913
 40
1.0
 40
1.0
 40
1.0
 40
1.0
 10
115.1836051434
 20
72.8667259067
 30
0.0
 10
115.236058758
 20
72.8798788757
 30
0.0
 10
115.3305819231
 20
72.909541561
 30
0.0
 10
115.4696416186
 20
72.9747687997
 30
0.0
 10
115.5531148929
 20
73.0621680919
 30
0.0
 10
115.5570914108
 20
73.1210954737
 30
0.0
  0
SPLINE
  5
61F
100
AcDbEntity
  8
3_ALL_AXES
100
AcDbSpline
 62
7
  6
CONTINUOUS
 70
0
 71
3
 72
8
 73
4
 74
0
 42
0.0000001
 43
0.0000001
 44
0.0000000001
 40
0.0
 40
0.0
 40
0.0
 40
0.0
 40
1.0
 40
1.0
 40
1.0
 40
1.0
 10
112.8778694699
 20
68.5212481272
 30
0.0
 10
112.8873081908
 20
68.5267677718
 30
0.0
 10
112.8956473382
 20
68.5345237983
 30
0.0
 10
112.9021216688
 20
68.5433350963
 30
0.0
  0
SPLINE
  5
620
100
AcDbEntity
  8
3_ALL_AXES
100
AcDbSpline
 62
7
  6
CONTINUOUS
 70
0
 71
3
 72
8
 73
4
 74
0
 42
0.0000001
 43
0.0000001
 44
0.0000000001
 40
0.0
 40
0.0
 40
0.0
 40
0.0
 40
1.0
 40
1.0
 40
1.0
 40
1.0
 10
112.4179816462
 20
68.9485937912
 30
0.0
 10
112.4114658923
 20
68.9447803654
 30
0.0
 10
112.4052154615
 20
68.9403931903
 30
0.0
 10
112.3996517654
 20
68.9352899999
 30
0.0
  0
SPLINE
  5
621
100
AcDbEntity
  8
3_ALL_AXES
100
AcDbSpline
 62
7
  6
CONTINUOUS
 70
0
 71
3
 72
9
 73
5
 74
0
 42
0.0000001
 43
0.0000001
 44
0.0000000001
 40
0.0
 40
0.0
 40
0.0
 40
0.0
 40
0.2913538749
 40
1.0
 40
1.0
 40
1.0
 40
1.0
 10
112.3996517654
 20
68.9352899999
 30
0.0
 10
112.3971375475
 20
68.9329838832
 30
0.0
 10
112.3890199339
 20
68.9246608677
 30
0.0
 10
112.3831344928
 20
68.9132860458
 30
0.0
 10
112.3827867132
 20
68.9049953041
 30
0.0
  0
SPLINE
  5
622
100
AcDbEntity
  8
3_ALL_AXES
100
AcDbSpline
 62
7
  6
CONTINUOUS
 70
0
 71
3
 72
10
 73
6
 74
0
 42
0.0000001
 43
0.0000001
 44
0.0000000001
 40
0.0
 40
0.0
 40
0.0
 40
0.0
 40
0.2907229177
 40
0.5977057576
 40
1.0
 40
1.0
 40
1.0
 40
1.0
 10
113.5938403457
 20
68.5466179029
 30
0.0
 10
113.6111633597
 20
68.5567564117
 30
0.0
 10
113.6521322264
 20
68.5700132262
 30
0.0
 10
113.7158261857
 20
68.5767196584
 30
0.0
 10
113.7824300572
 20
68.55845477
 30
0.0
 10
113.7864213668
 20
68.5309682855
 30
0.0
  0
SPLINE
  5
623
100
AcDbEntity
  8
3_ALL_AXES
100
AcDbSpline
 62
7
  6
CONTINUOUS
 70
0
 71
3
 72
9
 73
5
 74
0
 42
0.0000001
 43
0.0000001
 44
0.0000000001
 40
0.0
 40
0.0
 40
0.0
 40
0.0
 40
0.2190696099
 40
1.0
 40
1.0
 40
1.0
 40
1.0
 10
113.4801001692
 20
68.4517529968
 30
0.0
 10
113.4796791296
 20
68.4546525215
 30
0.0
 10
113.4799641462
 20
68.468291376
 30
0.0
 10
113.4890069808
 20
68.4801317003
 30
0.0
 10
113.4967040346
 20
68.4871916709
 30
0.0
  0
SPLINE
  5
624
100
AcDbEntity
  8
3_ALL_AXES
100
AcDbSpline
 62
7
  6
CONTINUOUS
 70
0
 71
3
 72
8
 73
4
 74
0
 42
0.0000001
 43
0.0000001
 44
0.0000000001
 40
0.0
 40
0.0
 40
0.0
 40
0.0
 40
1.0
 40
1.0
 40
1.0
 40
1.0
 10
113.4967040346
 20
68.4871916709
 30
0.0
 10
113.5022677307
 20
68.4922948612
 30
0.0
 10
113.5085181614
 20
68.4966820363
 30
0.0
 10
113.5150339154
 20
68.5004954621
 30
0.0
  0
SPLINE
  5
625
100
AcDbEntity
  8
3_ALL_AXES
100
AcDbSpline
 62
7
  6
CONTINUOUS
 70
0
 71
3
 72
10
 73
6
 74
0
 42
0.0000001
 43
0.0000001
 44
0.0000000001
 40
0.0
 40
0.0
 40
0.0
 40
0.0
 40
0.4022942424
 40
0.7092770823
 40
1.0
 40
1.0
 40
1.0
 40
1.0
 10
112.6893690976
 20
68.9790666146
 30
0.0
 10
112.685377788
 20
69.0065530991
 30
0.0
 10
112.6187739165
 20
69.0248179875
 30
0.0
 10
112.5550799572
 20
69.0181115552
 30
0.0
 10
112.5141110905
 20
69.0048547408
 30
0.0
 10
112.4967880766
 20
68.994716232
 30
0.0
  0
SPLINE
  5
626
100
AcDbEntity
  8
3_ALL_AXES
100
AcDbSpline
 62
7
  6
CONTINUOUS
 70
0
 71
3
 72
9
 73
5
 74
0
 42
0.0000001
 43
0.0000001
 44
0.0000000001
 40
0.0
 40
0.0
 40
0.0
 40
0.0
 40
0.3000530811
 40
1.0
 40
1.0
 40
1.0
 40
1.0
 10
113.5776110684
 20
65.2993429154
 30
0.0
 10
113.5714615916
 20
65.3414809755
 30
0.0
 10
113.5314815098
 20
65.4672930504
 30
0.0
 10
113.3708049743
 20
65.6303579256
 30
0.0
 10
113.2850759703
 20
65.5801714841
 30
0.0
  0
SPLINE
  5
627
100
AcDbEntity
  8
3_ALL_AXES
100
AcDbSpline
 62
7
  6
CONTINUOUS
 70
0
 71
3
 72
9
 73
5
 74
0
 42
0.0000001
 43
0.0000001
 44
0.0000000001
 40
0.0
 40
0.0
 40
0.0
 40
0.0
 40
0.46914909
 40
1.0
 40
1.0
 40
1.0
 40
1.0
 10
111.1008029503
 20
71.2080938317
 30
0.0
 10
111.124518142
 20
71.1421315108
 30
0.0
 10
111.2131496303
 20
71.0138221169
 30
0.0
 10
111.3456851466
 20
70.936919071
 30
0.0
 10
111.4191110606
 20
70.9069277658
 30
0.0
  0
SPLINE
  5
628
100
AcDbEntity
  8
3_ALL_AXES
100
AcDbSpline
 62
7
  6
CONTINUOUS
 70
0
 71
3
 72
9
 73
5
 74
0
 42
0.0000001
 43
0.0000001
 44
0.0000000001
 40
0.0
 40
0.0
 40
0.0
 40
0.0
 40
0.4691570909
 40
1.0
 40
1.0
 40
1.0
 40
1.0
 10
111.1393781719
 20
71.100794305
 30
0.0
 10
111.1630932569
 20
71.0348237374
 30
0.0
 10
111.2517286837
 20
70.9064991492
 30
0.0
 10
111.3842746839
 20
70.8295847427
 30
0.0
 10
111.4577063304
 20
70.7995910961
 30
0.0
  0
SPLINE
  5
629
100
AcDbEntity
  8
3_ALL_AXES
100
AcDbSpline
 62
7
  6
CONTINUOUS
 70
0
 71
3
 72
9
 73
5
 74
0
 42
0.0000001
 43
0.0000001
 44
0.0000000001
 40
0.0
 40
0.0
 40
0.0
 40
0.0
 40
0.5631111775
 40
1.0
 40
1.0
 40
1.0
 40
1.0
 10
114.9296161007
 20
64.9402839131
 30
0.0
 10
114.9074963659
 20
64.9557490337
 30
0.0
 10
114.8639561289
 20
64.9791669761
 30
0.0
 10
114.8115940634
 20
64.9746153195
 30
0.0
 10
114.7935228404
 20
64.9640362817
 30
0.0
  0
SPLINE
  5
62A
100
AcDbEntity
  8
3_ALL_AXES
100
AcDbSpline
 62
7
  6
CONTINUOUS
 70
0
 71
3
 72
9
 73
5
 74
0
 42
0.0000001
 43
0.0000001
 44
0.0000000001
 40
0.0
 40
0.0
 40
0.0
 40
0.0
 40
0.46914909
 40
1.0
 40
1.0
 40
1.0
 40
1.0
 10
115.8518167145
 20
69.2675105168
 30
0.0
 10
115.8755319062
 20
69.201548196
 30
0.0
 10
115.9641633945
 20
69.0732388021
 30
0.0
 10
116.0966989107
 20
68.9963357561
 30
0.0
 10
116.1701248248
 20
68.9663444509
 30
0.0
  0
SPLINE
  5
62B
100
AcDbEntity
  8
3_ALL_AXES
100
AcDbSpline
 62
7
  6
CONTINUOUS
 70
0
 71
3
 72
11
 73
7
 74
0
 42
0.0000001
 43
0.0000001
 44
0.0000000001
 40
0.0
 40
0.0
 40
0.0
 40
0.0
 40
0.1829857185
 40
0.3728094672
 40
0.5939580225
 40
1.0
 40
1.0
 40
1.0
 40
1.0
 10
115.4103221568
 20
61.0070316232
 30
0.0
 10
115.4370807165
 20
61.0227309393
 30
0.0
 10
115.4656422192
 20
61.0906391323
 30
0.0
 10
115.450370494
 20
61.1906998788
 30
0.0
 10
115.3964854952
 20
61.3184201022
 30
0.0
 10
115.3189252546
 20
61.4050967412
 30
0.0
 10
115.2551948662
 20
61.4311278442
 30
0.0
  0
SPLINE
  5
62C
100
AcDbEntity
  8
3_ALL_AXES
100
AcDbSpline
 62
7
  6
CONTINUOUS
 70
0
 71
3
 72
9
 73
5
 74
0
 42
0.0000001
 43
0.0000001
 44
0.0000000001
 40
0.0
 40
0.0
 40
0.0
 40
0.0
 40
0.4691570909
 40
1.0
 40
1.0
 40
1.0
 40
1.0
 10
115.890391936
 20
69.1602109902
 30
0.0
 10
115.9141070211
 20
69.0942404225
 30
0.0
 10
116.0027424479
 20
68.9659158343
 30
0.0
 10
116.1352884481
 20
68.8890014278
 30
0.0
 10
116.2087200946
 20
68.8590077812
 30
0.0
  0
SPLINE
  5
62D
100
AcDbEntity
  8
3_ALL_AXES
100
AcDbSpline
 62
7
  6
CONTINUOUS
 70
0
 71
3
 72
11
 73
7
 74
0
 42
0.0000001
 43
0.0000001
 44
0.0000000001
 40
0.0
 40
0.0
 40
0.0
 40
0.0
 40
0.2821148878
 40
0.5603595682
 40
0.8011222137
 40
1.0
 40
1.0
 40
1.0
 40
1.0
 10
121.3139286477
 20
62.8978685663
 30
0.0
 10
121.3170981956
 20
62.9446638935
 30
0.0
 10
121.3414153104
 20
63.0369668515
 30
0.0
 10
121.4159544775
 20
63.1498889295
 30
0.0
 10
121.5161729683
 20
63.2222396543
 30
0.0
 10
121.5961767174
 20
63.2242959435
 30
0.0
 10
121.6267789488
 20
63.2117764391
 30
0.0
  0
SPLINE
  5
62E
100
AcDbEntity
  8
3_ALL_AXES
100
AcDbSpline
 62
7
  6
CONTINUOUS
 70
0
 71
3
 72
11
 73
7
 74
0
 42
0.0000001
 43
0.0000001
 44
0.0000000001
 40
0.0
 40
0.0
 40
0.0
 40
0.0
 40
0.2820700401
 40
0.5603143964
 40
0.8011106759
 40
1.0
 40
1.0
 40
1.0
 40
1.0
 10
121.1562813728
 20
62.962260649
 30
0.0
 10
121.1594495326
 20
63.0090354831
 30
0.0
 10
121.1837490063
 20
63.1013057271
 30
0.0
 10
121.2582489772
 20
63.2142059768
 30
0.0
 10
121.3584003847
 20
63.2865797657
 30
0.0
 10
121.4383885775
 20
63.2887186031
 30
0.0
 10
121.4689922194
 20
63.2762218638
 30
0.0
  0
SPLINE
  5
62F
100
AcDbEntity
  8
3_ALL_AXES
100
AcDbSpline
 62
7
  6
CONTINUOUS
 70
0
 71
3
 72
11
 73
7
 74
0
 42
0.0000001
 43
0.0000001
 44
0.0000000001
 40
0.0
 40
0.0
 40
0.0
 40
0.0
 40
0.1829460391
 40
0.3727582334
 40
0.5939095703
 40
1.0
 40
1.0
 40
1.0
 40
1.0
 10
115.5795953675
 20
61.1061013888
 30
0.0
 10
115.6063648962
 20
61.1217794335
 30
0.0
 10
115.635016758
 20
61.1896559381
 30
0.0
 10
115.6197350721
 20
61.2897405152
 30
0.0
 10
115.565889113
 20
61.4175025465
 30
0.0
 10
115.4882988177
 20
61.5042060676
 30
0.0
 10
115.4245496592
 20
61.5302448373
 30
0.0
  0
SPLINE
  5
630
100
AcDbEntity
  8
3_ALL_AXES
100
AcDbSpline
 62
7
  6
CONTINUOUS
 70
0
 71
3
 72
10
 73
6
 74
0
 42
0.0000001
 43
0.0000001
 44
0.0000000001
 40
0.0
 40
0.0
 40
0.0
 40
0.0
 40
0.344625323
 40
0.6235632984
 40
1.0
 40
1.0
 40
1.0
 40
1.0
 10
121.4121629226
 20
70.4599235242
 30
0.0
 10
121.4646057021
 20
70.4730737762
 30
0.0
 10
121.559117954
 20
70.5027346542
 30
0.0
 10
121.6981652318
 20
70.5679480574
 30
0.0
 10
121.7816537408
 20
70.6553229023
 30
0.0
 10
121.7856415863
 20
70.7142452095
 30
0.0
  0
SPLINE
  5
631
100
AcDbEntity
  8
3_ALL_AXES
100
AcDbSpline
 62
7
  6
CONTINUOUS
 70
0
 71
3
 72
10
 73
6
 74
0
 42
0.0000001
 43
0.0000001
 44
0.0000000001
 40
0.0
 40
0.0
 40
0.0
 40
0.0
 40
0.344625323
 40
0.6235632984
 40
1.0
 40
1.0
 40
1.0
 40
1.0
 10
115.1926539949
 20
73.0003235
 30
0.0
 10
115.2450967744
 20
73.013473752
 30
0.0
 10
115.3396090264
 20
73.04313463
 30
0.0
 10
115.4786563041
 20
73.1083480332
 30
0.0
 10
115.5621448131
 20
73.1957228781
 30
0.0
 10
115.5661326586
 20
73.2546451853
 30
0.0
  0
SPLINE
  5
632
100
AcDbEntity
  8
3_ALL_AXES
100
AcDbSpline
 62
7
  6
CONTINUOUS
 70
0
 71
3
 72
10
 73
6
 74
0
 42
0.0000001
 43
0.0000001
 44
0.0000000001
 40
0.0
 40
0.0
 40
0.0
 40
0.0
 40
0.3436648703
 40
0.6222229459
 40
1.0
 40
1.0
 40
1.0
 40
1.0
 10
121.1624930364
 20
70.9382857986
 30
0.0
 10
121.1946296406
 20
70.9251593879
 30
0.0
 10
121.2520149259
 20
70.897690287
 30
0.0
 10
121.3347236732
 20
70.8433166587
 30
0.0
 10
121.3797111114
 20
70.7799614968
 30
0.0
 10
121.3771335577
 20
70.7418889013
 30
0.0
  0
SPLINE
  5
633
100
AcDbEntity
  8
3_ALL_AXES
100
AcDbSpline
 62
7
  6
CONTINUOUS
 70
0
 71
3
 72
14
 73
10
 74
0
 42
0.0000001
 43
0.0000001
 44
0.0000000001
 40
0.0
 40
0.0
 40
0.0
 40
0.0
 40
0.1366561595
 40
0.2520096706
 40
0.3932431083
 40
0.5505905294
 40
0.7122274041
 40
0.8658112374
 40
1.0
 40
1.0
 40
1.0
 40
1.0
 10
113.1779160309
 20
73.4163851417
 30
0.0
 10
113.1712545483
 20
73.3179585797
 30
0.0
 10
113.3549931715
 20
73.1745491635
 30
0.0
 10
113.6045105626
 20
73.0751180423
 30
0.0
 10
113.8988058723
 20
72.9967992303
 30
0.0
 10
114.2265643556
 20
72.9489041611
 30
0.0
 10
114.5681499271
 20
72.9303942624
 30
0.0
 10
114.8926296881
 20
72.9443916701
 30
0.0
 10
115.0986924859
 20
72.9767622484
 30
0.0
 10
115.1926539949
 20
73.0003235
 30
0.0
  0
SPLINE
  5
634
100
AcDbEntity
  8
3_ALL_AXES
100
AcDbSpline
 62
7
  6
CONTINUOUS
 70
0
 71
3
 72
14
 73
10
 74
0
 42
0.0000001
 43
0.0000001
 44
0.0000000001
 40
0.0
 40
0.0
 40
0.0
 40
0.0
 40
0.1366739194
 40
0.252028723
 40
0.393264189
 40
0.5506087013
 40
0.7122384877
 40
0.8658178809
 40
1.0
 40
1.0
 40
1.0
 40
1.0
 10
113.1688595756
 20
73.2827396667
 30
0.0
 10
113.1622167502
 20
73.1843007007
 30
0.0
 10
113.3460068413
 20
73.0409360915
 30
0.0
 10
113.5955238816
 20
72.9414898753
 30
0.0
 10
113.8898221951
 20
72.8631926417
 30
0.0
 10
114.217568414
 20
72.8153031503
 30
0.0
 10
114.5591381117
 20
72.7967929292
 30
0.0
 10
114.8835987261
 20
72.8107979208
 30
0.0
 10
115.0896499079
 20
72.8431662283
 30
0.0
 10
115.1836051434
 20
72.8667259067
 30
0.0
  0
SPLINE
  5
635
100
AcDbEntity
  8
3_ALL_AXES
100
AcDbSpline
 62
7
  6
CONTINUOUS
 70
0
 71
3
 72
9
 73
5
 74
0
 42
0.0000001
 43
0.0000001
 44
0.0000000001
 40
0.0
 40
0.0
 40
0.0
 40
0.0
 40
0.3000205396
 40
1.0
 40
1.0
 40
1.0
 40
1.0
 10
113.4263207866
 20
65.2107984015
 30
0.0
 10
113.4201726901
 20
65.2529270035
 30
0.0
 10
113.3801890656
 20
65.378721417
 30
0.0
 10
113.2196068285
 20
65.5418031484
 30
0.0
 10
113.1338605932
 20
65.4916598344
 30
0.0
  0
SPLINE
  5
636
100
AcDbEntity
  8
3_ALL_AXES
100
AcDbSpline
 62
7
  6
CONTINUOUS
 70
0
 71
3
 72
8
 73
4
 74
0
 42
0.0000001
 43
0.0000001
 44
0.0000000001
 40
0.0
 40
0.0
 40
0.0
 40
0.0
 40
1.0
 40
1.0
 40
1.0
 40
1.0
 10
112.6800635655
 20
68.9560213114
 30
0.0
 10
112.6675872159
 20
68.9569147214
 30
0.0
 10
112.6546051643
 20
68.955608294
 30
0.0
 10
112.6428234159
 20
68.9514073554
 30
0.0
  0
SPLINE
  5
637
100
AcDbEntity
  8
3_ALL_AXES
100
AcDbSpline
 62
7
  6
CONTINUOUS
 70
0
 71
3
 72
10
 73
6
 74
0
 42
0.0000001
 43
0.0000001
 44
0.0000000001
 40
0.0
 40
0.0
 40
0.0
 40
0.0
 40
0.3436648703
 40
0.6222229459
 40
1.0
 40
1.0
 40
1.0
 40
1.0
 10
114.9429841087
 20
73.4786857745
 30
0.0
 10
114.9751207129
 20
73.4655593637
 30
0.0
 10
115.0325059982
 20
73.4380902629
 30
0.0
 10
115.1152147456
 20
73.3837166345
 30
0.0
 10
115.1602021837
 20
73.3203614726
 30
0.0
 10
115.1576246301
 20
73.2822888771
 30
0.0
  0
SPLINE
  5
638
100
AcDbEntity
  8
3_ALL_AXES
100
AcDbSpline
 62
7
  6
CONTINUOUS
 70
0
 71
3
 72
9
 73
5
 74
0
 42
0.0000001
 43
0.0000001
 44
0.0000000001
 40
0.0
 40
0.0
 40
0.0
 40
0.0
 40
0.5100036688
 40
1.0
 40
1.0
 40
1.0
 40
1.0
 10
114.4307462135
 20
68.0483693588
 30
0.0
 10
114.4227330411
 20
68.1032780207
 30
0.0
 10
114.3792169714
 20
68.2063616978
 30
0.0
 10
114.3029976677
 20
68.2897387256
 30
0.0
 10
114.2569361132
 20
68.3165837158
 30
0.0
  0
SPLINE
  5
639
100
AcDbEntity
  8
3_ALL_AXES
100
AcDbSpline
 62
7
  6
CONTINUOUS
 70
0
 71
3
 72
9
 73
5
 74
0
 42
0.0000001
 43
0.0000001
 44
0.0000000001
 40
0.0
 40
0.0
 40
0.0
 40
0.0
 40
0.3000205396
 40
1.0
 40
1.0
 40
1.0
 40
1.0
 10
114.9347676567
 20
64.5946631991
 30
0.0
 10
114.9286195602
 20
64.636791801
 30
0.0
 10
114.8886359357
 20
64.7625862146
 30
0.0
 10
114.7280536986
 20
64.9256679459
 30
0.0
 10
114.6423074633
 20
64.8755246319
 30
0.0
  0
SPLINE
  5
63A
100
AcDbEntity
  8
3_ALL_AXES
100
AcDbSpline
 62
7
  6
CONTINUOUS
 70
0
 71
3
 72
9
 73
5
 74
0
 42
0.0000001
 43
0.0000001
 44
0.0000000001
 40
0.0
 40
0.0
 40
0.0
 40
0.0
 40
0.2864336998
 40
1.0
 40
1.0
 40
1.0
 40
1.0
 10
115.2551948662
 20
61.4311278442
 30
0.0
 10
115.2468008926
 20
61.4345564188
 30
0.0
 10
115.2169484757
 20
61.4444830174
 30
0.0
 10
115.1814615072
 20
61.4424198059
 30
0.0
 10
115.1619788709
 20
61.4309892928
 30
0.0
  0
SPLINE
  5
63B
100
AcDbEntity
  8
3_ALL_AXES
100
AcDbSpline
 62
7
  6
CONTINUOUS
 70
0
 71
3
 72
9
 73
5
 74
0
 42
0.0000001
 43
0.0000001
 44
0.0000000001
 40
0.0
 40
0.0
 40
0.0
 40
0.0
 40
0.2864336998
 40
1.0
 40
1.0
 40
1.0
 40
1.0
 10
113.746747996
 20
62.0472630467
 30
0.0
 10
113.7383540225
 20
62.0506916213
 30
0.0
 10
113.7085016055
 20
62.0606182199
 30
0.0
 10
113.673014637
 20
62.0585550084
 30
0.0
 10
113.6535320008
 20
62.0471244953
 30
0.0
  0
SPLINE
  5
63C
100
AcDbEntity
  8
3_ALL_AXES
100
AcDbSpline
 62
7
  6
CONTINUOUS
 70
0
 71
3
 72
14
 73
10
 74
0
 42
0.0000001
 43
0.0000001
 44
0.0000000001
 40
0.0
 40
0.0
 40
0.0
 40
0.0
 40
0.1189473996
 40
0.2548298702
 40
0.5463530038
 40
0.6846398808
 40
0.8069037039
 40
0.9103187475
 40
1.0
 40
1.0
 40
1.0
 40
1.0
 10
116.1701248248
 20
68.9663444509
 30
0.0
 10
116.2648561154
 20
68.9276508224
 30
0.0
 10
116.4832509508
 20
68.8819187385
 30
0.0
 10
116.9552738382
 20
68.9000331546
 30
0.0
 10
117.4294747642
 20
69.0625650208
 30
0.0
 10
117.8195718563
 20
69.3380592966
 30
0.0
 10
118.0290020102
 20
69.5757323652
 30
0.0
 10
118.1403219443
 20
69.8301248469
 30
0.0
 10
118.1304521561
 20
70.0047224286
 30
0.0
 10
118.1043498347
 20
70.0773244012
 30
0.0
  0
SPLINE
  5
63D
100
AcDbEntity
  8
3_ALL_AXES
100
AcDbSpline
 62
7
  6
CONTINUOUS
 70
0
 71
3
 72
9
 73
5
 74
0
 42
0.0000001
 43
0.0000001
 44
0.0000000001
 40
0.0
 40
0.0
 40
0.0
 40
0.0
 40
0.4318754643
 40
1.0
 40
1.0
 40
1.0
 40
1.0
 10
114.8903377833
 20
64.4514067649
 30
0.0
 10
114.9097918834
 20
64.4627832766
 30
0.0
 10
114.9407735577
 20
64.5115280685
 30
0.0
 10
114.9390487637
 20
64.5653277693
 30
0.0
 10
114.9347676567
 20
64.5946631991
 30
0.0
  0
SPLINE
  5
63E
100
AcDbEntity
  8
3_ALL_AXES
100
AcDbSpline
 62
7
  6
CONTINUOUS
 70
0
 71
3
 72
14
 73
10
 74
0
 42
0.0000001
 43
0.0000001
 44
0.0000000001
 40
0.0
 40
0.0
 40
0.0
 40
0.0
 40
0.1366561595
 40
0.2520096706
 40
0.3932431083
 40
0.5505905294
 40
0.7122274041
 40
0.8658112374
 40
1.0
 40
1.0
 40
1.0
 40
1.0
 10
119.3974249585
 20
70.8759851659
 30
0.0
 10
119.3907634759
 20
70.7775586039
 30
0.0
 10
119.5745020991
 20
70.6341491876
 30
0.0
 10
119.8240194903
 20
70.5347180665
 30
0.0
 10
120.1183148
 20
70.4563992545
 30
0.0
 10
120.4460732833
 20
70.4085041853
 30
0.0
 10
120.7876588548
 20
70.3899942866
 30
0.0
 10
121.1121386158
 20
70.4039916943
 30
0.0
 10
121.3182014136
 20
70.4363622726
 30
0.0
 10
121.4121629226
 20
70.4599235242
 30
0.0
  0
SPLINE
  5
63F
100
AcDbEntity
  8
3_ALL_AXES
100
AcDbSpline
 62
7
  6
CONTINUOUS
 70
0
 71
3
 72
14
 73
10
 74
0
 42
0.0000001
 43
0.0000001
 44
0.0000000001
 40
0.0
 40
0.0
 40
0.0
 40
0.0
 40
0.1366739194
 40
0.252028723
 40
0.393264189
 40
0.5506087013
 40
0.7122384877
 40
0.8658178809
 40
1.0
 40
1.0
 40
1.0
 40
1.0
 10
119.3883685032
 20
70.7423396909
 30
0.0
 10
119.3817256778
 20
70.6439007249
 30
0.0
 10
119.565515769
 20
70.5005361157
 30
0.0
 10
119.8150328092
 20
70.4010898995
 30
0.0
 10
120.1093311227
 20
70.3227926659
 30
0.0
 10
120.4370773416
 20
70.2749031745
 30
0.0
 10
120.7786470393
 20
70.2563929534
 30
0.0
 10
121.1031076538
 20
70.270397945
 30
0.0
 10
121.3091588356
 20
70.3027662524
 30
0.0
 10
121.403114071
 20
70.3263259309
 30
0.0
  0
SPLINE
  5
640
100
AcDbEntity
  8
3_ALL_AXES
100
AcDbSpline
 62
7
  6
CONTINUOUS
 70
0
 71
3
 72
14
 73
10
 74
0
 42
0.0000001
 43
0.0000001
 44
0.0000000001
 40
0.0
 40
0.0
 40
0.0
 40
0.0
 40
0.1189473996
 40
0.2548298702
 40
0.5463530038
 40
0.6846398808
 40
0.8069037039
 40
0.9103187475
 40
1.0
 40
1.0
 40
1.0
 40
1.0
 10
111.4191110606
 20
70.9069277658
 30
0.0
 10
111.5138423512
 20
70.8682341372
 30
0.0
 10
111.7322371866
 20
70.8225020533
 30
0.0
 10
112.204260074
 20
70.8406164694
 30
0.0
 10
112.678461
 20
71.0031483357
 30
0.0
 10
113.0685580921
 20
71.2786426115
 30
0.0
 10
113.2779882461
 20
71.5163156801
 30
0.0
 10
113.3893081801
 20
71.7707081618
 30
0.0
 10
113.379438392
 20
71.9453057434
 30
0.0
 10
113.3533360705
 20
72.017907716
 30
0.0
  0
SPLINE
  5
641
100
AcDbEntity
  8
3_ALL_AXES
100
AcDbSpline
 62
7
  6
CONTINUOUS
 70
0
 71
3
 72
9
 73
5
 74
0
 42
0.0000001
 43
0.0000001
 44
0.0000000001
 40
0.0
 40
0.0
 40
0.0
 40
0.0
 40
0.2865888921
 40
1.0
 40
1.0
 40
1.0
 40
1.0
 10
115.4245496592
 20
61.5302448373
 30
0.0
 10
115.4161586519
 20
61.5336722003
 30
0.0
 10
115.3863367285
 20
61.5436004314
 30
0.0
 10
115.3508850077
 20
61.541556321
 30
0.0
 10
115.3314152464
 20
61.5301535134
 30
0.0
  0
SPLINE
  5
642
100
AcDbEntity
  8
3_ALL_AXES
100
AcDbSpline
 62
7
  6
CONTINUOUS
 70
0
 71
3
 72
9
 73
5
 74
0
 42
0.0000001
 43
0.0000001
 44
0.0000000001
 40
0.0
 40
0.0
 40
0.0
 40
0.0
 40
0.4472501991
 40
1.0
 40
1.0
 40
1.0
 40
1.0
 10
121.2546615562
 20
62.7513822741
 30
0.0
 10
121.2209456957
 20
62.7651498616
 30
0.0
 10
121.1609039566
 20
62.8326002066
 30
0.0
 10
121.1532397819
 20
62.9173544852
 30
0.0
 10
121.1562813728
 20
62.962260649
 30
0.0
  0
SPLINE
  5
643
100
AcDbEntity
  8
3_ALL_AXES
100
AcDbSpline
 62
7
  6
CONTINUOUS
 70
0
 71
3
 72
9
 73
5
 74
0
 42
0.0000001
 43
0.0000001
 44
0.0000000001
 40
0.0
 40
0.0
 40
0.0
 40
0.0
 40
0.4472506787
 40
1.0
 40
1.0
 40
1.0
 40
1.0
 10
121.4121693766
 20
62.6870435333
 30
0.0
 10
121.3784815763
 20
62.7008253572
 30
0.0
 10
121.3185536193
 20
62.7683022389
 30
0.0
 10
121.3108887822
 20
62.852987876
 30
0.0
 10
121.3139286477
 20
62.8978685663
 30
0.0
  0
SPLINE
  5
644
100
AcDbEntity
  8
3_ALL_AXES
100
AcDbSpline
 62
7
  6
CONTINUOUS
 70
0
 71
3
 72
9
 73
5
 74
0
 42
0.0000001
 43
0.0000001
 44
0.0000000001
 40
0.0
 40
0.0
 40
0.0
 40
0.0
 40
0.5308465958
 40
1.0
 40
1.0
 40
1.0
 40
1.0
 10
117.5096348863
 20
70.1369391748
 30
0.0
 10
117.5579129988
 20
70.1172196572
 30
0.0
 10
117.6450486877
 20
70.0666622151
 30
0.0
 10
117.7033851886
 20
69.9823370206
 30
0.0
 10
117.7189873282
 20
69.9389687449
 30
0.0
  0
SPLINE
  5
645
100
AcDbEntity
  8
3_ALL_AXES
100
AcDbSpline
 62
7
  6
CONTINUOUS
 70
0
 71
3
 72
13
 73
9
 74
0
 42
0.0000001
 43
0.0000001
 44
0.0000000001
 40
0.0
 40
0.0
 40
0.0
 40
0.0
 40
0.1370182658
 40
0.2528205514
 40
0.3945267967
 40
0.5522146702
 40
0.7139146287
 40
1.0
 40
1.0
 40
1.0
 40
1.0
 10
113.5864240594
 20
73.3887414498
 30
0.0
 10
113.5908377405
 20
73.453935163
 30
0.0
 10
113.7247693128
 20
73.5312874105
 30
0.0
 10
113.8975165883
 20
73.5738997759
 30
0.0
 10
114.0977942061
 20
73.5985753468
 30
0.0
 10
114.3171505567
 20
73.6003517518
 30
0.0
 10
114.6050282787
 20
73.5756963959
 30
0.0
 10
114.8166819315
 20
73.5302747426
 30
0.0
 10
114.9429841087
 20
73.4786857745
 30
0.0
  0
SPLINE
  5
646
100
AcDbEntity
  8
3_ALL_AXES
100
AcDbSpline
 62
7
  6
CONTINUOUS
 70
0
 71
3
 72
9
 73
5
 74
0
 42
0.0000001
 43
0.0000001
 44
0.0000000001
 40
0.0
 40
0.0
 40
0.0
 40
0.0
 40
0.2865888921
 40
1.0
 40
1.0
 40
1.0
 40
1.0
 10
113.9161027891
 20
62.1463800397
 30
0.0
 10
113.9077117818
 20
62.1498074027
 30
0.0
 10
113.8778898584
 20
62.1597356339
 30
0.0
 10
113.8424381375
 20
62.1576915235
 30
0.0
 10
113.8229683763
 20
62.1462887158
 30
0.0
  0
SPLINE
  5
647
100
AcDbEntity
  8
3_ALL_AXES
100
AcDbSpline
 62
7
  6
CONTINUOUS
 70
0
 71
3
 72
9
 73
5
 74
0
 42
0.0000001
 43
0.0000001
 44
0.0000000001
 40
0.0
 40
0.0
 40
0.0
 40
0.0
 40
0.5308465958
 40
1.0
 40
1.0
 40
1.0
 40
1.0
 10
112.7586211221
 20
72.0775224897
 30
0.0
 10
112.8068992346
 20
72.0578029721
 30
0.0
 10
112.8940349235
 20
72.0072455299
 30
0.0
 10
112.9523714245
 20
71.9229203355
 30
0.0
 10
112.967973564
 20
71.8795520598
 30
0.0
  0
SPLINE
  5
648
100
AcDbEntity
  8
3_ALL_AXES
100
AcDbSpline
 62
7
  6
CONTINUOUS
 70
0
 71
3
 72
13
 73
9
 74
0
 42
0.0000001
 43
0.0000001
 44
0.0000000001
 40
0.0
 40
0.0
 40
0.0
 40
0.0
 40
0.1370182658
 40
0.2528205514
 40
0.3945267967
 40
0.5522146702
 40
0.7139146287
 40
1.0
 40
1.0
 40
1.0
 40
1.0
 10
119.8059329871
 20
70.848341474
 30
0.0
 10
119.8103466681
 20
70.9135351872
 30
0.0
 10
119.9442782405
 20
70.9908874347
 30
0.0
 10
120.117025516
 20
71.0334998001
 30
0.0
 10
120.3173031337
 20
71.058175371
 30
0.0
 10
120.5366594843
 20
71.059951776
 30
0.0
 10
120.8245372064
 20
71.0352964201
 30
0.0
 10
121.0361908591
 20
70.9898747668
 30
0.0
 10
121.1624930364
 20
70.9382857986
 30
0.0
  0
SPLINE
  5
649
100
AcDbEntity
  8
3_ALL_AXES
100
AcDbSpline
 62
7
  6
CONTINUOUS
 70
0
 71
3
 72
13
 73
9
 74
0
 42
0.0000001
 43
0.0000001
 44
0.0000000001
 40
0.0
 40
0.0
 40
0.0
 40
0.0
 40
0.0898629211
 40
0.1934767624
 40
0.3159821618
 40
0.454551251
 40
0.746688756
 40
1.0
 40
1.0
 40
1.0
 40
1.0
 10
111.4861654569
 20
71.3464494879
 30
0.0
 10
111.4689819062
 20
71.3942135116
 30
0.0
 10
111.4623960489
 20
71.509070104
 30
0.0
 10
111.5356036873
 20
71.6764768665
 30
0.0
 10
111.6732526842
 20
71.8328535538
 30
0.0
 10
111.9305192214
 20
72.0142701496
 30
0.0
 10
112.3021949602
 20
72.1424550451
 30
0.0
 10
112.626156836
 20
72.1316284124
 30
0.0
 10
112.7586211221
 20
72.0775224897
 30
0.0
  0
SPLINE
  5
64A
100
AcDbEntity
  8
3_ALL_AXES
100
AcDbSpline
 62
7
  6
CONTINUOUS
 70
0
 71
3
 72
13
 73
9
 74
0
 42
0.0000001
 43
0.0000001
 44
0.0000000001
 40
0.0
 40
0.0
 40
0.0
 40
0.0
 40
0.0898629211
 40
0.1934767624
 40
0.3159821618
 40
0.454551251
 40
0.746688756
 40
1.0
 40
1.0
 40
1.0
 40
1.0
 10
116.237179221
 20
69.4058661731
 30
0.0
 10
116.2199956704
 20
69.4536301968
 30
0.0
 10
116.2134098131
 20
69.5684867891
 30
0.0
 10
116.2866174514
 20
69.7358935517
 30
0.0
 10
116.4242664483
 20
69.8922702389
 30
0.0
 10
116.6815329856
 20
70.0736868347
 30
0.0
 10
117.0532087243
 20
70.2018717303
 30
0.0
 10
117.3771706002
 20
70.1910450975
 30
0.0
 10
117.5096348863
 20
70.1369391748
 30
0.0
  0
SPLINE
  5
64B
100
AcDbEntity
  8
3_ALL_AXES
100
AcDbSpline
 62
7
  6
CONTINUOUS
 70
0
 71
3
 72
11
 73
7
 74
0
 42
0.0000001
 43
0.0000001
 44
0.0000000001
 40
0.0
 40
0.0
 40
0.0
 40
0.0
 40
0.105093162
 40
0.3218019865
 40
0.6343702762
 40
1.0
 40
1.0
 40
1.0
 40
1.0
 10
114.0030970145
 20
40.2954091347
 30
0.0
 10
114.0030970145
 20
40.3066792736
 30
0.0
 10
113.9664192656
 20
40.3293954153
 30
0.0
 10
113.904935074
 20
40.3432195402
 30
0.0
 10
113.8073967351
 20
40.3569149969
 30
0.0
 10
113.7352334633
 20
40.3592560319
 30
0.0
 10
113.6960235119
 20
40.3592560319
 30
0.0
  0
SPLINE
  5
64C
100
AcDbEntity
  8
3_ALL_AXES
100
AcDbSpline
 62
7
  6
CONTINUOUS
 70
0
 71
3
 72
11
 73
7
 74
0
 42
0.0000001
 43
0.0000001
 44
0.0000000001
 40
0.0
 40
0.0
 40
0.0
 40
0.0
 40
0.105093162
 40
0.3218019865
 40
0.6343702762
 40
1.0
 40
1.0
 40
1.0
 40
1.0
 10
111.2530970145
 20
40.2954091347
 30
0.0
 10
111.2530970145
 20
40.3066792736
 30
0.0
 10
111.2164192656
 20
40.3293954153
 30
0.0
 10
111.154935074
 20
40.3432195402
 30
0.0
 10
111.0573967351
 20
40.3569149969
 30
0.0
 10
110.9852334633
 20
40.3592560319
 30
0.0
 10
110.9460235119
 20
40.3592560319
 30
0.0
  0
SPLINE
  5
64D
100
AcDbEntity
  8
3_ALL_AXES
100
AcDbSpline
 62
7
  6
CONTINUOUS
 70
0
 71
3
 72
15
 73
11
 74
0
 42
0.0000001
 43
0.0000001
 44
0.0000000001
 40
0.0
 40
0.0
 40
0.0
 40
0.0
 40
0.0525552537
 40
0.1609017908
 40
0.3172163675
 40
0.5
 40
0.6827836325
 40
0.8390982092
 40
0.9474447463
 40
1.0
 40
1.0
 40
1.0
 40
1.0
 10
111.2531101261
 20
39.2828075042
 30
0.0
 10
111.2531101261
 20
39.2940799183
 30
0.0
 10
111.2164288109
 20
39.3167948231
 30
0.0
 10
111.154922978
 20
39.3306171106
 30
0.0
 10
111.0574636145
 20
39.3443102124
 30
0.0
 10
110.9460235119
 20
39.3479137909
 30
0.0
 10
110.8345834092
 20
39.3443102124
 30
0.0
 10
110.7371240458
 20
39.3306171106
 30
0.0
 10
110.6756182129
 20
39.3167948231
 30
0.0
 10
110.6389368977
 20
39.2940799183
 30
0.0
 10
110.6389368977
 20
39.2828075042
 30
0.0
  0
SPLINE
  5
64E
100
AcDbEntity
  8
3_ALL_AXES
100
AcDbSpline
 62
7
  6
CONTINUOUS
 70
0
 71
3
 72
15
 73
11
 74
0
 42
0.0000001
 43
0.0000001
 44
0.0000000001
 40
0.0
 40
0.0
 40
0.0
 40
0.0
 40
0.0525552537
 40
0.1609017908
 40
0.3172163675
 40
0.5
 40
0.6827836325
 40
0.8390982092
 40
0.9474447463
 40
1.0
 40
1.0
 40
1.0
 40
1.0
 10
114.0031101261
 20
39.2828075042
 30
0.0
 10
114.0031101261
 20
39.2940799183
 30
0.0
 10
113.9664288109
 20
39.3167948231
 30
0.0
 10
113.904922978
 20
39.3306171106
 30
0.0
 10
113.8074636145
 20
39.3443102124
 30
0.0
 10
113.6960235119
 20
39.3479137909
 30
0.0
 10
113.5845834092
 20
39.3443102124
 30
0.0
 10
113.4871240458
 20
39.3306171106
 30
0.0
 10
113.4256182129
 20
39.3167948231
 30
0.0
 10
113.3889368977
 20
39.2940799183
 30
0.0
 10
113.3889368977
 20
39.2828075042
 30
0.0
  0
SPLINE
  5
64F
100
AcDbEntity
  8
3_ALL_AXES
100
AcDbSpline
 62
7
  6
CONTINUOUS
 70
0
 71
3
 72
11
 73
7
 74
0
 42
0.0000001
 43
0.0000001
 44
0.0000000001
 40
0.0
 40
0.0
 40
0.0
 40
0.0
 40
0.2483503334
 40
0.5003895743
 40
0.7520998243
 40
1.0
 40
1.0
 40
1.0
 40
1.0
 10
111.1778657864
 20
38.7720153551
 30
0.0
 10
111.1809937488
 20
38.8069698273
 30
0.0
 10
111.2173502851
 20
38.8773439663
 30
0.0
 10
111.3277765028
 20
38.9142266607
 30
0.0
 10
111.4346792817
 20
38.8681784057
 30
0.0
 10
111.4647242993
 20
38.7949364933
 30
0.0
 10
111.4647242993
 20
38.7599059559
 30
0.0
  0
SPLINE
  5
650
100
AcDbEntity
  8
3_ALL_AXES
100
AcDbSpline
 62
7
  6
CONTINUOUS
 70
0
 71
3
 72
11
 73
7
 74
0
 42
0.0000001
 43
0.0000001
 44
0.0000000001
 40
0.0
 40
0.0
 40
0.0
 40
0.0
 40
0.2483503334
 40
0.5003895743
 40
0.7520998243
 40
1.0
 40
1.0
 40
1.0
 40
1.0
 10
113.4641812374
 20
38.7720153551
 30
0.0
 10
113.461053275
 20
38.8069698273
 30
0.0
 10
113.4246967387
 20
38.8773439663
 30
0.0
 10
113.314270521
 20
38.9142266607
 30
0.0
 10
113.207367742
 20
38.8681784057
 30
0.0
 10
113.1773227245
 20
38.7949364933
 30
0.0
 10
113.1773227245
 20
38.7599059559
 30
0.0
  0
SPLINE
  5
651
100
AcDbEntity
  8
3_ALL_AXES
100
AcDbSpline
 62
7
  6
CONTINUOUS
 70
0
 71
3
 72
15
 73
11
 74
0
 42
0.0000001
 43
0.0000001
 44
0.0000000001
 40
0.0
 40
0.0
 40
0.0
 40
0.0
 40
0.1182809034
 40
0.2406006204
 40
0.3684240018
 40
0.5
 40
0.6315759982
 40
0.7593993796
 40
0.8817190966
 40
1.0
 40
1.0
 40
1.0
 40
1.0
 10
116.4942518583
 20
30.8004712379
 30
0.0
 10
116.4942518583
 20
30.6262417388
 30
0.0
 10
116.5756640087
 20
30.2674267884
 30
0.0
 10
116.9147441228
 20
29.8250047399
 30
0.0
 10
117.4113525189
 20
29.5343751822
 30
0.0
 10
117.9903148505
 20
29.4335324872
 30
0.0
 10
118.5692771821
 20
29.5343751822
 30
0.0
 10
119.0658855781
 20
29.8250047399
 30
0.0
 10
119.4049656922
 20
30.2674267884
 30
0.0
 10
119.4863778426
 20
30.6262417388
 30
0.0
 10
119.4863778426
 20
30.8004712379
 30
0.0
  0
SPLINE
  5
652
100
AcDbEntity
  8
3_ALL_AXES
100
AcDbSpline
 62
7
  6
CONTINUOUS
 70
0
 71
3
 72
15
 73
11
 74
0
 42
0.0000001
 43
0.0000001
 44
0.0000000001
 40
0.0
 40
0.0
 40
0.0
 40
0.0
 40
0.1182809034
 40
0.2406006204
 40
0.3684240018
 40
0.5
 40
0.6315759982
 40
0.7593993796
 40
0.8817190966
 40
1.0
 40
1.0
 40
1.0
 40
1.0
 10
105.1556691812
 20
30.8004712379
 30
0.0
 10
105.1556691812
 20
30.6262417388
 30
0.0
 10
105.2370813316
 20
30.2674267884
 30
0.0
 10
105.5761614457
 20
29.8250047399
 30
0.0
 10
106.0727698417
 20
29.5343751822
 30
0.0
 10
106.6517321733
 20
29.4335324872
 30
0.0
 10
107.2306945049
 20
29.5343751822
 30
0.0
 10
107.7273029009
 20
29.8250047399
 30
0.0
 10
108.066383015
 20
30.2674267884
 30
0.0
 10
108.1477951654
 20
30.6262417388
 30
0.0
 10
108.1477951654
 20
30.8004712379
 30
0.0
  0
SPLINE
  5
653
100
AcDbEntity
  8
3_ALL_AXES
100
AcDbSpline
 62
7
  6
CONTINUOUS
 70
0
 71
3
 72
11
 73
7
 74
0
 42
0.0000001
 43
0.0000001
 44
0.0000000001
 40
0.0
 40
0.0
 40
0.0
 40
0.0
 40
0.263171697
 40
0.5188020376
 40
0.7634450228
 40
1.0
 40
1.0
 40
1.0
 40
1.0
 10
106.6517321733
 20
31.6774461633
 30
0.0
 10
106.7792503142
 20
31.6774461633
 30
0.0
 10
107.032942382
 20
31.6334273666
 30
0.0
 10
107.3592858796
 20
31.4422260026
 30
0.0
 10
107.5824226621
 20
31.1511446013
 30
0.0
 10
107.6359841418
 20
30.9150924196
 30
0.0
 10
107.6359841418
 20
30.8004712379
 30
0.0
  0
SPLINE
  5
654
100
AcDbEntity
  8
3_ALL_AXES
100
AcDbSpline
 62
7
  6
CONTINUOUS
 70
0
 71
3
 72
11
 73
7
 74
0
 42
0.0000001
 43
0.0000001
 44
0.0000000001
 40
0.0
 40
0.0
 40
0.0
 40
0.0
 40
0.263171697
 40
0.5188020376
 40
0.7634450228
 40
1.0
 40
1.0
 40
1.0
 40
1.0
 10
117.9903148505
 20
31.6774461633
 30
0.0
 10
118.1178329913
 20
31.6774461633
 30
0.0
 10
118.3715250592
 20
31.6334273666
 30
0.0
 10
118.6978685568
 20
31.4422260026
 30
0.0
 10
118.9210053392
 20
31.1511446013
 30
0.0
 10
118.974566819
 20
30.9150924196
 30
0.0
 10
118.974566819
 20
30.8004712379
 30
0.0
  0
SPLINE
  5
655
100
AcDbEntity
  8
3_ALL_AXES
100
AcDbSpline
 62
7
  6
CONTINUOUS
 70
0
 71
3
 72
11
 73
7
 74
0
 42
0.0000001
 43
0.0000001
 44
0.0000000001
 40
0.0
 40
0.0
 40
0.0
 40
0.0
 40
0.2365549772
 40
0.4811979624
 40
0.736828303
 40
1.0
 40
1.0
 40
1.0
 40
1.0
 10
105.6674802048
 20
30.8004712379
 30
0.0
 10
105.6674802048
 20
30.9150924196
 30
0.0
 10
105.7210416845
 20
31.1511446013
 30
0.0
 10
105.944178467
 20
31.4422260026
 30
0.0
 10
106.2705219646
 20
31.6334273666
 30
0.0
 10
106.5242140324
 20
31.6774461633
 30
0.0
 10
106.6517321733
 20
31.6774461633
 30
0.0
  0
SPLINE
  5
656
100
AcDbEntity
  8
3_ALL_AXES
100
AcDbSpline
 62
7
  6
CONTINUOUS
 70
0
 71
3
 72
11
 73
7
 74
0
 42
0.0000001
 43
0.0000001
 44
0.0000000001
 40
0.0
 40
0.0
 40
0.0
 40
0.0
 40
0.2365549772
 40
0.4811979624
 40
0.736828303
 40
1.0
 40
1.0
 40
1.0
 40
1.0
 10
117.006062882
 20
30.8004712379
 30
0.0
 10
117.006062882
 20
30.9150924196
 30
0.0
 10
117.0596243617
 20
31.1511446013
 30
0.0
 10
117.2827611441
 20
31.4422260026
 30
0.0
 10
117.6091046417
 20
31.6334273666
 30
0.0
 10
117.8627967096
 20
31.6774461633
 30
0.0
 10
117.9903148505
 20
31.6774461633
 30
0.0
  0
SPLINE
  5
657
100
AcDbEntity
  8
3_ALL_AXES
100
AcDbSpline
 62
7
  6
CONTINUOUS
 70
0
 71
3
 72
11
 73
7
 74
0
 42
0.0000001
 43
0.0000001
 44
0.0000000001
 40
0.0
 40
0.0
 40
0.0
 40
0.0
 40
0.3656297238
 40
0.6781980135
 40
0.894906838
 40
1.0
 40
1.0
 40
1.0
 40
1.0
 10
113.6960235119
 20
40.3592560319
 30
0.0
 10
113.6568135605
 20
40.3592560319
 30
0.0
 10
113.5846502886
 20
40.3569149969
 30
0.0
 10
113.4871119498
 20
40.3432195402
 30
0.0
 10
113.4256277581
 20
40.3293954153
 30
0.0
 10
113.3889500092
 20
40.3066792736
 30
0.0
 10
113.3889500092
 20
40.2954091347
 30
0.0
  0
SPLINE
  5
658
100
AcDbEntity
  8
3_ALL_AXES
100
AcDbSpline
 62
7
  6
CONTINUOUS
 70
0
 71
3
 72
11
 73
7
 74
0
 42
0.0000001
 43
0.0000001
 44
0.0000000001
 40
0.0
 40
0.0
 40
0.0
 40
0.0
 40
0.3656297238
 40
0.6781980135
 40
0.894906838
 40
1.0
 40
1.0
 40
1.0
 40
1.0
 10
110.9460235119
 20
40.3592560319
 30
0.0
 10
110.9068135605
 20
40.3592560319
 30
0.0
 10
110.8346502886
 20
40.3569149969
 30
0.0
 10
110.7371119498
 20
40.3432195402
 30
0.0
 10
110.6756277581
 20
40.3293954153
 30
0.0
 10
110.6389500092
 20
40.3066792736
 30
0.0
 10
110.6389500092
 20
40.2954091347
 30
0.0
  0
SPLINE
  5
659
100
AcDbEntity
  8
3_ALL_AXES
100
AcDbSpline
 62
7
  6
CONTINUOUS
 70
0
 71
3
 72
11
 73
7
 74
0
 42
0.0000001
 43
0.0000001
 44
0.0000000001
 40
0.0
 40
0.0
 40
0.0
 40
0.0
 40
0.2485867819
 40
0.5
 40
0.7514132181
 40
1.0
 40
1.0
 40
1.0
 40
1.0
 10
111.4537857282
 20
38.5841586893
 30
0.0
 10
111.443099758
 20
38.558878287
 30
0.0
 10
111.4050576469
 20
38.5136955069
 30
0.0
 10
111.3210235119
 20
38.4891886267
 30
0.0
 10
111.2369893768
 20
38.5136955069
 30
0.0
 10
111.1989472657
 20
38.558878287
 30
0.0
 10
111.1882612956
 20
38.5841586893
 30
0.0
  0
SPLINE
  5
65A
100
AcDbEntity
  8
3_ALL_AXES
100
AcDbSpline
 62
7
  6
CONTINUOUS
 70
0
 71
3
 72
11
 73
7
 74
0
 42
0.0000001
 43
0.0000001
 44
0.0000000001
 40
0.0
 40
0.0
 40
0.0
 40
0.0
 40
0.2485867819
 40
0.5
 40
0.7514132181
 40
1.0
 40
1.0
 40
1.0
 40
1.0
 10
113.1882612956
 20
38.5841586893
 30
0.0
 10
113.1989472657
 20
38.558878287
 30
0.0
 10
113.2369893768
 20
38.5136955069
 30
0.0
 10
113.3210235119
 20
38.4891886267
 30
0.0
 10
113.4050576469
 20
38.5136955069
 30
0.0
 10
113.443099758
 20
38.558878287
 30
0.0
 10
113.4537857282
 20
38.5841586893
 30
0.0
  0
SPLINE
  5
65B
100
AcDbEntity
  8
3_ALL_AXES
100
AcDbSpline
 62
7
  6
CONTINUOUS
 70
0
 71
3
 72
15
 73
11
 74
0
 42
0.0000001
 43
0.0000001
 44
0.0000000001
 40
0.0
 40
0.0
 40
0.0
 40
0.0
 40
0.1182790001
 40
0.2406006263
 40
0.3684245738
 40
0.5
 40
0.6315754262
 40
0.7593993737
 40
0.8817209999
 40
1.0
 40
1.0
 40
1.0
 40
1.0
 10
108.1477951654
 20
30.8809026256
 30
0.0
 10
108.1477951654
 20
31.0551293557
 30
0.0
 10
108.0663835142
 20
31.4139431233
 30
0.0
 10
107.7273106843
 20
31.8563732283
 30
0.0
 10
107.2306936602
 20
32.1469978851
 30
0.0
 10
106.6517321733
 20
32.2478314793
 30
0.0
 10
106.0727706864
 20
32.1469978851
 30
0.0
 10
105.5761536623
 20
31.8563732283
 30
0.0
 10
105.2370808324
 20
31.4139431233
 30
0.0
 10
105.1556691812
 20
31.0551293557
 30
0.0
 10
105.1556691812
 20
30.8809026256
 30
0.0
  0
SPLINE
  5
65C
100
AcDbEntity
  8
3_ALL_AXES
100
AcDbSpline
 62
7
  6
CONTINUOUS
 70
0
 71
3
 72
11
 73
7
 74
0
 42
0.0000001
 43
0.0000001
 44
0.0000000001
 40
0.0
 40
0.0
 40
0.0
 40
0.0
 40
0.3656297238
 40
0.6781980135
 40
0.894906838
 40
1.0
 40
1.0
 40
1.0
 40
1.0
 10
113.6960235119
 20
40.2315622375
 30
0.0
 10
113.7352334633
 20
40.2315622375
 30
0.0
 10
113.8073967351
 20
40.2339032725
 30
0.0
 10
113.904935074
 20
40.2475987291
 30
0.0
 10
113.9664192656
 20
40.261422854
 30
0.0
 10
114.0030970145
 20
40.2841389958
 30
0.0
 10
114.0030970145
 20
40.2954091347
 30
0.0
  0
SPLINE
  5
65D
100
AcDbEntity
  8
3_ALL_AXES
100
AcDbSpline
 62
7
  6
CONTINUOUS
 70
0
 71
3
 72
11
 73
7
 74
0
 42
0.0000001
 43
0.0000001
 44
0.0000000001
 40
0.0
 40
0.0
 40
0.0
 40
0.0
 40
0.263171697
 40
0.5188020376
 40
0.7634450228
 40
1.0
 40
1.0
 40
1.0
 40
1.0
 10
106.6517321733
 20
29.9234963125
 30
0.0
 10
106.5242140324
 20
29.9234963125
 30
0.0
 10
106.2705219646
 20
29.9675151092
 30
0.0
 10
105.944178467
 20
30.1587164731
 30
0.0
 10
105.7210416845
 20
30.4497978745
 30
0.0
 10
105.6674802048
 20
30.6858500562
 30
0.0
 10
105.6674802048
 20
30.8004712379
 30
0.0
  0
SPLINE
  5
65E
100
AcDbEntity
  8
3_ALL_AXES
100
AcDbSpline
 62
7
  6
CONTINUOUS
 70
0
 71
3
 72
15
 73
11
 74
0
 42
0.0000001
 43
0.0000001
 44
0.0000000001
 40
0.0
 40
0.0
 40
0.0
 40
0.0
 40
0.0525552537
 40
0.1609017908
 40
0.3172163675
 40
0.5
 40
0.6827836325
 40
0.8390982092
 40
0.9474447463
 40
1.0
 40
1.0
 40
1.0
 40
1.0
 10
110.6389368977
 20
39.2828075042
 30
0.0
 10
110.6389368977
 20
39.2715350902
 30
0.0
 10
110.6756182129
 20
39.2488201853
 30
0.0
 10
110.7371240458
 20
39.2349978979
 30
0.0
 10
110.8345834092
 20
39.2213047961
 30
0.0
 10
110.9460235119
 20
39.2177012176
 30
0.0
 10
111.0574636145
 20
39.2213047961
 30
0.0
 10
111.154922978
 20
39.2349978979
 30
0.0
 10
111.2164288109
 20
39.2488201853
 30
0.0
 10
111.2531101261
 20
39.2715350902
 30
0.0
 10
111.2531101261
 20
39.2828075042
 30
0.0
  0
SPLINE
  5
65F
100
AcDbEntity
  8
3_ALL_AXES
100
AcDbSpline
 62
7
  6
CONTINUOUS
 70
0
 71
3
 72
11
 73
7
 74
0
 42
0.0000001
 43
0.0000001
 44
0.0000000001
 40
0.0
 40
0.0
 40
0.0
 40
0.0
 40
0.263171697
 40
0.5188020376
 40
0.7634450228
 40
1.0
 40
1.0
 40
1.0
 40
1.0
 10
117.9903148505
 20
29.9234963125
 30
0.0
 10
117.8627967096
 20
29.9234963125
 30
0.0
 10
117.6091046417
 20
29.9675151092
 30
0.0
 10
117.2827611441
 20
30.1587164731
 30
0.0
 10
117.0596243617
 20
30.4497978745
 30
0.0
 10
117.006062882
 20
30.6858500562
 30
0.0
 10
117.006062882
 20
30.8004712379
 30
0.0
  0
SPLINE
  5
660
100
AcDbEntity
  8
3_ALL_AXES
100
AcDbSpline
 62
7
  6
CONTINUOUS
 70
0
 71
3
 72
8
 73
4
 74
0
 42
0.0000001
 43
0.0000001
 44
0.0000000001
 40
0.0
 40
0.0
 40
0.0
 40
0.0
 40
1.0
 40
1.0
 40
1.0
 40
1.0
 10
113.1773227245
 20
38.6255069352
 30
0.0
 10
113.1773227245
 20
38.6072098847
 30
0.0
 10
113.1811374529
 20
38.5885700062
 30
0.0
 10
113.1882612956
 20
38.5717167298
 30
0.0
  0
SPLINE
  5
661
100
AcDbEntity
  8
3_ALL_AXES
100
AcDbSpline
 62
7
  6
CONTINUOUS
 70
0
 71
3
 72
11
 73
7
 74
0
 42
0.0000001
 43
0.0000001
 44
0.0000000001
 40
0.0
 40
0.0
 40
0.0
 40
0.0
 40
0.2485867819
 40
0.5
 40
0.7514132181
 40
1.0
 40
1.0
 40
1.0
 40
1.0
 10
113.1882612956
 20
38.5717167298
 30
0.0
 10
113.1989472657
 20
38.5464363275
 30
0.0
 10
113.2369893768
 20
38.5012535474
 30
0.0
 10
113.3210235119
 20
38.4767466672
 30
0.0
 10
113.4050576469
 20
38.5012535474
 30
0.0
 10
113.443099758
 20
38.5464363275
 30
0.0
 10
113.4537857282
 20
38.5717167298
 30
0.0
  0
SPLINE
  5
662
100
AcDbEntity
  8
3_ALL_AXES
100
AcDbSpline
 62
7
  6
CONTINUOUS
 70
0
 71
3
 72
8
 73
4
 74
0
 42
0.0000001
 43
0.0000001
 44
0.0000000001
 40
0.0
 40
0.0
 40
0.0
 40
0.0
 40
1.0
 40
1.0
 40
1.0
 40
1.0
 10
113.4537857282
 20
38.5717167298
 30
0.0
 10
113.4609095708
 20
38.5885700062
 30
0.0
 10
113.4647242993
 20
38.6072098847
 30
0.0
 10
113.4647242993
 20
38.6255069352
 30
0.0
  0
SPLINE
  5
663
100
AcDbEntity
  8
3_ALL_AXES
100
AcDbSpline
 62
7
  6
CONTINUOUS
 70
0
 71
3
 72
11
 73
7
 74
0
 42
0.0000001
 43
0.0000001
 44
0.0000000001
 40
0.0
 40
0.0
 40
0.0
 40
0.0
 40
0.105093162
 40
0.3218019865
 40
0.6343702762
 40
1.0
 40
1.0
 40
1.0
 40
1.0
 10
113.3889500092
 20
40.2954091347
 30
0.0
 10
113.3889500092
 20
40.2841389958
 30
0.0
 10
113.4256277581
 20
40.261422854
 30
0.0
 10
113.4871119498
 20
40.2475987291
 30
0.0
 10
113.5846502886
 20
40.2339032725
 30
0.0
 10
113.6568135605
 20
40.2315622375
 30
0.0
 10
113.6960235119
 20
40.2315622375
 30
0.0
  0
SPLINE
  5
664
100
AcDbEntity
  8
3_ALL_AXES
100
AcDbSpline
 62
7
  6
CONTINUOUS
 70
0
 71
3
 72
11
 73
7
 74
0
 42
0.0000001
 43
0.0000001
 44
0.0000000001
 40
0.0
 40
0.0
 40
0.0
 40
0.0
 40
0.3656297238
 40
0.6781980135
 40
0.894906838
 40
1.0
 40
1.0
 40
1.0
 40
1.0
 10
110.9460235119
 20
40.2315622375
 30
0.0
 10
110.9852334633
 20
40.2315622375
 30
0.0
 10
111.0573967351
 20
40.2339032725
 30
0.0
 10
111.154935074
 20
40.2475987291
 30
0.0
 10
111.2164192656
 20
40.261422854
 30
0.0
 10
111.2530970145
 20
40.2841389958
 30
0.0
 10
111.2530970145
 20
40.2954091347
 30
0.0
  0
SPLINE
  5
665
100
AcDbEntity
  8
3_ALL_AXES
100
AcDbSpline
 62
7
  6
CONTINUOUS
 70
0
 71
3
 72
8
 73
4
 74
0
 42
0.0000001
 43
0.0000001
 44
0.0000000001
 40
0.0
 40
0.0
 40
0.0
 40
0.0
 40
1.0
 40
1.0
 40
1.0
 40
1.0
 10
111.4647242993
 20
38.6255069352
 30
0.0
 10
111.4647242993
 20
38.6072098847
 30
0.0
 10
111.4609095708
 20
38.5885700062
 30
0.0
 10
111.4537857282
 20
38.5717167298
 30
0.0
  0
SPLINE
  5
666
100
AcDbEntity
  8
3_ALL_AXES
100
AcDbSpline
 62
7
  6
CONTINUOUS
 70
0
 71
3
 72
11
 73
7
 74
0
 42
0.0000001
 43
0.0000001
 44
0.0000000001
 40
0.0
 40
0.0
 40
0.0
 40
0.0
 40
0.2485867819
 40
0.5
 40
0.7514132181
 40
1.0
 40
1.0
 40
1.0
 40
1.0
 10
111.4537857282
 20
38.5717167298
 30
0.0
 10
111.443099758
 20
38.5464363275
 30
0.0
 10
111.4050576469
 20
38.5012535474
 30
0.0
 10
111.3210235119
 20
38.4767466672
 30
0.0
 10
111.2369893768
 20
38.5012535474
 30
0.0
 10
111.1989472657
 20
38.5464363275
 30
0.0
 10
111.1882612956
 20
38.5717167298
 30
0.0
  0
SPLINE
  5
667
100
AcDbEntity
  8
3_ALL_AXES
100
AcDbSpline
 62
7
  6
CONTINUOUS
 70
0
 71
3
 72
8
 73
4
 74
0
 42
0.0000001
 43
0.0000001
 44
0.0000000001
 40
0.0
 40
0.0
 40
0.0
 40
0.0
 40
1.0
 40
1.0
 40
1.0
 40
1.0
 10
111.1882612956
 20
38.5717167298
 30
0.0
 10
111.1811374529
 20
38.5885700062
 30
0.0
 10
111.1773227245
 20
38.6072098847
 30
0.0
 10
111.1773227245
 20
38.6255069352
 30
0.0
  0
SPLINE
  5
668
100
AcDbEntity
  8
3_ALL_AXES
100
AcDbSpline
 62
7
  6
CONTINUOUS
 70
0
 71
3
 72
15
 73
11
 74
0
 42
0.0000001
 43
0.0000001
 44
0.0000000001
 40
0.0
 40
0.0
 40
0.0
 40
0.0
 40
0.0525552537
 40
0.1609017908
 40
0.3172163675
 40
0.5
 40
0.6827836325
 40
0.8390982092
 40
0.9474447463
 40
1.0
 40
1.0
 40
1.0
 40
1.0
 10
113.3889368977
 20
39.2828075042
 30
0.0
 10
113.3889368977
 20
39.2715350902
 30
0.0
 10
113.4256182129
 20
39.2488201853
 30
0.0
 10
113.4871240458
 20
39.2349978979
 30
0.0
 10
113.5845834092
 20
39.2213047961
 30
0.0
 10
113.6960235119
 20
39.2177012176
 30
0.0
 10
113.8074636145
 20
39.2213047961
 30
0.0
 10
113.904922978
 20
39.2349978979
 30
0.0
 10
113.9664288109
 20
39.2488201853
 30
0.0
 10
114.0031101261
 20
39.2715350902
 30
0.0
 10
114.0031101261
 20
39.2828075042
 30
0.0
  0
SPLINE
  5
669
100
AcDbEntity
  8
3_ALL_AXES
100
AcDbSpline
 62
7
  6
CONTINUOUS
 70
0
 71
3
 72
9
 73
5
 74
0
 42
0.0000001
 43
0.0000001
 44
0.0000000001
 40
0.0
 40
0.0
 40
0.0
 40
0.0
 40
0.5105941456
 40
1.0
 40
1.0
 40
1.0
 40
1.0
 10
117.9903148505
 20
30.8976097863
 30
0.0
 10
118.1481105138
 20
30.8976097863
 30
0.0
 10
118.4612941666
 20
30.9642578232
 30
0.0
 10
118.7150392724
 20
31.1636601824
 30
0.0
 10
118.8063342912
 20
31.2842464402
 30
0.0
  0
SPLINE
  5
66A
100
AcDbEntity
  8
3_ALL_AXES
100
AcDbSpline
 62
7
  6
CONTINUOUS
 70
0
 71
3
 72
9
 73
5
 74
0
 42
0.0000001
 43
0.0000001
 44
0.0000000001
 40
0.0
 40
0.0
 40
0.0
 40
0.0
 40
0.5105941456
 40
1.0
 40
1.0
 40
1.0
 40
1.0
 10
106.6517321733
 20
30.8976097863
 30
0.0
 10
106.8095278366
 20
30.8976097863
 30
0.0
 10
107.1227114894
 20
30.9642578232
 30
0.0
 10
107.3764565953
 20
31.1636601824
 30
0.0
 10
107.4677516141
 20
31.2842464402
 30
0.0
  0
SPLINE
  5
66B
100
AcDbEntity
  8
3_ALL_AXES
100
AcDbSpline
 62
7
  6
CONTINUOUS
 70
0
 71
3
 72
11
 73
7
 74
0
 42
0.0000001
 43
0.0000001
 44
0.0000000001
 40
0.0
 40
0.0
 40
0.0
 40
0.0
 40
0.2365549772
 40
0.4811979624
 40
0.736828303
 40
1.0
 40
1.0
 40
1.0
 40
1.0
 10
107.6359841418
 20
30.8004712379
 30
0.0
 10
107.6359841418
 20
30.6858500562
 30
0.0
 10
107.5824226621
 20
30.4497978745
 30
0.0
 10
107.3592858796
 20
30.1587164731
 30
0.0
 10
107.032942382
 20
29.9675151092
 30
0.0
 10
106.7792503142
 20
29.9234963125
 30
0.0
 10
106.6517321733
 20
29.9234963125
 30
0.0
  0
SPLINE
  5
66C
100
AcDbEntity
  8
3_ALL_AXES
100
AcDbSpline
 62
7
  6
CONTINUOUS
 70
0
 71
3
 72
11
 73
7
 74
0
 42
0.0000001
 43
0.0000001
 44
0.0000000001
 40
0.0
 40
0.0
 40
0.0
 40
0.0
 40
0.105093162
 40
0.3218019865
 40
0.6343702762
 40
1.0
 40
1.0
 40
1.0
 40
1.0
 10
110.6389500092
 20
40.2954091347
 30
0.0
 10
110.6389500092
 20
40.2841389958
 30
0.0
 10
110.6756277581
 20
40.261422854
 30
0.0
 10
110.7371119498
 20
40.2475987291
 30
0.0
 10
110.8346502886
 20
40.2339032725
 30
0.0
 10
110.9068135605
 20
40.2315622375
 30
0.0
 10
110.9460235119
 20
40.2315622375
 30
0.0
  0
SPLINE
  5
66D
100
AcDbEntity
  8
3_ALL_AXES
100
AcDbSpline
 62
7
  6
CONTINUOUS
 70
0
 71
3
 72
11
 73
7
 74
0
 42
0.0000001
 43
0.0000001
 44
0.0000000001
 40
0.0
 40
0.0
 40
0.0
 40
0.0
 40
0.3656215337
 40
0.6781808809
 40
0.8948928668
 40
1.0
 40
1.0
 40
1.0
 40
1.0
 10
110.9460235119
 20
39.942739127
 30
0.0
 10
110.9852338621
 20
39.942739127
 30
0.0
 10
111.0573969856
 20
39.9450811925
 30
0.0
 10
111.1549393173
 20
39.9587749535
 30
0.0
 10
111.2164212495
 20
39.972603094
 30
0.0
 10
111.2531101261
 20
39.9953140199
 30
0.0
 10
111.2531101261
 20
40.0065860242
 30
0.0
  0
SPLINE
  5
66E
100
AcDbEntity
  8
3_ALL_AXES
100
AcDbSpline
 62
7
  6
CONTINUOUS
 70
0
 71
3
 72
15
 73
11
 74
0
 42
0.0000001
 43
0.0000001
 44
0.0000000001
 40
0.0
 40
0.0
 40
0.0
 40
0.0
 40
0.1183570765
 40
0.2408981128
 40
0.3687019657
 40
0.5
 40
0.6312980343
 40
0.7591018872
 40
0.8816429235
 40
1.0
 40
1.0
 40
1.0
 40
1.0
 10
119.4836982508
 20
30.8800284917
 30
0.0
 10
119.47240172
 20
31.0478388602
 30
0.0
 10
119.3739924341
 20
31.3881510932
 30
0.0
 10
119.0315088112
 20
31.8015200776
 30
0.0
 10
118.5477987149
 20
32.0714566391
 30
0.0
 10
117.9903148505
 20
32.1648995363
 30
0.0
 10
117.432830986
 20
32.0714566391
 30
0.0
 10
116.9491208897
 20
31.8015200776
 30
0.0
 10
116.6066372668
 20
31.3881510932
 30
0.0
 10
116.5082279809
 20
31.0478388602
 30
0.0
 10
116.4969314501
 20
30.8800284917
 30
0.0
  0
SPLINE
  5
66F
100
AcDbEntity
  8
3_ALL_AXES
100
AcDbSpline
 62
7
  6
CONTINUOUS
 70
0
 71
3
 72
15
 73
11
 74
0
 42
0.0000001
 43
0.0000001
 44
0.0000000001
 40
0.0
 40
0.0
 40
0.0
 40
0.0
 40
0.1182790001
 40
0.2406006263
 40
0.3684245738
 40
0.5
 40
0.6315754262
 40
0.7593993737
 40
0.8817209999
 40
1.0
 40
1.0
 40
1.0
 40
1.0
 10
119.4863778426
 20
30.8809026256
 30
0.0
 10
119.4863778426
 20
31.0551293557
 30
0.0
 10
119.4049661914
 20
31.4139431233
 30
0.0
 10
119.0658933615
 20
31.8563732283
 30
0.0
 10
118.5692763373
 20
32.1469978851
 30
0.0
 10
117.9903148505
 20
32.2478314793
 30
0.0
 10
117.4113533636
 20
32.1469978851
 30
0.0
 10
116.9147363395
 20
31.8563732283
 30
0.0
 10
116.5756635095
 20
31.4139431233
 30
0.0
 10
116.4942518583
 20
31.0551293557
 30
0.0
 10
116.4942518583
 20
30.8809026256
 30
0.0
  0
SPLINE
  5
670
100
AcDbEntity
  8
3_ALL_AXES
100
AcDbSpline
 62
7
  6
CONTINUOUS
 70
0
 71
3
 72
11
 73
7
 74
0
 42
0.0000001
 43
0.0000001
 44
0.0000000001
 40
0.0
 40
0.0
 40
0.0
 40
0.0
 40
0.1051071332
 40
0.3218191191
 40
0.6343784663
 40
1.0
 40
1.0
 40
1.0
 40
1.0
 10
110.6389368977
 20
40.0065860242
 30
0.0
 10
110.6389368977
 20
39.9953140199
 30
0.0
 10
110.6756257742
 20
39.972603094
 30
0.0
 10
110.7371077064
 20
39.9587749535
 30
0.0
 10
110.8346500382
 20
39.9450811925
 30
0.0
 10
110.9068131616
 20
39.942739127
 30
0.0
 10
110.9460235119
 20
39.942739127
 30
0.0
  0
SPLINE
  5
671
100
AcDbEntity
  8
3_ALL_AXES
100
AcDbSpline
 62
7
  6
CONTINUOUS
 70
0
 71
3
 72
11
 73
7
 74
0
 42
0.0000001
 43
0.0000001
 44
0.0000000001
 40
0.0
 40
0.0
 40
0.0
 40
0.0
 40
0.3656215337
 40
0.6781808809
 40
0.8948928668
 40
1.0
 40
1.0
 40
1.0
 40
1.0
 10
113.6960235119
 20
39.942739127
 30
0.0
 10
113.7352338621
 20
39.942739127
 30
0.0
 10
113.8073969856
 20
39.9450811925
 30
0.0
 10
113.9049393173
 20
39.9587749535
 30
0.0
 10
113.9664212495
 20
39.972603094
 30
0.0
 10
114.0031101261
 20
39.9953140199
 30
0.0
 10
114.0031101261
 20
40.0065860242
 30
0.0
  0
SPLINE
  5
672
100
AcDbEntity
  8
3_ALL_AXES
100
AcDbSpline
 62
7
  6
CONTINUOUS
 70
0
 71
3
 72
15
 73
11
 74
0
 42
0.0000001
 43
0.0000001
 44
0.0000000001
 40
0.0
 40
0.0
 40
0.0
 40
0.0
 40
0.1183570765
 40
0.2408981128
 40
0.3687019657
 40
0.5
 40
0.6312980343
 40
0.7591018872
 40
0.8816429235
 40
1.0
 40
1.0
 40
1.0
 40
1.0
 10
108.1451155737
 20
30.8800284917
 30
0.0
 10
108.1338190428
 20
31.0478388602
 30
0.0
 10
108.035409757
 20
31.3881510932
 30
0.0
 10
107.692926134
 20
31.8015200776
 30
0.0
 10
107.2092160378
 20
32.0714566391
 30
0.0
 10
106.6517321733
 20
32.1648995363
 30
0.0
 10
106.0942483088
 20
32.0714566391
 30
0.0
 10
105.6105382126
 20
31.8015200776
 30
0.0
 10
105.2680545896
 20
31.3881510932
 30
0.0
 10
105.1696453038
 20
31.0478388602
 30
0.0
 10
105.1583487729
 20
30.8800284917
 30
0.0
  0
SPLINE
  5
673
100
AcDbEntity
  8
3_ALL_AXES
100
AcDbSpline
 62
7
  6
CONTINUOUS
 70
0
 71
3
 72
9
 73
5
 74
0
 42
0.0000001
 43
0.0000001
 44
0.0000000001
 40
0.0
 40
0.0
 40
0.0
 40
0.0
 40
0.4894058544
 40
1.0
 40
1.0
 40
1.0
 40
1.0
 10
105.8357127325
 20
31.2842464402
 30
0.0
 10
105.9270077513
 20
31.1636601824
 30
0.0
 10
106.1807528572
 20
30.9642578232
 30
0.0
 10
106.49393651
 20
30.8976097863
 30
0.0
 10
106.6517321733
 20
30.8976097863
 30
0.0
  0
SPLINE
  5
674
100
AcDbEntity
  8
3_ALL_AXES
100
AcDbSpline
 62
7
  6
CONTINUOUS
 70
0
 71
3
 72
11
 73
7
 74
0
 42
0.0000001
 43
0.0000001
 44
0.0000000001
 40
0.0
 40
0.0
 40
0.0
 40
0.0
 40
0.2365549772
 40
0.4811979624
 40
0.736828303
 40
1.0
 40
1.0
 40
1.0
 40
1.0
 10
118.974566819
 20
30.8004712379
 30
0.0
 10
118.974566819
 20
30.6858500562
 30
0.0
 10
118.9210053392
 20
30.4497978745
 30
0.0
 10
118.6978685568
 20
30.1587164731
 30
0.0
 10
118.3715250592
 20
29.9675151092
 30
0.0
 10
118.1178329913
 20
29.9234963125
 30
0.0
 10
117.9903148505
 20
29.9234963125
 30
0.0
  0
SPLINE
  5
675
100
AcDbEntity
  8
3_ALL_AXES
100
AcDbSpline
 62
7
  6
CONTINUOUS
 70
0
 71
3
 72
11
 73
7
 74
0
 42
0.0000001
 43
0.0000001
 44
0.0000000001
 40
0.0
 40
0.0
 40
0.0
 40
0.0
 40
0.1051071332
 40
0.3218191191
 40
0.6343784663
 40
1.0
 40
1.0
 40
1.0
 40
1.0
 10
113.3889368977
 20
40.0065860242
 30
0.0
 10
113.3889368977
 20
39.9953140199
 30
0.0
 10
113.4256257742
 20
39.972603094
 30
0.0
 10
113.4871077064
 20
39.9587749535
 30
0.0
 10
113.5846500382
 20
39.9450811925
 30
0.0
 10
113.6568131616
 20
39.942739127
 30
0.0
 10
113.6960235119
 20
39.942739127
 30
0.0
  0
SPLINE
  5
676
100
AcDbEntity
  8
3_ALL_AXES
100
AcDbSpline
 62
7
  6
CONTINUOUS
 70
0
 71
3
 72
9
 73
5
 74
0
 42
0.0000001
 43
0.0000001
 44
0.0000000001
 40
0.0
 40
0.0
 40
0.0
 40
0.0
 40
0.4894058544
 40
1.0
 40
1.0
 40
1.0
 40
1.0
 10
117.1742954097
 20
31.2842464402
 30
0.0
 10
117.2655904285
 20
31.1636601824
 30
0.0
 10
117.5193355344
 20
30.9642578232
 30
0.0
 10
117.8325191872
 20
30.8976097863
 30
0.0
 10
117.9903148505
 20
30.8976097863
 30
0.0
  0
SPLINE
  5
677
100
AcDbEntity
  8
3_ALL_AXES
100
AcDbSpline
 62
7
  6
CONTINUOUS
 70
0
 71
3
 72
11
 73
7
 74
0
 42
0.0000001
 43
0.0000001
 44
0.0000000001
 40
0.0
 40
0.0
 40
0.0
 40
0.0
 40
0.2474436045
 40
0.4963907491
 40
0.7474468817
 40
1.0
 40
1.0
 40
1.0
 40
1.0
 10
57.1733802714
 20
64.7953663307
 30
0.0
 10
57.3573792047
 20
64.7460639651
 30
0.0
 10
57.7509637896
 20
64.7218440214
 30
0.0
 10
58.3073050928
 20
64.9187606953
 30
0.0
 10
58.749365661
 20
65.3150054934
 30
0.0
 10
58.9237767344
 20
65.6739057111
 30
0.0
 10
58.9740971546
 20
65.8617040762
 30
0.0
  0
SPLINE
  5
678
100
AcDbEntity
  8
3_ALL_AXES
100
AcDbSpline
 62
7
  6
CONTINUOUS
 70
0
 71
3
 72
11
 73
7
 74
0
 42
0.0000001
 43
0.0000001
 44
0.0000000001
 40
0.0
 40
0.0
 40
0.0
 40
0.0
 40
0.2474436045
 40
0.4963907491
 40
0.7474468817
 40
1.0
 40
1.0
 40
1.0
 40
1.0
 10
59.4151200321
 20
73.1616530151
 30
0.0
 10
59.5991189655
 20
73.1123506495
 30
0.0
 10
59.9927035503
 20
73.0881307057
 30
0.0
 10
60.5490448536
 20
73.2850473797
 30
0.0
 10
60.9911054217
 20
73.6812921778
 30
0.0
 10
61.1655164951
 20
74.0401923955
 30
0.0
 10
61.2158369154
 20
74.2279907606
 30
0.0
  0
SPLINE
  5
679
100
AcDbEntity
  8
3_ALL_AXES
100
AcDbSpline
 62
7
  6
CONTINUOUS
 70
0
 71
3
 72
15
 73
11
 74
0
 42
0.0000001
 43
0.0000001
 44
0.0000000001
 40
0.0
 40
0.0
 40
0.0
 40
0.0
 40
0.1229953963
 40
0.2471702413
 40
0.3730050311
 40
0.5
 40
0.6269949689
 40
0.7528297587
 40
0.8770046037
 40
1.0
 40
1.0
 40
1.0
 40
1.0
 10
55.7464938791
 20
78.6281379516
 30
0.0
 10
55.5646972827
 20
78.6768502028
 30
0.0
 10
55.1747654296
 20
78.6996829575
 30
0.0
 10
54.6241732847
 20
78.5006700238
 30
0.0
 10
54.1865705706
 20
78.1026159931
 30
0.0
 10
53.9273747755
 20
77.5667310662
 30
0.0
 10
53.8839024551
 20
76.9730432084
 30
0.0
 10
54.063850507
 20
76.4095169487
 30
0.0
 10
54.4411708248
 20
75.96187062
 30
0.0
 10
54.7902780926
 20
75.7866784391
 30
0.0
 10
54.972074689
 20
75.7379661879
 30
0.0
  0
SPLINE
  5
67A
100
AcDbEntity
  8
3_ALL_AXES
100
AcDbSpline
 62
7
  6
CONTINUOUS
 70
0
 71
3
 72
15
 73
11
 74
0
 42
0.0000001
 43
0.0000001
 44
0.0000000001
 40
0.0
 40
0.0
 40
0.0
 40
0.0
 40
0.1229953963
 40
0.2471702413
 40
0.3730050311
 40
0.5
 40
0.6269949689
 40
0.7528297587
 40
0.8770046037
 40
1.0
 40
1.0
 40
1.0
 40
1.0
 10
52.8118527378
 20
67.6759081102
 30
0.0
 10
52.6300561413
 20
67.7246203614
 30
0.0
 10
52.2401242883
 20
67.7474531161
 30
0.0
 10
51.6895321434
 20
67.5484401824
 30
0.0
 10
51.2519294292
 20
67.1503861518
 30
0.0
 10
50.9927336342
 20
66.6145012248
 30
0.0
 10
50.9492613138
 20
66.020813367
 30
0.0
 10
51.1292093657
 20
65.4572871073
 30
0.0
 10
51.5065296835
 20
65.0096407786
 30
0.0
 10
51.8556369513
 20
64.8344485977
 30
0.0
 10
52.0374335477
 20
64.7857363465
 30
0.0
  0
SPLINE
  5
67B
100
AcDbEntity
  8
3_ALL_AXES
100
AcDbSpline
 62
7
  6
CONTINUOUS
 70
0
 71
3
 72
11
 73
7
 74
0
 42
0.0000001
 43
0.0000001
 44
0.0000000001
 40
0.0
 40
0.0
 40
0.0
 40
0.0
 40
0.254008909
 40
0.5056623904
 40
0.7540166399
 40
1.0
 40
1.0
 40
1.0
 40
1.0
 10
56.2776038726
 20
76.9369890776
 30
0.0
 10
56.2445117841
 20
76.8134877222
 30
0.0
 10
56.1307107436
 20
76.577725525
 30
0.0
 10
55.8429289556
 20
76.3162703419
 30
0.0
 10
55.4806639963
 20
76.1852684165
 30
0.0
 10
55.2241403927
 20
76.2002911478
 30
0.0
 10
55.1045411294
 20
76.2323376738
 30
0.0
  0
SPLINE
  5
67C
100
AcDbEntity
  8
3_ALL_AXES
100
AcDbSpline
 62
7
  6
CONTINUOUS
 70
0
 71
3
 72
11
 73
7
 74
0
 42
0.0000001
 43
0.0000001
 44
0.0000000001
 40
0.0
 40
0.0
 40
0.0
 40
0.0
 40
0.254008909
 40
0.5056623904
 40
0.7540166399
 40
1.0
 40
1.0
 40
1.0
 40
1.0
 10
53.3429627312
 20
65.9847592362
 30
0.0
 10
53.3098706428
 20
65.8612578808
 30
0.0
 10
53.1960696023
 20
65.6254956836
 30
0.0
 10
52.9082878142
 20
65.3640405005
 30
0.0
 10
52.546022855
 20
65.2330385751
 30
0.0
 10
52.2894992514
 20
65.2480613064
 30
0.0
 10
52.1698999881
 20
65.2801078324
 30
0.0
  0
SPLINE
  5
67D
100
AcDbEntity
  8
3_ALL_AXES
100
AcDbSpline
 62
7
  6
CONTINUOUS
 70
0
 71
3
 72
11
 73
7
 74
0
 42
0.0000001
 43
0.0000001
 44
0.0000000001
 40
0.0
 40
0.0
 40
0.0
 40
0.0
 40
0.2525531183
 40
0.5036092509
 40
0.7525563955
 40
1.0
 40
1.0
 40
1.0
 40
1.0
 10
61.2158369154
 20
74.2279907606
 30
0.0
 10
61.2661573356
 20
74.4157891256
 30
0.0
 10
61.2945630243
 20
74.8138113683
 30
0.0
 10
61.1098497413
 20
75.3779997136
 30
0.0
 10
60.7265023764
 20
75.8267052074
 30
0.0
 10
60.3735381555
 20
76.0025224132
 30
0.0
 10
60.1895392222
 20
76.0518247788
 30
0.0
  0
SPLINE
  5
67E
100
AcDbEntity
  8
3_ALL_AXES
100
AcDbSpline
 62
7
  6
CONTINUOUS
 70
0
 71
3
 72
11
 73
7
 74
0
 42
0.0000001
 43
0.0000001
 44
0.0000000001
 40
0.0
 40
0.0
 40
0.0
 40
0.0
 40
0.2525531183
 40
0.5036092509
 40
0.7525563955
 40
1.0
 40
1.0
 40
1.0
 40
1.0
 10
58.9740971546
 20
65.8617040762
 30
0.0
 10
59.0244175749
 20
66.0495024412
 30
0.0
 10
59.0528232635
 20
66.4475246839
 30
0.0
 10
58.8681099805
 20
67.0117130293
 30
0.0
 10
58.4847626157
 20
67.460418523
 30
0.0
 10
58.1317983948
 20
67.6362357288
 30
0.0
 10
57.9477994615
 20
67.6855380944
 30
0.0
  0
SPLINE
  5
67F
100
AcDbEntity
  8
3_ALL_AXES
100
AcDbSpline
 62
7
  6
CONTINUOUS
 70
0
 71
3
 72
11
 73
7
 74
0
 42
0.0000001
 43
0.0000001
 44
0.0000000001
 40
0.0
 40
0.0
 40
0.0
 40
0.0
 40
0.2525652205
 40
0.5036098044
 40
0.7525573435
 40
1.0
 40
1.0
 40
1.0
 40
1.0
 10
58.8723906218
 20
74.8559153024
 30
0.0
 10
58.9054977102
 20
74.9794726386
 30
0.0
 10
59.0202474709
 20
75.2155868341
 30
0.0
 10
59.3110685124
 20
75.4762870627
 30
0.0
 10
59.6770863287
 20
75.6058041403
 30
0.0
 10
59.9360214533
 20
75.5898888986
 30
0.0
 10
60.0570727818
 20
75.5574532929
 30
0.0
  0
SPLINE
  5
680
100
AcDbEntity
  8
3_ALL_AXES
100
AcDbSpline
 62
7
  6
CONTINUOUS
 70
0
 71
3
 72
11
 73
7
 74
0
 42
0.0000001
 43
0.0000001
 44
0.0000000001
 40
0.0
 40
0.0
 40
0.0
 40
0.0
 40
0.2525652205
 40
0.5036098044
 40
0.7525573435
 40
1.0
 40
1.0
 40
1.0
 40
1.0
 10
56.6306508611
 20
66.4896286181
 30
0.0
 10
56.6637579495
 20
66.6131859542
 30
0.0
 10
56.7785077102
 20
66.8493001497
 30
0.0
 10
57.0693287516
 20
67.1100003783
 30
0.0
 10
57.435346568
 20
67.2395174559
 30
0.0
 10
57.6942816926
 20
67.2236022142
 30
0.0
 10
57.8153330211
 20
67.1911666085
 30
0.0
  0
SPLINE
  5
681
100
AcDbEntity
  8
3_ALL_AXES
100
AcDbSpline
 62
7
  6
CONTINUOUS
 70
0
 71
3
 72
11
 73
7
 74
0
 42
0.0000001
 43
0.0000001
 44
0.0000000001
 40
0.0
 40
0.0
 40
0.0
 40
0.0
 40
0.2474426565
 40
0.4963901956
 40
0.7474347795
 40
1.0
 40
1.0
 40
1.0
 40
1.0
 10
57.3058467118
 20
65.2897378166
 30
0.0
 10
57.1847953833
 20
65.3221734223
 30
0.0
 10
56.9525933666
 20
65.437857981
 30
0.0
 10
56.7003711783
 20
65.7330319686
 30
0.0
 10
56.5788628827
 20
66.10421551
 30
0.0
 10
56.5975437726
 20
66.3660712819
 30
0.0
 10
56.6306508611
 20
66.4896286181
 30
0.0
  0
SPLINE
  5
682
100
AcDbEntity
  8
3_ALL_AXES
100
AcDbSpline
 62
7
  6
CONTINUOUS
 70
0
 71
3
 72
11
 73
7
 74
0
 42
0.0000001
 43
0.0000001
 44
0.0000000001
 40
0.0
 40
0.0
 40
0.0
 40
0.0
 40
0.2474426565
 40
0.4963901956
 40
0.7474347795
 40
1.0
 40
1.0
 40
1.0
 40
1.0
 10
59.5475864725
 20
73.656024501
 30
0.0
 10
59.426535144
 20
73.6884601067
 30
0.0
 10
59.1943331274
 20
73.8041446654
 30
0.0
 10
58.942110939
 20
74.099318653
 30
0.0
 10
58.8206026434
 20
74.4705021944
 30
0.0
 10
58.8392835334
 20
74.7323579663
 30
0.0
 10
58.8723906218
 20
74.8559153024
 30
0.0
  0
SPLINE
  5
683
100
AcDbEntity
  8
3_ALL_AXES
100
AcDbSpline
 62
7
  6
CONTINUOUS
 70
0
 71
3
 72
11
 73
7
 74
0
 42
0.0000001
 43
0.0000001
 44
0.0000000001
 40
0.0
 40
0.0
 40
0.0
 40
0.0
 40
0.2459833601
 40
0.4943376096
 40
0.745991091
 40
1.0
 40
1.0
 40
1.0
 40
1.0
 10
55.6140274387
 20
78.1337664657
 30
0.0
 10
55.7336267019
 20
78.1017199397
 30
0.0
 10
55.963294025
 20
77.9864682048
 30
0.0
 10
56.2115237199
 20
77.6918847298
 30
0.0
 10
56.3300224675
 20
77.3215670054
 30
0.0
 10
56.310695961
 20
77.060490433
 30
0.0
 10
56.2776038726
 20
76.9369890776
 30
0.0
  0
SPLINE
  5
684
100
AcDbEntity
  8
3_ALL_AXES
100
AcDbSpline
 62
7
  6
CONTINUOUS
 70
0
 71
3
 72
11
 73
7
 74
0
 42
0.0000001
 43
0.0000001
 44
0.0000000001
 40
0.0
 40
0.0
 40
0.0
 40
0.0
 40
0.2459833601
 40
0.4943376096
 40
0.745991091
 40
1.0
 40
1.0
 40
1.0
 40
1.0
 10
52.6793862974
 20
67.1815366243
 30
0.0
 10
52.7989855606
 20
67.1494900983
 30
0.0
 10
53.0286528837
 20
67.0342383634
 30
0.0
 10
53.2768825786
 20
66.7396548884
 30
0.0
 10
53.3953813262
 20
66.369337164
 30
0.0
 10
53.3760548197
 20
66.1082605916
 30
0.0
 10
53.3429627312
 20
65.9847592362
 30
0.0
  0
SPLINE
  5
685
100
AcDbEntity
  8
3_ALL_AXES
100
AcDbSpline
 62
7
  6
CONTINUOUS
 70
0
 71
3
 72
9
 73
5
 74
0
 42
0.0000001
 43
0.0000001
 44
0.0000000001
 40
0.0
 40
0.0
 40
0.0
 40
0.0
 40
0.5033104938
 40
1.0
 40
1.0
 40
1.0
 40
1.0
 10
60.3013597227
 20
74.4730241858
 30
0.0
 10
60.356912141
 20
74.6803486333
 30
0.0
 10
60.3316681401
 20
75.1420182466
 30
0.0
 10
60.0210846034
 20
75.4871677407
 30
0.0
 10
59.8353328384
 20
75.5889600523
 30
0.0
  0
SPLINE
  5
686
100
AcDbEntity
  8
3_ALL_AXES
100
AcDbSpline
 62
7
  6
CONTINUOUS
 70
0
 71
3
 72
11
 73
7
 74
0
 42
0.0000001
 43
0.0000001
 44
0.0000000001
 40
0.0
 40
0.0
 40
0.0
 40
0.0
 40
0.2525491488
 40
0.5036095946
 40
0.7525575677
 40
1.0
 40
1.0
 40
1.0
 40
1.0
 10
58.3532427042
 20
74.9950205677
 30
0.0
 10
58.3029230726
 20
74.8072251459
 30
0.0
 10
58.2745176217
 20
74.4092039295
 30
0.0
 10
58.4592207927
 20
73.8450102106
 30
0.0
 10
58.8425783056
 20
73.39630629
 30
0.0
 10
59.1955442843
 20
73.2204959872
 30
0.0
 10
59.3795423543
 20
73.1711938529
 30
0.0
  0
SPLINE
  5
687
100
AcDbEntity
  8
3_ALL_AXES
100
AcDbSpline
 62
7
  6
CONTINUOUS
 70
0
 71
3
 72
9
 73
5
 74
0
 42
0.0000001
 43
0.0000001
 44
0.0000000001
 40
0.0
 40
0.0
 40
0.0
 40
0.0
 40
0.5033104938
 40
1.0
 40
1.0
 40
1.0
 40
1.0
 10
58.059619962
 20
66.1067375015
 30
0.0
 10
58.1151723802
 20
66.3140619489
 30
0.0
 10
58.0899283793
 20
66.7757315622
 30
0.0
 10
57.7793448426
 20
67.1208810563
 30
0.0
 10
57.5935930777
 20
67.2226733679
 30
0.0
  0
SPLINE
  5
688
100
AcDbEntity
  8
3_ALL_AXES
100
AcDbSpline
 62
7
  6
CONTINUOUS
 70
0
 71
3
 72
11
 73
7
 74
0
 42
0.0000001
 43
0.0000001
 44
0.0000000001
 40
0.0
 40
0.0
 40
0.0
 40
0.0
 40
0.2474436045
 40
0.4963907491
 40
0.7474468817
 40
1.0
 40
1.0
 40
1.0
 40
1.0
 10
60.1895392222
 20
76.0518247788
 30
0.0
 10
60.0055402889
 20
76.1011271444
 30
0.0
 10
59.6119557041
 20
76.1253470881
 30
0.0
 10
59.0556144008
 20
75.9284304142
 30
0.0
 10
58.6135538326
 20
75.5321856161
 30
0.0
 10
58.4391427592
 20
75.1732853984
 30
0.0
 10
58.388822339
 20
74.9854870333
 30
0.0
  0
SPLINE
  5
689
100
AcDbEntity
  8
3_ALL_AXES
100
AcDbSpline
 62
7
  6
CONTINUOUS
 70
0
 71
3
 72
9
 73
5
 74
0
 42
0.0000001
 43
0.0000001
 44
0.0000000001
 40
0.0
 40
0.0
 40
0.0
 40
0.0
 40
0.4966895062
 40
1.0
 40
1.0
 40
1.0
 40
1.0
 10
57.0980609081
 20
65.3733221342
 30
0.0
 10
57.3098228112
 20
65.3686009796
 30
0.0
 10
57.751370791
 20
65.5122174412
 30
0.0
 10
58.0040675437
 20
65.899413054
 30
0.0
 10
58.059619962
 20
66.1067375015
 30
0.0
  0
SPLINE
  5
68A
100
AcDbEntity
  8
3_ALL_AXES
100
AcDbSpline
 62
7
  6
CONTINUOUS
 70
0
 71
3
 72
11
 73
7
 74
0
 42
0.0000001
 43
0.0000001
 44
0.0000000001
 40
0.0
 40
0.0
 40
0.0
 40
0.0
 40
0.2474426565
 40
0.4963901956
 40
0.7474347795
 40
1.0
 40
1.0
 40
1.0
 40
1.0
 10
57.8153330211
 20
67.1911666085
 30
0.0
 10
57.9363843496
 20
67.1587310028
 30
0.0
 10
58.1685863662
 20
67.0430464441
 30
0.0
 10
58.4208085546
 20
66.7478724565
 30
0.0
 10
58.5423168502
 20
66.3766889151
 30
0.0
 10
58.5236359603
 20
66.1148331432
 30
0.0
 10
58.4905288718
 20
65.991275807
 30
0.0
  0
SPLINE
  5
68B
100
AcDbEntity
  8
3_ALL_AXES
100
AcDbSpline
 62
7
  6
CONTINUOUS
 70
0
 71
3
 72
9
 73
5
 74
0
 42
0.0000001
 43
0.0000001
 44
0.0000000001
 40
0.0
 40
0.0
 40
0.0
 40
0.0
 40
0.4966895062
 40
1.0
 40
1.0
 40
1.0
 40
1.0
 10
59.3398006688
 20
73.7396088186
 30
0.0
 10
59.5515625719
 20
73.734887664
 30
0.0
 10
59.9931105517
 20
73.8785041256
 30
0.0
 10
60.2458073044
 20
74.2656997384
 30
0.0
 10
60.3013597227
 20
74.4730241858
 30
0.0
  0
SPLINE
  5
68C
100
AcDbEntity
  8
3_ALL_AXES
100
AcDbSpline
 62
7
  6
CONTINUOUS
 70
0
 71
3
 72
11
 73
7
 74
0
 42
0.0000001
 43
0.0000001
 44
0.0000000001
 40
0.0
 40
0.0
 40
0.0
 40
0.0
 40
0.2474426565
 40
0.4963901956
 40
0.7474347795
 40
1.0
 40
1.0
 40
1.0
 40
1.0
 10
60.0570727818
 20
75.5574532929
 30
0.0
 10
60.1781241103
 20
75.5250176872
 30
0.0
 10
60.410326127
 20
75.4093331285
 30
0.0
 10
60.6625483154
 20
75.1141591409
 30
0.0
 10
60.784056611
 20
74.7429755995
 30
0.0
 10
60.765375721
 20
74.4811198276
 30
0.0
 10
60.7322686326
 20
74.3575624914
 30
0.0
  0
SPLINE
  5
68D
100
AcDbEntity
  8
3_ALL_AXES
100
AcDbSpline
 62
7
  6
CONTINUOUS
 70
0
 71
3
 72
11
 73
7
 74
0
 42
0.0000001
 43
0.0000001
 44
0.0000000001
 40
0.0
 40
0.0
 40
0.0
 40
0.0
 40
0.2459833601
 40
0.4943376096
 40
0.745991091
 40
1.0
 40
1.0
 40
1.0
 40
1.0
 10
55.1045411294
 20
76.2323376738
 30
0.0
 10
54.9849418662
 20
76.2643841998
 30
0.0
 10
54.7552745432
 20
76.3796359347
 30
0.0
 10
54.5070448482
 20
76.6742194096
 30
0.0
 10
54.3885461006
 20
77.0445371341
 30
0.0
 10
54.4078726072
 20
77.3056137065
 30
0.0
 10
54.4409646956
 20
77.4291150619
 30
0.0
  0
SPLINE
  5
68E
100
AcDbEntity
  8
3_ALL_AXES
100
AcDbSpline
 62
7
  6
CONTINUOUS
 70
0
 71
3
 72
11
 73
7
 74
0
 42
0.0000001
 43
0.0000001
 44
0.0000000001
 40
0.0
 40
0.0
 40
0.0
 40
0.0
 40
0.2525491488
 40
0.5036095946
 40
0.7525575677
 40
1.0
 40
1.0
 40
1.0
 40
1.0
 10
56.1115029435
 20
66.6287338833
 30
0.0
 10
56.0611833119
 20
66.4409384615
 30
0.0
 10
56.0327778609
 20
66.0429172451
 30
0.0
 10
56.217481032
 20
65.4787235262
 30
0.0
 10
56.6008385449
 20
65.0300196056
 30
0.0
 10
56.9538045236
 20
64.8542093028
 30
0.0
 10
57.1378025936
 20
64.8049071685
 30
0.0
  0
SPLINE
  5
68F
100
AcDbEntity
  8
3_ALL_AXES
100
AcDbSpline
 62
7
  6
CONTINUOUS
 70
0
 71
3
 72
11
 73
7
 74
0
 42
0.0000001
 43
0.0000001
 44
0.0000000001
 40
0.0
 40
0.0
 40
0.0
 40
0.0
 40
0.2474424323
 40
0.4963904054
 40
0.7474508512
 40
1.0
 40
1.0
 40
1.0
 40
1.0
 10
60.1539576305
 20
76.0613510098
 30
0.0
 10
59.9699595605
 20
76.1106531441
 30
0.0
 10
59.5763769049
 20
76.1348799449
 30
0.0
 10
59.0200275997
 20
75.9379697073
 30
0.0
 10
58.5779731019
 20
75.5417151996
 30
0.0
 10
58.4035623359
 20
75.1828159895
 30
0.0
 10
58.3532427042
 20
74.9950205677
 30
0.0
  0
SPLINE
  5
690
100
AcDbEntity
  8
3_ALL_AXES
100
AcDbSpline
 62
7
  6
CONTINUOUS
 70
0
 71
3
 72
9
 73
5
 74
0
 42
0.0000001
 43
0.0000001
 44
0.0000000001
 40
0.0
 40
0.0
 40
0.0
 40
0.0
 40
0.4951217799
 40
1.0
 40
1.0
 40
1.0
 40
1.0
 10
55.8699429604
 20
78.0203913469
 30
0.0
 10
55.6694435978
 20
78.0111961713
 30
0.0
 10
55.2612347955
 20
77.8523662125
 30
0.0
 10
55.0303532501
 20
77.4830738012
 30
0.0
 10
54.9773820184
 20
77.2853824734
 30
0.0
  0
SPLINE
  5
691
100
AcDbEntity
  8
3_ALL_AXES
100
AcDbSpline
 62
7
  6
CONTINUOUS
 70
0
 71
3
 72
11
 73
7
 74
0
 42
0.0000001
 43
0.0000001
 44
0.0000000001
 40
0.0
 40
0.0
 40
0.0
 40
0.0
 40
0.2459833601
 40
0.4943376096
 40
0.745991091
 40
1.0
 40
1.0
 40
1.0
 40
1.0
 10
52.1698999881
 20
65.2801078324
 30
0.0
 10
52.0503007249
 20
65.3121543584
 30
0.0
 10
51.8206334018
 20
65.4274060933
 30
0.0
 10
51.5724037069
 20
65.7219895683
 30
0.0
 10
51.4539049593
 20
66.0923072927
 30
0.0
 10
51.4732314658
 20
66.3533838651
 30
0.0
 10
51.5063235543
 20
66.4768852205
 30
0.0
  0
SPLINE
  5
692
100
AcDbEntity
  8
3_ALL_AXES
100
AcDbSpline
 62
7
  6
CONTINUOUS
 70
0
 71
3
 72
9
 73
5
 74
0
 42
0.0000001
 43
0.0000001
 44
0.0000000001
 40
0.0
 40
0.0
 40
0.0
 40
0.0
 40
0.4951217799
 40
1.0
 40
1.0
 40
1.0
 40
1.0
 10
52.9353018191
 20
67.0681615055
 30
0.0
 10
52.7348024565
 20
67.0589663299
 30
0.0
 10
52.3265936542
 20
66.9001363711
 30
0.0
 10
52.0957121087
 20
66.5308439598
 30
0.0
 10
52.0427408771
 20
66.333152632
 30
0.0
  0
SPLINE
  5
693
100
AcDbEntity
  8
3_ALL_AXES
100
AcDbSpline
 62
7
  6
CONTINUOUS
 70
0
 71
3
 72
11
 73
7
 74
0
 42
0.0000001
 43
0.0000001
 44
0.0000000001
 40
0.0
 40
0.0
 40
0.0
 40
0.0
 40
0.2474424323
 40
0.4963904054
 40
0.7474508512
 40
1.0
 40
1.0
 40
1.0
 40
1.0
 10
57.9122178698
 20
67.6950643254
 30
0.0
 10
57.7282197998
 20
67.7443664597
 30
0.0
 10
57.3346371441
 20
67.7685932605
 30
0.0
 10
56.7782878389
 20
67.5716830229
 30
0.0
 10
56.3362333412
 20
67.1754285152
 30
0.0
 10
56.1618225751
 20
66.8165293051
 30
0.0
 10
56.1115029435
 20
66.6287338833
 30
0.0
  0
SPLINE
  5
694
100
AcDbEntity
  8
3_ALL_AXES
100
AcDbSpline
 62
7
  6
CONTINUOUS
 70
0
 71
3
 72
15
 73
11
 74
0
 42
0.0000001
 43
0.0000001
 44
0.0000000001
 40
0.0
 40
0.0
 40
0.0
 40
0.0
 40
0.1230105584
 40
0.2472174622
 40
0.3730490144
 40
0.5
 40
0.6269509856
 40
0.7527825378
 40
0.8769894416
 40
1.0
 40
1.0
 40
1.0
 40
1.0
 10
52.0814561091
 20
64.7747091658
 30
0.0
 10
52.2612162625
 20
64.7327881214
 30
0.0
 10
52.64363272
 20
64.7212691625
 30
0.0
 10
53.179067461
 20
64.9268860156
 30
0.0
 10
53.6032104056
 20
65.3217100923
 30
0.0
 10
53.8551163439
 20
65.8475280893
 30
0.0
 10
53.8998684005
 20
66.4288528017
 30
0.0
 10
53.7299618739
 20
66.9828519544
 30
0.0
 10
53.3690702128
 20
67.4286387431
 30
0.0
 10
53.0321283663
 20
67.6098712609
 30
0.0
 10
52.8554909846
 20
67.6634466481
 30
0.0
  0
SPLINE
  5
695
100
AcDbEntity
  8
3_ALL_AXES
100
AcDbSpline
 62
7
  6
CONTINUOUS
 70
0
 71
3
 72
15
 73
11
 74
0
 42
0.0000001
 43
0.0000001
 44
0.0000000001
 40
0.0
 40
0.0
 40
0.0
 40
0.0
 40
0.1229934443
 40
0.2471703435
 40
0.3730056107
 40
0.5
 40
0.6269943893
 40
0.7528296565
 40
0.8770065557
 40
1.0
 40
1.0
 40
1.0
 40
1.0
 10
52.0817248863
 20
64.7738685181
 30
0.0
 10
52.2635186183
 20
64.7251570344
 30
0.0
 10
52.6534493209
 20
64.7023243534
 30
0.0
 10
53.2040471469
 20
64.9013274401
 30
0.0
 10
53.6416478574
 20
65.2993915563
 30
0.0
 10
53.9008335356
 20
65.8352782047
 30
0.0
 10
53.9443154782
 20
66.4289624949
 30
0.0
 10
53.7643742042
 20
66.9924964871
 30
0.0
 10
53.387044043
 20
67.4401371286
 30
0.0
 10
53.0379378083
 20
67.6153287981
 30
0.0
 10
52.8561440764
 20
67.6640402818
 30
0.0
  0
SPLINE
  5
696
100
AcDbEntity
  8
3_ALL_AXES
100
AcDbSpline
 62
7
  6
CONTINUOUS
 70
0
 71
3
 72
11
 73
7
 74
0
 42
0.0000001
 43
0.0000001
 44
0.0000000001
 40
0.0
 40
0.0
 40
0.0
 40
0.0
 40
0.254008909
 40
0.5056623904
 40
0.7540166399
 40
1.0
 40
1.0
 40
1.0
 40
1.0
 10
54.4409646956
 20
77.4291150619
 30
0.0
 10
54.474056784
 20
77.5526164173
 30
0.0
 10
54.5878578246
 20
77.7883786145
 30
0.0
 10
54.8756396126
 20
78.0498337976
 30
0.0
 10
55.2379045719
 20
78.180835723
 30
0.0
 10
55.4944281755
 20
78.1658129917
 30
0.0
 10
55.6140274387
 20
78.1337664657
 30
0.0
  0
SPLINE
  5
697
100
AcDbEntity
  8
3_ALL_AXES
100
AcDbSpline
 62
7
  6
CONTINUOUS
 70
0
 71
3
 72
11
 73
7
 74
0
 42
0.0000001
 43
0.0000001
 44
0.0000000001
 40
0.0
 40
0.0
 40
0.0
 40
0.0
 40
0.254008909
 40
0.5056623904
 40
0.7540166399
 40
1.0
 40
1.0
 40
1.0
 40
1.0
 10
51.5063235543
 20
66.4768852205
 30
0.0
 10
51.5394156427
 20
66.6003865759
 30
0.0
 10
51.6532166832
 20
66.8361487731
 30
0.0
 10
51.9409984713
 20
67.0976039562
 30
0.0
 10
52.3032634305
 20
67.2286058816
 30
0.0
 10
52.5597870342
 20
67.2135831503
 30
0.0
 10
52.6793862974
 20
67.1815366243
 30
0.0
  0
SPLINE
  5
698
100
AcDbEntity
  8
3_ALL_AXES
100
AcDbSpline
 62
7
  6
CONTINUOUS
 70
0
 71
3
 72
15
 73
11
 74
0
 42
0.0000001
 43
0.0000001
 44
0.0000000001
 40
0.0
 40
0.0
 40
0.0
 40
0.0
 40
0.1230105584
 40
0.2472174622
 40
0.3730490144
 40
0.5
 40
0.6269509856
 40
0.7527825378
 40
0.8769894416
 40
1.0
 40
1.0
 40
1.0
 40
1.0
 10
55.0160972504
 20
75.7269390072
 30
0.0
 10
55.1958574038
 20
75.6850179627
 30
0.0
 10
55.5782738613
 20
75.6734990039
 30
0.0
 10
56.1137086023
 20
75.879115857
 30
0.0
 10
56.5378515469
 20
76.2739399336
 30
0.0
 10
56.7897574852
 20
76.7997579307
 30
0.0
 10
56.8345095418
 20
77.3810826431
 30
0.0
 10
56.6646030152
 20
77.9350817958
 30
0.0
 10
56.3037113541
 20
78.3808685845
 30
0.0
 10
55.9667695076
 20
78.5621011023
 30
0.0
 10
55.7901321259
 20
78.6156764895
 30
0.0
  0
SPLINE
  5
699
100
AcDbEntity
  8
3_ALL_AXES
100
AcDbSpline
 62
7
  6
CONTINUOUS
 70
0
 71
3
 72
15
 73
11
 74
0
 42
0.0000001
 43
0.0000001
 44
0.0000000001
 40
0.0
 40
0.0
 40
0.0
 40
0.0
 40
0.1229934443
 40
0.2471703435
 40
0.3730056107
 40
0.5
 40
0.6269943893
 40
0.7528296565
 40
0.8770065557
 40
1.0
 40
1.0
 40
1.0
 40
1.0
 10
55.0163660276
 20
75.7260983595
 30
0.0
 10
55.1981597596
 20
75.6773868758
 30
0.0
 10
55.5880904622
 20
75.6545541948
 30
0.0
 10
56.1386882882
 20
75.8535572815
 30
0.0
 10
56.5762889988
 20
76.2516213977
 30
0.0
 10
56.835474677
 20
76.7875080461
 30
0.0
 10
56.8789566195
 20
77.3811923362
 30
0.0
 10
56.6990153456
 20
77.9447263285
 30
0.0
 10
56.3216851844
 20
78.39236697
 30
0.0
 10
55.9725789497
 20
78.5675586395
 30
0.0
 10
55.7907852177
 20
78.6162701232
 30
0.0
  0
SPLINE
  5
69A
100
AcDbEntity
  8
3_ALL_AXES
100
AcDbSpline
 62
7
  6
CONTINUOUS
 70
0
 71
3
 72
9
 73
5
 74
0
 42
0.0000001
 43
0.0000001
 44
0.0000000001
 40
0.0
 40
0.0
 40
0.0
 40
0.0
 40
0.5048782201
 40
1.0
 40
1.0
 40
1.0
 40
1.0
 10
52.0427408771
 20
66.333152632
 30
0.0
 10
51.9897696455
 20
66.1354613043
 30
0.0
 10
52.0050727235
 20
65.7002039219
 30
0.0
 10
52.2791769369
 20
65.3585487415
 30
0.0
 10
52.4482168905
 20
65.2503358046
 30
0.0
  0
SPLINE
  5
69B
100
AcDbEntity
  8
3_ALL_AXES
100
AcDbSpline
 62
7
  6
CONTINUOUS
 70
0
 71
3
 72
11
 73
7
 74
0
 42
0.0000001
 43
0.0000001
 44
0.0000000001
 40
0.0
 40
0.0
 40
0.0
 40
0.0
 40
0.2525531183
 40
0.5036092509
 40
0.7525563955
 40
1.0
 40
1.0
 40
1.0
 40
1.0
 10
58.388822339
 20
74.9854870333
 30
0.0
 10
58.3385019187
 20
74.7976886683
 30
0.0
 10
58.3100962301
 20
74.3996664256
 30
0.0
 10
58.4948095131
 20
73.8354780802
 30
0.0
 10
58.8781568779
 20
73.3867725865
 30
0.0
 10
59.2311210988
 20
73.2109553807
 30
0.0
 10
59.4151200321
 20
73.1616530151
 30
0.0
  0
SPLINE
  5
69C
100
AcDbEntity
  8
3_ALL_AXES
100
AcDbSpline
 62
7
  6
CONTINUOUS
 70
0
 71
3
 72
11
 73
7
 74
0
 42
0.0000001
 43
0.0000001
 44
0.0000000001
 40
0.0
 40
0.0
 40
0.0
 40
0.0
 40
0.2474436045
 40
0.4963907491
 40
0.7474468817
 40
1.0
 40
1.0
 40
1.0
 40
1.0
 10
57.9477994615
 20
67.6855380944
 30
0.0
 10
57.7638005282
 20
67.73484046
 30
0.0
 10
57.3702159433
 20
67.7590604037
 30
0.0
 10
56.8138746401
 20
67.5621437298
 30
0.0
 10
56.3718140719
 20
67.1658989317
 30
0.0
 10
56.1974029985
 20
66.806998714
 30
0.0
 10
56.1470825783
 20
66.6192003489
 30
0.0
  0
SPLINE
  5
69D
100
AcDbEntity
  8
3_ALL_AXES
100
AcDbSpline
 62
7
  6
CONTINUOUS
 70
0
 71
3
 72
11
 73
7
 74
0
 42
0.0000001
 43
0.0000001
 44
0.0000000001
 40
0.0
 40
0.0
 40
0.0
 40
0.0
 40
0.2525531183
 40
0.5036092509
 40
0.7525563955
 40
1.0
 40
1.0
 40
1.0
 40
1.0
 10
56.1470825783
 20
66.6192003489
 30
0.0
 10
56.096762158
 20
66.4314019839
 30
0.0
 10
56.0683564694
 20
66.0333797412
 30
0.0
 10
56.2530697524
 20
65.4691913958
 30
0.0
 10
56.6364171172
 20
65.0204859021
 30
0.0
 10
56.9893813381
 20
64.8446686963
 30
0.0
 10
57.1733802714
 20
64.7953663307
 30
0.0
  0
SPLINE
  5
69E
100
AcDbEntity
  8
3_ALL_AXES
100
AcDbSpline
 62
7
  6
CONTINUOUS
 70
0
 71
3
 72
11
 73
7
 74
0
 42
0.0000001
 43
0.0000001
 44
0.0000000001
 40
0.0
 40
0.0
 40
0.0
 40
0.0
 40
0.2525652205
 40
0.5036098044
 40
0.7525573435
 40
1.0
 40
1.0
 40
1.0
 40
1.0
 10
60.7322686326
 20
74.3575624914
 30
0.0
 10
60.6991615441
 20
74.2340051553
 30
0.0
 10
60.5844117835
 20
73.9978909598
 30
0.0
 10
60.293590742
 20
73.7371907312
 30
0.0
 10
59.9275729256
 20
73.6076736536
 30
0.0
 10
59.668637801
 20
73.6235888953
 30
0.0
 10
59.5475864725
 20
73.656024501
 30
0.0
  0
SPLINE
  5
69F
100
AcDbEntity
  8
3_ALL_AXES
100
AcDbSpline
 62
7
  6
CONTINUOUS
 70
0
 71
3
 72
9
 73
5
 74
0
 42
0.0000001
 43
0.0000001
 44
0.0000000001
 40
0.0
 40
0.0
 40
0.0
 40
0.0
 40
0.5048782201
 40
1.0
 40
1.0
 40
1.0
 40
1.0
 10
54.9773820184
 20
77.2853824734
 30
0.0
 10
54.9244107868
 20
77.0876911456
 30
0.0
 10
54.9397138648
 20
76.6524337633
 30
0.0
 10
55.2138180782
 20
76.3107785829
 30
0.0
 10
55.3828580319
 20
76.202565646
 30
0.0
  0
SPLINE
  5
6A0
100
AcDbEntity
  8
3_ALL_AXES
100
AcDbSpline
 62
7
  6
CONTINUOUS
 70
0
 71
3
 72
11
 73
7
 74
0
 42
0.0000001
 43
0.0000001
 44
0.0000000001
 40
0.0
 40
0.0
 40
0.0
 40
0.0
 40
0.2525652205
 40
0.5036098044
 40
0.7525573435
 40
1.0
 40
1.0
 40
1.0
 40
1.0
 10
58.4905288718
 20
65.991275807
 30
0.0
 10
58.4574217834
 20
65.8677184709
 30
0.0
 10
58.3426720227
 20
65.6316042754
 30
0.0
 10
58.0518509813
 20
65.3709040468
 30
0.0
 10
57.6858331649
 20
65.2413869692
 30
0.0
 10
57.4268980403
 20
65.2573022109
 30
0.0
 10
57.3058467118
 20
65.2897378166
 30
0.0
  0
SPLINE
  5
6A1
100
AcDbEntity
  8
3_ALL_AXES
100
AcDbSpline
 62
7
  6
CONTINUOUS
 70
0
 71
3
 72
14
 73
10
 74
0
 42
0.0000001
 43
0.0000001
 44
0.0000000001
 40
0.0
 40
0.0
 40
0.0
 40
0.0
 40
0.0426644102
 40
0.1082446286
 40
0.2024992527
 40
0.3244468861
 40
0.4705779207
 40
0.6359140522
 40
1.0
 40
1.0
 40
1.0
 40
1.0
 10
74.6973682286
 20
41.999024152
 30
0.0
 10
74.7031612924
 20
42.0206441605
 30
0.0
 10
74.6849387614
 20
42.0810474766
 30
0.0
 10
74.6088062833
 20
42.1557525382
 30
0.0
 10
74.4880337946
 20
42.2419352001
 30
0.0
 10
74.3207671211
 20
42.3328066339
 30
0.0
 10
74.1136708115
 20
42.4270034396
 30
0.0
 10
73.7830753784
 20
42.5550913479
 30
0.0
 10
73.5172867547
 20
42.6372476363
 30
0.0
 10
73.3327877484
 20
42.6866839961
 30
0.0
  0
SPLINE
  5
6A2
100
AcDbEntity
  8
3_ALL_AXES
100
AcDbSpline
 62
7
  6
CONTINUOUS
 70
0
 71
3
 72
14
 73
10
 74
0
 42
0.0000001
 43
0.0000001
 44
0.0000000001
 40
0.0
 40
0.0
 40
0.0
 40
0.0
 40
0.0426644102
 40
0.1082446286
 40
0.2024992527
 40
0.3244468861
 40
0.4705779207
 40
0.6359140522
 40
1.0
 40
1.0
 40
1.0
 40
1.0
 10
83.063654913
 20
39.7572843912
 30
0.0
 10
83.0694479768
 20
39.7789043997
 30
0.0
 10
83.0512254457
 20
39.8393077159
 30
0.0
 10
82.9750929677
 20
39.9140127775
 30
0.0
 10
82.854320479
 20
40.0001954394
 30
0.0
 10
82.6870538055
 20
40.0910668732
 30
0.0
 10
82.4799574959
 20
40.1852636788
 30
0.0
 10
82.1493620628
 20
40.3133515871
 30
0.0
 10
81.8835734391
 20
40.3955078756
 30
0.0
 10
81.6990744328
 20
40.4449442353
 30
0.0
  0
SPLINE
  5
6A3
100
AcDbEntity
  8
3_ALL_AXES
100
AcDbSpline
 62
7
  6
CONTINUOUS
 70
0
 71
3
 72
12
 73
8
 74
0
 42
0.0000001
 43
0.0000001
 44
0.0000000001
 40
0.0
 40
0.0
 40
0.0
 40
0.0
 40
0.1050661552
 40
0.1996627645
 40
0.3220627031
 40
0.6345430389
 40
1.0
 40
1.0
 40
1.0
 40
1.0
 10
74.2029967427
 20
42.1314905924
 30
0.0
 10
74.1936459392
 20
42.0965929185
 30
0.0
 10
74.1091671334
 20
42.0709261533
 30
0.0
 10
74.0055841675
 20
42.0625101477
 30
0.0
 10
73.8201057879
 20
42.0662801299
 30
0.0
 10
73.5489385168
 20
42.1046519415
 30
0.0
 10
73.320704624
 20
42.1560437331
 30
0.0
 10
73.1993182668
 20
42.1885691095
 30
0.0
  0
SPLINE
  5
6A4
100
AcDbEntity
  8
3_ALL_AXES
100
AcDbSpline
 62
7
  6
CONTINUOUS
 70
0
 71
3
 72
12
 73
8
 74
0
 42
0.0000001
 43
0.0000001
 44
0.0000000001
 40
0.0
 40
0.0
 40
0.0
 40
0.0
 40
0.1050661552
 40
0.1996627645
 40
0.3220627031
 40
0.6345430389
 40
1.0
 40
1.0
 40
1.0
 40
1.0
 10
82.5692834271
 20
39.8897508316
 30
0.0
 10
82.5599326236
 20
39.8548531577
 30
0.0
 10
82.4754538177
 20
39.8291863926
 30
0.0
 10
82.3718708519
 20
39.820770387
 30
0.0
 10
82.1863924722
 20
39.8245403692
 30
0.0
 10
81.9152252012
 20
39.8629121808
 30
0.0
 10
81.6869913084
 20
39.9143039723
 30
0.0
 10
81.5656049512
 20
39.9468293487
 30
0.0
  0
SPLINE
  5
6A5
100
AcDbEntity
  8
3_ALL_AXES
100
AcDbSpline
 62
7
  6
CONTINUOUS
 70
0
 71
3
 72
14
 73
10
 74
0
 42
0.0000001
 43
0.0000001
 44
0.0000000001
 40
0.0
 40
0.0
 40
0.0
 40
0.0
 40
0.3640859478
 40
0.5294220793
 40
0.6755531139
 40
0.7975007473
 40
0.8917553714
 40
0.9573355898
 40
1.0
 40
1.0
 40
1.0
 40
1.0
 10
81.6990744328
 20
40.4449442353
 30
0.0
 10
81.5145754264
 20
40.4943805951
 30
0.0
 10
81.2433175821
 20
40.5561254741
 30
0.0
 10
80.8929695844
 20
40.6104958081
 30
0.0
 10
80.6665205164
 20
40.6324671363
 30
0.0
 10
80.4762276111
 20
40.6374035029
 30
0.0
 10
80.3285442369
 20
40.6231533727
 30
0.0
 10
80.225259046
 20
40.5965231305
 30
0.0
 10
80.1792762131
 20
40.5533235898
 30
0.0
 10
80.1734831493
 20
40.5317035813
 30
0.0
  0
SPLINE
  5
6A6
100
AcDbEntity
  8
3_ALL_AXES
100
AcDbSpline
 62
7
  6
CONTINUOUS
 70
0
 71
3
 72
14
 73
10
 74
0
 42
0.0000001
 43
0.0000001
 44
0.0000000001
 40
0.0
 40
0.0
 40
0.0
 40
0.0
 40
0.3640859478
 40
0.5294220793
 40
0.6755531139
 40
0.7975007473
 40
0.8917553714
 40
0.9573355898
 40
1.0
 40
1.0
 40
1.0
 40
1.0
 10
73.3327877484
 20
42.6866839961
 30
0.0
 10
73.148288742
 20
42.7361203558
 30
0.0
 10
72.8770308977
 20
42.7978652348
 30
0.0
 10
72.5266829
 20
42.8522355688
 30
0.0
 10
72.300233832
 20
42.874206897
 30
0.0
 10
72.1099409267
 20
42.8791432636
 30
0.0
 10
71.9622575525
 20
42.8648931334
 30
0.0
 10
71.8589723616
 20
42.8382628913
 30
0.0
 10
71.8129895287
 20
42.7950633505
 30
0.0
 10
71.8071964649
 20
42.773443342
 30
0.0
  0
SPLINE
  5
6A7
100
AcDbEntity
  8
3_ALL_AXES
100
AcDbSpline
 62
7
  6
CONTINUOUS
 70
0
 71
3
 72
12
 73
8
 74
0
 42
0.0000001
 43
0.0000001
 44
0.0000000001
 40
0.0
 40
0.0
 40
0.0
 40
0.0
 40
0.3654569611
 40
0.6779372969
 40
0.8003372355
 40
0.8949338448
 40
1.0
 40
1.0
 40
1.0
 40
1.0
 10
81.5656049512
 20
39.9468293487
 30
0.0
 10
81.4442185939
 20
39.9793547251
 30
0.0
 10
81.220866349
 20
40.0489650745
 30
0.0
 10
80.9668426978
 20
40.1513177464
 30
0.0
 10
80.8043287181
 20
40.2407920358
 30
0.0
 10
80.718831241
 20
40.2998719934
 30
0.0
 10
80.6585038317
 20
40.364339467
 30
0.0
 10
80.6678546352
 20
40.3992371409
 30
0.0
  0
SPLINE
  5
6A8
100
AcDbEntity
  8
3_ALL_AXES
100
AcDbSpline
 62
7
  6
CONTINUOUS
 70
0
 71
3
 72
12
 73
8
 74
0
 42
0.0000001
 43
0.0000001
 44
0.0000000001
 40
0.0
 40
0.0
 40
0.0
 40
0.0
 40
0.3654569611
 40
0.6779372969
 40
0.8003372355
 40
0.8949338448
 40
1.0
 40
1.0
 40
1.0
 40
1.0
 10
73.1993182668
 20
42.1885691095
 30
0.0
 10
73.0779319095
 20
42.2210944858
 30
0.0
 10
72.8545796646
 20
42.2907048352
 30
0.0
 10
72.6005560134
 20
42.3930575071
 30
0.0
 10
72.4380420337
 20
42.4825317965
 30
0.0
 10
72.3525445566
 20
42.5416117542
 30
0.0
 10
72.2922171473
 20
42.6060792277
 30
0.0
 10
72.3015679508
 20
42.6409769016
 30
0.0
  0
SPLINE
  5
6A9
100
AcDbEntity
  8
3_ALL_AXES
100
AcDbSpline
 62
7
  6
CONTINUOUS
 70
0
 71
3
 72
14
 73
10
 74
0
 42
0.0000001
 43
0.0000001
 44
0.0000000001
 40
0.0
 40
0.0
 40
0.0
 40
0.0
 40
0.3640816865
 40
0.5294282782
 40
0.6755573317
 40
0.797505614
 40
0.8917582449
 40
0.9573363001
 40
1.0
 40
1.0
 40
1.0
 40
1.0
 10
81.4932118766
 20
39.6766547162
 30
0.0
 10
81.6777081198
 20
39.6272190968
 30
0.0
 10
81.9489684457
 20
39.5654753764
 30
0.0
 10
82.2993168339
 20
39.5111001157
 30
0.0
 10
82.5257701102
 20
39.4891305334
 30
0.0
 10
82.7160607484
 20
39.484193855
 30
0.0
 10
82.8637414651
 20
39.4984455056
 30
0.0
 10
82.96702385
 20
39.5250777653
 30
0.0
 10
83.0130029082
 20
39.5682777494
 30
0.0
 10
83.0187958566
 20
39.5898973272
 30
0.0
  0
SPLINE
  5
6AA
100
AcDbEntity
  8
3_ALL_AXES
100
AcDbSpline
 62
7
  6
CONTINUOUS
 70
0
 71
3
 72
14
 73
10
 74
0
 42
0.0000001
 43
0.0000001
 44
0.0000000001
 40
0.0
 40
0.0
 40
0.0
 40
0.0
 40
0.3640816865
 40
0.5294282782
 40
0.6755573317
 40
0.797505614
 40
0.8917582449
 40
0.9573363001
 40
1.0
 40
1.0
 40
1.0
 40
1.0
 10
73.1269251922
 20
41.918394477
 30
0.0
 10
73.3114214354
 20
41.8689588576
 30
0.0
 10
73.5826817613
 20
41.8072151371
 30
0.0
 10
73.9330301495
 20
41.7528398764
 30
0.0
 10
74.1594834258
 20
41.7308702941
 30
0.0
 10
74.349774064
 20
41.7259336158
 30
0.0
 10
74.4974547807
 20
41.7401852663
 30
0.0
 10
74.6007371656
 20
41.766817526
 30
0.0
 10
74.6467162238
 20
41.8100175101
 30
0.0
 10
74.6525091722
 20
41.8316370879
 30
0.0
  0
SPLINE
  5
6AB
100
AcDbEntity
  8
3_ALL_AXES
100
AcDbSpline
 62
7
  6
CONTINUOUS
 70
0
 71
3
 72
12
 73
8
 74
0
 42
0.0000001
 43
0.0000001
 44
0.0000000001
 40
0.0
 40
0.0
 40
0.0
 40
0.0
 40
0.1050661552
 40
0.1996627645
 40
0.3220627031
 40
0.6345430389
 40
1.0
 40
1.0
 40
1.0
 40
1.0
 10
72.3015679508
 20
42.6409769016
 30
0.0
 10
72.3109187543
 20
42.6758745755
 30
0.0
 10
72.3953975602
 20
42.7015413407
 30
0.0
 10
72.4989805261
 20
42.7099573463
 30
0.0
 10
72.6844589057
 20
42.7061873641
 30
0.0
 10
72.9556261767
 20
42.6678155525
 30
0.0
 10
73.1838600695
 20
42.6164237609
 30
0.0
 10
73.3052464268
 20
42.5838983845
 30
0.0
  0
SPLINE
  5
6AC
100
AcDbEntity
  8
3_ALL_AXES
100
AcDbSpline
 62
7
  6
CONTINUOUS
 70
0
 71
3
 72
14
 73
10
 74
0
 42
0.0000001
 43
0.0000001
 44
0.0000000001
 40
0.0
 40
0.0
 40
0.0
 40
0.0
 40
0.0426644102
 40
0.1082446286
 40
0.2024992527
 40
0.3244468861
 40
0.4705779207
 40
0.6359140522
 40
1.0
 40
1.0
 40
1.0
 40
1.0
 10
80.1734831493
 20
40.5317035813
 30
0.0
 10
80.1676900855
 20
40.5100835728
 30
0.0
 10
80.1859126166
 20
40.4496802567
 30
0.0
 10
80.2620450946
 20
40.374975195
 30
0.0
 10
80.3828175833
 20
40.2887925331
 30
0.0
 10
80.5500842568
 20
40.1979210994
 30
0.0
 10
80.7571805664
 20
40.1037242937
 30
0.0
 10
81.0877759995
 20
39.9756363854
 30
0.0
 10
81.3535646232
 20
39.8934800969
 30
0.0
 10
81.5380636295
 20
39.8440437372
 30
0.0
  0
SPLINE
  5
6AD
100
AcDbEntity
  8
3_ALL_AXES
100
AcDbSpline
 62
7
  6
CONTINUOUS
 70
0
 71
3
 72
12
 73
8
 74
0
 42
0.0000001
 43
0.0000001
 44
0.0000000001
 40
0.0
 40
0.0
 40
0.0
 40
0.0
 40
0.1050661552
 40
0.1996627645
 40
0.3220627031
 40
0.6345430389
 40
1.0
 40
1.0
 40
1.0
 40
1.0
 10
80.6678546352
 20
40.3992371409
 30
0.0
 10
80.6772054387
 20
40.4341348148
 30
0.0
 10
80.7616842446
 20
40.4598015799
 30
0.0
 10
80.8652672105
 20
40.4682175856
 30
0.0
 10
81.0507455901
 20
40.4644476034
 30
0.0
 10
81.3219128611
 20
40.4260757917
 30
0.0
 10
81.5501467539
 20
40.3746840002
 30
0.0
 10
81.6715331112
 20
40.3421586238
 30
0.0
  0
SPLINE
  5
6AE
100
AcDbEntity
  8
3_ALL_AXES
100
AcDbSpline
 62
7
  6
CONTINUOUS
 70
0
 71
3
 72
14
 73
10
 74
0
 42
0.0000001
 43
0.0000001
 44
0.0000000001
 40
0.0
 40
0.0
 40
0.0
 40
0.0
 40
0.0426644102
 40
0.1082446286
 40
0.2024992527
 40
0.3244468861
 40
0.4705779207
 40
0.6359140522
 40
1.0
 40
1.0
 40
1.0
 40
1.0
 10
71.8071964649
 20
42.773443342
 30
0.0
 10
71.8014034011
 20
42.7518233335
 30
0.0
 10
71.8196259322
 20
42.6914200174
 30
0.0
 10
71.8957584102
 20
42.6167149558
 30
0.0
 10
72.0165308989
 20
42.5305322939
 30
0.0
 10
72.1837975724
 20
42.4396608601
 30
0.0
 10
72.390893882
 20
42.3454640545
 30
0.0
 10
72.7214893151
 20
42.2173761461
 30
0.0
 10
72.9872779388
 20
42.1352198577
 30
0.0
 10
73.1717769452
 20
42.0857834979
 30
0.0
  0
SPLINE
  5
6AF
100
AcDbEntity
  8
3_ALL_AXES
100
AcDbSpline
 62
7
  6
CONTINUOUS
 70
0
 71
3
 72
14
 73
10
 74
0
 42
0.0000001
 43
0.0000001
 44
0.0000000001
 40
0.0
 40
0.0
 40
0.0
 40
0.0
 40
0.0426636999
 40
0.1082417551
 40
0.202494386
 40
0.3244426683
 40
0.4705717218
 40
0.6359183135
 40
1.0
 40
1.0
 40
1.0
 40
1.0
 10
80.1286386997
 20
40.3643126034
 30
0.0
 10
80.1228457513
 20
40.3426930256
 30
0.0
 10
80.1410647917
 20
40.2822912128
 30
0.0
 10
80.2171938309
 20
40.2075858069
 30
0.0
 10
80.337963258
 20
40.1214031571
 30
0.0
 10
80.5052281239
 20
40.0305331269
 30
0.0
 10
80.7123272051
 20
39.9363327051
 30
0.0
 10
81.0429254398
 20
39.8082488681
 30
0.0
 10
81.3087156333
 20
39.7260903356
 30
0.0
 10
81.4932118766
 20
39.6766547162
 30
0.0
  0
SPLINE
  5
6B0
100
AcDbEntity
  8
3_ALL_AXES
100
AcDbSpline
 62
7
  6
CONTINUOUS
 70
0
 71
3
 72
14
 73
10
 74
0
 42
0.0000001
 43
0.0000001
 44
0.0000000001
 40
0.0
 40
0.0
 40
0.0
 40
0.0
 40
0.0426636999
 40
0.1082417551
 40
0.202494386
 40
0.3244426683
 40
0.4705717218
 40
0.6359183135
 40
1.0
 40
1.0
 40
1.0
 40
1.0
 10
71.7623520153
 20
42.6060523641
 30
0.0
 10
71.7565590669
 20
42.5844327863
 30
0.0
 10
71.7747781073
 20
42.5240309735
 30
0.0
 10
71.8509071465
 20
42.4493255676
 30
0.0
 10
71.9716765736
 20
42.3631429178
 30
0.0
 10
72.1389414395
 20
42.2722728876
 30
0.0
 10
72.3460405207
 20
42.1780724659
 30
0.0
 10
72.6766387554
 20
42.0499886288
 30
0.0
 10
72.9424289489
 20
41.9678300963
 30
0.0
 10
73.1269251922
 20
41.918394477
 30
0.0
  0
SPLINE
  5
6B1
100
AcDbEntity
  8
3_ALL_AXES
100
AcDbSpline
 62
7
  6
CONTINUOUS
 70
0
 71
3
 72
14
 73
10
 74
0
 42
0.0000001
 43
0.0000001
 44
0.0000000001
 40
0.0
 40
0.0
 40
0.0
 40
0.0
 40
0.3640859478
 40
0.5294220793
 40
0.6755531139
 40
0.7975007473
 40
0.8917553714
 40
0.9573355898
 40
1.0
 40
1.0
 40
1.0
 40
1.0
 10
81.5380636295
 20
39.8440437372
 30
0.0
 10
81.7225626359
 20
39.7946073775
 30
0.0
 10
81.9938204803
 20
39.7328624985
 30
0.0
 10
82.3441684779
 20
39.6784921644
 30
0.0
 10
82.5706175459
 20
39.6565208363
 30
0.0
 10
82.7609104512
 20
39.6515844697
 30
0.0
 10
82.9085938254
 20
39.6658345999
 30
0.0
 10
83.0118790163
 20
39.692464842
 30
0.0
 10
83.0578618492
 20
39.7356643827
 30
0.0
 10
83.063654913
 20
39.7572843912
 30
0.0
  0
SPLINE
  5
6B2
100
AcDbEntity
  8
3_ALL_AXES
100
AcDbSpline
 62
7
  6
CONTINUOUS
 70
0
 71
3
 72
14
 73
10
 74
0
 42
0.0000001
 43
0.0000001
 44
0.0000000001
 40
0.0
 40
0.0
 40
0.0
 40
0.0
 40
0.3640859478
 40
0.5294220793
 40
0.6755531139
 40
0.7975007473
 40
0.8917553714
 40
0.9573355898
 40
1.0
 40
1.0
 40
1.0
 40
1.0
 10
73.1717769452
 20
42.0857834979
 30
0.0
 10
73.3562759515
 20
42.0363471382
 30
0.0
 10
73.6275337959
 20
41.9746022592
 30
0.0
 10
73.9778817935
 20
41.9202319252
 30
0.0
 10
74.2043308615
 20
41.898260597
 30
0.0
 10
74.3946237668
 20
41.8933242304
 30
0.0
 10
74.5423071411
 20
41.9075743606
 30
0.0
 10
74.6455923319
 20
41.9342046027
 30
0.0
 10
74.6915751648
 20
41.9774041435
 30
0.0
 10
74.6973682286
 20
41.999024152
 30
0.0
  0
SPLINE
  5
6B3
100
AcDbEntity
  8
3_ALL_AXES
100
AcDbSpline
 62
7
  6
CONTINUOUS
 70
0
 71
3
 72
12
 73
8
 74
0
 42
0.0000001
 43
0.0000001
 44
0.0000000001
 40
0.0
 40
0.0
 40
0.0
 40
0.0
 40
0.3654569611
 40
0.6779372969
 40
0.8003372355
 40
0.8949338448
 40
1.0
 40
1.0
 40
1.0
 40
1.0
 10
81.6715331112
 20
40.3421586238
 30
0.0
 10
81.7929194684
 20
40.3096332474
 30
0.0
 10
82.0162717133
 20
40.240022898
 30
0.0
 10
82.2702953645
 20
40.1376702262
 30
0.0
 10
82.4328093443
 20
40.0481959367
 30
0.0
 10
82.5183068213
 20
39.9891159791
 30
0.0
 10
82.5786342306
 20
39.9246485055
 30
0.0
 10
82.5692834271
 20
39.8897508316
 30
0.0
  0
SPLINE
  5
6B4
100
AcDbEntity
  8
3_ALL_AXES
100
AcDbSpline
 62
7
  6
CONTINUOUS
 70
0
 71
3
 72
12
 73
8
 74
0
 42
0.0000001
 43
0.0000001
 44
0.0000000001
 40
0.0
 40
0.0
 40
0.0
 40
0.0
 40
0.3654569611
 40
0.6779372969
 40
0.8003372355
 40
0.8949338448
 40
1.0
 40
1.0
 40
1.0
 40
1.0
 10
73.3052464268
 20
42.5838983845
 30
0.0
 10
73.426632784
 20
42.5513730082
 30
0.0
 10
73.6499850289
 20
42.4817626588
 30
0.0
 10
73.9040086802
 20
42.3794099869
 30
0.0
 10
74.0665226599
 20
42.2899356975
 30
0.0
 10
74.1520201369
 20
42.2308557398
 30
0.0
 10
74.2123475463
 20
42.1663882663
 30
0.0
 10
74.2029967427
 20
42.1314905924
 30
0.0
  0
ENDSEC
  0
SECTION
  2
OBJECTS
  0
DICTIONARY
  5
C
100
AcDbDictionary
280
0
281
1
  3
ACAD_GROUP
350
D
  3
ACAD_MLINESTYLE
350
17
  3
ACAD_LAYOUT
350
1A
  3
ACAD_PLOTSETTINGS
350
19
  3
ACAD_PLOTSTYLENAME
350
E
  0
DICTIONARY
  5
D
102
{ACAD_REACTORS
330
C
102
}
100
AcDbDictionary
280
0
281
1
  0
ACDBDICTIONARYWDFLT
  5
E
102
{ACAD_REACTORS
330
C
102
}
100
AcDbDictionary
281
1
  3
Normal
350
F
100
AcDbDictionaryWithDefault
340
F
  0
DICTIONARY
  5
17
102
{ACAD_REACTORS
330
C
102
}
100
AcDbDictionary
280
0
281
1
  3
Standard
350
18
  0
DICTIONARY
  5
19
102
{ACAD_REACTORS
330
C
102
}
100
AcDbDictionary
281
1
  0
DICTIONARY
  5
1A
102
{ACAD_REACTORS
330
C
102
}
100
AcDbDictionary
281
1
  3
Model
350
6B5
  3
Layout1
350
6B6
  0
ACDBPLACEHOLDER
  5
F
102
{ACAD_REACTORS
330
E
102
}
  0
MLINESTYLE
  5
18
102
{ACAD_REACTORS
330
17
102
}
100
AcDbMlineStyle
  2
STANDARD
 70
0
  3

 62
256
 51
90.0
 52
90.0
 71
2
 49
0.5
 62
256
  6
BYLAYER
 49
-0.5
 62
256
  6
BYLAYER
  0
LAYOUT
  5
6B5
102
{ACAD_REACTORS
330
1A
102
}
100
AcDbPlotSettings
  1

  2
none_device
  4
ANSI_D_(34.00_x_22.00_Inches)
  6

 40
0.0
 41
0.0
 42
0.0
 43
0.0
 44
863.6
 45
558.8
 46
0.0
 47
0.0
 48
0.0
 49
0.0
140
0.0
141
0.0
142
1.0
143
1.0
 70
1024
 72
0
 73
0
 74
0
  7

 75
0
147
1.0
148
0.0
149
0.0
100
AcDbLayout
  1
Model
 70
0
 71
0
 10
0.0
 20
0.0
 11
34.0
 21
22.0
 12
0.0
 22
0.0
 32
0.0
 14
0.0
 24
0.0
 34
0.0
 15
0.0
 25
0.0
 35
0.0
146
0.0
 13
0.0
 23
0.0
 33
0.0
 16
1.0
 26
0.0
 36
0.0
 17
0.0
 27
1.0
 37
0.0
 76
0
330
210
345
0
346
0
  0
LAYOUT
  5
6B6
102
{ACAD_REACTORS
330
1A
102
}
100
AcDbPlotSettings
  1

  2
none_device
  4
ANSI_D_(34.00_x_22.00_Inches)
  6

 40
0.0
 41
0.0
 42
0.0
 43
0.0
 44
863.6
 45
558.8
 46
0.0
 47
0.0
 48
0.0
 49
0.0
140
0.0
141
0.0
142
1.0
143
1.0
 70
0
 72
0
 73
0
 74
0
  7

 75
0
147
1.0
148
0.0
149
0.0
100
AcDbLayout
  1
Layout1
 70
0
 71
1
 10
0.0
 20
0.0
 11
34.0
 21
22.0
 12
0.0
 22
0.0
 32
0.0
 14
0.0
 24
0.0
 34
0.0
 15
0.0
 25
0.0
 35
0.0
146
0.0
 13
0.0
 23
0.0
 33
0.0
 16
1.0
 26
0.0
 36
0.0
 17
0.0
 27
1.0
 37
0.0
 76
0
330
211
345
0
346
0
  0
ENDSEC
  0
EOF
