999
DXF file: fg-001020-2d-B.dxf
999
Pro/ENGINEER 2016130 by Parametric Technology Corporation
  0
SECTION
  2
HEADER
  9
$ACADVER
  1
AC1015
  9
$DWGCODEPAGE
  3
ANSI_1252
  9
$EXTMAX
 10
102.0
 20
66.0
 30
0.0
  9
$EXTMIN
 10
0.0
 20
0.0
 30
0.0
  9
$LIMMIN
 10
0.0
 20
0.0
  9
$LIMMAX
 10
102.0
 20
66.0
  9
$VIEWCTR
 10
51.0
 20
33.0
  9
$VIEWSIZE
 40
66.0
  9
$CLAYER
  8
0
  9
$LTSCALE
 40
5.61
  9
$CELTYPE
  6
BYLAYER
  9
$DIMSCALE
 40
1.0
  9
$DIMASZ
 40
0.5625
  9
$DIMEXO
 40
0.0625
  9
$DIMDLI
 40
3.876
  9
$DIMEXE
 40
0.125
  9
$DIMCEN
 40
0.918
  9
$DIMLFAC
 40
1.0
  9
$DIMBLK
  1
_FILLED
  9
$DIMALT
 70
0
  9
$DIMALTF
 40
25.4
  9
$DIMTXT
 40
0.46875
  9
$DIMTOL
 70
1
  9
$DIMLIM
 70
0
  9
$DIMTFAC
 40
1.0
  9
$DIMTP
 40
0.01
  9
$DIMTM
 40
0.01
  9
$DIMGAP
 40
0.09
  9
$DIMDSEP
 70
46
  9
$AUNITS
 70
0
  9
$PDMODE
 70
3
  9
$PDSIZE
 40
0.3125
  9
$HANDSEED
  5
5CA
  9
$TILEMODE
 70
1
  9
$MEASUREMENT
 70
0
  9
$INSUNITS
 70
1
  0
ENDSEC
  0
SECTION
  2
CLASSES
  0
CLASS
  1
ACDBDICTIONARYWDFLT
  2
AcDbDictionaryWithDefault
  3
AutoCAD 2000
 90
0
280
0
281
0
  0
CLASS
  1
ACDBPLACEHOLDER
  2
AcDbPlaceHolder
  3
AutoCAD 2000
 90
0
280
0
281
0
  0
CLASS
  1
LAYOUT
  2
AcDbLayout
  3
AutoCAD 2000
 90
0
280
0
281
0
  0
ENDSEC
  0
SECTION
  2
TABLES
  0
TABLE
  2
VPORT
  5
8
100
AcDbSymbolTable
 70
2
  0
VPORT
  5
1F4
100
AcDbSymbolTableRecord
100
AcDbViewportTableRecord
  2
*ACTIVE
 70
0
 10
0.0
 20
0.0
 11
1.0
 21
1.0
 12
51.0
 22
33.0
 13
0.0
 23
0.0
 14
1.0
 24
1.0
 15
0.0
 25
0.0
 16
0.0
 26
0.0
 36
1.0
 17
0.0
 27
0.0
 37
0.0
 40
66.0
 41
1.5454545455
 42
50.0
 43
0.0
 44
0.0
 50
0.0
 51
0.0
 71
0
 72
100
 73
1
 74
1
 75
0
 76
0
 77
0
 78
0
  0
ENDTAB
  0
TABLE
  2
LTYPE
  5
5
100
AcDbSymbolTable
 70
6
  0
LTYPE
  5
14
100
AcDbSymbolTableRecord
100
AcDbLinetypeTableRecord
  2
BYBLOCK
 70
0
  3

 72
65
 73
0
 40
0.0
  0
LTYPE
  5
15
100
AcDbSymbolTableRecord
100
AcDbLinetypeTableRecord
  2
BYLAYER
 70
0
  3

 72
65
 73
0
 40
0.0
  0
LTYPE
  5
16
100
AcDbSymbolTableRecord
100
AcDbLinetypeTableRecord
  2
CONTINUOUS
 70
64
  3
Solid line
 72
65
 73
0
 40
0.0
  0
LTYPE
  5
1F5
100
AcDbSymbolTableRecord
100
AcDbLinetypeTableRecord
  2
CENTER
 70
64
  3
____ _ ____ _ ____ _ ____ _ ____ _ ____ _ ____
 72
65
 73
4
 40
0.6
 49
0.375
 74
0
 49
-0.075
 74
0
 49
0.075
 74
0
 49
-0.075
 74
0
  0
LTYPE
  5
1F6
100
AcDbSymbolTableRecord
100
AcDbLinetypeTableRecord
  2
HIDDEN
 70
64
  3
- - - - - - - - - - - - - - - - - - - -
 72
65
 73
2
 40
0.2
 49
0.1
 74
0
 49
-0.1
 74
0
  0
LTYPE
  5
1F7
100
AcDbSymbolTableRecord
100
AcDbLinetypeTableRecord
  2
PHANTOM
 70
64
  3
_____ _ _ _____ _ _ _____ _ _ _____
 72
65
 73
6
 40
0.8
 49
0.45
 74
0
 49
-0.05
 74
0
 49
0.1
 74
0
 49
-0.05
 74
0
 49
0.1
 74
0
 49
-0.05
 74
0
  0
LTYPE
  5
1F8
100
AcDbSymbolTableRecord
100
AcDbLinetypeTableRecord
  2
DOT
 70
64
  3
. . . . . . . . . . . . . . . . . . . .
 72
65
 73
2
 40
0.2
 49
0.1
 74
0
 49
-0.1
 74
0
  0
LTYPE
  5
1F9
100
AcDbSymbolTableRecord
100
AcDbLinetypeTableRecord
  2
DASHED
 70
64
  3
- - - - - - - - - - - - - - - - - - - -
 72
65
 73
2
 40
0.2
 49
0.1
 74
0
 49
-0.1
 74
0
  0
ENDTAB
  0
TABLE
  2
LAYER
  5
2
100
AcDbSymbolTable
 70
36
  0
LAYER
  5
10
100
AcDbSymbolTableRecord
100
AcDbLayerTableRecord
  2
0
 70
0
 62
7
  6
CONTINUOUS
370
-3
390
F
  0
LAYER
  5
1FA
100
AcDbSymbolTableRecord
100
AcDbLayerTableRecord
  2
DEFAULT_1
 70
0
 62
7
  6
CENTER
370
-3
390
F
  0
LAYER
  5
1FB
100
AcDbSymbolTableRecord
100
AcDbLayerTableRecord
  2
DEFAULT_2
 70
0
 62
8
  6
HIDDEN
370
-3
390
F
  0
LAYER
  5
1FC
100
AcDbSymbolTableRecord
100
AcDbLayerTableRecord
  2
DEFAULT_3
 70
0
 62
7
  6
PHANTOM
370
-3
390
F
  0
LAYER
  5
1FD
100
AcDbSymbolTableRecord
100
AcDbLayerTableRecord
  2
1_ALL_PLANES
 70
0
 62
7
  6
CONTINUOUS
370
-3
390
F
  0
LAYER
  5
1FE
100
AcDbSymbolTableRecord
100
AcDbLayerTableRecord
  2
1__DEF_PLANES
 70
0
 62
7
  6
CONTINUOUS
370
-3
390
F
  0
LAYER
  5
1FF
100
AcDbSymbolTableRecord
100
AcDbLayerTableRecord
  2
2_ALL_CSYS
 70
0
 62
7
  6
CONTINUOUS
370
-3
390
F
  0
LAYER
  5
200
100
AcDbSymbolTableRecord
100
AcDbLayerTableRecord
  2
2__DEF_CSYS
 70
0
 62
7
  6
CONTINUOUS
370
-3
390
F
  0
LAYER
  5
201
100
AcDbSymbolTableRecord
100
AcDbLayerTableRecord
  2
3_ALL_AXES
 70
0
 62
7
  6
CONTINUOUS
370
-3
390
F
  0
LAYER
  5
202
100
AcDbSymbolTableRecord
100
AcDbLayerTableRecord
  2
3_AXES_OTHER
 70
0
 62
7
  6
CONTINUOUS
370
-3
390
F
  0
LAYER
  5
203
100
AcDbSymbolTableRecord
100
AcDbLayerTableRecord
  2
3_HOLES
 70
0
 62
7
  6
CONTINUOUS
370
-3
390
F
  0
LAYER
  5
204
100
AcDbSymbolTableRecord
100
AcDbLayerTableRecord
  2
4_ALL_POINTS
 70
0
 62
7
  6
CONTINUOUS
370
-3
390
F
  0
LAYER
  5
205
100
AcDbSymbolTableRecord
100
AcDbLayerTableRecord
  2
5_ALL_CURVES
 70
0
 62
7
  6
CONTINUOUS
370
-3
390
F
  0
LAYER
  5
206
100
AcDbSymbolTableRecord
100
AcDbLayerTableRecord
  2
6_ALL_SURFS
 70
0
 62
7
  6
CONTINUOUS
370
-3
390
F
  0
LAYER
  5
207
100
AcDbSymbolTableRecord
100
AcDbLayerTableRecord
  2
6_COPYGEOM
 70
0
 62
7
  6
CONTINUOUS
370
-3
390
F
  0
LAYER
  5
208
100
AcDbSymbolTableRecord
100
AcDbLayerTableRecord
  2
7_ALL_ROUNDS
 70
0
 62
7
  6
CONTINUOUS
370
-3
390
F
  0
LAYER
  5
209
100
AcDbSymbolTableRecord
100
AcDbLayerTableRecord
  2
7_MERGES
 70
0
 62
7
  6
CONTINUOUS
370
-3
390
F
  0
LAYER
  5
20A
100
AcDbSymbolTableRecord
100
AcDbLayerTableRecord
  2
8_GDT
 70
0
 62
7
  6
CONTINUOUS
370
-3
390
F
  0
LAYER
  5
20B
100
AcDbSymbolTableRecord
100
AcDbLayerTableRecord
  2
8_SET_DATUMS
 70
0
 62
7
  6
CONTINUOUS
370
-3
390
F
  0
LAYER
  5
20C
100
AcDbSymbolTableRecord
100
AcDbLayerTableRecord
  2
9_COSMETICS
 70
0
 62
7
  6
CONTINUOUS
370
-3
390
F
  0
LAYER
  5
20D
100
AcDbSymbolTableRecord
100
AcDbLayerTableRecord
  2
9_THREADS
 70
0
 62
7
  6
CONTINUOUS
370
-3
390
F
  0
ENDTAB
  0
TABLE
  2
STYLE
  5
3
100
AcDbSymbolTable
 70
1
  0
STYLE
  5
11
100
AcDbSymbolTableRecord
100
AcDbTextStyleTableRecord
  2
STANDARD
 70
0
 40
0.0
 41
0.8
 50
0.0
 71
0
 42
0.2
  3
txt
  4

  0
STYLE
  5
20E
100
AcDbSymbolTableRecord
100
AcDbTextStyleTableRecord
  2
TEXTSTYLE_1
 70
0
 40
0.0
 41
0.8
 50
0.0
 71
0
 42
0.2
  3
gdt
  4

  0
ENDTAB
  0
TABLE
  2
VIEW
  5
6
100
AcDbSymbolTable
 70
0
  0
ENDTAB
  0
TABLE
  2
UCS
  5
7
100
AcDbSymbolTable
 70
0
  0
ENDTAB
  0
TABLE
  2
APPID
  5
9
100
AcDbSymbolTable
 70
1
  0
APPID
  5
20F
100
AcDbSymbolTableRecord
100
AcDbRegAppTableRecord
  2
ACAD
 70
0
  0
ENDTAB
  0
TABLE
  2
BLOCK_RECORD
  5
1
100
AcDbSymbolTable
 70
0
  0
BLOCK_RECORD
  5
210
100
AcDbSymbolTableRecord
100
AcDbBlockTableRecord
  2
*Model_Space
  0
BLOCK_RECORD
  5
211
100
AcDbSymbolTableRecord
100
AcDbBlockTableRecord
  2
*Paper_Space
  0
BLOCK_RECORD
  5
212
100
AcDbSymbolTableRecord
100
AcDbBlockTableRecord
  2
_FILLED
  0
BLOCK_RECORD
  5
213
100
AcDbSymbolTableRecord
100
AcDbBlockTableRecord
  2
*D0
  0
BLOCK_RECORD
  5
214
100
AcDbSymbolTableRecord
100
AcDbBlockTableRecord
  2
*D1
  0
BLOCK_RECORD
  5
215
100
AcDbSymbolTableRecord
100
AcDbBlockTableRecord
  2
*D2
  0
BLOCK_RECORD
  5
216
100
AcDbSymbolTableRecord
100
AcDbBlockTableRecord
  2
*D3
  0
BLOCK_RECORD
  5
217
100
AcDbSymbolTableRecord
100
AcDbBlockTableRecord
  2
*D4
  0
BLOCK_RECORD
  5
218
100
AcDbSymbolTableRecord
100
AcDbBlockTableRecord
  2
*D5
  0
BLOCK_RECORD
  5
219
100
AcDbSymbolTableRecord
100
AcDbBlockTableRecord
  2
*D6
  0
BLOCK_RECORD
  5
21A
100
AcDbSymbolTableRecord
100
AcDbBlockTableRecord
  2
*D7
  0
BLOCK_RECORD
  5
21B
100
AcDbSymbolTableRecord
100
AcDbBlockTableRecord
  2
*D8
  0
BLOCK_RECORD
  5
21C
100
AcDbSymbolTableRecord
100
AcDbBlockTableRecord
  2
*D9
  0
BLOCK_RECORD
  5
21D
100
AcDbSymbolTableRecord
100
AcDbBlockTableRecord
  2
*D10
  0
BLOCK_RECORD
  5
21E
100
AcDbSymbolTableRecord
100
AcDbBlockTableRecord
  2
*D11
  0
BLOCK_RECORD
  5
21F
100
AcDbSymbolTableRecord
100
AcDbBlockTableRecord
  2
*D12
  0
BLOCK_RECORD
  5
220
100
AcDbSymbolTableRecord
100
AcDbBlockTableRecord
  2
*D13
  0
BLOCK_RECORD
  5
221
100
AcDbSymbolTableRecord
100
AcDbBlockTableRecord
  2
*D14
  0
BLOCK_RECORD
  5
222
100
AcDbSymbolTableRecord
100
AcDbBlockTableRecord
  2
*D15
  0
BLOCK_RECORD
  5
223
100
AcDbSymbolTableRecord
100
AcDbBlockTableRecord
  2
*D16
  0
BLOCK_RECORD
  5
224
100
AcDbSymbolTableRecord
100
AcDbBlockTableRecord
  2
*D17
  0
BLOCK_RECORD
  5
225
100
AcDbSymbolTableRecord
100
AcDbBlockTableRecord
  2
*D18
  0
BLOCK_RECORD
  5
226
100
AcDbSymbolTableRecord
100
AcDbBlockTableRecord
  2
CG_3D_BL3
  0
BLOCK_RECORD
  5
227
100
AcDbSymbolTableRecord
100
AcDbBlockTableRecord
  2
CG_3D_BL2
  0
BLOCK_RECORD
  5
228
100
AcDbSymbolTableRecord
100
AcDbBlockTableRecord
  2
CG_3D_BL1
  0
BLOCK_RECORD
  5
229
100
AcDbSymbolTableRecord
100
AcDbBlockTableRecord
  2
RD010411_BL0
  0
ENDTAB
  0
TABLE
  2
DIMSTYLE
  5
A
100
AcDbSymbolTable
 70
1
100
AcDbDimStyleTable
 71
0
  0
DIMSTYLE
105
22A
100
AcDbSymbolTableRecord
100
AcDbDimStyleTableRecord
  2
STANDARD
 70
0
  3

  4

 40
1.0
 41
0.5625
 42
0.0625
 43
0.38
 44
0.125
 45
0.0
 46
0.0
 47
0.01
 48
0.01
140
0.46875
141
0.09
142
0.0
143
25.4
144
1.0
145
0.0
146
1.0
147
0.09
 71
1.0
 72
0.0
 73
1
 74
1
 75
0
 76
0
 77
0
 78
4
170
0
171
2
172
0
173
0
174
0
175
0
176
0
177
0
178
0
270
2
271
3
272
3
273
2
274
2
275
0
280
0
281
0
282
0
283
1
284
4
285
0
286
0
287
3
288
0
340
11
278
46
341
212
342
212
343
212
344
212
  0
DIMSTYLE
105
22B
100
AcDbSymbolTableRecord
100
AcDbDimStyleTableRecord
  2
DIMSTYLE_1
 70
0
  3

  4

 40
1.0
 41
0.5625
 42
0.0625
 43
0.38
 44
0.125
 45
0.0
 46
0.0
 47
0.01
 48
0.01
140
0.46875
141
0.09
142
0.0
143
25.4
144
1.0
145
0.0
146
1.0
147
0.078125
 71
0.0
 72
0.0
 73
1
 74
1
 75
0
 76
0
 77
0
 78
4
170
0
171
2
172
0
173
0
174
0
175
0
176
0
177
0
178
0
270
2
271
0
272
0
273
2
274
2
275
0
280
0
281
0
282
0
283
1
284
4
285
0
286
0
287
3
288
0
340
11
278
46
341
212
342
212
343
212
344
212
  0
DIMSTYLE
105
22C
100
AcDbSymbolTableRecord
100
AcDbDimStyleTableRecord
  2
DIMSTYLE_2
 70
0
  3

  4

 40
1.0
 41
0.5625
 42
0.0625
 43
0.38
 44
0.125
 45
0.0
 46
0.0
 47
0.01
 48
0.01
140
0.46875
141
0.09
142
0.0
143
25.4
144
1.0
145
0.0
146
1.0
147
0.078125
 71
0.0
 72
0.0
 73
1
 74
1
 75
0
 76
0
 77
0
 78
4
170
0
171
2
172
0
173
0
174
0
175
0
176
0
177
0
178
0
270
2
271
3
272
3
273
2
274
2
275
0
280
0
281
0
282
0
283
1
284
4
285
0
286
0
287
3
288
0
340
11
278
46
341
212
342
212
343
212
344
212
  0
DIMSTYLE
105
22D
100
AcDbSymbolTableRecord
100
AcDbDimStyleTableRecord
  2
DIMSTYLE_3
 70
0
  3

  4

 40
1.0
 41
0.5625
 42
0.0625
 43
0.38
 44
0.125
 45
0.0
 46
0.0
 47
0.01
 48
0.01
140
0.46875
141
0.09
142
0.0
143
25.4
144
1.0
145
0.0
146
1.0
147
0.078125
 71
0.0
 72
0.0
 73
1
 74
1
 75
0
 76
0
 77
0
 78
4
170
0
171
2
172
0
173
0
174
0
175
0
176
0
177
0
178
0
270
2
271
2
272
2
273
2
274
2
275
0
280
0
281
0
282
0
283
1
284
4
285
0
286
0
287
3
288
0
340
11
278
46
341
212
342
212
343
212
344
212
  0
ENDTAB
  0
ENDSEC
  0
SECTION
  2
BLOCKS
  0
BLOCK
  5
20
100
AcDbEntity
  8
0
100
AcDbBlockBegin
  2
*Model_Space
 70
0
 10
0.0
 20
0.0
 30
0.0
  3
*Model_Space
  1

  0
ENDBLK
  5
21
100
AcDbEntity
  8
0
100
AcDbBlockEnd
  0
BLOCK
  5
1C
100
AcDbEntity
  8
0
100
AcDbBlockBegin
  2
*Paper_Space
 70
0
 10
0.0
 20
0.0
 30
0.0
  3
*Paper_Space
  1

  0
ENDBLK
  5
1D
100
AcDbEntity
  8
0
100
AcDbBlockEnd
  0
BLOCK
  5
22E
100
AcDbEntity
  8
0
100
AcDbBlockBegin
 62
2
  6
CONTINUOUS
  2
CG_3D_BL3
 70
64
 10
45.7105608195
 20
26.0529776683
  3
CG_3D_BL3
  1

  0
ARC
  5
22F
100
AcDbEntity
  8
0
100
AcDbCircle
 62
7
  6
CONTINUOUS
 10
45.7105608195
 20
26.0529776683
 40
0.5625
100
AcDbArc
 50
90.0
 51
180.0
  0
ARC
  5
230
100
AcDbEntity
  8
0
100
AcDbCircle
 62
7
  6
CONTINUOUS
 10
45.7105608195
 20
26.0529776683
 40
0.5625
100
AcDbArc
 50
180.0
 51
270.0
  0
ARC
  5
231
100
AcDbEntity
  8
0
100
AcDbCircle
 62
7
  6
CONTINUOUS
 10
45.7105608195
 20
26.0529776683
 40
0.5625
100
AcDbArc
 50
270.0
 51
360.0
  0
ARC
  5
232
100
AcDbEntity
  8
0
100
AcDbCircle
 62
7
  6
CONTINUOUS
 10
45.7105608195
 20
26.0529776683
 40
0.5625
100
AcDbArc
 50
0.0
 51
90.0
  0
LINE
  5
233
100
AcDbEntity
  8
0
100
AcDbLine
 62
7
  6
CONTINUOUS
 10
45.7105608195
 20
26.0529776683
 11
46.2730608195
 21
26.0529776683
  0
LINE
  5
234
100
AcDbEntity
  8
0
100
AcDbLine
 62
7
  6
CONTINUOUS
 10
45.7105608195
 20
26.0529776683
 11
45.7105608195
 21
25.4904776683
  0
LINE
  5
235
100
AcDbEntity
  8
0
100
AcDbLine
 62
7
  6
CONTINUOUS
 10
45.1480608195
 20
26.0529776683
 11
45.7105608195
 21
26.0529776683
  0
LINE
  5
236
100
AcDbEntity
  8
0
100
AcDbLine
 62
7
  6
CONTINUOUS
 10
45.7105608195
 20
26.6154776683
 11
45.7105608195
 21
26.0529776683
  0
LINE
  5
237
100
AcDbEntity
  8
0
100
AcDbLine
 62
2
  6
CONTINUOUS
 10
45.7105608195
 20
26.0492704224
 11
45.7142680654
 21
26.0529776683
  0
LWPOLYLINE
  5
238
100
AcDbEntity
  8
0
100
AcDbPolyline
 62
7
  6
CONTINUOUS
 90
8
 70
0
 10
45.7105608195
 20
26.0529776683
 10
45.7105608195
 20
25.4904776683
 10
45.8843828788
 20
25.5180083779
 10
46.0411900239
 20
25.597905609
 10
46.1656328788
 20
25.7223484639
 10
46.2455301099
 20
25.879155609
 10
46.2730608195
 20
26.0529776683
 10
45.7105608195
 20
26.0529776683
  0
HATCH
  5
239
100
AcDbEntity
  8
0
100
AcDbHatch
 62
7
  6
CONTINUOUS
 10
0.0
 20
0.0
 30
0.0
210
0.0
220
0.0
230
1.0
  2
SOLID
 70
1
 71
1
 91
1
 92
1
 93
7
 72
1
 10
45.7105608195
 20
26.0529776683
 11
45.7105608195
 21
25.4904776683
 72
1
 10
45.7105608195
 20
25.4904776683
 11
45.8843828788
 21
25.5180083779
 72
1
 10
45.8843828788
 20
25.5180083779
 11
46.0411900239
 21
25.597905609
 72
1
 10
46.0411900239
 20
25.597905609
 11
46.1656328788
 21
25.7223484639
 72
1
 10
46.1656328788
 20
25.7223484639
 11
46.2455301099
 21
25.879155609
 72
1
 10
46.2455301099
 20
25.879155609
 11
46.2730608195
 21
26.0529776683
 72
1
 10
46.2730608195
 20
26.0529776683
 11
45.7105608195
 21
26.0529776683
 97
1
330
238
 75
0
 76
1
 98
1
 10
0.0
 20
0.0
  0
LWPOLYLINE
  5
23A
100
AcDbEntity
  8
0
100
AcDbPolyline
 62
7
  6
CONTINUOUS
 90
8
 70
0
 10
45.7105608195
 20
26.0529776683
 10
45.1480608195
 20
26.0529776683
 10
45.1755915291
 20
26.2267997277
 10
45.2554887601
 20
26.3836068727
 10
45.3799316151
 20
26.5080497277
 10
45.5367387601
 20
26.5879469588
 10
45.7105608195
 20
26.6154776683
 10
45.7105608195
 20
26.0529776683
  0
HATCH
  5
23B
100
AcDbEntity
  8
0
100
AcDbHatch
 62
7
  6
CONTINUOUS
 10
0.0
 20
0.0
 30
0.0
210
0.0
220
0.0
230
1.0
  2
SOLID
 70
1
 71
1
 91
1
 92
1
 93
7
 72
1
 10
45.7105608195
 20
26.0529776683
 11
45.1480608195
 21
26.0529776683
 72
1
 10
45.1480608195
 20
26.0529776683
 11
45.1755915291
 21
26.2267997277
 72
1
 10
45.1755915291
 20
26.2267997277
 11
45.2554887601
 21
26.3836068727
 72
1
 10
45.2554887601
 20
26.3836068727
 11
45.3799316151
 21
26.5080497277
 72
1
 10
45.3799316151
 20
26.5080497277
 11
45.5367387601
 21
26.5879469588
 72
1
 10
45.5367387601
 20
26.5879469588
 11
45.7105608195
 21
26.6154776683
 72
1
 10
45.7105608195
 20
26.6154776683
 11
45.7105608195
 21
26.0529776683
 97
1
330
23A
 75
0
 76
1
 98
1
 10
0.0
 20
0.0
  0
ENDBLK
  5
23C
100
AcDbEntity
  8
0
  6
BYBLOCK
 62
0
100
AcDbBlockEnd
  0
BLOCK
  5
23D
100
AcDbEntity
  8
0
100
AcDbBlockBegin
 62
2
  6
CONTINUOUS
  2
CG_3D_BL2
 70
64
 10
18.4819693394
 20
26.055457046
  3
CG_3D_BL2
  1

  0
ARC
  5
23E
100
AcDbEntity
  8
0
100
AcDbCircle
 62
7
  6
CONTINUOUS
 10
18.4819693394
 20
26.055457046
 40
0.5625
100
AcDbArc
 50
90.0
 51
180.0
  0
ARC
  5
23F
100
AcDbEntity
  8
0
100
AcDbCircle
 62
7
  6
CONTINUOUS
 10
18.4819693394
 20
26.055457046
 40
0.5625
100
AcDbArc
 50
180.0
 51
270.0
  0
ARC
  5
240
100
AcDbEntity
  8
0
100
AcDbCircle
 62
7
  6
CONTINUOUS
 10
18.4819693394
 20
26.055457046
 40
0.5625
100
AcDbArc
 50
270.0
 51
360.0
  0
ARC
  5
241
100
AcDbEntity
  8
0
100
AcDbCircle
 62
7
  6
CONTINUOUS
 10
18.4819693394
 20
26.055457046
 40
0.5625
100
AcDbArc
 50
0.0
 51
90.0
  0
LINE
  5
242
100
AcDbEntity
  8
0
100
AcDbLine
 62
7
  6
CONTINUOUS
 10
18.4819693394
 20
26.055457046
 11
19.0444693394
 21
26.055457046
  0
LINE
  5
243
100
AcDbEntity
  8
0
100
AcDbLine
 62
7
  6
CONTINUOUS
 10
18.4819693394
 20
26.055457046
 11
18.4819693394
 21
25.492957046
  0
LINE
  5
244
100
AcDbEntity
  8
0
100
AcDbLine
 62
7
  6
CONTINUOUS
 10
17.9194693394
 20
26.055457046
 11
18.4819693394
 21
26.055457046
  0
LINE
  5
245
100
AcDbEntity
  8
0
100
AcDbLine
 62
7
  6
CONTINUOUS
 10
18.4819693394
 20
26.617957046
 11
18.4819693394
 21
26.055457046
  0
LINE
  5
246
100
AcDbEntity
  8
0
100
AcDbLine
 62
2
  6
CONTINUOUS
 10
18.4819693394
 20
26.0517498001
 11
18.4856765853
 21
26.055457046
  0
LWPOLYLINE
  5
247
100
AcDbEntity
  8
0
100
AcDbPolyline
 62
7
  6
CONTINUOUS
 90
8
 70
0
 10
18.4819693394
 20
26.055457046
 10
18.4819693394
 20
25.492957046
 10
18.6557913987
 20
25.5204877556
 10
18.8125985438
 20
25.6003849867
 10
18.9370413987
 20
25.7248278416
 10
19.0169386298
 20
25.8816349867
 10
19.0444693394
 20
26.055457046
 10
18.4819693394
 20
26.055457046
  0
HATCH
  5
248
100
AcDbEntity
  8
0
100
AcDbHatch
 62
7
  6
CONTINUOUS
 10
0.0
 20
0.0
 30
0.0
210
0.0
220
0.0
230
1.0
  2
SOLID
 70
1
 71
1
 91
1
 92
1
 93
7
 72
1
 10
18.4819693394
 20
26.055457046
 11
18.4819693394
 21
25.492957046
 72
1
 10
18.4819693394
 20
25.492957046
 11
18.6557913987
 21
25.5204877556
 72
1
 10
18.6557913987
 20
25.5204877556
 11
18.8125985438
 21
25.6003849867
 72
1
 10
18.8125985438
 20
25.6003849867
 11
18.9370413987
 21
25.7248278416
 72
1
 10
18.9370413987
 20
25.7248278416
 11
19.0169386298
 21
25.8816349867
 72
1
 10
19.0169386298
 20
25.8816349867
 11
19.0444693394
 21
26.055457046
 72
1
 10
19.0444693394
 20
26.055457046
 11
18.4819693394
 21
26.055457046
 97
1
330
247
 75
0
 76
1
 98
1
 10
0.0
 20
0.0
  0
LWPOLYLINE
  5
249
100
AcDbEntity
  8
0
100
AcDbPolyline
 62
7
  6
CONTINUOUS
 90
8
 70
0
 10
18.4819693394
 20
26.055457046
 10
17.9194693394
 20
26.055457046
 10
17.947000049
 20
26.2292791053
 10
18.02689728
 20
26.3860862504
 10
18.151340135
 20
26.5105291053
 10
18.30814728
 20
26.5904263364
 10
18.4819693394
 20
26.617957046
 10
18.4819693394
 20
26.055457046
  0
HATCH
  5
24A
100
AcDbEntity
  8
0
100
AcDbHatch
 62
7
  6
CONTINUOUS
 10
0.0
 20
0.0
 30
0.0
210
0.0
220
0.0
230
1.0
  2
SOLID
 70
1
 71
1
 91
1
 92
1
 93
7
 72
1
 10
18.4819693394
 20
26.055457046
 11
17.9194693394
 21
26.055457046
 72
1
 10
17.9194693394
 20
26.055457046
 11
17.947000049
 21
26.2292791053
 72
1
 10
17.947000049
 20
26.2292791053
 11
18.02689728
 21
26.3860862504
 72
1
 10
18.02689728
 20
26.3860862504
 11
18.151340135
 21
26.5105291053
 72
1
 10
18.151340135
 20
26.5105291053
 11
18.30814728
 21
26.5904263364
 72
1
 10
18.30814728
 20
26.5904263364
 11
18.4819693394
 21
26.617957046
 72
1
 10
18.4819693394
 20
26.617957046
 11
18.4819693394
 21
26.055457046
 97
1
330
249
 75
0
 76
1
 98
1
 10
0.0
 20
0.0
  0
ENDBLK
  5
24B
100
AcDbEntity
  8
0
  6
BYBLOCK
 62
0
100
AcDbBlockEnd
  0
BLOCK
  5
24C
100
AcDbEntity
  8
0
100
AcDbBlockBegin
 62
2
  6
CONTINUOUS
  2
CG_3D_BL1
 70
64
 10
6.9975450281
 20
6.2323746141
  3
CG_3D_BL1
  1

  0
ARC
  5
24D
100
AcDbEntity
  8
0
100
AcDbCircle
 62
7
  6
CONTINUOUS
 10
6.9975450281
 20
6.2323746141
 40
0.375
100
AcDbArc
 50
90.0
 51
180.0
  0
ARC
  5
24E
100
AcDbEntity
  8
0
100
AcDbCircle
 62
7
  6
CONTINUOUS
 10
6.9975450281
 20
6.2323746141
 40
0.375
100
AcDbArc
 50
180.0
 51
270.0
  0
ARC
  5
24F
100
AcDbEntity
  8
0
100
AcDbCircle
 62
7
  6
CONTINUOUS
 10
6.9975450281
 20
6.2323746141
 40
0.375
100
AcDbArc
 50
270.0
 51
360.0
  0
ARC
  5
250
100
AcDbEntity
  8
0
100
AcDbCircle
 62
7
  6
CONTINUOUS
 10
6.9975450281
 20
6.2323746141
 40
0.375
100
AcDbArc
 50
0.0
 51
90.0
  0
LINE
  5
251
100
AcDbEntity
  8
0
100
AcDbLine
 62
7
  6
CONTINUOUS
 10
6.9975450281
 20
6.2323746141
 11
7.3725450281
 21
6.2323746141
  0
LINE
  5
252
100
AcDbEntity
  8
0
100
AcDbLine
 62
7
  6
CONTINUOUS
 10
6.9975450281
 20
6.2323746141
 11
6.9975450281
 21
5.8573746141
  0
LINE
  5
253
100
AcDbEntity
  8
0
100
AcDbLine
 62
7
  6
CONTINUOUS
 10
6.6225450281
 20
6.2323746141
 11
6.9975450281
 21
6.2323746141
  0
LINE
  5
254
100
AcDbEntity
  8
0
100
AcDbLine
 62
7
  6
CONTINUOUS
 10
6.9975450281
 20
6.6073746141
 11
6.9975450281
 21
6.2323746141
  0
LINE
  5
255
100
AcDbEntity
  8
0
100
AcDbLine
 62
2
  6
CONTINUOUS
 10
6.9975450281
 20
6.2299031169
 11
7.0000165254
 21
6.2323746141
  0
LWPOLYLINE
  5
256
100
AcDbEntity
  8
0
100
AcDbPolyline
 62
7
  6
CONTINUOUS
 90
8
 70
0
 10
6.9975450281
 20
6.2323746141
 10
6.9975450281
 20
5.8573746141
 10
7.113426401
 20
5.8757284205
 10
7.2179644977
 20
5.9289932412
 10
7.300926401
 20
6.0119551445
 10
7.3541912217
 20
6.1164932412
 10
7.3725450281
 20
6.2323746141
 10
6.9975450281
 20
6.2323746141
  0
HATCH
  5
257
100
AcDbEntity
  8
0
100
AcDbHatch
 62
7
  6
CONTINUOUS
 10
0.0
 20
0.0
 30
0.0
210
0.0
220
0.0
230
1.0
  2
SOLID
 70
1
 71
1
 91
1
 92
1
 93
7
 72
1
 10
6.9975450281
 20
6.2323746141
 11
6.9975450281
 21
5.8573746141
 72
1
 10
6.9975450281
 20
5.8573746141
 11
7.113426401
 21
5.8757284205
 72
1
 10
7.113426401
 20
5.8757284205
 11
7.2179644977
 21
5.9289932412
 72
1
 10
7.2179644977
 20
5.9289932412
 11
7.300926401
 21
6.0119551445
 72
1
 10
7.300926401
 20
6.0119551445
 11
7.3541912217
 21
6.1164932412
 72
1
 10
7.3541912217
 20
6.1164932412
 11
7.3725450281
 21
6.2323746141
 72
1
 10
7.3725450281
 20
6.2323746141
 11
6.9975450281
 21
6.2323746141
 97
1
330
256
 75
0
 76
1
 98
1
 10
0.0
 20
0.0
  0
LWPOLYLINE
  5
258
100
AcDbEntity
  8
0
100
AcDbPolyline
 62
7
  6
CONTINUOUS
 90
8
 70
0
 10
6.9975450281
 20
6.2323746141
 10
6.6225450281
 20
6.2323746141
 10
6.6408988345
 20
6.348255987
 10
6.6941636552
 20
6.4527940837
 10
6.7771255585
 20
6.535755987
 10
6.8816636552
 20
6.5890208077
 10
6.9975450281
 20
6.6073746141
 10
6.9975450281
 20
6.2323746141
  0
HATCH
  5
259
100
AcDbEntity
  8
0
100
AcDbHatch
 62
7
  6
CONTINUOUS
 10
0.0
 20
0.0
 30
0.0
210
0.0
220
0.0
230
1.0
  2
SOLID
 70
1
 71
1
 91
1
 92
1
 93
7
 72
1
 10
6.9975450281
 20
6.2323746141
 11
6.6225450281
 21
6.2323746141
 72
1
 10
6.6225450281
 20
6.2323746141
 11
6.6408988345
 21
6.348255987
 72
1
 10
6.6408988345
 20
6.348255987
 11
6.6941636552
 21
6.4527940837
 72
1
 10
6.6941636552
 20
6.4527940837
 11
6.7771255585
 21
6.535755987
 72
1
 10
6.7771255585
 20
6.535755987
 11
6.8816636552
 21
6.5890208077
 72
1
 10
6.8816636552
 20
6.5890208077
 11
6.9975450281
 21
6.6073746141
 72
1
 10
6.9975450281
 20
6.6073746141
 11
6.9975450281
 21
6.2323746141
 97
1
330
258
 75
0
 76
1
 98
1
 10
0.0
 20
0.0
  0
ENDBLK
  5
25A
100
AcDbEntity
  8
0
  6
BYBLOCK
 62
0
100
AcDbBlockEnd
  0
BLOCK
  5
25B
100
AcDbEntity
  8
0
100
AcDbBlockBegin
 62
7
  6
CONTINUOUS
  2
RD010411_BL0
 70
64
 10
86.6664608964
 20
8.1033319955
  3
RD010411_BL0
  1

  0
ARC
  5
25C
100
AcDbEntity
  8
0
100
AcDbCircle
 62
7
  6
CONTINUOUS
 10
88.6229456053
 20
8.4044628681
 40
0.0371145398
100
AcDbArc
 50
270.0
 51
360.0
  0
LINE
  5
25D
100
AcDbEntity
  8
0
100
AcDbLine
 62
7
  6
CONTINUOUS
 10
88.6600601452
 20
8.4044628681
 11
88.6600601452
 21
8.4787174557
  0
ARC
  5
25E
100
AcDbEntity
  8
0
100
AcDbCircle
 62
7
  6
CONTINUOUS
 10
88.6229456053
 20
8.4787174557
 40
0.0371145398
100
AcDbArc
 50
0.0
 51
90.0
  0
LINE
  5
25F
100
AcDbEntity
  8
0
100
AcDbLine
 62
7
  6
CONTINUOUS
 10
88.6229456053
 20
8.5158319955
 11
87.6251656087
 21
8.5158319955
  0
SPLINE
  5
260
100
AcDbEntity
  8
0
100
AcDbSpline
 62
7
  6
CONTINUOUS
 70
0
 71
3
 72
13
 73
9
 74
0
 42
0.0000001
 43
0.0000001
 44
0.0000000001
 40
0.0
 40
0.0
 40
0.0
 40
0.0
 40
0.1310616762
 40
0.2699656353
 40
0.4157607805
 40
0.5899807757
 40
0.76586761
 40
0.9948829976
 40
0.9948829976
 40
0.9948829976
 40
0.9948829976
 10
87.6251656087
 20
8.5158319955
 30
0.0
 10
87.6041913651
 20
8.51426982
 30
0.0
 10
87.5609878516
 20
8.511051994
 30
0.0
 10
87.5024384871
 20
8.4747714704
 30
0.0
 10
87.4604070302
 20
8.4138630058
 30
0.0
 10
87.4330760053
 20
8.339385361
 30
0.0
 10
87.4176815034
 20
8.2483427176
 30
0.0
 10
87.416264086
 20
8.1840103871
 30
0.0
 10
87.4155294716
 20
8.1476188139
 30
0.0
  0
LINE
  5
261
100
AcDbEntity
  8
0
100
AcDbLine
 62
7
  6
CONTINUOUS
 10
87.4155294716
 20
8.1476188139
 11
87.4155946117
 21
8.1419715272
  0
SPLINE
  5
262
100
AcDbEntity
  8
0
100
AcDbSpline
 62
7
  6
CONTINUOUS
 70
0
 71
3
 72
13
 73
9
 74
0
 42
0.0000001
 43
0.0000001
 44
0.0000000001
 40
0.0
 40
0.0
 40
0.0
 40
0.0
 40
0.2222860645
 40
0.3981728988
 40
0.572392894
 40
0.7181880393
 40
0.8570919984
 40
0.9881536746
 40
0.9881536746
 40
0.9881536746
 40
0.9881536746
 10
87.4155946117
 20
8.1419715272
 30
0.0
 10
87.4163147479
 20
8.1066497413
 30
0.0
 10
87.4178600689
 20
8.0433983415
 30
0.0
 10
87.4330759927
 20
7.9534110472
 30
0.0
 10
87.4604073448
 20
7.878941732
 30
0.0
 10
87.5024374907
 20
7.818007418
 30
0.0
 10
87.5609913238
 20
7.7818136203
 30
0.0
 10
87.6041843042
 20
7.7783915826
 30
0.0
 10
87.6251656087
 20
7.7768288818
 30
0.0
  0
LINE
  5
263
100
AcDbEntity
  8
0
100
AcDbLine
 62
7
  6
CONTINUOUS
 10
87.6251656087
 20
7.7768288818
 11
88.6230266115
 21
7.7790068149
  0
ARC
  5
264
100
AcDbEntity
  8
0
100
AcDbCircle
 62
7
  6
CONTINUOUS
 10
88.6229456053
 20
7.8161212662
 40
0.0371145397
100
AcDbArc
 50
270.125053868
 51
360.0
  0
LINE
  5
265
100
AcDbEntity
  8
0
100
AcDbLine
 62
7
  6
CONTINUOUS
 10
88.6600601452
 20
7.8161212662
 11
88.6600601452
 21
7.887476804
  0
ARC
  5
266
100
AcDbEntity
  8
0
100
AcDbCircle
 62
7
  6
CONTINUOUS
 10
88.6229456053
 20
7.887476804
 40
0.0371145398
100
AcDbArc
 50
0.0
 51
90.0
  0
LINE
  5
267
100
AcDbEntity
  8
0
100
AcDbLine
 62
7
  6
CONTINUOUS
 10
88.6229456053
 20
7.9245913438
 11
87.7677117757
 21
7.9245913438
  0
LINE
  5
268
100
AcDbEntity
  8
0
100
AcDbLine
 62
7
  6
CONTINUOUS
 10
87.7305972359
 20
7.9617058836
 11
87.7305972359
 21
8.3302337885
  0
ARC
  5
269
100
AcDbEntity
  8
0
100
AcDbCircle
 62
7
  6
CONTINUOUS
 10
87.7677117761
 20
8.3302337885
 40
0.0371145398
100
AcDbArc
 50
90.0
 51
180.0
  0
LINE
  5
26A
100
AcDbEntity
  8
0
100
AcDbLine
 62
7
  6
CONTINUOUS
 10
87.7677117757
 20
8.3673483283
 11
88.6229456053
 21
8.3673483283
  0
LINE
  5
26B
100
AcDbEntity
  8
0
100
AcDbLine
 62
7
  6
CONTINUOUS
 10
86.242753899
 20
8.0713893017
 11
86.9555897017
 21
8.0713893017
  0
ARC
  5
26C
100
AcDbEntity
  8
0
100
AcDbCircle
 62
7
  6
CONTINUOUS
 10
86.9555897016
 20
8.034274762
 40
0.0371145398
100
AcDbArc
 50
0.0
 51
90.0
  0
LINE
  5
26D
100
AcDbEntity
  8
0
100
AcDbLine
 62
7
  6
CONTINUOUS
 10
86.9927042415
 20
8.0342747619
 11
86.9927042415
 21
7.9584907053
  0
LINE
  5
26E
100
AcDbEntity
  8
0
100
AcDbLine
 62
7
  6
CONTINUOUS
 10
86.9555897017
 20
7.9213761655
 11
86.1246492821
 21
7.9213761655
  0
ARC
  5
26F
100
AcDbEntity
  8
0
100
AcDbCircle
 62
7
  6
CONTINUOUS
 10
86.1246492821
 20
7.8842616257
 40
0.0371145398
100
AcDbArc
 50
90.0
 51
180.0
  0
LINE
  5
270
100
AcDbEntity
  8
0
100
AcDbLine
 62
7
  6
CONTINUOUS
 10
86.0875347422
 20
7.8842616257
 11
86.0875347422
 21
7.813943047
  0
ARC
  5
271
100
AcDbEntity
  8
0
100
AcDbCircle
 62
7
  6
CONTINUOUS
 10
86.1246492821
 20
7.813943047
 40
0.0371145398
100
AcDbArc
 50
180.0
 51
270.0
  0
LINE
  5
272
100
AcDbEntity
  8
0
100
AcDbLine
 62
7
  6
CONTINUOUS
 10
86.1246492821
 20
7.7768285072
 11
87.1562194332
 21
7.7768285072
  0
SPLINE
  5
273
100
AcDbEntity
  8
0
100
AcDbSpline
 62
7
  6
CONTINUOUS
 70
0
 71
3
 72
13
 73
9
 74
0
 42
0.0000001
 43
0.0000001
 44
0.0000000001
 40
0.0
 40
0.0
 40
0.0
 40
0.0
 40
0.1604571392
 40
0.3334692485
 40
0.4767982758
 40
0.6242014838
 40
0.7505998515
 40
1.0
 40
1.0
 40
1.0
 40
1.0
 10
87.1562194332
 20
7.7768285072
 30
0.0
 10
87.1736118347
 20
7.7776659203
 30
0.0
 10
87.2097575058
 20
7.779406269
 30
0.0
 10
87.2583631947
 20
7.8005086302
 30
0.0
 10
87.2949891827
 20
7.8359799381
 30
0.0
 10
87.3156293674
 20
7.8766464221
 30
0.0
 10
87.3314538892
 20
7.9312009272
 30
0.0
 10
87.332096049
 20
7.9720269307
 30
0.0
 10
87.3325222204
 20
7.9991212665
 30
0.0
  0
SPLINE
  5
274
100
AcDbEntity
  8
0
100
AcDbSpline
 62
7
  6
CONTINUOUS
 70
0
 71
3
 72
13
 73
9
 74
0
 42
0.0000001
 43
0.0000001
 44
0.0000000001
 40
0.0
 40
0.0
 40
0.0
 40
0.0
 40
0.2494001485
 40
0.3757985162
 40
0.5232017242
 40
0.6665307515
 40
0.8395428608
 40
1.0
 40
1.0
 40
1.0
 40
1.0
 10
87.3325222204
 20
7.9991212665
 30
0.0
 10
87.332096049
 20
8.0262156028
 30
0.0
 10
87.3314538892
 20
8.0670416058
 30
0.0
 10
87.3156293674
 20
8.1215961114
 30
0.0
 10
87.2949891827
 20
8.1622625954
 30
0.0
 10
87.2583631947
 20
8.1977339027
 30
0.0
 10
87.2097575058
 20
8.2188362639
 30
0.0
 10
87.1736118347
 20
8.2205766132
 30
0.0
 10
87.1562194332
 20
8.2214140257
 30
0.0
  0
LINE
  5
275
100
AcDbEntity
  8
0
100
AcDbLine
 62
7
  6
CONTINUOUS
 10
87.1562194332
 20
8.2214140257
 11
86.45288526
 21
8.2214140257
  0
LINE
  5
276
100
AcDbEntity
  8
0
100
AcDbLine
 62
7
  6
CONTINUOUS
 10
86.4157707201
 20
8.2585285655
 11
86.4157707201
 21
8.3287529983
  0
ARC
  5
277
100
AcDbEntity
  8
0
100
AcDbCircle
 62
7
  6
CONTINUOUS
 10
86.4528852596
 20
8.3287529983
 40
0.0371145398
100
AcDbArc
 50
90.0
 51
180.0
  0
LINE
  5
278
100
AcDbEntity
  8
0
100
AcDbLine
 62
7
  6
CONTINUOUS
 10
86.45288526
 20
8.3658675381
 11
87.284953559
 21
8.3658675381
  0
ARC
  5
279
100
AcDbEntity
  8
0
100
AcDbCircle
 62
7
  6
CONTINUOUS
 10
87.284953559
 20
8.4029820779
 40
0.0371145398
100
AcDbArc
 50
270.0
 51
360.0
  0
LINE
  5
27A
100
AcDbEntity
  8
0
100
AcDbLine
 62
7
  6
CONTINUOUS
 10
87.3220680989
 20
8.4029820779
 11
87.3220680989
 21
8.4787174557
  0
ARC
  5
27B
100
AcDbEntity
  8
0
100
AcDbCircle
 62
7
  6
CONTINUOUS
 10
87.284953559
 20
8.4787174557
 40
0.0371145398
100
AcDbArc
 50
0.0
 51
90.0
  0
LINE
  5
27C
100
AcDbEntity
  8
0
100
AcDbLine
 62
7
  6
CONTINUOUS
 10
87.284953559
 20
8.5158319955
 11
86.242753899
 21
8.5158319955
  0
SPLINE
  5
27D
100
AcDbEntity
  8
0
100
AcDbSpline
 62
7
  6
CONTINUOUS
 70
0
 71
3
 72
13
 73
9
 74
0
 42
0.0000001
 43
0.0000001
 44
0.0000000001
 40
0.0
 40
0.0
 40
0.0
 40
0.0
 40
0.1133740464
 40
0.2392044088
 40
0.3655787964
 40
0.4912154373
 40
0.7445390876
 40
1.0
 40
1.0
 40
1.0
 40
1.0
 10
86.242753899
 20
8.5158319955
 30
0.0
 10
86.2308480206
 20
8.5152455755
 30
0.0
 10
86.2057281749
 20
8.5140083052
 30
0.0
 10
86.1684151288
 20
8.5028602817
 30
0.0
 10
86.1350349729
 20
8.4803489504
 30
0.0
 10
86.100936846
 20
8.4388822191
 30
0.0
 10
86.0794801414
 20
8.3737849682
 30
0.0
 10
86.0771531585
 20
8.3204101597
 30
0.0
 10
86.0759847803
 20
8.2936106486
 30
0.0
  0
SPLINE
  5
27E
100
AcDbEntity
  8
0
100
AcDbSpline
 62
7
  6
CONTINUOUS
 70
0
 71
3
 72
13
 73
9
 74
0
 42
0.0000001
 43
0.0000001
 44
0.0000000001
 40
0.0
 40
0.0
 40
0.0
 40
0.0
 40
0.2554609124
 40
0.5087845627
 40
0.6344212036
 40
0.7607955912
 40
0.8866259536
 40
1.0
 40
1.0
 40
1.0
 40
1.0
 10
86.0759847803
 20
8.2936106486
 30
0.0
 10
86.0771531585
 20
8.2668111376
 30
0.0
 10
86.0794801414
 20
8.2134363285
 30
0.0
 10
86.100936846
 20
8.1483390781
 30
0.0
 10
86.1350349729
 20
8.1068723469
 30
0.0
 10
86.1684151288
 20
8.0843610155
 30
0.0
 10
86.2057281749
 20
8.073212992
 30
0.0
 10
86.2308480206
 20
8.0719757217
 30
0.0
 10
86.242753899
 20
8.0713893017
 30
0.0
  0
LINE
  5
27F
100
AcDbEntity
  8
0
100
AcDbLine
 62
7
  6
CONTINUOUS
 10
84.8714124174
 20
7.7768285072
 11
85.448094908
 21
7.7768285072
  0
LINE
  5
280
100
AcDbEntity
  8
0
100
AcDbLine
 62
7
  6
CONTINUOUS
 10
85.448094908
 20
7.7768285072
 11
85.448094908
 21
7.7051068185
  0
ARC
  5
281
100
AcDbEntity
  8
0
100
AcDbCircle
 62
7
  6
CONTINUOUS
 10
85.462369731
 20
7.7051068185
 40
0.014274823
100
AcDbArc
 50
180.0
 51
270.0
  0
LINE
  5
282
100
AcDbEntity
  8
0
100
AcDbLine
 62
7
  6
CONTINUOUS
 10
85.462369731
 20
7.6908319955
 11
85.6846432438
 21
7.6908319955
  0
ARC
  5
283
100
AcDbEntity
  8
0
100
AcDbCircle
 62
7
  6
CONTINUOUS
 10
85.6846432438
 20
7.7051068185
 40
0.014274823
100
AcDbArc
 50
270.0
 51
360.0
  0
LINE
  5
284
100
AcDbEntity
  8
0
100
AcDbLine
 62
7
  6
CONTINUOUS
 10
85.6989180668
 20
7.7051068185
 11
85.6989180668
 21
7.7768285072
  0
LINE
  5
285
100
AcDbEntity
  8
0
100
AcDbLine
 62
7
  6
CONTINUOUS
 10
85.6989180668
 20
7.7768285072
 11
85.8123154279
 21
7.7768285072
  0
SPLINE
  5
286
100
AcDbEntity
  8
0
100
AcDbSpline
 62
7
  6
CONTINUOUS
 70
0
 71
3
 72
12
 73
8
 74
0
 42
0.0000001
 43
0.0000001
 44
0.0000000001
 40
0.0
 40
0.0
 40
0.0
 40
0.0
 40
0.2415790084
 40
0.4893269843
 40
0.7378634303
 40
0.8656387112
 40
1.0
 40
1.0
 40
1.0
 40
1.0
 10
85.8123154279
 20
7.7768285072
 30
0.0
 10
85.8326486919
 20
7.7774606455
 30
0.0
 10
85.8738344512
 20
7.7787410646
 30
0.0
 10
85.9341055124
 20
7.8002353279
 30
0.0
 10
85.9707093144
 20
7.8408108088
 30
0.0
 10
85.9868357344
 20
7.8813532201
 30
0.0
 10
85.9871263561
 20
7.9035622673
 30
0.0
 10
85.9872753179
 20
7.9149457842
 30
0.0
  0
LINE
  5
287
100
AcDbEntity
  8
0
100
AcDbLine
 62
7
  6
CONTINUOUS
 10
85.9872753179
 20
7.9149457842
 11
85.9872753179
 21
8.3768479558
  0
SPLINE
  5
288
100
AcDbEntity
  8
0
100
AcDbSpline
 62
7
  6
CONTINUOUS
 70
0
 71
3
 72
12
 73
8
 74
0
 42
0.0000001
 43
0.0000001
 44
0.0000000001
 40
0.0
 40
0.0
 40
0.0
 40
0.0
 40
0.1343612888
 40
0.2621365697
 40
0.5106730157
 40
0.7584209916
 40
1.0
 40
1.0
 40
1.0
 40
1.0
 10
85.9872753179
 20
8.3768479558
 30
0.0
 10
85.9871263561
 20
8.3882314734
 30
0.0
 10
85.9868357344
 20
8.4104405205
 30
0.0
 10
85.9707093144
 20
8.4509829318
 30
0.0
 10
85.9341055124
 20
8.4915584127
 30
0.0
 10
85.8738344512
 20
8.5130526755
 30
0.0
 10
85.8326486919
 20
8.5143330946
 30
0.0
 10
85.8123154279
 20
8.5149652328
 30
0.0
  0
LINE
  5
289
100
AcDbEntity
  8
0
100
AcDbLine
 62
7
  6
CONTINUOUS
 10
85.8123154279
 20
8.5149652328
 11
84.8714124174
 21
8.5149652328
  0
SPLINE
  5
28A
100
AcDbEntity
  8
0
100
AcDbSpline
 62
7
  6
CONTINUOUS
 70
0
 71
3
 72
12
 73
8
 74
0
 42
0.0000001
 43
0.0000001
 44
0.0000000001
 40
0.0
 40
0.0
 40
0.0
 40
0.0
 40
0.1341799809
 40
0.290831959
 40
0.5815217441
 40
0.760783857
 40
1.0
 40
1.0
 40
1.0
 40
1.0
 10
84.8714124174
 20
8.5149652328
 30
0.0
 10
84.8508896523
 20
8.5114576976
 30
0.0
 10
84.8064070409
 20
8.5038551963
 30
0.0
 10
84.7315277037
 20
8.4479130175
 30
0.0
 10
84.6960610495
 20
8.3537959193
 30
0.0
 10
84.6753098272
 20
8.2471055141
 30
0.0
 10
84.673752098
 20
8.1825742942
 30
0.0
 10
84.6728616477
 20
8.1456860943
 30
0.0
  0
SPLINE
  5
28B
100
AcDbEntity
  8
0
100
AcDbSpline
 62
7
  6
CONTINUOUS
 70
0
 71
3
 72
12
 73
8
 74
0
 42
0.0000001
 43
0.0000001
 44
0.0000000001
 40
0.0
 40
0.0
 40
0.0
 40
0.0
 40
0.2392679579
 40
0.4185688994
 40
0.7093216488
 40
0.8660075581
 40
1.0
 40
1.0
 40
1.0
 40
1.0
 10
84.6728616477
 20
8.1456860943
 30
0.0
 10
84.6737524537
 20
8.1087993321
 30
0.0
 10
84.6753108048
 20
8.0442706274
 30
0.0
 10
84.6960575493
 20
7.9375621172
 30
0.0
 10
84.7315458727
 20
7.8435326407
 30
0.0
 10
84.80634725
 20
7.7874088062
 30
0.0
 10
84.8508830076
 20
7.780166811
 30
0.0
 10
84.8714124174
 20
7.7768285072
 30
0.0
  0
LINE
  5
28C
100
AcDbEntity
  8
0
100
AcDbLine
 62
7
  6
CONTINUOUS
 10
85.7972134548
 20
7.9668673753
 11
85.7972134548
 21
8.3369563702
  0
ARC
  5
28D
100
AcDbEntity
  8
0
100
AcDbCircle
 62
7
  6
CONTINUOUS
 10
85.0185636441
 20
7.9668673753
 40
0.0371145398
100
AcDbArc
 50
180.0
 51
270.0
  0
LINE
  5
28E
100
AcDbEntity
  8
0
100
AcDbLine
 62
7
  6
CONTINUOUS
 10
85.0185636441
 20
7.9297528355
 11
85.4448483233
 21
7.9297528355
  0
LINE
  5
28F
100
AcDbEntity
  8
0
100
AcDbLine
 62
7
  6
CONTINUOUS
 10
85.4448483233
 20
7.9297528355
 11
85.4448483233
 21
8.0012522988
  0
ARC
  5
290
100
AcDbEntity
  8
0
100
AcDbCircle
 62
7
  6
CONTINUOUS
 10
85.4591231466
 20
8.0012522988
 40
0.014274823
100
AcDbArc
 50
90.0
 51
180.0
  0
LINE
  5
291
100
AcDbEntity
  8
0
100
AcDbLine
 62
7
  6
CONTINUOUS
 10
85.4591231463
 20
8.0155271218
 11
85.6802639034
 21
8.0155271218
  0
ARC
  5
292
100
AcDbEntity
  8
0
100
AcDbCircle
 62
7
  6
CONTINUOUS
 10
85.6802639029
 20
8.0012522994
 40
0.014274823
100
AcDbArc
 50
0.0
 51
90.0
  0
LINE
  5
293
100
AcDbEntity
  8
0
100
AcDbLine
 62
7
  6
CONTINUOUS
 10
85.6945387264
 20
7.9297528355
 11
85.760098915
 21
7.9297528355
  0
ARC
  5
294
100
AcDbEntity
  8
0
100
AcDbCircle
 62
7
  6
CONTINUOUS
 10
85.760098915
 20
7.9668673753
 40
0.0371145398
100
AcDbArc
 50
270.0
 51
360.0
  0
LINE
  5
295
100
AcDbEntity
  8
0
100
AcDbLine
 62
7
  6
CONTINUOUS
 10
85.6945387264
 20
7.9297528355
 11
85.6945387264
 21
8.0012522988
  0
LINE
  5
296
100
AcDbEntity
  8
0
100
AcDbLine
 62
7
  6
CONTINUOUS
 10
84.9814491043
 20
7.9668673753
 11
84.9814491043
 21
8.3369563702
  0
ARC
  5
297
100
AcDbEntity
  8
0
100
AcDbCircle
 62
7
  6
CONTINUOUS
 10
85.0185636446
 20
8.3369563702
 40
0.0371145398
100
AcDbArc
 50
90.0
 51
180.0
  0
LINE
  5
298
100
AcDbEntity
  8
0
100
AcDbLine
 62
7
  6
CONTINUOUS
 10
85.0185636441
 20
8.37407091
 11
85.760098915
 21
8.37407091
  0
ARC
  5
299
100
AcDbEntity
  8
0
100
AcDbCircle
 62
7
  6
CONTINUOUS
 10
85.7600989153
 20
8.3369563699
 40
0.0371145398
100
AcDbArc
 50
0.0000000277
 51
90.0000000277
  0
ARC
  5
29A
100
AcDbEntity
  8
0
100
AcDbCircle
 62
7
  6
CONTINUOUS
 10
86.45288526
 20
8.2585285655
 40
0.0371145398
100
AcDbArc
 50
180.0
 51
270.0
  0
ARC
  5
29B
100
AcDbEntity
  8
0
100
AcDbCircle
 62
7
  6
CONTINUOUS
 10
86.9555897017
 20
7.9584907053
 40
0.0371145398
100
AcDbArc
 50
270.0
 51
360.0
  0
ARC
  5
29C
100
AcDbEntity
  8
0
100
AcDbCircle
 62
7
  6
CONTINUOUS
 10
87.7677117757
 20
7.9617058836
 40
0.0371145398
100
AcDbArc
 50
180.0
 51
270.0
  0
ENDBLK
  5
29D
100
AcDbEntity
  8
0
  6
BYBLOCK
 62
0
100
AcDbBlockEnd
  0
BLOCK
  5
29E
100
AcDbEntity
  8
0
100
AcDbBlockBegin
  2
_FILLED
 70
64
 10
0.0
 20
0.0
  3
_FILLED
  1

  0
SOLID
  5
29F
100
AcDbEntity
  8
0
  6
BYBLOCK
 62
0
100
AcDbTrace
 10
0.0
 20
0.0
 11
-1.0
 21
0.1666666667
 12
-1.0
 22
-0.1666666667
 13
-1.0
 23
-0.1666666667
  0
ENDBLK
  5
2A0
100
AcDbEntity
  8
0
  6
BYBLOCK
 62
0
100
AcDbBlockEnd
  0
BLOCK
  5
2A1
100
AcDbEntity
  8
0
100
AcDbBlockBegin
 62
2
  6
CONTINUOUS
  2
*D0
 70
65
 10
0.0
 20
0.0
  3
*D0
  1

  0
MTEXT
  5
2A2
100
AcDbEntity
  8
0
100
AcDbMText
 62
2
  6
CONTINUOUS
  7
STANDARD
 71
2
 72
1
 10
47.5632007235
 20
12.9039731986
 30
0.0
 11
1.0
 21
0.0
 31
0.0
 44
0.9
  1
3.9\P[98]
 40
0.46875
 41
1.7075892857
  0
LINE
  5
2A3
100
AcDbEntity
  8
0
100
AcDbLine
 62
2
  6
CONTINUOUS
 10
49.5844060807
 20
14.7315284487
 11
49.5844060807
 21
12.2945981986
  0
LINE
  5
2A4
100
AcDbEntity
  8
0
100
AcDbLine
 62
2
  6
CONTINUOUS
 10
45.7094060807
 20
25.1132726821
 11
45.7094060807
 21
12.2945981986
  0
LINE
  5
2A5
100
AcDbEntity
  8
0
100
AcDbLine
 62
2
  6
CONTINUOUS
 10
49.5844060807
 20
12.6695981986
 11
48.4504775092
 21
12.6695981986
  0
LINE
  5
2A6
100
AcDbEntity
  8
0
100
AcDbLine
 62
2
  6
CONTINUOUS
 10
45.7094060807
 20
12.6695981986
 11
46.8433346521
 21
12.6695981986
  0
INSERT
  5
2A7
100
AcDbEntity
  8
0
100
AcDbBlockReference
 62
2
  6
CONTINUOUS
  2
_FILLED
 10
49.5844060807
 20
12.6695981986
 41
0.5625
 42
0.5625
 43
0.5625
  0
INSERT
  5
2A8
100
AcDbEntity
  8
0
100
AcDbBlockReference
 62
2
  6
CONTINUOUS
  2
_FILLED
 10
45.7094060807
 20
12.6695981986
 41
0.5625
 42
0.5625
 43
0.5625
 50
180.0
  0
ENDBLK
  5
2A9
100
AcDbEntity
  8
0
  6
BYBLOCK
 62
0
100
AcDbBlockEnd
  0
BLOCK
  5
2AA
100
AcDbEntity
  8
0
100
AcDbBlockBegin
 62
2
  6
CONTINUOUS
  2
*D1
 70
65
 10
0.0
 20
0.0
  3
*D1
  1

  0
MTEXT
  5
2AB
100
AcDbEntity
  8
0
100
AcDbMText
 62
2
  6
CONTINUOUS
  7
STANDARD
 71
2
 72
1
 10
33.9168387915
 20
30.4459723463
 30
0.0
 11
1.0
 21
0.0
 31
0.0
 44
0.9
  1
8.3\P[211]
 40
0.46875
 41
1.9587053571
  0
LINE
  5
2AC
100
AcDbEntity
  8
0
100
AcDbLine
 62
2
  6
CONTINUOUS
 10
39.6331265531
 20
34.3678473463
 11
33.7092495058
 21
34.3678473463
  0
LINE
  5
2AD
100
AcDbEntity
  8
0
100
AcDbLine
 62
2
  6
CONTINUOUS
 10
44.7981889298
 20
26.0553473463
 11
33.7092495058
 21
26.0553473463
  0
LINE
  5
2AE
100
AcDbEntity
  8
0
100
AcDbLine
 62
2
  6
CONTINUOUS
 10
34.0842495058
 20
34.3678473463
 11
34.0842495058
 21
30.6803473463
  0
LINE
  5
2AF
100
AcDbEntity
  8
0
100
AcDbLine
 62
2
  6
CONTINUOUS
 10
34.0842495058
 20
26.0553473463
 11
34.0842495058
 21
29.0397223463
  0
INSERT
  5
2B0
100
AcDbEntity
  8
0
100
AcDbBlockReference
 62
2
  6
CONTINUOUS
  2
_FILLED
 10
34.0842495058
 20
34.3678473463
 41
0.5625
 42
0.5625
 43
0.5625
 50
90.0
  0
INSERT
  5
2B1
100
AcDbEntity
  8
0
100
AcDbBlockReference
 62
2
  6
CONTINUOUS
  2
_FILLED
 10
34.0842495058
 20
26.0553473463
 41
0.5625
 42
0.5625
 43
0.5625
 50
270.0
  0
ENDBLK
  5
2B2
100
AcDbEntity
  8
0
  6
BYBLOCK
 62
0
100
AcDbBlockEnd
  0
BLOCK
  5
2B3
100
AcDbEntity
  8
0
100
AcDbBlockBegin
 62
2
  6
CONTINUOUS
  2
*D2
 70
65
 10
0.0
 20
0.0
  3
*D2
  1

  0
MTEXT
  5
2B4
100
AcDbEntity
  8
0
100
AcDbMText
 62
2
  6
CONTINUOUS
  7
STANDARD
 71
3
 72
1
 10
16.1923092648
 20
55.6311241011
 30
0.0
 11
1.0
 21
0.0
 31
0.0
 44
0.9
  1
1.0\P[25]
 40
0.46875
 41
1.6573660714
  0
LINE
  5
2B5
100
AcDbEntity
  8
0
100
AcDbLine
 62
2
  6
CONTINUOUS
 10
18.4835099777
 20
54.0409390654
 11
18.4835099777
 21
55.7717491011
  0
LINE
  5
2B6
100
AcDbEntity
  8
0
100
AcDbLine
 62
2
  6
CONTINUOUS
 10
17.4835099777
 20
53.6781779161
 11
17.4835099777
 21
55.7717491011
  0
LINE
  5
2B7
100
AcDbEntity
  8
0
100
AcDbLine
 62
2
  6
CONTINUOUS
 10
18.4835099777
 20
55.3967491011
 11
19.9835099777
 21
55.3967491011
  0
LINE
  5
2B8
100
AcDbEntity
  8
0
100
AcDbLine
 62
2
  6
CONTINUOUS
 10
17.4835099777
 20
55.3967491011
 11
16.627577122
 21
55.3967491011
  0
INSERT
  5
2B9
100
AcDbEntity
  8
0
100
AcDbBlockReference
 62
2
  6
CONTINUOUS
  2
_FILLED
 10
18.4835099777
 20
55.3967491011
 41
0.5625
 42
0.5625
 43
0.5625
 50
180.0
  0
INSERT
  5
2BA
100
AcDbEntity
  8
0
100
AcDbBlockReference
 62
2
  6
CONTINUOUS
  2
_FILLED
 10
17.4835099777
 20
55.3967491011
 41
0.5625
 42
0.5625
 43
0.5625
  0
ENDBLK
  5
2BB
100
AcDbEntity
  8
0
  6
BYBLOCK
 62
0
100
AcDbBlockEnd
  0
BLOCK
  5
2BC
100
AcDbEntity
  8
0
100
AcDbBlockBegin
 62
2
  6
CONTINUOUS
  2
*D3
 70
65
 10
0.0
 20
0.0
  3
*D3
  1

  0
MTEXT
  5
2BD
100
AcDbEntity
  8
0
100
AcDbMText
 62
2
  6
CONTINUOUS
  7
STANDARD
 71
1
 72
1
 10
17.9812778349
 20
57.5292509139
 30
0.0
 11
1.0
 21
0.0
 31
0.0
 44
0.9
  1
2.0\P[51]
 40
0.46875
 41
1.5066964286
  0
LINE
  5
2BE
100
AcDbEntity
  8
0
100
AcDbLine
 62
2
  6
CONTINUOUS
 10
17.4835099777
 20
53.6781779161
 11
17.4835099777
 21
57.6698759139
  0
LINE
  5
2BF
100
AcDbEntity
  8
0
100
AcDbLine
 62
2
  6
CONTINUOUS
 10
19.4835099777
 20
53.6781779161
 11
19.4835099777
 21
57.6698759139
  0
LINE
  5
2C0
100
AcDbEntity
  8
0
100
AcDbLine
 62
2
  6
CONTINUOUS
 10
17.4835099777
 20
57.2948759139
 11
15.9835099777
 21
57.2948759139
  0
LINE
  5
2C1
100
AcDbEntity
  8
0
100
AcDbLine
 62
2
  6
CONTINUOUS
 10
19.4835099777
 20
57.2948759139
 11
20.9835099777
 21
57.2948759139
  0
INSERT
  5
2C2
100
AcDbEntity
  8
0
100
AcDbBlockReference
 62
2
  6
CONTINUOUS
  2
_FILLED
 10
17.4835099777
 20
57.2948759139
 41
0.5625
 42
0.5625
 43
0.5625
  0
INSERT
  5
2C3
100
AcDbEntity
  8
0
100
AcDbBlockReference
 62
2
  6
CONTINUOUS
  2
_FILLED
 10
19.4835099777
 20
57.2948759139
 41
0.5625
 42
0.5625
 43
0.5625
 50
180.0
  0
ENDBLK
  5
2C4
100
AcDbEntity
  8
0
  6
BYBLOCK
 62
0
100
AcDbBlockEnd
  0
BLOCK
  5
2C5
100
AcDbEntity
  8
0
100
AcDbBlockBegin
 62
2
  6
CONTINUOUS
  2
*D4
 70
65
 10
0.0
 20
0.0
  3
*D4
  1

  0
MTEXT
  5
2C6
100
AcDbEntity
  8
0
100
AcDbMText
 62
2
  6
CONTINUOUS
  7
STANDARD
 71
2
 72
1
 10
18.3495814063
 20
37.4240751984
 30
0.0
 11
1.0
 21
0.0
 31
0.0
 44
0.9
  1
15.7\P[400]
 40
0.46875
 41
2.2600446429
  0
LINE
  5
2C7
100
AcDbEntity
  8
0
100
AcDbLine
 62
2
  6
CONTINUOUS
 10
10.6094942297
 20
34.5553473463
 11
10.6094942297
 21
37.5647001984
  0
LINE
  5
2C8
100
AcDbEntity
  8
0
100
AcDbLine
 62
2
  6
CONTINUOUS
 10
26.3575257258
 20
34.5553473463
 11
26.3575257258
 21
37.5647001984
  0
LINE
  5
2C9
100
AcDbEntity
  8
0
100
AcDbLine
 62
2
  6
CONTINUOUS
 10
10.6094942297
 20
37.1897001984
 11
17.4957867635
 21
37.1897001984
  0
LINE
  5
2CA
100
AcDbEntity
  8
0
100
AcDbLine
 62
2
  6
CONTINUOUS
 10
26.3575257258
 20
37.1897001984
 11
19.471233192
 21
37.1897001984
  0
INSERT
  5
2CB
100
AcDbEntity
  8
0
100
AcDbBlockReference
 62
2
  6
CONTINUOUS
  2
_FILLED
 10
10.6094942297
 20
37.1897001984
 41
0.5625
 42
0.5625
 43
0.5625
 50
180.0
  0
INSERT
  5
2CC
100
AcDbEntity
  8
0
100
AcDbBlockReference
 62
2
  6
CONTINUOUS
  2
_FILLED
 10
26.3575257258
 20
37.1897001984
 41
0.5625
 42
0.5625
 43
0.5625
  0
ENDBLK
  5
2CD
100
AcDbEntity
  8
0
  6
BYBLOCK
 62
0
100
AcDbBlockEnd
  0
BLOCK
  5
2CE
100
AcDbEntity
  8
0
100
AcDbBlockBegin
 62
2
  6
CONTINUOUS
  2
*D5
 70
65
 10
0.0
 20
0.0
  3
*D5
  1

  0
MTEXT
  5
2CF
100
AcDbEntity
  8
0
100
AcDbMText
 62
2
  6
CONTINUOUS
  7
STANDARD
 71
2
 72
1
 10
31.3159574578
 20
24.8778128975
 30
0.0
 11
1.0
 21
0.0
 31
0.0
 44
0.9
  1
19.4\P[494]
 40
0.46875
 41
2.2600446429
  0
LINE
  5
2D0
100
AcDbEntity
  8
0
100
AcDbLine
 62
2
  6
CONTINUOUS
 10
39.6331265531
 20
34.3678473463
 11
31.0581449578
 21
34.3678473463
  0
LINE
  5
2D1
100
AcDbEntity
  8
0
100
AcDbLine
 62
2
  6
CONTINUOUS
 10
44.3145561088
 20
14.9190284487
 11
31.0581449578
 21
14.9190284487
  0
LINE
  5
2D2
100
AcDbEntity
  8
0
100
AcDbLine
 62
2
  6
CONTINUOUS
 10
31.4331449578
 20
34.3678473463
 11
31.4331449578
 21
25.1121878975
  0
LINE
  5
2D3
100
AcDbEntity
  8
0
100
AcDbLine
 62
2
  6
CONTINUOUS
 10
31.4331449578
 20
14.9190284487
 11
31.4331449578
 21
23.4715628975
  0
INSERT
  5
2D4
100
AcDbEntity
  8
0
100
AcDbBlockReference
 62
2
  6
CONTINUOUS
  2
_FILLED
 10
31.4331449578
 20
34.3678473463
 41
0.5625
 42
0.5625
 43
0.5625
 50
90.0
  0
INSERT
  5
2D5
100
AcDbEntity
  8
0
100
AcDbBlockReference
 62
2
  6
CONTINUOUS
  2
_FILLED
 10
31.4331449578
 20
14.9190284487
 41
0.5625
 42
0.5625
 43
0.5625
 50
270.0
  0
ENDBLK
  5
2D6
100
AcDbEntity
  8
0
  6
BYBLOCK
 62
0
100
AcDbBlockEnd
  0
BLOCK
  5
2D7
100
AcDbEntity
  8
0
100
AcDbBlockBegin
 62
2
  6
CONTINUOUS
  2
*D6
 70
65
 10
0.0
 20
0.0
  3
*D6
  1

  0
MTEXT
  5
2D8
100
AcDbEntity
  8
0
100
AcDbMText
 62
2
  6
CONTINUOUS
  7
STANDARD
 71
2
 72
1
 10
44.3716252168
 20
39.7027436315
 30
0.0
 11
1.0
 21
0.0
 31
0.0
 44
0.9
  1
10.3\P[261]
 40
0.46875
 41
2.109375
  0
LINE
  5
2D9
100
AcDbEntity
  8
0
100
AcDbLine
 62
2
  6
CONTINUOUS
 10
49.5844060807
 20
32.7194904245
 11
49.5844060807
 21
39.8433686315
  0
LINE
  5
2DA
100
AcDbEntity
  8
0
100
AcDbLine
 62
2
  6
CONTINUOUS
 10
39.3262550672
 20
34.4228809059
 11
39.3262550672
 21
39.8433686315
  0
LINE
  5
2DB
100
AcDbEntity
  8
0
100
AcDbLine
 62
2
  6
CONTINUOUS
 10
49.5844060807
 20
39.4683686315
 11
45.3928305739
 21
39.4683686315
  0
LINE
  5
2DC
100
AcDbEntity
  8
0
100
AcDbLine
 62
2
  6
CONTINUOUS
 10
39.3262550672
 20
39.4683686315
 11
43.5178305739
 21
39.4683686315
  0
INSERT
  5
2DD
100
AcDbEntity
  8
0
100
AcDbBlockReference
 62
2
  6
CONTINUOUS
  2
_FILLED
 10
49.5844060807
 20
39.4683686315
 41
0.5625
 42
0.5625
 43
0.5625
  0
INSERT
  5
2DE
100
AcDbEntity
  8
0
100
AcDbBlockReference
 62
2
  6
CONTINUOUS
  2
_FILLED
 10
39.3262550672
 20
39.4683686315
 41
0.5625
 42
0.5625
 43
0.5625
 50
180.0
  0
ENDBLK
  5
2DF
100
AcDbEntity
  8
0
  6
BYBLOCK
 62
0
100
AcDbBlockEnd
  0
BLOCK
  5
2E0
100
AcDbEntity
  8
0
100
AcDbBlockBegin
 62
2
  6
CONTINUOUS
  2
*D7
 70
65
 10
0.0
 20
0.0
  3
*D7
  1

  0
MTEXT
  5
2E1
100
AcDbEntity
  8
0
100
AcDbMText
 62
2
  6
CONTINUOUS
  7
STANDARD
 71
2
 72
1
 10
46.7753739519
 20
10.3564005457
 30
0.0
 11
1.0
 21
0.0
 31
0.0
 44
0.9
  1
5.1\P[129]
 40
0.46875
 41
2.109375
  0
LINE
  5
2E2
100
AcDbEntity
  8
0
100
AcDbLine
 62
2
  6
CONTINUOUS
 10
44.5020561088
 20
14.7315284487
 11
44.5020561088
 21
9.7470255457
  0
LINE
  5
2E3
100
AcDbEntity
  8
0
100
AcDbLine
 62
2
  6
CONTINUOUS
 10
49.5844060807
 20
14.7315284487
 11
49.5844060807
 21
9.7470255457
  0
LINE
  5
2E4
100
AcDbEntity
  8
0
100
AcDbLine
 62
2
  6
CONTINUOUS
 10
44.5020561088
 20
10.1220255457
 11
46.1057310948
 21
10.1220255457
  0
LINE
  5
2E5
100
AcDbEntity
  8
0
100
AcDbLine
 62
2
  6
CONTINUOUS
 10
49.5844060807
 20
10.1220255457
 11
47.9807310948
 21
10.1220255457
  0
INSERT
  5
2E6
100
AcDbEntity
  8
0
100
AcDbBlockReference
 62
2
  6
CONTINUOUS
  2
_FILLED
 10
44.5020561088
 20
10.1220255457
 41
0.5625
 42
0.5625
 43
0.5625
 50
180.0
  0
INSERT
  5
2E7
100
AcDbEntity
  8
0
100
AcDbBlockReference
 62
2
  6
CONTINUOUS
  2
_FILLED
 10
49.5844060807
 20
10.1220255457
 41
0.5625
 42
0.5625
 43
0.5625
  0
ENDBLK
  5
2E8
100
AcDbEntity
  8
0
  6
BYBLOCK
 62
0
100
AcDbBlockEnd
  0
BLOCK
  5
2E9
100
AcDbEntity
  8
0
100
AcDbBlockBegin
 62
2
  6
CONTINUOUS
  2
*D8
 70
65
 10
0.0
 20
0.0
  3
*D8
  1

  0
MTEXT
  5
2EA
100
AcDbEntity
  8
0
100
AcDbMText
 62
2
  6
CONTINUOUS
  7
STANDARD
 71
2
 72
1
 10
52.8576296596
 20
33.9749618962
 30
0.0
 11
1.0
 21
0.0
 31
0.0
 44
0.9
  1
2.0\P[52]
 40
0.46875
 41
1.6573660714
  0
LINE
  5
2EB
100
AcDbEntity
  8
0
100
AcDbLine
 62
2
  6
CONTINUOUS
 10
45.8348982067
 20
34.3678473463
 11
53.2828528739
 21
34.3678473463
  0
LINE
  5
2EC
100
AcDbEntity
  8
0
100
AcDbLine
 62
2
  6
CONTINUOUS
 10
51.0711186791
 20
32.3204064014
 11
53.2828528739
 21
32.3204064014
  0
LINE
  5
2ED
100
AcDbEntity
  8
0
100
AcDbLine
 62
2
  6
CONTINUOUS
 10
52.9078528739
 20
34.3678473463
 11
52.9078528739
 21
35.8678473463
  0
LINE
  5
2EE
100
AcDbEntity
  8
0
100
AcDbLine
 62
2
  6
CONTINUOUS
 10
52.9078528739
 20
32.3204064014
 11
52.9078528739
 21
30.8204064014
  0
INSERT
  5
2EF
100
AcDbEntity
  8
0
100
AcDbBlockReference
 62
2
  6
CONTINUOUS
  2
_FILLED
 10
52.9078528739
 20
34.3678473463
 41
0.5625
 42
0.5625
 43
0.5625
 50
270.0
  0
INSERT
  5
2F0
100
AcDbEntity
  8
0
100
AcDbBlockReference
 62
2
  6
CONTINUOUS
  2
_FILLED
 10
52.9078528739
 20
32.3204064014
 41
0.5625
 42
0.5625
 43
0.5625
 50
90.0
  0
ENDBLK
  5
2F1
100
AcDbEntity
  8
0
  6
BYBLOCK
 62
0
100
AcDbBlockEnd
  0
BLOCK
  5
2F2
100
AcDbEntity
  8
0
100
AcDbBlockBegin
 62
2
  6
CONTINUOUS
  2
*D9
 70
65
 10
0.0
 20
0.0
  3
*D9
  1

  0
MTEXT
  5
2F3
100
AcDbEntity
  8
0
100
AcDbMText
 62
2
  6
CONTINUOUS
  7
STANDARD
 71
2
 72
1
 10
52.6993255703
 20
29.3073404566
 30
0.0
 11
1.0
 21
0.0
 31
0.0
 44
0.9
  1
6.5\P[165]
 40
0.46875
 41
2.0591517857
  0
LINE
  5
2F4
100
AcDbEntity
  8
0
100
AcDbLine
 62
2
  6
CONTINUOUS
 10
51.0711186791
 20
32.3204064014
 11
53.2752184274
 21
32.3204064014
  0
LINE
  5
2F5
100
AcDbEntity
  8
0
100
AcDbLine
 62
2
  6
CONTINUOUS
 10
50.3900163169
 20
25.8255245117
 11
53.2752184274
 21
25.8255245117
  0
LINE
  5
2F6
100
AcDbEntity
  8
0
100
AcDbLine
 62
2
  6
CONTINUOUS
 10
52.9002184274
 20
32.3204064014
 11
52.9002184274
 21
29.5417154566
  0
LINE
  5
2F7
100
AcDbEntity
  8
0
100
AcDbLine
 62
2
  6
CONTINUOUS
 10
52.9002184274
 20
25.8255245117
 11
52.9002184274
 21
27.9010904566
  0
INSERT
  5
2F8
100
AcDbEntity
  8
0
100
AcDbBlockReference
 62
2
  6
CONTINUOUS
  2
_FILLED
 10
52.9002184274
 20
32.3204064014
 41
0.5625
 42
0.5625
 43
0.5625
 50
90.0
  0
INSERT
  5
2F9
100
AcDbEntity
  8
0
100
AcDbBlockReference
 62
2
  6
CONTINUOUS
  2
_FILLED
 10
52.9002184274
 20
25.8255245117
 41
0.5625
 42
0.5625
 43
0.5625
 50
270.0
  0
ENDBLK
  5
2FA
100
AcDbEntity
  8
0
  6
BYBLOCK
 62
0
100
AcDbBlockEnd
  0
BLOCK
  5
2FB
100
AcDbEntity
  8
0
100
AcDbBlockBegin
 62
2
  6
CONTINUOUS
  2
*D10
 70
65
 10
0.0
 20
0.0
  3
*D10
  1

  0
MTEXT
  5
2FC
100
AcDbEntity
  8
0
100
AcDbMText
 62
2
  6
CONTINUOUS
  7
STANDARD
 71
1
 72
1
 10
29.3660716505
 20
55.3809144438
 30
0.0
 11
1.0
 21
0.0
 31
0.0
 44
0.9
  1
1.3\P[33]
 40
0.46875
 41
1.6071428571
  0
LINE
  5
2FD
100
AcDbEntity
  8
0
100
AcDbLine
 62
2
  6
CONTINUOUS
 10
26.5450257258
 20
52.0308353964
 11
28.9910716505
 21
52.0308353964
  0
LINE
  5
2FE
100
AcDbEntity
  8
0
100
AcDbLine
 62
2
  6
CONTINUOUS
 10
20.5804587966
 20
53.3300479948
 11
28.9910716505
 21
53.3300479948
  0
LINE
  5
2FF
100
AcDbEntity
  8
0
100
AcDbLine
 62
2
  6
CONTINUOUS
 10
28.6160716505
 20
52.0308353964
 11
28.6160716505
 21
50.5308353964
  0
LINE
  5
300
100
AcDbEntity
  8
0
100
AcDbLine
 62
2
  6
CONTINUOUS
 10
28.6160716505
 20
53.3300479948
 11
28.6160716505
 21
55.1465394438
  0
LINE
  5
301
100
AcDbEntity
  8
0
100
AcDbLine
 62
2
  6
CONTINUOUS
 10
28.6160716505
 20
55.1465394438
 11
29.1316966505
 21
55.1465394438
  0
INSERT
  5
302
100
AcDbEntity
  8
0
100
AcDbBlockReference
 62
2
  6
CONTINUOUS
  2
_FILLED
 10
28.6160716505
 20
52.0308353964
 41
0.5625
 42
0.5625
 43
0.5625
 50
90.0
  0
INSERT
  5
303
100
AcDbEntity
  8
0
100
AcDbBlockReference
 62
2
  6
CONTINUOUS
  2
_FILLED
 10
28.6160716505
 20
53.3300479948
 41
0.5625
 42
0.5625
 43
0.5625
 50
270.0
  0
ENDBLK
  5
304
100
AcDbEntity
  8
0
  6
BYBLOCK
 62
0
100
AcDbBlockEnd
  0
BLOCK
  5
305
100
AcDbEntity
  8
0
100
AcDbBlockBegin
 62
2
  6
CONTINUOUS
  2
*D11
 70
65
 10
0.0
 20
0.0
  3
*D11
  1

  0
MTEXT
  5
306
100
AcDbEntity
  8
0
100
AcDbMText
 62
2
  6
CONTINUOUS
  7
STANDARD
 71
3
 72
1
 10
6.6009049961
 20
55.0301349268
 30
0.0
 11
1.0
 21
0.0
 31
0.0
 44
0.9
  1
.9\P[24]
 40
0.46875
 41
1.7075892857
  0
LINE
  5
307
100
AcDbEntity
  8
0
100
AcDbLine
 62
2
  6
CONTINUOUS
 10
10.4219942297
 20
52.0308353964
 11
7.6331371438
 21
52.0308353964
  0
LINE
  5
308
100
AcDbEntity
  8
0
100
AcDbLine
 62
2
  6
CONTINUOUS
 10
17.1523091903
 20
52.9719771287
 11
7.6331371438
 21
52.9719771287
  0
LINE
  5
309
100
AcDbEntity
  8
0
100
AcDbLine
 62
2
  6
CONTINUOUS
 10
8.0081371438
 20
52.0308353964
 11
8.0081371438
 21
50.5308353964
  0
LINE
  5
30A
100
AcDbEntity
  8
0
100
AcDbLine
 62
2
  6
CONTINUOUS
 10
8.0081371438
 20
52.9719771287
 11
8.0081371438
 21
54.7957599268
  0
LINE
  5
30B
100
AcDbEntity
  8
0
100
AcDbLine
 62
2
  6
CONTINUOUS
 10
8.0081371438
 20
54.7957599268
 11
7.3375121389
 21
54.7957599268
  0
INSERT
  5
30C
100
AcDbEntity
  8
0
100
AcDbBlockReference
 62
2
  6
CONTINUOUS
  2
_FILLED
 10
8.0081371438
 20
52.0308353964
 41
0.5625
 42
0.5625
 43
0.5625
 50
90.0
  0
INSERT
  5
30D
100
AcDbEntity
  8
0
100
AcDbBlockReference
 62
2
  6
CONTINUOUS
  2
_FILLED
 10
8.0081371438
 20
52.9719771287
 41
0.5625
 42
0.5625
 43
0.5625
 50
270.0
  0
ENDBLK
  5
30E
100
AcDbEntity
  8
0
  6
BYBLOCK
 62
0
100
AcDbBlockEnd
  0
BLOCK
  5
30F
100
AcDbEntity
  8
0
100
AcDbBlockBegin
 62
2
  6
CONTINUOUS
  2
*D12
 70
65
 10
0.0
 20
0.0
  3
*D12
  1

  0
MTEXT
  5
310
100
AcDbEntity
  8
0
100
AcDbMText
 62
2
  6
CONTINUOUS
  7
STANDARD
 71
2
 72
1
 10
18.299358192
 20
59.3955063577
 30
0.0
 11
1.0
 21
0.0
 31
0.0
 44
0.9
  1
6.9\P[175]
 40
0.46875
 41
2.0591517857
  0
LINE
  5
311
100
AcDbEntity
  8
0
100
AcDbLine
 62
2
  6
CONTINUOUS
 10
15.0327225762
 20
52.8364456326
 11
15.0327225762
 21
59.5361313577
  0
LINE
  5
312
100
AcDbEntity
  8
0
100
AcDbLine
 62
2
  6
CONTINUOUS
 10
21.9342973793
 20
52.8364456326
 11
21.9342973793
 21
59.5361313577
  0
LINE
  5
313
100
AcDbEntity
  8
0
100
AcDbLine
 62
2
  6
CONTINUOUS
 10
15.0327225762
 20
59.1611313577
 11
17.5627510492
 21
59.1611313577
  0
LINE
  5
314
100
AcDbEntity
  8
0
100
AcDbLine
 62
2
  6
CONTINUOUS
 10
21.9342973793
 20
59.1611313577
 11
19.4042689063
 21
59.1611313577
  0
INSERT
  5
315
100
AcDbEntity
  8
0
100
AcDbBlockReference
 62
2
  6
CONTINUOUS
  2
_FILLED
 10
15.0327225762
 20
59.1611313577
 41
0.5625
 42
0.5625
 43
0.5625
 50
180.0
  0
INSERT
  5
316
100
AcDbEntity
  8
0
100
AcDbBlockReference
 62
2
  6
CONTINUOUS
  2
_FILLED
 10
21.9342973793
 20
59.1611313577
 41
0.5625
 42
0.5625
 43
0.5625
  0
ENDBLK
  5
317
100
AcDbEntity
  8
0
  6
BYBLOCK
 62
0
100
AcDbBlockEnd
  0
BLOCK
  5
318
100
AcDbEntity
  8
0
100
AcDbBlockBegin
 62
2
  6
CONTINUOUS
  2
*D13
 70
65
 10
0.0
 20
0.0
  3
*D13
  1

  0
MTEXT
  5
319
100
AcDbEntity
  8
0
100
AcDbMText
 62
2
  6
CONTINUOUS
  7
STANDARD
 71
2
 72
1
 10
47.641457543
 20
37.3560704625
 30
0.0
 11
1.0
 21
0.0
 31
0.0
 44
0.9
  1
3.8\P[95]
 40
0.46875
 41
1.6573660714
  0
LINE
  5
31A
100
AcDbEntity
  8
0
100
AcDbLine
 62
2
  6
CONTINUOUS
 10
45.8324375767
 20
27.8787725432
 11
45.8324375767
 21
37.4966954625
  0
LINE
  5
31B
100
AcDbEntity
  8
0
100
AcDbLine
 62
2
  6
CONTINUOUS
 10
49.5844060807
 20
32.7194904245
 11
49.5844060807
 21
37.4966954625
  0
LINE
  5
31C
100
AcDbEntity
  8
0
100
AcDbLine
 62
2
  6
CONTINUOUS
 10
45.8324375767
 20
37.1216954625
 11
46.9215914716
 21
37.1216954625
  0
LINE
  5
31D
100
AcDbEntity
  8
0
100
AcDbLine
 62
2
  6
CONTINUOUS
 10
49.5844060807
 20
37.1216954625
 11
48.4952521858
 21
37.1216954625
  0
INSERT
  5
31E
100
AcDbEntity
  8
0
100
AcDbBlockReference
 62
2
  6
CONTINUOUS
  2
_FILLED
 10
45.8324375767
 20
37.1216954625
 41
0.5625
 42
0.5625
 43
0.5625
 50
180.0
  0
INSERT
  5
31F
100
AcDbEntity
  8
0
100
AcDbBlockReference
 62
2
  6
CONTINUOUS
  2
_FILLED
 10
49.5844060807
 20
37.1216954625
 41
0.5625
 42
0.5625
 43
0.5625
  0
ENDBLK
  5
320
100
AcDbEntity
  8
0
  6
BYBLOCK
 62
0
100
AcDbBlockEnd
  0
BLOCK
  5
321
100
AcDbEntity
  8
0
100
AcDbBlockBegin
 62
2
  6
CONTINUOUS
  2
*D14
 70
65
 10
0.0
 20
0.0
  3
*D14
  1

  0
MTEXT
  5
322
100
AcDbEntity
  8
0
100
AcDbMText
 62
2
  6
CONTINUOUS
  7
STANDARD
 71
2
 72
1
 10
36.7581514416
 20
31.6186559463
 30
0.0
 11
1.0
 21
0.0
 31
0.0
 44
0.9
  1
7.3\P[184]
 40
0.46875
 41
2.109375
  0
LINE
  5
323
100
AcDbEntity
  8
0
100
AcDbLine
 62
2
  6
CONTINUOUS
 10
39.6331265531
 20
34.3678473463
 11
36.6007853702
 21
34.3678473463
  0
LINE
  5
324
100
AcDbEntity
  8
0
100
AcDbLine
 62
2
  6
CONTINUOUS
 10
45.0715123799
 20
27.1178473463
 11
36.6007853702
 21
27.1178473463
  0
LINE
  5
325
100
AcDbEntity
  8
0
100
AcDbLine
 62
2
  6
CONTINUOUS
 10
36.9757853702
 20
34.3678473463
 11
36.9757853702
 21
31.8530309463
  0
LINE
  5
326
100
AcDbEntity
  8
0
100
AcDbLine
 62
2
  6
CONTINUOUS
 10
36.9757853702
 20
27.1178473463
 11
36.9757853702
 21
30.2124059463
  0
INSERT
  5
327
100
AcDbEntity
  8
0
100
AcDbBlockReference
 62
2
  6
CONTINUOUS
  2
_FILLED
 10
36.9757853702
 20
34.3678473463
 41
0.5625
 42
0.5625
 43
0.5625
 50
90.0
  0
INSERT
  5
328
100
AcDbEntity
  8
0
100
AcDbBlockReference
 62
2
  6
CONTINUOUS
  2
_FILLED
 10
36.9757853702
 20
27.1178473463
 41
0.5625
 42
0.5625
 43
0.5625
 50
270.0
  0
ENDBLK
  5
329
100
AcDbEntity
  8
0
  6
BYBLOCK
 62
0
100
AcDbBlockEnd
  0
BLOCK
  5
32A
100
AcDbEntity
  8
0
100
AcDbBlockBegin
 62
2
  6
CONTINUOUS
  2
*D15
 70
65
 10
0.0
 20
0.0
  3
*D15
  1

  0
MTEXT
  5
32B
100
AcDbEntity
  8
0
100
AcDbMText
 62
2
  6
CONTINUOUS
  7
STANDARD
 71
1
 72
1
 10
76.3441331763
 20
39.1775753488
 30
0.0
 11
1.0
 21
0.0
 31
0.0
 44
0.9
  1
2.750\P[69,85]
 40
0.46875
 41
3.1640625
  0
LINE
  5
32C
100
AcDbEntity
  8
0
100
AcDbLine
 62
2
  6
CONTINUOUS
 10
71.722130345
 20
32.0630245117
 11
71.722130345
 21
39.3182003488
  0
LINE
  5
32D
100
AcDbEntity
  8
0
100
AcDbLine
 62
2
  6
CONTINUOUS
 10
74.472130345
 20
32.0630245117
 11
74.472130345
 21
39.3182003488
  0
LINE
  5
32E
100
AcDbEntity
  8
0
100
AcDbLine
 62
2
  6
CONTINUOUS
 10
71.722130345
 20
38.9432003488
 11
73.097130345
 21
38.9432003488
  0
LINE
  5
32F
100
AcDbEntity
  8
0
100
AcDbLine
 62
2
  6
CONTINUOUS
 10
74.472130345
 20
38.9432003488
 11
73.097130345
 21
38.9432003488
  0
LINE
  5
330
100
AcDbEntity
  8
0
100
AcDbLine
 62
2
  6
CONTINUOUS
 10
73.097130345
 20
38.9432003488
 11
76.1097581763
 21
38.9432003488
  0
INSERT
  5
331
100
AcDbEntity
  8
0
100
AcDbBlockReference
 62
2
  6
CONTINUOUS
  2
_FILLED
 10
71.722130345
 20
38.9432003488
 41
0.5625
 42
0.5625
 43
0.5625
 50
180.0
  0
INSERT
  5
332
100
AcDbEntity
  8
0
100
AcDbBlockReference
 62
2
  6
CONTINUOUS
  2
_FILLED
 10
74.472130345
 20
38.9432003488
 41
0.5625
 42
0.5625
 43
0.5625
  0
ENDBLK
  5
333
100
AcDbEntity
  8
0
  6
BYBLOCK
 62
0
100
AcDbBlockEnd
  0
BLOCK
  5
334
100
AcDbEntity
  8
0
100
AcDbBlockBegin
 62
2
  6
CONTINUOUS
  2
*D16
 70
65
 10
0.0
 20
0.0
  3
*D16
  1

  0
MTEXT
  5
335
100
AcDbEntity
  8
0
100
AcDbMText
 62
2
  6
CONTINUOUS
  7
STANDARD
 71
1
 72
1
 10
76.322142945
 20
36.735096072
 30
0.0
 11
1.0
 21
0.0
 31
0.0
 44
0.9
  1
1.375\P[34,93]
 40
0.46875
 41
3.1138392857
  0
LINE
  5
336
100
AcDbEntity
  8
0
100
AcDbLine
 62
2
  6
CONTINUOUS
 10
73.097130345
 20
34.97409
 11
73.097130345
 21
36.875721072
  0
LINE
  5
337
100
AcDbEntity
  8
0
100
AcDbLine
 62
2
  6
CONTINUOUS
 10
74.472130345
 20
32.0630245117
 11
74.472130345
 21
36.875721072
  0
LINE
  5
338
100
AcDbEntity
  8
0
100
AcDbLine
 62
2
  6
CONTINUOUS
 10
73.097130345
 20
36.500721072
 11
73.784630345
 21
36.500721072
  0
LINE
  5
339
100
AcDbEntity
  8
0
100
AcDbLine
 62
2
  6
CONTINUOUS
 10
74.472130345
 20
36.500721072
 11
73.784630345
 21
36.500721072
  0
LINE
  5
33A
100
AcDbEntity
  8
0
100
AcDbLine
 62
2
  6
CONTINUOUS
 10
73.784630345
 20
36.500721072
 11
76.087767945
 21
36.500721072
  0
INSERT
  5
33B
100
AcDbEntity
  8
0
100
AcDbBlockReference
 62
2
  6
CONTINUOUS
  2
_FILLED
 10
73.097130345
 20
36.500721072
 41
0.5625
 42
0.5625
 43
0.5625
 50
180.0
  0
INSERT
  5
33C
100
AcDbEntity
  8
0
100
AcDbBlockReference
 62
2
  6
CONTINUOUS
  2
_FILLED
 10
74.472130345
 20
36.500721072
 41
0.5625
 42
0.5625
 43
0.5625
  0
ENDBLK
  5
33D
100
AcDbEntity
  8
0
  6
BYBLOCK
 62
0
100
AcDbBlockEnd
  0
BLOCK
  5
33E
100
AcDbEntity
  8
0
100
AcDbBlockBegin
 62
2
  6
CONTINUOUS
  2
*D17
 70
65
 10
0.0
 20
0.0
  3
*D17
  1

  0
MTEXT
  5
33F
100
AcDbEntity
  8
0
100
AcDbMText
 62
2
  6
CONTINUOUS
  7
STANDARD
 71
2
 72
1
 10
84.574605111
 20
33.5147961546
 30
0.0
 11
1.0
 21
0.0
 31
0.0
 44
0.9
  1
2.92\P[74]
 40
0.46875
 41
2.0591517857
  0
LINE
  5
340
100
AcDbEntity
  8
0
100
AcDbLine
 62
2
  6
CONTINUOUS
 10
81.158646093
 20
34.3678473463
 11
84.949605111
 21
34.3678473463
  0
LINE
  5
341
100
AcDbEntity
  8
0
100
AcDbLine
 62
2
  6
CONTINUOUS
 10
75.084630345
 20
31.4505245117
 11
84.949605111
 21
31.4505245117
  0
LINE
  5
342
100
AcDbEntity
  8
0
100
AcDbLine
 62
2
  6
CONTINUOUS
 10
84.574605111
 20
34.3678473463
 11
84.574605111
 21
35.8678473463
  0
LINE
  5
343
100
AcDbEntity
  8
0
100
AcDbLine
 62
2
  6
CONTINUOUS
 10
84.574605111
 20
31.4505245117
 11
84.574605111
 21
29.9505245117
  0
INSERT
  5
344
100
AcDbEntity
  8
0
100
AcDbBlockReference
 62
2
  6
CONTINUOUS
  2
_FILLED
 10
84.574605111
 20
34.3678473463
 41
0.5625
 42
0.5625
 43
0.5625
 50
270.0
  0
INSERT
  5
345
100
AcDbEntity
  8
0
100
AcDbBlockReference
 62
2
  6
CONTINUOUS
  2
_FILLED
 10
84.574605111
 20
31.4505245117
 41
0.5625
 42
0.5625
 43
0.5625
 50
90.0
  0
ENDBLK
  5
346
100
AcDbEntity
  8
0
  6
BYBLOCK
 62
0
100
AcDbBlockEnd
  0
BLOCK
  5
347
100
AcDbEntity
  8
0
100
AcDbBlockBegin
 62
2
  6
CONTINUOUS
  2
*D18
 70
65
 10
0.0
 20
0.0
  3
*D18
  1

  0
MTEXT
  5
348
100
AcDbEntity
  8
0
100
AcDbMText
 62
2
  6
CONTINUOUS
  7
STANDARD
 71
2
 72
1
 10
84.574605111
 20
29.5699366189
 30
0.0
 11
1.0
 21
0.0
 31
0.0
 44
0.9
  1
5.000\P[127]
 40
0.46875
 41
2.5613839286
  0
LINE
  5
349
100
AcDbEntity
  8
0
100
AcDbLine
 62
2
  6
CONTINUOUS
 10
75.084630345
 20
31.4505245117
 11
84.949605111
 21
31.4505245117
  0
LINE
  5
34A
100
AcDbEntity
  8
0
100
AcDbLine
 62
2
  6
CONTINUOUS
 10
75.084630345
 20
26.4505245117
 11
84.949605111
 21
26.4505245117
  0
LINE
  5
34B
100
AcDbEntity
  8
0
100
AcDbLine
 62
2
  6
CONTINUOUS
 10
84.574605111
 20
31.4505245117
 11
84.574605111
 21
29.8043116189
  0
LINE
  5
34C
100
AcDbEntity
  8
0
100
AcDbLine
 62
2
  6
CONTINUOUS
 10
84.574605111
 20
26.4505245117
 11
84.574605111
 21
28.1636866189
  0
INSERT
  5
34D
100
AcDbEntity
  8
0
100
AcDbBlockReference
 62
2
  6
CONTINUOUS
  2
_FILLED
 10
84.574605111
 20
31.4505245117
 41
0.5625
 42
0.5625
 43
0.5625
 50
90.0
  0
INSERT
  5
34E
100
AcDbEntity
  8
0
100
AcDbBlockReference
 62
2
  6
CONTINUOUS
  2
_FILLED
 10
84.574605111
 20
26.4505245117
 41
0.5625
 42
0.5625
 43
0.5625
 50
270.0
  0
ENDBLK
  5
34F
100
AcDbEntity
  8
0
  6
BYBLOCK
 62
0
100
AcDbBlockEnd
  0
ENDSEC
  0
SECTION
  2
ENTITIES
  0
MTEXT
  5
350
100
AcDbEntity
  8
0
100
AcDbMText
 62
2
  6
CONTINUOUS
  7
STANDARD
 71
1
 72
1
 10
7.3887232342
 20
1.0947500507
 30
0.0
 11
1.0
 21
0.0
 31
0.0
 44
0.9
  1
8
 40
0.46875
 41
0.5524553571
  0
MTEXT
  5
351
100
AcDbEntity
  8
0
100
AcDbMText
 62
2
  6
CONTINUOUS
  7
STANDARD
 71
1
 72
1
 10
19.5762232342
 20
1.0947500507
 30
0.0
 11
1.0
 21
0.0
 31
0.0
 44
0.9
  1
7
 40
0.46875
 41
0.5524553571
  0
MTEXT
  5
352
100
AcDbEntity
  8
0
100
AcDbMText
 62
2
  6
CONTINUOUS
  7
STANDARD
 71
1
 72
1
 10
31.7637232342
 20
1.0947500507
 30
0.0
 11
1.0
 21
0.0
 31
0.0
 44
0.9
  1
6
 40
0.46875
 41
0.5524553571
  0
MTEXT
  5
353
100
AcDbEntity
  8
0
100
AcDbMText
 62
2
  6
CONTINUOUS
  7
STANDARD
 71
1
 72
1
 10
43.9512232342
 20
1.0947500507
 30
0.0
 11
1.0
 21
0.0
 31
0.0
 44
0.9
  1
5
 40
0.46875
 41
0.5022321429
  0
MTEXT
  5
354
100
AcDbEntity
  8
0
100
AcDbMText
 62
2
  6
CONTINUOUS
  7
STANDARD
 71
1
 72
1
 10
56.1387232342
 20
1.0947500507
 30
0.0
 11
1.0
 21
0.0
 31
0.0
 44
0.9
  1
4
 40
0.46875
 41
0.5524553571
  0
MTEXT
  5
355
100
AcDbEntity
  8
0
100
AcDbMText
 62
2
  6
CONTINUOUS
  7
STANDARD
 71
1
 72
1
 10
68.3262232342
 20
1.0947500507
 30
0.0
 11
1.0
 21
0.0
 31
0.0
 44
0.9
  1
3
 40
0.46875
 41
0.5022321429
  0
MTEXT
  5
356
100
AcDbEntity
  8
0
100
AcDbMText
 62
2
  6
CONTINUOUS
  7
STANDARD
 71
1
 72
1
 10
80.5137232342
 20
1.0947500507
 30
0.0
 11
1.0
 21
0.0
 31
0.0
 44
0.9
  1
2
 40
0.46875
 41
0.5524553571
  0
MTEXT
  5
357
100
AcDbEntity
  8
0
100
AcDbMText
 62
2
  6
CONTINUOUS
  7
STANDARD
 71
1
 72
1
 10
92.7012232342
 20
1.0947500507
 30
0.0
 11
1.0
 21
0.0
 31
0.0
 44
0.9
  1
1
 40
0.46875
 41
0.4017857143
  0
MTEXT
  5
358
100
AcDbEntity
  8
0
100
AcDbMText
 62
2
  6
CONTINUOUS
  7
STANDARD
 71
1
 72
1
 10
7.3887232342
 20
65.5947500507
 30
0.0
 11
1.0
 21
0.0
 31
0.0
 44
0.9
  1
8
 40
0.46875
 41
0.6863839286
  0
MTEXT
  5
359
100
AcDbEntity
  8
0
100
AcDbMText
 62
2
  6
CONTINUOUS
  7
STANDARD
 71
1
 72
1
 10
19.5762232342
 20
65.5947500507
 30
0.0
 11
1.0
 21
0.0
 31
0.0
 44
0.9
  1
7
 40
0.46875
 41
0.5524553571
  0
MTEXT
  5
35A
100
AcDbEntity
  8
0
100
AcDbMText
 62
2
  6
CONTINUOUS
  7
STANDARD
 71
1
 72
1
 10
31.7637232342
 20
65.5947500507
 30
0.0
 11
1.0
 21
0.0
 31
0.0
 44
0.9
  1
6
 40
0.46875
 41
0.5524553571
  0
MTEXT
  5
35B
100
AcDbEntity
  8
0
100
AcDbMText
 62
2
  6
CONTINUOUS
  7
STANDARD
 71
1
 72
1
 10
43.9512232342
 20
65.5947500507
 30
0.0
 11
1.0
 21
0.0
 31
0.0
 44
0.9
  1
5
 40
0.46875
 41
0.5022321429
  0
MTEXT
  5
35C
100
AcDbEntity
  8
0
100
AcDbMText
 62
2
  6
CONTINUOUS
  7
STANDARD
 71
1
 72
1
 10
56.1387232342
 20
65.5947500507
 30
0.0
 11
1.0
 21
0.0
 31
0.0
 44
0.9
  1
4
 40
0.46875
 41
0.5524553571
  0
MTEXT
  5
35D
100
AcDbEntity
  8
0
100
AcDbMText
 62
2
  6
CONTINUOUS
  7
STANDARD
 71
1
 72
1
 10
68.3262232342
 20
65.5947500507
 30
0.0
 11
1.0
 21
0.0
 31
0.0
 44
0.9
  1
3
 40
0.46875
 41
0.5022321429
  0
MTEXT
  5
35E
100
AcDbEntity
  8
0
100
AcDbMText
 62
2
  6
CONTINUOUS
  7
STANDARD
 71
1
 72
1
 10
80.5137232342
 20
65.5947500507
 30
0.0
 11
1.0
 21
0.0
 31
0.0
 44
0.9
  1
2
 40
0.46875
 41
0.5524553571
  0
MTEXT
  5
35F
100
AcDbEntity
  8
0
100
AcDbMText
 62
2
  6
CONTINUOUS
  7
STANDARD
 71
1
 72
1
 10
92.7012232342
 20
65.5947500507
 30
0.0
 11
1.0
 21
0.0
 31
0.0
 44
0.9
  1
1
 40
0.46875
 41
0.4017857143
  0
MTEXT
  5
360
100
AcDbEntity
  8
0
100
AcDbMText
 62
2
  6
CONTINUOUS
  7
STANDARD
 71
1
 72
1
 10
0.5946579278
 20
9.6584698477
 30
0.0
 11
1.0
 21
0.0
 31
0.0
 44
0.9
  1
A
 40
0.46875
 41
0.6026785714
  0
MTEXT
  5
361
100
AcDbEntity
  8
0
100
AcDbMText
 62
2
  6
CONTINUOUS
  7
STANDARD
 71
1
 72
1
 10
0.5946579278
 20
25.4084698477
 30
0.0
 11
1.0
 21
0.0
 31
0.0
 44
0.9
  1
B
 40
0.46875
 41
0.5524553571
  0
MTEXT
  5
362
100
AcDbEntity
  8
0
100
AcDbMText
 62
2
  6
CONTINUOUS
  7
STANDARD
 71
1
 72
1
 10
0.5946579278
 20
41.1584698477
 30
0.0
 11
1.0
 21
0.0
 31
0.0
 44
0.9
  1
C
 40
0.46875
 41
0.5859375
  0
MTEXT
  5
363
100
AcDbEntity
  8
0
100
AcDbMText
 62
2
  6
CONTINUOUS
  7
STANDARD
 71
1
 72
1
 10
0.5946579278
 20
56.9084698477
 30
0.0
 11
1.0
 21
0.0
 31
0.0
 44
0.9
  1
D
 40
0.46875
 41
0.6361607143
  0
MTEXT
  5
364
100
AcDbEntity
  8
0
100
AcDbMText
 62
2
  6
CONTINUOUS
  7
STANDARD
 71
1
 72
1
 10
99.5946579278
 20
9.6584698477
 30
0.0
 11
1.0
 21
0.0
 31
0.0
 44
0.9
  1
A
 40
0.46875
 41
0.6026785714
  0
MTEXT
  5
365
100
AcDbEntity
  8
0
100
AcDbMText
 62
2
  6
CONTINUOUS
  7
STANDARD
 71
1
 72
1
 10
99.5946579278
 20
25.4084698477
 30
0.0
 11
1.0
 21
0.0
 31
0.0
 44
0.9
  1
B
 40
0.46875
 41
0.5524553571
  0
MTEXT
  5
366
100
AcDbEntity
  8
0
100
AcDbMText
 62
2
  6
CONTINUOUS
  7
STANDARD
 71
1
 72
1
 10
99.5946579278
 20
41.1584698477
 30
0.0
 11
1.0
 21
0.0
 31
0.0
 44
0.9
  1
C
 40
0.46875
 41
0.5859375
  0
MTEXT
  5
367
100
AcDbEntity
  8
0
100
AcDbMText
 62
2
  6
CONTINUOUS
  7
STANDARD
 71
1
 72
1
 10
99.5946579278
 20
56.9084698477
 30
0.0
 11
1.0
 21
0.0
 31
0.0
 44
0.9
  1
D
 40
0.46875
 41
0.6361607143
  0
MTEXT
  5
368
100
AcDbEntity
  8
0
100
AcDbMText
 62
5
  6
CONTINUOUS
  7
STANDARD
 71
1
 72
1
 10
1.6988688318
 20
64.3685463461
 30
0.0
 11
1.0
 21
0.0
 31
0.0
 44
0.9
  1
THIS DOCUMENT CONTAINS PROPRIETARY INFORMATION\PWHICH IS THE PROPERTY OF QSC, LLC, THAT MAY NOT BE\PDISCLOSED, REPRODUCED OR USED WITHOUT EXPRESS\PWRITTEN CONSENT FROM QSC, LLC.
 40
0.225
 41
13.33125
  0
MTEXT
  5
369
100
AcDbEntity
  8
0
100
AcDbMText
 62
2
  6
CONTINUOUS
  7
STANDARD
 71
2
 72
1
 10
72.6850277561
 20
8.9347723959
 30
0.0
 11
1.0
 21
0.0
 31
0.0
 44
0.9
  1
UNLESS OTHERWISE SPECIFIED\PDIMENSIONS IN INCHES [MM]
 40
0.3
 41
9.1928571429
  0
MTEXT
  5
36A
100
AcDbEntity
  8
0
100
AcDbMText
 62
2
  6
CONTINUOUS
  7
STANDARD
 71
2
 72
1
 10
72.7048418375
 20
7.7759564959
 30
0.0
 11
1.0
 21
0.0
 31
0.0
 44
0.9
  1
TOLERANCES ARE:
 40
0.27
 41
4.6382142857
  0
MTEXT
  5
36B
100
AcDbEntity
  8
0
100
AcDbMText
 62
2
  6
CONTINUOUS
  7
STANDARD
 71
2
 72
1
 10
70.4978299226
 20
7.0911167182
 30
0.0
 11
1.0
 21
0.0
 31
0.0
 44
0.9
  1
DECIMALS\P.XX\Fgdt;{\Fgdt;`}\Ftxt;.02[.5]
 40
0.27
 41
3.1339285714
  0
MTEXT
  5
36C
100
AcDbEntity
  8
0
100
AcDbMText
 62
2
  6
CONTINUOUS
  7
STANDARD
 71
2
 72
1
 10
73.125
 20
7.0725
 30
0.0
 11
1.0
 21
0.0
 31
0.0
 44
0.9
  1
DECIMALS\P.XXX\Fgdt;{\Fgdt;`}\Ftxt;.010[.25]
 40
0.27
 41
4.0307142857
  0
MTEXT
  5
36D
100
AcDbEntity
  8
0
100
AcDbMText
 62
2
  6
CONTINUOUS
  7
STANDARD
 71
2
 72
1
 10
75.3878909831
 20
7.0875020839
 30
0.0
 11
1.0
 21
0.0
 31
0.0
 44
0.9
  1
ANGLES\P\Fgdt;{\Fgdt;`}\Ftxt; 1/2
 40
0.27
 41
1.9285714286
  0
MTEXT
  5
36E
100
AcDbEntity
  8
0
100
AcDbMText
 62
2
  6
CONTINUOUS
  7
STANDARD
 71
2
 72
1
 10
72.75
 20
5.9475
 30
0.0
 11
1.0
 21
0.0
 31
0.0
 44
0.9
  1
DEBURR EDGES .010 [.25] R MAX
 40
0.27
 41
8.8232142857
  0
MTEXT
  5
36F
100
AcDbEntity
  8
0
100
AcDbMText
 62
2
  6
CONTINUOUS
  7
STANDARD
 71
2
 72
1
 10
70.3767734424
 20
5.0586597527
 30
0.0
 11
1.0
 21
0.0
 31
0.0
 44
0.9
  1
MATERIAL
 40
0.27
 41
2.5939285714
  0
MTEXT
  5
370
100
AcDbEntity
  8
0
100
AcDbMText
 62
2
  6
CONTINUOUS
  7
STANDARD
 71
2
 72
1
 10
70.0894191481
 20
3.2314398808
 30
0.0
 11
1.0
 21
0.0
 31
0.0
 44
0.9
  1
FINISH
 40
0.27
 41
1.8417857143
  0
MTEXT
  5
371
100
AcDbEntity
  8
0
100
AcDbMText
 62
2
  6
CONTINUOUS
  7
STANDARD
 71
2
 72
1
 10
90.8093769444
 20
2.0427076852
 30
0.0
 11
1.0
 21
0.0
 31
0.0
 44
0.9
  1
DO NOT SCALE DRAWING
 40
0.375
 41
9.3482142857
  0
MTEXT
  5
372
100
AcDbEntity
  8
0
100
AcDbMText
 62
2
  6
CONTINUOUS
  7
STANDARD
 71
2
 72
1
 10
76.8718403833
 20
8.1529997057
 30
0.0
 11
1.0
 21
0.0
 31
0.0
 44
0.9
  1
DRAWN
 40
0.27
 41
1.9767857143
  0
MTEXT
  5
373
100
AcDbEntity
  8
0
100
AcDbMText
 62
2
  6
CONTINUOUS
  7
STANDARD
 71
2
 72
1
 10
76.9772126356
 20
6.8232164832
 30
0.0
 11
1.0
 21
0.0
 31
0.0
 44
0.9
  1
CHECKED
 40
0.27
 41
2.3335714286
  0
MTEXT
  5
374
100
AcDbEntity
  8
0
100
AcDbMText
 62
2
  6
CONTINUOUS
  7
STANDARD
 71
2
 72
1
 10
76.9585953789
 20
5.5143277336
 30
0.0
 11
1.0
 21
0.0
 31
0.0
 44
0.9
  1
MFG ENG
 40
0.27
 41
2.2757142857
  0
MTEXT
  5
375
100
AcDbEntity
  8
0
100
AcDbMText
 62
2
  6
CONTINUOUS
  7
STANDARD
 71
2
 72
1
 10
77.0939480476
 20
4.1963530404
 30
0.0
 11
1.0
 21
0.0
 31
0.0
 44
0.9
  1
QA CHECK
 40
0.27
 41
2.6903571429
  0
MTEXT
  5
376
100
AcDbEntity
  8
0
100
AcDbMText
 62
2
  6
CONTINUOUS
  7
STANDARD
 71
2
 72
1
 10
77.8695705011
 20
2.0280074066
 30
0.0
 11
1.0
 21
0.0
 31
0.0
 44
0.9
  1
MODEL INFO:
 40
0.27
 41
3.3075
  0
MTEXT
  5
377
100
AcDbEntity
  8
0
100
AcDbMText
 62
2
  6
CONTINUOUS
  7
STANDARD
 71
2
 72
1
 10
77.5915526799
 20
2.7550831245
 30
0.0
 11
1.0
 21
0.0
 31
0.0
 44
0.9
  1
DRAWING INFO:
 40
0.27
 41
4.2042857143
  0
MTEXT
  5
378
100
AcDbEntity
  8
0
100
AcDbMText
 62
2
  6
CONTINUOUS
  7
STANDARD
 71
2
 72
1
 10
78.7239697367
 20
8.8687597942
 30
0.0
 11
1.0
 21
0.0
 31
0.0
 44
0.9
  1
APPROVALS
 40
0.27
 41
2.9603571429
  0
MTEXT
  5
379
100
AcDbEntity
  8
0
100
AcDbMText
 62
2
  6
CONTINUOUS
  7
STANDARD
 71
2
 72
1
 10
82.6321879336
 20
9.1054725154
 30
0.0
 11
1.0
 21
0.0
 31
0.0
 44
0.9
  1
DATE\P(DD-MMM-YY)
 40
0.27
 41
3.3942857143
  0
MTEXT
  5
37A
100
AcDbEntity
  8
0
100
AcDbMText
 62
2
  6
CONTINUOUS
  7
STANDARD
 71
2
 72
1
 10
84.7180937442
 20
2.0010609907
 30
0.0
 11
1.0
 21
0.0
 31
0.0
 44
0.9
  1
SCALE:
 40
0.27
 41
1.7742857143
  0
MTEXT
  5
37B
100
AcDbEntity
  8
0
100
AcDbMText
 62
2
  6
CONTINUOUS
  7
STANDARD
 71
2
 72
1
 10
94.8487282029
 20
2.0060426595
 30
0.0
 11
1.0
 21
0.0
 31
0.0
 44
0.9
  1
SHEET
 40
0.27
 41
1.6392857143
  0
MTEXT
  5
37C
100
AcDbEntity
  8
0
100
AcDbMText
 62
2
  6
CONTINUOUS
  7
STANDARD
 71
2
 72
1
 10
84.7259383523
 20
3.630989002
 30
0.0
 11
1.0
 21
0.0
 31
0.0
 44
0.9
  1
SIZE
 40
0.27
 41
1.2632142857
  0
MTEXT
  5
37D
100
AcDbEntity
  8
0
100
AcDbMText
 62
2
  6
CONTINUOUS
  7
STANDARD
 71
2
 72
1
 10
86.951092826
 20
3.6342493293
 30
0.0
 11
1.0
 21
0.0
 31
0.0
 44
0.9
  1
CAGE CODE
 40
0.27
 41
2.9989285714
  0
MTEXT
  5
37E
100
AcDbEntity
  8
0
100
AcDbMText
 62
2
  6
CONTINUOUS
  7
STANDARD
 71
2
 72
1
 10
89.8228492441
 20
3.6279988972
 30
0.0
 11
1.0
 21
0.0
 31
0.0
 44
0.9
  1
DRAWING NO.
 40
0.27
 41
3.7414285714
  0
MTEXT
  5
37F
100
AcDbEntity
  8
0
100
AcDbMText
 62
2
  6
CONTINUOUS
  7
STANDARD
 71
2
 72
1
 10
98.2863979783
 20
3.63202172
 30
0.0
 11
1.0
 21
0.0
 31
0.0
 44
0.9
  1
REV
 40
0.27
 41
1.0221428571
  0
MTEXT
  5
380
100
AcDbEntity
  8
0
100
AcDbMText
 62
2
  6
CONTINUOUS
  7
STANDARD
 71
2
 72
1
 10
91.2489057495
 20
8.9618953025
 30
0.0
 11
1.0
 21
0.0
 31
0.0
 44
0.9
  1
QSC, LLC
 40
0.46875
 41
4.3191964286
  0
MTEXT
  5
381
100
AcDbEntity
  8
0
100
AcDbMText
 62
2
  6
CONTINUOUS
  7
STANDARD
 71
1
 72
1
 10
89.7363972414
 20
8.2628704917
 30
0.0
 11
1.0
 21
0.0
 31
0.0
 44
0.9
  1
1675 MACARTHUR BOULEVARD\PCOSTA MESA, CA  92626
 40
0.375
 41
10.7544642857
  0
MTEXT
  5
382
100
AcDbEntity
  8
0
100
AcDbMText
 62
2
  6
CONTINUOUS
  7
STANDARD
 71
1
 72
1
 10
85.8903254667
 20
2.9888294753
 30
0.0
 11
1.0
 21
0.0
 31
0.0
 44
0.9
  1
00PW4
 40
0.46875
 41
3.2979910714
  0
INSERT
  5
383
100
AcDbEntity
  8
0
100
AcDbBlockReference
 62
7
  6
CONTINUOUS
  2
RD010411_BL0
 10
86.6664608964
 20
8.1033319955
  0
DIMENSION
  5
384
100
AcDbEntity
  8
0
100
AcDbDimension
 62
2
  6
CONTINUOUS
  2
*D0
 10
45.7094060807
 20
12.6695981986
 11
47.6469060807
 21
12.3180356986
 70
160
 71
2
 42
98.425
  3
DIMSTYLE_1
100
AcDbAlignedDimension
 13
49.5844060807
 23
14.7940284487
 14
45.7094060807
 24
25.1757726821
 50
180.0
100
AcDbRotatedDimension
  0
DIMENSION
  5
385
100
AcDbEntity
  8
0
100
AcDbDimension
 62
2
  6
CONTINUOUS
  2
*D1
 10
34.0842495058
 20
26.0553473463
 11
34.0842495058
 21
29.8600348463
 70
160
 71
2
 42
211.1375
  3
DIMSTYLE_1
100
AcDbAlignedDimension
 13
39.6956265531
 23
34.3678473463
 14
44.8606889298
 24
26.0553473463
 50
270.0
100
AcDbRotatedDimension
  0
DIMENSION
  5
386
100
AcDbEntity
  8
0
100
AcDbDimension
 62
2
  6
CONTINUOUS
  2
*D2
 10
17.4835099777
 20
55.3967491011
 11
15.8407467648
 21
55.0451866011
 70
160
 71
3
 42
25.4
  3
DIMSTYLE_1
100
AcDbAlignedDimension
 13
18.4835099777
 23
53.9784390654
 14
17.4835099777
 24
53.6156779161
 50
180.0
100
AcDbRotatedDimension
  0
DIMENSION
  5
387
100
AcDbEntity
  8
0
100
AcDbDimension
 62
2
  6
CONTINUOUS
  2
*D3
 10
19.4835099777
 20
57.2948759139
 11
18.4835099777
 21
56.9433134139
 70
160
 71
1
 42
50.8
  3
DIMSTYLE_1
100
AcDbAlignedDimension
 13
17.4835099777
 23
53.6156779161
 14
19.4835099777
 24
53.6156779161
100
AcDbRotatedDimension
  0
DIMENSION
  5
388
100
AcDbEntity
  8
0
100
AcDbDimension
 62
2
  6
CONTINUOUS
  2
*D4
 10
26.3575257258
 20
37.1897001984
 11
18.4835099777
 21
36.8381376984
 70
160
 71
2
 42
400.0
  3
DIMSTYLE_1
100
AcDbAlignedDimension
 13
10.6094942297
 23
34.4928473463
 14
26.3575257258
 24
34.4928473463
100
AcDbRotatedDimension
  0
DIMENSION
  5
389
100
AcDbEntity
  8
0
100
AcDbDimension
 62
2
  6
CONTINUOUS
  2
*D5
 10
31.4331449578
 20
14.9190284487
 11
31.4331449578
 21
24.2918753975
 70
160
 71
2
 42
494.0
  3
DIMSTYLE_1
100
AcDbAlignedDimension
 13
39.6956265531
 23
34.3678473463
 14
44.3770561088
 24
14.9190284487
 50
270.0
100
AcDbRotatedDimension
  0
DIMENSION
  5
38A
100
AcDbEntity
  8
0
100
AcDbDimension
 62
2
  6
CONTINUOUS
  2
*D6
 10
39.3262550672
 20
39.4683686315
 11
44.4553305739
 21
39.1168061315
 70
160
 71
2
 42
260.5570357418
  3
DIMSTYLE_1
100
AcDbAlignedDimension
 13
49.5844060807
 23
32.6569904245
 14
39.3262550672
 24
34.3603809059
 50
180.0
100
AcDbRotatedDimension
  0
DIMENSION
  5
38B
100
AcDbEntity
  8
0
100
AcDbDimension
 62
2
  6
CONTINUOUS
  2
*D7
 10
49.5844060807
 20
10.1220255457
 11
47.0432310948
 21
9.7704630457
 70
160
 71
2
 42
129.0916892844
  3
DIMSTYLE_1
100
AcDbAlignedDimension
 13
44.5020561088
 23
14.7940284487
 14
49.5844060807
 24
14.7940284487
100
AcDbRotatedDimension
  0
DIMENSION
  5
38C
100
AcDbEntity
  8
0
100
AcDbDimension
 62
2
  6
CONTINUOUS
  2
*D8
 10
52.9078528739
 20
32.3204064014
 11
52.9078528739
 21
33.3890243962
 70
160
 71
2
 42
52.005
  3
DIMSTYLE_1
100
AcDbAlignedDimension
 13
45.7723982067
 23
34.3678473463
 14
51.0086186791
 24
32.3204064014
 50
270.0
100
AcDbRotatedDimension
  0
DIMENSION
  5
38D
100
AcDbEntity
  8
0
100
AcDbDimension
 62
2
  6
CONTINUOUS
  2
*D9
 10
52.9002184274
 20
25.8255245117
 11
52.9002184274
 21
28.7214029566
 70
160
 71
2
 42
164.97
  3
DIMSTYLE_1
100
AcDbAlignedDimension
 13
51.0086186791
 23
32.3204064014
 14
50.3275163169
 24
25.8255245117
 50
270.0
100
AcDbRotatedDimension
  0
DIMENSION
  5
38E
100
AcDbEntity
  8
0
100
AcDbDimension
 62
2
  6
CONTINUOUS
  2
*D10
 10
28.6160716505
 20
53.3300479948
 11
29.9017859363
 21
54.7949769438
 70
160
 71
1
 42
33.0
  3
DIMSTYLE_1
100
AcDbAlignedDimension
 13
26.4825257258
 23
52.0308353964
 14
20.5179587966
 24
53.3300479948
 50
90.0
100
AcDbRotatedDimension
  0
DIMENSION
  5
38F
100
AcDbEntity
  8
0
100
AcDbDimension
 62
2
  6
CONTINUOUS
  2
*D11
 10
8.0081371438
 20
52.9719771287
 11
6.5339407103
 21
54.4441974268
 70
160
 71
3
 42
23.905
  3
DIMSTYLE_1
100
AcDbAlignedDimension
 13
10.4844942297
 23
52.0308353964
 14
17.2148091903
 24
52.9719771287
 50
90.0
100
AcDbRotatedDimension
  0
DIMENSION
  5
390
100
AcDbEntity
  8
0
100
AcDbDimension
 62
2
  6
CONTINUOUS
  2
*D12
 10
21.9342973793
 20
59.1611313577
 11
18.4835099777
 21
58.8095688577
 70
160
 71
2
 42
175.3
  3
DIMSTYLE_1
100
AcDbAlignedDimension
 13
15.0327225762
 23
52.7739456326
 14
21.9342973793
 24
52.7739456326
100
AcDbRotatedDimension
  0
DIMENSION
  5
391
100
AcDbEntity
  8
0
100
AcDbDimension
 62
2
  6
CONTINUOUS
  2
*D13
 10
49.5844060807
 20
37.1216954625
 11
47.7084218287
 21
36.7701329625
 70
160
 71
2
 42
95.3
  3
DIMSTYLE_1
100
AcDbAlignedDimension
 13
45.8324375767
 23
27.8162725432
 14
49.5844060807
 24
32.6569904245
100
AcDbRotatedDimension
  0
DIMENSION
  5
392
100
AcDbEntity
  8
0
100
AcDbDimension
 62
2
  6
CONTINUOUS
  2
*D14
 10
36.9757853702
 20
27.1178473463
 11
36.9757853702
 21
31.0327184463
 70
160
 71
2
 42
184.15
  3
DIMSTYLE_1
100
AcDbAlignedDimension
 13
39.6956265531
 23
34.3678473463
 14
45.1340123799
 24
27.1178473463
 50
270.0
100
AcDbRotatedDimension
  0
DIMENSION
  5
393
100
AcDbEntity
  8
0
100
AcDbDimension
 62
2
  6
CONTINUOUS
  2
*D15
 10
74.472130345
 20
38.9432003488
 11
77.3988206763
 21
38.5916378488
 70
160
 71
1
 42
69.85
  3
DIMSTYLE_2
100
AcDbAlignedDimension
 13
71.722130345
 23
32.0005245117
 14
74.472130345
 24
32.0005245117
100
AcDbRotatedDimension
  0
DIMENSION
  5
394
100
AcDbEntity
  8
0
100
AcDbDimension
 62
2
  6
CONTINUOUS
  2
*D16
 10
74.472130345
 20
36.500721072
 11
77.3600893736
 21
36.149158572
 70
160
 71
1
 42
34.925
  3
DIMSTYLE_3
100
AcDbAlignedDimension
 13
73.097130345
 23
34.91159
 14
74.472130345
 24
32.0005245117
100
AcDbRotatedDimension
  0
DIMENSION
  5
395
100
AcDbEntity
  8
0
100
AcDbDimension
 62
2
  6
CONTINUOUS
  2
*D17
 10
84.574605111
 20
31.4505245117
 11
84.574605111
 21
32.9288586546
 70
160
 71
2
 42
74.1
  3
DIMSTYLE_1
100
AcDbAlignedDimension
 13
81.096146093
 23
34.3678473463
 14
75.022130345
 24
31.4505245117
 50
270.0
100
AcDbRotatedDimension
  0
DIMENSION
  5
396
100
AcDbEntity
  8
0
100
AcDbDimension
 62
2
  6
CONTINUOUS
  2
*D18
 10
84.574605111
 20
26.4505245117
 11
84.574605111
 21
28.9839991189
 70
160
 71
2
 42
127.0
  3
DIMSTYLE_1
100
AcDbAlignedDimension
 13
75.022130345
 23
31.4505245117
 14
75.022130345
 24
26.4505245117
 50
270.0
100
AcDbRotatedDimension
  0
LWPOLYLINE
  5
397
100
AcDbEntity
  8
0
100
AcDbPolyline
 62
2
  6
CONTINUOUS
 90
2
 70
0
 43
0.06
 10
99.0301046906
 20
64.4981218332
 10
68.7826046906
 20
64.4981218332
  0
LWPOLYLINE
  5
398
100
AcDbEntity
  8
0
100
AcDbPolyline
 62
2
  6
CONTINUOUS
 90
2
 70
0
 43
0.06
 10
99.0001046906
 20
64.4981218332
 10
99.0001046906
 20
60.7481218332
  0
LWPOLYLINE
  5
399
100
AcDbEntity
  8
0
100
AcDbPolyline
 62
2
  6
CONTINUOUS
 90
2
 70
0
 43
0.06
 10
99.0001046906
 20
63.5606218332
 10
68.8126046906
 20
63.5606218332
  0
LWPOLYLINE
  5
39A
100
AcDbEntity
  8
0
100
AcDbPolyline
 62
2
  6
CONTINUOUS
 90
2
 70
0
 43
0.06
 10
99.0001046906
 20
62.6231218332
 10
68.8126046906
 20
62.6231218332
  0
LWPOLYLINE
  5
39B
100
AcDbEntity
  8
0
100
AcDbPolyline
 62
2
  6
CONTINUOUS
 90
2
 70
0
 43
0.06
 10
99.0001046906
 20
61.6856218332
 10
68.8126046906
 20
61.6856218332
  0
LWPOLYLINE
  5
39C
100
AcDbEntity
  8
0
100
AcDbPolyline
 62
2
  6
CONTINUOUS
 90
2
 70
0
 43
0.06
 10
99.0301046906
 20
60.7481218332
 10
68.7826046906
 20
60.7481218332
  0
LWPOLYLINE
  5
39D
100
AcDbEntity
  8
0
100
AcDbPolyline
 62
2
  6
CONTINUOUS
 90
2
 70
0
 43
0.06
 10
96.7501046906
 20
63.5606218332
 10
96.7501046906
 20
60.7481218332
  0
LWPOLYLINE
  5
39E
100
AcDbEntity
  8
0
100
AcDbPolyline
 62
2
  6
CONTINUOUS
 90
2
 70
0
 43
0.06
 10
93.3751046906
 20
63.5606218332
 10
93.3751046906
 20
60.7481218332
  0
LWPOLYLINE
  5
39F
100
AcDbEntity
  8
0
100
AcDbPolyline
 62
2
  6
CONTINUOUS
 90
2
 70
0
 43
0.06
 10
91.8751046906
 20
63.5606218332
 10
91.8751046906
 20
60.7481218332
  0
LWPOLYLINE
  5
3A0
100
AcDbEntity
  8
0
100
AcDbPolyline
 62
2
  6
CONTINUOUS
 90
2
 70
0
 43
0.06
 10
72.7501046906
 20
63.5606218332
 10
72.7501046906
 20
60.7481218332
  0
LWPOLYLINE
  5
3A1
100
AcDbEntity
  8
0
100
AcDbPolyline
 62
2
  6
CONTINUOUS
 90
2
 70
0
 43
0.06
 10
70.3126046906
 20
63.5606218332
 10
70.3126046906
 20
60.7481218332
  0
LWPOLYLINE
  5
3A2
100
AcDbEntity
  8
0
100
AcDbPolyline
 62
2
  6
CONTINUOUS
 90
2
 70
0
 43
0.06
 10
68.8126046906
 20
64.4981218332
 10
68.8126046906
 20
60.7481218332
  0
MTEXT
  5
3A3
100
AcDbEntity
  8
0
100
AcDbMText
 62
2
  6
CONTINUOUS
  7
STANDARD
 71
2
 72
1
 10
83.9063546906
 20
64.2637468332
 30
0.0
 11
1.0
 21
0.0
 31
0.0
 44
0.9
  1
REVISIONS
 40
0.46875
 41
4.7544642857
  0
MTEXT
  5
3A4
100
AcDbEntity
  8
0
100
AcDbMText
 62
2
  6
CONTINUOUS
  7
STANDARD
 71
2
 72
1
 10
97.8751046906
 20
63.3258718332
 30
0.0
 11
1.0
 21
0.0
 31
0.0
 44
0.9
  1
ISSUED
 40
0.468
 41
3.2425714286
  0
MTEXT
  5
3A5
100
AcDbEntity
  8
0
100
AcDbMText
 62
2
  6
CONTINUOUS
  7
STANDARD
 71
2
 72
1
 10
95.0626046906
 20
63.3258718332
 30
0.0
 11
1.0
 21
0.0
 31
0.0
 44
0.9
  1
EFF DATE
 40
0.468
 41
4.3958571429
  0
MTEXT
  5
3A6
100
AcDbEntity
  8
0
100
AcDbMText
 62
2
  6
CONTINUOUS
  7
STANDARD
 71
2
 72
1
 10
92.6251046906
 20
63.3262468332
 30
0.0
 11
1.0
 21
0.0
 31
0.0
 44
0.9
  1
BY
 40
0.46875
 41
1.1551339286
  0
MTEXT
  5
3A7
100
AcDbEntity
  8
0
100
AcDbMText
 62
2
  6
CONTINUOUS
  7
STANDARD
 71
2
 72
1
 10
82.3126046906
 20
63.3258718332
 30
0.0
 11
1.0
 21
0.0
 31
0.0
 44
0.9
  1
DESCRIPTION
 40
0.468
 41
5.9837142857
  0
MTEXT
  5
3A8
100
AcDbEntity
  8
0
100
AcDbMText
 62
2
  6
CONTINUOUS
  7
STANDARD
 71
2
 72
1
 10
71.5313546906
 20
63.3262468332
 30
0.0
 11
1.0
 21
0.0
 31
0.0
 44
0.9
  1
ECO
 40
0.46875
 41
1.640625
  0
MTEXT
  5
3A9
100
AcDbEntity
  8
0
100
AcDbMText
 62
2
  6
CONTINUOUS
  7
STANDARD
 71
2
 72
1
 10
69.5626046906
 20
63.3258718332
 30
0.0
 11
1.0
 21
0.0
 31
0.0
 44
0.9
  1
REV
 40
0.468
 41
1.638
  0
MTEXT
  5
3AA
100
AcDbEntity
  8
0
100
AcDbMText
 62
2
  6
CONTINUOUS
  7
STANDARD
 71
2
 72
1
 10
97.8751046906
 20
62.3887468332
 30
0.0
 11
1.0
 21
0.0
 31
0.0
 44
0.9
  1
DD
 40
0.46875
 41
1.40625
  0
MTEXT
  5
3AB
100
AcDbEntity
  8
0
100
AcDbMText
 62
2
  6
CONTINUOUS
  7
STANDARD
 71
2
 72
1
 10
95.0626046906
 20
62.3887468332
 30
0.0
 11
1.0
 21
0.0
 31
0.0
 44
0.9
  1
14-AUG-12
 40
0.46875
 41
4.7544642857
  0
MTEXT
  5
3AC
100
AcDbEntity
  8
0
100
AcDbMText
 62
2
  6
CONTINUOUS
  7
STANDARD
 71
2
 72
1
 10
92.6251046906
 20
62.3887468332
 30
0.0
 11
1.0
 21
0.0
 31
0.0
 44
0.9
  1
VU
 40
0.46875
 41
1.2723214286
  0
MTEXT
  5
3AD
100
AcDbEntity
  8
0
100
AcDbMText
 62
2
  6
CONTINUOUS
  7
STANDARD
 71
1
 72
1
 10
72.9376046906
 20
62.3887468332
 30
0.0
 11
1.0
 21
0.0
 31
0.0
 44
0.9
  1
RELEASE FOR MARKETING DATA
 40
0.46875
 41
14.4810267857
  0
MTEXT
  5
3AE
100
AcDbEntity
  8
0
100
AcDbMText
 62
2
  6
CONTINUOUS
  7
STANDARD
 71
2
 72
1
 10
71.5313546906
 20
62.3887468332
 30
0.0
 11
1.0
 21
0.0
 31
0.0
 44
0.9
  1
-
 40
0.46875
 41
0.6361607143
  0
MTEXT
  5
3AF
100
AcDbEntity
  8
0
100
AcDbMText
 62
2
  6
CONTINUOUS
  7
STANDARD
 71
2
 72
1
 10
69.5626046906
 20
62.3887468332
 30
0.0
 11
1.0
 21
0.0
 31
0.0
 44
0.9
  1
A
 40
0.46875
 41
0.7366071429
  0
MTEXT
  5
3B0
100
AcDbEntity
  8
0
100
AcDbMText
 62
2
  6
CONTINUOUS
  7
STANDARD
 71
2
 72
1
 10
97.8751046906
 20
61.4512468332
 30
0.0
 11
1.0
 21
0.0
 31
0.0
 44
0.9
  1
DD
 40
0.46875
 41
1.40625
  0
MTEXT
  5
3B1
100
AcDbEntity
  8
0
100
AcDbMText
 62
2
  6
CONTINUOUS
  7
STANDARD
 71
2
 72
1
 10
95.0626046906
 20
61.4512468332
 30
0.0
 11
1.0
 21
0.0
 31
0.0
 44
0.9
  1
16-SEP-13
 40
0.46875
 41
4.6037946429
  0
MTEXT
  5
3B2
100
AcDbEntity
  8
0
100
AcDbMText
 62
2
  6
CONTINUOUS
  7
STANDARD
 71
2
 72
1
 10
92.6251046906
 20
61.4512468332
 30
0.0
 11
1.0
 21
0.0
 31
0.0
 44
0.9
  1
VU
 40
0.46875
 41
1.2723214286
  0
MTEXT
  5
3B3
100
AcDbEntity
  8
0
100
AcDbMText
 62
2
  6
CONTINUOUS
  7
STANDARD
 71
1
 72
1
 10
72.9376046906
 20
61.4512468332
 30
0.0
 11
1.0
 21
0.0
 31
0.0
 44
0.9
  1
ADD MOUNTING INFORMATION
 40
0.46875
 41
13.5100446429
  0
MTEXT
  5
3B4
100
AcDbEntity
  8
0
100
AcDbMText
 62
2
  6
CONTINUOUS
  7
STANDARD
 71
2
 72
1
 10
71.5313546906
 20
61.4512468332
 30
0.0
 11
1.0
 21
0.0
 31
0.0
 44
0.9
  1
13080
 40
0.46875
 41
2.6953125
  0
MTEXT
  5
3B5
100
AcDbEntity
  8
0
100
AcDbMText
 62
2
  6
CONTINUOUS
  7
STANDARD
 71
2
 72
1
 10
69.5626046906
 20
61.4512468332
 30
0.0
 11
1.0
 21
0.0
 31
0.0
 44
0.9
  1
B
 40
0.46875
 41
0.6863839286
  0
LINE
  5
3B6
100
AcDbEntity
  8
0
100
AcDbLine
 62
2
  6
CONTINUOUS
 10
69.375
 20
5.25
 11
76.125
 21
5.25
  0
LINE
  5
3B7
100
AcDbEntity
  8
0
100
AcDbLine
 62
2
  6
CONTINUOUS
 10
69.375
 20
5.25
 11
69.375
 21
3.375
  0
LINE
  5
3B8
100
AcDbEntity
  8
0
100
AcDbLine
 62
2
  6
CONTINUOUS
 10
69.375
 20
3.375
 11
76.125
 21
3.375
  0
LINE
  5
3B9
100
AcDbEntity
  8
0
100
AcDbLine
 62
2
  6
CONTINUOUS
 10
76.125
 20
5.25
 11
76.125
 21
3.375
  0
LINE
  5
3BA
100
AcDbEntity
  8
0
100
AcDbLine
 62
2
  6
CONTINUOUS
 10
69.375
 20
3.375
 11
76.125
 21
3.375
  0
LINE
  5
3BB
100
AcDbEntity
  8
0
100
AcDbLine
 62
2
  6
CONTINUOUS
 10
69.375
 20
3.375
 11
69.375
 21
1.5
  0
LINE
  5
3BC
100
AcDbEntity
  8
0
100
AcDbLine
 62
2
  6
CONTINUOUS
 10
69.375
 20
1.5
 11
76.125
 21
1.5
  0
LINE
  5
3BD
100
AcDbEntity
  8
0
100
AcDbLine
 62
2
  6
CONTINUOUS
 10
76.125
 20
3.375
 11
76.125
 21
1.5
  0
LINE
  5
3BE
100
AcDbEntity
  8
0
100
AcDbLine
 62
2
  6
CONTINUOUS
 10
76.125
 20
8.25
 11
81.375
 21
8.25
  0
LINE
  5
3BF
100
AcDbEntity
  8
0
100
AcDbLine
 62
2
  6
CONTINUOUS
 10
76.125
 20
8.25
 11
76.125
 21
6.9609375
  0
LINE
  5
3C0
100
AcDbEntity
  8
0
100
AcDbLine
 62
2
  6
CONTINUOUS
 10
76.125
 20
6.9609375
 11
81.375
 21
6.9609375
  0
LINE
  5
3C1
100
AcDbEntity
  8
0
100
AcDbLine
 62
2
  6
CONTINUOUS
 10
81.375
 20
8.25
 11
81.375
 21
6.9609375
  0
MTEXT
  5
3C2
100
AcDbEntity
  8
0
100
AcDbMText
 62
2
  6
CONTINUOUS
  7
STANDARD
 71
1
 72
1
 10
76.3125
 20
7.6640625
 30
0.0
 11
1.0
 21
0.0
 31
0.0
 44
0.9
  1
V. VU 
 40
0.46875
 41
3.2310267857
  0
LINE
  5
3C3
100
AcDbEntity
  8
0
100
AcDbLine
 62
2
  6
CONTINUOUS
 10
76.125
 20
6.9375
 11
81.375
 21
6.9375
  0
LINE
  5
3C4
100
AcDbEntity
  8
0
100
AcDbLine
 62
2
  6
CONTINUOUS
 10
76.125
 20
6.9375
 11
76.125
 21
5.6175
  0
LINE
  5
3C5
100
AcDbEntity
  8
0
100
AcDbLine
 62
2
  6
CONTINUOUS
 10
76.125
 20
5.6175
 11
81.375
 21
5.6175
  0
LINE
  5
3C6
100
AcDbEntity
  8
0
100
AcDbLine
 62
2
  6
CONTINUOUS
 10
81.375
 20
6.9375
 11
81.375
 21
5.6175
  0
MTEXT
  5
3C7
100
AcDbEntity
  8
0
100
AcDbMText
 62
2
  6
CONTINUOUS
  7
STANDARD
 71
1
 72
1
 10
76.3125
 20
6.320625
 30
0.0
 11
1.0
 21
0.0
 31
0.0
 44
0.9
  1
B. HAWKINS 
 40
0.46875
 41
6.2779017857
  0
LINE
  5
3C8
100
AcDbEntity
  8
0
100
AcDbLine
 62
2
  6
CONTINUOUS
 10
76.125
 20
5.625
 11
81.375
 21
5.625
  0
LINE
  5
3C9
100
AcDbEntity
  8
0
100
AcDbLine
 62
2
  6
CONTINUOUS
 10
76.125
 20
5.625
 11
76.125
 21
4.3359375
  0
LINE
  5
3CA
100
AcDbEntity
  8
0
100
AcDbLine
 62
2
  6
CONTINUOUS
 10
76.125
 20
4.3359375
 11
81.375
 21
4.3359375
  0
LINE
  5
3CB
100
AcDbEntity
  8
0
100
AcDbLine
 62
2
  6
CONTINUOUS
 10
81.375
 20
5.625
 11
81.375
 21
4.3359375
  0
MTEXT
  5
3CC
100
AcDbEntity
  8
0
100
AcDbMText
 62
2
  6
CONTINUOUS
  7
STANDARD
 71
1
 72
1
 10
76.3125
 20
5.0390625
 30
0.0
 11
1.0
 21
0.0
 31
0.0
 44
0.9
  1
N/A
 40
0.46875
 41
1.6908482143
  0
LINE
  5
3CD
100
AcDbEntity
  8
0
100
AcDbLine
 62
2
  6
CONTINUOUS
 10
76.125
 20
4.3125
 11
81.375
 21
4.3125
  0
LINE
  5
3CE
100
AcDbEntity
  8
0
100
AcDbLine
 62
2
  6
CONTINUOUS
 10
76.125
 20
4.3125
 11
76.125
 21
2.9925
  0
LINE
  5
3CF
100
AcDbEntity
  8
0
100
AcDbLine
 62
2
  6
CONTINUOUS
 10
76.125
 20
2.9925
 11
81.375
 21
2.9925
  0
LINE
  5
3D0
100
AcDbEntity
  8
0
100
AcDbLine
 62
2
  6
CONTINUOUS
 10
81.375
 20
4.3125
 11
81.375
 21
2.9925
  0
MTEXT
  5
3D1
100
AcDbEntity
  8
0
100
AcDbMText
 62
2
  6
CONTINUOUS
  7
STANDARD
 71
1
 72
1
 10
76.3125
 20
3.695625
 30
0.0
 11
1.0
 21
0.0
 31
0.0
 44
0.9
  1
N/A
 40
0.46875
 41
1.6908482143
  0
LINE
  5
3D2
100
AcDbEntity
  8
0
100
AcDbLine
 62
2
  6
CONTINUOUS
 10
81.375
 20
8.25
 11
84.0
 21
8.25
  0
LINE
  5
3D3
100
AcDbEntity
  8
0
100
AcDbLine
 62
2
  6
CONTINUOUS
 10
81.375
 20
8.25
 11
81.375
 21
6.93
  0
LINE
  5
3D4
100
AcDbEntity
  8
0
100
AcDbLine
 62
2
  6
CONTINUOUS
 10
81.375
 20
6.93
 11
84.0
 21
6.93
  0
LINE
  5
3D5
100
AcDbEntity
  8
0
100
AcDbLine
 62
2
  6
CONTINUOUS
 10
84.0
 20
8.25
 11
84.0
 21
6.93
  0
MTEXT
  5
3D6
100
AcDbEntity
  8
0
100
AcDbMText
 62
2
  6
CONTINUOUS
  7
STANDARD
 71
2
 72
1
 10
82.6875
 20
7.524375
 30
0.0
 11
1.0
 21
0.0
 31
0.0
 44
0.9
  1
06-AUG-12
 40
0.36
 41
3.6642857143
  0
LINE
  5
3D7
100
AcDbEntity
  8
0
100
AcDbLine
 62
2
  6
CONTINUOUS
 10
81.375
 20
6.9375
 11
84.0
 21
6.9375
  0
LINE
  5
3D8
100
AcDbEntity
  8
0
100
AcDbLine
 62
2
  6
CONTINUOUS
 10
81.375
 20
6.9375
 11
81.375
 21
5.6175
  0
LINE
  5
3D9
100
AcDbEntity
  8
0
100
AcDbLine
 62
2
  6
CONTINUOUS
 10
81.375
 20
5.6175
 11
84.0
 21
5.6175
  0
LINE
  5
3DA
100
AcDbEntity
  8
0
100
AcDbLine
 62
2
  6
CONTINUOUS
 10
84.0
 20
6.9375
 11
84.0
 21
5.6175
  0
MTEXT
  5
3DB
100
AcDbEntity
  8
0
100
AcDbMText
 62
2
  6
CONTINUOUS
  7
STANDARD
 71
2
 72
1
 10
82.6875
 20
6.211875
 30
0.0
 11
1.0
 21
0.0
 31
0.0
 44
0.9
  1
14-AUG-12
 40
0.36
 41
3.5485714286
  0
LINE
  5
3DC
100
AcDbEntity
  8
0
100
AcDbLine
 62
2
  6
CONTINUOUS
 10
81.375
 20
5.625
 11
84.0
 21
5.625
  0
LINE
  5
3DD
100
AcDbEntity
  8
0
100
AcDbLine
 62
2
  6
CONTINUOUS
 10
81.375
 20
5.625
 11
81.375
 21
4.305
  0
LINE
  5
3DE
100
AcDbEntity
  8
0
100
AcDbLine
 62
2
  6
CONTINUOUS
 10
81.375
 20
4.305
 11
84.0
 21
4.305
  0
LINE
  5
3DF
100
AcDbEntity
  8
0
100
AcDbLine
 62
2
  6
CONTINUOUS
 10
84.0
 20
5.625
 11
84.0
 21
4.305
  0
LINE
  5
3E0
100
AcDbEntity
  8
0
100
AcDbLine
 62
2
  6
CONTINUOUS
 10
81.375
 20
4.3125
 11
84.0
 21
4.3125
  0
LINE
  5
3E1
100
AcDbEntity
  8
0
100
AcDbLine
 62
2
  6
CONTINUOUS
 10
81.375
 20
4.3125
 11
81.375
 21
3.0234375
  0
LINE
  5
3E2
100
AcDbEntity
  8
0
100
AcDbLine
 62
2
  6
CONTINUOUS
 10
81.375
 20
3.0234375
 11
84.0
 21
3.0234375
  0
LINE
  5
3E3
100
AcDbEntity
  8
0
100
AcDbLine
 62
2
  6
CONTINUOUS
 10
84.0
 20
4.3125
 11
84.0
 21
3.0234375
  0
LINE
  5
3E4
100
AcDbEntity
  8
0
100
AcDbLine
 62
2
  6
CONTINUOUS
 10
76.125
 20
3.0
 11
84.0
 21
3.0
  0
LINE
  5
3E5
100
AcDbEntity
  8
0
100
AcDbLine
 62
2
  6
CONTINUOUS
 10
76.125
 20
3.0
 11
76.125
 21
2.25
  0
LINE
  5
3E6
100
AcDbEntity
  8
0
100
AcDbLine
 62
2
  6
CONTINUOUS
 10
76.125
 20
2.25
 11
84.0
 21
2.25
  0
LINE
  5
3E7
100
AcDbEntity
  8
0
100
AcDbLine
 62
2
  6
CONTINUOUS
 10
84.0
 20
3.0
 11
84.0
 21
2.25
  0
MTEXT
  5
3E8
100
AcDbEntity
  8
0
100
AcDbMText
 62
2
  6
CONTINUOUS
  7
STANDARD
 71
3
 72
1
 10
83.8125
 20
2.814375
 30
0.0
 11
1.0
 21
0.0
 31
0.0
 44
0.9
  1
FG-001020-2D.B.1
 40
0.33
 41
5.7514285714
  0
LINE
  5
3E9
100
AcDbEntity
  8
0
100
AcDbLine
 62
2
  6
CONTINUOUS
 10
76.125
 20
2.25
 11
84.0
 21
2.25
  0
LINE
  5
3EA
100
AcDbEntity
  8
0
100
AcDbLine
 62
2
  6
CONTINUOUS
 10
76.125
 20
2.25
 11
76.125
 21
1.5
  0
LINE
  5
3EB
100
AcDbEntity
  8
0
100
AcDbLine
 62
2
  6
CONTINUOUS
 10
76.125
 20
1.5
 11
84.0
 21
1.5
  0
LINE
  5
3EC
100
AcDbEntity
  8
0
100
AcDbLine
 62
2
  6
CONTINUOUS
 10
84.0
 20
2.25
 11
84.0
 21
1.5
  0
MTEXT
  5
3ED
100
AcDbEntity
  8
0
100
AcDbMText
 62
2
  6
CONTINUOUS
  7
STANDARD
 71
3
 72
1
 10
83.8125
 20
2.064375
 30
0.0
 11
1.0
 21
0.0
 31
0.0
 44
0.9
  1
FG-001020-3D.B.0
 40
0.33
 41
5.8221428571
  0
LINE
  5
3EE
100
AcDbEntity
  8
0
100
AcDbLine
 62
2
  6
CONTINUOUS
 10
84.0
 20
7.125
 11
99.0
 21
7.125
  0
LINE
  5
3EF
100
AcDbEntity
  8
0
100
AcDbLine
 62
2
  6
CONTINUOUS
 10
84.0
 20
7.125
 11
84.0
 21
3.75
  0
LINE
  5
3F0
100
AcDbEntity
  8
0
100
AcDbLine
 62
2
  6
CONTINUOUS
 10
84.0
 20
3.75
 11
99.0
 21
3.75
  0
LINE
  5
3F1
100
AcDbEntity
  8
0
100
AcDbLine
 62
2
  6
CONTINUOUS
 10
99.0
 20
7.125
 11
99.0
 21
3.75
  0
MTEXT
  5
3F2
100
AcDbEntity
  8
0
100
AcDbMText
 62
2
  6
CONTINUOUS
  7
STANDARD
 71
2
 72
1
 10
91.5
 20
6.7575
 30
0.0
 11
1.0
 21
0.0
 31
0.0
 44
1.02
  1
SPEAKER, FINISHED, SR-1020\P \P 
 40
0.6
 41
17.4
  0
LINE
  5
3F3
100
AcDbEntity
  8
0
100
AcDbLine
 62
2
  6
CONTINUOUS
 10
84.0032769088
 20
3.7438214025
 11
85.5032769088
 21
3.7438214025
  0
LINE
  5
3F4
100
AcDbEntity
  8
0
100
AcDbLine
 62
2
  6
CONTINUOUS
 10
84.0032769088
 20
3.7438214025
 11
84.0032769088
 21
2.2438214025
  0
LINE
  5
3F5
100
AcDbEntity
  8
0
100
AcDbLine
 62
2
  6
CONTINUOUS
 10
84.0032769088
 20
2.2438214025
 11
85.5032769088
 21
2.2438214025
  0
LINE
  5
3F6
100
AcDbEntity
  8
0
100
AcDbLine
 62
2
  6
CONTINUOUS
 10
85.5032769088
 20
3.7438214025
 11
85.5032769088
 21
2.2438214025
  0
MTEXT
  5
3F7
100
AcDbEntity
  8
0
100
AcDbMText
 62
2
  6
CONTINUOUS
  7
STANDARD
 71
2
 72
1
 10
84.7532769088
 20
3.0781964025
 30
0.0
 11
1.0
 21
0.0
 31
0.0
 44
0.9
  1
D
 40
0.6
 41
0.8142857143
  0
LINE
  5
3F8
100
AcDbEntity
  8
0
100
AcDbLine
 62
2
  6
CONTINUOUS
 10
88.5015524928
 20
3.7349237674
 11
97.5015524928
 21
3.7349237674
  0
LINE
  5
3F9
100
AcDbEntity
  8
0
100
AcDbLine
 62
2
  6
CONTINUOUS
 10
88.5015524928
 20
3.7349237674
 11
88.5015524928
 21
2.2349237674
  0
LINE
  5
3FA
100
AcDbEntity
  8
0
100
AcDbLine
 62
2
  6
CONTINUOUS
 10
88.5015524928
 20
2.2349237674
 11
97.5015524928
 21
2.2349237674
  0
LINE
  5
3FB
100
AcDbEntity
  8
0
100
AcDbLine
 62
2
  6
CONTINUOUS
 10
97.5015524928
 20
3.7349237674
 11
97.5015524928
 21
2.2349237674
  0
MTEXT
  5
3FC
100
AcDbEntity
  8
0
100
AcDbMText
 62
2
  6
CONTINUOUS
  7
STANDARD
 71
2
 72
1
 10
93.0015524928
 20
3.1592987674
 30
0.0
 11
1.0
 21
0.0
 31
0.0
 44
0.9
  1
FG-001020-2D
 40
0.69
 41
9.4382142857
  0
LINE
  5
3FD
100
AcDbEntity
  8
0
100
AcDbLine
 62
2
  6
CONTINUOUS
 10
97.4960996888
 20
3.7448634679
 11
98.9960996888
 21
3.7448634679
  0
LINE
  5
3FE
100
AcDbEntity
  8
0
100
AcDbLine
 62
2
  6
CONTINUOUS
 10
97.4960996888
 20
3.7448634679
 11
97.4960996888
 21
2.2448634679
  0
LINE
  5
3FF
100
AcDbEntity
  8
0
100
AcDbLine
 62
2
  6
CONTINUOUS
 10
97.4960996888
 20
2.2448634679
 11
98.9960996888
 21
2.2448634679
  0
LINE
  5
400
100
AcDbEntity
  8
0
100
AcDbLine
 62
2
  6
CONTINUOUS
 10
98.9960996888
 20
3.7448634679
 11
98.9960996888
 21
2.2448634679
  0
MTEXT
  5
401
100
AcDbEntity
  8
0
100
AcDbMText
 62
2
  6
CONTINUOUS
  7
STANDARD
 71
2
 72
1
 10
98.2460996888
 20
3.0192384679
 30
0.0
 11
1.0
 21
0.0
 31
0.0
 44
0.9
  1
B
 40
0.54
 41
0.6364285714
  0
LINE
  5
402
100
AcDbEntity
  8
0
100
AcDbLine
 62
2
  6
CONTINUOUS
 10
94.1268618581
 20
2.2287866509
 11
99.0018618581
 21
2.2287866509
  0
LINE
  5
403
100
AcDbEntity
  8
0
100
AcDbLine
 62
2
  6
CONTINUOUS
 10
94.1268618581
 20
2.2287866509
 11
94.1268618581
 21
1.4787866509
  0
LINE
  5
404
100
AcDbEntity
  8
0
100
AcDbLine
 62
2
  6
CONTINUOUS
 10
94.1268618581
 20
1.4787866509
 11
99.0018618581
 21
1.4787866509
  0
LINE
  5
405
100
AcDbEntity
  8
0
100
AcDbLine
 62
2
  6
CONTINUOUS
 10
99.0018618581
 20
2.2287866509
 11
99.0018618581
 21
1.4787866509
  0
MTEXT
  5
406
100
AcDbEntity
  8
0
100
AcDbMText
 62
2
  6
CONTINUOUS
  7
STANDARD
 71
3
 72
1
 10
98.8143618581
 20
2.1331616509
 30
0.0
 11
1.0
 21
0.0
 31
0.0
 44
0.9
  1
1 OF 1
 40
0.42
 41
2.655
  0
LINE
  5
407
100
AcDbEntity
  8
0
100
AcDbLine
 62
2
  6
CONTINUOUS
 10
83.9947794363
 20
2.2464696507
 11
87.5587794363
 21
2.2464696507
  0
LINE
  5
408
100
AcDbEntity
  8
0
100
AcDbLine
 62
2
  6
CONTINUOUS
 10
83.9947794363
 20
2.2464696507
 11
83.9947794363
 21
1.4847509007
  0
LINE
  5
409
100
AcDbEntity
  8
0
100
AcDbLine
 62
2
  6
CONTINUOUS
 10
83.9947794363
 20
1.4847509007
 11
87.5587794363
 21
1.4847509007
  0
LINE
  5
40A
100
AcDbEntity
  8
0
100
AcDbLine
 62
2
  6
CONTINUOUS
 10
87.5587794363
 20
2.2464696507
 11
87.5587794363
 21
1.4847509007
  0
MTEXT
  5
40B
100
AcDbEntity
  8
0
100
AcDbMText
 62
2
  6
CONTINUOUS
  7
STANDARD
 71
3
 72
1
 10
87.3712794363
 20
2.0791259007
 30
0.0
 11
1.0
 21
0.0
 31
0.0
 44
0.9
  1
0.333
 40
0.36
 41
1.89
  0
MTEXT
  5
40C
100
AcDbEntity
  8
0
100
AcDbMText
 62
2
  6
CONTINUOUS
  7
STANDARD
 71
1
 72
1
 10
3.0314758339
 20
7.4248899474
 30
0.0
 11
1.0
 21
0.0
 31
0.0
 44
1.2
  3
5. PARTS ARE SYMMETRICAL ABOUT CENTER LINES UNLESS OTHERWISE NOTED.\P4. SYMBOL    INDICATES CENTER OF BALANCE.\P3. SYMBOL \Fgdt;{\Fgdt;r}\Ftxt; INDICATES SUSPENSION POINT OF 5/16-18 THREAD, 2 PLACES. \P2. TOLERANCES ARE IN INCHES: .X \Fgdt;{\Fgdt;`}\
  1
Ftxt; .13, ANGLES: \Fgdt;{\Fgdt;`}\Ftxt; 1\Fgdt;{\Fgdt;~}\Ftxt;.\P1. NET WEIGHT APPROX. 27.3 LBS (12.4 KG)\PNOTE:  UNLESS OTHERWISE SPECIFIED
 40
0.46875
 41
37.1651785714
  0
LEADER
  5
40D
100
AcDbEntity
  8
0
100
AcDbLeader
 62
2
  6
CONTINUOUS
  3
STANDARD
 71
1
 72
0
 73
0
 75
0
 40
0.46875
 41
12.7120535714
 76
3
 10
20.3929587966
 20
53.3289734032
 30
0.0
 10
23.2652993888
 20
57.2729216616
 30
0.0
 10
24.0152993888
 20
57.2729216616
 30
0.0
340
40E
1001
ACAD
1000
DSTYLE
1002
{
1070
77
1070
0
1002
}
  0
MTEXT
  5
40E
102
{ACAD_REACTORS
330
40D
102
}
100
AcDbEntity
  8
0
100
AcDbMText
 62
2
  6
CONTINUOUS
  7
STANDARD
 71
1
 72
1
 10
24.0152993888
 20
57.5072966616
 30
0.0
 11
1.0
 21
0.0
 31
0.0
 44
0.9
  1
REMOVE BRACKET FOR CUSTOM MOUNTING
 40
0.46875
 41
19.0680803571
  0
LEADER
  5
40F
100
AcDbEntity
  8
0
100
AcDbLeader
 62
2
  6
CONTINUOUS
  3
STANDARD
 71
1
 72
0
 73
0
 75
0
 40
0.46875
 41
4.8325892857
 76
3
 10
46.0418934294
 20
26.9420930176
 30
0.0
 10
51.1260970751
 20
22.4560077468
 30
0.0
 10
51.8760970751
 20
22.4560077468
 30
0.0
340
410
1001
ACAD
1000
DSTYLE
1002
{
1070
77
1070
0
1002
}
  0
MTEXT
  5
410
102
{ACAD_REACTORS
330
40F
102
}
100
AcDbEntity
  8
0
100
AcDbMText
 62
2
  6
CONTINUOUS
  7
STANDARD
 71
1
 72
1
 10
51.8760970751
 20
22.6903827468
 30
0.0
 11
1.0
 21
0.0
 31
0.0
 44
0.9
  1
SIDE MOUNTING\PUSES 5/16-18 FASTENER
 40
0.46875
 41
11.0825892857
  0
LEADER
  5
411
100
AcDbEntity
  8
0
100
AcDbLeader
 62
2
  6
CONTINUOUS
  3
STANDARD
 71
1
 72
0
 73
0
 75
0
 40
0.46875
 41
4.9330357143
 76
3
 10
74.5792288971
 20
26.3861842228
 30
0.0
 10
81.7667877416
 20
22.2434822295
 30
0.0
 10
82.5167877416
 20
22.2434822295
 30
0.0
340
412
1001
ACAD
1000
DSTYLE
1002
{
1070
77
1070
0
1002
}
  0
MTEXT
  5
412
102
{ACAD_REACTORS
330
411
102
}
100
AcDbEntity
  8
0
100
AcDbMText
 62
2
  6
CONTINUOUS
  7
STANDARD
 71
1
 72
1
 10
82.5167877416
 20
22.4778572295
 30
0.0
 11
1.0
 21
0.0
 31
0.0
 44
0.9
  1
BACK MOUNTING\PUSES M5 FASTENER
 40
0.46875
 41
8.7388392857
  0
INSERT
  5
413
100
AcDbEntity
  8
0
100
AcDbBlockReference
 62
2
  6
CONTINUOUS
  2
CG_3D_BL1
 10
6.9975450281
 20
6.2323746141
  0
INSERT
  5
414
100
AcDbEntity
  8
0
100
AcDbBlockReference
 62
2
  6
CONTINUOUS
  2
CG_3D_BL2
 10
18.4819693394
 20
26.055457046
  0
INSERT
  5
415
100
AcDbEntity
  8
0
100
AcDbBlockReference
 62
2
  6
CONTINUOUS
  2
CG_3D_BL3
 10
45.7105608195
 20
26.0529776683
  0
LINE
  5
416
100
AcDbEntity
  8
DEFAULT_3
100
AcDbLine
 62
7
  6
PHANTOM
 10
0.0
 20
-0.0
 11
0.0
 21
66.0
  0
LWPOLYLINE
  5
417
100
AcDbEntity
  8
0
100
AcDbPolyline
 62
7
  6
CONTINUOUS
 90
2
 70
0
 43
0.0600000025
 10
0.7873881664
 20
32.494035332
 10
0.7873881664
 20
33.505964668
  0
LWPOLYLINE
  5
418
100
AcDbEntity
  8
0
100
AcDbPolyline
 62
7
  6
CONTINUOUS
 90
2
 70
0
 43
0.0900000007
 10
1.5
 20
64.5
 10
1.5
 20
1.5
  0
LWPOLYLINE
  5
419
100
AcDbEntity
  8
0
100
AcDbPolyline
 62
7
  6
CONTINUOUS
 90
2
 70
0
 43
0.0900000007
 10
10.6875
 20
64.5
 10
10.6875
 20
63.0
  0
LWPOLYLINE
  5
41A
100
AcDbEntity
  8
0
100
AcDbPolyline
 62
7
  6
CONTINUOUS
 90
2
 70
0
 43
0.0600000025
 10
13.6875
 20
1.5
 10
13.6875
 20
-0.0
  0
LWPOLYLINE
  5
41B
100
AcDbEntity
  8
0
100
AcDbPolyline
 62
7
  6
CONTINUOUS
 90
2
 70
0
 43
0.0600000025
 10
13.6875
 20
64.5
 10
13.6875
 20
66.0
  0
LINE
  5
41C
100
AcDbEntity
  8
0
100
AcDbLine
 62
7
  6
CONTINUOUS
 10
69.3735093036
 20
1.5009171649
 11
76.1247296715
 21
3.3743232379
  0
LINE
  5
41D
100
AcDbEntity
  8
0
100
AcDbLine
 62
7
  6
CONTINUOUS
 10
69.3753431982
 20
3.375225513
 11
76.1240711423
 21
5.2510213125
  0
LINE
  5
41E
100
AcDbEntity
  8
DEFAULT_3
100
AcDbLine
 62
7
  6
PHANTOM
 10
0.0
 20
-0.0
 11
102.0
 21
-0.0
  0
LWPOLYLINE
  5
41F
100
AcDbEntity
  8
0
100
AcDbPolyline
 62
7
  6
CONTINUOUS
 90
2
 70
0
 43
0.0600000025
 10
49.744035332
 20
0.7873881664
 10
50.755964668
 20
0.7873881664
  0
LWPOLYLINE
  5
420
100
AcDbEntity
  8
0
100
AcDbPolyline
 62
7
  6
CONTINUOUS
 90
2
 70
0
 43
0.0600000025
 10
1.5
 20
33.0
 10
0.7873881664
 20
32.494035332
  0
LWPOLYLINE
  5
421
100
AcDbEntity
  8
0
100
AcDbPolyline
 62
7
  6
CONTINUOUS
 90
2
 70
0
 43
0.0900000007
 10
1.5
 20
1.5
 10
99.0
 20
1.5
  0
LWPOLYLINE
  5
422
100
AcDbEntity
  8
0
100
AcDbPolyline
 62
7
  6
CONTINUOUS
 90
2
 70
0
 43
0.0600000025
 10
76.125
 20
2.25
 10
99.0
 20
2.25
  0
LWPOLYLINE
  5
423
100
AcDbEntity
  8
0
100
AcDbPolyline
 62
7
  6
CONTINUOUS
 90
2
 70
0
 43
0.0600000025
 10
76.125
 20
3.0
 10
84.0
 20
3.0
  0
LWPOLYLINE
  5
424
100
AcDbEntity
  8
0
100
AcDbPolyline
 62
7
  6
CONTINUOUS
 90
2
 70
0
 43
0.0600000025
 10
76.125
 20
3.375
 10
69.375
 20
3.375
  0
LWPOLYLINE
  5
425
100
AcDbEntity
  8
0
100
AcDbPolyline
 62
7
  6
CONTINUOUS
 90
2
 70
0
 43
0.0600000025
 10
84.0
 20
3.75
 10
99.0
 20
3.75
  0
LWPOLYLINE
  5
426
100
AcDbEntity
  8
0
100
AcDbPolyline
 62
7
  6
CONTINUOUS
 90
2
 70
0
 43
0.0600000025
 10
76.125
 20
4.3125
 10
84.0
 20
4.3125
  0
LWPOLYLINE
  5
427
100
AcDbEntity
  8
0
100
AcDbPolyline
 62
7
  6
CONTINUOUS
 90
2
 70
0
 43
0.0600000025
 10
1.5
 20
33.0
 10
0.7873881664
 20
33.505964668
  0
LWPOLYLINE
  5
428
100
AcDbEntity
  8
0
100
AcDbPolyline
 62
7
  6
CONTINUOUS
 90
2
 70
0
 43
0.0600000025
 10
25.875
 20
1.5
 10
25.875
 20
-0.0
  0
LWPOLYLINE
  5
429
100
AcDbEntity
  8
0
100
AcDbPolyline
 62
7
  6
CONTINUOUS
 90
2
 70
0
 43
0.0600000025
 10
25.875
 20
64.5
 10
25.875
 20
66.0
  0
LWPOLYLINE
  5
42A
100
AcDbEntity
  8
0
100
AcDbPolyline
 62
7
  6
CONTINUOUS
 90
2
 70
0
 43
0.0600000025
 10
69.375
 20
5.25
 10
76.125
 20
5.25
  0
LWPOLYLINE
  5
42B
100
AcDbEntity
  8
0
100
AcDbPolyline
 62
7
  6
CONTINUOUS
 90
2
 70
0
 43
0.0600000025
 10
76.125
 20
5.625
 10
84.0
 20
5.625
  0
LWPOLYLINE
  5
42C
100
AcDbEntity
  8
0
100
AcDbPolyline
 62
7
  6
CONTINUOUS
 90
2
 70
0
 43
0.0600000025
 10
76.125
 20
6.9375
 10
84.0
 20
6.9375
  0
LWPOLYLINE
  5
42D
100
AcDbEntity
  8
0
100
AcDbPolyline
 62
7
  6
CONTINUOUS
 90
2
 70
0
 43
0.0600000025
 10
84.0
 20
7.125
 10
99.0
 20
7.125
  0
LWPOLYLINE
  5
42E
100
AcDbEntity
  8
0
100
AcDbPolyline
 62
7
  6
CONTINUOUS
 90
2
 70
0
 43
0.0600000025
 10
76.125
 20
8.25
 10
84.0
 20
8.25
  0
LWPOLYLINE
  5
42F
100
AcDbEntity
  8
0
100
AcDbPolyline
 62
7
  6
CONTINUOUS
 90
2
 70
0
 43
0.0600000025
 10
69.375
 20
9.1875
 10
99.0
 20
9.1875
  0
LWPOLYLINE
  5
430
100
AcDbEntity
  8
0
100
AcDbPolyline
 62
7
  6
CONTINUOUS
 90
2
 70
0
 43
0.0600000025
 10
50.25
 20
64.5
 10
50.755964668
 20
65.2126118336
  0
LWPOLYLINE
  5
431
100
AcDbEntity
  8
0
100
AcDbPolyline
 62
7
  6
CONTINUOUS
 90
2
 70
0
 43
0.0600000025
 10
50.25
 20
1.5
 10
50.755964668
 20
0.7873881664
  0
LWPOLYLINE
  5
432
100
AcDbEntity
  8
0
100
AcDbPolyline
 62
7
  6
CONTINUOUS
 90
2
 70
0
 43
0.0600000025
 10
1.5
 20
17.25
 10
0.0
 20
17.25
  0
LWPOLYLINE
  5
433
100
AcDbEntity
  8
0
100
AcDbPolyline
 62
7
  6
CONTINUOUS
 90
2
 70
0
 43
0.0600000025
 10
99.0197815525
 20
17.2525231228
 10
100.5197815525
 20
17.2525231228
  0
LWPOLYLINE
  5
434
100
AcDbEntity
  8
0
100
AcDbPolyline
 62
7
  6
CONTINUOUS
 90
2
 70
0
 43
0.0600000025
 10
38.0625
 20
1.5
 10
38.0625
 20
-0.0
  0
LWPOLYLINE
  5
435
100
AcDbEntity
  8
0
100
AcDbPolyline
 62
7
  6
CONTINUOUS
 90
2
 70
0
 43
0.0600000025
 10
38.0625
 20
64.5
 10
38.0625
 20
66.0
  0
LINE
  5
436
100
AcDbEntity
  8
0
100
AcDbLine
 62
7
  6
CONTINUOUS
 10
76.1299879962
 20
5.2529017014
 11
69.3519057325
 21
9.1936472036
  0
LWPOLYLINE
  5
437
100
AcDbEntity
  8
0
100
AcDbPolyline
 62
7
  6
CONTINUOUS
 90
2
 70
0
 43
0.0600000025
 10
50.25
 20
1.5
 10
50.25
 20
-0.0
  0
LWPOLYLINE
  5
438
100
AcDbEntity
  8
0
100
AcDbPolyline
 62
7
  6
CONTINUOUS
 90
2
 70
0
 43
0.0600000025
 10
50.25
 20
64.5
 10
50.25
 20
66.0
  0
LWPOLYLINE
  5
439
100
AcDbEntity
  8
0
100
AcDbPolyline
 62
7
  6
CONTINUOUS
 90
2
 70
0
 43
0.0600000025
 10
1.5
 20
33.0
 10
-0.0
 20
33.0
  0
LWPOLYLINE
  5
43A
100
AcDbEntity
  8
0
100
AcDbPolyline
 62
7
  6
CONTINUOUS
 90
2
 70
0
 43
0.0600000025
 10
99.0032380379
 20
33.0040793944
 10
100.5032380379
 20
33.0040793944
  0
LWPOLYLINE
  5
43B
100
AcDbEntity
  8
0
100
AcDbPolyline
 62
7
  6
CONTINUOUS
 90
2
 70
0
 43
0.0600000025
 10
62.4375
 20
1.5
 10
62.4375
 20
-0.0
  0
LWPOLYLINE
  5
43C
100
AcDbEntity
  8
0
100
AcDbPolyline
 62
7
  6
CONTINUOUS
 90
2
 70
0
 43
0.0600000025
 10
62.4375
 20
64.5
 10
62.4375
 20
66.0
  0
LWPOLYLINE
  5
43D
100
AcDbEntity
  8
0
100
AcDbPolyline
 62
7
  6
CONTINUOUS
 90
2
 70
0
 43
0.0600000025
 10
50.25
 20
1.5
 10
49.744035332
 20
0.7873881664
  0
LWPOLYLINE
  5
43E
100
AcDbEntity
  8
0
100
AcDbPolyline
 62
7
  6
CONTINUOUS
 90
2
 70
0
 43
0.0600000025
 10
1.5
 20
48.75
 10
0.0
 20
48.75
  0
LWPOLYLINE
  5
43F
100
AcDbEntity
  8
0
100
AcDbPolyline
 62
7
  6
CONTINUOUS
 90
2
 70
0
 43
0.0600000025
 10
99.0
 20
48.75
 10
100.5
 20
48.75
  0
LWPOLYLINE
  5
440
100
AcDbEntity
  8
0
100
AcDbPolyline
 62
7
  6
CONTINUOUS
 90
2
 70
0
 43
0.0600000025
 10
50.25
 20
64.5
 10
49.744035332
 20
65.2126118336
  0
LWPOLYLINE
  5
441
100
AcDbEntity
  8
0
100
AcDbPolyline
 62
7
  6
CONTINUOUS
 90
2
 70
0
 43
0.0600000025
 10
69.375
 20
1.5
 10
69.375
 20
9.1875
  0
LWPOLYLINE
  5
442
100
AcDbEntity
  8
0
100
AcDbPolyline
 62
7
  6
CONTINUOUS
 90
2
 70
0
 43
0.0600000025
 10
74.625
 20
1.5
 10
74.625
 20
-0.0
  0
LWPOLYLINE
  5
443
100
AcDbEntity
  8
0
100
AcDbPolyline
 62
7
  6
CONTINUOUS
 90
2
 70
0
 43
0.0600000025
 10
74.625
 20
64.5
 10
74.625
 20
66.0
  0
LWPOLYLINE
  5
444
100
AcDbEntity
  8
0
100
AcDbPolyline
 62
7
  6
CONTINUOUS
 90
2
 70
0
 43
0.0600000025
 10
76.125
 20
1.5
 10
76.125
 20
9.1875
  0
LWPOLYLINE
  5
445
100
AcDbEntity
  8
0
100
AcDbPolyline
 62
7
  6
CONTINUOUS
 90
2
 70
0
 43
0.0600000025
 10
99.0032380379
 20
33.0040793944
 10
99.7158498715
 20
33.5100440624
  0
LWPOLYLINE
  5
446
100
AcDbEntity
  8
0
100
AcDbPolyline
 62
7
  6
CONTINUOUS
 90
2
 70
0
 43
0.0600000025
 10
99.0032380379
 20
33.0040793944
 10
99.7158498715
 20
32.4981147264
  0
LWPOLYLINE
  5
447
100
AcDbEntity
  8
0
100
AcDbPolyline
 62
7
  6
CONTINUOUS
 90
2
 70
0
 43
0.0600000025
 10
81.375
 20
3.0
 10
81.375
 20
9.1875
  0
LWPOLYLINE
  5
448
100
AcDbEntity
  8
0
100
AcDbPolyline
 62
7
  6
CONTINUOUS
 90
2
 70
0
 43
0.0900000007
 10
10.6875
 20
63.0
 10
1.5
 20
63.0
  0
LWPOLYLINE
  5
449
100
AcDbEntity
  8
0
100
AcDbPolyline
 62
7
  6
CONTINUOUS
 90
2
 70
0
 43
0.0900000007
 10
99.0
 20
64.5
 10
1.5
 20
64.5
  0
LWPOLYLINE
  5
44A
100
AcDbEntity
  8
0
100
AcDbPolyline
 62
7
  6
CONTINUOUS
 90
2
 70
0
 43
0.0600000025
 10
49.744035332
 20
65.2126118336
 10
50.755964668
 20
65.2126118336
  0
LWPOLYLINE
  5
44B
100
AcDbEntity
  8
0
100
AcDbPolyline
 62
7
  6
CONTINUOUS
 90
2
 70
0
 43
0.0600000025
 10
84.0
 20
1.5
 10
84.0
 20
9.1875
  0
LWPOLYLINE
  5
44C
100
AcDbEntity
  8
0
100
AcDbPolyline
 62
7
  6
CONTINUOUS
 90
2
 70
0
 43
0.0600000025
 10
85.5
 20
2.25
 10
85.5
 20
3.75
  0
LWPOLYLINE
  5
44D
100
AcDbEntity
  8
0
100
AcDbPolyline
 62
7
  6
CONTINUOUS
 90
2
 70
0
 43
0.0600000025
 10
86.8125
 20
1.5
 10
86.8125
 20
-0.0
  0
LWPOLYLINE
  5
44E
100
AcDbEntity
  8
0
100
AcDbPolyline
 62
7
  6
CONTINUOUS
 90
2
 70
0
 43
0.0600000025
 10
86.8125
 20
64.5
 10
86.8125
 20
66.0
  0
LINE
  5
44F
100
AcDbEntity
  8
0
100
AcDbLine
 62
7
  6
CONTINUOUS
 10
69.3834316965
 20
5.2844276655
 11
76.1457509782
 21
9.2094101856
  0
LINE
  5
450
100
AcDbEntity
  8
DEFAULT_3
100
AcDbLine
 62
7
  6
PHANTOM
 10
0.0
 20
66.0
 11
102.0
 21
66.0
  0
LWPOLYLINE
  5
451
100
AcDbEntity
  8
0
100
AcDbPolyline
 62
7
  6
CONTINUOUS
 90
2
 70
0
 43
0.0600000025
 10
87.5508868996
 20
1.5142504667
 10
87.5508868996
 20
2.2642504667
  0
LWPOLYLINE
  5
452
100
AcDbEntity
  8
0
100
AcDbPolyline
 62
7
  6
CONTINUOUS
 90
2
 70
0
 43
0.0600000025
 10
88.5
 20
2.25
 10
88.5
 20
3.75
  0
LWPOLYLINE
  5
453
100
AcDbEntity
  8
0
100
AcDbPolyline
 62
7
  6
CONTINUOUS
 90
2
 70
0
 43
0.0600000025
 10
94.125
 20
1.5
 10
94.125
 20
2.25
  0
LWPOLYLINE
  5
454
100
AcDbEntity
  8
0
100
AcDbPolyline
 62
7
  6
CONTINUOUS
 90
2
 70
0
 43
0.0600000025
 10
97.5
 20
2.25
 10
97.5
 20
3.75
  0
LWPOLYLINE
  5
455
100
AcDbEntity
  8
0
100
AcDbPolyline
 62
7
  6
CONTINUOUS
 90
2
 70
0
 43
0.0900000007
 10
99.0
 20
64.5
 10
99.0
 20
1.5
  0
LWPOLYLINE
  5
456
100
AcDbEntity
  8
0
100
AcDbPolyline
 62
7
  6
CONTINUOUS
 90
2
 70
0
 43
0.0600000025
 10
99.7158498715
 20
32.4981147264
 10
99.7158498715
 20
33.5100440624
  0
LINE
  5
457
100
AcDbEntity
  8
DEFAULT_3
100
AcDbLine
 62
7
  6
PHANTOM
 10
102.0
 20
-0.0
 11
102.0
 21
66.0
  0
LINE
  5
458
100
AcDbEntity
  8
3_AXES_OTHER
100
AcDbLine
 62
7
  6
CONTINUOUS
 10
48.2226579436
 20
59.1035091489
 11
48.4561609285
 21
59.4147331019
  0
LINE
  5
459
100
AcDbEntity
  8
3_AXES_OTHER
100
AcDbLine
 62
7
  6
CONTINUOUS
 10
48.4561609285
 20
59.4147331019
 11
51.1541477792
 21
61.6956984128
  0
LINE
  5
45A
100
AcDbEntity
  8
3_AXES_OTHER
100
AcDbLine
 62
7
  6
CONTINUOUS
 10
63.8969530331
 20
40.1964071802
 11
49.949508379
 21
43.9671529615
  0
LINE
  5
45B
100
AcDbEntity
  8
3_AXES_OTHER
100
AcDbLine
 62
7
  6
CONTINUOUS
 10
50.4416202909
 20
60.3729372342
 11
50.4477627759
 21
60.5303478394
  0
LINE
  5
45C
100
AcDbEntity
  8
3_AXES_OTHER
100
AcDbLine
 62
7
  6
CONTINUOUS
 10
52.3655386775
 20
43.8206177561
 11
61.3616404794
 21
41.3884867272
  0
LINE
  5
45D
100
AcDbEntity
  8
3_ALL_AXES
100
AcDbLine
 62
7
  6
CONTINUOUS
 10
61.3015342662
 20
41.5878813834
 11
52.6541185806
 21
43.9257437677
  0
LINE
  5
45E
100
AcDbEntity
  8
3_ALL_AXES
100
AcDbLine
 62
7
  6
CONTINUOUS
 10
52.5990416624
 20
44.1318417091
 11
52.6316101671
 21
44.1230366875
  0
LINE
  5
45F
100
AcDbEntity
  8
3_ALL_AXES
100
AcDbLine
 62
7
  6
CONTINUOUS
 10
60.4631162555
 20
42.4203130309
 11
53.3499194819
 21
44.3433933794
  0
LINE
  5
460
100
AcDbEntity
  8
3_AXES_OTHER
100
AcDbLine
 62
7
  6
CONTINUOUS
 10
49.949508379
 20
43.9671529615
 11
48.2226579436
 21
59.1035091489
  0
LINE
  5
461
100
AcDbEntity
  8
3_ALL_AXES
100
AcDbLine
 62
7
  6
CONTINUOUS
 10
60.4406078419
 20
42.6176059506
 11
53.4691856218
 21
44.5023569984
  0
LINE
  5
462
100
AcDbEntity
  8
3_AXES_OTHER
100
AcDbLine
 62
7
  6
CONTINUOUS
 10
58.5519258845
 20
60.2966454315
 11
58.790298028
 21
60.4981729483
  0
LINE
  5
463
100
AcDbEntity
  8
3_ALL_AXES
100
AcDbLine
 62
7
  6
CONTINUOUS
 10
59.3374214063
 20
60.204008674
 11
59.2679664746
 21
60.1452892291
  0
LINE
  5
464
100
AcDbEntity
  8
3_ALL_AXES
100
AcDbLine
 62
7
  6
CONTINUOUS
 10
59.3353739114
 20
60.1515384722
 11
59.2755943101
 21
60.1009988646
  0
LINE
  5
465
100
AcDbEntity
  8
3_ALL_AXES
100
AcDbLine
 62
7
  6
CONTINUOUS
 10
59.5225073395
 20
60.0764731186
 11
59.5919622713
 21
60.1351925635
  0
LINE
  5
466
100
AcDbEntity
  8
3_AXES_OTHER
100
AcDbLine
 62
7
  6
CONTINUOUS
 10
52.3655386775
 20
43.8206177561
 11
50.7540843302
 21
57.9454930087
  0
LINE
  5
467
100
AcDbEntity
  8
3_ALL_AXES
100
AcDbLine
 62
7
  6
CONTINUOUS
 10
52.5990416624
 20
44.1318417091
 11
51.5100178803
 21
53.6774581237
  0
LINE
  5
468
100
AcDbEntity
  8
3_ALL_AXES
100
AcDbLine
 62
7
  6
CONTINUOUS
 10
51.353684814
 20
55.0477638127
 11
51.0316549922
 21
57.8704507032
  0
LINE
  5
469
100
AcDbEntity
  8
3_ALL_AXES
100
AcDbLine
 62
7
  6
CONTINUOUS
 10
51.8892727119
 20
50.6298446326
 11
52.6541185806
 21
43.9257437677
  0
LINE
  5
46A
100
AcDbEntity
  8
3_ALL_AXES
100
AcDbLine
 62
7
  6
CONTINUOUS
 10
53.3499194819
 20
44.3433933794
 11
52.7311754076
 21
49.7668686873
  0
LINE
  5
46B
100
AcDbEntity
  8
3_ALL_AXES
100
AcDbLine
 62
7
  6
CONTINUOUS
 10
53.4691856218
 20
44.5023569984
 11
52.8729499611
 21
49.7285393867
  0
LINE
  5
46C
100
AcDbEntity
  8
3_AXES_OTHER
100
AcDbLine
 62
7
  6
CONTINUOUS
 10
53.4314707876
 20
60.2562671295
 11
53.4376132726
 21
60.4136777347
  0
LINE
  5
46D
100
AcDbEntity
  8
3_ALL_AXES
100
AcDbLine
 62
7
  6
CONTINUOUS
 10
52.0085388518
 20
50.7888082517
 11
51.8892727119
 21
50.6298446326
  0
LINE
  5
46E
100
AcDbEntity
  8
3_ALL_AXES
100
AcDbLine
 62
7
  6
CONTINUOUS
 10
61.1087468774
 20
59.7251239597
 11
61.0392919457
 21
59.6664045149
  0
LINE
  5
46F
100
AcDbEntity
  8
3_ALL_AXES
100
AcDbLine
 62
7
  6
CONTINUOUS
 10
61.1066993824
 20
59.672653758
 11
61.0469197812
 21
59.6221141504
  0
LINE
  5
470
100
AcDbEntity
  8
3_ALL_AXES
100
AcDbLine
 62
7
  6
CONTINUOUS
 10
61.2938328106
 20
59.5975884044
 11
61.3632877424
 21
59.6563078492
  0
LINE
  5
471
100
AcDbEntity
  8
3_AXES_OTHER
100
AcDbLine
 62
7
  6
CONTINUOUS
 10
56.0964445914
 20
60.3881220176
 11
56.1500923089
 21
60.6174188
  0
LINE
  5
472
100
AcDbEntity
  8
3_AXES_OTHER
100
AcDbLine
 62
7
  6
CONTINUOUS
 10
61.9341812131
 20
59.3822395795
 11
62.1725533566
 21
59.5837670963
  0
LINE
  5
473
100
AcDbEntity
  8
3_AXES_OTHER
100
AcDbLine
 62
7
  6
CONTINUOUS
 10
61.9701209265
 20
59.3612084695
 11
62.1704785617
 21
59.5305972919
  0
LINE
  5
474
100
AcDbEntity
  8
3_AXES_OTHER
100
AcDbLine
 62
7
  6
CONTINUOUS
 10
61.9907947305
 20
59.2810176389
 11
61.9416350619
 21
59.2394564657
  0
LINE
  5
475
100
AcDbEntity
  8
3_AXES_OTHER
100
AcDbLine
 62
7
  6
CONTINUOUS
 10
62.2799560992
 20
59.0734724443
 11
62.3959006191
 21
59.17149569
  0
LINE
  5
476
100
AcDbEntity
  8
3_AXES_OTHER
100
AcDbLine
 62
7
  6
CONTINUOUS
 10
57.933815282
 20
60.4035275454
 11
57.8889730533
 21
60.2118664789
  0
LINE
  5
477
100
AcDbEntity
  8
3_ALL_AXES
100
AcDbLine
 62
7
  6
CONTINUOUS
 10
52.7311754076
 20
49.7668686873
 11
59.8443721812
 21
47.8437883389
  0
LINE
  5
478
100
AcDbEntity
  8
3_ALL_AXES
100
AcDbLine
 62
7
  6
CONTINUOUS
 10
60.5366883974
 20
48.2919822482
 11
57.6148415815
 21
49.0819148723
  0
LINE
  5
479
100
AcDbEntity
  8
3_ALL_AXES
100
AcDbLine
 62
7
  6
CONTINUOUS
 10
54.8111195278
 20
49.8399120086
 11
51.8892727119
 21
50.6298446326
  0
LINE
  5
47A
100
AcDbEntity
  8
3_ALL_AXES
100
AcDbLine
 62
7
  6
CONTINUOUS
 10
54.8639271259
 20
49.9102965025
 11
54.8111195278
 21
49.8399120086
  0
LINE
  5
47B
100
AcDbEntity
  8
3_ALL_AXES
100
AcDbLine
 62
7
  6
CONTINUOUS
 10
60.5527269336
 20
48.4788538505
 11
57.9643911749
 21
49.1786204662
  0
LINE
  5
47C
100
AcDbEntity
  8
3_ALL_AXES
100
AcDbLine
 62
7
  6
CONTINUOUS
 10
54.5420957811
 20
50.1038513051
 11
52.0085388518
 21
50.7888082517
  0
LINE
  5
47D
100
AcDbEntity
  8
3_AXES_OTHER
100
AcDbLine
 62
7
  6
CONTINUOUS
 10
62.4036055825
 20
55.6439873206
 11
65.1015924333
 21
57.9249526315
  0
LINE
  5
47E
100
AcDbEntity
  8
3_ALL_AXES
100
AcDbLine
 62
7
  6
CONTINUOUS
 10
58.4916006357
 20
47.8210650868
 11
60.3899362608
 21
43.0617573864
  0
LINE
  5
47F
100
AcDbEntity
  8
3_AXES_OTHER
100
AcDbLine
 62
7
  6
CONTINUOUS
 10
60.4201524342
 20
59.2191908254
 11
60.4738001516
 21
59.4484876078
  0
LINE
  5
480
100
AcDbEntity
  8
3_AXES_OTHER
100
AcDbLine
 62
7
  6
CONTINUOUS
 10
52.3655386775
 20
43.8206177561
 11
52.5990416624
 21
44.1318417091
  0
LINE
  5
481
100
AcDbEntity
  8
3_ALL_AXES
100
AcDbLine
 62
7
  6
CONTINUOUS
 10
53.4691856218
 20
44.5023569984
 11
53.3499194819
 21
44.3433933794
  0
LINE
  5
482
100
AcDbEntity
  8
3_AXES_OTHER
100
AcDbLine
 62
7
  6
CONTINUOUS
 10
62.1701025977
 20
55.3327633676
 11
62.4036055825
 21
55.6439873206
  0
LINE
  5
483
100
AcDbEntity
  8
3_ALL_AXES
100
AcDbLine
 62
7
  6
CONTINUOUS
 10
59.2679664746
 20
60.1452892291
 11
59.2663358482
 21
60.1035019257
  0
LINE
  5
484
100
AcDbEntity
  8
3_ALL_AXES
100
AcDbLine
 62
7
  6
CONTINUOUS
 10
59.3374214063
 20
60.204008674
 11
59.3353739114
 21
60.1515384722
  0
LINE
  5
485
100
AcDbEntity
  8
3_ALL_AXES
100
AcDbLine
 62
7
  6
CONTINUOUS
 10
57.6676491796
 20
49.1522993663
 11
57.6148415815
 21
49.0819148723
  0
LINE
  5
486
100
AcDbEntity
  8
3_ALL_AXES
100
AcDbLine
 62
7
  6
CONTINUOUS
 10
59.8443721812
 20
47.8437883389
 11
60.4631162555
 21
42.4203130309
  0
LINE
  5
487
100
AcDbEntity
  8
3_AXES_OTHER
100
AcDbLine
 62
7
  6
CONTINUOUS
 10
60.7278607233
 20
57.5920122205
 11
60.7340032083
 21
57.7494228257
  0
LINE
  5
488
100
AcDbEntity
  8
3_AXES_OTHER
100
AcDbLine
 62
7
  6
CONTINUOUS
 10
61.9189629734
 20
59.1425532387
 11
61.9726106909
 21
59.3718500211
  0
LINE
  5
489
100
AcDbEntity
  8
3_ALL_AXES
100
AcDbLine
 62
7
  6
CONTINUOUS
 10
57.8752048423
 20
47.9877100813
 11
53.4691856218
 21
44.5023569984
  0
LINE
  5
48A
100
AcDbEntity
  8
3_ALL_AXES
100
AcDbLine
 62
7
  6
CONTINUOUS
 10
65.0911939177
 20
51.2305731906
 11
64.864547942
 21
51.2918478096
  0
LINE
  5
48B
100
AcDbEntity
  8
3_ALL_AXES
100
AcDbLine
 62
7
  6
CONTINUOUS
 10
65.2339132533
 20
51.7584714236
 11
65.0072672777
 21
51.8197460425
  0
LINE
  5
48C
100
AcDbEntity
  8
3_ALL_AXES
100
AcDbLine
 62
7
  6
CONTINUOUS
 10
61.3015342662
 20
41.5878813834
 11
60.5366883974
 21
48.2919822482
  0
LINE
  5
48D
100
AcDbEntity
  8
3_AXES_OTHER
100
AcDbLine
 62
7
  6
CONTINUOUS
 10
61.3616404794
 20
41.3884867272
 11
59.7501861321
 21
55.5133619797
  0
LINE
  5
48E
100
AcDbEntity
  8
3_ALL_AXES
100
AcDbLine
 62
7
  6
CONTINUOUS
 10
61.0392919457
 20
59.6664045149
 11
61.0376613193
 21
59.6246172115
  0
LINE
  5
48F
100
AcDbEntity
  8
3_ALL_AXES
100
AcDbLine
 62
7
  6
CONTINUOUS
 10
61.1087468774
 20
59.7251239597
 11
61.1066993824
 21
59.672653758
  0
LINE
  5
490
100
AcDbEntity
  8
3_AXES_OTHER
100
AcDbLine
 62
7
  6
CONTINUOUS
 10
62.1725533566
 20
59.5837670963
 11
62.1704785617
 21
59.5305972919
  0
LINE
  5
491
100
AcDbEntity
  8
3_ALL_AXES
100
AcDbLine
 62
7
  6
CONTINUOUS
 10
60.5691155558
 20
48.3352027168
 11
60.5366883974
 21
48.2919822482
  0
LINE
  5
492
100
AcDbEntity
  8
3_AXES_OTHER
100
AcDbLine
 62
7
  6
CONTINUOUS
 10
62.3959006191
 20
59.17149569
 11
62.4092379188
 21
59.0385206028
  0
LINE
  5
493
100
AcDbEntity
  8
3_AXES_OTHER
100
AcDbLine
 62
7
  6
CONTINUOUS
 10
50.7540843302
 20
57.9454930087
 11
59.7501861321
 21
55.5133619797
  0
LINE
  5
494
100
AcDbEntity
  8
3_AXES_OTHER
100
AcDbLine
 62
7
  6
CONTINUOUS
 10
62.1701025977
 20
55.3327633676
 11
48.2226579436
 21
59.1035091489
  0
LINE
  5
495
100
AcDbEntity
  8
3_AXES_OTHER
100
AcDbLine
 62
7
  6
CONTINUOUS
 10
62.4036055825
 20
55.6439873206
 11
48.4561609285
 21
59.4147331019
  0
LINE
  5
496
100
AcDbEntity
  8
3_AXES_OTHER
100
AcDbLine
 62
7
  6
CONTINUOUS
 10
63.8969530331
 20
40.1964071802
 11
62.1701025977
 21
55.3327633676
  0
LINE
  5
497
100
AcDbEntity
  8
3_AXES_OTHER
100
AcDbLine
 62
7
  6
CONTINUOUS
 10
63.71771122
 20
57.4753421158
 11
63.723853705
 21
57.632752721
  0
LINE
  5
498
100
AcDbEntity
  8
3_AXES_OTHER
100
AcDbLine
 62
7
  6
CONTINUOUS
 10
65.1015924333
 20
57.9249526315
 11
66.8609056819
 21
57.8349949496
  0
LINE
  5
499
100
AcDbEntity
  8
3_ALL_AXES
100
AcDbLine
 62
7
  6
CONTINUOUS
 10
61.3339614245
 20
41.6311018519
 11
61.3015342662
 21
41.5878813834
  0
LINE
  5
49A
100
AcDbEntity
  8
3_AXES_OTHER
100
AcDbLine
 62
7
  6
CONTINUOUS
 10
60.4201524342
 20
59.2191908254
 11
61.9189629734
 21
59.1425532387
  0
LINE
  5
49B
100
AcDbEntity
  8
3_AXES_OTHER
100
AcDbLine
 62
7
  6
CONTINUOUS
 10
60.4738001516
 20
59.4484876078
 11
61.9726106909
 21
59.3718500211
  0
LINE
  5
49C
100
AcDbEntity
  8
3_AXES_OTHER
100
AcDbLine
 62
7
  6
CONTINUOUS
 10
66.8609056819
 20
57.8349949496
 11
66.2502481698
 21
42.185958972
  0
LINE
  5
49D
100
AcDbEntity
  8
3_AXES_OTHER
100
AcDbLine
 62
7
  6
CONTINUOUS
 10
60.2086592611
 20
59.5847303118
 11
61.1382406912
 21
59.5371987021
  0
LINE
  5
49E
100
AcDbEntity
  8
3_AXES_OTHER
100
AcDbLine
 62
7
  6
CONTINUOUS
 10
57.933815282
 20
60.4035275454
 11
57.0042338518
 21
60.451059155
  0
LINE
  5
49F
100
AcDbEntity
  8
3_AXES_OTHER
100
AcDbLine
 62
7
  6
CONTINUOUS
 10
57.6489028481
 20
60.5407812133
 11
56.1500923089
 21
60.6174188
  0
LINE
  5
4A0
100
AcDbEntity
  8
3_AXES_OTHER
100
AcDbLine
 62
7
  6
CONTINUOUS
 10
65.1015924333
 20
57.9249526315
 11
51.1541477792
 21
61.6956984128
  0
LINE
  5
4A1
100
AcDbEntity
  8
3_AXES_OTHER
100
AcDbLine
 62
7
  6
CONTINUOUS
 10
56.0964445914
 20
60.3881220176
 11
60.4201524342
 21
59.2191908254
  0
LINE
  5
4A2
100
AcDbEntity
  8
3_AXES_OTHER
100
AcDbLine
 62
7
  6
CONTINUOUS
 10
56.1500923089
 20
60.6174188
 11
60.4738001516
 21
59.4484876078
  0
LINE
  5
4A3
100
AcDbEntity
  8
3_AXES_OTHER
100
AcDbLine
 62
7
  6
CONTINUOUS
 10
57.0042338518
 20
60.451059155
 11
60.2086592611
 21
59.5847303118
  0
LINE
  5
4A4
100
AcDbEntity
  8
3_AXES_OTHER
100
AcDbLine
 62
7
  6
CONTINUOUS
 10
66.8609056819
 20
57.8349949496
 11
61.926147048
 21
59.1691260942
  0
LINE
  5
4A5
100
AcDbEntity
  8
3_AXES_OTHER
100
AcDbLine
 62
7
  6
CONTINUOUS
 10
56.6668575386
 20
60.5909954202
 11
52.9134610278
 21
61.6057407309
  0
LINE
  5
4A6
100
AcDbEntity
  8
3_AXES_OTHER
100
AcDbLine
 62
7
  6
CONTINUOUS
 10
61.9907947305
 20
59.2810176389
 11
62.3959006191
 21
59.17149569
  0
LINE
  5
4A7
100
AcDbEntity
  8
3_AXES_OTHER
100
AcDbLine
 62
7
  6
CONTINUOUS
 10
61.1382406912
 20
59.5371987021
 11
57.933815282
 21
60.4035275454
  0
LINE
  5
4A8
100
AcDbEntity
  8
3_AXES_OTHER
100
AcDbLine
 62
7
  6
CONTINUOUS
 10
61.9726106909
 20
59.3718500211
 11
57.6489028481
 21
60.5407812133
  0
LINE
  5
4A9
100
AcDbEntity
  8
3_AXES_OTHER
100
AcDbLine
 62
7
  6
CONTINUOUS
 10
58.790298028
 20
60.4981729483
 11
62.1725533566
 21
59.5837670963
  0
LINE
  5
4AA
100
AcDbEntity
  8
3_AXES_OTHER
100
AcDbLine
 62
7
  6
CONTINUOUS
 10
51.1541477792
 20
61.6956984128
 11
52.9134610278
 21
61.6057407309
  0
LINE
  5
4AB
100
AcDbEntity
  8
3_AXES_OTHER
100
AcDbLine
 62
7
  6
CONTINUOUS
 10
63.8969530331
 20
40.1964071802
 11
66.2502481698
 21
42.185958972
  0
LINE
  5
4AC
100
AcDbEntity
  8
3_ALL_AXES
100
AcDbLine
 62
7
  6
CONTINUOUS
 10
10.3535887179
 20
48.0054416956
 11
10.3535887179
 21
48.5522920893
  0
LINE
  5
4AD
100
AcDbEntity
  8
3_AXES_OTHER
100
AcDbLine
 62
7
  6
CONTINUOUS
 10
10.6094942297
 20
41.7726843829
 11
10.6094942297
 21
52.0308353964
  0
LINE
  5
4AE
100
AcDbEntity
  8
3_ALL_AXES
100
AcDbLine
 62
7
  6
CENTER
 10
12.6764233636
 20
45.8300479948
 11
12.6764233636
 21
44.5457960263
  0
LINE
  5
4AF
100
AcDbEntity
  8
3_ALL_AXES
100
AcDbLine
 62
7
  6
CENTER
 10
12.6764233636
 20
45.8300479948
 11
12.6764233636
 21
47.1142999633
  0
LINE
  5
4B0
100
AcDbEntity
  8
3_AXES_OTHER
100
AcDbLine
 62
7
  6
CONTINUOUS
 10
26.3575257258
 20
41.7726843829
 11
10.6094942297
 21
41.7726843829
  0
LINE
  5
4B1
100
AcDbEntity
  8
3_AXES_OTHER
100
AcDbLine
 62
7
  6
CONTINUOUS
 10
26.3575257258
 20
42.2670558688
 11
10.6094942297
 21
42.2670558688
  0
LINE
  5
4B2
100
AcDbEntity
  8
3_AXES_OTHER
100
AcDbLine
 62
7
  6
CONTINUOUS
 10
15.0327225762
 20
52.0308353964
 11
15.0327225762
 21
52.6489456326
  0
LINE
  5
4B3
100
AcDbEntity
  8
3_AXES_OTHER
100
AcDbLine
 62
7
  6
CONTINUOUS
 10
15.9657934423
 20
52.0308353964
 11
15.9657934423
 21
52.6489456326
  0
LINE
  5
4B4
100
AcDbEntity
  8
3_AXES_OTHER
100
AcDbLine
 62
7
  6
CONTINUOUS
 10
16.0425650959
 20
48.3857014475
 11
16.0425650959
 21
51.8395849731
  0
LINE
  5
4B5
100
AcDbEntity
  8
3_AXES_OTHER
100
AcDbLine
 62
7
  6
CONTINUOUS
 10
16.4231976802
 20
52.6489456326
 11
16.4231976802
 21
52.4698117743
  0
LINE
  5
4B6
100
AcDbEntity
  8
3_AXES_OTHER
100
AcDbLine
 62
7
  6
CONTINUOUS
 10
16.5740611588
 20
52.4698117743
 11
16.5740611588
 21
53.3300479948
  0
LINE
  5
4B7
100
AcDbEntity
  8
3_AXES_OTHER
100
AcDbLine
 62
7
  6
CONTINUOUS
 10
16.6744548596
 20
51.2247942971
 11
16.6744548596
 21
49.144568156
  0
LINE
  5
4B8
100
AcDbEntity
  8
3_ALL_AXES
100
AcDbLine
 62
7
  6
CENTER
 10
24.2905965919
 20
45.8300479948
 11
23.0063446234
 21
45.8300479948
  0
LINE
  5
4B9
100
AcDbEntity
  8
3_ALL_AXES
100
AcDbLine
 62
7
  6
CENTER
 10
12.6764233636
 20
45.8300479948
 11
11.3921713951
 21
45.8300479948
  0
LINE
  5
4BA
100
AcDbEntity
  8
3_ALL_AXES
100
AcDbLine
 62
7
  6
CENTER
 10
12.6764233636
 20
45.8300479948
 11
13.9606753321
 21
45.8300479948
  0
LINE
  5
4BB
100
AcDbEntity
  8
3_ALL_AXES
100
AcDbLine
 62
7
  6
CENTER
 10
24.2905965919
 20
45.8300479948
 11
25.5748485604
 21
45.8300479948
  0
LINE
  5
4BC
100
AcDbEntity
  8
3_ALL_AXES
100
AcDbLine
 62
7
  6
CONTINUOUS
 10
17.3398091903
 20
53.0469771287
 11
17.3398091903
 21
52.8969771287
  0
LINE
  5
4BD
100
AcDbEntity
  8
3_ALL_AXES
100
AcDbLine
 62
7
  6
CENTER
 10
17.4835099777
 20
53.0469771287
 11
17.4835099777
 21
52.6032763413
  0
LINE
  5
4BE
100
AcDbEntity
  8
3_ALL_AXES
100
AcDbLine
 62
7
  6
CENTER
 10
17.4835099777
 20
52.6032763413
 11
17.4835099777
 21
52.4532763413
  0
LINE
  5
4BF
100
AcDbEntity
  8
3_ALL_AXES
100
AcDbLine
 62
7
  6
CENTER
 10
17.4835099777
 20
53.0469771287
 11
17.4835099777
 21
53.3406779161
  0
LINE
  5
4C0
100
AcDbEntity
  8
3_ALL_AXES
100
AcDbLine
 62
7
  6
CENTER
 10
17.4835099777
 20
53.3406779161
 11
17.4835099777
 21
53.4906779161
  0
LINE
  5
4C1
100
AcDbEntity
  8
3_ALL_AXES
100
AcDbLine
 62
7
  6
CONTINUOUS
 10
17.6272107651
 20
52.8969771287
 11
17.6272107651
 21
53.0469771287
  0
LINE
  5
4C2
100
AcDbEntity
  8
3_ALL_AXES
100
AcDbLine
 62
7
  6
CENTER
 10
18.4835099777
 20
41.1877447496
 11
18.4835099777
 21
53.8534390654
  0
LINE
  5
4C3
100
AcDbEntity
  8
3_ALL_AXES
100
AcDbLine
 62
7
  6
CONTINUOUS
 10
26.6134312376
 20
48.0054416956
 11
26.3575257258
 21
48.0054416956
  0
LINE
  5
4C4
100
AcDbEntity
  8
3_ALL_AXES
100
AcDbLine
 62
7
  6
CONTINUOUS
 10
10.6094942297
 20
48.0054416956
 11
10.3535887179
 21
48.0054416956
  0
LINE
  5
4C5
100
AcDbEntity
  8
3_AXES_OTHER
100
AcDbLine
 62
7
  6
CONTINUOUS
 10
26.3575257258
 20
48.0938275224
 11
10.6094942297
 21
48.0938275224
  0
LINE
  5
4C6
100
AcDbEntity
  8
3_ALL_AXES
100
AcDbLine
 62
7
  6
CONTINUOUS
 10
19.3398091903
 20
53.0469771287
 11
19.3398091903
 21
52.8969771287
  0
LINE
  5
4C7
100
AcDbEntity
  8
3_ALL_AXES
100
AcDbLine
 62
7
  6
CENTER
 10
19.4835099777
 20
53.0469771287
 11
19.4835099777
 21
52.6032763413
  0
LINE
  5
4C8
100
AcDbEntity
  8
3_ALL_AXES
100
AcDbLine
 62
7
  6
CENTER
 10
19.4835099777
 20
52.6032763413
 11
19.4835099777
 21
52.4532763413
  0
LINE
  5
4C9
100
AcDbEntity
  8
3_ALL_AXES
100
AcDbLine
 62
7
  6
CENTER
 10
19.4835099777
 20
53.0469771287
 11
19.4835099777
 21
53.3406779161
  0
LINE
  5
4CA
100
AcDbEntity
  8
3_ALL_AXES
100
AcDbLine
 62
7
  6
CENTER
 10
19.4835099777
 20
53.3406779161
 11
19.4835099777
 21
53.4906779161
  0
LINE
  5
4CB
100
AcDbEntity
  8
3_ALL_AXES
100
AcDbLine
 62
7
  6
CONTINUOUS
 10
19.6272107651
 20
52.8969771287
 11
19.6272107651
 21
53.0469771287
  0
LINE
  5
4CC
100
AcDbEntity
  8
3_AXES_OTHER
100
AcDbLine
 62
7
  6
CONTINUOUS
 10
16.0425650959
 20
48.3857014475
 11
20.9244548596
 21
48.3857014475
  0
LINE
  5
4CD
100
AcDbEntity
  8
3_AXES_OTHER
100
AcDbLine
 62
7
  6
CONTINUOUS
 10
16.0425650959
 20
48.4855325329
 11
20.9244548596
 21
48.4855325329
  0
LINE
  5
4CE
100
AcDbEntity
  8
3_ALL_AXES
100
AcDbLine
 62
7
  6
CONTINUOUS
 10
26.6134312376
 20
48.5522920893
 11
26.3575257258
 21
48.5522920893
  0
LINE
  5
4CF
100
AcDbEntity
  8
3_ALL_AXES
100
AcDbLine
 62
7
  6
CONTINUOUS
 10
10.6094942297
 20
48.5522920893
 11
10.3535887179
 21
48.5522920893
  0
LINE
  5
4D0
100
AcDbEntity
  8
3_AXES_OTHER
100
AcDbLine
 62
7
  6
CONTINUOUS
 10
20.2925650959
 20
49.144568156
 11
20.2925650959
 21
51.2247942971
  0
LINE
  5
4D1
100
AcDbEntity
  8
3_AXES_OTHER
100
AcDbLine
 62
7
  6
CONTINUOUS
 10
20.3929587966
 20
52.4698117743
 11
20.3929587966
 21
53.3300479948
  0
LINE
  5
4D2
100
AcDbEntity
  8
3_AXES_OTHER
100
AcDbLine
 62
7
  6
CONTINUOUS
 10
20.5438222753
 20
52.6489456326
 11
20.5438222753
 21
52.4698117743
  0
LINE
  5
4D3
100
AcDbEntity
  8
3_AXES_OTHER
100
AcDbLine
 62
7
  6
CONTINUOUS
 10
16.6744548596
 20
49.144568156
 11
20.2925650959
 21
49.144568156
  0
LINE
  5
4D4
100
AcDbEntity
  8
3_AXES_OTHER
100
AcDbLine
 62
7
  6
CONTINUOUS
 10
20.9244548596
 20
48.3857014475
 11
20.9244548596
 21
51.8395849731
  0
LINE
  5
4D5
100
AcDbEntity
  8
3_AXES_OTHER
100
AcDbLine
 62
7
  6
CONTINUOUS
 10
21.0012265132
 20
52.0308353964
 11
21.0012265132
 21
52.6489456326
  0
LINE
  5
4D6
100
AcDbEntity
  8
3_AXES_OTHER
100
AcDbLine
 62
7
  6
CONTINUOUS
 10
20.2925650959
 20
50.8920240123
 11
16.6744548596
 21
50.8920240123
  0
LINE
  5
4D7
100
AcDbEntity
  8
3_AXES_OTHER
100
AcDbLine
 62
7
  6
CONTINUOUS
 10
21.9342973793
 20
52.0308353964
 11
21.9342973793
 21
52.6489456326
  0
LINE
  5
4D8
100
AcDbEntity
  8
3_AXES_OTHER
100
AcDbLine
 62
7
  6
CONTINUOUS
 10
20.2925650959
 20
51.2247942971
 11
16.6744548596
 21
51.2247942971
  0
LINE
  5
4D9
100
AcDbEntity
  8
3_AXES_OTHER
100
AcDbLine
 62
7
  6
CONTINUOUS
 10
20.9244548596
 20
51.8395849731
 11
16.0425650959
 21
51.8395849731
  0
LINE
  5
4DA
100
AcDbEntity
  8
3_AXES_OTHER
100
AcDbLine
 62
7
  6
CONTINUOUS
 10
26.3575257258
 20
52.0308353964
 11
10.6094942297
 21
52.0308353964
  0
LINE
  5
4DB
100
AcDbEntity
  8
3_AXES_OTHER
100
AcDbLine
 62
7
  6
CONTINUOUS
 10
16.4231976802
 20
52.4698117743
 11
16.5740611588
 21
52.4698117743
  0
LINE
  5
4DC
100
AcDbEntity
  8
3_AXES_OTHER
100
AcDbLine
 62
7
  6
CONTINUOUS
 10
20.3929587966
 20
52.4698117743
 11
20.5438222753
 21
52.4698117743
  0
LINE
  5
4DD
100
AcDbEntity
  8
3_AXES_OTHER
100
AcDbLine
 62
7
  6
CONTINUOUS
 10
15.0327225762
 20
52.6489456326
 11
16.4231976802
 21
52.6489456326
  0
LINE
  5
4DE
100
AcDbEntity
  8
3_AXES_OTHER
100
AcDbLine
 62
7
  6
CONTINUOUS
 10
20.5438222753
 20
52.6489456326
 11
21.9342973793
 21
52.6489456326
  0
LINE
  5
4DF
100
AcDbEntity
  8
3_ALL_AXES
100
AcDbLine
 62
7
  6
CENTER
 10
19.4835099777
 20
52.8969771287
 11
19.0398091903
 21
52.8969771287
  0
LINE
  5
4E0
100
AcDbEntity
  8
3_ALL_AXES
100
AcDbLine
 62
7
  6
CENTER
 10
17.4835099777
 20
52.8969771287
 11
17.0398091903
 21
52.8969771287
  0
LINE
  5
4E1
100
AcDbEntity
  8
3_ALL_AXES
100
AcDbLine
 62
7
  6
CENTER
 10
17.4835099777
 20
52.8969771287
 11
17.9272107651
 21
52.8969771287
  0
LINE
  5
4E2
100
AcDbEntity
  8
3_ALL_AXES
100
AcDbLine
 62
7
  6
CENTER
 10
19.4835099777
 20
52.8969771287
 11
19.9272107651
 21
52.8969771287
  0
LINE
  5
4E3
100
AcDbEntity
  8
3_ALL_AXES
100
AcDbLine
 62
7
  6
CENTER
 10
24.2905965919
 20
45.8300479948
 11
24.2905965919
 21
44.5457960263
  0
LINE
  5
4E4
100
AcDbEntity
  8
3_ALL_AXES
100
AcDbLine
 62
7
  6
CENTER
 10
24.2905965919
 20
45.8300479948
 11
24.2905965919
 21
47.1142999633
  0
LINE
  5
4E5
100
AcDbEntity
  8
3_ALL_AXES
100
AcDbLine
 62
7
  6
CENTER
 10
19.4835099777
 20
53.0469771287
 11
19.0398091903
 21
53.0469771287
  0
LINE
  5
4E6
100
AcDbEntity
  8
3_ALL_AXES
100
AcDbLine
 62
7
  6
CENTER
 10
17.4835099777
 20
53.0469771287
 11
17.0398091903
 21
53.0469771287
  0
LINE
  5
4E7
100
AcDbEntity
  8
3_ALL_AXES
100
AcDbLine
 62
7
  6
CENTER
 10
17.4835099777
 20
53.0469771287
 11
17.9272107651
 21
53.0469771287
  0
LINE
  5
4E8
100
AcDbEntity
  8
3_ALL_AXES
100
AcDbLine
 62
7
  6
CENTER
 10
19.4835099777
 20
53.0469771287
 11
19.9272107651
 21
53.0469771287
  0
LINE
  5
4E9
100
AcDbEntity
  8
3_AXES_OTHER
100
AcDbLine
 62
7
  6
CONTINUOUS
 10
16.5740611588
 20
53.3300479948
 11
20.3929587966
 21
53.3300479948
  0
LINE
  5
4EA
100
AcDbEntity
  8
3_AXES_OTHER
100
AcDbLine
 62
7
  6
CONTINUOUS
 10
26.3575257258
 20
41.7726843829
 11
26.3575257258
 21
52.0308353964
  0
LINE
  5
4EB
100
AcDbEntity
  8
3_ALL_AXES
100
AcDbLine
 62
7
  6
CONTINUOUS
 10
26.6134312376
 20
48.0054416956
 11
26.6134312376
 21
48.5522920893
  0
LINE
  5
4EC
100
AcDbEntity
  8
3_AXES_OTHER
100
AcDbLine
 62
7
  6
CONTINUOUS
 10
26.3575257258
 20
14.9190284487
 11
10.6094942297
 21
14.9190284487
  0
LINE
  5
4ED
100
AcDbEntity
  8
3_AXES_OTHER
100
AcDbLine
 62
7
  6
CONTINUOUS
 10
13.4047698203
 20
15.5861673149
 11
23.5622501352
 21
15.5861673149
  0
LINE
  5
4EE
100
AcDbEntity
  8
3_ALL_AXES
100
AcDbLine
 62
7
  6
CONTINUOUS
 10
23.3653997415
 20
15.6509739734
 11
13.601620214
 21
15.6509739734
  0
LINE
  5
4EF
100
AcDbEntity
  8
3_ALL_AXES
100
AcDbLine
 62
7
  6
CONTINUOUS
 10
13.4047698203
 20
15.7186337553
 11
13.601620214
 21
15.7186337553
  0
LINE
  5
4F0
100
AcDbEntity
  8
3_ALL_AXES
100
AcDbLine
 62
7
  6
CONTINUOUS
 10
23.3653997415
 20
15.7186337553
 11
23.5622501352
 21
15.7186337553
  0
LINE
  5
4F1
100
AcDbEntity
  8
3_ALL_AXES
100
AcDbLine
 62
7
  6
CONTINUOUS
 10
10.3535887179
 20
26.8445163317
 11
10.3535887179
 21
27.391178361
  0
LINE
  5
4F2
100
AcDbEntity
  8
3_AXES_OTHER
100
AcDbLine
 62
7
  6
CONTINUOUS
 10
10.6094942297
 20
14.9190284487
 11
10.6094942297
 21
34.3678473463
  0
LINE
  5
4F3
100
AcDbEntity
  8
3_ALL_AXES
100
AcDbLine
 62
7
  6
CONTINUOUS
 10
22.4992580092
 20
16.4486233516
 11
14.4677619462
 21
16.4486233516
  0
LINE
  5
4F4
100
AcDbEntity
  8
3_ALL_AXES
100
AcDbLine
 62
7
  6
CONTINUOUS
 10
22.4992580092
 20
16.5162831335
 11
14.4677619462
 21
16.5162831335
  0
LINE
  5
4F5
100
AcDbEntity
  8
3_AXES_OTHER
100
AcDbLine
 62
7
  6
CONTINUOUS
 10
11.1803603714
 20
34.3678473463
 11
11.1803603714
 21
34.5450127007
  0
LINE
  5
4F6
100
AcDbEntity
  8
3_AXES_OTHER
100
AcDbLine
 62
7
  6
CONTINUOUS
 10
13.4047698203
 20
15.5861673149
 11
13.4047698203
 21
33.6117122622
  0
LINE
  5
4F7
100
AcDbEntity
  8
3_ALL_AXES
100
AcDbLine
 62
7
  6
CONTINUOUS
 10
13.601620214
 20
24.2741126045
 11
13.601620214
 21
15.6509739734
  0
LINE
  5
4F8
100
AcDbEntity
  8
3_AXES_OTHER
100
AcDbLine
 62
7
  6
CONTINUOUS
 10
14.1724863557
 20
34.3678473463
 11
14.1724863557
 21
34.5450127007
  0
LINE
  5
4F9
100
AcDbEntity
  8
3_ALL_AXES
100
AcDbLine
 62
7
  6
CONTINUOUS
 10
14.4677619462
 20
16.4486233516
 11
14.4677619462
 21
23.3698241542
  0
LINE
  5
4FA
100
AcDbEntity
  8
3_AXES_OTHER
100
AcDbLine
 62
7
  6
CONTINUOUS
 10
16.0425650959
 20
34.3678473463
 11
16.0425650959
 21
34.4458327535
  0
LINE
  5
4FB
100
AcDbEntity
  8
3_ALL_AXES
100
AcDbLine
 62
7
  6
CONTINUOUS
 10
18.1355243571
 20
21.1281899278
 11
14.5752233625
 21
23.3698241542
  0
LINE
  5
4FC
100
AcDbEntity
  8
3_ALL_AXES
100
AcDbLine
 62
7
  6
CONTINUOUS
 10
18.8314955984
 20
20.4559333314
 11
22.4992580092
 21
16.5162831335
  0
LINE
  5
4FD
100
AcDbEntity
  8
3_ALL_AXES
100
AcDbLine
 62
7
  6
CONTINUOUS
 10
16.900671533
 20
24.2364106176
 11
16.900671533
 21
24.2064528226
  0
LINE
  5
4FE
100
AcDbEntity
  8
3_ALL_AXES
100
AcDbLine
 62
7
  6
CONTINUOUS
 10
14.4677619462
 20
23.3698241542
 11
22.4992580092
 21
23.3698241542
  0
LINE
  5
4FF
100
AcDbEntity
  8
3_ALL_AXES
100
AcDbLine
 62
7
  6
CENTER
 10
18.4835099777
 20
35.3029510768
 11
18.4835099777
 21
13.902303161
  0
LINE
  5
500
100
AcDbEntity
  8
3_ALL_AXES
100
AcDbLine
 62
7
  6
CONTINUOUS
 10
23.3653997415
 20
24.2064528226
 11
20.0663484224
 21
24.2064528226
  0
LINE
  5
501
100
AcDbEntity
  8
3_ALL_AXES
100
AcDbLine
 62
7
  6
CONTINUOUS
 10
16.900671533
 20
24.2064528226
 11
13.601620214
 21
24.2064528226
  0
LINE
  5
502
100
AcDbEntity
  8
3_ALL_AXES
100
AcDbLine
 62
7
  6
CONTINUOUS
 10
23.3653997415
 20
24.2741126045
 11
20.1601920661
 21
24.2741126045
  0
LINE
  5
503
100
AcDbEntity
  8
3_ALL_AXES
100
AcDbLine
 62
7
  6
CONTINUOUS
 10
16.8068264718
 20
24.2741126045
 11
13.601620214
 21
24.2741126045
  0
LINE
  5
504
100
AcDbEntity
  8
3_ALL_AXES
100
AcDbLine
 62
7
  6
CONTINUOUS
 10
20.0663484224
 20
24.2364106176
 11
20.0663484224
 21
24.2064528226
  0
LINE
  5
505
100
AcDbEntity
  8
3_ALL_AXES
100
AcDbLine
 62
7
  6
CENTER
 10
18.4835099777
 20
26.0553473463
 11
17.9836621766
 21
26.0553473463
  0
LINE
  5
506
100
AcDbEntity
  8
3_ALL_AXES
100
AcDbLine
 62
7
  6
CENTER
 10
18.4835099777
 20
26.0553473463
 11
19.0127498397
 21
26.0553473463
  0
LINE
  5
507
100
AcDbEntity
  8
3_AXES_OTHER
100
AcDbLine
 62
7
  6
CONTINUOUS
 10
20.9244548596
 20
34.3678473463
 11
20.9244548596
 21
34.4458327535
  0
LINE
  5
508
100
AcDbEntity
  8
3_ALL_AXES
100
AcDbLine
 62
7
  6
CONTINUOUS
 10
18.1355243571
 20
20.4559333314
 11
14.4677619462
 21
16.5162831335
  0
LINE
  5
509
100
AcDbEntity
  8
3_ALL_AXES
100
AcDbLine
 62
7
  6
CONTINUOUS
 10
26.6134312376
 20
26.8444221495
 11
26.3575257258
 21
26.8444221495
  0
LINE
  5
50A
100
AcDbEntity
  8
3_ALL_AXES
100
AcDbLine
 62
7
  6
CONTINUOUS
 10
10.6094942297
 20
26.8444221495
 11
10.3535887179
 21
26.8444221495
  0
LINE
  5
50B
100
AcDbEntity
  8
3_ALL_AXES
100
AcDbLine
 62
7
  6
CONTINUOUS
 10
26.6134312376
 20
27.3912725432
 11
26.3575257258
 21
27.3912725432
  0
LINE
  5
50C
100
AcDbEntity
  8
3_ALL_AXES
100
AcDbLine
 62
7
  6
CONTINUOUS
 10
10.6094942297
 20
27.3912725432
 11
10.3535887179
 21
27.3912725432
  0
LINE
  5
50D
100
AcDbEntity
  8
3_ALL_AXES
100
AcDbLine
 62
7
  6
CONTINUOUS
 10
18.8314955984
 20
21.1281899278
 11
22.391796593
 21
23.3698241542
  0
LINE
  5
50E
100
AcDbEntity
  8
3_ALL_AXES
100
AcDbLine
 62
7
  6
CONTINUOUS
 10
22.4992580092
 20
23.3698241542
 11
22.4992580092
 21
16.4486233516
  0
LINE
  5
50F
100
AcDbEntity
  8
3_AXES_OTHER
100
AcDbLine
 62
7
  6
CONTINUOUS
 10
22.7945335998
 20
34.3678473463
 11
22.7945335998
 21
34.5450127007
  0
LINE
  5
510
100
AcDbEntity
  8
3_ALL_AXES
100
AcDbLine
 62
7
  6
CONTINUOUS
 10
23.3653997415
 20
15.6509739734
 11
23.3653997415
 21
24.2741126045
  0
LINE
  5
511
100
AcDbEntity
  8
3_AXES_OTHER
100
AcDbLine
 62
7
  6
CONTINUOUS
 10
23.5622501352
 20
15.5861673149
 11
23.5622501352
 21
33.6117122622
  0
LINE
  5
512
100
AcDbEntity
  8
3_AXES_OTHER
100
AcDbLine
 62
7
  6
CONTINUOUS
 10
25.786659584
 20
34.3678473463
 11
25.786659584
 21
34.5450127007
  0
LINE
  5
513
100
AcDbEntity
  8
3_AXES_OTHER
100
AcDbLine
 62
7
  6
CONTINUOUS
 10
26.3575257258
 20
14.9190284487
 11
26.3575257258
 21
34.3678473463
  0
LINE
  5
514
100
AcDbEntity
  8
3_ALL_AXES
100
AcDbLine
 62
7
  6
CONTINUOUS
 10
26.6134312376
 20
26.8445163317
 11
26.6134312376
 21
27.391178361
  0
LINE
  5
515
100
AcDbEntity
  8
3_AXES_OTHER
100
AcDbLine
 62
7
  6
CONTINUOUS
 10
13.4047698203
 20
33.6117122622
 11
23.5622501352
 21
33.6117122622
  0
LINE
  5
516
100
AcDbEntity
  8
3_AXES_OTHER
100
AcDbLine
 62
7
  6
CONTINUOUS
 10
26.3575257258
 20
34.2353809059
 11
10.6094942297
 21
34.2353809059
  0
LINE
  5
517
100
AcDbEntity
  8
3_AXES_OTHER
100
AcDbLine
 62
7
  6
CONTINUOUS
 10
26.3575257258
 20
34.3678473463
 11
10.6094942297
 21
34.3678473463
  0
LINE
  5
518
100
AcDbEntity
  8
3_AXES_OTHER
100
AcDbLine
 62
7
  6
CONTINUOUS
 10
16.0425650959
 20
34.4458327535
 11
20.9244548596
 21
34.4458327535
  0
LINE
  5
519
100
AcDbEntity
  8
3_AXES_OTHER
100
AcDbLine
 62
7
  6
CONTINUOUS
 10
11.1803603714
 20
34.5450127007
 11
14.1724863557
 21
34.5450127007
  0
LINE
  5
51A
100
AcDbEntity
  8
3_AXES_OTHER
100
AcDbLine
 62
7
  6
CONTINUOUS
 10
22.7945335998
 20
34.5450127007
 11
25.786659584
 21
34.5450127007
  0
LINE
  5
51B
100
AcDbEntity
  8
3_AXES_OTHER
100
AcDbLine
 62
7
  6
CONTINUOUS
 10
44.5020561088
 20
14.9190284487
 11
49.5844060807
 21
14.9190284487
  0
LINE
  5
51C
100
AcDbEntity
  8
3_AXES_OTHER
100
AcDbLine
 62
7
  6
CONTINUOUS
 10
41.887555687
 20
34.3678473463
 11
41.887555687
 21
34.5450127007
  0
LINE
  5
51D
100
AcDbEntity
  8
3_AXES_OTHER
100
AcDbLine
 62
7
  6
CONTINUOUS
 10
45.9392721318
 20
34.2317442998
 11
46.0391032172
 21
34.4458327535
  0
LINE
  5
51E
100
AcDbEntity
  8
3_AXES_OTHER
100
AcDbLine
 62
7
  6
CONTINUOUS
 10
44.5020561088
 20
14.9190284487
 11
39.3262550672
 21
34.2353809059
  0
LINE
  5
51F
100
AcDbEntity
  8
3_AXES_OTHER
100
AcDbLine
 62
7
  6
CONTINUOUS
 10
44.8796816712
 20
34.3678473463
 11
44.8796816712
 21
34.5450127007
  0
LINE
  5
520
100
AcDbEntity
  8
3_ALL_AXES
100
AcDbLine
 62
7
  6
CENTER
 10
45.7094060807
 20
26.7679667117
 11
45.7094060807
 21
25.3007726821
  0
LINE
  5
521
100
AcDbEntity
  8
3_ALL_AXES
100
AcDbLine
 62
7
  6
CENTER
 10
45.8324375767
 20
27.1178473463
 11
45.8324375767
 21
26.5444221495
  0
LINE
  5
522
100
AcDbEntity
  8
3_ALL_AXES
100
AcDbLine
 62
7
  6
CENTER
 10
45.8324375767
 20
27.1178473463
 11
45.8324375767
 21
27.6912725432
  0
LINE
  5
523
100
AcDbEntity
  8
3_AXES_OTHER
100
AcDbLine
 62
7
  6
CONTINUOUS
 10
49.293324572
 20
32.6677239611
 11
49.3931556574
 21
32.8818124147
  0
LINE
  5
524
100
AcDbEntity
  8
3_AXES_OTHER
100
AcDbLine
 62
7
  6
CONTINUOUS
 10
49.5844060807
 20
25.8255245117
 11
50.2025163169
 21
25.8255245117
  0
LINE
  5
525
100
AcDbEntity
  8
3_ALL_AXES
100
AcDbLine
 62
7
  6
CENTER
 10
44.9856889298
 20
26.0553473463
 11
46.4366708707
 21
26.0553473463
  0
LINE
  5
526
100
AcDbEntity
  8
3_ALL_AXES
100
AcDbLine
 62
7
  6
CENTER
 10
45.8324375767
 20
27.1178473463
 11
45.2590123799
 21
27.1178473463
  0
LINE
  5
527
100
AcDbEntity
  8
3_ALL_AXES
100
AcDbLine
 62
7
  6
CENTER
 10
45.8324375767
 20
27.1178473463
 11
46.4058627736
 21
27.1178473463
  0
LINE
  5
528
100
AcDbEntity
  8
3_AXES_OTHER
100
AcDbLine
 62
7
  6
CONTINUOUS
 10
49.5844060807
 20
32.5319904245
 11
49.5844060807
 21
14.9190284487
  0
LINE
  5
529
100
AcDbEntity
  8
3_AXES_OTHER
100
AcDbLine
 62
7
  6
CONTINUOUS
 10
50.2025163169
 20
32.3204064014
 11
50.2025163169
 21
25.8255245117
  0
LINE
  5
52A
100
AcDbEntity
  8
3_AXES_OTHER
100
AcDbLine
 62
7
  6
CONTINUOUS
 10
50.8836186791
 20
32.3204064014
 11
50.8836186791
 21
32.2605638818
  0
LINE
  5
52B
100
AcDbEntity
  8
3_AXES_OTHER
100
AcDbLine
 62
7
  6
CONTINUOUS
 10
50.2025163169
 20
32.2605638818
 11
50.8836186791
 21
32.2605638818
  0
LINE
  5
52C
100
AcDbEntity
  8
3_AXES_OTHER
100
AcDbLine
 62
7
  6
CONTINUOUS
 10
49.5844060807
 20
32.3204064014
 11
50.8836186791
 21
32.3204064014
  0
LINE
  5
52D
100
AcDbEntity
  8
3_AXES_OTHER
100
AcDbLine
 62
7
  6
CONTINUOUS
 10
45.6473982067
 20
34.3678473463
 11
49.5844060807
 21
32.5319904245
  0
LINE
  5
52E
100
AcDbEntity
  8
3_AXES_OTHER
100
AcDbLine
 62
7
  6
CONTINUOUS
 10
46.0391032172
 20
34.4458327535
 11
49.3931556574
 21
32.8818124147
  0
LINE
  5
52F
100
AcDbEntity
  8
3_AXES_OTHER
100
AcDbLine
 62
7
  6
CONTINUOUS
 10
39.8206265531
 20
34.3678473463
 11
45.6473982067
 21
34.3678473463
  0
LINE
  5
530
100
AcDbEntity
  8
3_AXES_OTHER
100
AcDbLine
 62
7
  6
CONTINUOUS
 10
41.887555687
 20
34.5450127007
 11
44.8796816712
 21
34.5450127007
  0
LINE
  5
531
100
AcDbEntity
  8
3_AXES_OTHER
100
AcDbLine
 62
7
  6
CONTINUOUS
 10
39.3262550672
 20
34.2353809059
 11
39.8206265531
 21
34.3678473463
  0
LINE
  5
532
100
AcDbEntity
  8
3_AXES_OTHER
100
AcDbLine
 62
7
  6
CONTINUOUS
 10
65.223114597
 20
14.9190284487
 11
80.971146093
 21
14.9190284487
  0
LINE
  5
533
100
AcDbEntity
  8
3_ALL_AXES
100
AcDbLine
 62
7
  6
CONTINUOUS
 10
64.9672090852
 20
27.391178361
 11
64.9672090852
 21
26.8445163317
  0
LINE
  5
534
100
AcDbEntity
  8
3_AXES_OTHER
100
AcDbLine
 62
7
  6
CONTINUOUS
 10
65.223114597
 20
34.3678473463
 11
65.223114597
 21
14.9190284487
  0
LINE
  5
535
100
AcDbEntity
  8
3_AXES_OTHER
100
AcDbLine
 62
7
  6
CONTINUOUS
 10
65.7939807387
 20
34.3678473463
 11
65.7939807387
 21
34.5450127007
  0
LINE
  5
536
100
AcDbEntity
  8
3_AXES_OTHER
100
AcDbLine
 62
7
  6
CONTINUOUS
 10
68.786106723
 20
34.3678473463
 11
68.786106723
 21
34.5450127007
  0
LINE
  5
537
100
AcDbEntity
  8
3_AXES_OTHER
100
AcDbLine
 62
7
  6
CONTINUOUS
 10
70.5794138096
 20
32.3204064014
 11
69.6463429434
 21
25.8255245117
  0
LINE
  5
538
100
AcDbEntity
  8
3_AXES_OTHER
100
AcDbLine
 62
7
  6
CONTINUOUS
 10
70.6561854631
 20
32.6677239611
 11
70.6561854631
 21
34.4458327535
  0
LINE
  5
539
100
AcDbEntity
  8
3_AXES_OTHER
100
AcDbLine
 62
7
  6
CONTINUOUS
 10
71.0368180475
 20
32.3204064014
 11
70.1037471813
 21
25.8255245117
  0
LINE
  5
53A
100
AcDbEntity
  8
3_AXES_OTHER
100
AcDbLine
 62
7
  6
CONTINUOUS
 10
71.1876815261
 20
25.8255245117
 11
71.1876815261
 21
32.3204064014
  0
LINE
  5
53B
100
AcDbEntity
  8
3_AXES_OTHER
100
AcDbLine
 62
7
  6
CONTINUOUS
 10
71.2880752269
 20
34.1385193954
 11
71.2880752269
 21
33.1684940151
  0
LINE
  5
53C
100
AcDbEntity
  8
3_ALL_AXES
100
AcDbLine
 62
7
  6
CENTER
 10
71.722130345
 20
31.4505245117
 11
71.722130345
 21
31.0255245117
  0
LINE
  5
53D
100
AcDbEntity
  8
3_ALL_AXES
100
AcDbLine
 62
7
  6
CENTER
 10
71.722130345
 20
26.4505245117
 11
71.722130345
 21
26.0255245117
  0
LINE
  5
53E
100
AcDbEntity
  8
3_ALL_AXES
100
AcDbLine
 62
7
  6
CENTER
 10
71.722130345
 20
26.4505245117
 11
71.722130345
 21
26.8755245117
  0
LINE
  5
53F
100
AcDbEntity
  8
3_ALL_AXES
100
AcDbLine
 62
7
  6
CENTER
 10
71.722130345
 20
31.4505245117
 11
71.722130345
 21
31.8755245117
  0
LINE
  5
540
100
AcDbEntity
  8
3_ALL_AXES
100
AcDbLine
 62
7
  6
CENTER
 10
73.097130345
 20
14.42859
 11
73.097130345
 21
34.78659
  0
LINE
  5
541
100
AcDbEntity
  8
3_ALL_AXES
100
AcDbLine
 62
7
  6
CENTER
 10
74.472130345
 20
31.4505245117
 11
74.472130345
 21
31.0255245117
  0
LINE
  5
542
100
AcDbEntity
  8
3_ALL_AXES
100
AcDbLine
 62
7
  6
CENTER
 10
74.472130345
 20
26.4505245117
 11
74.472130345
 21
26.0255245117
  0
LINE
  5
543
100
AcDbEntity
  8
3_ALL_AXES
100
AcDbLine
 62
7
  6
CENTER
 10
74.472130345
 20
26.4505245117
 11
74.472130345
 21
26.8755245117
  0
LINE
  5
544
100
AcDbEntity
  8
3_ALL_AXES
100
AcDbLine
 62
7
  6
CENTER
 10
74.472130345
 20
31.4505245117
 11
74.472130345
 21
31.8755245117
  0
LINE
  5
545
100
AcDbEntity
  8
3_AXES_OTHER
100
AcDbLine
 62
7
  6
CONTINUOUS
 10
74.9061854631
 20
33.1684940151
 11
74.9061854631
 21
34.1385193954
  0
LINE
  5
546
100
AcDbEntity
  8
3_AXES_OTHER
100
AcDbLine
 62
7
  6
CONTINUOUS
 10
69.6463429434
 20
25.8255245117
 11
76.5479177466
 21
25.8255245117
  0
LINE
  5
547
100
AcDbEntity
  8
3_ALL_AXES
100
AcDbLine
 62
7
  6
CENTER
 10
74.472130345
 20
26.4505245117
 11
74.047130345
 21
26.4505245117
  0
LINE
  5
548
100
AcDbEntity
  8
3_ALL_AXES
100
AcDbLine
 62
7
  6
CENTER
 10
71.722130345
 20
26.4505245117
 11
71.297130345
 21
26.4505245117
  0
LINE
  5
549
100
AcDbEntity
  8
3_ALL_AXES
100
AcDbLine
 62
7
  6
CENTER
 10
71.722130345
 20
26.4505245117
 11
72.147130345
 21
26.4505245117
  0
LINE
  5
54A
100
AcDbEntity
  8
3_ALL_AXES
100
AcDbLine
 62
7
  6
CENTER
 10
74.472130345
 20
26.4505245117
 11
74.897130345
 21
26.4505245117
  0
LINE
  5
54B
100
AcDbEntity
  8
3_AXES_OTHER
100
AcDbLine
 62
7
  6
CONTINUOUS
 10
75.0065791639
 20
25.8255245117
 11
75.0065791639
 21
32.3204064014
  0
LINE
  5
54C
100
AcDbEntity
  8
3_AXES_OTHER
100
AcDbLine
 62
7
  6
CONTINUOUS
 10
75.5380752269
 20
32.6677239611
 11
75.5380752269
 21
34.4458327535
  0
LINE
  5
54D
100
AcDbEntity
  8
3_ALL_AXES
100
AcDbLine
 62
7
  6
CONTINUOUS
 10
64.9672090852
 20
26.8444221495
 11
65.223114597
 21
26.8444221495
  0
LINE
  5
54E
100
AcDbEntity
  8
3_ALL_AXES
100
AcDbLine
 62
7
  6
CONTINUOUS
 10
80.971146093
 20
26.8444221495
 11
81.2270516048
 21
26.8444221495
  0
LINE
  5
54F
100
AcDbEntity
  8
3_ALL_AXES
100
AcDbLine
 62
7
  6
CONTINUOUS
 10
64.9672090852
 20
27.3912725432
 11
65.223114597
 21
27.3912725432
  0
LINE
  5
550
100
AcDbEntity
  8
3_ALL_AXES
100
AcDbLine
 62
7
  6
CONTINUOUS
 10
80.971146093
 20
27.3912725432
 11
81.2270516048
 21
27.3912725432
  0
LINE
  5
551
100
AcDbEntity
  8
3_AXES_OTHER
100
AcDbLine
 62
7
  6
CONTINUOUS
 10
76.0905135087
 20
25.8255245117
 11
75.1574426425
 21
32.3204064014
  0
LINE
  5
552
100
AcDbEntity
  8
3_AXES_OTHER
100
AcDbLine
 62
7
  6
CONTINUOUS
 10
77.408153967
 20
34.3678473463
 11
77.408153967
 21
34.5450127007
  0
LINE
  5
553
100
AcDbEntity
  8
3_AXES_OTHER
100
AcDbLine
 62
7
  6
CONTINUOUS
 10
76.5479177466
 20
25.8255245117
 11
75.6148468804
 21
32.3204064014
  0
LINE
  5
554
100
AcDbEntity
  8
3_ALL_AXES
100
AcDbLine
 62
7
  6
CENTER
 10
74.472130345
 20
31.4505245117
 11
74.047130345
 21
31.4505245117
  0
LINE
  5
555
100
AcDbEntity
  8
3_ALL_AXES
100
AcDbLine
 62
7
  6
CENTER
 10
71.722130345
 20
31.4505245117
 11
71.297130345
 21
31.4505245117
  0
LINE
  5
556
100
AcDbEntity
  8
3_ALL_AXES
100
AcDbLine
 62
7
  6
CENTER
 10
71.722130345
 20
31.4505245117
 11
72.147130345
 21
31.4505245117
  0
LINE
  5
557
100
AcDbEntity
  8
3_ALL_AXES
100
AcDbLine
 62
7
  6
CENTER
 10
74.472130345
 20
31.4505245117
 11
74.897130345
 21
31.4505245117
  0
LINE
  5
558
100
AcDbEntity
  8
3_AXES_OTHER
100
AcDbLine
 62
7
  6
CONTINUOUS
 10
80.4002799513
 20
34.3678473463
 11
80.4002799513
 21
34.5450127007
  0
LINE
  5
559
100
AcDbEntity
  8
3_AXES_OTHER
100
AcDbLine
 62
7
  6
CONTINUOUS
 10
71.1876815261
 20
32.2605638818
 11
75.0065791639
 21
32.2605638818
  0
LINE
  5
55A
100
AcDbEntity
  8
3_AXES_OTHER
100
AcDbLine
 62
7
  6
CONTINUOUS
 10
75.6148468804
 20
32.3204064014
 11
70.5794138096
 21
32.3204064014
  0
LINE
  5
55B
100
AcDbEntity
  8
3_AXES_OTHER
100
AcDbLine
 62
7
  6
CONTINUOUS
 10
80.971146093
 20
34.3678473463
 11
80.971146093
 21
14.9190284487
  0
LINE
  5
55C
100
AcDbEntity
  8
3_ALL_AXES
100
AcDbLine
 62
7
  6
CONTINUOUS
 10
81.2270516048
 20
27.391178361
 11
81.2270516048
 21
26.8445163317
  0
LINE
  5
55D
100
AcDbEntity
  8
3_AXES_OTHER
100
AcDbLine
 62
7
  6
CONTINUOUS
 10
65.223114597
 20
32.5319904245
 11
80.971146093
 21
32.5319904245
  0
LINE
  5
55E
100
AcDbEntity
  8
3_AXES_OTHER
100
AcDbLine
 62
7
  6
CONTINUOUS
 10
70.6561854631
 20
32.6677239611
 11
75.5380752269
 21
32.6677239611
  0
LINE
  5
55F
100
AcDbEntity
  8
3_AXES_OTHER
100
AcDbLine
 62
7
  6
CONTINUOUS
 10
70.6561854631
 20
32.8818124147
 11
75.5380752269
 21
32.8818124147
  0
LINE
  5
560
100
AcDbEntity
  8
3_AXES_OTHER
100
AcDbLine
 62
7
  6
CONTINUOUS
 10
71.2880752269
 20
33.1684940151
 11
74.9061854631
 21
33.1684940151
  0
LINE
  5
561
100
AcDbEntity
  8
3_AXES_OTHER
100
AcDbLine
 62
7
  6
CONTINUOUS
 10
74.9061854631
 20
33.4248912166
 11
71.2880752269
 21
33.4248912166
  0
LINE
  5
562
100
AcDbEntity
  8
3_AXES_OTHER
100
AcDbLine
 62
7
  6
CONTINUOUS
 10
74.9061854631
 20
34.1385193954
 11
71.2880752269
 21
34.1385193954
  0
LINE
  5
563
100
AcDbEntity
  8
3_AXES_OTHER
100
AcDbLine
 62
7
  6
CONTINUOUS
 10
65.223114597
 20
34.3678473463
 11
70.6561854631
 21
34.3678473463
  0
LINE
  5
564
100
AcDbEntity
  8
3_AXES_OTHER
100
AcDbLine
 62
7
  6
CONTINUOUS
 10
75.5380752269
 20
34.3678473463
 11
80.971146093
 21
34.3678473463
  0
LINE
  5
565
100
AcDbEntity
  8
3_AXES_OTHER
100
AcDbLine
 62
7
  6
CONTINUOUS
 10
75.5380752269
 20
34.4458327535
 11
70.6561854631
 21
34.4458327535
  0
LINE
  5
566
100
AcDbEntity
  8
3_AXES_OTHER
100
AcDbLine
 62
7
  6
CONTINUOUS
 10
65.7939807387
 20
34.5450127007
 11
68.786106723
 21
34.5450127007
  0
LINE
  5
567
100
AcDbEntity
  8
3_AXES_OTHER
100
AcDbLine
 62
7
  6
CONTINUOUS
 10
77.408153967
 20
34.5450127007
 11
80.4002799513
 21
34.5450127007
  0
CIRCLE
  5
568
100
AcDbEntity
  8
0
100
AcDbCircle
 62
7
  6
CONTINUOUS
 10
45.8324375767
 20
27.1178473463
 40
0.4196855237
  0
ARC
  5
569
100
AcDbEntity
  8
3_ALL_AXES
100
AcDbCircle
 62
7
  6
CONTINUOUS
 10
59.5782677157
 20
60.1651680189
 40
0.0300406799
100
AcDbArc
 50
348.8115297892
 51
357.6460776231
  0
ARC
  5
56A
100
AcDbEntity
  8
3_ALL_AXES
100
AcDbCircle
 62
7
  6
CONTINUOUS
 10
61.3495931868
 20
59.6862833047
 40
0.0300406799
100
AcDbArc
 50
348.8115297892
 51
357.6460776231
  0
CIRCLE
  5
56B
100
AcDbEntity
  8
3_AXES_OTHER
100
AcDbCircle
 62
7
  6
CONTINUOUS
 10
24.2905965919
 20
45.8300479948
 40
1.4960629921
  0
CIRCLE
  5
56C
100
AcDbEntity
  8
3_AXES_OTHER
100
AcDbCircle
 62
7
  6
CONTINUOUS
 10
12.6764233636
 20
45.8300479948
 40
1.4960629921
  0
CIRCLE
  5
56D
100
AcDbEntity
  8
3_AXES_OTHER
100
AcDbCircle
 62
7
  6
CONTINUOUS
 10
24.2905965919
 20
45.8300479948
 40
0.9842519685
  0
CIRCLE
  5
56E
100
AcDbEntity
  8
3_AXES_OTHER
100
AcDbCircle
 62
7
  6
CONTINUOUS
 10
12.6764233636
 20
45.8300479948
 40
0.9842519685
  0
ARC
  5
56F
100
AcDbEntity
  8
3_ALL_AXES
100
AcDbCircle
 62
7
  6
CONTINUOUS
 10
19.4835099777
 20
53.0469771287
 40
0.1437007874
100
AcDbArc
 50
0.0
 51
180.0
  0
ARC
  5
570
100
AcDbEntity
  8
3_ALL_AXES
100
AcDbCircle
 62
7
  6
CONTINUOUS
 10
17.4835099777
 20
52.8969771287
 40
0.1437007874
100
AcDbArc
 50
180.0
 51
360.0
  0
ARC
  5
571
100
AcDbEntity
  8
3_ALL_AXES
100
AcDbCircle
 62
7
  6
CONTINUOUS
 10
17.4835099777
 20
53.0469771287
 40
0.1437007874
100
AcDbArc
 50
0.0
 51
180.0
  0
ARC
  5
572
100
AcDbEntity
  8
3_ALL_AXES
100
AcDbCircle
 62
7
  6
CONTINUOUS
 10
19.4835099777
 20
52.8969771287
 40
0.1437007874
100
AcDbArc
 50
180.0
 51
360.0
  0
ARC
  5
573
100
AcDbEntity
  8
3_ALL_AXES
100
AcDbCircle
 62
7
  6
CONTINUOUS
 10
18.4835099777
 20
29.2112467528
 40
5.2491275299
100
AcDbArc
 50
252.4496881767
 51
287.5503118233
  0
ARC
  5
574
100
AcDbEntity
  8
3_ALL_AXES
100
AcDbCircle
 62
7
  6
CONTINUOUS
 10
18.4835099777
 20
29.2412045478
 40
5.2491275299
100
AcDbArc
 50
252.4496881767
 51
287.5503118233
  0
CIRCLE
  5
575
100
AcDbEntity
  8
3_ALL_AXES
100
AcDbCircle
 62
7
  6
CONTINUOUS
 10
45.8324375767
 20
27.1178473463
 40
0.2734251969
  0
CIRCLE
  5
576
100
AcDbEntity
  8
3_ALL_AXES
100
AcDbCircle
 62
7
  6
CONTINUOUS
 10
71.722130345
 20
26.4505245117
 40
0.125
  0
CIRCLE
  5
577
100
AcDbEntity
  8
3_ALL_AXES
100
AcDbCircle
 62
7
  6
CONTINUOUS
 10
71.722130345
 20
31.4505245117
 40
0.125
  0
CIRCLE
  5
578
100
AcDbEntity
  8
3_ALL_AXES
100
AcDbCircle
 62
7
  6
CONTINUOUS
 10
74.472130345
 20
31.4505245117
 40
0.125
  0
CIRCLE
  5
579
100
AcDbEntity
  8
3_ALL_AXES
100
AcDbCircle
 62
7
  6
CONTINUOUS
 10
74.472130345
 20
26.4505245117
 40
0.125
  0
SPLINE
  5
57A
100
AcDbEntity
  8
3_ALL_AXES
100
AcDbSpline
 62
7
  6
CONTINUOUS
 70
0
 71
3
 72
11
 73
7
 74
0
 42
0.0000001
 43
0.0000001
 44
0.0000000001
 40
0.0
 40
0.0
 40
0.0
 40
0.0
 40
0.2163193152
 40
0.4497972768
 40
0.7105297248
 40
1.0
 40
1.0
 40
1.0
 40
1.0
 10
52.7312495426
 20
55.522912598
 30
0.0
 10
52.8614968636
 20
55.6965349747
 30
0.0
 10
53.2095871766
 20
56.0044002565
 30
0.0
 10
53.8900013997
 20
56.2560482174
 30
0.0
 10
54.6834934842
 20
56.3049555555
 30
0.0
 10
55.2321240154
 20
56.2098821991
 30
0.0
 10
55.5125012392
 20
56.1340811287
 30
0.0
  0
SPLINE
  5
57B
100
AcDbEntity
  8
3_ALL_AXES
100
AcDbSpline
 62
7
  6
CONTINUOUS
 70
0
 71
3
 72
9
 73
5
 74
0
 42
0.0000001
 43
0.0000001
 44
0.0000000001
 40
0.0
 40
0.0
 40
0.0
 40
0.0
 40
0.4797899671
 40
1.0
 40
1.0
 40
1.0
 40
1.0
 10
51.7867126441
 20
56.2320289695
 30
0.0
 10
51.6110256964
 20
55.9978832548
 30
0.0
 10
51.3467787361
 20
55.4271578427
 30
0.0
 10
51.3143793678
 20
54.8048465785
 30
0.0
 10
51.3420778166
 20
54.4886677256
 30
0.0
  0
SPLINE
  5
57C
100
AcDbEntity
  8
3_ALL_AXES
100
AcDbSpline
 62
7
  6
CONTINUOUS
 70
0
 71
3
 72
11
 73
7
 74
0
 42
0.0000001
 43
0.0000001
 44
0.0000000001
 40
0.0
 40
0.0
 40
0.0
 40
0.0
 40
0.2184450748
 40
0.4651012637
 40
0.7304494058
 40
1.0
 40
1.0
 40
1.0
 40
1.0
 10
51.3420778166
 20
54.4886677256
 30
0.0
 10
51.3800788263
 20
54.0548847469
 30
0.0
 10
51.64004588
 20
53.1455031892
 30
0.0
 10
52.4076178086
 20
51.8934392594
 30
0.0
 10
53.5004350823
 20
50.7673234121
 30
0.0
 10
54.3898763976
 20
50.1632501908
 30
0.0
 10
54.8639271259
 20
49.9102965025
 30
0.0
  0
SPLINE
  5
57D
100
AcDbEntity
  8
3_ALL_AXES
100
AcDbSpline
 62
7
  6
CONTINUOUS
 70
0
 71
3
 72
12
 73
8
 74
0
 42
0.0000001
 43
0.0000001
 44
0.0000000001
 40
0.0
 40
0.0
 40
0.0
 40
0.0
 40
0.3065717815
 40
0.6129159003
 40
0.7448277716
 40
0.8538620435
 40
1.0
 40
1.0
 40
1.0
 40
1.0
 10
65.2891584414
 20
51.6015581455
 30
0.0
 10
65.2873719128
 20
51.5557756085
 30
0.0
 10
65.2714992004
 20
51.464683933
 30
0.0
 10
65.2327032612
 20
51.3597027144
 30
0.0
 10
65.1891430072
 20
51.2894291937
 30
0.0
 10
65.1527185029
 20
51.2462965664
 30
0.0
 10
65.1122729643
 20
51.2248687816
 30
0.0
 10
65.0911908658
 20
51.2305739848
 30
0.0
  0
SPLINE
  5
57E
100
AcDbEntity
  8
3_AXES_OTHER
100
AcDbSpline
 62
7
  6
CONTINUOUS
 70
0
 71
3
 72
9
 73
5
 74
0
 42
0.0000001
 43
0.0000001
 44
0.0000000001
 40
0.0
 40
0.0
 40
0.0
 40
0.0
 40
0.5392492224
 40
1.0
 40
1.0
 40
1.0
 40
1.0
 10
60.9039212145
 20
58.0493086226
 30
0.0
 10
60.8555567533
 20
58.0084197434
 30
0.0
 10
60.7737718801
 20
57.9204308032
 30
0.0
 10
60.7361175297
 20
57.803564755
 30
0.0
 10
60.7340078891
 20
57.74949259
 30
0.0
  0
SPLINE
  5
57F
100
AcDbEntity
  8
3_AXES_OTHER
100
AcDbSpline
 62
7
  6
CONTINUOUS
 70
0
 71
3
 72
9
 73
5
 74
0
 42
0.0000001
 43
0.0000001
 44
0.0000000001
 40
0.0
 40
0.0
 40
0.0
 40
0.0
 40
0.5392492224
 40
1.0
 40
1.0
 40
1.0
 40
1.0
 10
50.6176807821
 20
60.8302336362
 30
0.0
 10
50.5693163209
 20
60.7893447571
 30
0.0
 10
50.4875314477
 20
60.7013558169
 30
0.0
 10
50.4498770973
 20
60.5844897687
 30
0.0
 10
50.4477674567
 20
60.5304176037
 30
0.0
  0
SPLINE
  5
580
100
AcDbEntity
  8
3_AXES_OTHER
100
AcDbSpline
 62
7
  6
CONTINUOUS
 70
0
 71
3
 72
16
 73
12
 74
0
 42
0.0000001
 43
0.0000001
 44
0.0000000001
 40
0.0
 40
0.0
 40
0.0
 40
0.0
 40
0.1091156106
 40
0.2443077219
 40
0.396542893
 40
0.5529978079
 40
0.7000552139
 40
0.8259525212
 40
0.8787673476
 40
0.9246207518
 40
1.0
 40
1.0
 40
1.0
 40
1.0
 10
63.1006437475
 20
57.455416162
 30
0.0
 10
63.0425316941
 20
57.4062863533
 30
0.0
 10
62.8884252862
 20
57.3257193804
 30
0.0
 10
62.6194746099
 20
57.2568409795
 30
0.0
 10
62.3095327448
 20
57.2314295422
 30
0.0
 10
61.9912078991
 20
57.2528742881
 30
0.0
 10
61.6979529994
 20
57.31886687
 30
0.0
 10
61.4869963547
 20
57.409392377
 30
0.0
 10
61.3599336338
 20
57.5025592354
 30
0.0
 10
61.2766321394
 20
57.5908968596
 30
0.0
 10
61.2433985018
 20
57.6768063178
 30
0.0
 10
61.2454193655
 20
57.7293367709
 30
0.0
  0
SPLINE
  5
581
100
AcDbEntity
  8
3_AXES_OTHER
100
AcDbSpline
 62
7
  6
CONTINUOUS
 70
0
 71
3
 72
16
 73
12
 74
0
 42
0.0000001
 43
0.0000001
 44
0.0000000001
 40
0.0
 40
0.0
 40
0.0
 40
0.0
 40
0.1091156106
 40
0.2443077219
 40
0.396542893
 40
0.5529978079
 40
0.7000552139
 40
0.8259525212
 40
0.8787673476
 40
0.9246207518
 40
1.0
 40
1.0
 40
1.0
 40
1.0
 10
52.8144033151
 20
60.2363411757
 30
0.0
 10
52.7562912617
 20
60.1872113669
 30
0.0
 10
52.6021848538
 20
60.106644394
 30
0.0
 10
52.3332341775
 20
60.0377659932
 30
0.0
 10
52.0232923125
 20
60.0123545559
 30
0.0
 10
51.7049674667
 20
60.0337993018
 30
0.0
 10
51.411712567
 20
60.0997918837
 30
0.0
 10
51.2007559223
 20
60.1903173907
 30
0.0
 10
51.0736932015
 20
60.2834842491
 30
0.0
 10
50.990391707
 20
60.3718218733
 30
0.0
 10
50.9571580694
 20
60.4577313315
 30
0.0
 10
50.9591789331
 20
60.5102617846
 30
0.0
  0
SPLINE
  5
582
100
AcDbEntity
  8
3_ALL_AXES
100
AcDbSpline
 62
7
  6
CONTINUOUS
 70
0
 71
3
 72
8
 73
4
 74
0
 42
0.0000001
 43
0.0000001
 44
0.0000000001
 40
0.0
 40
0.0
 40
0.0
 40
0.0
 40
1.0
 40
1.0
 40
1.0
 40
1.0
 10
61.0229711702
 20
59.6376628945
 30
0.0
 10
61.0228342175
 20
59.6343185291
 30
0.0
 10
61.0232799504
 20
59.6309139481
 30
0.0
 10
61.0242070394
 20
59.6276977326
 30
0.0
  0
SPLINE
  5
583
100
AcDbEntity
  8
3_ALL_AXES
100
AcDbSpline
 62
7
  6
CONTINUOUS
 70
0
 71
3
 72
9
 73
5
 74
0
 42
0.0000001
 43
0.0000001
 44
0.0000000001
 40
0.0
 40
0.0
 40
0.0
 40
0.0
 40
0.2878119448
 40
1.0
 40
1.0
 40
1.0
 40
1.0
 10
61.2316963234
 20
59.571350591
 30
0.0
 10
61.2380698737
 20
59.5726399332
 30
0.0
 10
61.2599174449
 20
59.5780374167
 30
0.0
 10
61.2815449701
 20
59.5871998668
 30
0.0
 10
61.2938328106
 20
59.5975884044
 30
0.0
  0
SPLINE
  5
584
100
AcDbEntity
  8
3_ALL_AXES
100
AcDbSpline
 62
7
  6
CONTINUOUS
 70
0
 71
3
 72
8
 73
4
 74
0
 42
0.0000001
 43
0.0000001
 44
0.0000000001
 40
0.0
 40
0.0
 40
0.0
 40
0.0
 40
1.0
 40
1.0
 40
1.0
 40
1.0
 10
59.2516456991
 20
60.1165476087
 30
0.0
 10
59.2515087464
 20
60.1132032433
 30
0.0
 10
59.2519544793
 20
60.1097986623
 30
0.0
 10
59.2528815684
 20
60.1065824469
 30
0.0
  0
SPLINE
  5
585
100
AcDbEntity
  8
3_ALL_AXES
100
AcDbSpline
 62
7
  6
CONTINUOUS
 70
0
 71
3
 72
9
 73
5
 74
0
 42
0.0000001
 43
0.0000001
 44
0.0000000001
 40
0.0
 40
0.0
 40
0.0
 40
0.0
 40
0.2878119448
 40
1.0
 40
1.0
 40
1.0
 40
1.0
 10
59.4603708523
 20
60.0502353052
 30
0.0
 10
59.4667444026
 20
60.0515246474
 30
0.0
 10
59.4885919738
 20
60.0569221309
 30
0.0
 10
59.5102194991
 20
60.066084581
 30
0.0
 10
59.5225073395
 20
60.0764731186
 30
0.0
  0
SPLINE
  5
586
100
AcDbEntity
  8
3_AXES_OTHER
100
AcDbSpline
 62
7
  6
CONTINUOUS
 70
0
 71
3
 72
17
 73
13
 74
0
 42
0.0000001
 43
0.0000001
 44
0.0000000001
 40
0.0
 40
0.0
 40
0.0
 40
0.0
 40
0.0364149478
 40
0.0763264658
 40
0.1221197612
 40
0.1748702246
 40
0.3006267009
 40
0.4475314586
 40
0.6038335355
 40
0.7559238172
 40
0.8909920389
 40
1.0
 40
1.0
 40
1.0
 40
1.0
 10
53.4376085918
 20
60.4136079704
 30
0.0
 10
53.4391151709
 20
60.4522230768
 30
0.0
 10
53.4265911736
 20
60.534345456
 30
0.0
 10
53.364546849
 20
60.6501998617
 30
0.0
 10
53.2637854374
 20
60.7587811533
 30
0.0
 10
53.0706977832
 20
60.899773517
 30
0.0
 10
52.7500574417
 20
61.0378212841
 30
0.0
 10
52.3042859636
 20
61.1380312661
 30
0.0
 10
51.8203742509
 20
61.1706959471
 30
0.0
 10
51.3491785472
 20
61.1321136102
 30
0.0
 10
50.9403096756
 20
61.0273892245
 30
0.0
 10
50.7060223099
 20
60.9049204199
 30
0.0
 10
50.6176807821
 20
60.8302336362
 30
0.0
  0
SPLINE
  5
587
100
AcDbEntity
  8
3_AXES_OTHER
100
AcDbSpline
 62
7
  6
CONTINUOUS
 70
0
 71
3
 72
17
 73
13
 74
0
 42
0.0000001
 43
0.0000001
 44
0.0000000001
 40
0.0
 40
0.0
 40
0.0
 40
0.0
 40
0.0364149478
 40
0.0763264658
 40
0.1221197612
 40
0.1748702246
 40
0.3006267009
 40
0.4475314586
 40
0.6038335355
 40
0.7559238172
 40
0.8909920389
 40
1.0
 40
1.0
 40
1.0
 40
1.0
 10
63.7238490242
 20
57.6326829567
 30
0.0
 10
63.7253556032
 20
57.6712980631
 30
0.0
 10
63.712831606
 20
57.7534204424
 30
0.0
 10
63.6507872814
 20
57.869274848
 30
0.0
 10
63.5500258698
 20
57.9778561396
 30
0.0
 10
63.3569382156
 20
58.1188485033
 30
0.0
 10
63.0362978741
 20
58.2568962704
 30
0.0
 10
62.5905263959
 20
58.3571062524
 30
0.0
 10
62.1066146833
 20
58.3897709334
 30
0.0
 10
61.6354189796
 20
58.3511885965
 30
0.0
 10
61.226550108
 20
58.2464642108
 30
0.0
 10
60.9922627422
 20
58.1239954062
 30
0.0
 10
60.9039212145
 20
58.0493086226
 30
0.0
  0
SPLINE
  5
588
100
AcDbEntity
  8
3_AXES_OTHER
100
AcDbSpline
 62
7
  6
CONTINUOUS
 70
0
 71
3
 72
9
 73
5
 74
0
 42
0.0000001
 43
0.0000001
 44
0.0000000001
 40
0.0
 40
0.0
 40
0.0
 40
0.0
 40
0.4608303975
 40
1.0
 40
1.0
 40
1.0
 40
1.0
 10
63.2124375478
 20
57.6528387757
 30
0.0
 10
63.2110677569
 20
57.6172323459
 30
0.0
 10
63.1863174021
 20
57.5402749766
 30
0.0
 10
63.1324807888
 20
57.482332226
 30
0.0
 10
63.1006437475
 20
57.455416162
 30
0.0
  0
SPLINE
  5
589
100
AcDbEntity
  8
3_ALL_AXES
100
AcDbSpline
 62
7
  6
CONTINUOUS
 70
0
 71
3
 72
9
 73
5
 74
0
 42
0.0000001
 43
0.0000001
 44
0.0000000001
 40
0.0
 40
0.0
 40
0.0
 40
0.0
 40
0.2801188954
 40
1.0
 40
1.0
 40
1.0
 40
1.0
 10
59.5919622713
 20
60.1351925635
 30
0.0
 10
59.5940393536
 20
60.136948596
 30
0.0
 10
59.6010638542
 20
60.1436035655
 30
0.0
 10
59.6063833728
 20
60.1524814894
 30
0.0
 10
59.6077374491
 20
60.1593390171
 30
0.0
  0
SPLINE
  5
58A
100
AcDbEntity
  8
3_ALL_AXES
100
AcDbSpline
 62
7
  6
CONTINUOUS
 70
0
 71
3
 72
9
 73
5
 74
0
 42
0.0000001
 43
0.0000001
 44
0.0000000001
 40
0.0
 40
0.0
 40
0.0
 40
0.0
 40
0.2801188954
 40
1.0
 40
1.0
 40
1.0
 40
1.0
 10
61.3632877424
 20
59.6563078492
 30
0.0
 10
61.3653648247
 20
59.6580638818
 30
0.0
 10
61.3723893253
 20
59.6647188513
 30
0.0
 10
61.3777088438
 20
59.6735967751
 30
0.0
 10
61.3790629202
 20
59.6804543029
 30
0.0
  0
SPLINE
  5
58B
100
AcDbEntity
  8
3_AXES_OTHER
100
AcDbSpline
 62
7
  6
CONTINUOUS
 70
0
 71
3
 72
9
 73
5
 74
0
 42
0.0000001
 43
0.0000001
 44
0.0000000001
 40
0.0
 40
0.0
 40
0.0
 40
0.0
 40
0.4608303975
 40
1.0
 40
1.0
 40
1.0
 40
1.0
 10
52.9261971154
 20
60.4337637894
 30
0.0
 10
52.9248273245
 20
60.3981573596
 30
0.0
 10
52.9000769697
 20
60.3211999903
 30
0.0
 10
52.8462403564
 20
60.2632572397
 30
0.0
 10
52.8144033151
 20
60.2363411757
 30
0.0
  0
SPLINE
  5
58C
100
AcDbEntity
  8
3_ALL_AXES
100
AcDbSpline
 62
7
  6
CONTINUOUS
 70
0
 71
3
 72
10
 73
6
 74
0
 42
0.0000001
 43
0.0000001
 44
0.0000000001
 40
0.0
 40
0.0
 40
0.0
 40
0.0
 40
0.3773046803
 40
0.6593608773
 40
1.0
 40
1.0
 40
1.0
 40
1.0
 10
65.2339163052
 20
51.7584706294
 30
0.0
 10
65.25504844
 20
51.7527518854
 30
0.0
 10
65.2792468884
 20
51.7136952203
 30
0.0
 10
65.2888556688
 20
51.6579553387
 30
0.0
 10
65.2899291189
 20
51.6213079397
 30
0.0
 10
65.2891584414
 20
51.6015581455
 30
0.0
  0
SPLINE
  5
58D
100
AcDbEntity
  8
3_ALL_AXES
100
AcDbSpline
 62
7
  6
CONTINUOUS
 70
0
 71
3
 72
11
 73
7
 74
0
 42
0.0000001
 43
0.0000001
 44
0.0000000001
 40
0.0
 40
0.0
 40
0.0
 40
0.0
 40
0.2758527662
 40
0.5312018896
 40
0.7701981597
 40
1.0
 40
1.0
 40
1.0
 40
1.0
 10
57.6676491796
 20
49.1522993663
 30
0.0
 10
57.9006356245
 20
49.1546958624
 30
0.0
 10
58.3503495328
 20
49.1963085898
 30
0.0
 10
58.9780235848
 20
49.3854460839
 30
0.0
 10
59.5122822933
 20
49.6955482403
 30
0.0
 10
59.7950688871
 20
49.9807788727
 30
0.0
 10
59.9115554658
 20
50.1360413106
 30
0.0
  0
SPLINE
  5
58E
100
AcDbEntity
  8
3_ALL_AXES
100
AcDbSpline
 62
7
  6
CONTINUOUS
 70
0
 71
3
 72
15
 73
11
 74
0
 42
0.0000001
 43
0.0000001
 44
0.0000000001
 40
0.0
 40
0.0
 40
0.0
 40
0.0
 40
0.1366194269
 40
0.2792775508
 40
0.4223854347
 40
0.5602642194
 40
0.6881235011
 40
0.8031200782
 40
0.9055750485
 40
1.0
 40
1.0
 40
1.0
 40
1.0
 10
55.5125012392
 20
56.1340811287
 30
0.0
 10
55.8279303616
 20
56.0488036415
 30
0.0
 10
56.45554227
 20
55.8065023791
 30
0.0
 10
57.3228542513
 20
55.279565104
 30
0.0
 10
58.0915729162
 20
54.6117746363
 30
0.0
 10
58.7101127094
 20
53.8473623792
 30
0.0
 10
59.1374687949
 20
53.0355240223
 30
0.0
 10
59.3432708899
 20
52.2257576253
 30
0.0
 10
59.305738212
 20
51.4670023272
 30
0.0
 10
59.1024144178
 20
51.0256393786
 30
0.0
 10
58.9668920936
 20
50.8449853134
 30
0.0
  0
SPLINE
  5
58F
100
AcDbEntity
  8
3_ALL_AXES
100
AcDbSpline
 62
7
  6
CONTINUOUS
 70
0
 71
3
 72
9
 73
5
 74
0
 42
0.0000001
 43
0.0000001
 44
0.0000000001
 40
0.0
 40
0.0
 40
0.0
 40
0.0
 40
0.2482075354
 40
1.0
 40
1.0
 40
1.0
 40
1.0
 10
59.9779741298
 20
50.2245662777
 30
0.0
 10
60.0115365951
 20
50.2692993165
 30
0.0
 10
60.1397243365
 20
50.4547309459
 30
0.0
 10
60.2382225935
 20
50.6603903229
 30
0.0
 10
60.294144961
 20
50.8202799921
 30
0.0
  0
SPLINE
  5
590
100
AcDbEntity
  8
3_AXES_OTHER
100
AcDbSpline
 62
7
  6
CONTINUOUS
 70
0
 71
3
 72
17
 73
13
 74
0
 42
0.0000001
 43
0.0000001
 44
0.0000000001
 40
0.0
 40
0.0
 40
0.0
 40
0.0
 40
0.0364149478
 40
0.0763264658
 40
0.1221197612
 40
0.1748702246
 40
0.3006267009
 40
0.4475314586
 40
0.6038335355
 40
0.7559238172
 40
0.8909920389
 40
1.0
 40
1.0
 40
1.0
 40
1.0
 10
50.4477674567
 20
60.5304176037
 30
0.0
 10
50.4462608777
 20
60.4918024973
 30
0.0
 10
50.4587848749
 20
60.409680118
 30
0.0
 10
50.5208291995
 20
60.2938257124
 30
0.0
 10
50.6215906111
 20
60.1852444208
 30
0.0
 10
50.8146782653
 20
60.0442520571
 30
0.0
 10
51.1353186068
 20
59.90620429
 30
0.0
 10
51.581090085
 20
59.805994308
 30
0.0
 10
52.0650017976
 20
59.7733296269
 30
0.0
 10
52.5361975013
 20
59.8119119638
 30
0.0
 10
52.9450663729
 20
59.9166363495
 30
0.0
 10
53.1793537387
 20
60.0391051541
 30
0.0
 10
53.2676952664
 20
60.1137919378
 30
0.0
  0
SPLINE
  5
591
100
AcDbEntity
  8
3_AXES_OTHER
100
AcDbSpline
 62
7
  6
CONTINUOUS
 70
0
 71
3
 72
17
 73
13
 74
0
 42
0.0000001
 43
0.0000001
 44
0.0000000001
 40
0.0
 40
0.0
 40
0.0
 40
0.0
 40
0.036414947
 40
0.0763252453
 40
0.1221186408
 40
0.1748688608
 40
0.3006213291
 40
0.447527681
 40
0.603829916
 40
0.7559212246
 40
0.8909932501
 40
1.0
 40
1.0
 40
1.0
 40
1.0
 10
50.4416302667
 20
60.3730379859
 30
0.0
 10
50.4401192955
 20
60.3344226501
 30
0.0
 10
50.452622486
 20
60.2522974476
 30
0.0
 10
50.5146634646
 20
60.1364382847
 30
0.0
 10
50.6154226769
 20
60.0278552274
 30
0.0
 10
50.808509648
 20
59.8868656804
 30
0.0
 10
51.1291385735
 20
59.7487904411
 30
0.0
 10
51.5749181338
 20
59.6485983517
 30
0.0
 10
52.058835081
 20
59.6159100167
 30
0.0
 10
52.5300411905
 20
59.6545020787
 30
0.0
 10
52.938919094
 20
59.7592225504
 30
0.0
 10
53.1732113174
 20
59.8816946028
 30
0.0
 10
53.2615527814
 20
59.9563813326
 30
0.0
  0
SPLINE
  5
592
100
AcDbEntity
  8
3_ALL_AXES
100
AcDbSpline
 62
7
  6
CONTINUOUS
 70
0
 71
3
 72
12
 73
8
 74
0
 42
0.0000001
 43
0.0000001
 44
0.0000000001
 40
0.0
 40
0.0
 40
0.0
 40
0.0
 40
0.3065832779
 40
0.6129564285
 40
0.7448688685
 40
0.8539077513
 40
1.0
 40
1.0
 40
1.0
 40
1.0
 10
64.8093027539
 20
51.4487610876
 30
0.0
 10
64.811089491
 20
51.494548968
 30
0.0
 10
64.826964313
 20
51.5856535215
 30
0.0
 10
64.8657740318
 20
51.6906488355
 30
0.0
 10
64.9093451316
 20
51.7609245565
 30
0.0
 10
64.945766427
 20
51.8040692753
 30
0.0
 10
64.9862298822
 20
51.8254395697
 30
0.0
 10
65.0073057178
 20
51.8197307558
 30
0.0
  0
SPLINE
  5
593
100
AcDbEntity
  8
3_ALL_AXES
100
AcDbSpline
 62
7
  6
CONTINUOUS
 70
0
 71
3
 72
12
 73
8
 74
0
 42
0.0000001
 43
0.0000001
 44
0.0000000001
 40
0.0
 40
0.0
 40
0.0
 40
0.0
 40
0.3065717815
 40
0.6129159003
 40
0.7448277716
 40
0.8538620435
 40
1.0
 40
1.0
 40
1.0
 40
1.0
 10
65.0359487296
 20
51.3874864687
 30
0.0
 10
65.0377352581
 20
51.4332690057
 30
0.0
 10
65.0536079706
 20
51.5243606812
 30
0.0
 10
65.0924039098
 20
51.6293418998
 30
0.0
 10
65.1359641638
 20
51.6996154205
 30
0.0
 10
65.1723886681
 20
51.7427480478
 30
0.0
 10
65.2128342067
 20
51.7641758326
 30
0.0
 10
65.2339163052
 20
51.7584706294
 30
0.0
  0
SPLINE
  5
594
100
AcDbEntity
  8
3_AXES_OTHER
100
AcDbSpline
 62
7
  6
CONTINUOUS
 70
0
 71
3
 72
17
 73
13
 74
0
 42
0.0000001
 43
0.0000001
 44
0.0000000001
 40
0.0
 40
0.0
 40
0.0
 40
0.0
 40
0.0364149478
 40
0.0763264658
 40
0.1221197612
 40
0.1748702246
 40
0.3006267009
 40
0.4475314586
 40
0.6038335355
 40
0.7559238172
 40
0.8909920389
 40
1.0
 40
1.0
 40
1.0
 40
1.0
 10
60.7340078891
 20
57.74949259
 30
0.0
 10
60.73250131
 20
57.7108774836
 30
0.0
 10
60.7450253073
 20
57.6287551043
 30
0.0
 10
60.8070696319
 20
57.5129006987
 30
0.0
 10
60.9078310435
 20
57.4043194071
 30
0.0
 10
61.1009186977
 20
57.2633270434
 30
0.0
 10
61.4215590392
 20
57.1252792763
 30
0.0
 10
61.8673305173
 20
57.0250692943
 30
0.0
 10
62.35124223
 20
56.9924046133
 30
0.0
 10
62.8224379337
 20
57.0309869501
 30
0.0
 10
63.2313068053
 20
57.1357113358
 30
0.0
 10
63.465594171
 20
57.2581801404
 30
0.0
 10
63.5539356988
 20
57.3328669241
 30
0.0
  0
SPLINE
  5
595
100
AcDbEntity
  8
3_AXES_OTHER
100
AcDbSpline
 62
7
  6
CONTINUOUS
 70
0
 71
3
 72
17
 73
13
 74
0
 42
0.0000001
 43
0.0000001
 44
0.0000000001
 40
0.0
 40
0.0
 40
0.0
 40
0.0
 40
0.036414947
 40
0.0763252453
 40
0.1221186408
 40
0.1748688608
 40
0.3006213291
 40
0.447527681
 40
0.603829916
 40
0.7559212246
 40
0.8909932501
 40
1.0
 40
1.0
 40
1.0
 40
1.0
 10
60.7278706991
 20
57.5921129722
 30
0.0
 10
60.7263597279
 20
57.5534976364
 30
0.0
 10
60.7388629184
 20
57.4713724339
 30
0.0
 10
60.800903897
 20
57.355513271
 30
0.0
 10
60.9016631093
 20
57.2469302138
 30
0.0
 10
61.0947500804
 20
57.1059406667
 30
0.0
 10
61.4153790059
 20
56.9678654274
 30
0.0
 10
61.8611585662
 20
56.867673338
 30
0.0
 10
62.3450755134
 20
56.834985003
 30
0.0
 10
62.8162816229
 20
56.873577065
 30
0.0
 10
63.2251595264
 20
56.9782975367
 30
0.0
 10
63.4594517498
 20
57.1007695891
 30
0.0
 10
63.5477932138
 20
57.1754563189
 30
0.0
  0
SPLINE
  5
596
100
AcDbEntity
  8
3_ALL_AXES
100
AcDbSpline
 62
7
  6
CONTINUOUS
 70
0
 71
3
 72
12
 73
8
 74
0
 42
0.0000001
 43
0.0000001
 44
0.0000000001
 40
0.0
 40
0.0
 40
0.0
 40
0.0
 40
0.1692191625
 40
0.2962399378
 40
0.4446467315
 40
0.755284107
 40
1.0
 40
1.0
 40
1.0
 40
1.0
 10
61.3796085179
 20
59.6850494697
 30
0.0
 10
61.3803072387
 20
59.7021121374
 30
0.0
 10
61.3542488189
 20
59.7282943958
 30
0.0
 10
61.3139282802
 20
59.7447164639
 30
0.0
 10
61.2554562903
 20
59.7582427962
 30
0.0
 10
61.1844521496
 20
59.7577615765
 30
0.0
 10
61.1276060336
 20
59.7410681001
 30
0.0
 10
61.1087468774
 20
59.7251239597
 30
0.0
  0
SPLINE
  5
597
100
AcDbEntity
  8
3_ALL_AXES
100
AcDbSpline
 62
7
  6
CONTINUOUS
 70
0
 71
3
 72
11
 73
7
 74
0
 42
0.0000001
 43
0.0000001
 44
0.0000000001
 40
0.0
 40
0.0
 40
0.0
 40
0.0
 40
0.2156012531
 40
0.4967535415
 40
0.7797464562
 40
1.0
 40
1.0
 40
1.0
 40
1.0
 10
61.3653432827
 20
59.6607734169
 30
0.0
 10
61.3519097034
 20
59.675105572
 30
0.0
 10
61.3090566735
 20
59.6954399679
 30
0.0
 10
61.238672812
 20
59.7068054248
 30
0.0
 10
61.1670608332
 20
59.7018310408
 30
0.0
 10
61.1220240816
 20
59.6856097541
 30
0.0
 10
61.1066993824
 20
59.672653758
 30
0.0
  0
SPLINE
  5
598
100
AcDbEntity
  8
3_ALL_AXES
100
AcDbSpline
 62
7
  6
CONTINUOUS
 70
0
 71
3
 72
9
 73
5
 74
0
 42
0.0000001
 43
0.0000001
 44
0.0000000001
 40
0.0
 40
0.0
 40
0.0
 40
0.0
 40
0.2845126379
 40
1.0
 40
1.0
 40
1.0
 40
1.0
 10
59.2679664746
 20
60.1452892291
 30
0.0
 10
59.2655363151
 20
60.1432346937
 30
0.0
 10
59.257504837
 20
60.1355334621
 30
0.0
 10
59.2519731372
 20
60.1245436032
 30
0.0
 10
59.2516456991
 20
60.1165476087
 30
0.0
  0
SPLINE
  5
599
100
AcDbEntity
  8
3_ALL_AXES
100
AcDbSpline
 62
7
  6
CONTINUOUS
 70
0
 71
3
 72
11
 73
7
 74
0
 42
0.0000001
 43
0.0000001
 44
0.0000000001
 40
0.0
 40
0.0
 40
0.0
 40
0.0
 40
0.2163193152
 40
0.4497972768
 40
0.7105297248
 40
1.0
 40
1.0
 40
1.0
 40
1.0
 10
58.9668920936
 20
50.8449853134
 30
0.0
 10
58.8366447726
 20
50.6713629367
 30
0.0
 10
58.4885544596
 20
50.3634976549
 30
0.0
 10
57.8081402365
 20
50.111849694
 30
0.0
 10
57.0146481521
 20
50.0629423558
 30
0.0
 10
56.4660176209
 20
50.1580157123
 30
0.0
 10
56.185640397
 20
50.2338167827
 30
0.0
  0
SPLINE
  5
59A
100
AcDbEntity
  8
3_AXES_OTHER
100
AcDbSpline
 62
7
  6
CONTINUOUS
 70
0
 71
3
 72
9
 73
5
 74
0
 42
0.0000001
 43
0.0000001
 44
0.0000000001
 40
0.0
 40
0.0
 40
0.0
 40
0.0
 40
0.5392492224
 40
1.0
 40
1.0
 40
1.0
 40
1.0
 10
63.5539356988
 20
57.3328669241
 30
0.0
 10
63.60230016
 20
57.3737558033
 30
0.0
 10
63.6840850332
 20
57.4617447435
 30
0.0
 10
63.7217393836
 20
57.5786107917
 30
0.0
 10
63.7238490242
 20
57.6326829567
 30
0.0
  0
SPLINE
  5
59B
100
AcDbEntity
  8
3_ALL_AXES
100
AcDbSpline
 62
7
  6
CONTINUOUS
 70
0
 71
3
 72
9
 73
5
 74
0
 42
0.0000001
 43
0.0000001
 44
0.0000000001
 40
0.0
 40
0.0
 40
0.0
 40
0.0
 40
0.2845126379
 40
1.0
 40
1.0
 40
1.0
 40
1.0
 10
61.0392919457
 20
59.6664045149
 30
0.0
 10
61.0368617862
 20
59.6643499795
 30
0.0
 10
61.0288303081
 20
59.6566487479
 30
0.0
 10
61.0232986083
 20
59.645658889
 30
0.0
 10
61.0229711702
 20
59.6376628945
 30
0.0
  0
SPLINE
  5
59C
100
AcDbEntity
  8
3_AXES_OTHER
100
AcDbSpline
 62
7
  6
CONTINUOUS
 70
0
 71
3
 72
9
 73
5
 74
0
 42
0.0000001
 43
0.0000001
 44
0.0000000001
 40
0.0
 40
0.0
 40
0.0
 40
0.0
 40
0.5392492224
 40
1.0
 40
1.0
 40
1.0
 40
1.0
 10
53.2676952664
 20
60.1137919378
 30
0.0
 10
53.3160597276
 20
60.154680817
 30
0.0
 10
53.3978446008
 20
60.2426697572
 30
0.0
 10
53.4354989512
 20
60.3595358054
 30
0.0
 10
53.4376085918
 20
60.4136079704
 30
0.0
  0
SPLINE
  5
59D
100
AcDbEntity
  8
3_AXES_OTHER
100
AcDbSpline
 62
7
  6
CONTINUOUS
 70
0
 71
3
 72
9
 73
5
 74
0
 42
0.0000001
 43
0.0000001
 44
0.0000000001
 40
0.0
 40
0.0
 40
0.0
 40
0.0
 40
0.4608303975
 40
1.0
 40
1.0
 40
1.0
 40
1.0
 10
61.2454193655
 20
57.7293367709
 30
0.0
 10
61.2467891564
 20
57.7649432008
 30
0.0
 10
61.2715395112
 20
57.8419005701
 30
0.0
 10
61.3253761245
 20
57.8998433207
 30
0.0
 10
61.3572131658
 20
57.9267593847
 30
0.0
  0
SPLINE
  5
59E
100
AcDbEntity
  8
3_AXES_OTHER
100
AcDbSpline
 62
7
  6
CONTINUOUS
 70
0
 71
3
 72
16
 73
12
 74
0
 42
0.0000001
 43
0.0000001
 44
0.0000000001
 40
0.0
 40
0.0
 40
0.0
 40
0.0
 40
0.1091156106
 40
0.2443077219
 40
0.396542893
 40
0.5529978079
 40
0.7000552139
 40
0.8259525212
 40
0.8787673476
 40
0.9246207518
 40
1.0
 40
1.0
 40
1.0
 40
1.0
 10
61.3572131658
 20
57.9267593847
 30
0.0
 10
61.4153252192
 20
57.9758891934
 30
0.0
 10
61.5694316271
 20
58.0564561663
 30
0.0
 10
61.8383823034
 20
58.1253345672
 30
0.0
 10
62.1483241684
 20
58.1507460045
 30
0.0
 10
62.4666490142
 20
58.1293012586
 30
0.0
 10
62.7599039139
 20
58.0633086767
 30
0.0
 10
62.9708605586
 20
57.9727831697
 30
0.0
 10
63.0979232794
 20
57.8796163113
 30
0.0
 10
63.1812247739
 20
57.791278687
 30
0.0
 10
63.2144584115
 20
57.7053692288
 30
0.0
 10
63.2124375478
 20
57.6528387757
 30
0.0
  0
SPLINE
  5
59F
100
AcDbEntity
  8
3_AXES_OTHER
100
AcDbSpline
 62
7
  6
CONTINUOUS
 70
0
 71
3
 72
9
 73
5
 74
0
 42
0.0000001
 43
0.0000001
 44
0.0000000001
 40
0.0
 40
0.0
 40
0.0
 40
0.0
 40
0.4608303975
 40
1.0
 40
1.0
 40
1.0
 40
1.0
 10
50.9591789331
 20
60.5102617846
 30
0.0
 10
50.960548724
 20
60.5458682145
 30
0.0
 10
50.9852990788
 20
60.6228255837
 30
0.0
 10
51.0391356921
 20
60.6807683343
 30
0.0
 10
51.0709727334
 20
60.7076843984
 30
0.0
  0
SPLINE
  5
5A0
100
AcDbEntity
  8
3_ALL_AXES
100
AcDbSpline
 62
7
  6
CONTINUOUS
 70
0
 71
3
 72
14
 73
10
 74
0
 42
0.0000001
 43
0.0000001
 44
0.0000000001
 40
0.0
 40
0.0
 40
0.0
 40
0.0
 40
0.0947941182
 40
0.19831474
 40
0.3143202962
 40
0.4427160321
 40
0.5805617611
 40
0.7231856567
 40
1.0
 40
1.0
 40
1.0
 40
1.0
 10
52.7347954019
 20
55.5215069536
 30
0.0
 10
52.6131432234
 20
55.334551153
 30
0.0
 10
52.4396614364
 20
54.8864868813
 30
0.0
 10
52.4352645749
 20
54.1347217971
 30
0.0
 10
52.6618321444
 20
53.3389516937
 30
0.0
 10
53.0987430484
 20
52.5457367236
 30
0.0
 10
53.7171881907
 20
51.8013601265
 30
0.0
 10
54.7167155701
 20
50.9478635173
 30
0.0
 10
55.6233272998
 20
50.4923867601
 30
0.0
 10
56.2520989388
 20
50.3223959078
 30
0.0
  0
SPLINE
  5
5A1
100
AcDbEntity
  8
3_AXES_OTHER
100
AcDbSpline
 62
7
  6
CONTINUOUS
 70
0
 71
3
 72
16
 73
12
 74
0
 42
0.0000001
 43
0.0000001
 44
0.0000000001
 40
0.0
 40
0.0
 40
0.0
 40
0.0
 40
0.1091156106
 40
0.2443077219
 40
0.396542893
 40
0.5529978079
 40
0.7000552139
 40
0.8259525212
 40
0.8787673476
 40
0.9246207518
 40
1.0
 40
1.0
 40
1.0
 40
1.0
 10
51.0709727334
 20
60.7076843984
 30
0.0
 10
51.1290847868
 20
60.7568142071
 30
0.0
 10
51.2831911947
 20
60.83738118
 30
0.0
 10
51.552141871
 20
60.9062595809
 30
0.0
 10
51.8620837361
 20
60.9316710182
 30
0.0
 10
52.1804085818
 20
60.9102262723
 30
0.0
 10
52.4736634815
 20
60.8442336904
 30
0.0
 10
52.6846201262
 20
60.7537081834
 30
0.0
 10
52.8116828471
 20
60.660541325
 30
0.0
 10
52.8949843415
 20
60.5722037007
 30
0.0
 10
52.9282179791
 20
60.4862942425
 30
0.0
 10
52.9261971154
 20
60.4337637894
 30
0.0
  0
SPLINE
  5
5A2
100
AcDbEntity
  8
3_ALL_AXES
100
AcDbSpline
 62
7
  6
CONTINUOUS
 70
0
 71
3
 72
10
 73
6
 74
0
 42
0.0000001
 43
0.0000001
 44
0.0000000001
 40
0.0
 40
0.0
 40
0.0
 40
0.0
 40
0.3773640026
 40
0.6592766056
 40
1.0
 40
1.0
 40
1.0
 40
1.0
 10
64.8645095019
 20
51.2918630963
 30
0.0
 10
64.8433796493
 20
51.2975865419
 30
0.0
 10
64.8192162418
 20
51.3366495528
 30
0.0
 10
64.809595294
 20
51.3923719804
 30
0.0
 10
64.8085320412
 20
51.4290103918
 30
0.0
 10
64.8093027539
 20
51.4487610876
 30
0.0
  0
SPLINE
  5
5A3
100
AcDbEntity
  8
3_ALL_AXES
100
AcDbSpline
 62
7
  6
CONTINUOUS
 70
0
 71
3
 72
10
 73
6
 74
0
 42
0.0000001
 43
0.0000001
 44
0.0000000001
 40
0.0
 40
0.0
 40
0.0
 40
0.0
 40
0.3773046803
 40
0.6593608773
 40
1.0
 40
1.0
 40
1.0
 40
1.0
 10
65.0911908658
 20
51.2305739848
 30
0.0
 10
65.070058731
 20
51.2362927288
 30
0.0
 10
65.0458602826
 20
51.2753493939
 30
0.0
 10
65.0362515021
 20
51.3310892755
 30
0.0
 10
65.035178052
 20
51.3677366745
 30
0.0
 10
65.0359487296
 20
51.3874864687
 30
0.0
  0
SPLINE
  5
5A4
100
AcDbEntity
  8
3_AXES_OTHER
100
AcDbSpline
 62
7
  6
CONTINUOUS
 70
0
 71
3
 72
9
 73
5
 74
0
 42
0.0000001
 43
0.0000001
 44
0.0000000001
 40
0.0
 40
0.0
 40
0.0
 40
0.0
 40
0.5392621955
 40
1.0
 40
1.0
 40
1.0
 40
1.0
 10
63.5477932138
 20
57.1754563189
 30
0.0
 10
63.5961545833
 20
57.2163425843
 30
0.0
 10
63.6779362273
 20
57.3043215312
 30
0.0
 10
63.7155857211
 20
57.4211757182
 30
0.0
 10
63.7177012442
 20
57.4752413641
 30
0.0
  0
SPLINE
  5
5A5
100
AcDbEntity
  8
3_ALL_AXES
100
AcDbSpline
 62
7
  6
CONTINUOUS
 70
0
 71
3
 72
9
 73
5
 74
0
 42
0.0000001
 43
0.0000001
 44
0.0000000001
 40
0.0
 40
0.0
 40
0.0
 40
0.0
 40
0.2471196656
 40
1.0
 40
1.0
 40
1.0
 40
1.0
 10
59.9115554658
 20
50.1360413106
 30
0.0
 10
59.9544026585
 20
50.1931514057
 30
0.0
 10
60.1163033184
 20
50.4327690304
 30
0.0
 10
60.2286457012
 20
50.7049440374
 30
0.0
 10
60.2836521992
 20
50.9153919006
 30
0.0
  0
SPLINE
  5
5A6
100
AcDbEntity
  8
3_ALL_AXES
100
AcDbSpline
 62
7
  6
CONTINUOUS
 70
0
 71
3
 72
9
 73
5
 74
0
 42
0.0000001
 43
0.0000001
 44
0.0000000001
 40
0.0
 40
0.0
 40
0.0
 40
0.0
 40
0.4819552384
 40
1.0
 40
1.0
 40
1.0
 40
1.0
 10
60.0222908907
 20
53.1450793551
 30
0.0
 10
59.7605707212
 20
53.7533533606
 30
0.0
 10
58.9743745833
 20
54.9131417075
 30
0.0
 10
57.9064690063
 20
55.8056131773
 30
0.0
 10
57.3040663282
 20
56.1847368234
 30
0.0
  0
SPLINE
  5
5A7
100
AcDbEntity
  8
3_AXES_OTHER
100
AcDbSpline
 62
7
  6
CONTINUOUS
 70
0
 71
3
 72
9
 73
5
 74
0
 42
0.0000001
 43
0.0000001
 44
0.0000000001
 40
0.0
 40
0.0
 40
0.0
 40
0.0
 40
0.5392621955
 40
1.0
 40
1.0
 40
1.0
 40
1.0
 10
53.2615527814
 20
59.9563813326
 30
0.0
 10
53.309914151
 20
59.997267598
 30
0.0
 10
53.391695795
 20
60.0852465449
 30
0.0
 10
53.4293452887
 20
60.2021007319
 30
0.0
 10
53.4314608118
 20
60.2561663778
 30
0.0
  0
SPLINE
  5
5A8
100
AcDbEntity
  8
3_ALL_AXES
100
AcDbSpline
 62
7
  6
CONTINUOUS
 70
0
 71
3
 72
9
 73
5
 74
0
 42
0.0000001
 43
0.0000001
 44
0.0000000001
 40
0.0
 40
0.0
 40
0.0
 40
0.0
 40
0.4759029837
 40
1.0
 40
1.0
 40
1.0
 40
1.0
 10
57.6148415815
 20
49.0819148723
 30
0.0
 10
57.1506319808
 20
49.0771400172
 30
0.0
 10
56.1721543255
 20
49.2256201145
 30
0.0
 10
55.2621693444
 20
49.5992316174
 30
0.0
 10
54.8111195278
 20
49.8399120086
 30
0.0
  0
SPLINE
  5
5A9
100
AcDbEntity
  8
3_ALL_AXES
100
AcDbSpline
 62
7
  6
CONTINUOUS
 70
0
 71
3
 72
9
 73
5
 74
0
 42
0.0000001
 43
0.0000001
 44
0.0000000001
 40
0.0
 40
0.0
 40
0.0
 40
0.0
 40
0.4839746572
 40
1.0
 40
1.0
 40
1.0
 40
1.0
 10
59.9967495233
 20
53.435377252
 30
0.0
 10
59.7477506379
 20
53.9520801745
 30
0.0
 10
59.0633596541
 20
54.9402234329
 30
0.0
 10
58.1651872282
 20
55.7311917915
 30
0.0
 10
57.6628448232
 20
56.0799757272
 30
0.0
  0
SPLINE
  5
5AA
100
AcDbEntity
  8
3_ALL_AXES
100
AcDbSpline
 62
7
  6
CONTINUOUS
 70
0
 71
3
 72
9
 73
5
 74
0
 42
0.0000001
 43
0.0000001
 44
0.0000000001
 40
0.0
 40
0.0
 40
0.0
 40
0.0
 40
0.5200983357
 40
1.0
 40
1.0
 40
1.0
 40
1.0
 10
53.39602713
 20
57.2335264467
 30
0.0
 10
53.0860429976
 20
57.1713382483
 30
0.0
 10
52.5002130468
 20
56.9659008229
 30
0.0
 10
52.0282208185
 20
56.5539088696
 30
0.0
 10
51.8531379275
 20
56.3205640305
 30
0.0
  0
SPLINE
  5
5AB
100
AcDbEntity
  8
3_ALL_AXES
100
AcDbSpline
 62
7
  6
CONTINUOUS
 70
0
 71
3
 72
12
 73
8
 74
0
 42
0.0000001
 43
0.0000001
 44
0.0000000001
 40
0.0
 40
0.0
 40
0.0
 40
0.0
 40
0.1692191625
 40
0.2962399378
 40
0.4446467315
 40
0.755284107
 40
1.0
 40
1.0
 40
1.0
 40
1.0
 10
59.6082830468
 20
60.1639341839
 30
0.0
 10
59.6089817676
 20
60.1809968516
 30
0.0
 10
59.5829233478
 20
60.20717911
 30
0.0
 10
59.5426028091
 20
60.2236011781
 30
0.0
 10
59.4841308192
 20
60.2371275104
 30
0.0
 10
59.4131266785
 20
60.2366462907
 30
0.0
 10
59.3562805626
 20
60.2199528143
 30
0.0
 10
59.3374214063
 20
60.204008674
 30
0.0
  0
SPLINE
  5
5AC
100
AcDbEntity
  8
3_ALL_AXES
100
AcDbSpline
 62
7
  6
CONTINUOUS
 70
0
 71
3
 72
10
 73
6
 74
0
 42
0.0000001
 43
0.0000001
 44
0.0000000001
 40
0.0
 40
0.0
 40
0.0
 40
0.0
 40
0.5231340941
 40
0.7649865706
 40
1.0
 40
1.0
 40
1.0
 40
1.0
 10
53.5949791038
 20
57.1875041775
 30
0.0
 10
53.2324189283
 20
57.1433486898
 30
0.0
 10
52.7020323077
 20
56.996269832
 30
0.0
 10
52.1169430763
 20
56.6071972047
 30
0.0
 10
51.8851887854
 20
56.36327245
 30
0.0
 10
51.7867126441
 20
56.2320289695
 30
0.0
  0
SPLINE
  5
5AD
100
AcDbEntity
  8
3_ALL_AXES
100
AcDbSpline
 62
7
  6
CONTINUOUS
 70
0
 71
3
 72
11
 73
7
 74
0
 42
0.0000001
 43
0.0000001
 44
0.0000000001
 40
0.0
 40
0.0
 40
0.0
 40
0.0
 40
0.2881431936
 40
0.549026902
 40
0.7835294337
 40
1.0
 40
1.0
 40
1.0
 40
1.0
 10
56.2520989388
 20
50.3223959078
 30
0.0
 10
56.5211779917
 20
50.2496493417
 30
0.0
 10
57.0482675441
 20
50.1563524469
 30
0.0
 10
57.812888433
 20
50.1918744415
 30
0.0
 10
58.4762607899
 20
50.4125758239
 30
0.0
 10
58.8282260785
 20
50.6893748458
 30
0.0
 10
58.9647406896
 20
50.8481657416
 30
0.0
  0
SPLINE
  5
5AE
100
AcDbEntity
  8
3_ALL_AXES
100
AcDbSpline
 62
7
  6
CONTINUOUS
 70
0
 71
3
 72
16
 73
12
 74
0
 42
0.0000001
 43
0.0000001
 44
0.0000000001
 40
0.0
 40
0.0
 40
0.0
 40
0.0
 40
0.1443858096
 40
0.2940028524
 40
0.4359362651
 40
0.5601773446
 40
0.6651358328
 40
0.7141142292
 40
0.7635878901
 40
0.871829908
 40
1.0
 40
1.0
 40
1.0
 40
1.0
 10
56.6339438286
 20
55.500297023
 30
0.0
 10
56.8103614709
 20
55.4526018288
 30
0.0
 10
57.1554650382
 20
55.2992587209
 30
0.0
 10
57.5929164897
 20
54.9544401161
 30
0.0
 10
57.9149606463
 20
54.5300246475
 30
0.0
 10
58.0791331026
 20
54.079847503
 30
0.0
 10
58.0460863534
 20
53.7113213085
 30
0.0
 10
57.9092545736
 20
53.4884163928
 30
0.0
 10
57.7085669718
 20
53.3145004755
 30
0.0
 10
57.3446270437
 20
53.2122389946
 30
0.0
 10
57.0421255752
 20
53.2528090916
 30
0.0
 10
56.8855210896
 20
53.2951477219
 30
0.0
  0
SPLINE
  5
5AF
100
AcDbEntity
  8
3_ALL_AXES
100
AcDbSpline
 62
7
  6
CONTINUOUS
 70
0
 71
3
 72
16
 73
12
 74
0
 42
0.0000001
 43
0.0000001
 44
0.0000000001
 40
0.0
 40
0.0
 40
0.0
 40
0.0
 40
0.128170092
 40
0.2364121099
 40
0.2858857708
 40
0.3348641672
 40
0.4398226554
 40
0.5640637349
 40
0.7059971476
 40
0.8556141904
 40
1.0
 40
1.0
 40
1.0
 40
1.0
 10
56.6339438286
 20
55.500297023
 30
0.0
 10
56.477339343
 20
55.5426356533
 30
0.0
 10
56.1748378745
 20
55.5832057503
 30
0.0
 10
55.8108979464
 20
55.4809442693
 30
0.0
 10
55.6102103446
 20
55.3070283521
 30
0.0
 10
55.4733785648
 20
55.0841234364
 30
0.0
 10
55.4403318156
 20
54.7155972418
 30
0.0
 10
55.6045042718
 20
54.2654200974
 30
0.0
 10
55.9265484285
 20
53.8410046288
 30
0.0
 10
56.3639998799
 20
53.4961860239
 30
0.0
 10
56.7091034473
 20
53.342842916
 30
0.0
 10
56.8855210896
 20
53.2951477219
 30
0.0
  0
SPLINE
  5
5B0
100
AcDbEntity
  8
3_AXES_OTHER
100
AcDbSpline
 62
7
  6
CONTINUOUS
 70
0
 71
3
 72
11
 73
7
 74
0
 42
0.0000001
 43
0.0000001
 44
0.0000000001
 40
0.0
 40
0.0
 40
0.0
 40
0.0
 40
0.2246517149
 40
0.4542237576
 40
0.7098335301
 40
1.0
 40
1.0
 40
1.0
 40
1.0
 10
58.4916006357
 20
47.8210650868
 30
0.0
 10
58.5177552514
 20
47.8379971465
 30
0.0
 10
58.5641935976
 20
47.8842732617
 30
0.0
 10
58.5959994801
 20
47.980674658
 30
0.0
 10
58.5880899437
 20
48.0899797994
 30
0.0
 10
58.5604876224
 20
48.1615130037
 30
0.0
 10
58.5419769455
 20
48.1972463836
 30
0.0
  0
SPLINE
  5
5B1
100
AcDbEntity
  8
3_AXES_OTHER
100
AcDbSpline
 62
7
  6
CONTINUOUS
 70
0
 71
3
 72
10
 73
6
 74
0
 42
0.0000001
 43
0.0000001
 44
0.0000000001
 40
0.0
 40
0.0
 40
0.0
 40
0.0
 40
0.2847619602
 40
0.5595528479
 40
1.0
 40
1.0
 40
1.0
 40
1.0
 10
57.8752048423
 20
47.9877100813
 30
0.0
 10
57.919882139
 20
47.9419144893
 30
0.0
 10
58.0207608768
 20
47.8631198325
 30
0.0
 10
58.223546004
 20
47.7707414817
 30
0.0
 10
58.4085312128
 20
47.7672873354
 30
0.0
 10
58.4916006357
 20
47.8210650868
 30
0.0
  0
SPLINE
  5
5B2
100
AcDbEntity
  8
3_AXES_OTHER
100
AcDbSpline
 62
7
  6
CONTINUOUS
 70
0
 71
3
 72
9
 73
5
 74
0
 42
0.0000001
 43
0.0000001
 44
0.0000000001
 40
0.0
 40
0.0
 40
0.0
 40
0.0
 40
0.442117469
 40
1.0
 40
1.0
 40
1.0
 40
1.0
 10
57.7330561116
 20
48.4159412698
 30
0.0
 10
57.7069779896
 20
48.3519246406
 30
0.0
 10
57.721017001
 20
48.1809117062
 30
0.0
 10
57.8142950134
 20
48.050144514
 30
0.0
 10
57.8752048423
 20
47.9877100813
 30
0.0
  0
SPLINE
  5
5B3
100
AcDbEntity
  8
3_ALL_AXES
100
AcDbSpline
 62
7
  6
CONTINUOUS
 70
0
 71
3
 72
9
 73
5
 74
0
 42
0.0000001
 43
0.0000001
 44
0.0000000001
 40
0.0
 40
0.0
 40
0.0
 40
0.0
 40
0.5240970163
 40
1.0
 40
1.0
 40
1.0
 40
1.0
 10
54.8639271259
 20
49.9102965025
 30
0.0
 10
55.3149769425
 20
49.6696161114
 30
0.0
 10
56.2249619236
 20
49.2960046085
 30
0.0
 10
57.2034395789
 20
49.1475245112
 30
0.0
 10
57.6676491796
 20
49.1522993663
 30
0.0
  0
SPLINE
  5
5B4
100
AcDbEntity
  8
3_ALL_AXES
100
AcDbSpline
 62
7
  6
CONTINUOUS
 70
0
 71
3
 72
11
 73
7
 74
0
 42
0.0000001
 43
0.0000001
 44
0.0000000001
 40
0.0
 40
0.0
 40
0.0
 40
0.0
 40
0.2156012531
 40
0.4967535415
 40
0.7797464562
 40
1.0
 40
1.0
 40
1.0
 40
1.0
 10
59.5940178117
 20
60.1396581312
 30
0.0
 10
59.5805842323
 20
60.1539902862
 30
0.0
 10
59.5377312024
 20
60.1743246822
 30
0.0
 10
59.467347341
 20
60.185690139
 30
0.0
 10
59.3957353622
 20
60.180715755
 30
0.0
 10
59.3506986105
 20
60.1644944684
 30
0.0
 10
59.3353739114
 20
60.1515384722
 30
0.0
  0
SPLINE
  5
5B5
100
AcDbEntity
  8
3_ALL_AXES
100
AcDbSpline
 62
7
  6
CONTINUOUS
 70
0
 71
3
 72
15
 73
11
 74
0
 42
0.0000001
 43
0.0000001
 44
0.0000000001
 40
0.0
 40
0.0
 40
0.0
 40
0.0
 40
0.1366194269
 40
0.2792775508
 40
0.4223854347
 40
0.5602642194
 40
0.6881235011
 40
0.8031200782
 40
0.9055750485
 40
1.0
 40
1.0
 40
1.0
 40
1.0
 10
56.185640397
 20
50.2338167827
 30
0.0
 10
55.8702112746
 20
50.3190942698
 30
0.0
 10
55.2425993662
 20
50.5613955323
 30
0.0
 10
54.3752873849
 20
51.0883328074
 30
0.0
 10
53.60656872
 20
51.7561232751
 30
0.0
 10
52.9880289268
 20
52.5205355322
 30
0.0
 10
52.5606728413
 20
53.3323738891
 30
0.0
 10
52.3548707464
 20
54.1421402861
 30
0.0
 10
52.3924034243
 20
54.9008955842
 30
0.0
 10
52.5957272184
 20
55.3422585328
 30
0.0
 10
52.7312495426
 20
55.522912598
 30
0.0
  0
SPLINE
  5
5B6
100
AcDbEntity
  8
3_ALL_AXES
100
AcDbSpline
 62
7
  6
CONTINUOUS
 70
0
 71
3
 72
11
 73
7
 74
0
 42
0.0000001
 43
0.0000001
 44
0.0000000001
 40
0.0
 40
0.0
 40
0.0
 40
0.0
 40
0.2459839999
 40
0.4943394883
 40
0.7460118334
 40
1.0
 40
1.0
 40
1.0
 40
1.0
 10
14.5858721825
 20
28.897763301
 30
0.0
 10
14.5858721825
 20
29.3880858547
 30
0.0
 10
14.7912465277
 20
30.3847333638
 30
0.0
 10
15.6637604263
 20
31.6361322405
 30
0.0
 10
16.9587884887
 20
32.4689458358
 30
0.0
 10
17.9772326324
 20
32.6625923089
 30
0.0
 10
18.4835099777
 20
32.6625923089
 30
0.0
  0
SPLINE
  5
5B7
100
AcDbEntity
  8
3_ALL_AXES
100
AcDbSpline
 62
7
  6
CONTINUOUS
 70
0
 71
3
 72
11
 73
7
 74
0
 42
0.0000001
 43
0.0000001
 44
0.0000000001
 40
0.0
 40
0.0
 40
0.0
 40
0.0
 40
0.2468867249
 40
0.4953689167
 40
0.7464136355
 40
1.0
 40
1.0
 40
1.0
 40
1.0
 10
13.4047711549
 20
28.8975220479
 30
0.0
 10
13.4047841271
 20
28.386605678
 30
0.0
 10
13.5738383334
 20
27.3539007676
 30
0.0
 10
14.3078903448
 20
25.9656696481
 30
0.0
 10
15.4462864375
 20
24.8651131001
 30
0.0
 10
16.400397831
 20
24.3949071834
 30
0.0
 10
16.900671533
 20
24.2364106176
 30
0.0
  0
SPLINE
  5
5B8
100
AcDbEntity
  8
3_ALL_AXES
100
AcDbSpline
 62
7
  6
CONTINUOUS
 70
0
 71
3
 72
11
 73
7
 74
0
 42
0.0000001
 43
0.0000001
 44
0.0000000001
 40
0.0
 40
0.0
 40
0.0
 40
0.0
 40
0.2535863693
 40
0.5046310886
 40
0.7531132798
 40
1.0
 40
1.0
 40
1.0
 40
1.0
 10
20.0663484224
 20
24.2364106176
 30
0.0
 10
20.5666223646
 20
24.3949072595
 30
0.0
 10
21.5207341942
 20
24.8651134719
 30
0.0
 10
22.6591305826
 20
25.9656708089
 30
0.0
 10
23.3931824329
 20
27.3539028604
 30
0.0
 10
23.5622361166
 20
28.3866083462
 30
0.0
 10
23.5622488113
 20
28.8975249418
 30
0.0
  0
SPLINE
  5
5B9
100
AcDbEntity
  8
3_ALL_AXES
100
AcDbSpline
 62
7
  6
CONTINUOUS
 70
0
 71
3
 72
11
 73
7
 74
0
 42
0.0000001
 43
0.0000001
 44
0.0000000001
 40
0.0
 40
0.0
 40
0.0
 40
0.0
 40
0.2539881666
 40
0.5056605117
 40
0.7540160001
 40
1.0
 40
1.0
 40
1.0
 40
1.0
 10
18.4835099777
 20
32.6625923089
 30
0.0
 10
18.989787323
 20
32.6625923089
 30
0.0
 10
20.0082314668
 20
32.4689458358
 30
0.0
 10
21.3032595292
 20
31.6361322405
 30
0.0
 10
22.1757734278
 20
30.3847333638
 30
0.0
 10
22.381147773
 20
29.3880858547
 30
0.0
 10
22.381147773
 20
28.897763301
 30
0.0
  0
SPLINE
  5
5BA
100
AcDbEntity
  8
3_AXES_OTHER
100
AcDbSpline
 62
7
  6
CONTINUOUS
 70
0
 71
3
 72
11
 73
7
 74
0
 42
0.0000001
 43
0.0000001
 44
0.0000000001
 40
0.0
 40
0.0
 40
0.0
 40
0.0
 40
0.2511993541
 40
0.5
 40
0.7488006459
 40
1.0
 40
1.0
 40
1.0
 40
1.0
 10
18.1355243571
 20
21.1281899278
 30
0.0
 10
18.0905663791
 20
21.0847638558
 30
0.0
 10
18.0171897924
 20
20.9794992921
 30
0.0
 10
17.9785429946
 20
20.7920616296
 30
0.0
 10
18.0171897924
 20
20.6046239671
 30
0.0
 10
18.0905663791
 20
20.4993594034
 30
0.0
 10
18.1355243571
 20
20.4559333314
 30
0.0
  0
SPLINE
  5
5BB
100
AcDbEntity
  8
3_AXES_OTHER
100
AcDbSpline
 62
7
  6
CONTINUOUS
 70
0
 71
3
 72
9
 73
5
 74
0
 42
0.0000001
 43
0.0000001
 44
0.0000000001
 40
0.0
 40
0.0
 40
0.0
 40
0.0
 40
0.5
 40
1.0
 40
1.0
 40
1.0
 40
1.0
 10
18.1355243571
 20
20.4559333314
 30
0.0
 10
18.2253843952
 20
20.3691351999
 30
0.0
 10
18.4835099777
 20
20.2642736633
 30
0.0
 10
18.7416355603
 20
20.3691351999
 30
0.0
 10
18.8314955984
 20
20.4559333314
 30
0.0
  0
SPLINE
  5
5BC
100
AcDbEntity
  8
3_AXES_OTHER
100
AcDbSpline
 62
7
  6
CONTINUOUS
 70
0
 71
3
 72
11
 73
7
 74
0
 42
0.0000001
 43
0.0000001
 44
0.0000000001
 40
0.0
 40
0.0
 40
0.0
 40
0.0
 40
0.2511993541
 40
0.5
 40
0.7488006459
 40
1.0
 40
1.0
 40
1.0
 40
1.0
 10
18.8314955984
 20
20.4559333314
 30
0.0
 10
18.8764535763
 20
20.4993594034
 30
0.0
 10
18.9498301631
 20
20.6046239671
 30
0.0
 10
18.9884769609
 20
20.7920616296
 30
0.0
 10
18.9498301631
 20
20.9794992921
 30
0.0
 10
18.8764535763
 20
21.0847638558
 30
0.0
 10
18.8314955984
 20
21.1281899278
 30
0.0
  0
SPLINE
  5
5BD
100
AcDbEntity
  8
3_AXES_OTHER
100
AcDbSpline
 62
7
  6
CONTINUOUS
 70
0
 71
3
 72
9
 73
5
 74
0
 42
0.0000001
 43
0.0000001
 44
0.0000000001
 40
0.0
 40
0.0
 40
0.0
 40
0.0
 40
0.5
 40
1.0
 40
1.0
 40
1.0
 40
1.0
 10
18.8314955984
 20
21.1281899278
 30
0.0
 10
18.7416355603
 20
21.2149880593
 30
0.0
 10
18.4835099777
 20
21.3198495958
 30
0.0
 10
18.2253843952
 20
21.2149880593
 30
0.0
 10
18.1355243571
 20
21.1281899278
 30
0.0
  0
SPLINE
  5
5BE
100
AcDbEntity
  8
3_ALL_AXES
100
AcDbSpline
 62
7
  6
CONTINUOUS
 70
0
 71
3
 72
15
 73
11
 74
0
 42
0.0000001
 43
0.0000001
 44
0.0000000001
 40
0.0
 40
0.0
 40
0.0
 40
0.0
 40
0.1269983718
 40
0.2528308872
 40
0.3770078667
 40
0.5
 40
0.6229921333
 40
0.7471691128
 40
0.8730016282
 40
1.0
 40
1.0
 40
1.0
 40
1.0
 10
18.4835099777
 20
30.8214397246
 30
0.0
 10
18.2942889635
 20
30.8214397246
 30
0.0
 10
17.9136545747
 20
30.7490268461
 30
0.0
 10
17.429665683
 20
30.4379577053
 30
0.0
 10
17.1035768043
 20
29.9695498364
 30
0.0
 10
16.9886211746
 20
29.4143824186
 30
0.0
 10
17.1035768043
 20
28.8592150007
 30
0.0
 10
17.429665683
 20
28.3908071318
 30
0.0
 10
17.9136545747
 20
28.079737991
 30
0.0
 10
18.2942889635
 20
28.0073251125
 30
0.0
 10
18.4835099777
 20
28.0073251125
 30
0.0
  0
SPLINE
  5
5BF
100
AcDbEntity
  8
3_ALL_AXES
100
AcDbSpline
 62
7
  6
CONTINUOUS
 70
0
 71
3
 72
15
 73
11
 74
0
 42
0.0000001
 43
0.0000001
 44
0.0000000001
 40
0.0
 40
0.0
 40
0.0
 40
0.0
 40
0.1269983718
 40
0.2528308872
 40
0.3770078667
 40
0.5
 40
0.6229921333
 40
0.7471691128
 40
0.8730016282
 40
1.0
 40
1.0
 40
1.0
 40
1.0
 10
18.4835099777
 20
30.8214397246
 30
0.0
 10
18.672730992
 20
30.8214397246
 30
0.0
 10
19.0533653808
 20
30.7490268461
 30
0.0
 10
19.5373542725
 20
30.4379577053
 30
0.0
 10
19.8634431511
 20
29.9695498364
 30
0.0
 10
19.9783987808
 20
29.4143824186
 30
0.0
 10
19.8634431511
 20
28.8592150007
 30
0.0
 10
19.5373542725
 20
28.3908071318
 30
0.0
 10
19.0533653808
 20
28.079737991
 30
0.0
 10
18.672730992
 20
28.0073251125
 30
0.0
 10
18.4835099777
 20
28.0073251125
 30
0.0
  0
SPLINE
  5
5C0
100
AcDbEntity
  8
3_ALL_AXES
100
AcDbSpline
 62
7
  6
CONTINUOUS
 70
0
 71
3
 72
11
 73
7
 74
0
 42
0.0000001
 43
0.0000001
 44
0.0000000001
 40
0.0
 40
0.0
 40
0.0
 40
0.0
 40
0.2539631753
 40
0.5056365653
 40
0.7540141354
 40
1.0
 40
1.0
 40
1.0
 40
1.0
 10
18.4835099777
 20
25.1706362799
 30
0.0
 10
18.9866136972
 20
25.1706362799
 30
0.0
 10
19.9985896175
 20
25.3618253428
 30
0.0
 10
21.2882454336
 20
26.1844983254
 30
0.0
 10
22.162901495
 20
27.4223066425
 30
0.0
 10
22.3759065257
 20
28.4105441754
 30
0.0
 10
22.3809454886
 20
28.897818705
 30
0.0
  0
SPLINE
  5
5C1
100
AcDbEntity
  8
3_ALL_AXES
100
AcDbSpline
 62
7
  6
CONTINUOUS
 70
0
 71
3
 72
11
 73
7
 74
0
 42
0.0000001
 43
0.0000001
 44
0.0000000001
 40
0.0
 40
0.0
 40
0.0
 40
0.0
 40
0.2536393613
 40
0.504713974
 40
0.7531762948
 40
1.0
 40
1.0
 40
1.0
 40
1.0
 10
16.9893750274
 20
33.6240391296
 30
0.0
 10
16.4788008049
 20
33.4722493994
 30
0.0
 10
15.5025342194
 20
33.0100330132
 30
0.0
 10
14.3339677812
 20
31.905914196
 30
0.0
 10
13.5788203859
 20
30.5018556818
 30
0.0
 10
13.4047698203
 20
29.4538114721
 30
0.0
 10
13.4047698203
 20
28.9354652879
 30
0.0
  0
SPLINE
  5
5C2
100
AcDbEntity
  8
3_ALL_AXES
100
AcDbSpline
 62
7
  6
CONTINUOUS
 70
0
 71
3
 72
11
 73
7
 74
0
 42
0.0000001
 43
0.0000001
 44
0.0000000001
 40
0.0
 40
0.0
 40
0.0
 40
0.0
 40
0.2468237052
 40
0.495286026
 40
0.7463606387
 40
1.0
 40
1.0
 40
1.0
 40
1.0
 10
23.5622501352
 20
28.9354652879
 30
0.0
 10
23.5622501352
 20
29.4538114721
 30
0.0
 10
23.3881995696
 20
30.5018556818
 30
0.0
 10
22.6330521743
 20
31.905914196
 30
0.0
 10
21.4644857361
 20
33.0100330132
 30
0.0
 10
20.4882191506
 20
33.4722493994
 30
0.0
 10
19.9776449281
 20
33.6240391296
 30
0.0
  0
SPLINE
  5
5C3
100
AcDbEntity
  8
3_ALL_AXES
100
AcDbSpline
 62
7
  6
CONTINUOUS
 70
0
 71
3
 72
11
 73
7
 74
0
 42
0.0000001
 43
0.0000001
 44
0.0000000001
 40
0.0
 40
0.0
 40
0.0
 40
0.0
 40
0.2459858646
 40
0.4943634347
 40
0.7460368247
 40
1.0
 40
1.0
 40
1.0
 40
1.0
 10
14.5860744669
 20
28.897818705
 30
0.0
 10
14.5911134298
 20
28.4105441754
 30
0.0
 10
14.8041184605
 20
27.4223066425
 30
0.0
 10
15.6787745218
 20
26.1844983254
 30
0.0
 10
16.968430338
 20
25.3618253428
 30
0.0
 10
17.9804062582
 20
25.1706362799
 30
0.0
 10
18.4835099777
 20
25.1706362799
 30
0.0
  0
SPLINE
  5
5C4
100
AcDbEntity
  8
3_ALL_AXES
100
AcDbSpline
 62
7
  6
CONTINUOUS
 70
0
 71
3
 72
11
 73
7
 74
0
 42
0.0000001
 43
0.0000001
 44
0.0000000001
 40
0.0
 40
0.0
 40
0.0
 40
0.0
 40
0.2537066642
 40
0.5048324231
 40
0.7532683034
 40
1.0
 40
1.0
 40
1.0
 40
1.0
 10
17.1288104728
 20
33.6256937336
 30
0.0
 10
16.6023817272
 20
33.4849473683
 30
0.0
 10
15.5915657883
 20
33.0364011369
 30
0.0
 10
14.3754480007
 20
31.9277812587
 30
0.0
 10
13.5867941039
 20
30.4994548554
 30
0.0
 10
13.4047576996
 20
29.427460039
 30
0.0
 10
13.4047711549
 20
28.8975220479
 30
0.0
  0
SPLINE
  5
5C5
100
AcDbEntity
  8
3_ALL_AXES
100
AcDbSpline
 62
7
  6
CONTINUOUS
 70
0
 71
3
 72
11
 73
7
 74
0
 42
0.0000001
 43
0.0000001
 44
0.0000000001
 40
0.0
 40
0.0
 40
0.0
 40
0.0
 40
0.2459839999
 40
0.4943394883
 40
0.7460118334
 40
1.0
 40
1.0
 40
1.0
 40
1.0
 10
22.381147773
 20
28.897763301
 30
0.0
 10
22.381147773
 20
28.4074407472
 30
0.0
 10
22.1757734278
 20
27.4107932381
 30
0.0
 10
21.3032595292
 20
26.1593943614
 30
0.0
 10
20.0082314668
 20
25.3265807661
 30
0.0
 10
18.989787323
 20
25.132934293
 30
0.0
 10
18.4835099777
 20
25.132934293
 30
0.0
  0
SPLINE
  5
5C6
100
AcDbEntity
  8
3_ALL_AXES
100
AcDbSpline
 62
7
  6
CONTINUOUS
 70
0
 71
3
 72
11
 73
7
 74
0
 42
0.0000001
 43
0.0000001
 44
0.0000000001
 40
0.0
 40
0.0
 40
0.0
 40
0.0
 40
0.2467317154
 40
0.4951676041
 40
0.7462933578
 40
1.0
 40
1.0
 40
1.0
 40
1.0
 10
23.5622488113
 20
28.8975249418
 30
0.0
 10
23.5622619785
 20
29.4274620061
 30
0.0
 10
23.3802255233
 20
30.4994547837
 30
0.0
 10
22.5915735303
 20
31.9277787622
 30
0.0
 10
21.3754590233
 20
33.036397574
 30
0.0
 10
20.364645711
 20
33.4849444092
 30
0.0
 10
19.8382182124
 20
33.6256914051
 30
0.0
  0
SPLINE
  5
5C7
100
AcDbEntity
  8
3_ALL_AXES
100
AcDbSpline
 62
7
  6
CONTINUOUS
 70
0
 71
3
 72
11
 73
7
 74
0
 42
0.0000001
 43
0.0000001
 44
0.0000000001
 40
0.0
 40
0.0
 40
0.0
 40
0.0
 40
0.2539881666
 40
0.5056605117
 40
0.7540160001
 40
1.0
 40
1.0
 40
1.0
 40
1.0
 10
18.4835099777
 20
25.132934293
 30
0.0
 10
17.9772326324
 20
25.132934293
 30
0.0
 10
16.9587884887
 20
25.3265807661
 30
0.0
 10
15.6637604263
 20
26.1593943614
 30
0.0
 10
14.7912465277
 20
27.4107932381
 30
0.0
 10
14.5858721825
 20
28.4074407472
 30
0.0
 10
14.5858721825
 20
28.897763301
 30
0.0
  0
ENDSEC
  0
SECTION
  2
OBJECTS
  0
DICTIONARY
  5
C
100
AcDbDictionary
280
0
281
1
  3
ACAD_GROUP
350
D
  3
ACAD_MLINESTYLE
350
17
  3
ACAD_LAYOUT
350
1A
  3
ACAD_PLOTSETTINGS
350
19
  3
ACAD_PLOTSTYLENAME
350
E
  0
DICTIONARY
  5
D
102
{ACAD_REACTORS
330
C
102
}
100
AcDbDictionary
280
0
281
1
  0
ACDBDICTIONARYWDFLT
  5
E
102
{ACAD_REACTORS
330
C
102
}
100
AcDbDictionary
281
1
  3
Normal
350
F
100
AcDbDictionaryWithDefault
340
F
  0
DICTIONARY
  5
17
102
{ACAD_REACTORS
330
C
102
}
100
AcDbDictionary
280
0
281
1
  3
Standard
350
18
  0
DICTIONARY
  5
19
102
{ACAD_REACTORS
330
C
102
}
100
AcDbDictionary
281
1
  0
DICTIONARY
  5
1A
102
{ACAD_REACTORS
330
C
102
}
100
AcDbDictionary
281
1
  3
Model
350
5C8
  3
Layout1
350
5C9
  0
ACDBPLACEHOLDER
  5
F
102
{ACAD_REACTORS
330
E
102
}
  0
MLINESTYLE
  5
18
102
{ACAD_REACTORS
330
17
102
}
100
AcDbMlineStyle
  2
STANDARD
 70
0
  3

 62
256
 51
90.0
 52
90.0
 71
2
 49
0.5
 62
256
  6
BYLAYER
 49
-0.5
 62
256
  6
BYLAYER
  0
LAYOUT
  5
5C8
102
{ACAD_REACTORS
330
1A
102
}
100
AcDbPlotSettings
  1

  2
none_device
  4
ANSI_D_(34.00_x_22.00_Inches)
  6

 40
0.0
 41
0.0
 42
0.0
 43
0.0
 44
863.6
 45
558.8
 46
0.0
 47
0.0
 48
0.0
 49
0.0
140
0.0
141
0.0
142
1.0
143
1.0
 70
1024
 72
0
 73
0
 74
0
  7

 75
0
147
1.0
148
0.0
149
0.0
100
AcDbLayout
  1
Model
 70
0
 71
0
 10
0.0
 20
0.0
 11
34.0
 21
22.0
 12
0.0
 22
0.0
 32
0.0
 14
0.0
 24
0.0
 34
0.0
 15
0.0
 25
0.0
 35
0.0
146
0.0
 13
0.0
 23
0.0
 33
0.0
 16
1.0
 26
0.0
 36
0.0
 17
0.0
 27
1.0
 37
0.0
 76
0
330
210
345
0
346
0
  0
LAYOUT
  5
5C9
102
{ACAD_REACTORS
330
1A
102
}
100
AcDbPlotSettings
  1

  2
none_device
  4
ANSI_D_(34.00_x_22.00_Inches)
  6

 40
0.0
 41
0.0
 42
0.0
 43
0.0
 44
863.6
 45
558.8
 46
0.0
 47
0.0
 48
0.0
 49
0.0
140
0.0
141
0.0
142
1.0
143
1.0
 70
0
 72
0
 73
0
 74
0
  7

 75
0
147
1.0
148
0.0
149
0.0
100
AcDbLayout
  1
Layout1
 70
0
 71
1
 10
0.0
 20
0.0
 11
34.0
 21
22.0
 12
0.0
 22
0.0
 32
0.0
 14
0.0
 24
0.0
 34
0.0
 15
0.0
 25
0.0
 35
0.0
146
0.0
 13
0.0
 23
0.0
 33
0.0
 16
1.0
 26
0.0
 36
0.0
 17
0.0
 27
1.0
 37
0.0
 76
0
330
211
345
0
346
0
  0
ENDSEC
  0
EOF
