  0
SECTION
  2
HEADER
  9
$ACADVER
  1
AC1015
  9
$ACADMAINTVER
 70
    13
  9
$DWGCODEPAGE
  3
ANSI_1252
  9
$INSBASE
 10
0.0
 20
0.0
 30
0.0
  9
$EXTMIN
 10
-0.0738520269210881
 20
-0.0051875924751812
 30
-0.0015258207003583
  9
$EXTMAX
 10
220.0067143794227
 20
170.160828032718
 30
0.0000000349246037
  9
$LIMMIN
 10
0.0
 20
0.0
  9
$LIMMAX
 10
220.0
 20
170.0
  9
$ORTHOMODE
 70
     0
  9
$REGENMODE
 70
     1
  9
$FILLMODE
 70
     1
  9
$QTEXTMODE
 70
     0
  9
$MIRRTEXT
 70
     1
  9
$LTSCALE
 40
12.09999999999999
  9
$ATTMODE
 70
     1
  9
$TEXTSIZE
 40
0.2
  9
$TRACEWID
 40
0.05
  9
$TEXTSTYLE
  7
STANDARD
  9
$CLAYER
  8
0
  9
$CELTYPE
  6
BYLAYER
  9
$CECOLOR
 62
   256
  9
$CELTSCALE
 40
1.0
  9
$DISPSILH
 70
     0
  9
$DIMSCALE
 40
1.0
  9
$DIMASZ
 40
1.875
  9
$DIMEXO
 40
0.0625
  9
$DIMDLI
 40
0.38
  9
$DIMRND
 40
0.0
  9
$DIMDLE
 40
0.0
  9
$DIMEXE
 40
0.18
  9
$DIMTP
 40
0.0
  9
$DIMTM
 40
0.0
  9
$DIMTXT
 40
1.5625
  9
$DIMCEN
 40
0.09
  9
$DIMTSZ
 40
0.0
  9
$DIMTOL
 70
     0
  9
$DIMLIM
 70
     0
  9
$DIMTIH
 70
     1
  9
$DIMTOH
 70
     1
  9
$DIMSE1
 70
     0
  9
$DIMSE2
 70
     0
  9
$DIMTAD
 70
     0
  9
$DIMZIN
 70
     4
  9
$DIMBLK
  1
CLOSED
  9
$DIMASO
 70
     1
  9
$DIMSHO
 70
     1
  9
$DIMPOST
  1
\X
  9
$DIMAPOST
  1

  9
$DIMALT
 70
     1
  9
$DIMALTD
 70
     1
  9
$DIMALTF
 40
25.4
  9
$DIMLFAC
 40
1.0
  9
$DIMTOFL
 70
     0
  9
$DIMTVP
 40
0.0
  9
$DIMTIX
 70
     0
  9
$DIMSOXD
 70
     0
  9
$DIMSAH
 70
     0
  9
$DIMBLK1
  1
CLOSED
  9
$DIMBLK2
  1
CLOSED
  9
$DIMSTYLE
  2
DIMSTYLE_1
  9
$DIMCLRD
 70
     0
  9
$DIMCLRE
 70
     0
  9
$DIMCLRT
 70
     0
  9
$DIMTFAC
 40
1.0
  9
$DIMGAP
 40
1.0
  9
$DIMJUST
 70
     0
  9
$DIMSD1
 70
     0
  9
$DIMSD2
 70
     0
  9
$DIMTOLJ
 70
     1
  9
$DIMTZIN
 70
     4
  9
$DIMALTZ
 70
     0
  9
$DIMALTTZ
 70
     0
  9
$DIMUPT
 70
     0
  9
$DIMDEC
 70
     2
  9
$DIMTDEC
 70
     2
  9
$DIMALTU
 70
     2
  9
$DIMALTTD
 70
     2
  9
$DIMTXSTY
  7
STANDARD
  9
$DIMAUNIT
 70
     0
  9
$DIMADEC
 70
     0
  9
$DIMALTRND
 40
0.0
  9
$DIMAZIN
 70
     0
  9
$DIMDSEP
 70
    46
  9
$DIMATFIT
 70
     3
  9
$DIMFRAC
 70
     0
  9
$DIMLDRBLK
  1
CLOSED
  9
$DIMLUNIT
 70
     2
  9
$DIMLWD
 70
    -2
  9
$DIMLWE
 70
    -2
  9
$DIMTMOVE
 70
     0
  9
$LUNITS
 70
     2
  9
$LUPREC
 70
     4
  9
$SKETCHINC
 40
0.1
  9
$FILLETRAD
 40
0.0
  9
$AUNITS
 70
     0
  9
$AUPREC
 70
     0
  9
$MENU
  1
.
  9
$ELEVATION
 40
0.0
  9
$PELEVATION
 40
0.0
  9
$THICKNESS
 40
0.0
  9
$LIMCHECK
 70
     0
  9
$CHAMFERA
 40
0.0
  9
$CHAMFERB
 40
0.0
  9
$CHAMFERC
 40
0.0
  9
$CHAMFERD
 40
0.0
  9
$SKPOLY
 70
     0
  9
$TDCREATE
 40
2453909.619598877
  9
$TDUCREATE
 40
2453909.911265544
  9
$TDUPDATE
 40
2453909.624488749
  9
$TDUUPDATE
 40
2453909.916155416
  9
$TDINDWG
 40
0.0048902199
  9
$TDUSRTIMER
 40
0.0048902199
  9
$USRTIMER
 70
     1
  9
$ANGBASE
 50
0.0
  9
$ANGDIR
 70
     0
  9
$PDMODE
 70
     3
  9
$PDSIZE
 40
0.3125
  9
$PLINEWID
 40
0.0
  9
$SPLFRAME
 70
     0
  9
$SPLINETYPE
 70
     6
  9
$SPLINESEGS
 70
     8
  9
$HANDSEED
  5
74A
  9
$SURFTAB1
 70
     6
  9
$SURFTAB2
 70
     6
  9
$SURFTYPE
 70
     6
  9
$SURFU
 70
     6
  9
$SURFV
 70
     6
  9
$UCSBASE
  2

  9
$UCSNAME
  2

  9
$UCSORG
 10
0.0
 20
0.0
 30
0.0
  9
$UCSXDIR
 10
1.0
 20
0.0
 30
0.0
  9
$UCSYDIR
 10
0.0
 20
1.0
 30
0.0
  9
$UCSORTHOREF
  2

  9
$UCSORTHOVIEW
 70
     0
  9
$UCSORGTOP
 10
0.0
 20
0.0
 30
0.0
  9
$UCSORGBOTTOM
 10
0.0
 20
0.0
 30
0.0
  9
$UCSORGLEFT
 10
0.0
 20
0.0
 30
0.0
  9
$UCSORGRIGHT
 10
0.0
 20
0.0
 30
0.0
  9
$UCSORGFRONT
 10
0.0
 20
0.0
 30
0.0
  9
$UCSORGBACK
 10
0.0
 20
0.0
 30
0.0
  9
$PUCSBASE
  2

  9
$PUCSNAME
  2

  9
$PUCSORG
 10
0.0
 20
0.0
 30
0.0
  9
$PUCSXDIR
 10
1.0
 20
0.0
 30
0.0
  9
$PUCSYDIR
 10
0.0
 20
1.0
 30
0.0
  9
$PUCSORTHOREF
  2

  9
$PUCSORTHOVIEW
 70
     0
  9
$PUCSORGTOP
 10
0.0
 20
0.0
 30
0.0
  9
$PUCSORGBOTTOM
 10
0.0
 20
0.0
 30
0.0
  9
$PUCSORGLEFT
 10
0.0
 20
0.0
 30
0.0
  9
$PUCSORGRIGHT
 10
0.0
 20
0.0
 30
0.0
  9
$PUCSORGFRONT
 10
0.0
 20
0.0
 30
0.0
  9
$PUCSORGBACK
 10
0.0
 20
0.0
 30
0.0
  9
$USERI1
 70
     0
  9
$USERI2
 70
     0
  9
$USERI3
 70
     0
  9
$USERI4
 70
     0
  9
$USERI5
 70
     0
  9
$USERR1
 40
0.0
  9
$USERR2
 40
0.0
  9
$USERR3
 40
0.0
  9
$USERR4
 40
0.0
  9
$USERR5
 40
0.0
  9
$WORLDVIEW
 70
     1
  9
$SHADEDGE
 70
     3
  9
$SHADEDIF
 70
    70
  9
$TILEMODE
 70
     1
  9
$MAXACTVP
 70
    64
  9
$PINSBASE
 10
0.0
 20
0.0
 30
0.0
  9
$PLIMCHECK
 70
     0
  9
$PEXTMIN
 10
1.000000000000000E+20
 20
1.000000000000000E+20
 30
1.000000000000000E+20
  9
$PEXTMAX
 10
-1.000000000000000E+20
 20
-1.000000000000000E+20
 30
-1.000000000000000E+20
  9
$PLIMMIN
 10
0.0
 20
0.0
  9
$PLIMMAX
 10
12.0
 20
9.0
  9
$UNITMODE
 70
     0
  9
$VISRETAIN
 70
     1
  9
$PLINEGEN
 70
     0
  9
$PSLTSCALE
 70
     1
  9
$TREEDEPTH
 70
  3020
  9
$CMLSTYLE
  2
Standard
  9
$CMLJUST
 70
     0
  9
$CMLSCALE
 40
1.0
  9
$PROXYGRAPHICS
 70
     1
  9
$MEASUREMENT
 70
     0
  9
$CELWEIGHT
370
    -1
  9
$ENDCAPS
280
     0
  9
$JOINSTYLE
280
     0
  9
$LWDISPLAY
290
     0
  9
$INSUNITS
 70
     1
  9
$HYPERLINKBASE
  1

  9
$STYLESHEET
  1

  9
$XEDIT
290
     1
  9
$CEPSNTYPE
380
     0
  9
$PSTYLEMODE
290
     1
  9
$FINGERPRINTGUID
  2
{2F851610-728E-4C1A-9ADF-3FBEC33A2D65}
  9
$VERSIONGUID
  2
{B94331E6-445F-4464-B53F-E78F9FC3B985}
  9
$EXTNAMES
290
     1
  9
$PSVPSCALE
 40
0.0
  9
$OLESTARTUP
290
     0
  0
ENDSEC
  0
SECTION
  2
CLASSES
  0
CLASS
  1
ACDBDICTIONARYWDFLT
  2
AcDbDictionaryWithDefault
  3
AutoCAD 2000
 90
        0
280
     0
281
     0
  0
CLASS
  1
ACDBPLACEHOLDER
  2
AcDbPlaceHolder
  3
AutoCAD 2000
 90
        0
280
     0
281
     0
  0
CLASS
  1
LAYOUT
  2
AcDbLayout
  3
AutoCAD 2000
 90
        0
280
     0
281
     0
  0
CLASS
  1
DICTIONARYVAR
  2
AcDbDictionaryVar
  3
AutoCAD 2000
 90
        0
280
     0
281
     0
  0
ENDSEC
  0
SECTION
  2
TABLES
  0
TABLE
  2
VPORT
  5
8
330
0
100
AcDbSymbolTable
 70
     3
  0
VPORT
  5
749
330
8
100
AcDbSymbolTableRecord
100
AcDbViewportTableRecord
  2
*Active
 70
     0
 10
0.0
 20
0.0
 11
1.0
 21
1.0
 12
109.9664311762508
 22
85.07782022012145
 13
0.0
 23
0.0
 14
1.0
 24
1.0
 15
0.0
 25
0.0
 16
0.0
 26
0.0
 36
1.0
 17
0.0
 27
0.0
 37
0.0
 40
171.4343337540767
 41
1.498756218905472
 42
50.0
 43
0.0
 44
0.0
 50
0.0
 51
0.0
 71
     0
 72
 10000
 73
     1
 74
     1
 75
     0
 76
     0
 77
     0
 78
     0
281
     0
 65
     1
110
0.0
120
0.0
130
0.0
111
1.0
121
0.0
131
0.0
112
0.0
122
1.0
132
0.0
 79
     0
146
0.0
  0
ENDTAB
  0
TABLE
  2
LTYPE
  5
5
330
0
100
AcDbSymbolTable
 70
     6
  0
LTYPE
  5
14
330
5
100
AcDbSymbolTableRecord
100
AcDbLinetypeTableRecord
  2
BYBLOCK
 70
     0
  3

 72
    65
 73
     0
 40
0.0
  0
LTYPE
  5
15
330
5
100
AcDbSymbolTableRecord
100
AcDbLinetypeTableRecord
  2
BYLAYER
 70
     0
  3

 72
    65
 73
     0
 40
0.0
  0
LTYPE
  5
16
330
5
100
AcDbSymbolTableRecord
100
AcDbLinetypeTableRecord
  2
CONTINUOUS
 70
     0
  3
Solid line
 72
    65
 73
     0
 40
0.0
  0
LTYPE
  5
1F5
330
5
100
AcDbSymbolTableRecord
100
AcDbLinetypeTableRecord
  2
CENTER
 70
     0
  3
____ _ ____ _ ____ _ ____ _ ____ _ ____ _ ____
 72
    65
 73
     4
 40
0.6
 49
0.375
 74
     0
 49
-0.075
 74
     0
 49
0.075
 74
     0
 49
-0.075
 74
     0
  0
LTYPE
  5
1F6
330
5
100
AcDbSymbolTableRecord
100
AcDbLinetypeTableRecord
  2
HIDDEN
 70
     0
  3
- - - - - - - - - - - - - - - - - - - -
 72
    65
 73
     2
 40
0.2
 49
0.1
 74
     0
 49
-0.1
 74
     0
  0
LTYPE
  5
1F7
330
5
100
AcDbSymbolTableRecord
100
AcDbLinetypeTableRecord
  2
PHANTOM
 70
     0
  3
_____ _ _ _____ _ _ _____ _ _ _____
 72
    65
 73
     6
 40
0.8
 49
0.45
 74
     0
 49
-0.05
 74
     0
 49
0.1
 74
     0
 49
-0.05
 74
     0
 49
0.1
 74
     0
 49
-0.05
 74
     0
  0
LTYPE
  5
1F8
330
5
100
AcDbSymbolTableRecord
100
AcDbLinetypeTableRecord
  2
DOT
 70
     0
  3
. . . . . . . . . . . . . . . . . . . .
 72
    65
 73
     2
 40
0.2
 49
0.1
 74
     0
 49
-0.1
 74
     0
  0
LTYPE
  5
1F9
330
5
100
AcDbSymbolTableRecord
100
AcDbLinetypeTableRecord
  2
DASHED
 70
     0
  3
- - - - - - - - - - - - - - - - - - - -
 72
    65
 73
     2
 40
0.2
 49
0.1
 74
     0
 49
-0.1
 74
     0
  0
ENDTAB
  0
TABLE
  2
LAYER
  5
2
330
0
100
AcDbSymbolTable
 70
    48
  0
LAYER
  5
10
330
2
100
AcDbSymbolTableRecord
100
AcDbLayerTableRecord
  2
0
 70
     0
 62
     7
  6
CONTINUOUS
370
    -3
390
F
  0
LAYER
  5
1FA
330
2
100
AcDbSymbolTableRecord
100
AcDbLayerTableRecord
  2
DEFAULT_1
 70
     0
 62
     7
  6
CENTER
370
    -3
390
F
  0
LAYER
  5
1FB
330
2
100
AcDbSymbolTableRecord
100
AcDbLayerTableRecord
  2
DEFAULT_2
 70
     0
 62
     8
  6
HIDDEN
370
    -3
390
F
  0
LAYER
  5
1FC
330
2
100
AcDbSymbolTableRecord
100
AcDbLayerTableRecord
  2
DEFAULT_3
 70
     0
 62
     7
  6
PHANTOM
370
    -3
390
F
  0
LAYER
  5
1FD
330
2
100
AcDbSymbolTableRecord
100
AcDbLayerTableRecord
  2
_2D_DELETED_OBJS
 70
     0
 62
     7
  6
CONTINUOUS
370
    -3
390
F
  0
LAYER
  5
1FE
330
2
100
AcDbSymbolTableRecord
100
AcDbLayerTableRecord
  2
_BLACK_HOLE
 70
     0
 62
     7
  6
CONTINUOUS
370
    -3
390
F
  0
LAYER
  5
1FF
330
2
100
AcDbSymbolTableRecord
100
AcDbLayerTableRecord
  2
01___PRT_ALL_DTM_PLN
 70
     0
 62
     7
  6
CONTINUOUS
370
    -3
390
F
  0
LAYER
  5
200
330
2
100
AcDbSymbolTableRecord
100
AcDbLayerTableRecord
  2
01___PRT_DEF_DTM_PLN
 70
     0
 62
     7
  6
CONTINUOUS
370
    -3
390
F
  0
LAYER
  5
201
330
2
100
AcDbSymbolTableRecord
100
AcDbLayerTableRecord
  2
02___PRT_ALL_AXES
 70
     0
 62
     7
  6
CONTINUOUS
370
    -3
390
F
  0
LAYER
  5
202
330
2
100
AcDbSymbolTableRecord
100
AcDbLayerTableRecord
  2
03___PRT_ALL_CURVES
 70
     0
 62
     7
  6
CONTINUOUS
370
    -3
390
F
  0
LAYER
  5
203
330
2
100
AcDbSymbolTableRecord
100
AcDbLayerTableRecord
  2
04___PRT_ALL_DTM_PNT
 70
     0
 62
     7
  6
CONTINUOUS
370
    -3
390
F
  0
LAYER
  5
204
330
2
100
AcDbSymbolTableRecord
100
AcDbLayerTableRecord
  2
05___PRT_ALL_DTM_CSYS
 70
     0
 62
     7
  6
CONTINUOUS
370
    -3
390
F
  0
LAYER
  5
205
330
2
100
AcDbSymbolTableRecord
100
AcDbLayerTableRecord
  2
05___PRT_DEF_DTM_CSYS
 70
     0
 62
     7
  6
CONTINUOUS
370
    -3
390
F
  0
LAYER
  5
206
330
2
100
AcDbSymbolTableRecord
100
AcDbLayerTableRecord
  2
06___PRT_ALL_SURFS
 70
     0
 62
     7
  6
CONTINUOUS
370
    -3
390
F
  0
LAYER
  5
207
330
2
100
AcDbSymbolTableRecord
100
AcDbLayerTableRecord
  2
1_ALL_PLANES
 70
     0
 62
     7
  6
CONTINUOUS
370
    -3
390
F
  0
LAYER
  5
208
330
2
100
AcDbSymbolTableRecord
100
AcDbLayerTableRecord
  2
1__DEF_PLANES
 70
     0
 62
     7
  6
CONTINUOUS
370
    -3
390
F
  0
LAYER
  5
209
330
2
100
AcDbSymbolTableRecord
100
AcDbLayerTableRecord
  2
2_ALL_CSYS
 70
     0
 62
     7
  6
CONTINUOUS
370
    -3
390
F
  0
LAYER
  5
20A
330
2
100
AcDbSymbolTableRecord
100
AcDbLayerTableRecord
  2
2__DEF_CSYS
 70
     0
 62
     7
  6
CONTINUOUS
370
    -3
390
F
  0
LAYER
  5
20B
330
2
100
AcDbSymbolTableRecord
100
AcDbLayerTableRecord
  2
3_ALL_AXES
 70
     0
 62
     7
  6
CONTINUOUS
370
    -3
390
F
  0
LAYER
  5
20C
330
2
100
AcDbSymbolTableRecord
100
AcDbLayerTableRecord
  2
3_AXES_OTHER
 70
     0
 62
     7
  6
CONTINUOUS
370
    -3
390
F
  0
LAYER
  5
20D
330
2
100
AcDbSymbolTableRecord
100
AcDbLayerTableRecord
  2
3_HOLES
 70
     0
 62
     7
  6
CONTINUOUS
370
    -3
390
F
  0
LAYER
  5
20E
330
2
100
AcDbSymbolTableRecord
100
AcDbLayerTableRecord
  2
4_ALL_POINTS
 70
     0
 62
     7
  6
CONTINUOUS
370
    -3
390
F
  0
LAYER
  5
20F
330
2
100
AcDbSymbolTableRecord
100
AcDbLayerTableRecord
  2
5_ALL_CURVES
 70
     0
 62
     7
  6
CONTINUOUS
370
    -3
390
F
  0
LAYER
  5
210
330
2
100
AcDbSymbolTableRecord
100
AcDbLayerTableRecord
  2
6_ALL_SURFS
 70
     0
 62
     7
  6
CONTINUOUS
370
    -3
390
F
  0
LAYER
  5
211
330
2
100
AcDbSymbolTableRecord
100
AcDbLayerTableRecord
  2
6_COPYGEOM
 70
     0
 62
     7
  6
CONTINUOUS
370
    -3
390
F
  0
LAYER
  5
212
330
2
100
AcDbSymbolTableRecord
100
AcDbLayerTableRecord
  2
7_ALL_ROUNDS
 70
     0
 62
     7
  6
CONTINUOUS
370
    -3
390
F
  0
LAYER
  5
213
330
2
100
AcDbSymbolTableRecord
100
AcDbLayerTableRecord
  2
7_MERGES
 70
     0
 62
     7
  6
CONTINUOUS
370
    -3
390
F
  0
LAYER
  5
214
330
2
100
AcDbSymbolTableRecord
100
AcDbLayerTableRecord
  2
8_SET_DATUMS
 70
     0
 62
     7
  6
CONTINUOUS
370
    -3
390
F
  0
LAYER
  5
215
330
2
100
AcDbSymbolTableRecord
100
AcDbLayerTableRecord
  2
9_COSMETICS
 70
     0
 62
     7
  6
CONTINUOUS
370
    -3
390
F
  0
LAYER
  5
216
330
2
100
AcDbSymbolTableRecord
100
AcDbLayerTableRecord
  2
9_THREADS
 70
     0
 62
     7
  6
CONTINUOUS
370
    -3
390
F
  0
LAYER
  5
217
330
2
100
AcDbSymbolTableRecord
100
AcDbLayerTableRecord
  2
AXES
 70
     0
 62
     7
  6
CONTINUOUS
370
    -3
390
F
  0
LAYER
  5
218
330
2
100
AcDbSymbolTableRecord
100
AcDbLayerTableRecord
  2
BASE
 70
     0
 62
     7
  6
CONTINUOUS
370
    -3
390
F
  0
LAYER
  5
219
330
2
100
AcDbSymbolTableRecord
100
AcDbLayerTableRecord
  2
COPY
 70
     0
 62
     7
  6
CONTINUOUS
370
    -3
390
F
  0
LAYER
  5
21A
330
2
100
AcDbSymbolTableRecord
100
AcDbLayerTableRecord
  2
COSM
 70
     0
 62
     7
  6
CONTINUOUS
370
    -3
390
F
  0
LAYER
  5
21B
330
2
100
AcDbSymbolTableRecord
100
AcDbLayerTableRecord
  2
CRVS
 70
     0
 62
     7
  6
CONTINUOUS
370
    -3
390
F
  0
LAYER
  5
21C
330
2
100
AcDbSymbolTableRecord
100
AcDbLayerTableRecord
  2
CSYS
 70
     0
 62
     7
  6
CONTINUOUS
370
    -3
390
F
  0
LAYER
  5
21D
330
2
100
AcDbSymbolTableRecord
100
AcDbLayerTableRecord
  2
CTRLS
 70
     0
 62
     7
  6
CONTINUOUS
370
    -3
390
F
  0
LAYER
  5
21E
330
2
100
AcDbSymbolTableRecord
100
AcDbLayerTableRecord
  2
DRW_FORMAT
 70
     0
 62
     7
  6
CONTINUOUS
370
    -3
390
F
  0
LAYER
  5
21F
330
2
100
AcDbSymbolTableRecord
100
AcDbLayerTableRecord
  2
IMPORT
 70
     0
 62
     7
  6
CONTINUOUS
370
    -3
390
F
  0
LAYER
  5
220
330
2
100
AcDbSymbolTableRecord
100
AcDbLayerTableRecord
  2
MERGE
 70
     0
 62
     7
  6
CONTINUOUS
370
    -3
390
F
  0
LAYER
  5
221
330
2
100
AcDbSymbolTableRecord
100
AcDbLayerTableRecord
  2
NOTES
 70
     0
 62
     7
  6
CONTINUOUS
370
    -3
390
F
  0
LAYER
  5
222
330
2
100
AcDbSymbolTableRecord
100
AcDbLayerTableRecord
  2
PLNS
 70
     0
 62
     7
  6
CONTINUOUS
370
    -3
390
F
  0
LAYER
  5
223
330
2
100
AcDbSymbolTableRecord
100
AcDbLayerTableRecord
  2
PNTS
 70
     0
 62
     7
  6
CONTINUOUS
370
    -3
390
F
  0
LAYER
  5
224
330
2
100
AcDbSymbolTableRecord
100
AcDbLayerTableRecord
  2
RNDS
 70
     0
 62
     7
  6
CONTINUOUS
370
    -3
390
F
  0
LAYER
  5
225
330
2
100
AcDbSymbolTableRecord
100
AcDbLayerTableRecord
  2
SRFS
 70
     0
 62
     7
  6
CONTINUOUS
370
    -3
390
F
  0
LAYER
  5
226
330
2
100
AcDbSymbolTableRecord
100
AcDbLayerTableRecord
  2
THDS
 70
     0
 62
     7
  6
CONTINUOUS
370
    -3
390
F
  0
LAYER
  5
227
330
2
100
AcDbSymbolTableRecord
100
AcDbLayerTableRecord
  2
XSEC
 70
     0
 62
     7
  6
CONTINUOUS
370
    -3
390
F
  0
LAYER
  5
6B6
330
2
100
AcDbSymbolTableRecord
100
AcDbLayerTableRecord
  2
Defpoints
 70
     0
 62
     7
  6
CONTINUOUS
290
     0
370
    -3
390
F
  0
ENDTAB
  0
TABLE
  2
STYLE
  5
3
330
0
100
AcDbSymbolTable
 70
     2
  0
STYLE
  5
11
330
3
100
AcDbSymbolTableRecord
100
AcDbTextStyleTableRecord
  2
STANDARD
 70
     0
 40
0.0
 41
0.8
 50
0.0
 71
     0
 42
0.2
  3
txt
  4

  0
STYLE
  5
228
330
3
100
AcDbSymbolTableRecord
100
AcDbTextStyleTableRecord
  2
TEXTSTYLE_1
 70
     0
 40
0.0
 41
0.6
 50
0.0
 71
     0
 42
0.2
  3
txt
  4

  0
ENDTAB
  0
TABLE
  2
VIEW
  5
6
330
0
100
AcDbSymbolTable
 70
     0
  0
ENDTAB
  0
TABLE
  2
UCS
  5
7
330
0
100
AcDbSymbolTable
 70
     0
  0
ENDTAB
  0
TABLE
  2
APPID
  5
9
330
0
100
AcDbSymbolTable
 70
     1
  0
APPID
  5
229
330
9
100
AcDbSymbolTableRecord
100
AcDbRegAppTableRecord
  2
ACAD
 70
     0
  0
ENDTAB
  0
TABLE
  2
DIMSTYLE
  5
A
330
0
100
AcDbSymbolTable
 70
     2
100
AcDbDimStyleTable
 71
     1
340
234
  0
DIMSTYLE
105
233
330
A
100
AcDbSymbolTableRecord
100
AcDbDimStyleTableRecord
  2
STANDARD
 70
     0
 41
0.1875
 47
0.001
 48
0.001
 78
     4
140
1.5625
271
     3
272
     3
284
     4
340
11
341
22A
342
22A
343
22A
344
22A
  0
DIMSTYLE
105
234
102
{ACAD_REACTORS
330
63E
330
63D
330
63C
330
63B
330
63A
330
639
330
638
102
}
330
A
100
AcDbSymbolTableRecord
100
AcDbDimStyleTableRecord
  2
DIMSTYLE_1
 70
     0
 41
1.875
 78
     4
140
1.5625
271
     2
272
     2
284
     4
340
11
341
22A
342
22A
343
22A
344
22A
  0
ENDTAB
  0
TABLE
  2
BLOCK_RECORD
  5
1
330
0
100
AcDbSymbolTable
 70
     9
  0
BLOCK_RECORD
  5
1F
330
1
100
AcDbSymbolTableRecord
100
AcDbBlockTableRecord
  2
*MODEL_SPACE
340
22
  0
BLOCK_RECORD
  5
1B
330
1
100
AcDbSymbolTableRecord
100
AcDbBlockTableRecord
  2
*PAPER_SPACE
340
1E
  0
BLOCK_RECORD
  5
22A
330
1
100
AcDbSymbolTableRecord
100
AcDbBlockTableRecord
  2
_CLOSED
340
0
102
{BLKREFS
331
281
331
282
331
28D
331
28E
331
299
331
29A
331
2A5
331
2A6
331
2B1
331
2B2
331
2BE
331
2BF
331
2CC
331
2CD
331
6BC
331
6BD
331
6C6
331
6C7
331
6D0
331
6D1
331
6DA
331
6DB
331
6E4
331
6E5
331
6EE
331
6EF
331
6F8
331
6F9
331
703
331
704
331
70D
331
70E
331
717
331
718
331
721
331
722
331
72B
331
72C
331
735
331
736
331
73F
331
740
102
}
  0
BLOCK_RECORD
  5
22B
330
1
100
AcDbSymbolTableRecord
100
AcDbBlockTableRecord
  2
RD010411_BL0
340
0
102
{BLKREFS
331
318
102
}
  0
BLOCK_RECORD
  5
22C
330
1
100
AcDbSymbolTableRecord
100
AcDbBlockTableRecord
  2
*D2
340
0
  0
BLOCK_RECORD
  5
22D
330
1
100
AcDbSymbolTableRecord
100
AcDbBlockTableRecord
  2
*D3
340
0
  0
BLOCK_RECORD
  5
22E
330
1
100
AcDbSymbolTableRecord
100
AcDbBlockTableRecord
  2
*D4
340
0
  0
BLOCK_RECORD
  5
22F
330
1
100
AcDbSymbolTableRecord
100
AcDbBlockTableRecord
  2
*D5
340
0
  0
BLOCK_RECORD
  5
230
330
1
100
AcDbSymbolTableRecord
100
AcDbBlockTableRecord
  2
*D6
340
0
  0
BLOCK_RECORD
  5
231
330
1
100
AcDbSymbolTableRecord
100
AcDbBlockTableRecord
  2
*D7
340
0
  0
BLOCK_RECORD
  5
232
330
1
100
AcDbSymbolTableRecord
100
AcDbBlockTableRecord
  2
*D8
340
0
  0
ENDTAB
  0
ENDSEC
  0
SECTION
  2
BLOCKS
  0
BLOCK
  5
20
330
1F
100
AcDbEntity
  8
0
100
AcDbBlockBegin
  2
*MODEL_SPACE
 70
     0
 10
0.0
 20
0.0
 30
0.0
  3
*MODEL_SPACE
  1

  0
ENDBLK
  5
21
330
1F
100
AcDbEntity
  8
0
100
AcDbBlockEnd
  0
BLOCK
  5
1C
330
1B
100
AcDbEntity
 67
     1
  8
0
100
AcDbBlockBegin
  2
*PAPER_SPACE
 70
     0
 10
0.0
 20
0.0
 30
0.0
  3
*PAPER_SPACE
  1

  0
ENDBLK
  5
1D
330
1B
100
AcDbEntity
 67
     1
  8
0
100
AcDbBlockEnd
  0
BLOCK
  5
2CF
330
22A
100
AcDbEntity
  8
0
100
AcDbBlockBegin
  2
_CLOSED
 70
     0
 10
0.0
 20
0.0
 30
0.0
  3
_CLOSED
  1

  0
LINE
  5
2D0
330
22A
100
AcDbEntity
  8
0
  6
ByBlock
 62
     0
100
AcDbLine
 10
0.0
 20
0.0
 30
0.0
 11
-1.0
 21
0.1666666667
 31
0.0
  0
LINE
  5
2D1
330
22A
100
AcDbEntity
  8
0
  6
ByBlock
 62
     0
100
AcDbLine
 10
-1.0
 20
0.1666666667
 30
0.0
 11
-1.0
 21
-0.1666666667
 31
0.0
  0
LINE
  5
2D2
330
22A
100
AcDbEntity
  8
0
  6
ByBlock
 62
     0
100
AcDbLine
 10
-1.0
 20
-0.1666666667
 30
0.0
 11
0.0
 21
0.0
 31
0.0
  0
LINE
  5
2D3
330
22A
100
AcDbEntity
  8
0
  6
ByBlock
 62
     0
100
AcDbLine
 10
-1.0
 20
0.0
 30
0.0
 11
0.0
 21
0.0
 31
0.0
  0
ENDBLK
  5
2D4
330
22A
100
AcDbEntity
  8
0
  6
ByBlock
 62
     0
100
AcDbBlockEnd
  0
BLOCK
  5
235
330
22B
100
AcDbEntity
  8
DRW_FORMAT
  6
Continuous
 62
     7
100
AcDbBlockBegin
  2
RD010411_BL0
 70
     0
 10
173.0489800014
 20
25.2026071756
 30
0.0
  3
RD010411_BL0
  1

  0
ARC
  5
236
330
22B
100
AcDbEntity
  8
DRW_FORMAT
  6
Continuous
 62
     7
100
AcDbCircle
 10
179.5705956978
 20
26.206376751
 30
0.0
 40
0.1237151327
100
AcDbArc
 50
270.0
 51
360.0
  0
LINE
  5
237
330
22B
100
AcDbEntity
  8
DRW_FORMAT
  6
Continuous
 62
     7
100
AcDbLine
 10
179.6943108305
 20
26.206376751
 30
0.0
 11
179.6943108305
 21
26.45389204289999
 31
0.0
  0
ARC
  5
238
330
22B
100
AcDbEntity
  8
DRW_FORMAT
  6
Continuous
 62
     7
100
AcDbCircle
 10
179.5705956978
 20
26.45389204289999
 30
0.0
 40
0.1237151327
100
AcDbArc
 50
0.0
 51
90.0
  0
LINE
  5
239
330
22B
100
AcDbEntity
  8
DRW_FORMAT
  6
Continuous
 62
     7
100
AcDbLine
 10
179.5705956978
 20
26.5776071756
 30
0.0
 11
176.2446623756
 21
26.5776071756
 31
0.0
  0
SPLINE
  5
23A
330
22B
100
AcDbEntity
  8
DRW_FORMAT
  6
Continuous
 62
     7
100
AcDbSpline
210
0.0
220
0.0
230
1.0
 70
     8
 71
     3
 72
    13
 73
     9
 74
     0
 42
0.0000000001
 43
0.0000000001
 40
0.0
 40
0.0
 40
0.0
 40
0.0
 40
0.1310616762
 40
0.2699656353
 40
0.4157607805
 40
0.5899807757
 40
0.76586761
 40
0.9948829976
 40
0.9948829976
 40
0.9948829976
 40
0.9948829976
 10
176.2446623756
 20
26.5776071756
 30
0.0
 10
176.1747482305
 20
26.5723999239
 30
0.0
 10
176.0307365186999
 20
26.5616738371
 30
0.0
 10
175.8355719702999
 20
26.4407387585
 30
0.0
 10
175.695467114
 20
26.2377105433
 30
0.0
 10
175.6043636975999
 20
25.9894517272
 30
0.0
 10
175.5530486913
 20
25.68597624929999
 30
0.0
 10
175.5483239666999
 20
25.4715351475
 30
0.0
 10
175.5458752520999
 20
25.35022990369999
 30
0.0
  0
LINE
  5
23B
330
22B
100
AcDbEntity
  8
DRW_FORMAT
  6
Continuous
 62
     7
100
AcDbLine
 10
175.5458752520999
 20
25.35022990369999
 30
0.0
 11
175.5460923855
 21
25.3314056147
 31
0.0
  0
SPLINE
  5
23C
330
22B
100
AcDbEntity
  8
DRW_FORMAT
  6
Continuous
 62
     7
100
AcDbSpline
210
0.0
220
0.0
230
1.0
 70
     8
 71
     3
 72
    13
 73
     9
 74
     0
 42
0.0000000001
 43
0.0000000001
 40
0.0
 40
0.0
 40
0.0
 40
0.0
 40
0.2222860645
 40
0.3981728988
 40
0.572392894
 40
0.7181880393000001
 40
0.8570919983999999
 40
0.9881536745999998
 40
0.9881536745999998
 40
0.9881536745999998
 40
0.9881536745999998
 10
175.5460923855
 20
25.3314056147
 30
0.0
 10
175.5484928397
 20
25.2136663283
 30
0.0
 10
175.5536439095999
 20
25.00282832879999
 30
0.0
 10
175.6043636556999
 20
24.7028706813
 30
0.0
 10
175.6954681627
 20
24.4546396307
 30
0.0
 10
175.8355686490999
 20
24.2515252506
 30
0.0
 10
176.0307480927
 20
24.1308792582
 30
0.0
 10
176.1747246941
 20
24.119472466
 30
0.0
 10
176.2446623756
 20
24.1142634632
 30
0.0
  0
LINE
  5
23D
330
22B
100
AcDbEntity
  8
DRW_FORMAT
  6
Continuous
 62
     7
100
AcDbLine
 10
176.2446623756
 20
24.1142634632
 30
0.0
 11
179.5708657183999
 21
24.1215232404
 31
0.0
  0
ARC
  5
23E
330
22B
100
AcDbEntity
  8
DRW_FORMAT
  6
Continuous
 62
     7
100
AcDbCircle
 10
179.5705956978
 20
24.24523807809999
 30
0.0
 40
0.1237151324
100
AcDbArc
 50
270.125053868
 51
360.0
  0
LINE
  5
23F
330
22B
100
AcDbEntity
  8
DRW_FORMAT
  6
Continuous
 62
     7
100
AcDbLine
 10
179.6943108305
 20
24.24523807809999
 30
0.0
 11
179.6943108305
 21
24.4830898706
 31
0.0
  0
ARC
  5
240
330
22B
100
AcDbEntity
  8
DRW_FORMAT
  6
Continuous
 62
     7
100
AcDbCircle
 10
179.5705956978
 20
24.4830898706
 30
0.0
 40
0.1237151327
100
AcDbArc
 50
0.0
 51
90.0
  0
LINE
  5
241
330
22B
100
AcDbEntity
  8
DRW_FORMAT
  6
Continuous
 62
     7
100
AcDbLine
 10
179.5705956978
 20
24.6068050033
 30
0.0
 11
176.7198162658
 21
24.6068050033
 31
0.0
  0
LINE
  5
242
330
22B
100
AcDbEntity
  8
DRW_FORMAT
  6
Continuous
 62
     7
100
AcDbLine
 10
176.5961011331
 20
24.730520136
 30
0.0
 11
176.5961011331
 21
25.95894648559999
 31
0.0
  0
ARC
  5
243
330
22B
100
AcDbEntity
  8
DRW_FORMAT
  6
Continuous
 62
     7
100
AcDbCircle
 10
176.7198162668999
 20
25.95894648559999
 30
0.0
 40
0.1237151327
100
AcDbArc
 50
90.0
 51
180.0
  0
LINE
  5
244
330
22B
100
AcDbEntity
  8
DRW_FORMAT
  6
Continuous
 62
     7
100
AcDbLine
 10
176.7198162658
 20
26.0826616183
 30
0.0
 11
179.5705956978
 21
26.0826616183
 31
0.0
  0
LINE
  5
245
330
22B
100
AcDbEntity
  8
DRW_FORMAT
  6
Continuous
 62
     7
100
AcDbLine
 10
171.6366233433999
 20
25.0961315297
 30
0.0
 11
174.0127426856
 21
25.0961315297
 31
0.0
  0
ARC
  5
246
330
22B
100
AcDbEntity
  8
DRW_FORMAT
  6
Continuous
 62
     7
100
AcDbCircle
 10
174.0127426853
 20
24.9724163973
 30
0.0
 40
0.1237151327
100
AcDbArc
 50
0.0
 51
90.0
  0
LINE
  5
247
330
22B
100
AcDbEntity
  8
DRW_FORMAT
  6
Continuous
 62
     7
100
AcDbLine
 10
174.1364578183
 20
24.97241639699999
 30
0.0
 11
174.1364578183
 21
24.7198028749
 31
0.0
  0
LINE
  5
248
330
22B
100
AcDbEntity
  8
DRW_FORMAT
  6
Continuous
 62
     7
100
AcDbLine
 10
174.0127426856
 20
24.59608774219999
 30
0.0
 11
171.2429412867999
 21
24.59608774219999
 31
0.0
  0
ARC
  5
249
330
22B
100
AcDbEntity
  8
DRW_FORMAT
  6
Continuous
 62
     7
100
AcDbCircle
 10
171.2429412867999
 20
24.4723726095
 30
0.0
 40
0.1237151327
100
AcDbArc
 50
90.0
 51
180.0
  0
LINE
  5
24A
330
22B
100
AcDbEntity
  8
DRW_FORMAT
  6
Continuous
 62
     7
100
AcDbLine
 10
171.1192261541
 20
24.4723726095
 30
0.0
 11
171.1192261541
 21
24.23797734729999
 31
0.0
  0
ARC
  5
24B
330
22B
100
AcDbEntity
  8
DRW_FORMAT
  6
Continuous
 62
     7
100
AcDbCircle
 10
171.2429412867999
 20
24.23797734729999
 30
0.0
 40
0.1237151327
100
AcDbArc
 50
180.0
 51
270.0
  0
LINE
  5
24C
330
22B
100
AcDbEntity
  8
DRW_FORMAT
  6
Continuous
 62
     7
100
AcDbLine
 10
171.2429412867999
 20
24.1142622146
 30
0.0
 11
174.6815084574
 21
24.1142622146
 31
0.0
  0
SPLINE
  5
24D
330
22B
100
AcDbEntity
  8
DRW_FORMAT
  6
Continuous
 62
     7
100
AcDbSpline
210
0.0
220
0.0
230
1.0
 70
     8
 71
     3
 72
    13
 73
     9
 74
     0
 42
0.0000000001
 43
0.0000000001
 40
0.0
 40
0.0
 40
0.0
 40
0.0
 40
0.1604571392
 40
0.3334692485000001
 40
0.4767982758000001
 40
0.6242014838000002
 40
0.7505998515000001
 40
1.0
 40
1.0
 40
1.0
 40
1.0
 10
174.6815084574
 20
24.1142622146
 30
0.0
 10
174.7394831290999
 20
24.11705359149999
 30
0.0
 10
174.8599686991999
 20
24.122854754
 30
0.0
 10
175.0219876624
 20
24.193195958
 30
0.0
 10
175.144074289
 20
24.3114336508
 30
0.0
 10
175.2128749047
 20
24.44698859769999
 30
0.0
 10
175.2656233106
 20
24.6288369478
 30
0.0
 10
175.2677638431999
 20
24.7649236262
 30
0.0
 10
175.2691844145
 20
24.8552380788
 30
0.0
  0
SPLINE
  5
24E
330
22B
100
AcDbEntity
  8
DRW_FORMAT
  6
Continuous
 62
     7
100
AcDbSpline
210
0.0
220
0.0
230
1.0
 70
     8
 71
     3
 72
    13
 73
     9
 74
     0
 42
0.0000000001
 43
0.0000000001
 40
0.0
 40
0.0
 40
0.0
 40
0.0
 40
0.2494001485
 40
0.3757985162
 40
0.5232017242
 40
0.6665307515
 40
0.8395428607999999
 40
1.0
 40
1.0
 40
1.0
 40
1.0
 10
175.2691844145
 20
24.8552380788
 30
0.0
 10
175.2677638431999
 20
24.9455525334
 30
0.0
 10
175.2656233106
 20
25.08163920979999
 30
0.0
 10
175.2128749047
 20
25.26348756179999
 30
0.0
 10
175.144074289
 20
25.3990425087
 30
0.0
 10
175.0219876624
 20
25.5172801996
 30
0.0
 10
174.8599686991999
 20
25.5876214036
 30
0.0
 10
174.7394831290999
 20
25.593422568
 30
0.0
 10
174.6815084574
 20
25.596213943
 30
0.0
  0
LINE
  5
24F
330
22B
100
AcDbEntity
  8
DRW_FORMAT
  6
Continuous
 62
     7
100
AcDbLine
 10
174.6815084574
 20
25.596213943
 30
0.0
 11
172.3370612131
 21
25.596213943
 31
0.0
  0
LINE
  5
250
330
22B
100
AcDbEntity
  8
DRW_FORMAT
  6
Continuous
 62
     7
100
AcDbLine
 10
172.2133460804
 20
25.7199290757
 30
0.0
 11
172.2133460804
 21
25.9540105183
 31
0.0
  0
ARC
  5
251
330
22B
100
AcDbEntity
  8
DRW_FORMAT
  6
Continuous
 62
     7
100
AcDbCircle
 10
172.3370612121
 20
25.9540105183
 30
0.0
 40
0.1237151327
100
AcDbArc
 50
90.0
 51
180.0
  0
LINE
  5
252
330
22B
100
AcDbEntity
  8
DRW_FORMAT
  6
Continuous
 62
     7
100
AcDbLine
 10
172.3370612131
 20
26.07772565099999
 30
0.0
 11
175.1106222100999
 21
26.07772565099999
 31
0.0
  0
ARC
  5
253
330
22B
100
AcDbEntity
  8
DRW_FORMAT
  6
Continuous
 62
     7
100
AcDbCircle
 10
175.1106222100999
 20
26.2014407837
 30
0.0
 40
0.1237151327
100
AcDbArc
 50
270.0
 51
360.0
  0
LINE
  5
254
330
22B
100
AcDbEntity
  8
DRW_FORMAT
  6
Continuous
 62
     7
100
AcDbLine
 10
175.2343373427999
 20
26.2014407837
 30
0.0
 11
175.2343373427999
 21
26.45389204289999
 31
0.0
  0
ARC
  5
255
330
22B
100
AcDbEntity
  8
DRW_FORMAT
  6
Continuous
 62
     7
100
AcDbCircle
 10
175.1106222100999
 20
26.45389204289999
 30
0.0
 40
0.1237151327
100
AcDbArc
 50
0.0
 51
90.0
  0
LINE
  5
256
330
22B
100
AcDbEntity
  8
DRW_FORMAT
  6
Continuous
 62
     7
100
AcDbLine
 10
175.1106222100999
 20
26.5776071756
 30
0.0
 11
171.6366233433999
 21
26.5776071756
 31
0.0
  0
SPLINE
  5
257
330
22B
100
AcDbEntity
  8
DRW_FORMAT
  6
Continuous
 62
     7
100
AcDbSpline
210
0.0
220
0.0
230
1.0
 70
     8
 71
     3
 72
    13
 73
     9
 74
     0
 42
0.0000000001
 43
0.0000000001
 40
0.0
 40
0.0
 40
0.0
 40
0.0
 40
0.1133740464
 40
0.2392044088
 40
0.3655787964
 40
0.4912154373
 40
0.7445390876000002
 40
1.0
 40
1.0
 40
1.0
 40
1.0
 10
171.6366233433999
 20
26.5776071756
 30
0.0
 10
171.5969370818999
 20
26.5756524423
 30
0.0
 10
171.5132042629
 20
26.571528208
 30
0.0
 10
171.3888274427
 20
26.5343681296
 30
0.0
 10
171.2775602564
 20
26.4593303584
 30
0.0
 10
171.1638998331999
 20
26.3211079211
 30
0.0
 10
171.0923774845999
 20
26.1041170846
 30
0.0
 10
171.0846208751
 20
25.9262010561
 30
0.0
 10
171.0807262808
 20
25.8368693527
 30
0.0
  0
SPLINE
  5
258
330
22B
100
AcDbEntity
  8
DRW_FORMAT
  6
Continuous
 62
     7
100
AcDbSpline
210
0.0
220
0.0
230
1.0
 70
     8
 71
     3
 72
    13
 73
     9
 74
     0
 42
0.0000000001
 43
0.0000000001
 40
0.0
 40
0.0
 40
0.0
 40
0.0
 40
0.2554609124
 40
0.5087845627
 40
0.6344212036
 40
0.7607955912000001
 40
0.8866259535999999
 40
1.0
 40
1.0
 40
1.0
 40
1.0
 10
171.0807262808
 20
25.8368693527
 30
0.0
 10
171.0846208751
 20
25.7475376493
 30
0.0
 10
171.0923774845999
 20
25.5696216189
 30
0.0
 10
171.1638998331999
 20
25.35263078429999
 30
0.0
 10
171.2775602564
 20
25.2144083469
 30
0.0
 10
171.3888274427
 20
25.1393705757
 30
0.0
 10
171.5132042629
 20
25.1022104973
 30
0.0
 10
171.5969370818999
 20
25.0980862631
 30
0.0
 10
171.6366233433999
 20
25.0961315297
 30
0.0
  0
LINE
  5
259
330
22B
100
AcDbEntity
  8
DRW_FORMAT
  6
Continuous
 62
     7
100
AcDbLine
 10
167.0654850713
 20
24.1142622146
 30
0.0
 11
168.98776004
 21
24.1142622146
 31
0.0
  0
LINE
  5
25A
330
22B
100
AcDbEntity
  8
DRW_FORMAT
  6
Continuous
 62
     7
100
AcDbLine
 10
168.98776004
 20
24.1142622146
 30
0.0
 11
168.98776004
 21
23.87518991899999
 31
0.0
  0
ARC
  5
25B
330
22B
100
AcDbEntity
  8
DRW_FORMAT
  6
Continuous
 62
     7
100
AcDbCircle
 10
169.0353427832999
 20
23.87518991899999
 30
0.0
 40
0.0475827433
100
AcDbArc
 50
180.0
 51
270.0
  0
LINE
  5
25C
330
22B
100
AcDbEntity
  8
DRW_FORMAT
  6
Continuous
 62
     7
100
AcDbLine
 10
169.0353427832999
 20
23.8276071756
 30
0.0
 11
169.7762544926
 21
23.8276071756
 31
0.0
  0
ARC
  5
25D
330
22B
100
AcDbEntity
  8
DRW_FORMAT
  6
Continuous
 62
     7
100
AcDbCircle
 10
169.7762544926
 20
23.87518991899999
 30
0.0
 40
0.0475827433
100
AcDbArc
 50
270.0
 51
360.0
  0
LINE
  5
25E
330
22B
100
AcDbEntity
  8
DRW_FORMAT
  6
Continuous
 62
     7
100
AcDbLine
 10
169.823837236
 20
23.87518991899999
 30
0.0
 11
169.823837236
 21
24.1142622146
 31
0.0
  0
LINE
  5
25F
330
22B
100
AcDbEntity
  8
DRW_FORMAT
  6
Continuous
 62
     7
100
AcDbLine
 10
169.823837236
 20
24.1142622146
 30
0.0
 11
170.2018284395
 21
24.1142622146
 31
0.0
  0
SPLINE
  5
260
330
22B
100
AcDbEntity
  8
DRW_FORMAT
  6
Continuous
 62
     7
100
AcDbSpline
210
0.0
220
0.0
230
1.0
 70
     8
 71
     3
 72
    12
 73
     8
 74
     0
 42
0.0000000001
 43
0.0000000001
 40
0.0
 40
0.0
 40
0.0
 40
0.0
 40
0.2415790084
 40
0.4893269843
 40
0.7378634303000001
 40
0.8656387112
 40
1.0
 40
1.0
 40
1.0
 40
1.0
 10
170.2018284395
 20
24.1142622146
 30
0.0
 10
170.2696059862
 20
24.1163693422
 30
0.0
 10
170.4068918506
 20
24.1206374058
 30
0.0
 10
170.6077953878
 20
24.1922849503
 30
0.0
 10
170.7298080614
 20
24.32753655329999
 30
0.0
 10
170.7835627947
 20
24.4626779243
 30
0.0
 10
170.7845315337
 20
24.5367080814
 30
0.0
 10
170.7850280729
 20
24.5746531381
 30
0.0
  0
LINE
  5
261
330
22B
100
AcDbEntity
  8
DRW_FORMAT
  6
Continuous
 62
     7
100
AcDbLine
 10
170.7850280729
 20
24.5746531381
 30
0.0
 11
170.7850280729
 21
26.1143270432
 31
0.0
  0
SPLINE
  5
262
330
22B
100
AcDbEntity
  8
DRW_FORMAT
  6
Continuous
 62
     7
100
AcDbSpline
210
0.0
220
0.0
230
1.0
 70
     8
 71
     3
 72
    12
 73
     8
 74
     0
 42
0.0000000001
 43
0.0000000001
 40
0.0
 40
0.0
 40
0.0
 40
0.0
 40
0.1343612888
 40
0.2621365697
 40
0.5106730157000001
 40
0.7584209916
 40
1.0
 40
1.0
 40
1.0
 40
1.0
 10
170.7850280729
 20
26.1143270432
 30
0.0
 10
170.7845315337
 20
26.1522721018
 30
0.0
 10
170.7835627947
 20
26.2263022589
 30
0.0
 10
170.7298080614
 20
26.3614436299
 30
0.0
 10
170.6077953878
 20
26.496695233
 30
0.0
 10
170.4068918506
 20
26.5683427755
 30
0.0
 10
170.2696059862
 20
26.57261083909999
 30
0.0
 10
170.2018284395
 20
26.5747179667
 30
0.0
  0
LINE
  5
263
330
22B
100
AcDbEntity
  8
DRW_FORMAT
  6
Continuous
 62
     7
100
AcDbLine
 10
170.2018284395
 20
26.5747179667
 30
0.0
 11
167.0654850713
 21
26.5747179667
 31
0.0
  0
SPLINE
  5
264
330
22B
100
AcDbEntity
  8
DRW_FORMAT
  6
Continuous
 62
     7
100
AcDbSpline
210
0.0
220
0.0
230
1.0
 70
     8
 71
     3
 72
    12
 73
     8
 74
     0
 42
0.0000000001
 43
0.0000000001
 40
0.0
 40
0.0
 40
0.0
 40
0.0
 40
0.1341799809
 40
0.2908319589999999
 40
0.5815217441
 40
0.7607838570000001
 40
1.0
 40
1.0
 40
1.0
 40
1.0
 10
167.0654850713
 20
26.5747179667
 30
0.0
 10
166.9970758542
 20
26.56302618239999
 30
0.0
 10
166.8488004831
 20
26.5376845117
 30
0.0
 10
166.5992026923999
 20
26.35121058219999
 30
0.0
 10
166.4809805116
 20
26.0374869215
 30
0.0
 10
166.4118097707
 20
25.6818522377
 30
0.0
 10
166.40661734
 20
25.46674817119999
 30
0.0
 10
166.4036491722
 20
25.3437875048
 30
0.0
  0
SPLINE
  5
265
330
22B
100
AcDbEntity
  8
DRW_FORMAT
  6
Continuous
 62
     7
100
AcDbSpline
210
0.0
220
0.0
230
1.0
 70
     8
 71
     3
 72
    12
 73
     8
 74
     0
 42
0.0000000001
 43
0.0000000001
 40
0.0
 40
0.0
 40
0.0
 40
0.0
 40
0.2392679579
 40
0.4185688994
 40
0.7093216488
 40
0.8660075581
 40
1.0
 40
1.0
 40
1.0
 40
1.0
 10
166.4036491722
 20
25.3437875048
 30
0.0
 10
166.4066185258
 20
25.2208316309
 30
0.0
 10
166.4118130292
 20
25.0057359485
 30
0.0
 10
166.4809688443
 20
24.6500409146
 30
0.0
 10
166.5992632556999
 20
24.3366093263
 30
0.0
 10
166.8486011798999
 20
24.1495298778
 30
0.0
 10
166.9970537053
 20
24.125389894
 30
0.0
 10
167.0654850713
 20
24.1142622146
 30
0.0
  0
LINE
  5
266
330
22B
100
AcDbEntity
  8
DRW_FORMAT
  6
Continuous
 62
     7
100
AcDbLine
 10
170.1514885293
 20
24.7477251081
 30
0.0
 11
170.1514885293
 21
25.9813550913
 31
0.0
  0
ARC
  5
267
330
22B
100
AcDbEntity
  8
DRW_FORMAT
  6
Continuous
 62
     7
100
AcDbCircle
 10
167.5559891602
 20
24.7477251081
 30
0.0
 40
0.1237151327
100
AcDbArc
 50
180.0
 51
270.0
  0
LINE
  5
268
330
22B
100
AcDbEntity
  8
DRW_FORMAT
  6
Continuous
 62
     7
100
AcDbLine
 10
167.5559891602
 20
24.6240099754
 30
0.0
 11
168.9769380911
 21
24.6240099754
 31
0.0
  0
LINE
  5
269
330
22B
100
AcDbEntity
  8
DRW_FORMAT
  6
Continuous
 62
     7
100
AcDbLine
 10
168.9769380911
 20
24.6240099754
 30
0.0
 11
168.9769380911
 21
24.86234152
 31
0.0
  0
ARC
  5
26A
330
22B
100
AcDbEntity
  8
DRW_FORMAT
  6
Continuous
 62
     7
100
AcDbCircle
 10
169.0245208352999
 20
24.86234152
 30
0.0
 40
0.0475827433
100
AcDbArc
 50
90.0
 51
180.0
  0
LINE
  5
26B
330
22B
100
AcDbEntity
  8
DRW_FORMAT
  6
Continuous
 62
     7
100
AcDbLine
 10
169.0245208344
 20
24.9099242634
 30
0.0
 11
169.7616566913
 21
24.9099242634
 31
0.0
  0
ARC
  5
26C
330
22B
100
AcDbEntity
  8
DRW_FORMAT
  6
Continuous
 62
     7
100
AcDbCircle
 10
169.7616566895999
 20
24.86234152179999
 30
0.0
 40
0.0475827433
100
AcDbArc
 50
0.0
 51
90.0
  0
LINE
  5
26D
330
22B
100
AcDbEntity
  8
DRW_FORMAT
  6
Continuous
 62
     7
100
AcDbLine
 10
169.8092394347
 20
24.6240099754
 30
0.0
 11
170.0277733965999
 21
24.6240099754
 31
0.0
  0
ARC
  5
26E
330
22B
100
AcDbEntity
  8
DRW_FORMAT
  6
Continuous
 62
     7
100
AcDbCircle
 10
170.0277733965999
 20
24.7477251081
 30
0.0
 40
0.1237151327
100
AcDbArc
 50
270.0
 51
360.0
  0
LINE
  5
26F
330
22B
100
AcDbEntity
  8
DRW_FORMAT
  6
Continuous
 62
     7
100
AcDbLine
 10
169.8092394347
 20
24.6240099754
 30
0.0
 11
169.8092394347
 21
24.86234152
 31
0.0
  0
LINE
  5
270
330
22B
100
AcDbEntity
  8
DRW_FORMAT
  6
Continuous
 62
     7
100
AcDbLine
 10
167.4322740275
 20
24.7477251081
 30
0.0
 11
167.4322740275
 21
25.9813550913
 31
0.0
  0
ARC
  5
271
330
22B
100
AcDbEntity
  8
DRW_FORMAT
  6
Continuous
 62
     7
100
AcDbCircle
 10
167.5559891619
 20
25.9813550913
 30
0.0
 40
0.1237151327
100
AcDbArc
 50
90.0
 51
180.0
  0
LINE
  5
272
330
22B
100
AcDbEntity
  8
DRW_FORMAT
  6
Continuous
 62
     7
100
AcDbLine
 10
167.5559891602
 20
26.105070224
 30
0.0
 11
170.0277733965999
 21
26.105070224
 31
0.0
  0
ARC
  5
273
330
22B
100
AcDbEntity
  8
DRW_FORMAT
  6
Continuous
 62
     7
100
AcDbCircle
 10
170.0277733977
 20
25.9813550902
 30
0.0
 40
0.1237151327
100
AcDbArc
 50
0.0000000277
 51
90.00000002770001
  0
ARC
  5
274
330
22B
100
AcDbEntity
  8
DRW_FORMAT
  6
Continuous
 62
     7
100
AcDbCircle
 10
172.3370612131
 20
25.7199290757
 30
0.0
 40
0.1237151327
100
AcDbArc
 50
180.0
 51
270.0
  0
ARC
  5
275
330
22B
100
AcDbEntity
  8
DRW_FORMAT
  6
Continuous
 62
     7
100
AcDbCircle
 10
174.0127426856
 20
24.7198028749
 30
0.0
 40
0.1237151327
100
AcDbArc
 50
270.0
 51
360.0
  0
ARC
  5
276
330
22B
100
AcDbEntity
  8
DRW_FORMAT
  6
Continuous
 62
     7
100
AcDbCircle
 10
176.7198162658
 20
24.730520136
 30
0.0
 40
0.1237151327
100
AcDbArc
 50
180.0
 51
270.0
  0
ENDBLK
  5
277
330
22B
100
AcDbEntity
  8
0
  6
ByBlock
 62
     0
100
AcDbBlockEnd
  0
BLOCK
  5
278
330
22C
100
AcDbEntity
  8
0
  6
Continuous
 62
     7
100
AcDbBlockBegin
  2
*D2
 70
     1
 10
0.0
 20
0.0
 30
0.0
  3
*D2
  1

  0
LINE
  5
73B
330
22C
100
AcDbEntity
  8
0
  6
Continuous
 62
     0
370
    -2
100
AcDbLine
 10
73.4389526769
 20
90.05396952540001
 30
0.0
 11
73.4389526769
 21
100.0997318628
 31
0.0
  0
LINE
  5
73C
330
22C
100
AcDbEntity
  8
0
  6
Continuous
 62
     0
370
    -2
100
AcDbLine
 10
25.4389526769
 20
90.05396952540001
 30
0.0
 11
25.4389526769
 21
100.0997318628
 31
0.0
  0
LINE
  5
73D
330
22C
100
AcDbEntity
  8
0
  6
Continuous
 62
     0
370
    -2
100
AcDbLine
 10
71.5639526769
 20
99.9197318628
 30
0.0
 11
54.60309785596667
 21
99.9197318628
 31
0.0
  0
LINE
  5
73E
330
22C
100
AcDbEntity
  8
0
  6
Continuous
 62
     0
370
    -2
100
AcDbLine
 10
27.3139526769
 20
99.9197318628
 30
0.0
 11
44.26976452263334
 21
99.9197318628
 31
0.0
  0
INSERT
  5
73F
330
22C
100
AcDbEntity
  8
0
  6
Continuous
 62
     0
370
    -2
100
AcDbBlockReference
  2
_CLOSED
 10
73.4389526769
 20
99.9197318628
 30
0.0
 41
1.875
 42
1.875
 43
1.875
  0
INSERT
  5
740
330
22C
100
AcDbEntity
  8
0
  6
Continuous
 62
     0
370
    -2
100
AcDbBlockReference
  2
_CLOSED
 10
25.4389526769
 20
99.9197318628
 30
0.0
 41
1.875
 42
1.875
 43
1.875
 50
180.0
  0
MTEXT
  5
741
330
22C
100
AcDbEntity
  8
0
  6
Continuous
 62
     0
100
AcDbMText
 10
49.4364311893
 20
99.9197318628
 30
0.0
 40
1.5625
 41
0.0
 71
     5
 72
     1
  1
\A1;48.00\P [1219.2]
 73
     1
 44
1.0
  0
POINT
  5
742
330
22C
100
AcDbEntity
  8
Defpoints
  6
Continuous
 62
     0
100
AcDbPoint
 10
73.4389526769
 20
89.9914695254
 30
0.0
  0
POINT
  5
743
330
22C
100
AcDbEntity
  8
Defpoints
  6
Continuous
 62
     0
100
AcDbPoint
 10
25.4389526769
 20
89.9914695254
 30
0.0
  0
POINT
  5
744
330
22C
100
AcDbEntity
  8
Defpoints
  6
Continuous
 62
     0
100
AcDbPoint
 10
25.4389526769
 20
99.9197318628
 30
0.0
  0
ENDBLK
  5
283
330
22C
100
AcDbEntity
  8
0
  6
ByBlock
 62
     0
100
AcDbBlockEnd
  0
BLOCK
  5
284
330
22D
100
AcDbEntity
  8
0
  6
Continuous
 62
     7
100
AcDbBlockBegin
  2
*D3
 70
     1
 10
0.0
 20
0.0
 30
0.0
  3
*D3
  1

  0
LINE
  5
731
330
22D
100
AcDbEntity
  8
0
  6
Continuous
 62
     0
370
    -2
100
AcDbLine
 10
74.1264526769
 20
89.3664695254
 30
0.0
 11
88.55492128460001
 21
89.3664695254
 31
0.0
  0
LINE
  5
732
330
22D
100
AcDbEntity
  8
0
  6
Continuous
 62
     0
370
    -2
100
AcDbLine
 10
74.1264526769
 20
59.3664695254
 30
0.0
 11
88.55492128460001
 21
59.36646952539999
 31
0.0
  0
LINE
  5
733
330
22D
100
AcDbEntity
  8
0
  6
Continuous
 62
     0
370
    -2
100
AcDbLine
 10
88.3749212846
 20
87.4914695254
 30
0.0
 11
88.3749212846
 21
77.56007294293332
 31
0.0
  0
LINE
  5
734
330
22D
100
AcDbEntity
  8
0
  6
Continuous
 62
     0
370
    -2
100
AcDbLine
 10
88.3749212846
 20
61.24146952539999
 30
0.0
 11
88.3749212846
 21
71.39340627626665
 31
0.0
  0
INSERT
  5
735
330
22D
100
AcDbEntity
  8
0
  6
Continuous
 62
     0
370
    -2
100
AcDbBlockReference
  2
_CLOSED
 10
88.3749212846
 20
89.3664695254
 30
0.0
 41
1.875
 42
1.875
 43
1.875
 50
90.0
  0
INSERT
  5
736
330
22D
100
AcDbEntity
  8
0
  6
Continuous
 62
     0
370
    -2
100
AcDbBlockReference
  2
_CLOSED
 10
88.3749212846
 20
59.36646952539999
 30
0.0
 41
1.875
 42
1.875
 43
1.875
 50
270.0
  0
MTEXT
  5
737
330
22D
100
AcDbEntity
  8
0
  6
Continuous
 62
     0
100
AcDbMText
 10
88.37492128459999
 20
74.4767396096
 30
0.0
 40
1.5625
 41
0.0
 71
     5
 72
     1
  1
\A1;30.00\P [762.0]
 73
     1
 44
1.0
  0
POINT
  5
738
330
22D
100
AcDbEntity
  8
Defpoints
  6
Continuous
 62
     0
100
AcDbPoint
 10
74.0639526769
 20
89.3664695254
 30
0.0
  0
POINT
  5
739
330
22D
100
AcDbEntity
  8
Defpoints
  6
Continuous
 62
     0
100
AcDbPoint
 10
74.0639526769
 20
59.3664695254
 30
0.0
  0
POINT
  5
73A
330
22D
100
AcDbEntity
  8
Defpoints
  6
Continuous
 62
     0
100
AcDbPoint
 10
88.3749212846
 20
59.36646952539999
 30
0.0
  0
ENDBLK
  5
28F
330
22D
100
AcDbEntity
  8
0
  6
ByBlock
 62
     0
100
AcDbBlockEnd
  0
BLOCK
  5
290
330
22E
100
AcDbEntity
  8
0
  6
Continuous
 62
     7
100
AcDbBlockBegin
  2
*D4
 70
     1
 10
0.0
 20
0.0
 30
0.0
  3
*D4
  1

  0
LINE
  5
727
330
22E
100
AcDbEntity
  8
0
  6
Continuous
 62
     0
370
    -2
100
AcDbLine
 10
135.1501791972999
 20
90.05396952540001
 30
0.0
 11
135.1501791972999
 21
100.5232265379
 31
0.0
  0
LINE
  5
728
330
22E
100
AcDbEntity
  8
0
  6
Continuous
 62
     0
370
    -2
100
AcDbLine
 10
159.1501791972999
 20
90.05396952540001
 30
0.0
 11
159.1501791972999
 21
100.5232265379
 31
0.0
  0
LINE
  5
729
330
22E
100
AcDbEntity
  8
0
  6
Continuous
 62
     0
370
    -2
100
AcDbLine
 10
137.0251791972999
 20
100.3432265379
 30
0.0
 11
142.7236651083333
 21
100.3432265379
 31
0.0
  0
LINE
  5
72A
330
22E
100
AcDbEntity
  8
0
  6
Continuous
 62
     0
370
    -2
100
AcDbLine
 10
157.2751791972999
 20
100.3432265379
 30
0.0
 11
152.4319984416666
 21
100.3432265379
 31
0.0
  0
INSERT
  5
72B
330
22E
100
AcDbEntity
  8
0
  6
Continuous
 62
     0
370
    -2
100
AcDbBlockReference
  2
_CLOSED
 10
135.1501791972999
 20
100.3432265379
 30
0.0
 41
1.875
 42
1.875
 43
1.875
 50
180.0
  0
INSERT
  5
72C
330
22E
100
AcDbEntity
  8
0
  6
Continuous
 62
     0
370
    -2
100
AcDbBlockReference
  2
_CLOSED
 10
159.1501791972999
 20
100.3432265379
 30
0.0
 41
1.875
 42
1.875
 43
1.875
  0
MTEXT
  5
72D
330
22E
100
AcDbEntity
  8
0
  6
Continuous
 62
     0
100
AcDbMText
 10
147.5778317749999
 20
100.3432265379
 30
0.0
 40
1.5625
 41
0.0
 71
     5
 72
     1
  1
\A1;24.00\P [609.6]
 73
     1
 44
1.0
  0
POINT
  5
72E
330
22E
100
AcDbEntity
  8
Defpoints
  6
Continuous
 62
     0
100
AcDbPoint
 10
135.1501791972999
 20
89.9914695254
 30
0.0
  0
POINT
  5
72F
330
22E
100
AcDbEntity
  8
Defpoints
  6
Continuous
 62
     0
100
AcDbPoint
 10
159.1501791972999
 20
89.9914695254
 30
0.0
  0
POINT
  5
730
330
22E
100
AcDbEntity
  8
Defpoints
  6
Continuous
 62
     0
100
AcDbPoint
 10
159.1501791972999
 20
100.3432265379
 30
0.0
  0
ENDBLK
  5
29B
330
22E
100
AcDbEntity
  8
0
  6
ByBlock
 62
     0
100
AcDbBlockEnd
  0
BLOCK
  5
29C
330
22F
100
AcDbEntity
  8
0
  6
Continuous
 62
     7
100
AcDbBlockBegin
  2
*D5
 70
     1
 10
0.0
 20
0.0
 30
0.0
  3
*D5
  1

  0
LINE
  5
71D
330
22F
100
AcDbEntity
  8
0
  6
Continuous
 62
     0
370
    -2
100
AcDbLine
 10
159.8376791972999
 20
59.3664695254
 30
0.0
 11
181.311845907
 21
59.36646952539999
 31
0.0
  0
LINE
  5
71E
330
22F
100
AcDbEntity
  8
0
  6
Continuous
 62
     0
370
    -2
100
AcDbLine
 10
155.1126791973
 20
70.81646952539999
 30
0.0
 11
181.311845907
 21
70.81646952539998
 31
0.0
  0
LINE
  5
71F
330
22F
100
AcDbEntity
  8
0
  6
Continuous
 62
     0
370
    -2
100
AcDbLine
 10
181.131845907
 20
61.24146952539999
 30
0.0
 11
181.131845907
 21
62.05733171826663
 31
0.0
  0
LINE
  5
720
330
22F
100
AcDbEntity
  8
0
  6
Continuous
 62
     0
370
    -2
100
AcDbLine
 10
181.131845907
 20
68.94146952539998
 30
0.0
 11
181.131845907
 21
68.22399838493329
 31
0.0
  0
INSERT
  5
721
330
22F
100
AcDbEntity
  8
0
  6
Continuous
 62
     0
370
    -2
100
AcDbBlockReference
  2
_CLOSED
 10
181.131845907
 20
59.36646952539999
 30
0.0
 41
1.875
 42
1.875
 43
1.875
 50
270.0
  0
INSERT
  5
722
330
22F
100
AcDbEntity
  8
0
  6
Continuous
 62
     0
370
    -2
100
AcDbBlockReference
  2
_CLOSED
 10
181.131845907
 20
70.81646952539998
 30
0.0
 41
1.875
 42
1.875
 43
1.875
 50
90.0
  0
MTEXT
  5
723
330
22F
100
AcDbEntity
  8
0
  6
Continuous
 62
     0
100
AcDbMText
 10
181.131845907
 20
65.14066505159999
 30
0.0
 40
1.5625
 41
0.0
 71
     5
 72
     1
  1
\A1;11.45\P [290.8]
 73
     1
 44
1.0
  0
POINT
  5
724
330
22F
100
AcDbEntity
  8
Defpoints
  6
Continuous
 62
     0
100
AcDbPoint
 10
159.7751791972999
 20
59.3664695254
 30
0.0
  0
POINT
  5
725
330
22F
100
AcDbEntity
  8
Defpoints
  6
Continuous
 62
     0
100
AcDbPoint
 10
155.0501791972999
 20
70.81646952539999
 30
0.0
  0
POINT
  5
726
330
22F
100
AcDbEntity
  8
Defpoints
  6
Continuous
 62
     0
100
AcDbPoint
 10
181.131845907
 20
70.81646952539998
 30
0.0
  0
ENDBLK
  5
2A7
330
22F
100
AcDbEntity
  8
0
  6
ByBlock
 62
     0
100
AcDbBlockEnd
  0
BLOCK
  5
2A8
330
230
100
AcDbEntity
  8
0
  6
Continuous
 62
     7
100
AcDbBlockBegin
  2
*D6
 70
     1
 10
0.0
 20
0.0
 30
0.0
  3
*D6
  1

  0
LINE
  5
713
330
230
100
AcDbEntity
  8
0
  6
Continuous
 62
     0
370
    -2
100
AcDbLine
 10
135.1501791972999
 20
90.05396952540001
 30
0.0
 11
135.1501791972999
 21
91.4423898939
 31
0.0
  0
LINE
  5
714
330
230
100
AcDbEntity
  8
0
  6
Continuous
 62
     0
370
    -2
100
AcDbLine
 10
149.6251791972999
 20
78.3539695254
 30
0.0
 11
149.6251791972999
 21
91.44238989389998
 31
0.0
  0
LINE
  5
715
330
230
100
AcDbEntity
  8
0
  6
Continuous
 62
     0
370
    -2
100
AcDbLine
 10
147.7501791972999
 20
91.2623898939
 30
0.0
 11
137.0251791972999
 21
91.2623898939
 31
0.0
  0
LINE
  5
716
330
230
100
AcDbEntity
  8
0
  6
Continuous
 62
     0
370
    -2
100
AcDbLine
 10
135.1501791972999
 20
91.2623898939
 30
0.0
 11
130.5745971608333
 21
91.2623898939
 31
0.0
  0
INSERT
  5
717
330
230
100
AcDbEntity
  8
0
  6
Continuous
 62
     0
370
    -2
100
AcDbBlockReference
  2
_CLOSED
 10
149.6251791972999
 20
91.2623898939
 30
0.0
 41
1.875
 42
1.875
 43
1.875
  0
INSERT
  5
718
330
230
100
AcDbEntity
  8
0
  6
Continuous
 62
     0
370
    -2
100
AcDbBlockReference
  2
_CLOSED
 10
135.1501791972999
 20
91.2623898939
 30
0.0
 41
1.875
 42
1.875
 43
1.875
 50
180.0
  0
MTEXT
  5
719
330
230
100
AcDbEntity
  8
0
  6
Continuous
 62
     0
100
AcDbMText
 10
125.6162638275
 20
91.2623898939
 30
0.0
 40
1.5625
 41
0.0
 71
     5
 72
     1
  1
\A1;14.48\P [367.7]
 73
     1
 44
1.0
  0
POINT
  5
71A
330
230
100
AcDbEntity
  8
Defpoints
  6
Continuous
 62
     0
100
AcDbPoint
 10
135.1501791972999
 20
89.9914695254
 30
0.0
  0
POINT
  5
71B
330
230
100
AcDbEntity
  8
Defpoints
  6
Continuous
 62
     0
100
AcDbPoint
 10
149.6251791972999
 20
78.2914695254
 30
0.0
  0
POINT
  5
71C
330
230
100
AcDbEntity
  8
Defpoints
  6
Continuous
 62
     0
100
AcDbPoint
 10
149.6251791972999
 20
91.2623898939
 30
0.0
  0
ENDBLK
  5
2B3
330
230
100
AcDbEntity
  8
0
  6
ByBlock
 62
     0
100
AcDbBlockEnd
  0
BLOCK
  5
2B4
330
231
100
AcDbEntity
  8
0
  6
Continuous
 62
     7
100
AcDbBlockBegin
  2
*D7
 70
     1
 10
0.0
 20
0.0
 30
0.0
  3
*D7
  1

  0
LINE
  5
709
330
231
100
AcDbEntity
  8
0
  6
Continuous
 62
     0
370
    -2
100
AcDbLine
 10
149.6251791972999
 20
78.3539695254
 30
0.0
 11
149.6251791972999
 21
79.80990354870001
 31
0.0
  0
LINE
  5
70A
330
231
100
AcDbEntity
  8
0
  6
Continuous
 62
     0
370
    -2
100
AcDbLine
 10
154.6751791973
 20
78.3539695254
 30
0.0
 11
154.6751791973
 21
79.80990354870001
 31
0.0
  0
LINE
  5
70B
330
231
100
AcDbEntity
  8
0
  6
Continuous
 62
     0
370
    -2
100
AcDbLine
 10
156.5501791973
 20
79.6299035487
 30
0.0
 11
158.4251791972999
 21
79.6299035487
 31
0.0
  0
LINE
  5
70C
330
231
100
AcDbEntity
  8
0
  6
Continuous
 62
     0
370
    -2
100
AcDbLine
 10
147.7501791972999
 20
79.6299035487
 30
0.0
 11
145.8751791972999
 21
79.6299035487
 31
0.0
  0
INSERT
  5
70D
330
231
100
AcDbEntity
  8
0
  6
Continuous
 62
     0
370
    -2
100
AcDbBlockReference
  2
_CLOSED
 10
154.6751791973
 20
79.6299035487
 30
0.0
 41
1.875
 42
1.875
 43
1.875
 50
180.0
  0
INSERT
  5
70E
330
231
100
AcDbEntity
  8
0
  6
Continuous
 62
     0
370
    -2
100
AcDbBlockReference
  2
_CLOSED
 10
149.6251791972999
 20
79.6299035487
 30
0.0
 41
1.875
 42
1.875
 43
1.875
  0
MTEXT
  5
70F
330
231
100
AcDbEntity
  8
0
  6
Continuous
 62
     0
100
AcDbMText
 10
141.1251791972999
 20
79.6299035487
 30
0.0
 40
1.5625
 41
0.0
 71
     5
 72
     1
  1
\A1;5.05\P [128.3]
 73
     1
 44
1.0
  0
POINT
  5
710
330
231
100
AcDbEntity
  8
Defpoints
  6
Continuous
 62
     0
100
AcDbPoint
 10
149.6251791972999
 20
78.2914695254
 30
0.0
  0
POINT
  5
711
330
231
100
AcDbEntity
  8
Defpoints
  6
Continuous
 62
     0
100
AcDbPoint
 10
154.6751791973
 20
78.2914695254
 30
0.0
  0
POINT
  5
712
330
231
100
AcDbEntity
  8
Defpoints
  6
Continuous
 62
     0
100
AcDbPoint
 10
154.6751791973
 20
79.6299035487
 30
0.0
  0
ENDBLK
  5
2C0
330
231
100
AcDbEntity
  8
0
  6
ByBlock
 62
     0
100
AcDbBlockEnd
  0
BLOCK
  5
2C1
330
232
100
AcDbEntity
  8
0
  6
Continuous
 62
     7
100
AcDbBlockBegin
  2
*D8
 70
     1
 10
0.0
 20
0.0
 30
0.0
  3
*D8
  1

  0
LINE
  5
6FE
330
232
100
AcDbEntity
  8
0
  6
Continuous
 62
     0
370
    -2
100
AcDbLine
 10
155.1126791973
 20
77.9164695254
 30
0.0
 11
166.2918020570666
 21
77.91646952539998
 31
0.0
  0
LINE
  5
6FF
330
232
100
AcDbEntity
  8
0
  6
Continuous
 62
     0
370
    -2
100
AcDbLine
 10
155.1126791973
 20
70.81646952539999
 30
0.0
 11
166.2918020570666
 21
70.81646952539998
 31
0.0
  0
LINE
  5
700
330
232
100
AcDbEntity
  8
0
  6
Continuous
 62
     0
370
    -2
100
AcDbLine
 10
166.1118020570666
 20
72.69146952539998
 30
0.0
 11
166.1118020570666
 21
76.04146952539998
 31
0.0
  0
LINE
  5
701
330
232
100
AcDbEntity
  8
0
  6
Continuous
 62
     0
370
    -2
100
AcDbLine
 10
166.1118020570666
 20
77.91646952539998
 30
0.0
 11
166.1118020570666
 21
79.79146952539998
 31
0.0
  0
LINE
  5
702
330
232
100
AcDbEntity
  8
0
  6
Continuous
 62
     0
370
    -2
100
AcDbLine
 10
166.1118020570666
 20
79.79146952539998
 30
0.0
 11
167.9868020570666
 21
79.79146952539998
 31
0.0
  0
INSERT
  5
703
330
232
100
AcDbEntity
  8
0
  6
Continuous
 62
     0
370
    -2
100
AcDbBlockReference
  2
_CLOSED
 10
166.1118020570666
 20
70.81646952539998
 30
0.0
 41
1.875
 42
1.875
 43
1.875
 50
270.0
  0
INSERT
  5
704
330
232
100
AcDbEntity
  8
0
  6
Continuous
 62
     0
370
    -2
100
AcDbBlockReference
  2
_CLOSED
 10
166.1118020570666
 20
77.91646952539998
 30
0.0
 41
1.875
 42
1.875
 43
1.875
 50
90.0
  0
MTEXT
  5
705
330
232
100
AcDbEntity
  8
0
  6
Continuous
 62
     0
100
AcDbMText
 10
172.6326353903999
 20
79.79146952540002
 30
0.0
 40
1.5625
 41
0.0
 71
     5
 72
     1
  1
\A1;7.10\P [180.3]
 73
     1
 44
1.0
  0
POINT
  5
706
330
232
100
AcDbEntity
  8
Defpoints
  6
Continuous
 62
     0
100
AcDbPoint
 10
155.0501791972999
 20
77.9164695254
 30
0.0
  0
POINT
  5
707
330
232
100
AcDbEntity
  8
Defpoints
  6
Continuous
 62
     0
100
AcDbPoint
 10
155.0501791972999
 20
70.81646952539999
 30
0.0
  0
POINT
  5
708
330
232
100
AcDbEntity
  8
Defpoints
  6
Continuous
 62
     0
100
AcDbPoint
 10
166.1118020570666
 20
70.81646952539998
 30
0.0
  0
ENDBLK
  5
2CE
330
232
100
AcDbEntity
  8
0
  6
ByBlock
 62
     0
100
AcDbBlockEnd
  0
ENDSEC
  0
SECTION
  2
ENTITIES
  0
LINE
  5
2D5
330
1F
100
AcDbEntity
  8
DRW_FORMAT
  6
PHANTOM
100
AcDbLine
 10
0.0
 20
0.0
 30
0.0
 11
220.0
 21
0.0
 31
0.0
  0
LINE
  5
2D6
330
1F
100
AcDbEntity
  8
DRW_FORMAT
  6
PHANTOM
100
AcDbLine
 10
0.0
 20
0.0
 30
0.0
 11
0.0540833867
 21
170.1518019654999
 31
0.0
  0
LINE
  5
2D7
330
1F
100
AcDbEntity
  8
DRW_FORMAT
  6
Continuous
100
AcDbLine
 10
3.289377504399999
 20
166.9165078478
 30
0.0
 11
3.2352941176
 21
3.2352941176
 31
0.0
  0
LINE
  5
2D8
330
1F
100
AcDbEntity
  8
DRW_FORMAT
  6
Continuous
100
AcDbLine
 10
213.5834951515
 20
166.9165078478
 30
0.0
 11
213.5294117647
 21
3.2352941176
 31
0.0
  0
LINE
  5
2D9
330
1F
100
AcDbEntity
  8
DRW_FORMAT
  6
Continuous
100
AcDbLine
 10
213.5834951515
 20
166.9165078478
 30
0.0
 11
3.289377504399999
 21
166.9165078478
 31
0.0
  0
LINE
  5
2DA
330
1F
100
AcDbEntity
  8
DRW_FORMAT
  6
Continuous
100
AcDbLine
 10
3.2352941176
 20
3.2352941176
 30
0.0
 11
213.5294117647
 21
3.2352941176
 31
0.0
  0
LINE
  5
2DB
330
1F
100
AcDbEntity
  8
DRW_FORMAT
  6
Continuous
100
AcDbLine
 10
29.5761422103
 20
166.9165078478
 30
0.0
 11
29.5761422103
 21
170.1518019654999
 31
0.0
  0
LINE
  5
2DC
330
1F
100
AcDbEntity
  8
DRW_FORMAT
  6
Continuous
100
AcDbLine
 10
55.8629069162
 20
166.9165078478
 30
0.0
 11
55.8629069162
 21
170.1518019654999
 31
0.0
  0
LINE
  5
2DD
330
1F
100
AcDbEntity
  8
DRW_FORMAT
  6
Continuous
100
AcDbLine
 10
82.149671622
 20
166.9165078478
 30
0.0
 11
82.149671622
 21
170.1518019654999
 31
0.0
  0
LINE
  5
2DE
330
1F
100
AcDbEntity
  8
DRW_FORMAT
  6
Continuous
100
AcDbLine
 10
134.7232010337999
 20
166.9165078478
 30
0.0
 11
134.7232010337999
 21
170.1518019654999
 31
0.0
  0
LINE
  5
2DF
330
1F
100
AcDbEntity
  8
DRW_FORMAT
  6
Continuous
100
AcDbLine
 10
161.0099657396999
 20
166.9165078478
 30
0.0
 11
161.0099657396999
 21
170.1518019654999
 31
0.0
  0
LINE
  5
2E0
330
1F
100
AcDbEntity
  8
DRW_FORMAT
  6
Continuous
100
AcDbLine
 10
187.2967304456
 20
166.9165078478
 30
0.0
 11
187.2967304456
 21
170.1518019654999
 31
0.0
  0
LINE
  5
2E1
330
1F
100
AcDbEntity
  8
DRW_FORMAT
  6
Continuous
100
AcDbLine
 10
29.5220588235
 20
3.2352941176
 30
0.0
 11
29.5220588235
 21
0.0
 31
0.0
  0
LINE
  5
2E2
330
1F
100
AcDbEntity
  8
DRW_FORMAT
  6
Continuous
100
AcDbLine
 10
55.80882352939999
 20
3.2352941176
 30
0.0
 11
55.80882352939999
 21
0.0
 31
0.0
  0
LINE
  5
2E3
330
1F
100
AcDbEntity
  8
DRW_FORMAT
  6
Continuous
100
AcDbLine
 10
82.0955882353
 20
3.2352941176
 30
0.0
 11
82.0955882353
 21
0.0
 31
0.0
  0
LINE
  5
2E4
330
1F
100
AcDbEntity
  8
DRW_FORMAT
  6
Continuous
100
AcDbLine
 10
134.6691176470999
 20
3.2352941176
 30
0.0
 11
134.6691176470999
 21
0.0
 31
0.0
  0
LINE
  5
2E5
330
1F
100
AcDbEntity
  8
DRW_FORMAT
  6
Continuous
100
AcDbLine
 10
160.9558823529
 20
3.2352941176
 30
0.0
 11
160.9558823529
 21
0.0
 31
0.0
  0
LINE
  5
2E6
330
1F
100
AcDbEntity
  8
DRW_FORMAT
  6
Continuous
100
AcDbLine
 10
187.2426470587999
 20
3.2352941176
 30
0.0
 11
187.2426470587999
 21
0.0
 31
0.0
  0
LINE
  5
2E7
330
1F
100
AcDbEntity
  8
DRW_FORMAT
  6
Continuous
100
AcDbLine
 10
213.7927543734999
 20
126.0389057862
 30
0.0
 11
217.0280484911
 21
126.0389057862
 31
0.0
  0
LINE
  5
2E8
330
1F
100
AcDbEntity
  8
DRW_FORMAT
  6
Continuous
100
AcDbLine
 10
3.247553573099999
 20
125.9845671745999
 30
0.0
 11
0.0122594555
 21
125.9845671745999
 31
0.0
  0
LINE
  5
2E9
330
1F
100
AcDbEntity
  8
DRW_FORMAT
  6
Continuous
100
AcDbLine
 10
3.2352941176
 20
44.11741207939999
 30
0.0
 11
0.0
 21
44.11741207939999
 31
0.0
  0
LINE
  5
2EA
330
1F
100
AcDbEntity
  8
DRW_FORMAT
  6
Continuous
100
AcDbLine
 10
108.3823529412
 20
3.2352941176
 30
0.0
 11
108.3823529412
 21
0.0
 31
0.0
  0
LINE
  5
2EB
330
1F
100
AcDbEntity
  8
DRW_FORMAT
  6
Continuous
100
AcDbLine
 10
108.3823529412
 20
3.2352941176
 30
0.0
 11
107.2910565986
 21
1.6982882018
 31
0.0
  0
LINE
  5
2EC
330
1F
100
AcDbEntity
  8
DRW_FORMAT
  6
Continuous
100
AcDbLine
 10
108.3823529412
 20
3.2352941176
 30
0.0
 11
109.4736492837
 21
1.6982882018
 31
0.0
  0
LINE
  5
2ED
330
1F
100
AcDbEntity
  8
DRW_FORMAT
  6
Continuous
100
AcDbLine
 10
107.2910565986
 20
1.6982882018
 30
0.0
 11
109.4736492837
 21
1.6982882018
 31
0.0
  0
LINE
  5
2EE
330
1F
100
AcDbEntity
  8
DRW_FORMAT
  6
Continuous
100
AcDbLine
 10
213.6161480752999
 20
85.0621707144
 30
0.0
 11
216.8514421929999
 21
85.0621707144
 31
0.0
  0
LINE
  5
2EF
330
1F
100
AcDbEntity
  8
DRW_FORMAT
  6
Continuous
100
AcDbLine
 10
213.6161480752999
 20
85.0621707144
 30
0.0
 11
215.1531539905
 21
83.97087437180001
 31
0.0
  0
LINE
  5
2F0
330
1F
100
AcDbEntity
  8
DRW_FORMAT
  6
Continuous
100
AcDbLine
 10
213.6161480752999
 20
85.0621707144
 30
0.0
 11
215.1531539905
 21
86.15346705749999
 31
0.0
  0
LINE
  5
2F1
330
1F
100
AcDbEntity
  8
DRW_FORMAT
  6
Continuous
100
AcDbLine
 10
215.1531539905
 20
83.97087437180001
 30
0.0
 11
215.1531539905
 21
86.15346705749999
 31
0.0
  0
LINE
  5
2F2
330
1F
100
AcDbEntity
  8
DRW_FORMAT
  6
Continuous
100
AcDbLine
 10
3.177311485699999
 20
85.0633109363
 30
0.0
 11
-0.0579826319
 21
85.0633109363
 31
0.0
  0
LINE
  5
2F3
330
1F
100
AcDbEntity
  8
DRW_FORMAT
  6
Continuous
100
AcDbLine
 10
3.177311485699999
 20
85.0633109363
 30
0.0
 11
1.6403055699
 21
83.97201459379999
 31
0.0
  0
LINE
  5
2F4
330
1F
100
AcDbEntity
  8
DRW_FORMAT
  6
Continuous
100
AcDbLine
 10
3.177311485699999
 20
85.0633109363
 30
0.0
 11
1.6403055699
 21
86.15460727879998
 31
0.0
  0
LINE
  5
2F5
330
1F
100
AcDbEntity
  8
DRW_FORMAT
  6
Continuous
100
AcDbLine
 10
1.6403055699
 20
83.97201459379999
 30
0.0
 11
1.6403055699
 21
86.15460727879998
 31
0.0
  0
LINE
  5
2F6
330
1F
100
AcDbEntity
  8
DRW_FORMAT
  6
Continuous
100
AcDbLine
 10
108.4364363279
 20
166.9165078478
 30
0.0
 11
108.4364363279
 21
170.1518019654999
 31
0.0
  0
LINE
  5
2F7
330
1F
100
AcDbEntity
  8
DRW_FORMAT
  6
Continuous
100
AcDbLine
 10
108.4364363279
 20
166.9165078478
 30
0.0
 11
107.3451399854
 21
168.4535137636
 31
0.0
  0
LINE
  5
2F8
330
1F
100
AcDbEntity
  8
DRW_FORMAT
  6
Continuous
100
AcDbLine
 10
108.4364363279
 20
166.9165078478
 30
0.0
 11
109.5277326705
 21
168.4535137636
 31
0.0
  0
LINE
  5
2F9
330
1F
100
AcDbEntity
  8
DRW_FORMAT
  6
Continuous
100
AcDbLine
 10
107.3451399854
 20
168.4535137636
 30
0.0
 11
109.5277326705
 21
168.4535137636
 31
0.0
  0
LINE
  5
2FA
330
1F
100
AcDbEntity
  8
DRW_FORMAT
  6
Continuous
100
AcDbLine
 10
23.10555397499999
 20
166.9165078478
 30
0.0
 11
23.10555397499999
 21
163.6812137301999
 31
0.0
  0
LINE
  5
2FB
330
1F
100
AcDbEntity
  8
DRW_FORMAT
  6
Continuous
100
AcDbLine
 10
23.10555397499999
 20
163.6812137301999
 30
0.0
 11
3.289377504399999
 21
163.6812137301999
 31
0.0
  0
LINE
  5
2FC
330
1F
100
AcDbEntity
  8
DRW_FORMAT
  6
PHANTOM
100
AcDbLine
 10
220.0
 20
0.0
 30
0.0
 11
220.0
 21
170.0701592915
 31
0.0
  0
LINE
  5
2FD
330
1F
100
AcDbEntity
  8
DRW_FORMAT
  6
PHANTOM
100
AcDbLine
 10
0.054122882
 20
170.0701592915
 30
0.0
 11
220.0
 21
170.0701592915
 31
0.0
  0
TEXT
  5
2FE
330
1F
100
AcDbEntity
  8
DRW_FORMAT
  6
Continuous
100
AcDbText
 10
15.9364618775
 20
1.350196188
 30
0.0
 40
1.0110294118
  1
8
 41
0.8
100
AcDbText
  0
TEXT
  5
2FF
330
1F
100
AcDbEntity
  8
DRW_FORMAT
  6
Continuous
100
AcDbText
 10
42.2232265834
 20
1.350196188
 30
0.0
 40
1.0110294118
  1
7
 41
0.8
100
AcDbText
  0
TEXT
  5
300
330
1F
100
AcDbEntity
  8
DRW_FORMAT
  6
Continuous
100
AcDbText
 10
68.5099912892
 20
1.350196188
 30
0.0
 40
1.0110294118
  1
6
 41
0.8
100
AcDbText
  0
TEXT
  5
301
330
1F
100
AcDbEntity
  8
DRW_FORMAT
  6
Continuous
100
AcDbText
 10
94.79675599510001
 20
1.350196188
 30
0.0
 40
1.0110294118
  1
5
 41
0.8
100
AcDbText
  0
TEXT
  5
302
330
1F
100
AcDbEntity
  8
DRW_FORMAT
  6
Continuous
100
AcDbText
 10
121.0835207009999
 20
1.350196188
 30
0.0
 40
1.0110294118
  1
4
 41
0.8
100
AcDbText
  0
TEXT
  5
303
330
1F
100
AcDbEntity
  8
DRW_FORMAT
  6
Continuous
100
AcDbText
 10
147.3702854068999
 20
1.350196188
 30
0.0
 40
1.0110294118
  1
3
 41
0.8
100
AcDbText
  0
TEXT
  5
304
330
1F
100
AcDbEntity
  8
DRW_FORMAT
  6
Continuous
100
AcDbText
 10
173.6570501127999
 20
1.350196188
 30
0.0
 40
1.0110294118
  1
2
 41
0.8
100
AcDbText
  0
TEXT
  5
305
330
1F
100
AcDbEntity
  8
DRW_FORMAT
  6
Continuous
100
AcDbText
 10
199.9438148186
 20
1.350196188
 30
0.0
 40
1.0110294118
  1
1
 41
0.8
100
AcDbText
  0
TEXT
  5
306
330
1F
100
AcDbEntity
  8
DRW_FORMAT
  6
Continuous
100
AcDbText
 10
16.3938655841
 20
167.9135638443
 30
0.0
 40
1.01103
  1
8
 41
0.8
100
AcDbText
  0
TEXT
  5
307
330
1F
100
AcDbEntity
  8
DRW_FORMAT
  6
Continuous
100
AcDbText
 10
42.77369731239999
 20
167.9511770335
 30
0.0
 40
1.0110294118
  1
7
 41
0.8
100
AcDbText
  0
TEXT
  5
308
330
1F
100
AcDbEntity
  8
DRW_FORMAT
  6
Continuous
100
AcDbText
 10
69.0755187763
 20
167.8530503021
 30
0.0
 40
1.0110294118
  1
6
 41
0.8
100
AcDbText
  0
TEXT
  5
309
330
1F
100
AcDbEntity
  8
DRW_FORMAT
  6
Continuous
100
AcDbText
 10
95.41400723549999
 20
167.9601330962999
 30
0.0
 40
1.0110294118
  1
5
 41
0.8
100
AcDbText
  0
TEXT
  5
30A
330
1F
100
AcDbEntity
  8
DRW_FORMAT
  6
Continuous
100
AcDbText
 10
121.7052499728
 20
167.8917299211
 30
0.0
 40
1.0110294118
  1
4
 41
0.8
100
AcDbText
  0
TEXT
  5
30B
330
1F
100
AcDbEntity
  8
DRW_FORMAT
  6
Continuous
100
AcDbText
 10
147.7631822921999
 20
167.8827738582999
 30
0.0
 40
1.0110294118
  1
3
 41
0.8
100
AcDbText
  0
TEXT
  5
30C
330
1F
100
AcDbEntity
  8
DRW_FORMAT
  6
Continuous
100
AcDbText
 10
174.0406009752999
 20
167.8917299211
 30
0.0
 40
1.0110294118
  1
2
 41
0.8
100
AcDbText
  0
TEXT
  5
30D
330
1F
100
AcDbEntity
  8
DRW_FORMAT
  6
Continuous
100
AcDbText
 10
200.4584612963
 20
167.9898563584
 30
0.0
 40
1.01103
  1
1
 41
0.8
100
AcDbText
  0
TEXT
  5
30E
330
1F
100
AcDbEntity
  8
DRW_FORMAT
  6
Continuous
100
AcDbText
 10
1.1431623123
 20
23.1807160753
 30
0.0
 40
1.0110294118
  1
A
 41
0.8
100
AcDbText
  0
TEXT
  5
30F
330
1F
100
AcDbEntity
  8
DRW_FORMAT
  6
Continuous
100
AcDbText
 10
1.282595530799999
 20
64.0116154347
 30
0.0
 40
1.0110294118
  1
B
 41
0.8
100
AcDbText
  0
TEXT
  5
310
330
1F
100
AcDbEntity
  8
DRW_FORMAT
  6
Continuous
100
AcDbText
 10
1.3374218861
 20
105.3108340692999
 30
0.0
 40
1.0110294118
  1
C
 41
0.8
100
AcDbText
  0
TEXT
  5
311
330
1F
100
AcDbEntity
  8
DRW_FORMAT
  6
Continuous
100
AcDbText
 10
1.171988382799999
 20
146.0410786315999
 30
0.0
 40
1.0110294118
  1
D
 41
0.8
100
AcDbText
  0
TEXT
  5
312
330
1F
100
AcDbEntity
  8
DRW_FORMAT
  6
Continuous
100
AcDbText
 10
214.8120072954999
 20
19.8209643772
 30
0.0
 40
1.0110294118
  1
A
 41
0.8
100
AcDbText
  0
TEXT
  5
313
330
1F
100
AcDbEntity
  8
DRW_FORMAT
  6
Continuous
100
AcDbText
 10
215.8653777306
 20
104.8794104179999
 30
0.0
 40
1.0110294118
  1
C
 41
0.8
100
AcDbText
  0
TEXT
  5
314
330
1F
100
AcDbEntity
  8
DRW_FORMAT
  6
Continuous
100
AcDbText
 10
216.0529382936
 20
141.4635319539999
 30
0.0
 40
1.0110294118
  1
D
 41
0.8
100
AcDbText
  0
TEXT
  5
315
330
1F
100
AcDbEntity
  8
DRW_FORMAT
  6
Continuous
100
AcDbText
 10
165.7676123884999
 20
2.3776039896
 30
0.0
 40
0.5823529412
  1
MODEL INFO
 41
0.8
100
AcDbText
  0
TEXT
  5
316
330
1F
100
AcDbEntity
  8
DRW_FORMAT
  6
Continuous
100
AcDbText
 10
188.1846484572
 20
2.3414642292
 30
0.0
 40
0.5823529412
  1
DRAWING INFO
 41
0.8
100
AcDbText
  0
MTEXT
  5
317
330
1F
100
AcDbEntity
  8
DRW_FORMAT
  6
Continuous
100
AcDbMText
 10
3.904206741698621
 20
166.7815202901969
 30
0.0
 40
0.4852941176
 41
19.0235294118
 71
     1
 72
     1
  1
THIS DOCUMENT CONTAINS PROPRIETARY INFORMATION\PWHICH IS THE PROPERTY OF QSC AUDIO PRODUCTS, THAT\PMAY NOT BE DISCLOSED, REPRODUCED OR USED WITHOUT\PEXPRESS WRITTEN CONSENT FROM QSC AUDIO PRODUCTS.
 73
     1
 44
1.0
  0
INSERT
  5
318
330
1F
100
AcDbEntity
  8
DRW_FORMAT
  6
Continuous
100
AcDbBlockReference
  2
RD010411_BL0
 10
173.0489800014
 20
25.2026071756
 30
0.0
  0
LINE
  5
319
330
1F
100
AcDbEntity
  8
0
  6
Continuous
100
AcDbLine
 10
116.1617231773999
 20
28.7614865069
 30
0.0
 11
138.4792412492999
 21
15.76398856059999
 31
0.0
  0
LINE
  5
31A
330
1F
100
AcDbEntity
  8
0
  6
Continuous
100
AcDbLine
 10
138.4511688995999
 20
28.7614865069
 30
0.0
 11
116.1336508276
 21
15.7359162108
 31
0.0
  0
LINE
  5
31B
330
1F
100
AcDbEntity
  8
0
  6
Continuous
100
AcDbLine
 10
138.6198736895999
 20
13.1470418645
 30
0.0
 11
144.2214742047999
 21
12.1259167706
 31
0.0
  0
LINE
  5
31C
330
1F
100
AcDbEntity
  8
0
  6
Continuous
100
AcDbLine
 10
144.2214742047999
 20
13.13731686359999
 30
0.0
 11
138.6101486887
 21
12.1259167706
 31
0.0
  0
LINE
  5
31D
330
1F
100
AcDbEntity
  8
0
  6
Continuous
100
AcDbLine
 10
73.44295267689999
 20
76.29646952539999
 30
0.0
 11
73.4689526769
 21
76.29646952539999
 31
0.0
  0
LINE
  5
31E
330
1F
100
AcDbEntity
  8
0
  6
Continuous
100
AcDbLine
 10
73.4689526769
 20
76.29646952539999
 30
0.0
 11
73.4689526769
 21
75.59646952539999
 31
0.0
  0
LINE
  5
31F
330
1F
100
AcDbEntity
  8
0
  6
Continuous
100
AcDbLine
 10
73.44295267689999
 20
75.59646952539999
 30
0.0
 11
73.4689526769
 21
75.59646952539999
 31
0.0
  0
ARC
  5
320
330
1F
100
AcDbEntity
  8
0
  6
Continuous
100
AcDbCircle
 10
37.6289526769
 20
74.36646952540001
 30
0.0
 40
8.339999999999999
100
AcDbArc
 50
180.0
 51
360.0
  0
ARC
  5
321
330
1F
100
AcDbEntity
  8
0
  6
Continuous
100
AcDbCircle
 10
37.6289526769
 20
74.36646952540001
 30
0.0
 40
9.099999999999999
100
AcDbArc
 50
0.0
 51
180.0
  0
ARC
  5
322
330
1F
100
AcDbEntity
  8
0
  6
Continuous
100
AcDbCircle
 10
37.6289526769
 20
74.36646952540001
 30
0.0
 40
9.099999999999999
100
AcDbArc
 50
180.0
 51
360.0
  0
ARC
  5
323
330
1F
100
AcDbEntity
  8
0
  6
Continuous
100
AcDbCircle
 10
37.6289526769
 20
74.36646952540001
 30
0.0
 40
8.939999999999999
100
AcDbArc
 50
0.0
 51
180.0
  0
ARC
  5
324
330
1F
100
AcDbEntity
  8
0
  6
Continuous
100
AcDbCircle
 10
37.6289526769
 20
74.36646952540001
 30
0.0
 40
8.939999999999999
100
AcDbArc
 50
180.0
 51
360.0
  0
ARC
  5
325
330
1F
100
AcDbEntity
  8
0
  6
Continuous
100
AcDbCircle
 10
37.6289526769
 20
74.36646952540001
 30
0.0
 40
8.339999999999999
100
AcDbArc
 50
0.0
 51
180.0
  0
ARC
  5
326
330
1F
100
AcDbEntity
  8
0
  6
Continuous
100
AcDbCircle
 10
37.6289526769
 20
74.36646952540001
 30
0.0
 40
7.303899999999999
100
AcDbArc
 50
180.0
 51
360.0
  0
ARC
  5
327
330
1F
100
AcDbEntity
  8
0
  6
Continuous
100
AcDbCircle
 10
37.6289526769
 20
74.36646952540001
 30
0.0
 40
2.924999999999999
100
AcDbArc
 50
180.0
 51
360.0
  0
ARC
  5
328
330
1F
100
AcDbEntity
  8
0
  6
Continuous
100
AcDbCircle
 10
37.6289526769
 20
74.36646952540001
 30
0.0
 40
2.924999999999999
100
AcDbArc
 50
0.0
 51
180.0
  0
ARC
  5
329
330
1F
100
AcDbEntity
  8
0
  6
Continuous
100
AcDbCircle
 10
37.6289526769
 20
74.36646952540001
 30
0.0
 40
7.303899999999999
100
AcDbArc
 50
0.0
 51
180.0
  0
ARC
  5
32A
330
1F
100
AcDbEntity
  8
0
  6
Continuous
100
AcDbCircle
 10
61.2489526769
 20
74.36646952540001
 30
0.0
 40
8.339999999999999
100
AcDbArc
 50
180.0
 51
360.0
  0
ARC
  5
32B
330
1F
100
AcDbEntity
  8
0
  6
Continuous
100
AcDbCircle
 10
61.2489526769
 20
74.36646952540001
 30
0.0
 40
9.099999999999999
100
AcDbArc
 50
0.0
 51
180.0
  0
ARC
  5
32C
330
1F
100
AcDbEntity
  8
0
  6
Continuous
100
AcDbCircle
 10
61.2489526769
 20
74.36646952540001
 30
0.0
 40
9.099999999999999
100
AcDbArc
 50
180.0
 51
360.0
  0
ARC
  5
32D
330
1F
100
AcDbEntity
  8
0
  6
Continuous
100
AcDbCircle
 10
61.2489526769
 20
74.36646952540001
 30
0.0
 40
8.939999999999999
100
AcDbArc
 50
0.0
 51
180.0
  0
ARC
  5
32E
330
1F
100
AcDbEntity
  8
0
  6
Continuous
100
AcDbCircle
 10
61.2489526769
 20
74.36646952540001
 30
0.0
 40
8.939999999999999
100
AcDbArc
 50
180.0
 51
360.0
  0
ARC
  5
32F
330
1F
100
AcDbEntity
  8
0
  6
Continuous
100
AcDbCircle
 10
61.2489526769
 20
74.36646952540001
 30
0.0
 40
8.339999999999999
100
AcDbArc
 50
0.0
 51
180.0
  0
ARC
  5
330
330
1F
100
AcDbEntity
  8
0
  6
Continuous
100
AcDbCircle
 10
61.2489526769
 20
74.36646952540001
 30
0.0
 40
7.303899999999999
100
AcDbArc
 50
180.0
 51
360.0
  0
ARC
  5
331
330
1F
100
AcDbEntity
  8
0
  6
Continuous
100
AcDbCircle
 10
61.2489526769
 20
74.36646952540001
 30
0.0
 40
2.924999999999999
100
AcDbArc
 50
180.0
 51
360.0
  0
ARC
  5
332
330
1F
100
AcDbEntity
  8
0
  6
Continuous
100
AcDbCircle
 10
61.2489526769
 20
74.36646952540001
 30
0.0
 40
2.924999999999999
100
AcDbArc
 50
0.0
 51
180.0
  0
ARC
  5
333
330
1F
100
AcDbEntity
  8
0
  6
Continuous
100
AcDbCircle
 10
61.2489526769
 20
74.36646952540001
 30
0.0
 40
7.303899999999999
100
AcDbArc
 50
0.0
 51
180.0
  0
LINE
  5
334
330
1F
100
AcDbEntity
  8
0
  6
Continuous
100
AcDbLine
 10
25.4389526769
 20
89.3664695254
 30
0.0
 11
25.4389526769
 21
59.3664695254
 31
0.0
  0
LINE
  5
335
330
1F
100
AcDbEntity
  8
0
  6
Continuous
100
AcDbLine
 10
73.4389526769
 20
89.3664695254
 30
0.0
 11
25.4389526769
 21
89.3664695254
 31
0.0
  0
LINE
  5
336
330
1F
100
AcDbEntity
  8
0
  6
Continuous
100
AcDbLine
 10
73.4389526769
 20
59.3664695254
 30
0.0
 11
73.4389526769
 21
89.3664695254
 31
0.0
  0
LINE
  5
337
330
1F
100
AcDbEntity
  8
0
  6
Continuous
100
AcDbLine
 10
25.4389526769
 20
59.3664695254
 30
0.0
 11
73.4389526769
 21
59.3664695254
 31
0.0
  0
LINE
  5
338
330
1F
100
AcDbEntity
  8
0
  6
Continuous
100
AcDbLine
 10
26.1889526769
 20
88.61646952540001
 30
0.0
 11
26.1889526769
 21
60.1164695254
 31
0.0
  0
LINE
  5
339
330
1F
100
AcDbEntity
  8
0
  6
Continuous
100
AcDbLine
 10
26.1889526769
 20
60.1164695254
 30
0.0
 11
72.6889526769
 21
60.1164695254
 31
0.0
  0
LINE
  5
33A
330
1F
100
AcDbEntity
  8
0
  6
Continuous
100
AcDbLine
 10
72.6889526769
 20
60.1164695254
 30
0.0
 11
72.6889526769
 21
88.61646952540001
 31
0.0
  0
LINE
  5
33B
330
1F
100
AcDbEntity
  8
0
  6
Continuous
100
AcDbLine
 10
72.6889526769
 20
88.61646952540001
 30
0.0
 11
26.1889526769
 21
88.61646952540001
 31
0.0
  0
LINE
  5
33C
330
1F
100
AcDbEntity
  8
0
  6
Continuous
100
AcDbLine
 10
49.81395267689999
 20
88.61646952540001
 30
0.0
 11
49.81395267689999
 21
81.99146952540001
 31
0.0
  0
LINE
  5
33D
330
1F
100
AcDbEntity
  8
0
  6
Continuous
100
AcDbLine
 10
49.06395267689999
 20
88.61646952540001
 30
0.0
 11
49.06395267689999
 21
81.99146952540001
 31
0.0
  0
LINE
  5
33E
330
1F
100
AcDbEntity
  8
0
  6
Continuous
100
AcDbLine
 10
65.6889526769
 20
60.1164695254
 30
0.0
 11
72.6889526769
 21
67.1164695254
 31
0.0
  0
LINE
  5
33F
330
1F
100
AcDbEntity
  8
0
  6
Continuous
100
AcDbLine
 10
49.06395267689999
 20
81.99146952540001
 30
0.0
 11
42.4389526769
 21
88.61646952540001
 31
0.0
  0
LINE
  5
340
330
1F
100
AcDbEntity
  8
0
  6
Continuous
100
AcDbLine
 10
49.81395267689999
 20
81.99146952540001
 30
0.0
 11
49.06395267689999
 21
81.99146952540001
 31
0.0
  0
LINE
  5
341
330
1F
100
AcDbEntity
  8
0
  6
Continuous
100
AcDbLine
 10
56.43895267689999
 20
88.61646952540001
 30
0.0
 11
49.81395267689999
 21
81.99146952540001
 31
0.0
  0
LINE
  5
342
330
1F
100
AcDbEntity
  8
0
  6
Continuous
100
AcDbLine
 10
26.1889526769
 20
67.1164695254
 30
0.0
 11
33.1889526769
 21
60.1164695254
 31
0.0
  0
ARC
  5
343
330
1F
100
AcDbEntity
  8
0
  6
Continuous
100
AcDbCircle
 10
154.4601791973
 20
72.7964695254
 30
0.0
 40
0.1395
100
AcDbArc
 50
90.0
 51
270.0
  0
ARC
  5
344
330
1F
100
AcDbEntity
  8
0
  6
Continuous
100
AcDbCircle
 10
154.4601791973
 20
72.7964695254
 30
0.0
 40
0.1395
100
AcDbArc
 50
270.0
 51
90.0
  0
LINE
  5
345
330
1F
100
AcDbEntity
  8
0
  6
Continuous
100
AcDbLine
 10
154.4906013023999
 20
72.76604742039999
 30
0.0
 11
154.4746791973
 21
72.73846952540001
 31
0.0
  0
LINE
  5
346
330
1F
100
AcDbEntity
  8
0
  6
Continuous
100
AcDbLine
 10
154.5181791972999
 20
72.7819695254
 30
0.0
 11
154.4906013023999
 21
72.76604742039999
 31
0.0
  0
LINE
  5
347
330
1F
100
AcDbEntity
  8
0
  6
Continuous
100
AcDbLine
 10
154.5471791972999
 20
72.7819695254
 30
0.0
 11
154.5181791972999
 21
72.7819695254
 31
0.0
  0
LINE
  5
348
330
1F
100
AcDbEntity
  8
0
  6
Continuous
100
AcDbLine
 10
154.5471791972999
 20
72.8109695254
 30
0.0
 11
154.5471791972999
 21
72.7819695254
 31
0.0
  0
LINE
  5
349
330
1F
100
AcDbEntity
  8
0
  6
Continuous
100
AcDbLine
 10
154.5181791972999
 20
72.8109695254
 30
0.0
 11
154.5471791972999
 21
72.8109695254
 31
0.0
  0
LINE
  5
34A
330
1F
100
AcDbEntity
  8
0
  6
Continuous
100
AcDbLine
 10
154.4906013023999
 20
72.8268916305
 30
0.0
 11
154.5181791972999
 21
72.8109695254
 31
0.0
  0
LINE
  5
34B
330
1F
100
AcDbEntity
  8
0
  6
Continuous
100
AcDbLine
 10
154.4746791973
 20
72.8544695254
 30
0.0
 11
154.4906013023999
 21
72.8268916305
 31
0.0
  0
LINE
  5
34C
330
1F
100
AcDbEntity
  8
0
  6
Continuous
100
AcDbLine
 10
154.4746791973
 20
72.8834695254
 30
0.0
 11
154.4746791973
 21
72.8544695254
 31
0.0
  0
LINE
  5
34D
330
1F
100
AcDbEntity
  8
0
  6
Continuous
100
AcDbLine
 10
154.4456791972999
 20
72.8834695254
 30
0.0
 11
154.4746791973
 21
72.8834695254
 31
0.0
  0
LINE
  5
34E
330
1F
100
AcDbEntity
  8
0
  6
Continuous
100
AcDbLine
 10
154.4456791972999
 20
72.8544695254
 30
0.0
 11
154.4456791972999
 21
72.8834695254
 31
0.0
  0
LINE
  5
34F
330
1F
100
AcDbEntity
  8
0
  6
Continuous
100
AcDbLine
 10
154.4297570921999
 20
72.8268916305
 30
0.0
 11
154.4456791972999
 21
72.8544695254
 31
0.0
  0
LINE
  5
350
330
1F
100
AcDbEntity
  8
0
  6
Continuous
100
AcDbLine
 10
154.4021791972999
 20
72.8109695254
 30
0.0
 11
154.4297570921999
 21
72.8268916305
 31
0.0
  0
LINE
  5
351
330
1F
100
AcDbEntity
  8
0
  6
Continuous
100
AcDbLine
 10
154.3731791973
 20
72.8109695254
 30
0.0
 11
154.4021791972999
 21
72.8109695254
 31
0.0
  0
LINE
  5
352
330
1F
100
AcDbEntity
  8
0
  6
Continuous
100
AcDbLine
 10
154.3731791973
 20
72.7819695254
 30
0.0
 11
154.3731791973
 21
72.8109695254
 31
0.0
  0
LINE
  5
353
330
1F
100
AcDbEntity
  8
0
  6
Continuous
100
AcDbLine
 10
154.4021791972999
 20
72.7819695254
 30
0.0
 11
154.3731791973
 21
72.7819695254
 31
0.0
  0
LINE
  5
354
330
1F
100
AcDbEntity
  8
0
  6
Continuous
100
AcDbLine
 10
154.4297570921999
 20
72.76604742039999
 30
0.0
 11
154.4021791972999
 21
72.7819695254
 31
0.0
  0
LINE
  5
355
330
1F
100
AcDbEntity
  8
0
  6
Continuous
100
AcDbLine
 10
154.4456791972999
 20
72.73846952540001
 30
0.0
 11
154.4297570921999
 21
72.76604742039999
 31
0.0
  0
LINE
  5
356
330
1F
100
AcDbEntity
  8
0
  6
Continuous
100
AcDbLine
 10
154.4456791972999
 20
72.7094695254
 30
0.0
 11
154.4456791972999
 21
72.73846952540001
 31
0.0
  0
LINE
  5
357
330
1F
100
AcDbEntity
  8
0
  6
Continuous
100
AcDbLine
 10
154.4746791973
 20
72.7094695254
 30
0.0
 11
154.4456791972999
 21
72.7094695254
 31
0.0
  0
LINE
  5
358
330
1F
100
AcDbEntity
  8
0
  6
Continuous
100
AcDbLine
 10
154.4456791972999
 20
72.73846952540001
 30
0.0
 11
154.4472159986
 21
72.7446167307
 31
0.0
  0
LINE
  5
359
330
1F
100
AcDbEntity
  8
0
  6
Continuous
100
AcDbLine
 10
154.4472159986
 20
72.7446167307
 30
0.0
 11
154.4601791973
 21
72.7964695254
 31
0.0
  0
LINE
  5
35A
330
1F
100
AcDbEntity
  8
0
  6
Continuous
100
AcDbLine
 10
154.4297570921999
 20
72.76604742039999
 30
0.0
 11
154.4601791973
 21
72.7964695254
 31
0.0
  0
LINE
  5
35B
330
1F
100
AcDbEntity
  8
0
  6
Continuous
100
AcDbLine
 10
154.4021791972999
 20
72.7819695254
 30
0.0
 11
154.4083264026
 21
72.78350632680001
 31
0.0
  0
LINE
  5
35C
330
1F
100
AcDbEntity
  8
0
  6
Continuous
100
AcDbLine
 10
154.4083264026
 20
72.78350632680001
 30
0.0
 11
154.4131950132999
 21
72.7847234794
 31
0.0
  0
LINE
  5
35D
330
1F
100
AcDbEntity
  8
0
  6
Continuous
100
AcDbLine
 10
154.4131950132999
 20
72.7847234794
 30
0.0
 11
154.4601791973
 21
72.7964695254
 31
0.0
  0
LINE
  5
35E
330
1F
100
AcDbEntity
  8
0
  6
Continuous
100
AcDbLine
 10
154.3731791973
 20
72.7819695254
 30
0.0
 11
154.3985668423999
 21
72.78620079959999
 31
0.0
  0
LINE
  5
35F
330
1F
100
AcDbEntity
  8
0
  6
Continuous
100
AcDbLine
 10
154.3985668423999
 20
72.78620079959999
 30
0.0
 11
154.4074944694
 21
72.7876887375
 31
0.0
  0
LINE
  5
360
330
1F
100
AcDbEntity
  8
0
  6
Continuous
100
AcDbLine
 10
154.4074944694
 20
72.7876887375
 30
0.0
 11
154.4174988029999
 21
72.78935612640001
 31
0.0
  0
LINE
  5
361
330
1F
100
AcDbEntity
  8
0
  6
Continuous
100
AcDbLine
 10
154.4174988029999
 20
72.78935612640001
 30
0.0
 11
154.4601791973
 21
72.7964695254
 31
0.0
  0
LINE
  5
362
330
1F
100
AcDbEntity
  8
0
  6
Continuous
100
AcDbLine
 10
154.4456791972999
 20
72.7094695254
 30
0.0
 11
154.4513984093
 21
72.7437847975
 31
0.0
  0
LINE
  5
363
330
1F
100
AcDbEntity
  8
0
  6
Continuous
100
AcDbLine
 10
154.4513984093
 20
72.7437847975
 30
0.0
 11
154.4601791973
 21
72.7964695254
 31
0.0
  0
LINE
  5
364
330
1F
100
AcDbEntity
  8
0
  6
Continuous
100
AcDbLine
 10
154.3731791973
 20
72.8109695254
 30
0.0
 11
154.3985668423999
 21
72.8067382513
 31
0.0
  0
LINE
  5
365
330
1F
100
AcDbEntity
  8
0
  6
Continuous
100
AcDbLine
 10
154.3985668423999
 20
72.8067382513
 30
0.0
 11
154.4074944694
 21
72.80525031339999
 31
0.0
  0
LINE
  5
366
330
1F
100
AcDbEntity
  8
0
  6
Continuous
100
AcDbLine
 10
154.4074944694
 20
72.80525031339999
 30
0.0
 11
154.4174988029999
 21
72.80358292449999
 31
0.0
  0
LINE
  5
367
330
1F
100
AcDbEntity
  8
0
  6
Continuous
100
AcDbLine
 10
154.4174988029999
 20
72.80358292449999
 30
0.0
 11
154.4601791973
 21
72.7964695254
 31
0.0
  0
LINE
  5
368
330
1F
100
AcDbEntity
  8
0
  6
Continuous
100
AcDbLine
 10
154.4746791973
 20
72.73846952540001
 30
0.0
 11
154.4746791973
 21
72.7094695254
 31
0.0
  0
LINE
  5
369
330
1F
100
AcDbEntity
  8
0
  6
Continuous
100
AcDbLine
 10
154.4746791973
 20
72.7094695254
 30
0.0
 11
154.4689599853
 21
72.7437847975
 31
0.0
  0
LINE
  5
36A
330
1F
100
AcDbEntity
  8
0
  6
Continuous
100
AcDbLine
 10
154.4689599853
 20
72.7437847975
 30
0.0
 11
154.4601791973
 21
72.7964695254
 31
0.0
  0
LINE
  5
36B
330
1F
100
AcDbEntity
  8
0
  6
Continuous
100
AcDbLine
 10
154.4746791973
 20
72.73846952540001
 30
0.0
 11
154.473142396
 21
72.7446167307
 31
0.0
  0
LINE
  5
36C
330
1F
100
AcDbEntity
  8
0
  6
Continuous
100
AcDbLine
 10
154.473142396
 20
72.7446167307
 30
0.0
 11
154.4601791973
 21
72.7964695254
 31
0.0
  0
LINE
  5
36D
330
1F
100
AcDbEntity
  8
0
  6
Continuous
100
AcDbLine
 10
154.4906013023999
 20
72.76604742039999
 30
0.0
 11
154.4601791973
 21
72.7964695254
 31
0.0
  0
LINE
  5
36E
330
1F
100
AcDbEntity
  8
0
  6
Continuous
100
AcDbLine
 10
154.5181791972999
 20
72.7819695254
 30
0.0
 11
154.512031992
 21
72.78350632680001
 31
0.0
  0
LINE
  5
36F
330
1F
100
AcDbEntity
  8
0
  6
Continuous
100
AcDbLine
 10
154.512031992
 20
72.78350632680001
 30
0.0
 11
154.5071633812999
 21
72.7847234794
 31
0.0
  0
LINE
  5
370
330
1F
100
AcDbEntity
  8
0
  6
Continuous
100
AcDbLine
 10
154.5071633812999
 20
72.7847234794
 30
0.0
 11
154.4601791973
 21
72.7964695254
 31
0.0
  0
LINE
  5
371
330
1F
100
AcDbEntity
  8
0
  6
Continuous
100
AcDbLine
 10
154.5471791972999
 20
72.7819695254
 30
0.0
 11
154.5217915522
 21
72.78620079959999
 31
0.0
  0
LINE
  5
372
330
1F
100
AcDbEntity
  8
0
  6
Continuous
100
AcDbLine
 10
154.5217915522
 20
72.78620079959999
 30
0.0
 11
154.5128639252
 21
72.7876887375
 31
0.0
  0
LINE
  5
373
330
1F
100
AcDbEntity
  8
0
  6
Continuous
100
AcDbLine
 10
154.5128639252
 20
72.7876887375
 30
0.0
 11
154.5028595915999
 21
72.78935612640001
 31
0.0
  0
LINE
  5
374
330
1F
100
AcDbEntity
  8
0
  6
Continuous
100
AcDbLine
 10
154.5028595915999
 20
72.78935612640001
 30
0.0
 11
154.4601791973
 21
72.7964695254
 31
0.0
  0
LINE
  5
375
330
1F
100
AcDbEntity
  8
0
  6
Continuous
100
AcDbLine
 10
154.5471791972999
 20
72.8109695254
 30
0.0
 11
154.5217915522
 21
72.8067382513
 31
0.0
  0
LINE
  5
376
330
1F
100
AcDbEntity
  8
0
  6
Continuous
100
AcDbLine
 10
154.5217915522
 20
72.8067382513
 30
0.0
 11
154.5128639252
 21
72.80525031339999
 31
0.0
  0
LINE
  5
377
330
1F
100
AcDbEntity
  8
0
  6
Continuous
100
AcDbLine
 10
154.5128639252
 20
72.80525031339999
 30
0.0
 11
154.5028595915999
 21
72.80358292449999
 31
0.0
  0
LINE
  5
378
330
1F
100
AcDbEntity
  8
0
  6
Continuous
100
AcDbLine
 10
154.5028595915999
 20
72.80358292449999
 30
0.0
 11
154.4601791973
 21
72.7964695254
 31
0.0
  0
LINE
  5
379
330
1F
100
AcDbEntity
  8
0
  6
Continuous
100
AcDbLine
 10
154.5181791972999
 20
72.8109695254
 30
0.0
 11
154.512031992
 21
72.80943272409999
 31
0.0
  0
LINE
  5
37A
330
1F
100
AcDbEntity
  8
0
  6
Continuous
100
AcDbLine
 10
154.512031992
 20
72.80943272409999
 30
0.0
 11
154.5071633812999
 21
72.8082155714
 31
0.0
  0
LINE
  5
37B
330
1F
100
AcDbEntity
  8
0
  6
Continuous
100
AcDbLine
 10
154.5071633812999
 20
72.8082155714
 30
0.0
 11
154.4601791973
 21
72.7964695254
 31
0.0
  0
LINE
  5
37C
330
1F
100
AcDbEntity
  8
0
  6
Continuous
100
AcDbLine
 10
154.4906013023999
 20
72.8268916305
 30
0.0
 11
154.4601791973
 21
72.7964695254
 31
0.0
  0
LINE
  5
37D
330
1F
100
AcDbEntity
  8
0
  6
Continuous
100
AcDbLine
 10
154.4746791973
 20
72.8544695254
 30
0.0
 11
154.473142396
 21
72.8483223201
 31
0.0
  0
LINE
  5
37E
330
1F
100
AcDbEntity
  8
0
  6
Continuous
100
AcDbLine
 10
154.473142396
 20
72.8483223201
 30
0.0
 11
154.4601791973
 21
72.7964695254
 31
0.0
  0
LINE
  5
37F
330
1F
100
AcDbEntity
  8
0
  6
Continuous
100
AcDbLine
 10
154.4746791973
 20
72.8834695254
 30
0.0
 11
154.4689599853
 21
72.8491542534
 31
0.0
  0
LINE
  5
380
330
1F
100
AcDbEntity
  8
0
  6
Continuous
100
AcDbLine
 10
154.4689599853
 20
72.8491542534
 30
0.0
 11
154.4601791973
 21
72.7964695254
 31
0.0
  0
LINE
  5
381
330
1F
100
AcDbEntity
  8
0
  6
Continuous
100
AcDbLine
 10
154.4456791972999
 20
72.8834695254
 30
0.0
 11
154.4513984093
 21
72.8491542534
 31
0.0
  0
LINE
  5
382
330
1F
100
AcDbEntity
  8
0
  6
Continuous
100
AcDbLine
 10
154.4513984093
 20
72.8491542534
 30
0.0
 11
154.4601791973
 21
72.7964695254
 31
0.0
  0
LINE
  5
383
330
1F
100
AcDbEntity
  8
0
  6
Continuous
100
AcDbLine
 10
154.4456791972999
 20
72.8544695254
 30
0.0
 11
154.4472159986
 21
72.8483223201
 31
0.0
  0
LINE
  5
384
330
1F
100
AcDbEntity
  8
0
  6
Continuous
100
AcDbLine
 10
154.4472159986
 20
72.8483223201
 30
0.0
 11
154.4601791973
 21
72.7964695254
 31
0.0
  0
LINE
  5
385
330
1F
100
AcDbEntity
  8
0
  6
Continuous
100
AcDbLine
 10
154.4297570921999
 20
72.8268916305
 30
0.0
 11
154.4601791973
 21
72.7964695254
 31
0.0
  0
LINE
  5
386
330
1F
100
AcDbEntity
  8
0
  6
Continuous
100
AcDbLine
 10
154.4021791972999
 20
72.8109695254
 30
0.0
 11
154.4083264026
 21
72.80943272409999
 31
0.0
  0
LINE
  5
387
330
1F
100
AcDbEntity
  8
0
  6
Continuous
100
AcDbLine
 10
154.4083264026
 20
72.80943272409999
 30
0.0
 11
154.4131950132999
 21
72.8082155714
 31
0.0
  0
LINE
  5
388
330
1F
100
AcDbEntity
  8
0
  6
Continuous
100
AcDbLine
 10
154.4131950132999
 20
72.8082155714
 30
0.0
 11
154.4601791973
 21
72.7964695254
 31
0.0
  0
ARC
  5
389
330
1F
100
AcDbEntity
  8
0
  6
Continuous
100
AcDbCircle
 10
154.4601791973
 20
75.9564695254
 30
0.0
 40
0.1395
100
AcDbArc
 50
90.0
 51
270.0
  0
ARC
  5
38A
330
1F
100
AcDbEntity
  8
0
  6
Continuous
100
AcDbCircle
 10
154.4601791973
 20
75.9564695254
 30
0.0
 40
0.1395
100
AcDbArc
 50
270.0
 51
90.0
  0
LINE
  5
38B
330
1F
100
AcDbEntity
  8
0
  6
Continuous
100
AcDbLine
 10
154.4906013023999
 20
75.92604742039999
 30
0.0
 11
154.4746791973
 21
75.8984695254
 31
0.0
  0
LINE
  5
38C
330
1F
100
AcDbEntity
  8
0
  6
Continuous
100
AcDbLine
 10
154.5181791972999
 20
75.94196952539999
 30
0.0
 11
154.4906013023999
 21
75.92604742039999
 31
0.0
  0
LINE
  5
38D
330
1F
100
AcDbEntity
  8
0
  6
Continuous
100
AcDbLine
 10
154.5471791972999
 20
75.94196952539999
 30
0.0
 11
154.5181791972999
 21
75.94196952539999
 31
0.0
  0
LINE
  5
38E
330
1F
100
AcDbEntity
  8
0
  6
Continuous
100
AcDbLine
 10
154.5471791972999
 20
75.97096952539999
 30
0.0
 11
154.5471791972999
 21
75.94196952539999
 31
0.0
  0
LINE
  5
38F
330
1F
100
AcDbEntity
  8
0
  6
Continuous
100
AcDbLine
 10
154.5181791972999
 20
75.97096952539999
 30
0.0
 11
154.5471791972999
 21
75.97096952539999
 31
0.0
  0
LINE
  5
390
330
1F
100
AcDbEntity
  8
0
  6
Continuous
100
AcDbLine
 10
154.4906013023999
 20
75.9868916305
 30
0.0
 11
154.5181791972999
 21
75.97096952539999
 31
0.0
  0
LINE
  5
391
330
1F
100
AcDbEntity
  8
0
  6
Continuous
100
AcDbLine
 10
154.4746791973
 20
76.0144695254
 30
0.0
 11
154.4906013023999
 21
75.9868916305
 31
0.0
  0
LINE
  5
392
330
1F
100
AcDbEntity
  8
0
  6
Continuous
100
AcDbLine
 10
154.4746791973
 20
76.0434695254
 30
0.0
 11
154.4746791973
 21
76.0144695254
 31
0.0
  0
LINE
  5
393
330
1F
100
AcDbEntity
  8
0
  6
Continuous
100
AcDbLine
 10
154.4456791972999
 20
76.0434695254
 30
0.0
 11
154.4746791973
 21
76.0434695254
 31
0.0
  0
LINE
  5
394
330
1F
100
AcDbEntity
  8
0
  6
Continuous
100
AcDbLine
 10
154.4456791972999
 20
76.0144695254
 30
0.0
 11
154.4456791972999
 21
76.0434695254
 31
0.0
  0
LINE
  5
395
330
1F
100
AcDbEntity
  8
0
  6
Continuous
100
AcDbLine
 10
154.4297570921999
 20
75.9868916305
 30
0.0
 11
154.4456791972999
 21
76.0144695254
 31
0.0
  0
LINE
  5
396
330
1F
100
AcDbEntity
  8
0
  6
Continuous
100
AcDbLine
 10
154.4021791972999
 20
75.97096952539999
 30
0.0
 11
154.4297570921999
 21
75.9868916305
 31
0.0
  0
LINE
  5
397
330
1F
100
AcDbEntity
  8
0
  6
Continuous
100
AcDbLine
 10
154.3731791973
 20
75.97096952539999
 30
0.0
 11
154.4021791972999
 21
75.97096952539999
 31
0.0
  0
LINE
  5
398
330
1F
100
AcDbEntity
  8
0
  6
Continuous
100
AcDbLine
 10
154.3731791973
 20
75.94196952539999
 30
0.0
 11
154.3731791973
 21
75.97096952539999
 31
0.0
  0
LINE
  5
399
330
1F
100
AcDbEntity
  8
0
  6
Continuous
100
AcDbLine
 10
154.4021791972999
 20
75.94196952539999
 30
0.0
 11
154.3731791973
 21
75.94196952539999
 31
0.0
  0
LINE
  5
39A
330
1F
100
AcDbEntity
  8
0
  6
Continuous
100
AcDbLine
 10
154.4297570921999
 20
75.92604742039999
 30
0.0
 11
154.4021791972999
 21
75.94196952539999
 31
0.0
  0
LINE
  5
39B
330
1F
100
AcDbEntity
  8
0
  6
Continuous
100
AcDbLine
 10
154.4456791972999
 20
75.8984695254
 30
0.0
 11
154.4297570921999
 21
75.92604742039999
 31
0.0
  0
LINE
  5
39C
330
1F
100
AcDbEntity
  8
0
  6
Continuous
100
AcDbLine
 10
154.4456791972999
 20
75.8694695254
 30
0.0
 11
154.4456791972999
 21
75.8984695254
 31
0.0
  0
LINE
  5
39D
330
1F
100
AcDbEntity
  8
0
  6
Continuous
100
AcDbLine
 10
154.4746791973
 20
75.8694695254
 30
0.0
 11
154.4456791972999
 21
75.8694695254
 31
0.0
  0
LINE
  5
39E
330
1F
100
AcDbEntity
  8
0
  6
Continuous
100
AcDbLine
 10
154.4456791972999
 20
75.8984695254
 30
0.0
 11
154.4472159986
 21
75.9046167307
 31
0.0
  0
LINE
  5
39F
330
1F
100
AcDbEntity
  8
0
  6
Continuous
100
AcDbLine
 10
154.4472159986
 20
75.9046167307
 30
0.0
 11
154.4601791973
 21
75.9564695254
 31
0.0
  0
LINE
  5
3A0
330
1F
100
AcDbEntity
  8
0
  6
Continuous
100
AcDbLine
 10
154.4297570921999
 20
75.92604742039999
 30
0.0
 11
154.4601791973
 21
75.9564695254
 31
0.0
  0
LINE
  5
3A1
330
1F
100
AcDbEntity
  8
0
  6
Continuous
100
AcDbLine
 10
154.4021791972999
 20
75.94196952539999
 30
0.0
 11
154.4083264026
 21
75.94350632680001
 31
0.0
  0
LINE
  5
3A2
330
1F
100
AcDbEntity
  8
0
  6
Continuous
100
AcDbLine
 10
154.4083264026
 20
75.94350632680001
 30
0.0
 11
154.4131950132999
 21
75.9447234794
 31
0.0
  0
LINE
  5
3A3
330
1F
100
AcDbEntity
  8
0
  6
Continuous
100
AcDbLine
 10
154.4131950132999
 20
75.9447234794
 30
0.0
 11
154.4601791973
 21
75.9564695254
 31
0.0
  0
LINE
  5
3A4
330
1F
100
AcDbEntity
  8
0
  6
Continuous
100
AcDbLine
 10
154.3731791973
 20
75.94196952539999
 30
0.0
 11
154.3985668423999
 21
75.94620079960001
 31
0.0
  0
LINE
  5
3A5
330
1F
100
AcDbEntity
  8
0
  6
Continuous
100
AcDbLine
 10
154.3985668423999
 20
75.94620079960001
 30
0.0
 11
154.4074944694
 21
75.9476887375
 31
0.0
  0
LINE
  5
3A6
330
1F
100
AcDbEntity
  8
0
  6
Continuous
100
AcDbLine
 10
154.4074944694
 20
75.9476887375
 30
0.0
 11
154.4174988029999
 21
75.9493561264
 31
0.0
  0
LINE
  5
3A7
330
1F
100
AcDbEntity
  8
0
  6
Continuous
100
AcDbLine
 10
154.4174988029999
 20
75.9493561264
 30
0.0
 11
154.4601791973
 21
75.9564695254
 31
0.0
  0
LINE
  5
3A8
330
1F
100
AcDbEntity
  8
0
  6
Continuous
100
AcDbLine
 10
154.4456791972999
 20
75.8694695254
 30
0.0
 11
154.4513984093
 21
75.9037847975
 31
0.0
  0
LINE
  5
3A9
330
1F
100
AcDbEntity
  8
0
  6
Continuous
100
AcDbLine
 10
154.4513984093
 20
75.9037847975
 30
0.0
 11
154.4601791973
 21
75.9564695254
 31
0.0
  0
LINE
  5
3AA
330
1F
100
AcDbEntity
  8
0
  6
Continuous
100
AcDbLine
 10
154.3731791973
 20
75.97096952539999
 30
0.0
 11
154.3985668423999
 21
75.9667382513
 31
0.0
  0
LINE
  5
3AB
330
1F
100
AcDbEntity
  8
0
  6
Continuous
100
AcDbLine
 10
154.3985668423999
 20
75.9667382513
 30
0.0
 11
154.4074944694
 21
75.9652503134
 31
0.0
  0
LINE
  5
3AC
330
1F
100
AcDbEntity
  8
0
  6
Continuous
100
AcDbLine
 10
154.4074944694
 20
75.9652503134
 30
0.0
 11
154.4174988029999
 21
75.9635829245
 31
0.0
  0
LINE
  5
3AD
330
1F
100
AcDbEntity
  8
0
  6
Continuous
100
AcDbLine
 10
154.4174988029999
 20
75.9635829245
 30
0.0
 11
154.4601791973
 21
75.9564695254
 31
0.0
  0
LINE
  5
3AE
330
1F
100
AcDbEntity
  8
0
  6
Continuous
100
AcDbLine
 10
154.4746791973
 20
75.8984695254
 30
0.0
 11
154.4746791973
 21
75.8694695254
 31
0.0
  0
LINE
  5
3AF
330
1F
100
AcDbEntity
  8
0
  6
Continuous
100
AcDbLine
 10
154.4746791973
 20
75.8694695254
 30
0.0
 11
154.4689599853
 21
75.9037847975
 31
0.0
  0
LINE
  5
3B0
330
1F
100
AcDbEntity
  8
0
  6
Continuous
100
AcDbLine
 10
154.4689599853
 20
75.9037847975
 30
0.0
 11
154.4601791973
 21
75.9564695254
 31
0.0
  0
LINE
  5
3B1
330
1F
100
AcDbEntity
  8
0
  6
Continuous
100
AcDbLine
 10
154.4746791973
 20
75.8984695254
 30
0.0
 11
154.473142396
 21
75.9046167307
 31
0.0
  0
LINE
  5
3B2
330
1F
100
AcDbEntity
  8
0
  6
Continuous
100
AcDbLine
 10
154.473142396
 20
75.9046167307
 30
0.0
 11
154.4601791973
 21
75.9564695254
 31
0.0
  0
LINE
  5
3B3
330
1F
100
AcDbEntity
  8
0
  6
Continuous
100
AcDbLine
 10
154.4906013023999
 20
75.92604742039999
 30
0.0
 11
154.4601791973
 21
75.9564695254
 31
0.0
  0
LINE
  5
3B4
330
1F
100
AcDbEntity
  8
0
  6
Continuous
100
AcDbLine
 10
154.5181791972999
 20
75.94196952539999
 30
0.0
 11
154.512031992
 21
75.94350632680001
 31
0.0
  0
LINE
  5
3B5
330
1F
100
AcDbEntity
  8
0
  6
Continuous
100
AcDbLine
 10
154.512031992
 20
75.94350632680001
 30
0.0
 11
154.5071633812999
 21
75.9447234794
 31
0.0
  0
LINE
  5
3B6
330
1F
100
AcDbEntity
  8
0
  6
Continuous
100
AcDbLine
 10
154.5071633812999
 20
75.9447234794
 30
0.0
 11
154.4601791973
 21
75.9564695254
 31
0.0
  0
LINE
  5
3B7
330
1F
100
AcDbEntity
  8
0
  6
Continuous
100
AcDbLine
 10
154.5471791972999
 20
75.94196952539999
 30
0.0
 11
154.5217915522
 21
75.94620079960001
 31
0.0
  0
LINE
  5
3B8
330
1F
100
AcDbEntity
  8
0
  6
Continuous
100
AcDbLine
 10
154.5217915522
 20
75.94620079960001
 30
0.0
 11
154.5128639252
 21
75.9476887375
 31
0.0
  0
LINE
  5
3B9
330
1F
100
AcDbEntity
  8
0
  6
Continuous
100
AcDbLine
 10
154.5128639252
 20
75.9476887375
 30
0.0
 11
154.5028595915999
 21
75.9493561264
 31
0.0
  0
LINE
  5
3BA
330
1F
100
AcDbEntity
  8
0
  6
Continuous
100
AcDbLine
 10
154.5028595915999
 20
75.9493561264
 30
0.0
 11
154.4601791973
 21
75.9564695254
 31
0.0
  0
LINE
  5
3BB
330
1F
100
AcDbEntity
  8
0
  6
Continuous
100
AcDbLine
 10
154.5471791972999
 20
75.97096952539999
 30
0.0
 11
154.5217915522
 21
75.9667382513
 31
0.0
  0
LINE
  5
3BC
330
1F
100
AcDbEntity
  8
0
  6
Continuous
100
AcDbLine
 10
154.5217915522
 20
75.9667382513
 30
0.0
 11
154.5128639252
 21
75.9652503134
 31
0.0
  0
LINE
  5
3BD
330
1F
100
AcDbEntity
  8
0
  6
Continuous
100
AcDbLine
 10
154.5128639252
 20
75.9652503134
 30
0.0
 11
154.5028595915999
 21
75.9635829245
 31
0.0
  0
LINE
  5
3BE
330
1F
100
AcDbEntity
  8
0
  6
Continuous
100
AcDbLine
 10
154.5028595915999
 20
75.9635829245
 30
0.0
 11
154.4601791973
 21
75.9564695254
 31
0.0
  0
LINE
  5
3BF
330
1F
100
AcDbEntity
  8
0
  6
Continuous
100
AcDbLine
 10
154.5181791972999
 20
75.97096952539999
 30
0.0
 11
154.512031992
 21
75.9694327241
 31
0.0
  0
LINE
  5
3C0
330
1F
100
AcDbEntity
  8
0
  6
Continuous
100
AcDbLine
 10
154.512031992
 20
75.9694327241
 30
0.0
 11
154.5071633812999
 21
75.96821557140001
 31
0.0
  0
LINE
  5
3C1
330
1F
100
AcDbEntity
  8
0
  6
Continuous
100
AcDbLine
 10
154.5071633812999
 20
75.96821557140001
 30
0.0
 11
154.4601791973
 21
75.9564695254
 31
0.0
  0
LINE
  5
3C2
330
1F
100
AcDbEntity
  8
0
  6
Continuous
100
AcDbLine
 10
154.4906013023999
 20
75.9868916305
 30
0.0
 11
154.4601791973
 21
75.9564695254
 31
0.0
  0
LINE
  5
3C3
330
1F
100
AcDbEntity
  8
0
  6
Continuous
100
AcDbLine
 10
154.4746791973
 20
76.0144695254
 30
0.0
 11
154.473142396
 21
76.00832232010001
 31
0.0
  0
LINE
  5
3C4
330
1F
100
AcDbEntity
  8
0
  6
Continuous
100
AcDbLine
 10
154.473142396
 20
76.00832232010001
 30
0.0
 11
154.4601791973
 21
75.9564695254
 31
0.0
  0
LINE
  5
3C5
330
1F
100
AcDbEntity
  8
0
  6
Continuous
100
AcDbLine
 10
154.4746791973
 20
76.0434695254
 30
0.0
 11
154.4689599853
 21
76.0091542534
 31
0.0
  0
LINE
  5
3C6
330
1F
100
AcDbEntity
  8
0
  6
Continuous
100
AcDbLine
 10
154.4689599853
 20
76.0091542534
 30
0.0
 11
154.4601791973
 21
75.9564695254
 31
0.0
  0
LINE
  5
3C7
330
1F
100
AcDbEntity
  8
0
  6
Continuous
100
AcDbLine
 10
154.4456791972999
 20
76.0434695254
 30
0.0
 11
154.4513984093
 21
76.0091542534
 31
0.0
  0
LINE
  5
3C8
330
1F
100
AcDbEntity
  8
0
  6
Continuous
100
AcDbLine
 10
154.4513984093
 20
76.0091542534
 30
0.0
 11
154.4601791973
 21
75.9564695254
 31
0.0
  0
LINE
  5
3C9
330
1F
100
AcDbEntity
  8
0
  6
Continuous
100
AcDbLine
 10
154.4456791972999
 20
76.0144695254
 30
0.0
 11
154.4472159986
 21
76.00832232010001
 31
0.0
  0
LINE
  5
3CA
330
1F
100
AcDbEntity
  8
0
  6
Continuous
100
AcDbLine
 10
154.4472159986
 20
76.00832232010001
 30
0.0
 11
154.4601791973
 21
75.9564695254
 31
0.0
  0
LINE
  5
3CB
330
1F
100
AcDbEntity
  8
0
  6
Continuous
100
AcDbLine
 10
154.4297570921999
 20
75.9868916305
 30
0.0
 11
154.4601791973
 21
75.9564695254
 31
0.0
  0
LINE
  5
3CC
330
1F
100
AcDbEntity
  8
0
  6
Continuous
100
AcDbLine
 10
154.4021791972999
 20
75.97096952539999
 30
0.0
 11
154.4083264026
 21
75.9694327241
 31
0.0
  0
LINE
  5
3CD
330
1F
100
AcDbEntity
  8
0
  6
Continuous
100
AcDbLine
 10
154.4083264026
 20
75.9694327241
 30
0.0
 11
154.4131950132999
 21
75.96821557140001
 31
0.0
  0
LINE
  5
3CE
330
1F
100
AcDbEntity
  8
0
  6
Continuous
100
AcDbLine
 10
154.4131950132999
 20
75.96821557140001
 30
0.0
 11
154.4601791973
 21
75.9564695254
 31
0.0
  0
ARC
  5
3CF
330
1F
100
AcDbEntity
  8
0
  6
Continuous
100
AcDbCircle
 10
153.1501791972999
 20
77.6889695254
 30
0.0
 40
0.1395
100
AcDbArc
 50
90.0
 51
270.0
  0
ARC
  5
3D0
330
1F
100
AcDbEntity
  8
0
  6
Continuous
100
AcDbCircle
 10
153.1501791972999
 20
77.6889695254
 30
0.0
 40
0.1395
100
AcDbArc
 50
270.0
 51
90.0
  0
LINE
  5
3D1
330
1F
100
AcDbEntity
  8
0
  6
Continuous
100
AcDbLine
 10
153.1806013023999
 20
77.6585474204
 30
0.0
 11
153.1646791972999
 21
77.6309695254
 31
0.0
  0
LINE
  5
3D2
330
1F
100
AcDbEntity
  8
0
  6
Continuous
100
AcDbLine
 10
153.2081791972999
 20
77.6744695254
 30
0.0
 11
153.1806013023999
 21
77.6585474204
 31
0.0
  0
LINE
  5
3D3
330
1F
100
AcDbEntity
  8
0
  6
Continuous
100
AcDbLine
 10
153.2371791973
 20
77.6744695254
 30
0.0
 11
153.2081791972999
 21
77.6744695254
 31
0.0
  0
LINE
  5
3D4
330
1F
100
AcDbEntity
  8
0
  6
Continuous
100
AcDbLine
 10
153.2371791973
 20
77.70346952539999
 30
0.0
 11
153.2371791973
 21
77.6744695254
 31
0.0
  0
LINE
  5
3D5
330
1F
100
AcDbEntity
  8
0
  6
Continuous
100
AcDbLine
 10
153.2081791972999
 20
77.70346952539999
 30
0.0
 11
153.2371791973
 21
77.70346952539999
 31
0.0
  0
LINE
  5
3D6
330
1F
100
AcDbEntity
  8
0
  6
Continuous
100
AcDbLine
 10
153.1806013023999
 20
77.71939163049999
 30
0.0
 11
153.2081791972999
 21
77.70346952539999
 31
0.0
  0
LINE
  5
3D7
330
1F
100
AcDbEntity
  8
0
  6
Continuous
100
AcDbLine
 10
153.1646791972999
 20
77.74696952540001
 30
0.0
 11
153.1806013023999
 21
77.71939163049999
 31
0.0
  0
LINE
  5
3D8
330
1F
100
AcDbEntity
  8
0
  6
Continuous
100
AcDbLine
 10
153.1646791972999
 20
77.7759695254
 30
0.0
 11
153.1646791972999
 21
77.74696952540001
 31
0.0
  0
LINE
  5
3D9
330
1F
100
AcDbEntity
  8
0
  6
Continuous
100
AcDbLine
 10
153.1356791972999
 20
77.7759695254
 30
0.0
 11
153.1646791972999
 21
77.7759695254
 31
0.0
  0
LINE
  5
3DA
330
1F
100
AcDbEntity
  8
0
  6
Continuous
100
AcDbLine
 10
153.1356791972999
 20
77.74696952540001
 30
0.0
 11
153.1356791972999
 21
77.7759695254
 31
0.0
  0
LINE
  5
3DB
330
1F
100
AcDbEntity
  8
0
  6
Continuous
100
AcDbLine
 10
153.1197570922
 20
77.71939163049999
 30
0.0
 11
153.1356791972999
 21
77.74696952540001
 31
0.0
  0
LINE
  5
3DC
330
1F
100
AcDbEntity
  8
0
  6
Continuous
100
AcDbLine
 10
153.0921791973
 20
77.70346952539999
 30
0.0
 11
153.1197570922
 21
77.71939163049999
 31
0.0
  0
LINE
  5
3DD
330
1F
100
AcDbEntity
  8
0
  6
Continuous
100
AcDbLine
 10
153.0631791973
 20
77.70346952539999
 30
0.0
 11
153.0921791973
 21
77.70346952539999
 31
0.0
  0
LINE
  5
3DE
330
1F
100
AcDbEntity
  8
0
  6
Continuous
100
AcDbLine
 10
153.0631791973
 20
77.6744695254
 30
0.0
 11
153.0631791973
 21
77.70346952539999
 31
0.0
  0
LINE
  5
3DF
330
1F
100
AcDbEntity
  8
0
  6
Continuous
100
AcDbLine
 10
153.0921791973
 20
77.6744695254
 30
0.0
 11
153.0631791973
 21
77.6744695254
 31
0.0
  0
LINE
  5
3E0
330
1F
100
AcDbEntity
  8
0
  6
Continuous
100
AcDbLine
 10
153.1197570922
 20
77.6585474204
 30
0.0
 11
153.0921791973
 21
77.6744695254
 31
0.0
  0
LINE
  5
3E1
330
1F
100
AcDbEntity
  8
0
  6
Continuous
100
AcDbLine
 10
153.1356791972999
 20
77.6309695254
 30
0.0
 11
153.1197570922
 21
77.6585474204
 31
0.0
  0
LINE
  5
3E2
330
1F
100
AcDbEntity
  8
0
  6
Continuous
100
AcDbLine
 10
153.1356791972999
 20
77.60196952539999
 30
0.0
 11
153.1356791972999
 21
77.6309695254
 31
0.0
  0
LINE
  5
3E3
330
1F
100
AcDbEntity
  8
0
  6
Continuous
100
AcDbLine
 10
153.1646791972999
 20
77.60196952539999
 30
0.0
 11
153.1356791972999
 21
77.60196952539999
 31
0.0
  0
LINE
  5
3E4
330
1F
100
AcDbEntity
  8
0
  6
Continuous
100
AcDbLine
 10
153.1356791972999
 20
77.6309695254
 30
0.0
 11
153.1372159985999
 21
77.6371167307
 31
0.0
  0
LINE
  5
3E5
330
1F
100
AcDbEntity
  8
0
  6
Continuous
100
AcDbLine
 10
153.1372159985999
 20
77.6371167307
 30
0.0
 11
153.1501791972999
 21
77.6889695254
 31
0.0
  0
LINE
  5
3E6
330
1F
100
AcDbEntity
  8
0
  6
Continuous
100
AcDbLine
 10
153.1197570922
 20
77.6585474204
 30
0.0
 11
153.1501791972999
 21
77.6889695254
 31
0.0
  0
LINE
  5
3E7
330
1F
100
AcDbEntity
  8
0
  6
Continuous
100
AcDbLine
 10
153.0921791973
 20
77.6744695254
 30
0.0
 11
153.0983264026
 21
77.6760063268
 31
0.0
  0
LINE
  5
3E8
330
1F
100
AcDbEntity
  8
0
  6
Continuous
100
AcDbLine
 10
153.0983264026
 20
77.6760063268
 30
0.0
 11
153.1031950133
 21
77.6772234794
 31
0.0
  0
LINE
  5
3E9
330
1F
100
AcDbEntity
  8
0
  6
Continuous
100
AcDbLine
 10
153.1031950133
 20
77.6772234794
 30
0.0
 11
153.1501791972999
 21
77.6889695254
 31
0.0
  0
LINE
  5
3EA
330
1F
100
AcDbEntity
  8
0
  6
Continuous
100
AcDbLine
 10
153.0631791973
 20
77.6744695254
 30
0.0
 11
153.0885668424
 21
77.67870079959999
 31
0.0
  0
LINE
  5
3EB
330
1F
100
AcDbEntity
  8
0
  6
Continuous
100
AcDbLine
 10
153.0885668424
 20
77.67870079959999
 30
0.0
 11
153.0974944693999
 21
77.6801887375
 31
0.0
  0
LINE
  5
3EC
330
1F
100
AcDbEntity
  8
0
  6
Continuous
100
AcDbLine
 10
153.0974944693999
 20
77.6801887375
 30
0.0
 11
153.107498803
 21
77.6818561264
 31
0.0
  0
LINE
  5
3ED
330
1F
100
AcDbEntity
  8
0
  6
Continuous
100
AcDbLine
 10
153.107498803
 20
77.6818561264
 30
0.0
 11
153.1501791972999
 21
77.6889695254
 31
0.0
  0
LINE
  5
3EE
330
1F
100
AcDbEntity
  8
0
  6
Continuous
100
AcDbLine
 10
153.1356791972999
 20
77.60196952539999
 30
0.0
 11
153.1413984092999
 21
77.6362847975
 31
0.0
  0
LINE
  5
3EF
330
1F
100
AcDbEntity
  8
0
  6
Continuous
100
AcDbLine
 10
153.1413984092999
 20
77.6362847975
 30
0.0
 11
153.1501791972999
 21
77.6889695254
 31
0.0
  0
LINE
  5
3F0
330
1F
100
AcDbEntity
  8
0
  6
Continuous
100
AcDbLine
 10
153.0631791973
 20
77.70346952539999
 30
0.0
 11
153.0885668424
 21
77.6992382513
 31
0.0
  0
LINE
  5
3F1
330
1F
100
AcDbEntity
  8
0
  6
Continuous
100
AcDbLine
 10
153.0885668424
 20
77.6992382513
 30
0.0
 11
153.0974944693999
 21
77.6977503134
 31
0.0
  0
LINE
  5
3F2
330
1F
100
AcDbEntity
  8
0
  6
Continuous
100
AcDbLine
 10
153.0974944693999
 20
77.6977503134
 30
0.0
 11
153.107498803
 21
77.6960829245
 31
0.0
  0
LINE
  5
3F3
330
1F
100
AcDbEntity
  8
0
  6
Continuous
100
AcDbLine
 10
153.107498803
 20
77.6960829245
 30
0.0
 11
153.1501791972999
 21
77.6889695254
 31
0.0
  0
LINE
  5
3F4
330
1F
100
AcDbEntity
  8
0
  6
Continuous
100
AcDbLine
 10
153.1646791972999
 20
77.6309695254
 30
0.0
 11
153.1646791972999
 21
77.60196952539999
 31
0.0
  0
LINE
  5
3F5
330
1F
100
AcDbEntity
  8
0
  6
Continuous
100
AcDbLine
 10
153.1646791972999
 20
77.60196952539999
 30
0.0
 11
153.1589599853
 21
77.6362847975
 31
0.0
  0
LINE
  5
3F6
330
1F
100
AcDbEntity
  8
0
  6
Continuous
100
AcDbLine
 10
153.1589599853
 20
77.6362847975
 30
0.0
 11
153.1501791972999
 21
77.6889695254
 31
0.0
  0
LINE
  5
3F7
330
1F
100
AcDbEntity
  8
0
  6
Continuous
100
AcDbLine
 10
153.1646791972999
 20
77.6309695254
 30
0.0
 11
153.163142396
 21
77.6371167307
 31
0.0
  0
LINE
  5
3F8
330
1F
100
AcDbEntity
  8
0
  6
Continuous
100
AcDbLine
 10
153.163142396
 20
77.6371167307
 30
0.0
 11
153.1501791972999
 21
77.6889695254
 31
0.0
  0
LINE
  5
3F9
330
1F
100
AcDbEntity
  8
0
  6
Continuous
100
AcDbLine
 10
153.1806013023999
 20
77.6585474204
 30
0.0
 11
153.1501791972999
 21
77.6889695254
 31
0.0
  0
LINE
  5
3FA
330
1F
100
AcDbEntity
  8
0
  6
Continuous
100
AcDbLine
 10
153.2081791972999
 20
77.6744695254
 30
0.0
 11
153.2020319919999
 21
77.6760063268
 31
0.0
  0
LINE
  5
3FB
330
1F
100
AcDbEntity
  8
0
  6
Continuous
100
AcDbLine
 10
153.2020319919999
 20
77.6760063268
 30
0.0
 11
153.1971633812999
 21
77.6772234794
 31
0.0
  0
LINE
  5
3FC
330
1F
100
AcDbEntity
  8
0
  6
Continuous
100
AcDbLine
 10
153.1971633812999
 20
77.6772234794
 30
0.0
 11
153.1501791972999
 21
77.6889695254
 31
0.0
  0
LINE
  5
3FD
330
1F
100
AcDbEntity
  8
0
  6
Continuous
100
AcDbLine
 10
153.2371791973
 20
77.6744695254
 30
0.0
 11
153.2117915521999
 21
77.67870079959999
 31
0.0
  0
LINE
  5
3FE
330
1F
100
AcDbEntity
  8
0
  6
Continuous
100
AcDbLine
 10
153.2117915521999
 20
77.67870079959999
 30
0.0
 11
153.2028639252
 21
77.6801887375
 31
0.0
  0
LINE
  5
3FF
330
1F
100
AcDbEntity
  8
0
  6
Continuous
100
AcDbLine
 10
153.2028639252
 20
77.6801887375
 30
0.0
 11
153.1928595916
 21
77.6818561264
 31
0.0
  0
LINE
  5
400
330
1F
100
AcDbEntity
  8
0
  6
Continuous
100
AcDbLine
 10
153.1928595916
 20
77.6818561264
 30
0.0
 11
153.1501791972999
 21
77.6889695254
 31
0.0
  0
LINE
  5
401
330
1F
100
AcDbEntity
  8
0
  6
Continuous
100
AcDbLine
 10
153.2371791973
 20
77.70346952539999
 30
0.0
 11
153.2117915521999
 21
77.6992382513
 31
0.0
  0
LINE
  5
402
330
1F
100
AcDbEntity
  8
0
  6
Continuous
100
AcDbLine
 10
153.2117915521999
 20
77.6992382513
 30
0.0
 11
153.2028639252
 21
77.6977503134
 31
0.0
  0
LINE
  5
403
330
1F
100
AcDbEntity
  8
0
  6
Continuous
100
AcDbLine
 10
153.2028639252
 20
77.6977503134
 30
0.0
 11
153.1928595916
 21
77.6960829245
 31
0.0
  0
LINE
  5
404
330
1F
100
AcDbEntity
  8
0
  6
Continuous
100
AcDbLine
 10
153.1928595916
 20
77.6960829245
 30
0.0
 11
153.1501791972999
 21
77.6889695254
 31
0.0
  0
LINE
  5
405
330
1F
100
AcDbEntity
  8
0
  6
Continuous
100
AcDbLine
 10
153.2081791972999
 20
77.70346952539999
 30
0.0
 11
153.2020319919999
 21
77.70193272410001
 31
0.0
  0
LINE
  5
406
330
1F
100
AcDbEntity
  8
0
  6
Continuous
100
AcDbLine
 10
153.2020319919999
 20
77.70193272410001
 30
0.0
 11
153.1971633812999
 21
77.70071557139999
 31
0.0
  0
LINE
  5
407
330
1F
100
AcDbEntity
  8
0
  6
Continuous
100
AcDbLine
 10
153.1971633812999
 20
77.70071557139999
 30
0.0
 11
153.1501791972999
 21
77.6889695254
 31
0.0
  0
LINE
  5
408
330
1F
100
AcDbEntity
  8
0
  6
Continuous
100
AcDbLine
 10
153.1806013023999
 20
77.71939163049999
 30
0.0
 11
153.1501791972999
 21
77.6889695254
 31
0.0
  0
LINE
  5
409
330
1F
100
AcDbEntity
  8
0
  6
Continuous
100
AcDbLine
 10
153.1646791972999
 20
77.74696952540001
 30
0.0
 11
153.163142396
 21
77.74082232010001
 31
0.0
  0
LINE
  5
40A
330
1F
100
AcDbEntity
  8
0
  6
Continuous
100
AcDbLine
 10
153.163142396
 20
77.74082232010001
 30
0.0
 11
153.1501791972999
 21
77.6889695254
 31
0.0
  0
LINE
  5
40B
330
1F
100
AcDbEntity
  8
0
  6
Continuous
100
AcDbLine
 10
153.1646791972999
 20
77.7759695254
 30
0.0
 11
153.1589599853
 21
77.7416542534
 31
0.0
  0
LINE
  5
40C
330
1F
100
AcDbEntity
  8
0
  6
Continuous
100
AcDbLine
 10
153.1589599853
 20
77.7416542534
 30
0.0
 11
153.1501791972999
 21
77.6889695254
 31
0.0
  0
LINE
  5
40D
330
1F
100
AcDbEntity
  8
0
  6
Continuous
100
AcDbLine
 10
153.1356791972999
 20
77.7759695254
 30
0.0
 11
153.1413984092999
 21
77.7416542534
 31
0.0
  0
LINE
  5
40E
330
1F
100
AcDbEntity
  8
0
  6
Continuous
100
AcDbLine
 10
153.1413984092999
 20
77.7416542534
 30
0.0
 11
153.1501791972999
 21
77.6889695254
 31
0.0
  0
LINE
  5
40F
330
1F
100
AcDbEntity
  8
0
  6
Continuous
100
AcDbLine
 10
153.1356791972999
 20
77.74696952540001
 30
0.0
 11
153.1372159985999
 21
77.74082232010001
 31
0.0
  0
LINE
  5
410
330
1F
100
AcDbEntity
  8
0
  6
Continuous
100
AcDbLine
 10
153.1372159985999
 20
77.74082232010001
 30
0.0
 11
153.1501791972999
 21
77.6889695254
 31
0.0
  0
LINE
  5
411
330
1F
100
AcDbEntity
  8
0
  6
Continuous
100
AcDbLine
 10
153.1197570922
 20
77.71939163049999
 30
0.0
 11
153.1501791972999
 21
77.6889695254
 31
0.0
  0
LINE
  5
412
330
1F
100
AcDbEntity
  8
0
  6
Continuous
100
AcDbLine
 10
153.0921791973
 20
77.70346952539999
 30
0.0
 11
153.0983264026
 21
77.70193272410001
 31
0.0
  0
LINE
  5
413
330
1F
100
AcDbEntity
  8
0
  6
Continuous
100
AcDbLine
 10
153.0983264026
 20
77.70193272410001
 30
0.0
 11
153.1031950133
 21
77.70071557139999
 31
0.0
  0
LINE
  5
414
330
1F
100
AcDbEntity
  8
0
  6
Continuous
100
AcDbLine
 10
153.1031950133
 20
77.70071557139999
 30
0.0
 11
153.1501791972999
 21
77.6889695254
 31
0.0
  0
ARC
  5
415
330
1F
100
AcDbEntity
  8
0
  6
Continuous
100
AcDbCircle
 10
151.1501791973
 20
77.6889695254
 30
0.0
 40
0.1395
100
AcDbArc
 50
90.0
 51
270.0
  0
ARC
  5
416
330
1F
100
AcDbEntity
  8
0
  6
Continuous
100
AcDbCircle
 10
151.1501791973
 20
77.6889695254
 30
0.0
 40
0.1395
100
AcDbArc
 50
270.0
 51
90.0
  0
LINE
  5
417
330
1F
100
AcDbEntity
  8
0
  6
Continuous
100
AcDbLine
 10
151.1806013023999
 20
77.6585474204
 30
0.0
 11
151.1646791972999
 21
77.6309695254
 31
0.0
  0
LINE
  5
418
330
1F
100
AcDbEntity
  8
0
  6
Continuous
100
AcDbLine
 10
151.2081791972999
 20
77.6744695254
 30
0.0
 11
151.1806013023999
 21
77.6585474204
 31
0.0
  0
LINE
  5
419
330
1F
100
AcDbEntity
  8
0
  6
Continuous
100
AcDbLine
 10
151.2371791973
 20
77.6744695254
 30
0.0
 11
151.2081791972999
 21
77.6744695254
 31
0.0
  0
LINE
  5
41A
330
1F
100
AcDbEntity
  8
0
  6
Continuous
100
AcDbLine
 10
151.2371791973
 20
77.70346952539999
 30
0.0
 11
151.2371791973
 21
77.6744695254
 31
0.0
  0
LINE
  5
41B
330
1F
100
AcDbEntity
  8
0
  6
Continuous
100
AcDbLine
 10
151.2081791972999
 20
77.70346952539999
 30
0.0
 11
151.2371791973
 21
77.70346952539999
 31
0.0
  0
LINE
  5
41C
330
1F
100
AcDbEntity
  8
0
  6
Continuous
100
AcDbLine
 10
151.1806013023999
 20
77.71939163049999
 30
0.0
 11
151.2081791972999
 21
77.70346952539999
 31
0.0
  0
LINE
  5
41D
330
1F
100
AcDbEntity
  8
0
  6
Continuous
100
AcDbLine
 10
151.1646791972999
 20
77.74696952540001
 30
0.0
 11
151.1806013023999
 21
77.71939163049999
 31
0.0
  0
LINE
  5
41E
330
1F
100
AcDbEntity
  8
0
  6
Continuous
100
AcDbLine
 10
151.1646791972999
 20
77.7759695254
 30
0.0
 11
151.1646791972999
 21
77.74696952540001
 31
0.0
  0
LINE
  5
41F
330
1F
100
AcDbEntity
  8
0
  6
Continuous
100
AcDbLine
 10
151.1356791973
 20
77.7759695254
 30
0.0
 11
151.1646791972999
 21
77.7759695254
 31
0.0
  0
LINE
  5
420
330
1F
100
AcDbEntity
  8
0
  6
Continuous
100
AcDbLine
 10
151.1356791973
 20
77.74696952540001
 30
0.0
 11
151.1356791973
 21
77.7759695254
 31
0.0
  0
LINE
  5
421
330
1F
100
AcDbEntity
  8
0
  6
Continuous
100
AcDbLine
 10
151.1197570922
 20
77.71939163049999
 30
0.0
 11
151.1356791973
 21
77.74696952540001
 31
0.0
  0
LINE
  5
422
330
1F
100
AcDbEntity
  8
0
  6
Continuous
100
AcDbLine
 10
151.0921791972999
 20
77.70346952539999
 30
0.0
 11
151.1197570922
 21
77.71939163049999
 31
0.0
  0
LINE
  5
423
330
1F
100
AcDbEntity
  8
0
  6
Continuous
100
AcDbLine
 10
151.0631791973
 20
77.70346952539999
 30
0.0
 11
151.0921791972999
 21
77.70346952539999
 31
0.0
  0
LINE
  5
424
330
1F
100
AcDbEntity
  8
0
  6
Continuous
100
AcDbLine
 10
151.0631791973
 20
77.6744695254
 30
0.0
 11
151.0631791973
 21
77.70346952539999
 31
0.0
  0
LINE
  5
425
330
1F
100
AcDbEntity
  8
0
  6
Continuous
100
AcDbLine
 10
151.0921791972999
 20
77.6744695254
 30
0.0
 11
151.0631791973
 21
77.6744695254
 31
0.0
  0
LINE
  5
426
330
1F
100
AcDbEntity
  8
0
  6
Continuous
100
AcDbLine
 10
151.1197570922
 20
77.6585474204
 30
0.0
 11
151.0921791972999
 21
77.6744695254
 31
0.0
  0
LINE
  5
427
330
1F
100
AcDbEntity
  8
0
  6
Continuous
100
AcDbLine
 10
151.1356791973
 20
77.6309695254
 30
0.0
 11
151.1197570922
 21
77.6585474204
 31
0.0
  0
LINE
  5
428
330
1F
100
AcDbEntity
  8
0
  6
Continuous
100
AcDbLine
 10
151.1356791973
 20
77.60196952539999
 30
0.0
 11
151.1356791973
 21
77.6309695254
 31
0.0
  0
LINE
  5
429
330
1F
100
AcDbEntity
  8
0
  6
Continuous
100
AcDbLine
 10
151.1646791972999
 20
77.60196952539999
 30
0.0
 11
151.1356791973
 21
77.60196952539999
 31
0.0
  0
LINE
  5
42A
330
1F
100
AcDbEntity
  8
0
  6
Continuous
100
AcDbLine
 10
151.1356791973
 20
77.6309695254
 30
0.0
 11
151.1372159985999
 21
77.6371167307
 31
0.0
  0
LINE
  5
42B
330
1F
100
AcDbEntity
  8
0
  6
Continuous
100
AcDbLine
 10
151.1372159985999
 20
77.6371167307
 30
0.0
 11
151.1501791973
 21
77.6889695254
 31
0.0
  0
LINE
  5
42C
330
1F
100
AcDbEntity
  8
0
  6
Continuous
100
AcDbLine
 10
151.1197570922
 20
77.6585474204
 30
0.0
 11
151.1501791973
 21
77.6889695254
 31
0.0
  0
LINE
  5
42D
330
1F
100
AcDbEntity
  8
0
  6
Continuous
100
AcDbLine
 10
151.0921791972999
 20
77.6744695254
 30
0.0
 11
151.0983264026
 21
77.6760063268
 31
0.0
  0
LINE
  5
42E
330
1F
100
AcDbEntity
  8
0
  6
Continuous
100
AcDbLine
 10
151.0983264026
 20
77.6760063268
 30
0.0
 11
151.1031950133
 21
77.6772234794
 31
0.0
  0
LINE
  5
42F
330
1F
100
AcDbEntity
  8
0
  6
Continuous
100
AcDbLine
 10
151.1031950133
 20
77.6772234794
 30
0.0
 11
151.1501791973
 21
77.6889695254
 31
0.0
  0
LINE
  5
430
330
1F
100
AcDbEntity
  8
0
  6
Continuous
100
AcDbLine
 10
151.0631791973
 20
77.6744695254
 30
0.0
 11
151.0885668423999
 21
77.67870079959999
 31
0.0
  0
LINE
  5
431
330
1F
100
AcDbEntity
  8
0
  6
Continuous
100
AcDbLine
 10
151.0885668423999
 20
77.67870079959999
 30
0.0
 11
151.0974944694
 21
77.6801887375
 31
0.0
  0
LINE
  5
432
330
1F
100
AcDbEntity
  8
0
  6
Continuous
100
AcDbLine
 10
151.0974944694
 20
77.6801887375
 30
0.0
 11
151.107498803
 21
77.6818561264
 31
0.0
  0
LINE
  5
433
330
1F
100
AcDbEntity
  8
0
  6
Continuous
100
AcDbLine
 10
151.107498803
 20
77.6818561264
 30
0.0
 11
151.1501791973
 21
77.6889695254
 31
0.0
  0
LINE
  5
434
330
1F
100
AcDbEntity
  8
0
  6
Continuous
100
AcDbLine
 10
151.1356791973
 20
77.60196952539999
 30
0.0
 11
151.1413984093
 21
77.6362847975
 31
0.0
  0
LINE
  5
435
330
1F
100
AcDbEntity
  8
0
  6
Continuous
100
AcDbLine
 10
151.1413984093
 20
77.6362847975
 30
0.0
 11
151.1501791973
 21
77.6889695254
 31
0.0
  0
LINE
  5
436
330
1F
100
AcDbEntity
  8
0
  6
Continuous
100
AcDbLine
 10
151.0631791973
 20
77.70346952539999
 30
0.0
 11
151.0885668423999
 21
77.6992382513
 31
0.0
  0
LINE
  5
437
330
1F
100
AcDbEntity
  8
0
  6
Continuous
100
AcDbLine
 10
151.0885668423999
 20
77.6992382513
 30
0.0
 11
151.0974944694
 21
77.6977503134
 31
0.0
  0
LINE
  5
438
330
1F
100
AcDbEntity
  8
0
  6
Continuous
100
AcDbLine
 10
151.0974944694
 20
77.6977503134
 30
0.0
 11
151.107498803
 21
77.6960829245
 31
0.0
  0
LINE
  5
439
330
1F
100
AcDbEntity
  8
0
  6
Continuous
100
AcDbLine
 10
151.107498803
 20
77.6960829245
 30
0.0
 11
151.1501791973
 21
77.6889695254
 31
0.0
  0
LINE
  5
43A
330
1F
100
AcDbEntity
  8
0
  6
Continuous
100
AcDbLine
 10
151.1646791972999
 20
77.6309695254
 30
0.0
 11
151.1646791972999
 21
77.60196952539999
 31
0.0
  0
LINE
  5
43B
330
1F
100
AcDbEntity
  8
0
  6
Continuous
100
AcDbLine
 10
151.1646791972999
 20
77.60196952539999
 30
0.0
 11
151.1589599853
 21
77.6362847975
 31
0.0
  0
LINE
  5
43C
330
1F
100
AcDbEntity
  8
0
  6
Continuous
100
AcDbLine
 10
151.1589599853
 20
77.6362847975
 30
0.0
 11
151.1501791973
 21
77.6889695254
 31
0.0
  0
LINE
  5
43D
330
1F
100
AcDbEntity
  8
0
  6
Continuous
100
AcDbLine
 10
151.1646791972999
 20
77.6309695254
 30
0.0
 11
151.163142396
 21
77.6371167307
 31
0.0
  0
LINE
  5
43E
330
1F
100
AcDbEntity
  8
0
  6
Continuous
100
AcDbLine
 10
151.163142396
 20
77.6371167307
 30
0.0
 11
151.1501791973
 21
77.6889695254
 31
0.0
  0
LINE
  5
43F
330
1F
100
AcDbEntity
  8
0
  6
Continuous
100
AcDbLine
 10
151.1806013023999
 20
77.6585474204
 30
0.0
 11
151.1501791973
 21
77.6889695254
 31
0.0
  0
LINE
  5
440
330
1F
100
AcDbEntity
  8
0
  6
Continuous
100
AcDbLine
 10
151.2081791972999
 20
77.6744695254
 30
0.0
 11
151.2020319919999
 21
77.6760063268
 31
0.0
  0
LINE
  5
441
330
1F
100
AcDbEntity
  8
0
  6
Continuous
100
AcDbLine
 10
151.2020319919999
 20
77.6760063268
 30
0.0
 11
151.1971633812999
 21
77.6772234794
 31
0.0
  0
LINE
  5
442
330
1F
100
AcDbEntity
  8
0
  6
Continuous
100
AcDbLine
 10
151.1971633812999
 20
77.6772234794
 30
0.0
 11
151.1501791973
 21
77.6889695254
 31
0.0
  0
LINE
  5
443
330
1F
100
AcDbEntity
  8
0
  6
Continuous
100
AcDbLine
 10
151.2371791973
 20
77.6744695254
 30
0.0
 11
151.2117915521999
 21
77.67870079959999
 31
0.0
  0
LINE
  5
444
330
1F
100
AcDbEntity
  8
0
  6
Continuous
100
AcDbLine
 10
151.2117915521999
 20
77.67870079959999
 30
0.0
 11
151.2028639252
 21
77.6801887375
 31
0.0
  0
LINE
  5
445
330
1F
100
AcDbEntity
  8
0
  6
Continuous
100
AcDbLine
 10
151.2028639252
 20
77.6801887375
 30
0.0
 11
151.1928595916
 21
77.6818561264
 31
0.0
  0
LINE
  5
446
330
1F
100
AcDbEntity
  8
0
  6
Continuous
100
AcDbLine
 10
151.1928595916
 20
77.6818561264
 30
0.0
 11
151.1501791973
 21
77.6889695254
 31
0.0
  0
LINE
  5
447
330
1F
100
AcDbEntity
  8
0
  6
Continuous
100
AcDbLine
 10
151.2371791973
 20
77.70346952539999
 30
0.0
 11
151.2117915521999
 21
77.6992382513
 31
0.0
  0
LINE
  5
448
330
1F
100
AcDbEntity
  8
0
  6
Continuous
100
AcDbLine
 10
151.2117915521999
 20
77.6992382513
 30
0.0
 11
151.2028639252
 21
77.6977503134
 31
0.0
  0
LINE
  5
449
330
1F
100
AcDbEntity
  8
0
  6
Continuous
100
AcDbLine
 10
151.2028639252
 20
77.6977503134
 30
0.0
 11
151.1928595916
 21
77.6960829245
 31
0.0
  0
LINE
  5
44A
330
1F
100
AcDbEntity
  8
0
  6
Continuous
100
AcDbLine
 10
151.1928595916
 20
77.6960829245
 30
0.0
 11
151.1501791973
 21
77.6889695254
 31
0.0
  0
LINE
  5
44B
330
1F
100
AcDbEntity
  8
0
  6
Continuous
100
AcDbLine
 10
151.2081791972999
 20
77.70346952539999
 30
0.0
 11
151.2020319919999
 21
77.70193272410001
 31
0.0
  0
LINE
  5
44C
330
1F
100
AcDbEntity
  8
0
  6
Continuous
100
AcDbLine
 10
151.2020319919999
 20
77.70193272410001
 30
0.0
 11
151.1971633812999
 21
77.70071557139999
 31
0.0
  0
LINE
  5
44D
330
1F
100
AcDbEntity
  8
0
  6
Continuous
100
AcDbLine
 10
151.1971633812999
 20
77.70071557139999
 30
0.0
 11
151.1501791973
 21
77.6889695254
 31
0.0
  0
LINE
  5
44E
330
1F
100
AcDbEntity
  8
0
  6
Continuous
100
AcDbLine
 10
151.1806013023999
 20
77.71939163049999
 30
0.0
 11
151.1501791973
 21
77.6889695254
 31
0.0
  0
LINE
  5
44F
330
1F
100
AcDbEntity
  8
0
  6
Continuous
100
AcDbLine
 10
151.1646791972999
 20
77.74696952540001
 30
0.0
 11
151.163142396
 21
77.74082232010001
 31
0.0
  0
LINE
  5
450
330
1F
100
AcDbEntity
  8
0
  6
Continuous
100
AcDbLine
 10
151.163142396
 20
77.74082232010001
 30
0.0
 11
151.1501791973
 21
77.6889695254
 31
0.0
  0
LINE
  5
451
330
1F
100
AcDbEntity
  8
0
  6
Continuous
100
AcDbLine
 10
151.1646791972999
 20
77.7759695254
 30
0.0
 11
151.1589599853
 21
77.7416542534
 31
0.0
  0
LINE
  5
452
330
1F
100
AcDbEntity
  8
0
  6
Continuous
100
AcDbLine
 10
151.1589599853
 20
77.7416542534
 30
0.0
 11
151.1501791973
 21
77.6889695254
 31
0.0
  0
LINE
  5
453
330
1F
100
AcDbEntity
  8
0
  6
Continuous
100
AcDbLine
 10
151.1356791973
 20
77.7759695254
 30
0.0
 11
151.1413984093
 21
77.7416542534
 31
0.0
  0
LINE
  5
454
330
1F
100
AcDbEntity
  8
0
  6
Continuous
100
AcDbLine
 10
151.1413984093
 20
77.7416542534
 30
0.0
 11
151.1501791973
 21
77.6889695254
 31
0.0
  0
LINE
  5
455
330
1F
100
AcDbEntity
  8
0
  6
Continuous
100
AcDbLine
 10
151.1356791973
 20
77.74696952540001
 30
0.0
 11
151.1372159985999
 21
77.74082232010001
 31
0.0
  0
LINE
  5
456
330
1F
100
AcDbEntity
  8
0
  6
Continuous
100
AcDbLine
 10
151.1372159985999
 20
77.74082232010001
 30
0.0
 11
151.1501791973
 21
77.6889695254
 31
0.0
  0
LINE
  5
457
330
1F
100
AcDbEntity
  8
0
  6
Continuous
100
AcDbLine
 10
151.1197570922
 20
77.71939163049999
 30
0.0
 11
151.1501791973
 21
77.6889695254
 31
0.0
  0
LINE
  5
458
330
1F
100
AcDbEntity
  8
0
  6
Continuous
100
AcDbLine
 10
151.0921791972999
 20
77.70346952539999
 30
0.0
 11
151.0983264026
 21
77.70193272410001
 31
0.0
  0
LINE
  5
459
330
1F
100
AcDbEntity
  8
0
  6
Continuous
100
AcDbLine
 10
151.0983264026
 20
77.70193272410001
 30
0.0
 11
151.1031950133
 21
77.70071557139999
 31
0.0
  0
LINE
  5
45A
330
1F
100
AcDbEntity
  8
0
  6
Continuous
100
AcDbLine
 10
151.1031950133
 20
77.70071557139999
 30
0.0
 11
151.1501791973
 21
77.6889695254
 31
0.0
  0
ARC
  5
45B
330
1F
100
AcDbEntity
  8
0
  6
Continuous
100
AcDbCircle
 10
149.8401791972999
 20
75.9564695254
 30
0.0
 40
0.1395
100
AcDbArc
 50
90.0
 51
270.0
  0
ARC
  5
45C
330
1F
100
AcDbEntity
  8
0
  6
Continuous
100
AcDbCircle
 10
149.8401791972999
 20
75.9564695254
 30
0.0
 40
0.1395
100
AcDbArc
 50
270.0
 51
90.0
  0
LINE
  5
45D
330
1F
100
AcDbEntity
  8
0
  6
Continuous
100
AcDbLine
 10
149.8706013023999
 20
75.92604742039999
 30
0.0
 11
149.8546791973
 21
75.8984695254
 31
0.0
  0
LINE
  5
45E
330
1F
100
AcDbEntity
  8
0
  6
Continuous
100
AcDbLine
 10
149.8981791972999
 20
75.94196952539999
 30
0.0
 11
149.8706013023999
 21
75.92604742039999
 31
0.0
  0
LINE
  5
45F
330
1F
100
AcDbEntity
  8
0
  6
Continuous
100
AcDbLine
 10
149.9271791973
 20
75.94196952539999
 30
0.0
 11
149.8981791972999
 21
75.94196952539999
 31
0.0
  0
LINE
  5
460
330
1F
100
AcDbEntity
  8
0
  6
Continuous
100
AcDbLine
 10
149.9271791973
 20
75.97096952539999
 30
0.0
 11
149.9271791973
 21
75.94196952539999
 31
0.0
  0
LINE
  5
461
330
1F
100
AcDbEntity
  8
0
  6
Continuous
100
AcDbLine
 10
149.8981791972999
 20
75.97096952539999
 30
0.0
 11
149.9271791973
 21
75.97096952539999
 31
0.0
  0
LINE
  5
462
330
1F
100
AcDbEntity
  8
0
  6
Continuous
100
AcDbLine
 10
149.8706013023999
 20
75.9868916305
 30
0.0
 11
149.8981791972999
 21
75.97096952539999
 31
0.0
  0
LINE
  5
463
330
1F
100
AcDbEntity
  8
0
  6
Continuous
100
AcDbLine
 10
149.8546791973
 20
76.0144695254
 30
0.0
 11
149.8706013023999
 21
75.9868916305
 31
0.0
  0
LINE
  5
464
330
1F
100
AcDbEntity
  8
0
  6
Continuous
100
AcDbLine
 10
149.8546791973
 20
76.0434695254
 30
0.0
 11
149.8546791973
 21
76.0144695254
 31
0.0
  0
LINE
  5
465
330
1F
100
AcDbEntity
  8
0
  6
Continuous
100
AcDbLine
 10
149.8256791972999
 20
76.0434695254
 30
0.0
 11
149.8546791973
 21
76.0434695254
 31
0.0
  0
LINE
  5
466
330
1F
100
AcDbEntity
  8
0
  6
Continuous
100
AcDbLine
 10
149.8256791972999
 20
76.0144695254
 30
0.0
 11
149.8256791972999
 21
76.0434695254
 31
0.0
  0
LINE
  5
467
330
1F
100
AcDbEntity
  8
0
  6
Continuous
100
AcDbLine
 10
149.8097570921999
 20
75.9868916305
 30
0.0
 11
149.8256791972999
 21
76.0144695254
 31
0.0
  0
LINE
  5
468
330
1F
100
AcDbEntity
  8
0
  6
Continuous
100
AcDbLine
 10
149.7821791972999
 20
75.97096952539999
 30
0.0
 11
149.8097570921999
 21
75.9868916305
 31
0.0
  0
LINE
  5
469
330
1F
100
AcDbEntity
  8
0
  6
Continuous
100
AcDbLine
 10
149.7531791973
 20
75.97096952539999
 30
0.0
 11
149.7821791972999
 21
75.97096952539999
 31
0.0
  0
LINE
  5
46A
330
1F
100
AcDbEntity
  8
0
  6
Continuous
100
AcDbLine
 10
149.7531791973
 20
75.94196952539999
 30
0.0
 11
149.7531791973
 21
75.97096952539999
 31
0.0
  0
LINE
  5
46B
330
1F
100
AcDbEntity
  8
0
  6
Continuous
100
AcDbLine
 10
149.7821791972999
 20
75.94196952539999
 30
0.0
 11
149.7531791973
 21
75.94196952539999
 31
0.0
  0
LINE
  5
46C
330
1F
100
AcDbEntity
  8
0
  6
Continuous
100
AcDbLine
 10
149.8097570921999
 20
75.92604742039999
 30
0.0
 11
149.7821791972999
 21
75.94196952539999
 31
0.0
  0
LINE
  5
46D
330
1F
100
AcDbEntity
  8
0
  6
Continuous
100
AcDbLine
 10
149.8256791972999
 20
75.8984695254
 30
0.0
 11
149.8097570921999
 21
75.92604742039999
 31
0.0
  0
LINE
  5
46E
330
1F
100
AcDbEntity
  8
0
  6
Continuous
100
AcDbLine
 10
149.8256791972999
 20
75.8694695254
 30
0.0
 11
149.8256791972999
 21
75.8984695254
 31
0.0
  0
LINE
  5
46F
330
1F
100
AcDbEntity
  8
0
  6
Continuous
100
AcDbLine
 10
149.8546791973
 20
75.8694695254
 30
0.0
 11
149.8256791972999
 21
75.8694695254
 31
0.0
  0
LINE
  5
470
330
1F
100
AcDbEntity
  8
0
  6
Continuous
100
AcDbLine
 10
149.8256791972999
 20
75.8984695254
 30
0.0
 11
149.8272159986
 21
75.9046167307
 31
0.0
  0
LINE
  5
471
330
1F
100
AcDbEntity
  8
0
  6
Continuous
100
AcDbLine
 10
149.8272159986
 20
75.9046167307
 30
0.0
 11
149.8401791972999
 21
75.9564695254
 31
0.0
  0
LINE
  5
472
330
1F
100
AcDbEntity
  8
0
  6
Continuous
100
AcDbLine
 10
149.8097570921999
 20
75.92604742039999
 30
0.0
 11
149.8401791972999
 21
75.9564695254
 31
0.0
  0
LINE
  5
473
330
1F
100
AcDbEntity
  8
0
  6
Continuous
100
AcDbLine
 10
149.7821791972999
 20
75.94196952539999
 30
0.0
 11
149.7883264026
 21
75.94350632680001
 31
0.0
  0
LINE
  5
474
330
1F
100
AcDbEntity
  8
0
  6
Continuous
100
AcDbLine
 10
149.7883264026
 20
75.94350632680001
 30
0.0
 11
149.7931950133
 21
75.9447234794
 31
0.0
  0
LINE
  5
475
330
1F
100
AcDbEntity
  8
0
  6
Continuous
100
AcDbLine
 10
149.7931950133
 20
75.9447234794
 30
0.0
 11
149.8401791972999
 21
75.9564695254
 31
0.0
  0
LINE
  5
476
330
1F
100
AcDbEntity
  8
0
  6
Continuous
100
AcDbLine
 10
149.7531791973
 20
75.94196952539999
 30
0.0
 11
149.7785668424
 21
75.94620079960001
 31
0.0
  0
LINE
  5
477
330
1F
100
AcDbEntity
  8
0
  6
Continuous
100
AcDbLine
 10
149.7785668424
 20
75.94620079960001
 30
0.0
 11
149.7874944694
 21
75.9476887375
 31
0.0
  0
LINE
  5
478
330
1F
100
AcDbEntity
  8
0
  6
Continuous
100
AcDbLine
 10
149.7874944694
 20
75.9476887375
 30
0.0
 11
149.7974988029999
 21
75.9493561264
 31
0.0
  0
LINE
  5
479
330
1F
100
AcDbEntity
  8
0
  6
Continuous
100
AcDbLine
 10
149.7974988029999
 20
75.9493561264
 30
0.0
 11
149.8401791972999
 21
75.9564695254
 31
0.0
  0
LINE
  5
47A
330
1F
100
AcDbEntity
  8
0
  6
Continuous
100
AcDbLine
 10
149.8256791972999
 20
75.8694695254
 30
0.0
 11
149.8313984092999
 21
75.9037847975
 31
0.0
  0
LINE
  5
47B
330
1F
100
AcDbEntity
  8
0
  6
Continuous
100
AcDbLine
 10
149.8313984092999
 20
75.9037847975
 30
0.0
 11
149.8401791972999
 21
75.9564695254
 31
0.0
  0
LINE
  5
47C
330
1F
100
AcDbEntity
  8
0
  6
Continuous
100
AcDbLine
 10
149.7531791973
 20
75.97096952539999
 30
0.0
 11
149.7785668424
 21
75.9667382513
 31
0.0
  0
LINE
  5
47D
330
1F
100
AcDbEntity
  8
0
  6
Continuous
100
AcDbLine
 10
149.7785668424
 20
75.9667382513
 30
0.0
 11
149.7874944694
 21
75.9652503134
 31
0.0
  0
LINE
  5
47E
330
1F
100
AcDbEntity
  8
0
  6
Continuous
100
AcDbLine
 10
149.7874944694
 20
75.9652503134
 30
0.0
 11
149.7974988029999
 21
75.9635829245
 31
0.0
  0
LINE
  5
47F
330
1F
100
AcDbEntity
  8
0
  6
Continuous
100
AcDbLine
 10
149.7974988029999
 20
75.9635829245
 30
0.0
 11
149.8401791972999
 21
75.9564695254
 31
0.0
  0
LINE
  5
480
330
1F
100
AcDbEntity
  8
0
  6
Continuous
100
AcDbLine
 10
149.8546791973
 20
75.8984695254
 30
0.0
 11
149.8546791973
 21
75.8694695254
 31
0.0
  0
LINE
  5
481
330
1F
100
AcDbEntity
  8
0
  6
Continuous
100
AcDbLine
 10
149.8546791973
 20
75.8694695254
 30
0.0
 11
149.8489599853
 21
75.9037847975
 31
0.0
  0
LINE
  5
482
330
1F
100
AcDbEntity
  8
0
  6
Continuous
100
AcDbLine
 10
149.8489599853
 20
75.9037847975
 30
0.0
 11
149.8401791972999
 21
75.9564695254
 31
0.0
  0
LINE
  5
483
330
1F
100
AcDbEntity
  8
0
  6
Continuous
100
AcDbLine
 10
149.8546791973
 20
75.8984695254
 30
0.0
 11
149.853142396
 21
75.9046167307
 31
0.0
  0
LINE
  5
484
330
1F
100
AcDbEntity
  8
0
  6
Continuous
100
AcDbLine
 10
149.853142396
 20
75.9046167307
 30
0.0
 11
149.8401791972999
 21
75.9564695254
 31
0.0
  0
LINE
  5
485
330
1F
100
AcDbEntity
  8
0
  6
Continuous
100
AcDbLine
 10
149.8706013023999
 20
75.92604742039999
 30
0.0
 11
149.8401791972999
 21
75.9564695254
 31
0.0
  0
LINE
  5
486
330
1F
100
AcDbEntity
  8
0
  6
Continuous
100
AcDbLine
 10
149.8981791972999
 20
75.94196952539999
 30
0.0
 11
149.892031992
 21
75.94350632680001
 31
0.0
  0
LINE
  5
487
330
1F
100
AcDbEntity
  8
0
  6
Continuous
100
AcDbLine
 10
149.892031992
 20
75.94350632680001
 30
0.0
 11
149.8871633812999
 21
75.9447234794
 31
0.0
  0
LINE
  5
488
330
1F
100
AcDbEntity
  8
0
  6
Continuous
100
AcDbLine
 10
149.8871633812999
 20
75.9447234794
 30
0.0
 11
149.8401791972999
 21
75.9564695254
 31
0.0
  0
LINE
  5
489
330
1F
100
AcDbEntity
  8
0
  6
Continuous
100
AcDbLine
 10
149.9271791973
 20
75.94196952539999
 30
0.0
 11
149.9017915521999
 21
75.94620079960001
 31
0.0
  0
LINE
  5
48A
330
1F
100
AcDbEntity
  8
0
  6
Continuous
100
AcDbLine
 10
149.9017915521999
 20
75.94620079960001
 30
0.0
 11
149.8928639252
 21
75.9476887375
 31
0.0
  0
LINE
  5
48B
330
1F
100
AcDbEntity
  8
0
  6
Continuous
100
AcDbLine
 10
149.8928639252
 20
75.9476887375
 30
0.0
 11
149.8828595916
 21
75.9493561264
 31
0.0
  0
LINE
  5
48C
330
1F
100
AcDbEntity
  8
0
  6
Continuous
100
AcDbLine
 10
149.8828595916
 20
75.9493561264
 30
0.0
 11
149.8401791972999
 21
75.9564695254
 31
0.0
  0
LINE
  5
48D
330
1F
100
AcDbEntity
  8
0
  6
Continuous
100
AcDbLine
 10
149.9271791973
 20
75.97096952539999
 30
0.0
 11
149.9017915521999
 21
75.9667382513
 31
0.0
  0
LINE
  5
48E
330
1F
100
AcDbEntity
  8
0
  6
Continuous
100
AcDbLine
 10
149.9017915521999
 20
75.9667382513
 30
0.0
 11
149.8928639252
 21
75.9652503134
 31
0.0
  0
LINE
  5
48F
330
1F
100
AcDbEntity
  8
0
  6
Continuous
100
AcDbLine
 10
149.8928639252
 20
75.9652503134
 30
0.0
 11
149.8828595916
 21
75.9635829245
 31
0.0
  0
LINE
  5
490
330
1F
100
AcDbEntity
  8
0
  6
Continuous
100
AcDbLine
 10
149.8828595916
 20
75.9635829245
 30
0.0
 11
149.8401791972999
 21
75.9564695254
 31
0.0
  0
LINE
  5
491
330
1F
100
AcDbEntity
  8
0
  6
Continuous
100
AcDbLine
 10
149.8981791972999
 20
75.97096952539999
 30
0.0
 11
149.892031992
 21
75.9694327241
 31
0.0
  0
LINE
  5
492
330
1F
100
AcDbEntity
  8
0
  6
Continuous
100
AcDbLine
 10
149.892031992
 20
75.9694327241
 30
0.0
 11
149.8871633812999
 21
75.96821557140001
 31
0.0
  0
LINE
  5
493
330
1F
100
AcDbEntity
  8
0
  6
Continuous
100
AcDbLine
 10
149.8871633812999
 20
75.96821557140001
 30
0.0
 11
149.8401791972999
 21
75.9564695254
 31
0.0
  0
LINE
  5
494
330
1F
100
AcDbEntity
  8
0
  6
Continuous
100
AcDbLine
 10
149.8706013023999
 20
75.9868916305
 30
0.0
 11
149.8401791972999
 21
75.9564695254
 31
0.0
  0
LINE
  5
495
330
1F
100
AcDbEntity
  8
0
  6
Continuous
100
AcDbLine
 10
149.8546791973
 20
76.0144695254
 30
0.0
 11
149.853142396
 21
76.00832232010001
 31
0.0
  0
LINE
  5
496
330
1F
100
AcDbEntity
  8
0
  6
Continuous
100
AcDbLine
 10
149.853142396
 20
76.00832232010001
 30
0.0
 11
149.8401791972999
 21
75.9564695254
 31
0.0
  0
LINE
  5
497
330
1F
100
AcDbEntity
  8
0
  6
Continuous
100
AcDbLine
 10
149.8546791973
 20
76.0434695254
 30
0.0
 11
149.8489599853
 21
76.0091542534
 31
0.0
  0
LINE
  5
498
330
1F
100
AcDbEntity
  8
0
  6
Continuous
100
AcDbLine
 10
149.8489599853
 20
76.0091542534
 30
0.0
 11
149.8401791972999
 21
75.9564695254
 31
0.0
  0
LINE
  5
499
330
1F
100
AcDbEntity
  8
0
  6
Continuous
100
AcDbLine
 10
149.8256791972999
 20
76.0434695254
 30
0.0
 11
149.8313984092999
 21
76.0091542534
 31
0.0
  0
LINE
  5
49A
330
1F
100
AcDbEntity
  8
0
  6
Continuous
100
AcDbLine
 10
149.8313984092999
 20
76.0091542534
 30
0.0
 11
149.8401791972999
 21
75.9564695254
 31
0.0
  0
LINE
  5
49B
330
1F
100
AcDbEntity
  8
0
  6
Continuous
100
AcDbLine
 10
149.8256791972999
 20
76.0144695254
 30
0.0
 11
149.8272159986
 21
76.00832232010001
 31
0.0
  0
LINE
  5
49C
330
1F
100
AcDbEntity
  8
0
  6
Continuous
100
AcDbLine
 10
149.8272159986
 20
76.00832232010001
 30
0.0
 11
149.8401791972999
 21
75.9564695254
 31
0.0
  0
LINE
  5
49D
330
1F
100
AcDbEntity
  8
0
  6
Continuous
100
AcDbLine
 10
149.8097570921999
 20
75.9868916305
 30
0.0
 11
149.8401791972999
 21
75.9564695254
 31
0.0
  0
LINE
  5
49E
330
1F
100
AcDbEntity
  8
0
  6
Continuous
100
AcDbLine
 10
149.7821791972999
 20
75.97096952539999
 30
0.0
 11
149.7883264026
 21
75.9694327241
 31
0.0
  0
LINE
  5
49F
330
1F
100
AcDbEntity
  8
0
  6
Continuous
100
AcDbLine
 10
149.7883264026
 20
75.9694327241
 30
0.0
 11
149.7931950133
 21
75.96821557140001
 31
0.0
  0
LINE
  5
4A0
330
1F
100
AcDbEntity
  8
0
  6
Continuous
100
AcDbLine
 10
149.7931950133
 20
75.96821557140001
 30
0.0
 11
149.8401791972999
 21
75.9564695254
 31
0.0
  0
ARC
  5
4A1
330
1F
100
AcDbEntity
  8
0
  6
Continuous
100
AcDbCircle
 10
149.8401791972999
 20
72.7964695254
 30
0.0
 40
0.1395
100
AcDbArc
 50
90.0
 51
270.0
  0
ARC
  5
4A2
330
1F
100
AcDbEntity
  8
0
  6
Continuous
100
AcDbCircle
 10
149.8401791972999
 20
72.7964695254
 30
0.0
 40
0.1395
100
AcDbArc
 50
270.0
 51
90.0
  0
LINE
  5
4A3
330
1F
100
AcDbEntity
  8
0
  6
Continuous
100
AcDbLine
 10
149.8706013023999
 20
72.76604742039999
 30
0.0
 11
149.8546791973
 21
72.73846952540001
 31
0.0
  0
LINE
  5
4A4
330
1F
100
AcDbEntity
  8
0
  6
Continuous
100
AcDbLine
 10
149.8981791972999
 20
72.7819695254
 30
0.0
 11
149.8706013023999
 21
72.76604742039999
 31
0.0
  0
LINE
  5
4A5
330
1F
100
AcDbEntity
  8
0
  6
Continuous
100
AcDbLine
 10
149.9271791973
 20
72.7819695254
 30
0.0
 11
149.8981791972999
 21
72.7819695254
 31
0.0
  0
LINE
  5
4A6
330
1F
100
AcDbEntity
  8
0
  6
Continuous
100
AcDbLine
 10
149.9271791973
 20
72.8109695254
 30
0.0
 11
149.9271791973
 21
72.7819695254
 31
0.0
  0
LINE
  5
4A7
330
1F
100
AcDbEntity
  8
0
  6
Continuous
100
AcDbLine
 10
149.8981791972999
 20
72.8109695254
 30
0.0
 11
149.9271791973
 21
72.8109695254
 31
0.0
  0
LINE
  5
4A8
330
1F
100
AcDbEntity
  8
0
  6
Continuous
100
AcDbLine
 10
149.8706013023999
 20
72.8268916305
 30
0.0
 11
149.8981791972999
 21
72.8109695254
 31
0.0
  0
LINE
  5
4A9
330
1F
100
AcDbEntity
  8
0
  6
Continuous
100
AcDbLine
 10
149.8546791973
 20
72.8544695254
 30
0.0
 11
149.8706013023999
 21
72.8268916305
 31
0.0
  0
LINE
  5
4AA
330
1F
100
AcDbEntity
  8
0
  6
Continuous
100
AcDbLine
 10
149.8546791973
 20
72.8834695254
 30
0.0
 11
149.8546791973
 21
72.8544695254
 31
0.0
  0
LINE
  5
4AB
330
1F
100
AcDbEntity
  8
0
  6
Continuous
100
AcDbLine
 10
149.8256791972999
 20
72.8834695254
 30
0.0
 11
149.8546791973
 21
72.8834695254
 31
0.0
  0
LINE
  5
4AC
330
1F
100
AcDbEntity
  8
0
  6
Continuous
100
AcDbLine
 10
149.8256791972999
 20
72.8544695254
 30
0.0
 11
149.8256791972999
 21
72.8834695254
 31
0.0
  0
LINE
  5
4AD
330
1F
100
AcDbEntity
  8
0
  6
Continuous
100
AcDbLine
 10
149.8097570921999
 20
72.8268916305
 30
0.0
 11
149.8256791972999
 21
72.8544695254
 31
0.0
  0
LINE
  5
4AE
330
1F
100
AcDbEntity
  8
0
  6
Continuous
100
AcDbLine
 10
149.7821791972999
 20
72.8109695254
 30
0.0
 11
149.8097570921999
 21
72.8268916305
 31
0.0
  0
LINE
  5
4AF
330
1F
100
AcDbEntity
  8
0
  6
Continuous
100
AcDbLine
 10
149.7531791973
 20
72.8109695254
 30
0.0
 11
149.7821791972999
 21
72.8109695254
 31
0.0
  0
LINE
  5
4B0
330
1F
100
AcDbEntity
  8
0
  6
Continuous
100
AcDbLine
 10
149.7531791973
 20
72.7819695254
 30
0.0
 11
149.7531791973
 21
72.8109695254
 31
0.0
  0
LINE
  5
4B1
330
1F
100
AcDbEntity
  8
0
  6
Continuous
100
AcDbLine
 10
149.7821791972999
 20
72.7819695254
 30
0.0
 11
149.7531791973
 21
72.7819695254
 31
0.0
  0
LINE
  5
4B2
330
1F
100
AcDbEntity
  8
0
  6
Continuous
100
AcDbLine
 10
149.8097570921999
 20
72.76604742039999
 30
0.0
 11
149.7821791972999
 21
72.7819695254
 31
0.0
  0
LINE
  5
4B3
330
1F
100
AcDbEntity
  8
0
  6
Continuous
100
AcDbLine
 10
149.8256791972999
 20
72.73846952540001
 30
0.0
 11
149.8097570921999
 21
72.76604742039999
 31
0.0
  0
LINE
  5
4B4
330
1F
100
AcDbEntity
  8
0
  6
Continuous
100
AcDbLine
 10
149.8256791972999
 20
72.7094695254
 30
0.0
 11
149.8256791972999
 21
72.73846952540001
 31
0.0
  0
LINE
  5
4B5
330
1F
100
AcDbEntity
  8
0
  6
Continuous
100
AcDbLine
 10
149.8546791973
 20
72.7094695254
 30
0.0
 11
149.8256791972999
 21
72.7094695254
 31
0.0
  0
LINE
  5
4B6
330
1F
100
AcDbEntity
  8
0
  6
Continuous
100
AcDbLine
 10
149.8256791972999
 20
72.73846952540001
 30
0.0
 11
149.8272159986
 21
72.7446167307
 31
0.0
  0
LINE
  5
4B7
330
1F
100
AcDbEntity
  8
0
  6
Continuous
100
AcDbLine
 10
149.8272159986
 20
72.7446167307
 30
0.0
 11
149.8401791972999
 21
72.7964695254
 31
0.0
  0
LINE
  5
4B8
330
1F
100
AcDbEntity
  8
0
  6
Continuous
100
AcDbLine
 10
149.8097570921999
 20
72.76604742039999
 30
0.0
 11
149.8401791972999
 21
72.7964695254
 31
0.0
  0
LINE
  5
4B9
330
1F
100
AcDbEntity
  8
0
  6
Continuous
100
AcDbLine
 10
149.7821791972999
 20
72.7819695254
 30
0.0
 11
149.7883264026
 21
72.78350632680001
 31
0.0
  0
LINE
  5
4BA
330
1F
100
AcDbEntity
  8
0
  6
Continuous
100
AcDbLine
 10
149.7883264026
 20
72.78350632680001
 30
0.0
 11
149.7931950133
 21
72.7847234794
 31
0.0
  0
LINE
  5
4BB
330
1F
100
AcDbEntity
  8
0
  6
Continuous
100
AcDbLine
 10
149.7931950133
 20
72.7847234794
 30
0.0
 11
149.8401791972999
 21
72.7964695254
 31
0.0
  0
LINE
  5
4BC
330
1F
100
AcDbEntity
  8
0
  6
Continuous
100
AcDbLine
 10
149.7531791973
 20
72.7819695254
 30
0.0
 11
149.7785668424
 21
72.78620079959999
 31
0.0
  0
LINE
  5
4BD
330
1F
100
AcDbEntity
  8
0
  6
Continuous
100
AcDbLine
 10
149.7785668424
 20
72.78620079959999
 30
0.0
 11
149.7874944694
 21
72.7876887375
 31
0.0
  0
LINE
  5
4BE
330
1F
100
AcDbEntity
  8
0
  6
Continuous
100
AcDbLine
 10
149.7874944694
 20
72.7876887375
 30
0.0
 11
149.7974988029999
 21
72.78935612640001
 31
0.0
  0
LINE
  5
4BF
330
1F
100
AcDbEntity
  8
0
  6
Continuous
100
AcDbLine
 10
149.7974988029999
 20
72.78935612640001
 30
0.0
 11
149.8401791972999
 21
72.7964695254
 31
0.0
  0
LINE
  5
4C0
330
1F
100
AcDbEntity
  8
0
  6
Continuous
100
AcDbLine
 10
149.8256791972999
 20
72.7094695254
 30
0.0
 11
149.8313984092999
 21
72.7437847975
 31
0.0
  0
LINE
  5
4C1
330
1F
100
AcDbEntity
  8
0
  6
Continuous
100
AcDbLine
 10
149.8313984092999
 20
72.7437847975
 30
0.0
 11
149.8401791972999
 21
72.7964695254
 31
0.0
  0
LINE
  5
4C2
330
1F
100
AcDbEntity
  8
0
  6
Continuous
100
AcDbLine
 10
149.7531791973
 20
72.8109695254
 30
0.0
 11
149.7785668424
 21
72.8067382513
 31
0.0
  0
LINE
  5
4C3
330
1F
100
AcDbEntity
  8
0
  6
Continuous
100
AcDbLine
 10
149.7785668424
 20
72.8067382513
 30
0.0
 11
149.7874944694
 21
72.80525031339999
 31
0.0
  0
LINE
  5
4C4
330
1F
100
AcDbEntity
  8
0
  6
Continuous
100
AcDbLine
 10
149.7874944694
 20
72.80525031339999
 30
0.0
 11
149.7974988029999
 21
72.80358292449999
 31
0.0
  0
LINE
  5
4C5
330
1F
100
AcDbEntity
  8
0
  6
Continuous
100
AcDbLine
 10
149.7974988029999
 20
72.80358292449999
 30
0.0
 11
149.8401791972999
 21
72.7964695254
 31
0.0
  0
LINE
  5
4C6
330
1F
100
AcDbEntity
  8
0
  6
Continuous
100
AcDbLine
 10
149.8546791973
 20
72.73846952540001
 30
0.0
 11
149.8546791973
 21
72.7094695254
 31
0.0
  0
LINE
  5
4C7
330
1F
100
AcDbEntity
  8
0
  6
Continuous
100
AcDbLine
 10
149.8546791973
 20
72.7094695254
 30
0.0
 11
149.8489599853
 21
72.7437847975
 31
0.0
  0
LINE
  5
4C8
330
1F
100
AcDbEntity
  8
0
  6
Continuous
100
AcDbLine
 10
149.8489599853
 20
72.7437847975
 30
0.0
 11
149.8401791972999
 21
72.7964695254
 31
0.0
  0
LINE
  5
4C9
330
1F
100
AcDbEntity
  8
0
  6
Continuous
100
AcDbLine
 10
149.8546791973
 20
72.73846952540001
 30
0.0
 11
149.853142396
 21
72.7446167307
 31
0.0
  0
LINE
  5
4CA
330
1F
100
AcDbEntity
  8
0
  6
Continuous
100
AcDbLine
 10
149.853142396
 20
72.7446167307
 30
0.0
 11
149.8401791972999
 21
72.7964695254
 31
0.0
  0
LINE
  5
4CB
330
1F
100
AcDbEntity
  8
0
  6
Continuous
100
AcDbLine
 10
149.8706013023999
 20
72.76604742039999
 30
0.0
 11
149.8401791972999
 21
72.7964695254
 31
0.0
  0
LINE
  5
4CC
330
1F
100
AcDbEntity
  8
0
  6
Continuous
100
AcDbLine
 10
149.8981791972999
 20
72.7819695254
 30
0.0
 11
149.892031992
 21
72.78350632680001
 31
0.0
  0
LINE
  5
4CD
330
1F
100
AcDbEntity
  8
0
  6
Continuous
100
AcDbLine
 10
149.892031992
 20
72.78350632680001
 30
0.0
 11
149.8871633812999
 21
72.7847234794
 31
0.0
  0
LINE
  5
4CE
330
1F
100
AcDbEntity
  8
0
  6
Continuous
100
AcDbLine
 10
149.8871633812999
 20
72.7847234794
 30
0.0
 11
149.8401791972999
 21
72.7964695254
 31
0.0
  0
LINE
  5
4CF
330
1F
100
AcDbEntity
  8
0
  6
Continuous
100
AcDbLine
 10
149.9271791973
 20
72.7819695254
 30
0.0
 11
149.9017915521999
 21
72.78620079959999
 31
0.0
  0
LINE
  5
4D0
330
1F
100
AcDbEntity
  8
0
  6
Continuous
100
AcDbLine
 10
149.9017915521999
 20
72.78620079959999
 30
0.0
 11
149.8928639252
 21
72.7876887375
 31
0.0
  0
LINE
  5
4D1
330
1F
100
AcDbEntity
  8
0
  6
Continuous
100
AcDbLine
 10
149.8928639252
 20
72.7876887375
 30
0.0
 11
149.8828595916
 21
72.78935612640001
 31
0.0
  0
LINE
  5
4D2
330
1F
100
AcDbEntity
  8
0
  6
Continuous
100
AcDbLine
 10
149.8828595916
 20
72.78935612640001
 30
0.0
 11
149.8401791972999
 21
72.7964695254
 31
0.0
  0
LINE
  5
4D3
330
1F
100
AcDbEntity
  8
0
  6
Continuous
100
AcDbLine
 10
149.9271791973
 20
72.8109695254
 30
0.0
 11
149.9017915521999
 21
72.8067382513
 31
0.0
  0
LINE
  5
4D4
330
1F
100
AcDbEntity
  8
0
  6
Continuous
100
AcDbLine
 10
149.9017915521999
 20
72.8067382513
 30
0.0
 11
149.8928639252
 21
72.80525031339999
 31
0.0
  0
LINE
  5
4D5
330
1F
100
AcDbEntity
  8
0
  6
Continuous
100
AcDbLine
 10
149.8928639252
 20
72.80525031339999
 30
0.0
 11
149.8828595916
 21
72.80358292449999
 31
0.0
  0
LINE
  5
4D6
330
1F
100
AcDbEntity
  8
0
  6
Continuous
100
AcDbLine
 10
149.8828595916
 20
72.80358292449999
 30
0.0
 11
149.8401791972999
 21
72.7964695254
 31
0.0
  0
LINE
  5
4D7
330
1F
100
AcDbEntity
  8
0
  6
Continuous
100
AcDbLine
 10
149.8981791972999
 20
72.8109695254
 30
0.0
 11
149.892031992
 21
72.80943272409999
 31
0.0
  0
LINE
  5
4D8
330
1F
100
AcDbEntity
  8
0
  6
Continuous
100
AcDbLine
 10
149.892031992
 20
72.80943272409999
 30
0.0
 11
149.8871633812999
 21
72.8082155714
 31
0.0
  0
LINE
  5
4D9
330
1F
100
AcDbEntity
  8
0
  6
Continuous
100
AcDbLine
 10
149.8871633812999
 20
72.8082155714
 30
0.0
 11
149.8401791972999
 21
72.7964695254
 31
0.0
  0
LINE
  5
4DA
330
1F
100
AcDbEntity
  8
0
  6
Continuous
100
AcDbLine
 10
149.8706013023999
 20
72.8268916305
 30
0.0
 11
149.8401791972999
 21
72.7964695254
 31
0.0
  0
LINE
  5
4DB
330
1F
100
AcDbEntity
  8
0
  6
Continuous
100
AcDbLine
 10
149.8546791973
 20
72.8544695254
 30
0.0
 11
149.853142396
 21
72.8483223201
 31
0.0
  0
LINE
  5
4DC
330
1F
100
AcDbEntity
  8
0
  6
Continuous
100
AcDbLine
 10
149.853142396
 20
72.8483223201
 30
0.0
 11
149.8401791972999
 21
72.7964695254
 31
0.0
  0
LINE
  5
4DD
330
1F
100
AcDbEntity
  8
0
  6
Continuous
100
AcDbLine
 10
149.8546791973
 20
72.8834695254
 30
0.0
 11
149.8489599853
 21
72.8491542534
 31
0.0
  0
LINE
  5
4DE
330
1F
100
AcDbEntity
  8
0
  6
Continuous
100
AcDbLine
 10
149.8489599853
 20
72.8491542534
 30
0.0
 11
149.8401791972999
 21
72.7964695254
 31
0.0
  0
LINE
  5
4DF
330
1F
100
AcDbEntity
  8
0
  6
Continuous
100
AcDbLine
 10
149.8256791972999
 20
72.8834695254
 30
0.0
 11
149.8313984092999
 21
72.8491542534
 31
0.0
  0
LINE
  5
4E0
330
1F
100
AcDbEntity
  8
0
  6
Continuous
100
AcDbLine
 10
149.8313984092999
 20
72.8491542534
 30
0.0
 11
149.8401791972999
 21
72.7964695254
 31
0.0
  0
LINE
  5
4E1
330
1F
100
AcDbEntity
  8
0
  6
Continuous
100
AcDbLine
 10
149.8256791972999
 20
72.8544695254
 30
0.0
 11
149.8272159986
 21
72.8483223201
 31
0.0
  0
LINE
  5
4E2
330
1F
100
AcDbEntity
  8
0
  6
Continuous
100
AcDbLine
 10
149.8272159986
 20
72.8483223201
 30
0.0
 11
149.8401791972999
 21
72.7964695254
 31
0.0
  0
LINE
  5
4E3
330
1F
100
AcDbEntity
  8
0
  6
Continuous
100
AcDbLine
 10
149.8097570921999
 20
72.8268916305
 30
0.0
 11
149.8401791972999
 21
72.7964695254
 31
0.0
  0
LINE
  5
4E4
330
1F
100
AcDbEntity
  8
0
  6
Continuous
100
AcDbLine
 10
149.7821791972999
 20
72.8109695254
 30
0.0
 11
149.7883264026
 21
72.80943272409999
 31
0.0
  0
LINE
  5
4E5
330
1F
100
AcDbEntity
  8
0
  6
Continuous
100
AcDbLine
 10
149.7883264026
 20
72.80943272409999
 30
0.0
 11
149.7931950133
 21
72.8082155714
 31
0.0
  0
LINE
  5
4E6
330
1F
100
AcDbEntity
  8
0
  6
Continuous
100
AcDbLine
 10
149.7931950133
 20
72.8082155714
 30
0.0
 11
149.8401791972999
 21
72.7964695254
 31
0.0
  0
ARC
  5
4E7
330
1F
100
AcDbEntity
  8
0
  6
Continuous
100
AcDbCircle
 10
151.1501791973
 20
71.06396952539999
 30
0.0
 40
0.1395
100
AcDbArc
 50
90.0
 51
270.0
  0
ARC
  5
4E8
330
1F
100
AcDbEntity
  8
0
  6
Continuous
100
AcDbCircle
 10
151.1501791973
 20
71.06396952539999
 30
0.0
 40
0.1395
100
AcDbArc
 50
270.0
 51
90.0
  0
LINE
  5
4E9
330
1F
100
AcDbEntity
  8
0
  6
Continuous
100
AcDbLine
 10
151.1806013023999
 20
71.0335474204
 30
0.0
 11
151.1646791972999
 21
71.00596952540001
 31
0.0
  0
LINE
  5
4EA
330
1F
100
AcDbEntity
  8
0
  6
Continuous
100
AcDbLine
 10
151.2081791972999
 20
71.0494695254
 30
0.0
 11
151.1806013023999
 21
71.0335474204
 31
0.0
  0
LINE
  5
4EB
330
1F
100
AcDbEntity
  8
0
  6
Continuous
100
AcDbLine
 10
151.2371791973
 20
71.0494695254
 30
0.0
 11
151.2081791972999
 21
71.0494695254
 31
0.0
  0
LINE
  5
4EC
330
1F
100
AcDbEntity
  8
0
  6
Continuous
100
AcDbLine
 10
151.2371791973
 20
71.0784695254
 30
0.0
 11
151.2371791973
 21
71.0494695254
 31
0.0
  0
LINE
  5
4ED
330
1F
100
AcDbEntity
  8
0
  6
Continuous
100
AcDbLine
 10
151.2081791972999
 20
71.0784695254
 30
0.0
 11
151.2371791973
 21
71.0784695254
 31
0.0
  0
LINE
  5
4EE
330
1F
100
AcDbEntity
  8
0
  6
Continuous
100
AcDbLine
 10
151.1806013023999
 20
71.0943916305
 30
0.0
 11
151.2081791972999
 21
71.0784695254
 31
0.0
  0
LINE
  5
4EF
330
1F
100
AcDbEntity
  8
0
  6
Continuous
100
AcDbLine
 10
151.1646791972999
 20
71.1219695254
 30
0.0
 11
151.1806013023999
 21
71.0943916305
 31
0.0
  0
LINE
  5
4F0
330
1F
100
AcDbEntity
  8
0
  6
Continuous
100
AcDbLine
 10
151.1646791972999
 20
71.1509695254
 30
0.0
 11
151.1646791972999
 21
71.1219695254
 31
0.0
  0
LINE
  5
4F1
330
1F
100
AcDbEntity
  8
0
  6
Continuous
100
AcDbLine
 10
151.1356791973
 20
71.1509695254
 30
0.0
 11
151.1646791972999
 21
71.1509695254
 31
0.0
  0
LINE
  5
4F2
330
1F
100
AcDbEntity
  8
0
  6
Continuous
100
AcDbLine
 10
151.1356791973
 20
71.1219695254
 30
0.0
 11
151.1356791973
 21
71.1509695254
 31
0.0
  0
LINE
  5
4F3
330
1F
100
AcDbEntity
  8
0
  6
Continuous
100
AcDbLine
 10
151.1197570922
 20
71.0943916305
 30
0.0
 11
151.1356791973
 21
71.1219695254
 31
0.0
  0
LINE
  5
4F4
330
1F
100
AcDbEntity
  8
0
  6
Continuous
100
AcDbLine
 10
151.0921791972999
 20
71.0784695254
 30
0.0
 11
151.1197570922
 21
71.0943916305
 31
0.0
  0
LINE
  5
4F5
330
1F
100
AcDbEntity
  8
0
  6
Continuous
100
AcDbLine
 10
151.0631791973
 20
71.0784695254
 30
0.0
 11
151.0921791972999
 21
71.0784695254
 31
0.0
  0
LINE
  5
4F6
330
1F
100
AcDbEntity
  8
0
  6
Continuous
100
AcDbLine
 10
151.0631791973
 20
71.0494695254
 30
0.0
 11
151.0631791973
 21
71.0784695254
 31
0.0
  0
LINE
  5
4F7
330
1F
100
AcDbEntity
  8
0
  6
Continuous
100
AcDbLine
 10
151.0921791972999
 20
71.0494695254
 30
0.0
 11
151.0631791973
 21
71.0494695254
 31
0.0
  0
LINE
  5
4F8
330
1F
100
AcDbEntity
  8
0
  6
Continuous
100
AcDbLine
 10
151.1197570922
 20
71.0335474204
 30
0.0
 11
151.0921791972999
 21
71.0494695254
 31
0.0
  0
LINE
  5
4F9
330
1F
100
AcDbEntity
  8
0
  6
Continuous
100
AcDbLine
 10
151.1356791973
 20
71.00596952540001
 30
0.0
 11
151.1197570922
 21
71.0335474204
 31
0.0
  0
LINE
  5
4FA
330
1F
100
AcDbEntity
  8
0
  6
Continuous
100
AcDbLine
 10
151.1356791973
 20
70.97696952539999
 30
0.0
 11
151.1356791973
 21
71.00596952540001
 31
0.0
  0
LINE
  5
4FB
330
1F
100
AcDbEntity
  8
0
  6
Continuous
100
AcDbLine
 10
151.1646791972999
 20
70.97696952539999
 30
0.0
 11
151.1356791973
 21
70.97696952539999
 31
0.0
  0
LINE
  5
4FC
330
1F
100
AcDbEntity
  8
0
  6
Continuous
100
AcDbLine
 10
151.1356791973
 20
71.00596952540001
 30
0.0
 11
151.1372159985999
 21
71.0121167307
 31
0.0
  0
LINE
  5
4FD
330
1F
100
AcDbEntity
  8
0
  6
Continuous
100
AcDbLine
 10
151.1372159985999
 20
71.0121167307
 30
0.0
 11
151.1501791973
 21
71.06396952539999
 31
0.0
  0
LINE
  5
4FE
330
1F
100
AcDbEntity
  8
0
  6
Continuous
100
AcDbLine
 10
151.1197570922
 20
71.0335474204
 30
0.0
 11
151.1501791973
 21
71.06396952539999
 31
0.0
  0
LINE
  5
4FF
330
1F
100
AcDbEntity
  8
0
  6
Continuous
100
AcDbLine
 10
151.0921791972999
 20
71.0494695254
 30
0.0
 11
151.0983264026
 21
71.05100632680001
 31
0.0
  0
LINE
  5
500
330
1F
100
AcDbEntity
  8
0
  6
Continuous
100
AcDbLine
 10
151.0983264026
 20
71.05100632680001
 30
0.0
 11
151.1031950133
 21
71.05222347939999
 31
0.0
  0
LINE
  5
501
330
1F
100
AcDbEntity
  8
0
  6
Continuous
100
AcDbLine
 10
151.1031950133
 20
71.05222347939999
 30
0.0
 11
151.1501791973
 21
71.06396952539999
 31
0.0
  0
LINE
  5
502
330
1F
100
AcDbEntity
  8
0
  6
Continuous
100
AcDbLine
 10
151.0631791973
 20
71.0494695254
 30
0.0
 11
151.0885668423999
 21
71.0537007996
 31
0.0
  0
LINE
  5
503
330
1F
100
AcDbEntity
  8
0
  6
Continuous
100
AcDbLine
 10
151.0885668423999
 20
71.0537007996
 30
0.0
 11
151.0974944694
 21
71.0551887375
 31
0.0
  0
LINE
  5
504
330
1F
100
AcDbEntity
  8
0
  6
Continuous
100
AcDbLine
 10
151.0974944694
 20
71.0551887375
 30
0.0
 11
151.107498803
 21
71.05685612640001
 31
0.0
  0
LINE
  5
505
330
1F
100
AcDbEntity
  8
0
  6
Continuous
100
AcDbLine
 10
151.107498803
 20
71.05685612640001
 30
0.0
 11
151.1501791973
 21
71.06396952539999
 31
0.0
  0
LINE
  5
506
330
1F
100
AcDbEntity
  8
0
  6
Continuous
100
AcDbLine
 10
151.1356791973
 20
70.97696952539999
 30
0.0
 11
151.1413984093
 21
71.01128479749999
 31
0.0
  0
LINE
  5
507
330
1F
100
AcDbEntity
  8
0
  6
Continuous
100
AcDbLine
 10
151.1413984093
 20
71.01128479749999
 30
0.0
 11
151.1501791973
 21
71.06396952539999
 31
0.0
  0
LINE
  5
508
330
1F
100
AcDbEntity
  8
0
  6
Continuous
100
AcDbLine
 10
151.0631791973
 20
71.0784695254
 30
0.0
 11
151.0885668423999
 21
71.0742382513
 31
0.0
  0
LINE
  5
509
330
1F
100
AcDbEntity
  8
0
  6
Continuous
100
AcDbLine
 10
151.0885668423999
 20
71.0742382513
 30
0.0
 11
151.0974944694
 21
71.07275031340001
 31
0.0
  0
LINE
  5
50A
330
1F
100
AcDbEntity
  8
0
  6
Continuous
100
AcDbLine
 10
151.0974944694
 20
71.07275031340001
 30
0.0
 11
151.107498803
 21
71.0710829245
 31
0.0
  0
LINE
  5
50B
330
1F
100
AcDbEntity
  8
0
  6
Continuous
100
AcDbLine
 10
151.107498803
 20
71.0710829245
 30
0.0
 11
151.1501791973
 21
71.06396952539999
 31
0.0
  0
LINE
  5
50C
330
1F
100
AcDbEntity
  8
0
  6
Continuous
100
AcDbLine
 10
151.1646791972999
 20
71.00596952540001
 30
0.0
 11
151.1646791972999
 21
70.97696952539999
 31
0.0
  0
LINE
  5
50D
330
1F
100
AcDbEntity
  8
0
  6
Continuous
100
AcDbLine
 10
151.1646791972999
 20
70.97696952539999
 30
0.0
 11
151.1589599853
 21
71.01128479749999
 31
0.0
  0
LINE
  5
50E
330
1F
100
AcDbEntity
  8
0
  6
Continuous
100
AcDbLine
 10
151.1589599853
 20
71.01128479749999
 30
0.0
 11
151.1501791973
 21
71.06396952539999
 31
0.0
  0
LINE
  5
50F
330
1F
100
AcDbEntity
  8
0
  6
Continuous
100
AcDbLine
 10
151.1646791972999
 20
71.00596952540001
 30
0.0
 11
151.163142396
 21
71.0121167307
 31
0.0
  0
LINE
  5
510
330
1F
100
AcDbEntity
  8
0
  6
Continuous
100
AcDbLine
 10
151.163142396
 20
71.0121167307
 30
0.0
 11
151.1501791973
 21
71.06396952539999
 31
0.0
  0
LINE
  5
511
330
1F
100
AcDbEntity
  8
0
  6
Continuous
100
AcDbLine
 10
151.1806013023999
 20
71.0335474204
 30
0.0
 11
151.1501791973
 21
71.06396952539999
 31
0.0
  0
LINE
  5
512
330
1F
100
AcDbEntity
  8
0
  6
Continuous
100
AcDbLine
 10
151.2081791972999
 20
71.0494695254
 30
0.0
 11
151.2020319919999
 21
71.05100632680001
 31
0.0
  0
LINE
  5
513
330
1F
100
AcDbEntity
  8
0
  6
Continuous
100
AcDbLine
 10
151.2020319919999
 20
71.05100632680001
 30
0.0
 11
151.1971633812999
 21
71.05222347939999
 31
0.0
  0
LINE
  5
514
330
1F
100
AcDbEntity
  8
0
  6
Continuous
100
AcDbLine
 10
151.1971633812999
 20
71.05222347939999
 30
0.0
 11
151.1501791973
 21
71.06396952539999
 31
0.0
  0
LINE
  5
515
330
1F
100
AcDbEntity
  8
0
  6
Continuous
100
AcDbLine
 10
151.2371791973
 20
71.0494695254
 30
0.0
 11
151.2117915521999
 21
71.0537007996
 31
0.0
  0
LINE
  5
516
330
1F
100
AcDbEntity
  8
0
  6
Continuous
100
AcDbLine
 10
151.2117915521999
 20
71.0537007996
 30
0.0
 11
151.2028639252
 21
71.0551887375
 31
0.0
  0
LINE
  5
517
330
1F
100
AcDbEntity
  8
0
  6
Continuous
100
AcDbLine
 10
151.2028639252
 20
71.0551887375
 30
0.0
 11
151.1928595916
 21
71.05685612640001
 31
0.0
  0
LINE
  5
518
330
1F
100
AcDbEntity
  8
0
  6
Continuous
100
AcDbLine
 10
151.1928595916
 20
71.05685612640001
 30
0.0
 11
151.1501791973
 21
71.06396952539999
 31
0.0
  0
LINE
  5
519
330
1F
100
AcDbEntity
  8
0
  6
Continuous
100
AcDbLine
 10
151.2371791973
 20
71.0784695254
 30
0.0
 11
151.2117915521999
 21
71.0742382513
 31
0.0
  0
LINE
  5
51A
330
1F
100
AcDbEntity
  8
0
  6
Continuous
100
AcDbLine
 10
151.2117915521999
 20
71.0742382513
 30
0.0
 11
151.2028639252
 21
71.07275031340001
 31
0.0
  0
LINE
  5
51B
330
1F
100
AcDbEntity
  8
0
  6
Continuous
100
AcDbLine
 10
151.2028639252
 20
71.07275031340001
 30
0.0
 11
151.1928595916
 21
71.0710829245
 31
0.0
  0
LINE
  5
51C
330
1F
100
AcDbEntity
  8
0
  6
Continuous
100
AcDbLine
 10
151.1928595916
 20
71.0710829245
 30
0.0
 11
151.1501791973
 21
71.06396952539999
 31
0.0
  0
LINE
  5
51D
330
1F
100
AcDbEntity
  8
0
  6
Continuous
100
AcDbLine
 10
151.2081791972999
 20
71.0784695254
 30
0.0
 11
151.2020319919999
 21
71.0769327241
 31
0.0
  0
LINE
  5
51E
330
1F
100
AcDbEntity
  8
0
  6
Continuous
100
AcDbLine
 10
151.2020319919999
 20
71.0769327241
 30
0.0
 11
151.1971633812999
 21
71.07571557139999
 31
0.0
  0
LINE
  5
51F
330
1F
100
AcDbEntity
  8
0
  6
Continuous
100
AcDbLine
 10
151.1971633812999
 20
71.07571557139999
 30
0.0
 11
151.1501791973
 21
71.06396952539999
 31
0.0
  0
LINE
  5
520
330
1F
100
AcDbEntity
  8
0
  6
Continuous
100
AcDbLine
 10
151.1806013023999
 20
71.0943916305
 30
0.0
 11
151.1501791973
 21
71.06396952539999
 31
0.0
  0
LINE
  5
521
330
1F
100
AcDbEntity
  8
0
  6
Continuous
100
AcDbLine
 10
151.1646791972999
 20
71.1219695254
 30
0.0
 11
151.163142396
 21
71.1158223201
 31
0.0
  0
LINE
  5
522
330
1F
100
AcDbEntity
  8
0
  6
Continuous
100
AcDbLine
 10
151.163142396
 20
71.1158223201
 30
0.0
 11
151.1501791973
 21
71.06396952539999
 31
0.0
  0
LINE
  5
523
330
1F
100
AcDbEntity
  8
0
  6
Continuous
100
AcDbLine
 10
151.1646791972999
 20
71.1509695254
 30
0.0
 11
151.1589599853
 21
71.1166542534
 31
0.0
  0
LINE
  5
524
330
1F
100
AcDbEntity
  8
0
  6
Continuous
100
AcDbLine
 10
151.1589599853
 20
71.1166542534
 30
0.0
 11
151.1501791973
 21
71.06396952539999
 31
0.0
  0
LINE
  5
525
330
1F
100
AcDbEntity
  8
0
  6
Continuous
100
AcDbLine
 10
151.1356791973
 20
71.1509695254
 30
0.0
 11
151.1413984093
 21
71.1166542534
 31
0.0
  0
LINE
  5
526
330
1F
100
AcDbEntity
  8
0
  6
Continuous
100
AcDbLine
 10
151.1413984093
 20
71.1166542534
 30
0.0
 11
151.1501791973
 21
71.06396952539999
 31
0.0
  0
LINE
  5
527
330
1F
100
AcDbEntity
  8
0
  6
Continuous
100
AcDbLine
 10
151.1356791973
 20
71.1219695254
 30
0.0
 11
151.1372159985999
 21
71.1158223201
 31
0.0
  0
LINE
  5
528
330
1F
100
AcDbEntity
  8
0
  6
Continuous
100
AcDbLine
 10
151.1372159985999
 20
71.1158223201
 30
0.0
 11
151.1501791973
 21
71.06396952539999
 31
0.0
  0
LINE
  5
529
330
1F
100
AcDbEntity
  8
0
  6
Continuous
100
AcDbLine
 10
151.1197570922
 20
71.0943916305
 30
0.0
 11
151.1501791973
 21
71.06396952539999
 31
0.0
  0
LINE
  5
52A
330
1F
100
AcDbEntity
  8
0
  6
Continuous
100
AcDbLine
 10
151.0921791972999
 20
71.0784695254
 30
0.0
 11
151.0983264026
 21
71.0769327241
 31
0.0
  0
LINE
  5
52B
330
1F
100
AcDbEntity
  8
0
  6
Continuous
100
AcDbLine
 10
151.0983264026
 20
71.0769327241
 30
0.0
 11
151.1031950133
 21
71.07571557139999
 31
0.0
  0
LINE
  5
52C
330
1F
100
AcDbEntity
  8
0
  6
Continuous
100
AcDbLine
 10
151.1031950133
 20
71.07571557139999
 30
0.0
 11
151.1501791973
 21
71.06396952539999
 31
0.0
  0
ARC
  5
52D
330
1F
100
AcDbEntity
  8
0
  6
Continuous
100
AcDbCircle
 10
153.1501791972999
 20
71.06396952539999
 30
0.0
 40
0.1395
100
AcDbArc
 50
90.0
 51
270.0
  0
ARC
  5
52E
330
1F
100
AcDbEntity
  8
0
  6
Continuous
100
AcDbCircle
 10
153.1501791972999
 20
71.06396952539999
 30
0.0
 40
0.1395
100
AcDbArc
 50
270.0
 51
90.0
  0
LINE
  5
52F
330
1F
100
AcDbEntity
  8
0
  6
Continuous
100
AcDbLine
 10
153.1806013023999
 20
71.0335474204
 30
0.0
 11
153.1646791972999
 21
71.00596952540001
 31
0.0
  0
LINE
  5
530
330
1F
100
AcDbEntity
  8
0
  6
Continuous
100
AcDbLine
 10
153.2081791972999
 20
71.0494695254
 30
0.0
 11
153.1806013023999
 21
71.0335474204
 31
0.0
  0
LINE
  5
531
330
1F
100
AcDbEntity
  8
0
  6
Continuous
100
AcDbLine
 10
153.2371791973
 20
71.0494695254
 30
0.0
 11
153.2081791972999
 21
71.0494695254
 31
0.0
  0
LINE
  5
532
330
1F
100
AcDbEntity
  8
0
  6
Continuous
100
AcDbLine
 10
153.2371791973
 20
71.0784695254
 30
0.0
 11
153.2371791973
 21
71.0494695254
 31
0.0
  0
LINE
  5
533
330
1F
100
AcDbEntity
  8
0
  6
Continuous
100
AcDbLine
 10
153.2081791972999
 20
71.0784695254
 30
0.0
 11
153.2371791973
 21
71.0784695254
 31
0.0
  0
LINE
  5
534
330
1F
100
AcDbEntity
  8
0
  6
Continuous
100
AcDbLine
 10
153.1806013023999
 20
71.0943916305
 30
0.0
 11
153.2081791972999
 21
71.0784695254
 31
0.0
  0
LINE
  5
535
330
1F
100
AcDbEntity
  8
0
  6
Continuous
100
AcDbLine
 10
153.1646791972999
 20
71.1219695254
 30
0.0
 11
153.1806013023999
 21
71.0943916305
 31
0.0
  0
LINE
  5
536
330
1F
100
AcDbEntity
  8
0
  6
Continuous
100
AcDbLine
 10
153.1646791972999
 20
71.1509695254
 30
0.0
 11
153.1646791972999
 21
71.1219695254
 31
0.0
  0
LINE
  5
537
330
1F
100
AcDbEntity
  8
0
  6
Continuous
100
AcDbLine
 10
153.1356791972999
 20
71.1509695254
 30
0.0
 11
153.1646791972999
 21
71.1509695254
 31
0.0
  0
LINE
  5
538
330
1F
100
AcDbEntity
  8
0
  6
Continuous
100
AcDbLine
 10
153.1356791972999
 20
71.1219695254
 30
0.0
 11
153.1356791972999
 21
71.1509695254
 31
0.0
  0
LINE
  5
539
330
1F
100
AcDbEntity
  8
0
  6
Continuous
100
AcDbLine
 10
153.1197570922
 20
71.0943916305
 30
0.0
 11
153.1356791972999
 21
71.1219695254
 31
0.0
  0
LINE
  5
53A
330
1F
100
AcDbEntity
  8
0
  6
Continuous
100
AcDbLine
 10
153.0921791973
 20
71.0784695254
 30
0.0
 11
153.1197570922
 21
71.0943916305
 31
0.0
  0
LINE
  5
53B
330
1F
100
AcDbEntity
  8
0
  6
Continuous
100
AcDbLine
 10
153.0631791973
 20
71.0784695254
 30
0.0
 11
153.0921791973
 21
71.0784695254
 31
0.0
  0
LINE
  5
53C
330
1F
100
AcDbEntity
  8
0
  6
Continuous
100
AcDbLine
 10
153.0631791973
 20
71.0494695254
 30
0.0
 11
153.0631791973
 21
71.0784695254
 31
0.0
  0
LINE
  5
53D
330
1F
100
AcDbEntity
  8
0
  6
Continuous
100
AcDbLine
 10
153.0921791973
 20
71.0494695254
 30
0.0
 11
153.0631791973
 21
71.0494695254
 31
0.0
  0
LINE
  5
53E
330
1F
100
AcDbEntity
  8
0
  6
Continuous
100
AcDbLine
 10
153.1197570922
 20
71.0335474204
 30
0.0
 11
153.0921791973
 21
71.0494695254
 31
0.0
  0
LINE
  5
53F
330
1F
100
AcDbEntity
  8
0
  6
Continuous
100
AcDbLine
 10
153.1356791972999
 20
71.00596952540001
 30
0.0
 11
153.1197570922
 21
71.0335474204
 31
0.0
  0
LINE
  5
540
330
1F
100
AcDbEntity
  8
0
  6
Continuous
100
AcDbLine
 10
153.1356791972999
 20
70.97696952539999
 30
0.0
 11
153.1356791972999
 21
71.00596952540001
 31
0.0
  0
LINE
  5
541
330
1F
100
AcDbEntity
  8
0
  6
Continuous
100
AcDbLine
 10
153.1646791972999
 20
70.97696952539999
 30
0.0
 11
153.1356791972999
 21
70.97696952539999
 31
0.0
  0
LINE
  5
542
330
1F
100
AcDbEntity
  8
0
  6
Continuous
100
AcDbLine
 10
153.1356791972999
 20
71.00596952540001
 30
0.0
 11
153.1372159985999
 21
71.0121167307
 31
0.0
  0
LINE
  5
543
330
1F
100
AcDbEntity
  8
0
  6
Continuous
100
AcDbLine
 10
153.1372159985999
 20
71.0121167307
 30
0.0
 11
153.1501791972999
 21
71.06396952539999
 31
0.0
  0
LINE
  5
544
330
1F
100
AcDbEntity
  8
0
  6
Continuous
100
AcDbLine
 10
153.1197570922
 20
71.0335474204
 30
0.0
 11
153.1501791972999
 21
71.06396952539999
 31
0.0
  0
LINE
  5
545
330
1F
100
AcDbEntity
  8
0
  6
Continuous
100
AcDbLine
 10
153.0921791973
 20
71.0494695254
 30
0.0
 11
153.0983264026
 21
71.05100632680001
 31
0.0
  0
LINE
  5
546
330
1F
100
AcDbEntity
  8
0
  6
Continuous
100
AcDbLine
 10
153.0983264026
 20
71.05100632680001
 30
0.0
 11
153.1031950133
 21
71.05222347939999
 31
0.0
  0
LINE
  5
547
330
1F
100
AcDbEntity
  8
0
  6
Continuous
100
AcDbLine
 10
153.1031950133
 20
71.05222347939999
 30
0.0
 11
153.1501791972999
 21
71.06396952539999
 31
0.0
  0
LINE
  5
548
330
1F
100
AcDbEntity
  8
0
  6
Continuous
100
AcDbLine
 10
153.0631791973
 20
71.0494695254
 30
0.0
 11
153.0885668424
 21
71.0537007996
 31
0.0
  0
LINE
  5
549
330
1F
100
AcDbEntity
  8
0
  6
Continuous
100
AcDbLine
 10
153.0885668424
 20
71.0537007996
 30
0.0
 11
153.0974944693999
 21
71.0551887375
 31
0.0
  0
LINE
  5
54A
330
1F
100
AcDbEntity
  8
0
  6
Continuous
100
AcDbLine
 10
153.0974944693999
 20
71.0551887375
 30
0.0
 11
153.107498803
 21
71.05685612640001
 31
0.0
  0
LINE
  5
54B
330
1F
100
AcDbEntity
  8
0
  6
Continuous
100
AcDbLine
 10
153.107498803
 20
71.05685612640001
 30
0.0
 11
153.1501791972999
 21
71.06396952539999
 31
0.0
  0
LINE
  5
54C
330
1F
100
AcDbEntity
  8
0
  6
Continuous
100
AcDbLine
 10
153.1356791972999
 20
70.97696952539999
 30
0.0
 11
153.1413984092999
 21
71.01128479749999
 31
0.0
  0
LINE
  5
54D
330
1F
100
AcDbEntity
  8
0
  6
Continuous
100
AcDbLine
 10
153.1413984092999
 20
71.01128479749999
 30
0.0
 11
153.1501791972999
 21
71.06396952539999
 31
0.0
  0
LINE
  5
54E
330
1F
100
AcDbEntity
  8
0
  6
Continuous
100
AcDbLine
 10
153.0631791973
 20
71.0784695254
 30
0.0
 11
153.0885668424
 21
71.0742382513
 31
0.0
  0
LINE
  5
54F
330
1F
100
AcDbEntity
  8
0
  6
Continuous
100
AcDbLine
 10
153.0885668424
 20
71.0742382513
 30
0.0
 11
153.0974944693999
 21
71.07275031340001
 31
0.0
  0
LINE
  5
550
330
1F
100
AcDbEntity
  8
0
  6
Continuous
100
AcDbLine
 10
153.0974944693999
 20
71.07275031340001
 30
0.0
 11
153.107498803
 21
71.0710829245
 31
0.0
  0
LINE
  5
551
330
1F
100
AcDbEntity
  8
0
  6
Continuous
100
AcDbLine
 10
153.107498803
 20
71.0710829245
 30
0.0
 11
153.1501791972999
 21
71.06396952539999
 31
0.0
  0
LINE
  5
552
330
1F
100
AcDbEntity
  8
0
  6
Continuous
100
AcDbLine
 10
153.1646791972999
 20
71.00596952540001
 30
0.0
 11
153.1646791972999
 21
70.97696952539999
 31
0.0
  0
LINE
  5
553
330
1F
100
AcDbEntity
  8
0
  6
Continuous
100
AcDbLine
 10
153.1646791972999
 20
70.97696952539999
 30
0.0
 11
153.1589599853
 21
71.01128479749999
 31
0.0
  0
LINE
  5
554
330
1F
100
AcDbEntity
  8
0
  6
Continuous
100
AcDbLine
 10
153.1589599853
 20
71.01128479749999
 30
0.0
 11
153.1501791972999
 21
71.06396952539999
 31
0.0
  0
LINE
  5
555
330
1F
100
AcDbEntity
  8
0
  6
Continuous
100
AcDbLine
 10
153.1646791972999
 20
71.00596952540001
 30
0.0
 11
153.163142396
 21
71.0121167307
 31
0.0
  0
LINE
  5
556
330
1F
100
AcDbEntity
  8
0
  6
Continuous
100
AcDbLine
 10
153.163142396
 20
71.0121167307
 30
0.0
 11
153.1501791972999
 21
71.06396952539999
 31
0.0
  0
LINE
  5
557
330
1F
100
AcDbEntity
  8
0
  6
Continuous
100
AcDbLine
 10
153.1806013023999
 20
71.0335474204
 30
0.0
 11
153.1501791972999
 21
71.06396952539999
 31
0.0
  0
LINE
  5
558
330
1F
100
AcDbEntity
  8
0
  6
Continuous
100
AcDbLine
 10
153.2081791972999
 20
71.0494695254
 30
0.0
 11
153.2020319919999
 21
71.05100632680001
 31
0.0
  0
LINE
  5
559
330
1F
100
AcDbEntity
  8
0
  6
Continuous
100
AcDbLine
 10
153.2020319919999
 20
71.05100632680001
 30
0.0
 11
153.1971633812999
 21
71.05222347939999
 31
0.0
  0
LINE
  5
55A
330
1F
100
AcDbEntity
  8
0
  6
Continuous
100
AcDbLine
 10
153.1971633812999
 20
71.05222347939999
 30
0.0
 11
153.1501791972999
 21
71.06396952539999
 31
0.0
  0
LINE
  5
55B
330
1F
100
AcDbEntity
  8
0
  6
Continuous
100
AcDbLine
 10
153.2371791973
 20
71.0494695254
 30
0.0
 11
153.2117915521999
 21
71.0537007996
 31
0.0
  0
LINE
  5
55C
330
1F
100
AcDbEntity
  8
0
  6
Continuous
100
AcDbLine
 10
153.2117915521999
 20
71.0537007996
 30
0.0
 11
153.2028639252
 21
71.0551887375
 31
0.0
  0
LINE
  5
55D
330
1F
100
AcDbEntity
  8
0
  6
Continuous
100
AcDbLine
 10
153.2028639252
 20
71.0551887375
 30
0.0
 11
153.1928595916
 21
71.05685612640001
 31
0.0
  0
LINE
  5
55E
330
1F
100
AcDbEntity
  8
0
  6
Continuous
100
AcDbLine
 10
153.1928595916
 20
71.05685612640001
 30
0.0
 11
153.1501791972999
 21
71.06396952539999
 31
0.0
  0
LINE
  5
55F
330
1F
100
AcDbEntity
  8
0
  6
Continuous
100
AcDbLine
 10
153.2371791973
 20
71.0784695254
 30
0.0
 11
153.2117915521999
 21
71.0742382513
 31
0.0
  0
LINE
  5
560
330
1F
100
AcDbEntity
  8
0
  6
Continuous
100
AcDbLine
 10
153.2117915521999
 20
71.0742382513
 30
0.0
 11
153.2028639252
 21
71.07275031340001
 31
0.0
  0
LINE
  5
561
330
1F
100
AcDbEntity
  8
0
  6
Continuous
100
AcDbLine
 10
153.2028639252
 20
71.07275031340001
 30
0.0
 11
153.1928595916
 21
71.0710829245
 31
0.0
  0
LINE
  5
562
330
1F
100
AcDbEntity
  8
0
  6
Continuous
100
AcDbLine
 10
153.1928595916
 20
71.0710829245
 30
0.0
 11
153.1501791972999
 21
71.06396952539999
 31
0.0
  0
LINE
  5
563
330
1F
100
AcDbEntity
  8
0
  6
Continuous
100
AcDbLine
 10
153.2081791972999
 20
71.0784695254
 30
0.0
 11
153.2020319919999
 21
71.0769327241
 31
0.0
  0
LINE
  5
564
330
1F
100
AcDbEntity
  8
0
  6
Continuous
100
AcDbLine
 10
153.2020319919999
 20
71.0769327241
 30
0.0
 11
153.1971633812999
 21
71.07571557139999
 31
0.0
  0
LINE
  5
565
330
1F
100
AcDbEntity
  8
0
  6
Continuous
100
AcDbLine
 10
153.1971633812999
 20
71.07571557139999
 30
0.0
 11
153.1501791972999
 21
71.06396952539999
 31
0.0
  0
LINE
  5
566
330
1F
100
AcDbEntity
  8
0
  6
Continuous
100
AcDbLine
 10
153.1806013023999
 20
71.0943916305
 30
0.0
 11
153.1501791972999
 21
71.06396952539999
 31
0.0
  0
LINE
  5
567
330
1F
100
AcDbEntity
  8
0
  6
Continuous
100
AcDbLine
 10
153.1646791972999
 20
71.1219695254
 30
0.0
 11
153.163142396
 21
71.1158223201
 31
0.0
  0
LINE
  5
568
330
1F
100
AcDbEntity
  8
0
  6
Continuous
100
AcDbLine
 10
153.163142396
 20
71.1158223201
 30
0.0
 11
153.1501791972999
 21
71.06396952539999
 31
0.0
  0
LINE
  5
569
330
1F
100
AcDbEntity
  8
0
  6
Continuous
100
AcDbLine
 10
153.1646791972999
 20
71.1509695254
 30
0.0
 11
153.1589599853
 21
71.1166542534
 31
0.0
  0
LINE
  5
56A
330
1F
100
AcDbEntity
  8
0
  6
Continuous
100
AcDbLine
 10
153.1589599853
 20
71.1166542534
 30
0.0
 11
153.1501791972999
 21
71.06396952539999
 31
0.0
  0
LINE
  5
56B
330
1F
100
AcDbEntity
  8
0
  6
Continuous
100
AcDbLine
 10
153.1356791972999
 20
71.1509695254
 30
0.0
 11
153.1413984092999
 21
71.1166542534
 31
0.0
  0
LINE
  5
56C
330
1F
100
AcDbEntity
  8
0
  6
Continuous
100
AcDbLine
 10
153.1413984092999
 20
71.1166542534
 30
0.0
 11
153.1501791972999
 21
71.06396952539999
 31
0.0
  0
LINE
  5
56D
330
1F
100
AcDbEntity
  8
0
  6
Continuous
100
AcDbLine
 10
153.1356791972999
 20
71.1219695254
 30
0.0
 11
153.1372159985999
 21
71.1158223201
 31
0.0
  0
LINE
  5
56E
330
1F
100
AcDbEntity
  8
0
  6
Continuous
100
AcDbLine
 10
153.1372159985999
 20
71.1158223201
 30
0.0
 11
153.1501791972999
 21
71.06396952539999
 31
0.0
  0
LINE
  5
56F
330
1F
100
AcDbEntity
  8
0
  6
Continuous
100
AcDbLine
 10
153.1197570922
 20
71.0943916305
 30
0.0
 11
153.1501791972999
 21
71.06396952539999
 31
0.0
  0
LINE
  5
570
330
1F
100
AcDbEntity
  8
0
  6
Continuous
100
AcDbLine
 10
153.0921791973
 20
71.0784695254
 30
0.0
 11
153.0983264026
 21
71.0769327241
 31
0.0
  0
LINE
  5
571
330
1F
100
AcDbEntity
  8
0
  6
Continuous
100
AcDbLine
 10
153.0983264026
 20
71.0769327241
 30
0.0
 11
153.1031950133
 21
71.07571557139999
 31
0.0
  0
LINE
  5
572
330
1F
100
AcDbEntity
  8
0
  6
Continuous
100
AcDbLine
 10
153.1031950133
 20
71.07571557139999
 30
0.0
 11
153.1501791972999
 21
71.06396952539999
 31
0.0
  0
LINE
  5
573
330
1F
100
AcDbEntity
  8
0
  6
Continuous
100
AcDbLine
 10
153.7461791973
 20
76.29646952539999
 30
0.0
 11
153.7461791973
 21
75.59646952539999
 31
0.0
  0
ARC
  5
574
330
1F
100
AcDbEntity
  8
0
  6
Continuous
100
AcDbCircle
 10
151.3686791972999
 20
75.9464695254
 30
0.0
 40
0.135
100
AcDbArc
 50
179.9999999969
 51
356.8418838393
  0
ARC
  5
575
330
1F
100
AcDbEntity
  8
0
  6
Continuous
100
AcDbCircle
 10
151.3686791972999
 20
75.9464695254
 30
0.0
 40
0.135
100
AcDbArc
 50
356.8418838393
 51
359.9999999993
  0
ARC
  5
576
330
1F
100
AcDbEntity
  8
0
  6
Continuous
100
AcDbCircle
 10
151.3686791972999
 20
75.9464695254
 30
0.0
 40
0.135
100
AcDbArc
 50
0.0
 51
176.8418838393
  0
ARC
  5
577
330
1F
100
AcDbEntity
  8
0
  6
Continuous
100
AcDbCircle
 10
151.3686791972999
 20
75.9464695254
 30
0.0
 40
0.135
100
AcDbArc
 50
176.8418838393
 51
179.9999999993
  0
ARC
  5
578
330
1F
100
AcDbEntity
  8
0
  6
Continuous
100
AcDbCircle
 10
151.8849291972999
 20
75.9464695254
 30
0.0
 40
0.135
100
AcDbArc
 50
179.9999999969
 51
356.8418838393
  0
ARC
  5
579
330
1F
100
AcDbEntity
  8
0
  6
Continuous
100
AcDbCircle
 10
151.8849291972999
 20
75.9464695254
 30
0.0
 40
0.135
100
AcDbArc
 50
356.8418838393
 51
359.9999999993
  0
ARC
  5
57A
330
1F
100
AcDbEntity
  8
0
  6
Continuous
100
AcDbCircle
 10
151.8849291972999
 20
75.9464695254
 30
0.0
 40
0.135
100
AcDbArc
 50
0.0
 51
176.8418838395
  0
ARC
  5
57B
330
1F
100
AcDbEntity
  8
0
  6
Continuous
100
AcDbCircle
 10
151.8849291972999
 20
75.9464695254
 30
0.0
 40
0.135
100
AcDbArc
 50
176.8418838395
 51
179.9999999993
  0
ARC
  5
57C
330
1F
100
AcDbEntity
  8
0
  6
Continuous
100
AcDbCircle
 10
152.4174291973
 20
75.9464695254
 30
0.0
 40
0.135
100
AcDbArc
 50
179.9999999969
 51
356.8418838394999
  0
ARC
  5
57D
330
1F
100
AcDbEntity
  8
0
  6
Continuous
100
AcDbCircle
 10
152.4174291973
 20
75.9464695254
 30
0.0
 40
0.135
100
AcDbArc
 50
356.8418838394999
 51
359.9999999993
  0
ARC
  5
57E
330
1F
100
AcDbEntity
  8
0
  6
Continuous
100
AcDbCircle
 10
152.4174291973
 20
75.9464695254
 30
0.0
 40
0.135
100
AcDbArc
 50
0.0
 51
176.8418838393
  0
ARC
  5
57F
330
1F
100
AcDbEntity
  8
0
  6
Continuous
100
AcDbCircle
 10
152.4174291973
 20
75.9464695254
 30
0.0
 40
0.135
100
AcDbArc
 50
176.8418838393
 51
179.9999999993
  0
ARC
  5
580
330
1F
100
AcDbEntity
  8
0
  6
Continuous
100
AcDbCircle
 10
152.9336791972999
 20
75.9464695254
 30
0.0
 40
0.135
100
AcDbArc
 50
179.9999999969
 51
356.8418838393
  0
ARC
  5
581
330
1F
100
AcDbEntity
  8
0
  6
Continuous
100
AcDbCircle
 10
152.9336791972999
 20
75.9464695254
 30
0.0
 40
0.135
100
AcDbArc
 50
356.8418838393
 51
359.9999999993
  0
ARC
  5
582
330
1F
100
AcDbEntity
  8
0
  6
Continuous
100
AcDbCircle
 10
152.9336791972999
 20
75.9464695254
 30
0.0
 40
0.135
100
AcDbArc
 50
0.0
 51
176.8418838393
  0
ARC
  5
583
330
1F
100
AcDbEntity
  8
0
  6
Continuous
100
AcDbCircle
 10
152.9336791972999
 20
75.9464695254
 30
0.0
 40
0.135
100
AcDbArc
 50
176.8418838393
 51
179.9999999993
  0
LINE
  5
584
330
1F
100
AcDbEntity
  8
0
  6
Continuous
100
AcDbLine
 10
153.6211791973
 20
76.29646952539999
 30
0.0
 11
153.7461791973
 21
76.29646952539999
 31
0.0
  0
LINE
  5
585
330
1F
100
AcDbEntity
  8
0
  6
Continuous
100
AcDbLine
 10
153.1211791972999
 20
76.29646952539999
 30
0.0
 11
153.2461791972999
 21
76.29646952539999
 31
0.0
  0
LINE
  5
586
330
1F
100
AcDbEntity
  8
0
  6
Continuous
100
AcDbLine
 10
152.6211791973
 20
76.29646952539999
 30
0.0
 11
152.7461791972999
 21
76.29646952539999
 31
0.0
  0
LINE
  5
587
330
1F
100
AcDbEntity
  8
0
  6
Continuous
100
AcDbLine
 10
152.0886791973
 20
76.29646952539999
 30
0.0
 11
152.2136791972999
 21
76.29646952539999
 31
0.0
  0
LINE
  5
588
330
1F
100
AcDbEntity
  8
0
  6
Continuous
100
AcDbLine
 10
151.5561791973
 20
76.29646952539999
 30
0.0
 11
151.6811791972999
 21
76.29646952539999
 31
0.0
  0
LINE
  5
589
330
1F
100
AcDbEntity
  8
0
  6
Continuous
100
AcDbLine
 10
151.0561791973
 20
76.29646952539999
 30
0.0
 11
151.1811791973
 21
76.29646952539999
 31
0.0
  0
LINE
  5
58A
330
1F
100
AcDbEntity
  8
0
  6
Continuous
100
AcDbLine
 10
150.5561791973
 20
76.29646952539999
 30
0.0
 11
150.6811791972999
 21
76.29646952539999
 31
0.0
  0
LINE
  5
58B
330
1F
100
AcDbEntity
  8
0
  6
Continuous
100
AcDbLine
 10
150.6811791972999
 20
76.29646952539999
 30
0.0
 11
151.0561791973
 21
76.29646952539999
 31
0.0
  0
LINE
  5
58C
330
1F
100
AcDbEntity
  8
0
  6
Continuous
100
AcDbLine
 10
151.1811791973
 20
76.29646952539999
 30
0.0
 11
151.1811791973
 21
75.59646952539999
 31
0.0
  0
LINE
  5
58D
330
1F
100
AcDbEntity
  8
0
  6
Continuous
100
AcDbLine
 10
151.0561791973
 20
76.29646952539999
 30
0.0
 11
151.0561791973
 21
75.59646952539999
 31
0.0
  0
LINE
  5
58E
330
1F
100
AcDbEntity
  8
0
  6
Continuous
100
AcDbLine
 10
153.2461791972999
 20
76.29646952539999
 30
0.0
 11
153.6211791973
 21
76.29646952539999
 31
0.0
  0
LINE
  5
58F
330
1F
100
AcDbEntity
  8
0
  6
Continuous
100
AcDbLine
 10
151.6811791972999
 20
76.29646952539999
 30
0.0
 11
151.6811791972999
 21
75.59646952539999
 31
0.0
  0
LINE
  5
590
330
1F
100
AcDbEntity
  8
0
  6
Continuous
100
AcDbLine
 10
151.5561791973
 20
76.29646952539999
 30
0.0
 11
151.5561791973
 21
75.59646952539999
 31
0.0
  0
LINE
  5
591
330
1F
100
AcDbEntity
  8
0
  6
Continuous
100
AcDbLine
 10
151.6811791972999
 20
76.29646952539999
 30
0.0
 11
152.0886791973
 21
76.29646952539999
 31
0.0
  0
LINE
  5
592
330
1F
100
AcDbEntity
  8
0
  6
Continuous
100
AcDbLine
 10
152.7461791972999
 20
76.29646952539999
 30
0.0
 11
152.7461791972999
 21
75.59646952539999
 31
0.0
  0
LINE
  5
593
330
1F
100
AcDbEntity
  8
0
  6
Continuous
100
AcDbLine
 10
152.2136791972999
 20
76.29646952539999
 30
0.0
 11
152.6211791973
 21
76.29646952539999
 31
0.0
  0
LINE
  5
594
330
1F
100
AcDbEntity
  8
0
  6
Continuous
100
AcDbLine
 10
152.6211791973
 20
76.29646952539999
 30
0.0
 11
152.6211791973
 21
75.59646952539999
 31
0.0
  0
LINE
  5
595
330
1F
100
AcDbEntity
  8
0
  6
Continuous
100
AcDbLine
 10
153.2461791972999
 20
76.29646952539999
 30
0.0
 11
153.2461791972999
 21
75.59646952539999
 31
0.0
  0
LINE
  5
596
330
1F
100
AcDbEntity
  8
0
  6
Continuous
100
AcDbLine
 10
153.1211791972999
 20
76.29646952539999
 30
0.0
 11
153.1211791972999
 21
75.59646952539999
 31
0.0
  0
LINE
  5
597
330
1F
100
AcDbEntity
  8
0
  6
Continuous
100
AcDbLine
 10
152.7461791972999
 20
76.29646952539999
 30
0.0
 11
153.1211791972999
 21
76.29646952539999
 31
0.0
  0
LINE
  5
598
330
1F
100
AcDbEntity
  8
0
  6
Continuous
100
AcDbLine
 10
152.2136791972999
 20
76.29646952539999
 30
0.0
 11
152.2136791972999
 21
75.59646952539999
 31
0.0
  0
LINE
  5
599
330
1F
100
AcDbEntity
  8
0
  6
Continuous
100
AcDbLine
 10
152.0886791973
 20
76.29646952539999
 30
0.0
 11
152.0886791973
 21
75.59646952539999
 31
0.0
  0
LINE
  5
59A
330
1F
100
AcDbEntity
  8
0
  6
Continuous
100
AcDbLine
 10
151.1811791973
 20
76.29646952539999
 30
0.0
 11
151.5561791973
 21
76.29646952539999
 31
0.0
  0
LINE
  5
59B
330
1F
100
AcDbEntity
  8
0
  6
Continuous
100
AcDbLine
 10
153.6211791973
 20
76.29646952539999
 30
0.0
 11
153.6211791973
 21
75.59646952539999
 31
0.0
  0
LINE
  5
59C
330
1F
100
AcDbEntity
  8
0
  6
Continuous
100
AcDbLine
 10
150.6811791972999
 20
76.29646952539999
 30
0.0
 11
150.6811791972999
 21
75.59646952539999
 31
0.0
  0
LINE
  5
59D
330
1F
100
AcDbEntity
  8
0
  6
Continuous
100
AcDbLine
 10
150.5561791973
 20
76.29646952539999
 30
0.0
 11
150.5561791973
 21
75.59646952539999
 31
0.0
  0
LINE
  5
59E
330
1F
100
AcDbEntity
  8
0
  6
Continuous
100
AcDbLine
 10
153.1211791972999
 20
75.59646952539999
 30
0.0
 11
153.2461791972999
 21
75.59646952539999
 31
0.0
  0
LINE
  5
59F
330
1F
100
AcDbEntity
  8
0
  6
Continuous
100
AcDbLine
 10
152.7461791972999
 20
75.59646952539999
 30
0.0
 11
153.1211791972999
 21
75.59646952539999
 31
0.0
  0
LINE
  5
5A0
330
1F
100
AcDbEntity
  8
0
  6
Continuous
100
AcDbLine
 10
152.6211791973
 20
75.59646952539999
 30
0.0
 11
152.7461791972999
 21
75.59646952539999
 31
0.0
  0
LINE
  5
5A1
330
1F
100
AcDbEntity
  8
0
  6
Continuous
100
AcDbLine
 10
152.2136791972999
 20
75.59646952539999
 30
0.0
 11
152.6211791973
 21
75.59646952539999
 31
0.0
  0
LINE
  5
5A2
330
1F
100
AcDbEntity
  8
0
  6
Continuous
100
AcDbLine
 10
152.0886791973
 20
75.59646952539999
 30
0.0
 11
152.2136791972999
 21
75.59646952539999
 31
0.0
  0
LINE
  5
5A3
330
1F
100
AcDbEntity
  8
0
  6
Continuous
100
AcDbLine
 10
151.6811791972999
 20
75.59646952539999
 30
0.0
 11
152.0886791973
 21
75.59646952539999
 31
0.0
  0
LINE
  5
5A4
330
1F
100
AcDbEntity
  8
0
  6
Continuous
100
AcDbLine
 10
151.5561791973
 20
75.59646952539999
 30
0.0
 11
151.6811791972999
 21
75.59646952539999
 31
0.0
  0
LINE
  5
5A5
330
1F
100
AcDbEntity
  8
0
  6
Continuous
100
AcDbLine
 10
151.1811791973
 20
75.59646952539999
 30
0.0
 11
151.5561791973
 21
75.59646952539999
 31
0.0
  0
LINE
  5
5A6
330
1F
100
AcDbEntity
  8
0
  6
Continuous
100
AcDbLine
 10
151.0561791973
 20
75.59646952539999
 30
0.0
 11
151.1811791973
 21
75.59646952539999
 31
0.0
  0
LINE
  5
5A7
330
1F
100
AcDbEntity
  8
0
  6
Continuous
100
AcDbLine
 10
150.6811791972999
 20
75.59646952539999
 30
0.0
 11
151.0561791973
 21
75.59646952539999
 31
0.0
  0
LINE
  5
5A8
330
1F
100
AcDbEntity
  8
0
  6
Continuous
100
AcDbLine
 10
150.5561791973
 20
75.59646952539999
 30
0.0
 11
150.6811791972999
 21
75.59646952539999
 31
0.0
  0
LINE
  5
5A9
330
1F
100
AcDbEntity
  8
0
  6
Continuous
100
AcDbLine
 10
153.6211791973
 20
75.59646952539999
 30
0.0
 11
153.7461791973
 21
75.59646952539999
 31
0.0
  0
LINE
  5
5AA
330
1F
100
AcDbEntity
  8
0
  6
Continuous
100
AcDbLine
 10
153.2461791972999
 20
75.59646952539999
 30
0.0
 11
153.6211791973
 21
75.59646952539999
 31
0.0
  0
LINE
  5
5AB
330
1F
100
AcDbEntity
  8
0
  6
Continuous
100
AcDbLine
 10
151.1811791973
 20
75.69646952540001
 30
0.0
 11
151.5561791973
 21
75.69646952540001
 31
0.0
  0
LINE
  5
5AC
330
1F
100
AcDbEntity
  8
0
  6
Continuous
100
AcDbLine
 10
152.7461791972999
 20
75.69646952540001
 30
0.0
 11
153.1211791972999
 21
75.69646952540001
 31
0.0
  0
LINE
  5
5AD
330
1F
100
AcDbEntity
  8
0
  6
Continuous
100
AcDbLine
 10
152.2136791972999
 20
75.69646952540001
 30
0.0
 11
152.6211791973
 21
75.69646952540001
 31
0.0
  0
LINE
  5
5AE
330
1F
100
AcDbEntity
  8
0
  6
Continuous
100
AcDbLine
 10
150.6811791972999
 20
76.19646952540001
 30
0.0
 11
151.0561791973
 21
76.19646952540001
 31
0.0
  0
LINE
  5
5AF
330
1F
100
AcDbEntity
  8
0
  6
Continuous
100
AcDbLine
 10
151.6811791972999
 20
75.69646952540001
 30
0.0
 11
152.0886791973
 21
75.69646952540001
 31
0.0
  0
LINE
  5
5B0
330
1F
100
AcDbEntity
  8
0
  6
Continuous
100
AcDbLine
 10
153.2461791972999
 20
75.69646952540001
 30
0.0
 11
153.6211791973
 21
75.69646952540001
 31
0.0
  0
LINE
  5
5B1
330
1F
100
AcDbEntity
  8
0
  6
Continuous
100
AcDbLine
 10
150.6811791972999
 20
75.69646952540001
 30
0.0
 11
151.0561791973
 21
75.69646952540001
 31
0.0
  0
LINE
  5
5B2
330
1F
100
AcDbEntity
  8
0
  6
Continuous
100
AcDbLine
 10
153.2461791972999
 20
76.19646952540001
 30
0.0
 11
153.6211791973
 21
76.19646952540001
 31
0.0
  0
ARC
  5
5B3
330
1F
100
AcDbEntity
  8
0
  6
Continuous
100
AcDbCircle
 10
153.4336791972999
 20
75.9464695254
 30
0.0
 40
0.0835
100
AcDbArc
 50
0.0
 51
180.0
  0
ARC
  5
5B4
330
1F
100
AcDbEntity
  8
0
  6
Continuous
100
AcDbCircle
 10
153.4336791972999
 20
75.9464695254
 30
0.0
 40
0.0835
100
AcDbArc
 50
180.0
 51
360.0
  0
LINE
  5
5B5
330
1F
100
AcDbEntity
  8
0
  6
Continuous
100
AcDbLine
 10
151.6811791972999
 20
76.19646952540001
 30
0.0
 11
152.0886791973
 21
76.19646952540001
 31
0.0
  0
ARC
  5
5B6
330
1F
100
AcDbEntity
  8
0
  6
Continuous
100
AcDbCircle
 10
150.8686791973
 20
75.9464695254
 30
0.0
 40
0.0835
100
AcDbArc
 50
0.0
 51
180.0
  0
LINE
  5
5B7
330
1F
100
AcDbEntity
  8
0
  6
Continuous
100
AcDbLine
 10
152.2136791972999
 20
76.19646952540001
 30
0.0
 11
152.6211791973
 21
76.19646952540001
 31
0.0
  0
ARC
  5
5B8
330
1F
100
AcDbEntity
  8
0
  6
Continuous
100
AcDbCircle
 10
150.8686791973
 20
75.9464695254
 30
0.0
 40
0.0835
100
AcDbArc
 50
180.0
 51
360.0
  0
LINE
  5
5B9
330
1F
100
AcDbEntity
  8
0
  6
Continuous
100
AcDbLine
 10
151.1811791973
 20
76.19646952540001
 30
0.0
 11
151.5561791973
 21
76.19646952540001
 31
0.0
  0
LINE
  5
5BA
330
1F
100
AcDbEntity
  8
0
  6
Continuous
100
AcDbLine
 10
152.7461791972999
 20
76.19646952540001
 30
0.0
 11
153.1211791972999
 21
76.19646952540001
 31
0.0
  0
ARC
  5
5BB
330
1F
100
AcDbEntity
  8
0
  6
Continuous
100
AcDbCircle
 10
150.5376791973
 20
77.0039695254
 30
0.0
 40
0.1875
100
AcDbArc
 50
90.0
 51
180.0
  0
ARC
  5
5BC
330
1F
100
AcDbEntity
  8
0
  6
Continuous
100
AcDbCircle
 10
153.7626791973
 20
77.0039695254
 30
0.0
 40
0.1875
100
AcDbArc
 50
0.0
 51
90.0
  0
ARC
  5
5BD
330
1F
100
AcDbEntity
  8
0
  6
Continuous
100
AcDbCircle
 10
150.5376791973
 20
71.7489695254
 30
0.0
 40
0.1875
100
AcDbArc
 50
180.0
 51
270.0
  0
ARC
  5
5BE
330
1F
100
AcDbEntity
  8
0
  6
Continuous
100
AcDbCircle
 10
153.7626791973
 20
71.7489695254
 30
0.0
 40
0.1875
100
AcDbArc
 50
270.0
 51
360.0
  0
ARC
  5
5BF
330
1F
100
AcDbEntity
  8
0
  6
Continuous
100
AcDbCircle
 10
154.4681791972999
 20
71.0434695254
 30
0.0
 40
0.187
100
AcDbArc
 50
270.0
 51
360.0
  0
ARC
  5
5C0
330
1F
100
AcDbEntity
  8
0
  6
Continuous
100
AcDbCircle
 10
154.4681791972999
 20
77.7094695254
 30
0.0
 40
0.187
100
AcDbArc
 50
0.0
 51
90.0
  0
ARC
  5
5C1
330
1F
100
AcDbEntity
  8
0
  6
Continuous
100
AcDbCircle
 10
149.8321791973
 20
77.7094695254
 30
0.0
 40
0.187
100
AcDbArc
 50
90.0
 51
180.0
  0
ARC
  5
5C2
330
1F
100
AcDbEntity
  8
0
  6
Continuous
100
AcDbCircle
 10
149.8321791973
 20
71.0434695254
 30
0.0
 40
0.187
100
AcDbArc
 50
180.0
 51
270.0
  0
LINE
  5
5C3
330
1F
100
AcDbEntity
  8
0
  6
Continuous
100
AcDbLine
 10
149.6451791973
 20
77.7094695254
 30
0.0
 11
149.6451791973
 21
71.0434695254
 31
0.0
  0
LINE
  5
5C4
330
1F
100
AcDbEntity
  8
0
  6
Continuous
100
AcDbLine
 10
154.4681791972999
 20
77.8964695254
 30
0.0
 11
149.8321791973
 21
77.8964695254
 31
0.0
  0
LINE
  5
5C5
330
1F
100
AcDbEntity
  8
0
  6
Continuous
100
AcDbLine
 10
154.6551791972999
 20
71.0434695254
 30
0.0
 11
154.6551791972999
 21
77.7094695254
 31
0.0
  0
LINE
  5
5C6
330
1F
100
AcDbEntity
  8
0
  6
Continuous
100
AcDbLine
 10
149.8321791973
 20
70.8564695254
 30
0.0
 11
154.4681791972999
 21
70.8564695254
 31
0.0
  0
LINE
  5
5C7
330
1F
100
AcDbEntity
  8
0
  6
Continuous
100
AcDbLine
 10
150.3501791973
 20
71.7489695254
 30
0.0
 11
150.3501791973
 21
77.0039695254
 31
0.0
  0
LINE
  5
5C8
330
1F
100
AcDbEntity
  8
0
  6
Continuous
100
AcDbLine
 10
153.7626791973
 20
71.5614695254
 30
0.0
 11
150.5376791973
 21
71.5614695254
 31
0.0
  0
LINE
  5
5C9
330
1F
100
AcDbEntity
  8
0
  6
Continuous
100
AcDbLine
 10
153.9501791973
 20
77.0039695254
 30
0.0
 11
153.9501791973
 21
71.7489695254
 31
0.0
  0
LINE
  5
5CA
330
1F
100
AcDbEntity
  8
0
  6
Continuous
100
AcDbLine
 10
150.5376791973
 20
77.1914695254
 30
0.0
 11
153.7626791973
 21
77.1914695254
 31
0.0
  0
ARC
  5
5CB
330
1F
100
AcDbEntity
  8
0
  6
Continuous
100
AcDbCircle
 10
151.1501791973
 20
77.6889695254
 30
0.0
 40
0.1395
100
AcDbArc
 50
180.0
 51
185.2341082393999
  0
ARC
  5
5CC
330
1F
100
AcDbEntity
  8
0
  6
Continuous
100
AcDbCircle
 10
151.1501791973
 20
77.6889695254
 30
0.0
 40
0.1395
100
AcDbArc
 50
185.2341082393999
 51
267.2561363743
  0
ARC
  5
5CD
330
1F
100
AcDbEntity
  8
0
  6
Continuous
100
AcDbCircle
 10
151.1501791973
 20
77.6889695254
 30
0.0
 40
0.1395
100
AcDbArc
 50
267.2561363743
 51
272.7438636256999
  0
ARC
  5
5CE
330
1F
100
AcDbEntity
  8
0
  6
Continuous
100
AcDbCircle
 10
151.1501791973
 20
77.6889695254
 30
0.0
 40
0.1395
100
AcDbArc
 50
272.7438636256999
 51
360.0
  0
ARC
  5
5CF
330
1F
100
AcDbEntity
  8
0
  6
Continuous
100
AcDbCircle
 10
151.1501791973
 20
77.6889695254
 30
0.0
 40
0.1395
100
AcDbArc
 50
0.0
 51
87.25613637429999
  0
ARC
  5
5D0
330
1F
100
AcDbEntity
  8
0
  6
Continuous
100
AcDbCircle
 10
151.1501791973
 20
77.6889695254
 30
0.0
 40
0.1395
100
AcDbArc
 50
87.25613637429999
 51
92.7438636257
  0
ARC
  5
5D1
330
1F
100
AcDbEntity
  8
0
  6
Continuous
100
AcDbCircle
 10
151.1501791973
 20
77.6889695254
 30
0.0
 40
0.1395
100
AcDbArc
 50
92.7438636257
 51
174.7658917606
  0
ARC
  5
5D2
330
1F
100
AcDbEntity
  8
0
  6
Continuous
100
AcDbCircle
 10
151.1501791973
 20
77.6889695254
 30
0.0
 40
0.1395
100
AcDbArc
 50
174.7658917606
 51
180.0
  0
ARC
  5
5D3
330
1F
100
AcDbEntity
  8
0
  6
Continuous
100
AcDbCircle
 10
153.1501791972999
 20
77.6889695254
 30
0.0
 40
0.1395
100
AcDbArc
 50
180.0
 51
185.2341082397
  0
ARC
  5
5D4
330
1F
100
AcDbEntity
  8
0
  6
Continuous
100
AcDbCircle
 10
153.1501791972999
 20
77.6889695254
 30
0.0
 40
0.1395
100
AcDbArc
 50
185.2341082397
 51
267.2561363743
  0
ARC
  5
5D5
330
1F
100
AcDbEntity
  8
0
  6
Continuous
100
AcDbCircle
 10
153.1501791972999
 20
77.6889695254
 30
0.0
 40
0.1395
100
AcDbArc
 50
267.2561363743
 51
272.7438636256999
  0
ARC
  5
5D6
330
1F
100
AcDbEntity
  8
0
  6
Continuous
100
AcDbCircle
 10
153.1501791972999
 20
77.6889695254
 30
0.0
 40
0.1395
100
AcDbArc
 50
272.7438636256999
 51
360.0
  0
ARC
  5
5D7
330
1F
100
AcDbEntity
  8
0
  6
Continuous
100
AcDbCircle
 10
153.1501791972999
 20
77.6889695254
 30
0.0
 40
0.1395
100
AcDbArc
 50
0.0
 51
87.25613637429999
  0
ARC
  5
5D8
330
1F
100
AcDbEntity
  8
0
  6
Continuous
100
AcDbCircle
 10
153.1501791972999
 20
77.6889695254
 30
0.0
 40
0.1395
100
AcDbArc
 50
87.25613637429999
 51
92.7438636257
  0
ARC
  5
5D9
330
1F
100
AcDbEntity
  8
0
  6
Continuous
100
AcDbCircle
 10
153.1501791972999
 20
77.6889695254
 30
0.0
 40
0.1395
100
AcDbArc
 50
92.7438636257
 51
174.7658917602999
  0
ARC
  5
5DA
330
1F
100
AcDbEntity
  8
0
  6
Continuous
100
AcDbCircle
 10
153.1501791972999
 20
77.6889695254
 30
0.0
 40
0.1395
100
AcDbArc
 50
174.7658917602999
 51
180.0
  0
ARC
  5
5DB
330
1F
100
AcDbEntity
  8
0
  6
Continuous
100
AcDbCircle
 10
154.4601791973
 20
72.7964695254
 30
0.0
 40
0.1395
100
AcDbArc
 50
0.0
 51
87.25613637429999
  0
ARC
  5
5DC
330
1F
100
AcDbEntity
  8
0
  6
Continuous
100
AcDbCircle
 10
154.4601791973
 20
72.7964695254
 30
0.0
 40
0.1395
100
AcDbArc
 50
87.25613637429999
 51
92.7438636257
  0
ARC
  5
5DD
330
1F
100
AcDbEntity
  8
0
  6
Continuous
100
AcDbCircle
 10
154.4601791973
 20
72.7964695254
 30
0.0
 40
0.1395
100
AcDbArc
 50
92.7438636257
 51
174.7658917606
  0
ARC
  5
5DE
330
1F
100
AcDbEntity
  8
0
  6
Continuous
100
AcDbCircle
 10
154.4601791973
 20
72.7964695254
 30
0.0
 40
0.1395
100
AcDbArc
 50
174.7658917606
 51
180.0
  0
ARC
  5
5DF
330
1F
100
AcDbEntity
  8
0
  6
Continuous
100
AcDbCircle
 10
154.4601791973
 20
72.7964695254
 30
0.0
 40
0.1395
100
AcDbArc
 50
180.0
 51
185.2341082393999
  0
ARC
  5
5E0
330
1F
100
AcDbEntity
  8
0
  6
Continuous
100
AcDbCircle
 10
154.4601791973
 20
72.7964695254
 30
0.0
 40
0.1395
100
AcDbArc
 50
185.2341082393999
 51
267.2561363743
  0
ARC
  5
5E1
330
1F
100
AcDbEntity
  8
0
  6
Continuous
100
AcDbCircle
 10
154.4601791973
 20
72.7964695254
 30
0.0
 40
0.1395
100
AcDbArc
 50
267.2561363743
 51
272.7438636256999
  0
ARC
  5
5E2
330
1F
100
AcDbEntity
  8
0
  6
Continuous
100
AcDbCircle
 10
154.4601791973
 20
72.7964695254
 30
0.0
 40
0.1395
100
AcDbArc
 50
272.7438636256999
 51
360.0
  0
ARC
  5
5E3
330
1F
100
AcDbEntity
  8
0
  6
Continuous
100
AcDbCircle
 10
149.8401791972999
 20
72.7964695254
 30
0.0
 40
0.1395
100
AcDbArc
 50
0.0
 51
87.25613637429999
  0
ARC
  5
5E4
330
1F
100
AcDbEntity
  8
0
  6
Continuous
100
AcDbCircle
 10
149.8401791972999
 20
72.7964695254
 30
0.0
 40
0.1395
100
AcDbArc
 50
87.25613637429999
 51
92.7438636257
  0
ARC
  5
5E5
330
1F
100
AcDbEntity
  8
0
  6
Continuous
100
AcDbCircle
 10
149.8401791972999
 20
72.7964695254
 30
0.0
 40
0.1395
100
AcDbArc
 50
92.7438636257
 51
174.7658917606
  0
ARC
  5
5E6
330
1F
100
AcDbEntity
  8
0
  6
Continuous
100
AcDbCircle
 10
149.8401791972999
 20
72.7964695254
 30
0.0
 40
0.1395
100
AcDbArc
 50
174.7658917606
 51
180.0
  0
ARC
  5
5E7
330
1F
100
AcDbEntity
  8
0
  6
Continuous
100
AcDbCircle
 10
149.8401791972999
 20
72.7964695254
 30
0.0
 40
0.1395
100
AcDbArc
 50
180.0
 51
185.2341082393999
  0
ARC
  5
5E8
330
1F
100
AcDbEntity
  8
0
  6
Continuous
100
AcDbCircle
 10
149.8401791972999
 20
72.7964695254
 30
0.0
 40
0.1395
100
AcDbArc
 50
185.2341082393999
 51
267.2561363743
  0
ARC
  5
5E9
330
1F
100
AcDbEntity
  8
0
  6
Continuous
100
AcDbCircle
 10
149.8401791972999
 20
72.7964695254
 30
0.0
 40
0.1395
100
AcDbArc
 50
267.2561363743
 51
272.7438636256999
  0
ARC
  5
5EA
330
1F
100
AcDbEntity
  8
0
  6
Continuous
100
AcDbCircle
 10
149.8401791972999
 20
72.7964695254
 30
0.0
 40
0.1395
100
AcDbArc
 50
272.7438636256999
 51
360.0
  0
ARC
  5
5EB
330
1F
100
AcDbEntity
  8
0
  6
Continuous
100
AcDbCircle
 10
154.4601791973
 20
75.9564695254
 30
0.0
 40
0.1395
100
AcDbArc
 50
0.0
 51
87.25613637429999
  0
ARC
  5
5EC
330
1F
100
AcDbEntity
  8
0
  6
Continuous
100
AcDbCircle
 10
154.4601791973
 20
75.9564695254
 30
0.0
 40
0.1395
100
AcDbArc
 50
87.25613637429999
 51
92.7438636257
  0
ARC
  5
5ED
330
1F
100
AcDbEntity
  8
0
  6
Continuous
100
AcDbCircle
 10
154.4601791973
 20
75.9564695254
 30
0.0
 40
0.1395
100
AcDbArc
 50
92.7438636257
 51
174.7658917606
  0
ARC
  5
5EE
330
1F
100
AcDbEntity
  8
0
  6
Continuous
100
AcDbCircle
 10
154.4601791973
 20
75.9564695254
 30
0.0
 40
0.1395
100
AcDbArc
 50
174.7658917606
 51
180.0
  0
ARC
  5
5EF
330
1F
100
AcDbEntity
  8
0
  6
Continuous
100
AcDbCircle
 10
154.4601791973
 20
75.9564695254
 30
0.0
 40
0.1395
100
AcDbArc
 50
180.0
 51
185.2341082393999
  0
ARC
  5
5F0
330
1F
100
AcDbEntity
  8
0
  6
Continuous
100
AcDbCircle
 10
154.4601791973
 20
75.9564695254
 30
0.0
 40
0.1395
100
AcDbArc
 50
185.2341082393999
 51
267.2561363743
  0
ARC
  5
5F1
330
1F
100
AcDbEntity
  8
0
  6
Continuous
100
AcDbCircle
 10
154.4601791973
 20
75.9564695254
 30
0.0
 40
0.1395
100
AcDbArc
 50
267.2561363743
 51
272.7438636256999
  0
ARC
  5
5F2
330
1F
100
AcDbEntity
  8
0
  6
Continuous
100
AcDbCircle
 10
154.4601791973
 20
75.9564695254
 30
0.0
 40
0.1395
100
AcDbArc
 50
272.7438636256999
 51
360.0
  0
ARC
  5
5F3
330
1F
100
AcDbEntity
  8
0
  6
Continuous
100
AcDbCircle
 10
149.8401791972999
 20
75.9564695254
 30
0.0
 40
0.1395
100
AcDbArc
 50
0.0
 51
87.25613637429999
  0
ARC
  5
5F4
330
1F
100
AcDbEntity
  8
0
  6
Continuous
100
AcDbCircle
 10
149.8401791972999
 20
75.9564695254
 30
0.0
 40
0.1395
100
AcDbArc
 50
87.25613637429999
 51
92.7438636257
  0
ARC
  5
5F5
330
1F
100
AcDbEntity
  8
0
  6
Continuous
100
AcDbCircle
 10
149.8401791972999
 20
75.9564695254
 30
0.0
 40
0.1395
100
AcDbArc
 50
92.7438636257
 51
174.7658917606
  0
ARC
  5
5F6
330
1F
100
AcDbEntity
  8
0
  6
Continuous
100
AcDbCircle
 10
149.8401791972999
 20
75.9564695254
 30
0.0
 40
0.1395
100
AcDbArc
 50
174.7658917606
 51
180.0
  0
ARC
  5
5F7
330
1F
100
AcDbEntity
  8
0
  6
Continuous
100
AcDbCircle
 10
149.8401791972999
 20
75.9564695254
 30
0.0
 40
0.1395
100
AcDbArc
 50
180.0
 51
185.2341082393999
  0
ARC
  5
5F8
330
1F
100
AcDbEntity
  8
0
  6
Continuous
100
AcDbCircle
 10
149.8401791972999
 20
75.9564695254
 30
0.0
 40
0.1395
100
AcDbArc
 50
185.2341082393999
 51
267.2561363743
  0
ARC
  5
5F9
330
1F
100
AcDbEntity
  8
0
  6
Continuous
100
AcDbCircle
 10
149.8401791972999
 20
75.9564695254
 30
0.0
 40
0.1395
100
AcDbArc
 50
267.2561363743
 51
272.7438636256999
  0
ARC
  5
5FA
330
1F
100
AcDbEntity
  8
0
  6
Continuous
100
AcDbCircle
 10
149.8401791972999
 20
75.9564695254
 30
0.0
 40
0.1395
100
AcDbArc
 50
272.7438636256999
 51
360.0
  0
ARC
  5
5FB
330
1F
100
AcDbEntity
  8
0
  6
Continuous
100
AcDbCircle
 10
153.1501791972999
 20
71.06396952539999
 30
0.0
 40
0.1395
100
AcDbArc
 50
0.0
 51
87.25613637429999
  0
ARC
  5
5FC
330
1F
100
AcDbEntity
  8
0
  6
Continuous
100
AcDbCircle
 10
153.1501791972999
 20
71.06396952539999
 30
0.0
 40
0.1395
100
AcDbArc
 50
87.25613637429999
 51
92.7438636257
  0
ARC
  5
5FD
330
1F
100
AcDbEntity
  8
0
  6
Continuous
100
AcDbCircle
 10
153.1501791972999
 20
71.06396952539999
 30
0.0
 40
0.1395
100
AcDbArc
 50
92.7438636257
 51
174.7658917602999
  0
ARC
  5
5FE
330
1F
100
AcDbEntity
  8
0
  6
Continuous
100
AcDbCircle
 10
153.1501791972999
 20
71.06396952539999
 30
0.0
 40
0.1395
100
AcDbArc
 50
174.7658917602999
 51
180.0
  0
ARC
  5
5FF
330
1F
100
AcDbEntity
  8
0
  6
Continuous
100
AcDbCircle
 10
153.1501791972999
 20
71.06396952539999
 30
0.0
 40
0.1395
100
AcDbArc
 50
180.0
 51
185.2341082397
  0
ARC
  5
600
330
1F
100
AcDbEntity
  8
0
  6
Continuous
100
AcDbCircle
 10
153.1501791972999
 20
71.06396952539999
 30
0.0
 40
0.1395
100
AcDbArc
 50
185.2341082397
 51
267.2561363743
  0
ARC
  5
601
330
1F
100
AcDbEntity
  8
0
  6
Continuous
100
AcDbCircle
 10
153.1501791972999
 20
71.06396952539999
 30
0.0
 40
0.1395
100
AcDbArc
 50
267.2561363743
 51
272.7438636256999
  0
ARC
  5
602
330
1F
100
AcDbEntity
  8
0
  6
Continuous
100
AcDbCircle
 10
153.1501791972999
 20
71.06396952539999
 30
0.0
 40
0.1395
100
AcDbArc
 50
272.7438636256999
 51
360.0
  0
ARC
  5
603
330
1F
100
AcDbEntity
  8
0
  6
Continuous
100
AcDbCircle
 10
151.1501791973
 20
71.06396952539999
 30
0.0
 40
0.1395
100
AcDbArc
 50
0.0
 51
87.25613637429999
  0
ARC
  5
604
330
1F
100
AcDbEntity
  8
0
  6
Continuous
100
AcDbCircle
 10
151.1501791973
 20
71.06396952539999
 30
0.0
 40
0.1395
100
AcDbArc
 50
87.25613637429999
 51
92.7438636257
  0
ARC
  5
605
330
1F
100
AcDbEntity
  8
0
  6
Continuous
100
AcDbCircle
 10
151.1501791973
 20
71.06396952539999
 30
0.0
 40
0.1395
100
AcDbArc
 50
92.7438636257
 51
174.7658917606
  0
ARC
  5
606
330
1F
100
AcDbEntity
  8
0
  6
Continuous
100
AcDbCircle
 10
151.1501791973
 20
71.06396952539999
 30
0.0
 40
0.1395
100
AcDbArc
 50
174.7658917606
 51
180.0
  0
ARC
  5
607
330
1F
100
AcDbEntity
  8
0
  6
Continuous
100
AcDbCircle
 10
151.1501791973
 20
71.06396952539999
 30
0.0
 40
0.1395
100
AcDbArc
 50
180.0
 51
185.2341082393999
  0
ARC
  5
608
330
1F
100
AcDbEntity
  8
0
  6
Continuous
100
AcDbCircle
 10
151.1501791973
 20
71.06396952539999
 30
0.0
 40
0.1395
100
AcDbArc
 50
185.2341082393999
 51
267.2561363743
  0
ARC
  5
609
330
1F
100
AcDbEntity
  8
0
  6
Continuous
100
AcDbCircle
 10
151.1501791973
 20
71.06396952539999
 30
0.0
 40
0.1395
100
AcDbArc
 50
267.2561363743
 51
272.7438636256999
  0
ARC
  5
60A
330
1F
100
AcDbEntity
  8
0
  6
Continuous
100
AcDbCircle
 10
151.1501791973
 20
71.06396952539999
 30
0.0
 40
0.1395
100
AcDbArc
 50
272.7438636256999
 51
360.0
  0
LINE
  5
60B
330
1F
100
AcDbEntity
  8
0
  6
Continuous
100
AcDbLine
 10
135.1501791972999
 20
59.3664695254
 30
0.0
 11
135.1501791972999
 21
89.3664695254
 31
0.0
  0
LINE
  5
60C
330
1F
100
AcDbEntity
  8
0
  6
Continuous
100
AcDbLine
 10
159.1501791972999
 20
59.3664695254
 30
0.0
 11
159.1501791972999
 21
89.3664695254
 31
0.0
  0
LINE
  5
60D
330
1F
100
AcDbEntity
  8
0
  6
Continuous
100
AcDbLine
 10
135.1501791972999
 20
59.3664695254
 30
0.0
 11
159.1501791972999
 21
59.3664695254
 31
0.0
  0
LINE
  5
60E
330
1F
100
AcDbEntity
  8
0
  6
Continuous
100
AcDbLine
 10
149.8751791972999
 20
70.81646952539999
 30
0.0
 11
154.4251791973
 21
70.81646952539999
 31
0.0
  0
LINE
  5
60F
330
1F
100
AcDbEntity
  8
0
  6
Continuous
100
AcDbLine
 10
154.6751791973
 20
71.0664695254
 30
0.0
 11
154.6751791973
 21
77.6664695254
 31
0.0
  0
LINE
  5
610
330
1F
100
AcDbEntity
  8
0
  6
Continuous
100
AcDbLine
 10
154.4251791973
 20
77.9164695254
 30
0.0
 11
149.8751791972999
 21
77.9164695254
 31
0.0
  0
LINE
  5
611
330
1F
100
AcDbEntity
  8
0
  6
Continuous
100
AcDbLine
 10
149.6251791972999
 20
77.6664695254
 30
0.0
 11
149.6251791972999
 21
71.0664695254
 31
0.0
  0
LINE
  5
612
330
1F
100
AcDbEntity
  8
0
  6
Continuous
100
AcDbLine
 10
135.1501791972999
 20
89.3664695254
 30
0.0
 11
159.1501791972999
 21
89.3664695254
 31
0.0
  0
ARC
  5
613
330
1F
100
AcDbEntity
  8
0
  6
Continuous
100
AcDbCircle
 10
149.8751791972999
 20
77.6664695254
 30
0.0
 40
0.25
100
AcDbArc
 50
149.9622217049
 51
180.0
  0
ARC
  5
614
330
1F
100
AcDbEntity
  8
0
  6
Continuous
100
AcDbCircle
 10
149.8751791972999
 20
77.6664695254
 30
0.0
 40
0.25
100
AcDbArc
 50
120.080407101
 51
149.9622217049
  0
ARC
  5
615
330
1F
100
AcDbEntity
  8
0
  6
Continuous
100
AcDbCircle
 10
149.8751791972999
 20
77.6664695254
 30
0.0
 40
0.25
100
AcDbArc
 50
90.0
 51
120.080407101
  0
ARC
  5
616
330
1F
100
AcDbEntity
  8
0
  6
Continuous
100
AcDbCircle
 10
149.8751791972999
 20
71.0664695254
 30
0.0
 40
0.25
100
AcDbArc
 50
239.9622217048
 51
270.0
  0
ARC
  5
617
330
1F
100
AcDbEntity
  8
0
  6
Continuous
100
AcDbCircle
 10
149.8751791972999
 20
71.0664695254
 30
0.0
 40
0.25
100
AcDbArc
 50
204.0380509748
 51
239.9622217048
  0
ARC
  5
618
330
1F
100
AcDbEntity
  8
0
  6
Continuous
100
AcDbCircle
 10
149.8751791972999
 20
71.0664695254
 30
0.0
 40
0.25
100
AcDbArc
 50
180.0
 51
204.0380509748
  0
ARC
  5
619
330
1F
100
AcDbEntity
  8
0
  6
Continuous
100
AcDbCircle
 10
154.4251791973
 20
71.0664695254
 30
0.0
 40
0.25
100
AcDbArc
 50
335.9942316029
 51
360.0
  0
ARC
  5
61A
330
1F
100
AcDbEntity
  8
0
  6
Continuous
100
AcDbCircle
 10
154.4251791973
 20
71.0664695254
 30
0.0
 40
0.25
100
AcDbArc
 50
300.080407101
 51
335.9942316029
  0
ARC
  5
61B
330
1F
100
AcDbEntity
  8
0
  6
Continuous
100
AcDbCircle
 10
154.4251791973
 20
71.0664695254
 30
0.0
 40
0.25
100
AcDbArc
 50
270.0
 51
300.080407101
  0
ARC
  5
61C
330
1F
100
AcDbEntity
  8
0
  6
Continuous
100
AcDbCircle
 10
154.4251791973
 20
77.6664695254
 30
0.0
 40
0.25
100
AcDbArc
 50
59.9622217049
 51
90.0
  0
ARC
  5
61D
330
1F
100
AcDbEntity
  8
0
  6
Continuous
100
AcDbCircle
 10
154.4251791973
 20
77.6664695254
 30
0.0
 40
0.25
100
AcDbArc
 50
30.080407101
 51
59.9622217049
  0
ARC
  5
61E
330
1F
100
AcDbEntity
  8
0
  6
Continuous
100
AcDbCircle
 10
154.4251791973
 20
77.6664695254
 30
0.0
 40
0.25
100
AcDbArc
 50
0.0
 51
30.080407101
  0
LINE
  5
61F
330
1F
100
AcDbEntity
  8
0
  6
Continuous
100
AcDbLine
 10
73.44295267689999
 20
141.13025844
 30
0.0
 11
73.4689526769
 21
141.13025844
 31
0.0
  0
LINE
  5
620
330
1F
100
AcDbEntity
  8
0
  6
Continuous
100
AcDbLine
 10
73.4689526769
 20
144.3202584399999
 30
0.0
 11
73.44295267689999
 21
144.3202584399999
 31
0.0
  0
LINE
  5
621
330
1F
100
AcDbEntity
  8
0
  6
Continuous
100
AcDbLine
 10
73.4689526769
 20
144.19525844
 30
0.0
 11
73.4689526769
 21
144.3202584399999
 31
0.0
  0
LINE
  5
622
330
1F
100
AcDbEntity
  8
0
  6
Continuous
100
AcDbLine
 10
73.44295267689999
 20
144.19525844
 30
0.0
 11
73.4689526769
 21
144.19525844
 31
0.0
  0
LINE
  5
623
330
1F
100
AcDbEntity
  8
0
  6
Continuous
100
AcDbLine
 10
73.4689526769
 20
143.82025844
 30
0.0
 11
73.44295267689999
 21
143.82025844
 31
0.0
  0
LINE
  5
624
330
1F
100
AcDbEntity
  8
0
  6
Continuous
100
AcDbLine
 10
73.4689526769
 20
143.6952584399999
 30
0.0
 11
73.4689526769
 21
143.82025844
 31
0.0
  0
LINE
  5
625
330
1F
100
AcDbEntity
  8
0
  6
Continuous
100
AcDbLine
 10
73.44295267689999
 20
143.6952584399999
 30
0.0
 11
73.4689526769
 21
143.6952584399999
 31
0.0
  0
LINE
  5
626
330
1F
100
AcDbEntity
  8
0
  6
Continuous
100
AcDbLine
 10
73.4689526769
 20
143.32025844
 30
0.0
 11
73.44295267689999
 21
143.32025844
 31
0.0
  0
LINE
  5
627
330
1F
100
AcDbEntity
  8
0
  6
Continuous
100
AcDbLine
 10
73.4689526769
 20
143.19525844
 30
0.0
 11
73.4689526769
 21
143.32025844
 31
0.0
  0
LINE
  5
628
330
1F
100
AcDbEntity
  8
0
  6
Continuous
100
AcDbLine
 10
73.44295267689999
 20
143.19525844
 30
0.0
 11
73.4689526769
 21
143.19525844
 31
0.0
  0
LINE
  5
629
330
1F
100
AcDbEntity
  8
0
  6
Continuous
100
AcDbLine
 10
73.4689526769
 20
142.78775844
 30
0.0
 11
73.44295267689999
 21
142.78775844
 31
0.0
  0
LINE
  5
62A
330
1F
100
AcDbEntity
  8
0
  6
Continuous
100
AcDbLine
 10
73.4689526769
 20
142.66275844
 30
0.0
 11
73.4689526769
 21
142.78775844
 31
0.0
  0
LINE
  5
62B
330
1F
100
AcDbEntity
  8
0
  6
Continuous
100
AcDbLine
 10
73.44295267689999
 20
142.66275844
 30
0.0
 11
73.4689526769
 21
142.66275844
 31
0.0
  0
LINE
  5
62C
330
1F
100
AcDbEntity
  8
0
  6
Continuous
100
AcDbLine
 10
73.4689526769
 20
142.2552584399999
 30
0.0
 11
73.44295267689999
 21
142.2552584399999
 31
0.0
  0
LINE
  5
62D
330
1F
100
AcDbEntity
  8
0
  6
Continuous
100
AcDbLine
 10
73.4689526769
 20
142.13025844
 30
0.0
 11
73.4689526769
 21
142.2552584399999
 31
0.0
  0
LINE
  5
62E
330
1F
100
AcDbEntity
  8
0
  6
Continuous
100
AcDbLine
 10
73.44295267689999
 20
142.13025844
 30
0.0
 11
73.4689526769
 21
142.13025844
 31
0.0
  0
LINE
  5
62F
330
1F
100
AcDbEntity
  8
0
  6
Continuous
100
AcDbLine
 10
73.4689526769
 20
141.75525844
 30
0.0
 11
73.44295267689999
 21
141.75525844
 31
0.0
  0
LINE
  5
630
330
1F
100
AcDbEntity
  8
0
  6
Continuous
100
AcDbLine
 10
73.4689526769
 20
141.63025844
 30
0.0
 11
73.4689526769
 21
141.75525844
 31
0.0
  0
LINE
  5
631
330
1F
100
AcDbEntity
  8
0
  6
Continuous
100
AcDbLine
 10
73.44295267689999
 20
141.63025844
 30
0.0
 11
73.4689526769
 21
141.63025844
 31
0.0
  0
LINE
  5
632
330
1F
100
AcDbEntity
  8
0
  6
Continuous
100
AcDbLine
 10
73.4689526769
 20
141.25525844
 30
0.0
 11
73.44295267689999
 21
141.25525844
 31
0.0
  0
LINE
  5
633
330
1F
100
AcDbEntity
  8
0
  6
Continuous
100
AcDbLine
 10
73.4689526769
 20
141.13025844
 30
0.0
 11
73.4689526769
 21
141.25525844
 31
0.0
  0
LINE
  5
634
330
1F
100
AcDbEntity
  8
0
  6
Continuous
100
AcDbLine
 10
73.4389526769
 20
125.7242584399999
 30
0.0
 11
25.4389526769
 21
125.7242584399999
 31
0.0
  0
LINE
  5
635
330
1F
100
AcDbEntity
  8
0
  6
Continuous
100
AcDbLine
 10
73.4389526769
 20
149.72425844
 30
0.0
 11
25.4389526769
 21
149.72425844
 31
0.0
  0
LINE
  5
636
330
1F
100
AcDbEntity
  8
0
  6
Continuous
100
AcDbLine
 10
25.4389526769
 20
125.7242584399999
 30
0.0
 11
25.4389526769
 21
149.72425844
 31
0.0
  0
LINE
  5
637
330
1F
100
AcDbEntity
  8
0
  6
Continuous
100
AcDbLine
 10
73.4389526769
 20
125.7242584399999
 30
0.0
 11
73.4389526769
 21
149.72425844
 31
0.0
  0
DIMENSION
  5
638
330
1F
100
AcDbEntity
  8
0
  6
Continuous
100
AcDbDimension
  2
*D2
 10
25.4389526769
 20
99.9197318628
 30
0.0
 11
49.4364311893
 21
99.9197318628
 31
0.0
 70
   160
 71
     5
 42
48.0
  3
DIMSTYLE_1
100
AcDbAlignedDimension
 13
73.4389526769
 23
89.9914695254
 33
0.0
 14
25.4389526769
 24
89.9914695254
 34
0.0
 50
180.0
100
AcDbRotatedDimension
1001
ACAD
1000
DSTYLE
1002
{
1070
     3
1000
\X
1070
   147
1040
1.0
1070
   170
1070
     1
1070
   171
1070
     1
1002
}
  0
DIMENSION
  5
639
330
1F
100
AcDbEntity
  8
0
  6
Continuous
100
AcDbDimension
  2
*D3
 10
88.3749212846
 20
59.36646952539999
 30
0.0
 11
88.37492128459999
 21
74.4767396096
 31
0.0
 70
   160
 71
     5
 42
30.0
  3
DIMSTYLE_1
100
AcDbAlignedDimension
 13
74.0639526769
 23
89.3664695254
 33
0.0
 14
74.0639526769
 24
59.3664695254
 34
0.0
 50
270.0
100
AcDbRotatedDimension
1001
ACAD
1000
DSTYLE
1002
{
1070
     3
1000
\X
1070
   147
1040
1.0
1070
   170
1070
     1
1070
   171
1070
     1
1002
}
  0
DIMENSION
  5
63A
330
1F
100
AcDbEntity
  8
0
  6
Continuous
100
AcDbDimension
  2
*D4
 10
159.1501791972999
 20
100.3432265379
 30
0.0
 11
147.5778317749999
 21
100.3432265379
 31
0.0
 70
   160
 71
     5
 42
24.0
  3
DIMSTYLE_1
100
AcDbAlignedDimension
 13
135.1501791972999
 23
89.9914695254
 33
0.0
 14
159.1501791972999
 24
89.9914695254
 34
0.0
100
AcDbRotatedDimension
1001
ACAD
1000
DSTYLE
1002
{
1070
     3
1000
\X
1070
   147
1040
1.0
1070
   170
1070
     1
1070
   171
1070
     1
1002
}
  0
DIMENSION
  5
63B
330
1F
100
AcDbEntity
  8
0
  6
Continuous
100
AcDbDimension
  2
*D5
 10
181.131845907
 20
70.81646952539998
 30
0.0
 11
181.131845907
 21
65.14066505159999
 31
0.0
 70
   160
 71
     5
 42
11.44999999999998
  3
DIMSTYLE_1
100
AcDbAlignedDimension
 13
159.7751791972999
 23
59.3664695254
 33
0.0
 14
155.0501791972999
 24
70.81646952539999
 34
0.0
 50
90.0
100
AcDbRotatedDimension
1001
ACAD
1000
DSTYLE
1002
{
1070
     3
1000
\X
1070
   147
1040
1.0
1070
   170
1070
     1
1070
   171
1070
     1
1002
}
  0
DIMENSION
  5
63C
330
1F
100
AcDbEntity
  8
0
  6
Continuous
100
AcDbDimension
  2
*D6
 10
149.6251791972999
 20
91.2623898939
 30
0.0
 11
125.6162638275
 21
91.2623898939
 31
0.0
 70
   160
 71
     5
 42
14.47499999999999
  3
DIMSTYLE_1
100
AcDbAlignedDimension
 13
135.1501791972999
 23
89.9914695254
 33
0.0
 14
149.6251791972999
 24
78.2914695254
 34
0.0
100
AcDbRotatedDimension
1001
ACAD
1000
DSTYLE
1002
{
1070
     3
1000
\X
1070
   147
1040
1.0
1070
   170
1070
     1
1070
   171
1070
     1
1002
}
  0
DIMENSION
  5
63D
330
1F
100
AcDbEntity
  8
0
  6
Continuous
100
AcDbDimension
  2
*D7
 10
154.6751791973
 20
79.6299035487
 30
0.0
 11
141.1251791972999
 21
79.6299035487
 31
0.0
 70
   160
 71
     5
 42
5.050000000000011
  3
DIMSTYLE_1
100
AcDbAlignedDimension
 13
149.6251791972999
 23
78.2914695254
 33
0.0
 14
154.6751791973
 24
78.2914695254
 34
0.0
100
AcDbRotatedDimension
1001
ACAD
1000
DSTYLE
1002
{
1070
     3
1000
\X
1070
   147
1040
1.0
1070
   170
1070
     1
1070
   171
1070
     1
1002
}
  0
DIMENSION
  5
63E
330
1F
100
AcDbEntity
  8
0
  6
Continuous
100
AcDbDimension
  2
*D8
 10
166.1118020570666
 20
70.81646952539998
 30
0.0
 11
172.6326353903999
 21
79.79146952540002
 31
0.0
 70
   160
 71
     5
 42
7.100000000000008
  3
DIMSTYLE_1
100
AcDbAlignedDimension
 13
155.0501791972999
 23
77.9164695254
 33
0.0
 14
155.0501791972999
 24
70.81646952539999
 34
0.0
 50
270.0
100
AcDbRotatedDimension
1001
ACAD
1000
DSTYLE
1002
{
1070
     3
1000
\X
1070
   147
1040
1.0
1070
   170
1070
     1
1070
   171
1070
     1
1002
}
  0
LINE
  5
63F
330
1F
100
AcDbEntity
  8
0
  6
Continuous
100
AcDbLine
 10
213.7377704558
 20
166.7930711779
 30
0.0
 11
142.2877704558
 21
166.7930711779
 31
0.0
  0
LINE
  5
640
330
1F
100
AcDbEntity
  8
0
  6
Continuous
100
AcDbLine
 10
213.6377704558
 20
166.7930711779
 30
0.0
 11
213.6377704558
 21
154.2930711779
 31
0.0
  0
LINE
  5
641
330
1F
100
AcDbEntity
  8
0
  6
Continuous
100
AcDbLine
 10
213.6377704558
 20
164.2930711778999
 30
0.0
 11
142.3877704558
 21
164.2930711778999
 31
0.0
  0
LINE
  5
642
330
1F
100
AcDbEntity
  8
0
  6
Continuous
100
AcDbLine
 10
213.6377704558
 20
161.7930711779
 30
0.0
 11
142.3877704558
 21
161.7930711779
 31
0.0
  0
LINE
  5
643
330
1F
100
AcDbEntity
  8
0
  6
Continuous
100
AcDbLine
 10
213.6377704558
 20
159.2930711779
 30
0.0
 11
142.3877704558
 21
159.2930711779
 31
0.0
  0
LINE
  5
644
330
1F
100
AcDbEntity
  8
0
  6
Continuous
100
AcDbLine
 10
213.6377704558
 20
156.7930711778999
 30
0.0
 11
142.3877704558
 21
156.7930711778999
 31
0.0
  0
LINE
  5
645
330
1F
100
AcDbEntity
  8
0
  6
Continuous
100
AcDbLine
 10
213.7377704558
 20
154.2930711779
 30
0.0
 11
142.2877704558
 21
154.2930711779
 31
0.0
  0
LINE
  5
646
330
1F
100
AcDbEntity
  8
0
  6
Continuous
100
AcDbLine
 10
202.3877704558
 20
164.2930711778999
 30
0.0
 11
202.3877704558
 21
154.2930711779
 31
0.0
  0
LINE
  5
647
330
1F
100
AcDbEntity
  8
0
  6
Continuous
100
AcDbLine
 10
197.3877704558
 20
164.2930711778999
 30
0.0
 11
197.3877704558
 21
154.2930711779
 31
0.0
  0
LINE
  5
648
330
1F
100
AcDbEntity
  8
0
  6
Continuous
100
AcDbLine
 10
187.3877704558
 20
164.2930711778999
 30
0.0
 11
187.3877704558
 21
154.2930711779
 31
0.0
  0
LINE
  5
649
330
1F
100
AcDbEntity
  8
0
  6
Continuous
100
AcDbLine
 10
147.3877704558
 20
164.2930711778999
 30
0.0
 11
147.3877704558
 21
154.2930711779
 31
0.0
  0
LINE
  5
64A
330
1F
100
AcDbEntity
  8
0
  6
Continuous
100
AcDbLine
 10
142.3877704558
 20
166.7930711779
 30
0.0
 11
142.3877704558
 21
154.2930711779
 31
0.0
  0
TEXT
  5
64B
330
1F
100
AcDbEntity
  8
0
  6
Continuous
100
AcDbText
 10
173.8461037891333
 20
164.9180711779
 30
0.0
 40
1.25
  1
REVISIONS
 41
0.8
 72
     1
 11
178.0127704558
 21
164.9180711779
 31
0.0
100
AcDbText
  0
TEXT
  5
64C
330
1F
100
AcDbEntity
  8
0
  6
Continuous
100
AcDbText
 10
203.1377704558
 20
162.4180711779
 30
0.0
 40
1.25
  1
APPROVED DATE
 41
0.6
 72
     1
 11
208.0127704558
 21
162.4180711779
 31
0.0
100
AcDbText
  0
TEXT
  5
64D
330
1F
100
AcDbEntity
  8
0
  6
Continuous
100
AcDbText
 10
198.8877704558
 20
162.4180711779
 30
0.0
 40
1.25
  1
CHK
 41
0.6
 72
     1
 11
199.8877704558
 21
162.4180711779
 31
0.0
100
AcDbText
  0
TEXT
  5
64E
330
1F
100
AcDbEntity
  8
0
  6
Continuous
100
AcDbText
 10
189.5127704558
 20
162.4180711779
 30
0.0
 40
1.25
  1
EFF DATE
 41
0.6
 72
     1
 11
192.3877704558
 21
162.4180711779
 31
0.0
100
AcDbText
  0
TEXT
  5
64F
330
1F
100
AcDbEntity
  8
0
  6
Continuous
100
AcDbText
 10
163.6377704557999
 20
162.4180711779
 30
0.0
 40
1.25
  1
DESCRIPTION
 41
0.6
 72
     1
 11
167.3877704558
 21
162.4180711779
 31
0.0
100
AcDbText
  0
TEXT
  5
650
330
1F
100
AcDbEntity
  8
0
  6
Continuous
100
AcDbText
 10
143.7627704557999
 20
162.4180711779
 30
0.0
 40
1.25
  1
REV
 41
0.6
 72
     1
 11
144.8877704557999
 21
162.4180711779
 31
0.0
100
AcDbText
  0
TEXT
  5
651
330
1F
100
AcDbEntity
  8
0
  6
Continuous
100
AcDbText
 10
206.5544371224667
 20
159.7618211779
 30
0.0
 40
1.5625
  1
B.H.
 41
0.8
 72
     1
 11
208.0127704558
 21
159.7618211779
 31
0.0
100
AcDbText
  0
TEXT
  5
652
330
1F
100
AcDbEntity
  8
0
  6
Continuous
100
AcDbText
 10
188.3252704558
 20
159.7618211779
 30
0.0
 40
1.5625
  1
6-23-06
 41
0.8
 72
     1
 11
192.3877704558
 21
159.7618211779
 31
0.0
100
AcDbText
  0
TEXT
  5
653
330
1F
100
AcDbEntity
  8
0
  6
Continuous
100
AcDbText
 10
148.0127704557999
 20
159.7618211779
 30
0.0
 40
1.5625
  1
RELEASE PER ECO 7284 JD
 41
0.8
100
AcDbText
  0
TEXT
  5
654
330
1F
100
AcDbEntity
  8
0
  6
Continuous
100
AcDbText
 10
144.4711037891333
 20
159.7618211779
 30
0.0
 40
1.5625
  1
A
 41
0.8
 72
     1
 11
144.8877704557999
 21
159.7618211779
 31
0.0
100
AcDbText
  0
LINE
  5
655
330
1F
100
AcDbEntity
  8
DRW_FORMAT
  6
Continuous
100
AcDbLine
 10
213.6127863205
 20
3.2009056691
 30
0.0
 11
115.9833745557999
 21
3.2009056691
 31
0.0
  0
LINE
  5
656
330
1F
100
AcDbEntity
  8
DRW_FORMAT
  6
Continuous
100
AcDbLine
 10
213.5480804381
 20
3.2009056691
 30
0.0
 11
213.5480804381
 21
28.8259056691
 31
0.0
  0
LINE
  5
657
330
1F
100
AcDbEntity
  8
DRW_FORMAT
  6
Continuous
100
AcDbLine
 10
213.5480804381
 20
5.700905669099999
 30
0.0
 11
116.0480804380999
 21
5.700905669099999
 31
0.0
  0
LINE
  5
658
330
1F
100
AcDbEntity
  8
DRW_FORMAT
  6
Continuous
100
AcDbLine
 10
163.5480804380999
 20
9.450905669099999
 30
0.0
 11
138.5480804380999
 21
9.450905669099999
 31
0.0
  0
LINE
  5
659
330
1F
100
AcDbEntity
  8
DRW_FORMAT
  6
Continuous
100
AcDbLine
 10
213.5480804381
 20
10.7009056691
 30
0.0
 11
163.5480804380999
 21
10.7009056691
 31
0.0
  0
LINE
  5
65A
330
1F
100
AcDbEntity
  8
DRW_FORMAT
  6
Continuous
100
AcDbLine
 10
138.5480804380999
 20
10.7009056691
 30
0.0
 11
116.0480804380999
 21
10.7009056691
 31
0.0
  0
LINE
  5
65B
330
1F
100
AcDbEntity
  8
DRW_FORMAT
  6
Continuous
100
AcDbLine
 10
163.5480804380999
 20
13.2009056691
 30
0.0
 11
138.5480804380999
 21
13.2009056691
 31
0.0
  0
LINE
  5
65C
330
1F
100
AcDbEntity
  8
DRW_FORMAT
  6
Continuous
100
AcDbLine
 10
138.5480804380999
 20
15.7009056691
 30
0.0
 11
116.0480804380999
 21
15.7009056691
 31
0.0
  0
LINE
  5
65D
330
1F
100
AcDbEntity
  8
DRW_FORMAT
  6
Continuous
100
AcDbLine
 10
163.5480804380999
 20
16.9509056691
 30
0.0
 11
138.5480804380999
 21
16.9509056691
 31
0.0
  0
LINE
  5
65E
330
1F
100
AcDbEntity
  8
DRW_FORMAT
  6
Continuous
100
AcDbLine
 10
163.5480804380999
 20
20.7009056691
 30
0.0
 11
138.5480804380999
 21
20.7009056691
 31
0.0
  0
LINE
  5
65F
330
1F
100
AcDbEntity
  8
DRW_FORMAT
  6
Continuous
100
AcDbLine
 10
213.5480804381
 20
21.95090566909999
 30
0.0
 11
163.5480804380999
 21
21.95090566909999
 31
0.0
  0
LINE
  5
660
330
1F
100
AcDbEntity
  8
DRW_FORMAT
  6
Continuous
100
AcDbLine
 10
163.5480804380999
 20
23.82590566909999
 30
0.0
 11
138.5480804380999
 21
23.82590566909999
 31
0.0
  0
LINE
  5
661
330
1F
100
AcDbEntity
  8
DRW_FORMAT
  6
Continuous
100
AcDbLine
 10
213.6127863205
 20
28.8259056691
 30
0.0
 11
115.9833745557999
 21
28.8259056691
 31
0.0
  0
LINE
  5
662
330
1F
100
AcDbEntity
  8
DRW_FORMAT
  6
Continuous
100
AcDbLine
 10
208.5480804381
 20
5.700905669099999
 30
0.0
 11
208.5480804381
 21
10.7009056691
 31
0.0
  0
LINE
  5
663
330
1F
100
AcDbEntity
  8
DRW_FORMAT
  6
Continuous
100
AcDbLine
 10
199.7980804381
 20
3.2009056691
 30
0.0
 11
199.7980804381
 21
5.700905669099999
 31
0.0
  0
LINE
  5
664
330
1F
100
AcDbEntity
  8
DRW_FORMAT
  6
Continuous
100
AcDbLine
 10
178.5480804381
 20
5.700905669099999
 30
0.0
 11
178.5480804381
 21
10.7009056691
 31
0.0
  0
LINE
  5
665
330
1F
100
AcDbEntity
  8
DRW_FORMAT
  6
Continuous
100
AcDbLine
 10
173.5480804381
 20
3.2009056691
 30
0.0
 11
173.5480804381
 21
5.700905669099999
 31
0.0
  0
LINE
  5
666
330
1F
100
AcDbEntity
  8
DRW_FORMAT
  6
Continuous
100
AcDbLine
 10
168.5480804380999
 20
5.700905669099999
 30
0.0
 11
168.5480804380999
 21
10.7009056691
 31
0.0
  0
LINE
  5
667
330
1F
100
AcDbEntity
  8
DRW_FORMAT
  6
Continuous
100
AcDbLine
 10
163.5480804380999
 20
3.2009056691
 30
0.0
 11
163.5480804380999
 21
28.8259056691
 31
0.0
  0
LINE
  5
668
330
1F
100
AcDbEntity
  8
DRW_FORMAT
  6
Continuous
100
AcDbLine
 10
156.0480804380999
 20
5.700905669099999
 30
0.0
 11
156.0480804380999
 21
23.82590566909999
 31
0.0
  0
LINE
  5
669
330
1F
100
AcDbEntity
  8
DRW_FORMAT
  6
Continuous
100
AcDbLine
 10
138.5480804380999
 20
3.2009056691
 30
0.0
 11
138.5480804380999
 21
28.8259056691
 31
0.0
  0
LINE
  5
66A
330
1F
100
AcDbEntity
  8
DRW_FORMAT
  6
Continuous
100
AcDbLine
 10
116.0480804380999
 20
3.2009056691
 30
0.0
 11
116.0480804380999
 21
28.8259056691
 31
0.0
  0
MTEXT
  5
66B
330
1F
100
AcDbEntity
  8
DRW_FORMAT
  6
Continuous
100
AcDbMText
 10
208.5480804381
 20
5.075905669099999
 30
0.0
 40
1.25
 41
6.0
 71
     2
 72
     1
  1
1 of 1
 73
     1
 44
1.0
  0
MTEXT
  5
66C
330
1F
100
AcDbEntity
  8
DRW_FORMAT
  6
Continuous
100
AcDbMText
 10
186.6730804381
 20
4.950905669099999
 30
0.0
 40
1.0
 41
12.8
 71
     2
 72
     1
  1
RD-000373-01.A.3
 73
     1
 44
1.0
  0
TEXT
  5
66D
330
1F
100
AcDbEntity
  8
DRW_FORMAT
  6
Continuous
100
AcDbText
 10
169.7564137714333
 20
3.8259056691
 30
0.0
 40
1.25
  1
0.100
 41
0.8
 72
     2
 11
172.9230804381
 21
3.8259056691
 31
0.0
100
AcDbText
  0
MTEXT
  5
66E
330
1F
100
AcDbEntity
  8
DRW_FORMAT
  6
Continuous
100
AcDbMText
 10
151.0480804380999
 20
4.950905669099999
 30
0.0
 40
1.0
 41
17.6
 71
     2
 72
     1
  1
WP-05X2180-00.main.D.0
 73
     1
 44
1.0
  0
TEXT
  5
66F
330
1F
100
AcDbEntity
  8
DRW_FORMAT
  6
Continuous
100
AcDbText
 10
117.4647471047666
 20
3.8259056691
 30
0.0
 40
1.25
  1
DO NOT SCALE DRAWING
 41
0.8
 72
     1
 11
127.2980804381
 21
3.8259056691
 31
0.0
100
AcDbText
  0
TEXT
  5
670
330
1F
100
AcDbEntity
  8
DRW_FORMAT
  6
Continuous
100
AcDbText
 10
200.4230804381
 20
4.6259056691
 30
0.0
 40
0.9
  1
SHEET
 41
0.8
100
AcDbText
  0
TEXT
  5
671
330
1F
100
AcDbEntity
  8
DRW_FORMAT
  6
Continuous
100
AcDbText
 10
164.1730804380999
 20
4.6259056691
 30
0.0
 40
0.9
  1
SCALE
 41
0.8
100
AcDbText
  0
TEXT
  5
672
330
1F
100
AcDbEntity
  8
DRW_FORMAT
  6
Continuous
100
AcDbText
 10
210.6314137714333
 20
6.794655669099999
 30
0.0
 40
1.5625
  1
A
 41
0.8
 72
     1
 11
211.0480804381
 21
6.794655669099999
 31
0.0
100
AcDbText
  0
TEXT
  5
673
330
1F
100
AcDbEntity
  8
DRW_FORMAT
  6
Continuous
100
AcDbText
 10
186.8814137714333
 20
6.794655669099999
 30
0.0
 40
1.5625
  1
RD-000373-01
 41
0.8
 72
     1
 11
193.5480804381
 21
6.794655669099999
 31
0.0
100
AcDbText
  0
TEXT
  5
674
330
1F
100
AcDbEntity
  8
DRW_FORMAT
  6
Continuous
100
AcDbText
 10
170.4564137714333
 20
6.482155669099999
 30
0.0
 40
2.0
  1
00PW4
 41
0.8
 72
     2
 11
177.9230804381
 21
6.482155669099999
 31
0.0
100
AcDbText
  0
TEXT
  5
675
330
1F
100
AcDbEntity
  8
DRW_FORMAT
  6
Continuous
100
AcDbText
 10
165.5147471047666
 20
6.575905669099999
 30
0.0
 40
2.0
  1
C
 41
0.8
 72
     1
 11
166.0480804380999
 21
6.575905669099999
 31
0.0
100
AcDbText
  0
MTEXT
  5
676
330
1F
100
AcDbEntity
  8
DRW_FORMAT
  6
Continuous
100
AcDbMText
 10
159.7980804380999
 20
8.200905669099999
 30
0.0
 40
1.25
 41
7.5
 71
     2
 72
     1
  1
21-Jun-06 
  7
TEXTSTYLE_1
 73
     1
 44
1.0
  0
TEXT
  5
677
330
1F
100
AcDbEntity
  8
DRW_FORMAT
  6
Continuous
100
AcDbText
 10
142.2980804380999
 20
6.169655669099999
 30
0.0
 40
1.5625
  1
D. DELARM
 41
0.8
 72
     1
 11
147.2980804380999
 21
6.169655669099999
 31
0.0
100
AcDbText
  0
TEXT
  5
678
330
1F
100
AcDbEntity
  8
DRW_FORMAT
  6
Continuous
100
AcDbText
 10
125.0064137714333
 20
6.794655669099999
 30
0.0
 40
1.5625
  1
NONE
 41
0.8
 72
     1
 11
127.2980804381
 21
6.794655669099999
 31
0.0
100
AcDbText
  0
TEXT
  5
679
330
1F
100
AcDbEntity
  8
DRW_FORMAT
  6
Continuous
100
AcDbText
 10
139.1730804380999
 20
8.375905669099999
 30
0.0
 40
0.9
  1
ISSUED
 41
0.8
100
AcDbText
  0
TEXT
  5
67A
330
1F
100
AcDbEntity
  8
DRW_FORMAT
  6
Continuous
100
AcDbText
 10
209.9680804381
 20
9.625905669099999
 30
0.0
 40
0.9
  1
REV
 41
0.8
 72
     1
 11
211.0480804381
 21
9.625905669099999
 31
0.0
100
AcDbText
  0
TEXT
  5
67B
330
1F
100
AcDbEntity
  8
DRW_FORMAT
  6
Continuous
100
AcDbText
 10
179.1730804381
 20
9.625905669099999
 30
0.0
 40
0.9
  1
DWG NO.
 41
0.8
100
AcDbText
  0
TEXT
  5
67C
330
1F
100
AcDbEntity
  8
DRW_FORMAT
  6
Continuous
100
AcDbText
 10
169.1730804380999
 20
9.625905669099999
 30
0.0
 40
0.9
  1
CAGE CODE
 41
0.8
100
AcDbText
  0
TEXT
  5
67D
330
1F
100
AcDbEntity
  8
DRW_FORMAT
  6
Continuous
100
AcDbText
 10
164.8480804381
 20
9.625905669099999
 30
0.0
 40
0.9
  1
SIZE
 41
0.8
 72
     1
 11
166.0480804380999
 21
9.625905669099999
 31
0.0
100
AcDbText
  0
MTEXT
  5
67E
330
1F
100
AcDbEntity
  8
DRW_FORMAT
  6
Continuous
100
AcDbMText
 10
159.7980804380999
 20
11.9509056691
 30
0.0
 40
1.25
 41
7.5
 71
     2
 72
     1
  1
21-Jun-06 
  7
TEXTSTYLE_1
 73
     1
 44
1.0
  0
TEXT
  5
67F
330
1F
100
AcDbEntity
  8
DRW_FORMAT
  6
Continuous
100
AcDbText
 10
142.5064137714333
 20
9.919655669099999
 30
0.0
 40
1.5625
  1
A. RUTKIN
 41
0.8
 72
     1
 11
147.2980804380999
 21
9.919655669099999
 31
0.0
100
AcDbText
  0
TEXT
  5
680
330
1F
100
AcDbEntity
  8
DRW_FORMAT
  6
Continuous
100
AcDbText
 10
116.6730804381
 20
9.0196556691
 30
0.0
 40
0.9
  1
FINISH
 41
0.8
100
AcDbText
  0
MTEXT
  5
681
330
1F
100
AcDbEntity
  8
DRW_FORMAT
  6
Continuous
100
AcDbMText
 10
188.5480804381
 20
20.3259056691
 30
0.0
 40
2.0
 41
27.2
 71
     2
 72
     1
  1
SPEAKER, FINISHED\PSB-5218, SB-7218\P 
 73
     1
 44
1.0
  0
TEXT
  5
682
330
1F
100
AcDbEntity
  8
DRW_FORMAT
  6
Continuous
100
AcDbText
 10
125.0064137714333
 20
11.7946556691
 30
0.0
 40
1.5625
  1
NONE
 41
0.8
 72
     1
 11
127.2980804381
 21
11.7946556691
 31
0.0
100
AcDbText
  0
TEXT
  5
683
330
1F
100
AcDbEntity
  8
DRW_FORMAT
  6
Continuous
100
AcDbText
 10
139.1730804380999
 20
12.1259056691
 30
0.0
 40
0.9
  1
MFG ENG
 41
0.8
100
AcDbText
  0
TEXT
  5
684
330
1F
100
AcDbEntity
  8
DRW_FORMAT
  6
Continuous
100
AcDbText
 10
156.7355804380999
 20
14.4509056691
 30
0.0
 40
1.25
  1
21-Jun-06
 41
0.6
 72
     1
 11
159.7980804380999
 21
14.4509056691
 31
0.0
100
AcDbText
  0
TEXT
  5
685
330
1F
100
AcDbEntity
  8
DRW_FORMAT
  6
Continuous
100
AcDbText
 10
141.6730804380999
 20
13.6696556691
 30
0.0
 40
1.5625
  1
B. HAWKINS
 41
0.8
 72
     1
 11
147.2980804380999
 21
13.6696556691
 31
0.0
100
AcDbText
  0
TEXT
  5
686
330
1F
100
AcDbEntity
  8
DRW_FORMAT
  6
Continuous
100
AcDbText
 10
116.6730804381
 20
14.0196556691
 30
0.0
 40
0.9
  1
MATERIAL
 41
0.8
100
AcDbText
  0
TEXT
  5
687
330
1F
100
AcDbEntity
  8
DRW_FORMAT
  6
Continuous
100
AcDbText
 10
139.1730804380999
 20
15.8759056691
 30
0.0
 40
0.9
  1
CHECKED
 41
0.8
100
AcDbText
  0
TEXT
  5
688
330
1F
100
AcDbEntity
  8
DRW_FORMAT
  6
Continuous
100
AcDbText
 10
119.6180804381
 20
16.4821556691
 30
0.0
 40
0.9
  1
DEBURR EDGES .010 R MAX
 41
0.8
 72
     1
 11
127.2980804381
 21
16.4821556691
 31
0.0
100
AcDbText
  0
TEXT
  5
689
330
1F
100
AcDbEntity
  8
DRW_FORMAT
  6
Continuous
100
AcDbText
 10
156.7355804380999
 20
18.2009056691
 30
0.0
 40
1.25
  1
21-Jun-06
 41
0.6
 72
     1
 11
159.7980804380999
 21
18.2009056691
 31
0.0
100
AcDbText
  0
TEXT
  5
68A
330
1F
100
AcDbEntity
  8
DRW_FORMAT
  6
Continuous
100
AcDbText
 10
142.2980804380999
 20
17.4196556691
 30
0.0
 40
1.5625
  1
J. DELARM
 41
0.8
 72
     1
 11
147.2980804380999
 21
17.4196556691
 31
0.0
100
AcDbText
  0
TEXT
  5
68B
330
1F
100
AcDbEntity
  8
DRW_FORMAT
  6
Continuous
100
AcDbText
 10
133.4605804380499
 20
18.9821556691
 30
0.0
 40
0.9
  1
%%p1/2
 41
0.8916666667000001
 72
     1
 11
134.7980804380999
 21
18.9821556691
 31
0.0
100
AcDbText
  0
TEXT
  5
68C
330
1F
100
AcDbEntity
  8
DRW_FORMAT
  6
Continuous
100
AcDbText
 10
123.7730804381
 20
18.9821556691
 30
0.0
 40
0.9
  1
.XXX 
 41
0.8
 72
     1
 11
125.3330804381
 21
18.9821556691
 31
0.0
100
AcDbText
  0
TEXT
  5
68D
330
1F
100
AcDbEntity
  8
DRW_FORMAT
  6
Continuous
100
AcDbText
 10
127.7880804381499
 20
18.9821556691
 30
0.0
 40
0.9
  1
%%p.010
 41
0.8733333332999999
 72
     1
 11
129.0980804381
 21
18.9821556691
 31
0.0
100
AcDbText
  0
TEXT
  5
68E
330
1F
100
AcDbEntity
  8
DRW_FORMAT
  6
Continuous
100
AcDbText
 10
116.9930804380999
 20
18.9821556691
 30
0.0
 40
0.9
  1
.XX 
 41
0.8
 72
     1
 11
118.1930804380999
 21
18.9821556691
 31
0.0
100
AcDbText
  0
TEXT
  5
68F
330
1F
100
AcDbEntity
  8
DRW_FORMAT
  6
Continuous
100
AcDbText
 10
120.1012054380575
 20
18.9821556691
 30
0.0
 40
0.9
  1
%%p.02
 41
0.8916666667000001
 72
     1
 11
121.2380804381
 21
18.9821556691
 31
0.0
100
AcDbText
  0
TEXT
  5
690
330
1F
100
AcDbEntity
  8
DRW_FORMAT
  6
Continuous
100
AcDbText
 10
139.1730804380999
 20
19.6259056691
 30
0.0
 40
0.9
  1
DRAWN
 41
0.8
100
AcDbText
  0
TEXT
  5
691
330
1F
100
AcDbEntity
  8
DRW_FORMAT
  6
Continuous
100
AcDbText
 10
158.4780804380999
 20
21.81340566909999
 30
0.0
 40
0.9
  1
DATE
 41
0.8
 72
     1
 11
159.7980804380999
 21
21.81340566909999
 31
0.0
100
AcDbText
  0
TEXT
  5
692
330
1F
100
AcDbEntity
  8
DRW_FORMAT
  6
Continuous
100
AcDbText
 10
144.0580804380999
 20
21.81340566909999
 30
0.0
 40
0.9
  1
APPROVALS
 41
0.8
 72
     1
 11
147.2980804380999
 21
21.81340566909999
 31
0.0
100
AcDbText
  0
TEXT
  5
693
330
1F
100
AcDbEntity
  8
DRW_FORMAT
  6
Continuous
100
AcDbText
 10
132.7580804381
 20
20.87590566909999
 30
0.0
 40
0.9
  1
ANGLES
 41
0.8
 72
     1
 11
134.7980804380999
 21
20.87590566909999
 31
0.0
100
AcDbText
  0
TEXT
  5
694
330
1F
100
AcDbEntity
  8
DRW_FORMAT
  6
Continuous
100
AcDbText
 10
124.6580804381
 20
20.87590566909999
 30
0.0
 40
0.9
  1
DECIMALS
 41
0.8
 72
     1
 11
127.2980804381
 21
20.87590566909999
 31
0.0
100
AcDbText
  0
TEXT
  5
695
330
1F
100
AcDbEntity
  8
DRW_FORMAT
  6
Continuous
100
AcDbText
 10
117.1580804381
 20
20.87590566909999
 30
0.0
 40
0.9
  1
DECIMALS
 41
0.8
 72
     1
 11
119.7980804381
 21
20.87590566909999
 31
0.0
100
AcDbText
  0
TEXT
  5
696
330
1F
100
AcDbEntity
  8
DRW_FORMAT
  6
Continuous
100
AcDbText
 10
181.6730804381
 20
22.73215566909999
 30
0.0
 40
1.25
  1
COSTA MESA, CA  92626
 41
0.8
100
AcDbText
  0
TEXT
  5
697
330
1F
100
AcDbEntity
  8
DRW_FORMAT
  6
Continuous
100
AcDbText
 10
122.2580804381
 20
22.73215566909999
 30
0.0
 40
0.9
  1
TOLERANCES ARE:
 41
0.8
 72
     1
 11
127.2980804381
 21
22.73215566909999
 31
0.0
100
AcDbText
  0
TEXT
  5
698
330
1F
100
AcDbEntity
  8
DRW_FORMAT
  6
Continuous
100
AcDbText
 10
181.6730804381
 20
24.6071556691
 30
0.0
 40
1.25
  1
1675 MACARTHUR BOULEVARD
 41
0.8
100
AcDbText
  0
TEXT
  5
699
330
1F
100
AcDbEntity
  8
DRW_FORMAT
  6
Continuous
100
AcDbText
 10
181.6730804381
 20
26.4821556691
 30
0.0
 40
1.5625
  1
QSC AUDIO PRODUCTS, INC.
 41
0.8
100
AcDbText
  0
TEXT
  5
69A
330
1F
100
AcDbEntity
  8
DRW_FORMAT
  6
Continuous
100
AcDbText
 10
139.1730804380999
 20
27.7321556691
 30
0.0
 40
0.9
  1
CONTRACT NO.
 41
0.8
100
AcDbText
  0
MTEXT
  5
69B
330
1F
100
AcDbEntity
  8
DRW_FORMAT
  6
Continuous
100
AcDbMText
 10
127.2980804381
 20
27.4196556691
 30
0.0
 40
0.9
 41
18.71999999999999
 71
     2
 72
     1
  1
UNLESS OTHERWISE SPECIFIED\PDIMENSIONS ARE IN INCHES.
 73
     1
 44
1.0
  0
LINE
  5
69C
330
1F
100
AcDbEntity
  8
DRW_FORMAT
  6
Continuous
100
AcDbLine
 10
213.5274022492999
 20
65.8416674522
 30
0.0
 11
213.5274022492999
 21
28.2122556875
 31
0.0
  0
LINE
  5
69D
330
1F
100
AcDbEntity
  8
DRW_FORMAT
  6
Continuous
100
AcDbLine
 10
213.5274022492999
 20
65.7769615698
 30
0.0
 11
217.2774022492999
 21
65.7769615698
 31
0.0
  0
LINE
  5
69E
330
1F
100
AcDbEntity
  8
DRW_FORMAT
  6
Continuous
100
AcDbLine
 10
217.2774022492999
 20
65.8416674522
 30
0.0
 11
217.2774022492999
 21
28.2122556875
 31
0.0
  0
LINE
  5
69F
330
1F
100
AcDbEntity
  8
DRW_FORMAT
  6
Continuous
100
AcDbLine
 10
213.5274022492999
 20
38.2769615698
 30
0.0
 11
217.2774022492999
 21
38.2769615698
 31
0.0
  0
LINE
  5
6A0
330
1F
100
AcDbEntity
  8
DRW_FORMAT
  6
Continuous
100
AcDbLine
 10
213.5274022492999
 20
33.2769615698
 30
0.0
 11
217.2774022492999
 21
33.2769615698
 31
0.0
  0
LINE
  5
6A1
330
1F
100
AcDbEntity
  8
DRW_FORMAT
  6
Continuous
100
AcDbLine
 10
213.5274022492999
 20
28.2769615698
 30
0.0
 11
217.2774022492999
 21
28.2769615698
 31
0.0
  0
TEXT
  5
6A2
330
1F
100
AcDbEntity
  8
DRW_FORMAT
  6
Continuous
100
AcDbText
 10
213.8774022493
 20
59.70696156979999
 30
0.0
 40
1.8
  1
RD-000373-01
 50
270.0
 41
0.8
 72
     1
 11
213.8774022493
 21
52.0269615698
 31
0.0
100
AcDbText
  0
TEXT
  5
6A3
330
1F
100
AcDbEntity
  8
DRW_FORMAT
  6
Continuous
100
AcDbText
 10
214.1524022492999
 20
35.94362823646666
 30
0.0
 40
1.25
  1
1
 50
270.0
 41
0.8
 72
     1
 11
214.1524022492999
 21
35.7769615698
 31
0.0
100
AcDbText
  0
TEXT
  5
6A4
330
1F
100
AcDbEntity
  8
DRW_FORMAT
  6
Continuous
100
AcDbText
 10
213.9961522492999
 20
31.19362823646667
 30
0.0
 40
1.5625
  1
A
 50
270.0
 41
0.8
 72
     1
 11
213.9961522492999
 21
30.7769615698
 31
0.0
100
AcDbText
  0
TEXT
  5
6A5
330
1F
100
AcDbEntity
  8
DRW_FORMAT
  6
Continuous
100
AcDbText
 10
216.2024022493
 20
65.1519615698
 30
0.0
 40
0.9
  1
DWG NO.
 50
270.0
 41
0.8
100
AcDbText
  0
TEXT
  5
6A6
330
1F
100
AcDbEntity
  8
DRW_FORMAT
  6
Continuous
100
AcDbText
 10
216.2024022493
 20
36.3769615698
 30
0.0
 40
0.9
  1
SH
 50
270.0
 41
0.8
 72
     1
 11
216.2024022493
 21
35.7769615698
 31
0.0
100
AcDbText
  0
TEXT
  5
6A7
330
1F
100
AcDbEntity
  8
DRW_FORMAT
  6
Continuous
100
AcDbText
 10
216.2024022493
 20
31.8569615698
 30
0.0
 40
0.9
  1
REV
 50
270.0
 41
0.8
 72
     1
 11
216.2024022493
 21
30.7769615698
 31
0.0
100
AcDbText
  0
TEXT
  5
6A8
330
1F
100
AcDbEntity
  8
0
  6
Continuous
100
AcDbText
 10
6.282899762
 20
23.00303774739999
 30
0.0
 40
1.5625
  1
3. TOLERANCES (INCHES): .XX %%p .13, ANGLES: %%p 1%%d.
 41
0.8
100
AcDbText
  0
TEXT
  5
6A9
330
1F
100
AcDbEntity
  8
0
  6
Continuous
100
AcDbText
 10
6.282899762
 20
19.8780377474
 30
0.0
 40
1.5625
  1
2. SHIPPING WEIGHT APPROX.: SB-5218- 225 LBS (102 KG).
 41
0.8
100
AcDbText
  0
TEXT
  5
6AA
330
1F
100
AcDbEntity
  8
0
  6
Continuous
100
AcDbText
 10
3.084499995210705
 20
16.87841328053649
 30
0.0
 40
1.5625
  1
                            SB-7218- 230 LBS (104 KG).
 41
0.8
100
AcDbText
  0
TEXT
  5
6AB
330
1F
100
AcDbEntity
  8
0
  6
Continuous
100
AcDbText
 10
6.282899762
 20
13.6280377474
 30
0.0
 40
1.5625
  1
1. NET WEIGHT APPROX.: SB-5218- 205 LBS (93 KG).
 41
0.8
100
AcDbText
  0
TEXT
  5
6AC
330
1F
100
AcDbEntity
  8
0
  6
Continuous
100
AcDbText
 10
3.523496287963268
 20
10.5030377474
 30
0.0
 40
1.5625
  1
                       SB-7218- 210 LBS (95 KG).
 41
0.8
100
AcDbText
  0
TEXT
  5
6AD
330
1F
100
AcDbEntity
  8
0
  6
Continuous
100
AcDbText
 10
6.282899762
 20
7.3780377474
 30
0.0
 40
1.5625
  1
NOTE:  UNLESS OTHERWISE SPECIFIED
 41
0.8
100
AcDbText
  0
TEXT
  5
6AE
330
1F
100
AcDbEntity
  8
0
  6
Continuous
100
AcDbText
 10
153.3613497883999
 20
11.89131019529999
 30
0.0
 40
0.9
  1
MKT
 41
0.8
100
AcDbText
  0
TEXT
  5
6AF
330
1F
100
AcDbEntity
  8
0
  6
Continuous
100
AcDbText
 10
46.2936870277
 20
49.14987405539999
 30
0.0
 40
2.5
  1
FRONT
 41
0.8
100
AcDbText
  0
TEXT
  5
6B0
330
1F
100
AcDbEntity
  8
0
  6
Continuous
100
AcDbText
 10
143.7818797229
 20
50.0850125945
 30
0.0
 40
2.5
  1
RIGHT
 41
0.8
100
AcDbText
  0
TEXT
  5
6B1
330
1F
100
AcDbEntity
  8
0
  6
Continuous
100
AcDbText
 10
46.7612562972
 20
117.6487720402999
 30
0.0
 40
2.5
  1
TOP
 41
0.8
100
AcDbText
  0
ENDSEC
  0
SECTION
  2
OBJECTS
  0
DICTIONARY
  5
C
330
0
100
AcDbDictionary
281
     1
  3
ACAD_GROUP
350
D
  3
ACAD_LAYOUT
350
1A
  3
ACAD_MLINESTYLE
350
17
  3
ACAD_PLOTSETTINGS
350
19
  3
ACAD_PLOTSTYLENAME
350
E
  3
AcDbVariableDictionary
350
746
  0
DICTIONARY
  5
D
102
{ACAD_REACTORS
330
C
102
}
330
C
100
AcDbDictionary
281
     1
  0
DICTIONARY
  5
1A
102
{ACAD_REACTORS
330
C
102
}
330
C
100
AcDbDictionary
281
     1
  3
Layout1
350
1E
  3
Model
350
22
  0
DICTIONARY
  5
17
102
{ACAD_REACTORS
330
C
102
}
330
C
100
AcDbDictionary
281
     1
  3
Standard
350
18
  0
DICTIONARY
  5
19
102
{ACAD_REACTORS
330
C
102
}
330
C
100
AcDbDictionary
281
     1
  0
ACDBDICTIONARYWDFLT
  5
E
102
{ACAD_REACTORS
330
C
102
}
330
C
100
AcDbDictionary
281
     1
  3
Normal
350
F
100
AcDbDictionaryWithDefault
340
F
  0
DICTIONARY
  5
746
102
{ACAD_REACTORS
330
C
102
}
330
C
100
AcDbDictionary
281
     1
  3
DIMASSOC
350
747
  0
LAYOUT
  5
1E
102
{ACAD_REACTORS
330
1A
102
}
330
1A
100
AcDbPlotSettings
  1

  2

  4

  6

 40
0.0
 41
0.0
 42
0.0
 43
0.0
 44
0.0
 45
0.0
 46
0.0
 47
0.0
 48
0.0
 49
0.0
140
0.0
141
0.0
142
1.0
143
1.0
 70
     0
 72
     0
 73
     0
 74
     0
  7

 75
     0
147
1.0
148
0.0
149
0.0
100
AcDbLayout
  1
Layout1
 70
     1
 71
     1
 10
0.0
 20
0.0
 11
12.0
 21
9.0
 12
0.0
 22
0.0
 32
0.0
 14
1.000000000000000E+20
 24
1.000000000000000E+20
 34
1.000000000000000E+20
 15
-1.000000000000000E+20
 25
-1.000000000000000E+20
 35
-1.000000000000000E+20
146
0.0
 13
0.0
 23
0.0
 33
0.0
 16
1.0
 26
0.0
 36
0.0
 17
0.0
 27
1.0
 37
0.0
 76
     0
330
1B
  0
LAYOUT
  5
22
102
{ACAD_REACTORS
330
1A
102
}
330
1A
100
AcDbPlotSettings
  1

  2

  4

  6

 40
0.0
 41
0.0
 42
0.0
 43
0.0
 44
0.0
 45
0.0
 46
0.0
 47
0.0
 48
0.0
 49
0.0
140
0.0
141
0.0
142
1.0
143
1.0
 70
     0
 72
     0
 73
     0
 74
     0
  7

 75
     0
147
1.0
148
0.0
149
0.0
100
AcDbLayout
  1
Model
 70
     0
 71
     0
 10
0.0
 20
0.0
 11
0.0
 21
0.0
 12
0.0
 22
0.0
 32
0.0
 14
0.0
 24
0.0
 34
0.0
 15
0.0
 25
0.0
 35
0.0
146
0.0
 13
0.0
 23
0.0
 33
0.0
 16
0.0
 26
0.0
 36
0.0
 17
0.0
 27
0.0
 37
0.0
 76
     0
330
1F
  0
MLINESTYLE
  5
18
102
{ACAD_REACTORS
330
17
102
}
330
17
100
AcDbMlineStyle
  2
STANDARD
 70
     0
  3

 62
   256
 51
90.0
 52
90.0
 71
     2
 49
0.5
 62
   256
  6
BYLAYER
 49
-0.5
 62
   256
  6
BYLAYER
  0
ACDBPLACEHOLDER
  5
F
102
{ACAD_REACTORS
330
E
102
}
330
E
  0
DICTIONARYVAR
  5
747
102
{ACAD_REACTORS
330
746
102
}
330
746
100
DictionaryVariables
280
     0
  1
1
  0
ENDSEC
  0
EOF
