999
DXF file: rd-000531-01-A.dxf
999
Pro/ENGINEER 2016130 by Parametric Technology Corporation
  0
SECTION
  2
HEADER
  9
$ACADVER
  1
AC1015
  9
$DWGCODEPAGE
  3
ANSI_1252
  9
$EXTMAX
 10
269.8412698413
 20
174.6031746032
 30
0.0
  9
$EXTMIN
 10
0.0
 20
0.0
 30
0.0
  9
$LIMMIN
 10
0.0
 20
0.0
  9
$LIMMAX
 10
269.8412698413
 20
174.6031746032
  9
$VIEWCTR
 10
134.9206349206
 20
87.3015873016
  9
$VIEWSIZE
 40
174.6031746032
  9
$CLAYER
  8
0
  9
$LTSCALE
 40
14.8412698413
  9
$CELTYPE
  6
BYLAYER
  9
$DIMSCALE
 40
1.0
  9
$DIMASZ
 40
2.9761904762
  9
$DIMEXO
 40
0.0625
  9
$DIMDLI
 40
10.253968254
  9
$DIMEXE
 40
0.125
  9
$DIMCEN
 40
2.4285714286
  9
$DIMLFAC
 40
1.0
  9
$DIMBLK
  1
_FILLED
  9
$DIMALT
 70
0
  9
$DIMALTF
 40
25.4
  9
$DIMTXT
 40
2.4801587302
  9
$DIMTOL
 70
1
  9
$DIMLIM
 70
0
  9
$DIMTFAC
 40
1.0
  9
$DIMTP
 40
0.001
  9
$DIMTM
 40
0.001
  9
$DIMGAP
 40
0.09
  9
$DIMDSEP
 70
46
  9
$AUNITS
 70
0
  9
$PDMODE
 70
3
  9
$PDSIZE
 40
0.3125
  9
$HANDSEED
  5
618
  9
$TILEMODE
 70
1
  9
$MEASUREMENT
 70
0
  9
$INSUNITS
 70
1
  0
ENDSEC
  0
SECTION
  2
CLASSES
  0
CLASS
  1
ACDBDICTIONARYWDFLT
  2
AcDbDictionaryWithDefault
  3
AutoCAD 2000
 90
0
280
0
281
0
  0
CLASS
  1
ACDBPLACEHOLDER
  2
AcDbPlaceHolder
  3
AutoCAD 2000
 90
0
280
0
281
0
  0
CLASS
  1
LAYOUT
  2
AcDbLayout
  3
AutoCAD 2000
 90
0
280
0
281
0
  0
ENDSEC
  0
SECTION
  2
TABLES
  0
TABLE
  2
VPORT
  5
8
100
AcDbSymbolTable
 70
2
  0
VPORT
  5
1F4
100
AcDbSymbolTableRecord
100
AcDbViewportTableRecord
  2
*ACTIVE
 70
0
 10
0.0
 20
0.0
 11
1.0
 21
1.0
 12
134.9206349206
 22
87.3015873016
 13
0.0
 23
0.0
 14
1.0
 24
1.0
 15
0.0
 25
0.0
 16
0.0
 26
0.0
 36
1.0
 17
0.0
 27
0.0
 37
0.0
 40
174.6031746032
 41
1.5454545455
 42
50.0
 43
0.0
 44
0.0
 50
0.0
 51
0.0
 71
0
 72
100
 73
1
 74
1
 75
0
 76
0
 77
0
 78
0
  0
ENDTAB
  0
TABLE
  2
LTYPE
  5
5
100
AcDbSymbolTable
 70
6
  0
LTYPE
  5
14
100
AcDbSymbolTableRecord
100
AcDbLinetypeTableRecord
  2
BYBLOCK
 70
0
  3

 72
65
 73
0
 40
0.0
  0
LTYPE
  5
15
100
AcDbSymbolTableRecord
100
AcDbLinetypeTableRecord
  2
BYLAYER
 70
0
  3

 72
65
 73
0
 40
0.0
  0
LTYPE
  5
16
100
AcDbSymbolTableRecord
100
AcDbLinetypeTableRecord
  2
CONTINUOUS
 70
64
  3
Solid line
 72
65
 73
0
 40
0.0
  0
LTYPE
  5
1F5
100
AcDbSymbolTableRecord
100
AcDbLinetypeTableRecord
  2
CENTER
 70
64
  3
____ _ ____ _ ____ _ ____ _ ____ _ ____ _ ____
 72
65
 73
4
 40
0.6
 49
0.375
 74
0
 49
-0.075
 74
0
 49
0.075
 74
0
 49
-0.075
 74
0
  0
LTYPE
  5
1F6
100
AcDbSymbolTableRecord
100
AcDbLinetypeTableRecord
  2
HIDDEN
 70
64
  3
- - - - - - - - - - - - - - - - - - - -
 72
65
 73
2
 40
0.2
 49
0.1
 74
0
 49
-0.1
 74
0
  0
LTYPE
  5
1F7
100
AcDbSymbolTableRecord
100
AcDbLinetypeTableRecord
  2
PHANTOM
 70
64
  3
_____ _ _ _____ _ _ _____ _ _ _____
 72
65
 73
6
 40
0.8
 49
0.45
 74
0
 49
-0.05
 74
0
 49
0.1
 74
0
 49
-0.05
 74
0
 49
0.1
 74
0
 49
-0.05
 74
0
  0
LTYPE
  5
1F8
100
AcDbSymbolTableRecord
100
AcDbLinetypeTableRecord
  2
DOT
 70
64
  3
. . . . . . . . . . . . . . . . . . . .
 72
65
 73
2
 40
0.2
 49
0.1
 74
0
 49
-0.1
 74
0
  0
LTYPE
  5
1F9
100
AcDbSymbolTableRecord
100
AcDbLinetypeTableRecord
  2
DASHED
 70
64
  3
- - - - - - - - - - - - - - - - - - - -
 72
65
 73
2
 40
0.2
 49
0.1
 74
0
 49
-0.1
 74
0
  0
ENDTAB
  0
TABLE
  2
LAYER
  5
2
100
AcDbSymbolTable
 70
36
  0
LAYER
  5
10
100
AcDbSymbolTableRecord
100
AcDbLayerTableRecord
  2
0
 70
0
 62
7
  6
CONTINUOUS
370
-3
390
F
  0
LAYER
  5
1FA
100
AcDbSymbolTableRecord
100
AcDbLayerTableRecord
  2
DEFAULT_1
 70
0
 62
7
  6
CENTER
370
-3
390
F
  0
LAYER
  5
1FB
100
AcDbSymbolTableRecord
100
AcDbLayerTableRecord
  2
DEFAULT_2
 70
0
 62
8
  6
HIDDEN
370
-3
390
F
  0
LAYER
  5
1FC
100
AcDbSymbolTableRecord
100
AcDbLayerTableRecord
  2
DEFAULT_3
 70
0
 62
7
  6
PHANTOM
370
-3
390
F
  0
LAYER
  5
1FD
100
AcDbSymbolTableRecord
100
AcDbLayerTableRecord
  2
01___PRT_ALL_DTM_PLN
 70
0
 62
7
  6
CONTINUOUS
370
-3
390
F
  0
LAYER
  5
1FE
100
AcDbSymbolTableRecord
100
AcDbLayerTableRecord
  2
01___PRT_DEF_DTM_PLN
 70
0
 62
7
  6
CONTINUOUS
370
-3
390
F
  0
LAYER
  5
1FF
100
AcDbSymbolTableRecord
100
AcDbLayerTableRecord
  2
02___PRT_ALL_AXES
 70
0
 62
7
  6
CONTINUOUS
370
-3
390
F
  0
LAYER
  5
200
100
AcDbSymbolTableRecord
100
AcDbLayerTableRecord
  2
03___PRT_ALL_CURVES
 70
0
 62
7
  6
CONTINUOUS
370
-3
390
F
  0
LAYER
  5
201
100
AcDbSymbolTableRecord
100
AcDbLayerTableRecord
  2
04___PRT_ALL_DTM_PNT
 70
0
 62
7
  6
CONTINUOUS
370
-3
390
F
  0
LAYER
  5
202
100
AcDbSymbolTableRecord
100
AcDbLayerTableRecord
  2
05___PRT_ALL_DTM_CSYS
 70
0
 62
7
  6
CONTINUOUS
370
-3
390
F
  0
LAYER
  5
203
100
AcDbSymbolTableRecord
100
AcDbLayerTableRecord
  2
05___PRT_DEF_DTM_CSYS
 70
0
 62
7
  6
CONTINUOUS
370
-3
390
F
  0
LAYER
  5
204
100
AcDbSymbolTableRecord
100
AcDbLayerTableRecord
  2
06___PRT_ALL_SURFS
 70
0
 62
7
  6
CONTINUOUS
370
-3
390
F
  0
LAYER
  5
205
100
AcDbSymbolTableRecord
100
AcDbLayerTableRecord
  2
1_ALL_PLANES
 70
0
 62
7
  6
CONTINUOUS
370
-3
390
F
  0
LAYER
  5
206
100
AcDbSymbolTableRecord
100
AcDbLayerTableRecord
  2
1__DEF_ASM_PLN
 70
0
 62
7
  6
CONTINUOUS
370
-3
390
F
  0
LAYER
  5
207
100
AcDbSymbolTableRecord
100
AcDbLayerTableRecord
  2
1__DEF_PLANES
 70
0
 62
7
  6
CONTINUOUS
370
-3
390
F
  0
LAYER
  5
208
100
AcDbSymbolTableRecord
100
AcDbLayerTableRecord
  2
2_ALL_CSYS
 70
0
 62
7
  6
CONTINUOUS
370
-3
390
F
  0
LAYER
  5
209
100
AcDbSymbolTableRecord
100
AcDbLayerTableRecord
  2
2__DEF_ASM_CSYS
 70
0
 62
7
  6
CONTINUOUS
370
-3
390
F
  0
LAYER
  5
20A
100
AcDbSymbolTableRecord
100
AcDbLayerTableRecord
  2
2__DEF_CSYS
 70
0
 62
7
  6
CONTINUOUS
370
-3
390
F
  0
LAYER
  5
20B
100
AcDbSymbolTableRecord
100
AcDbLayerTableRecord
  2
3_ALL_AXES
 70
0
 62
7
  6
CONTINUOUS
370
-3
390
F
  0
LAYER
  5
20C
100
AcDbSymbolTableRecord
100
AcDbLayerTableRecord
  2
3_AXES_OTHER
 70
0
 62
7
  6
CONTINUOUS
370
-3
390
F
  0
LAYER
  5
20D
100
AcDbSymbolTableRecord
100
AcDbLayerTableRecord
  2
3_HOLES
 70
0
 62
7
  6
CONTINUOUS
370
-3
390
F
  0
LAYER
  5
20E
100
AcDbSymbolTableRecord
100
AcDbLayerTableRecord
  2
4_ALL_POINTS
 70
0
 62
7
  6
CONTINUOUS
370
-3
390
F
  0
LAYER
  5
20F
100
AcDbSymbolTableRecord
100
AcDbLayerTableRecord
  2
5_ALL_CURVES
 70
0
 62
7
  6
CONTINUOUS
370
-3
390
F
  0
LAYER
  5
210
100
AcDbSymbolTableRecord
100
AcDbLayerTableRecord
  2
6_ALL_SURFS
 70
0
 62
7
  6
CONTINUOUS
370
-3
390
F
  0
LAYER
  5
211
100
AcDbSymbolTableRecord
100
AcDbLayerTableRecord
  2
6_COPYGEOM
 70
0
 62
7
  6
CONTINUOUS
370
-3
390
F
  0
LAYER
  5
212
100
AcDbSymbolTableRecord
100
AcDbLayerTableRecord
  2
7_ALL_ROUNDS
 70
0
 62
7
  6
CONTINUOUS
370
-3
390
F
  0
LAYER
  5
213
100
AcDbSymbolTableRecord
100
AcDbLayerTableRecord
  2
7_MERGES
 70
0
 62
7
  6
CONTINUOUS
370
-3
390
F
  0
LAYER
  5
214
100
AcDbSymbolTableRecord
100
AcDbLayerTableRecord
  2
8_GDT
 70
0
 62
7
  6
CONTINUOUS
370
-3
390
F
  0
LAYER
  5
215
100
AcDbSymbolTableRecord
100
AcDbLayerTableRecord
  2
8_SET_DATUMS
 70
0
 62
7
  6
CONTINUOUS
370
-3
390
F
  0
LAYER
  5
216
100
AcDbSymbolTableRecord
100
AcDbLayerTableRecord
  2
9_COSMETICS
 70
0
 62
7
  6
CONTINUOUS
370
-3
390
F
  0
LAYER
  5
217
100
AcDbSymbolTableRecord
100
AcDbLayerTableRecord
  2
9_THREADS
 70
0
 62
7
  6
CONTINUOUS
370
-3
390
F
  0
LAYER
  5
218
100
AcDbSymbolTableRecord
100
AcDbLayerTableRecord
  2
ASSY_PAINT_PLANES
 70
0
 62
7
  6
CONTINUOUS
370
-3
390
F
  0
LAYER
  5
219
100
AcDbSymbolTableRecord
100
AcDbLayerTableRecord
  2
AXES
 70
0
 62
7
  6
CONTINUOUS
370
-3
390
F
  0
LAYER
  5
21A
100
AcDbSymbolTableRecord
100
AcDbLayerTableRecord
  2
BASE
 70
0
 62
7
  6
CONTINUOUS
370
-3
390
F
  0
LAYER
  5
21B
100
AcDbSymbolTableRecord
100
AcDbLayerTableRecord
  2
COPY
 70
0
 62
7
  6
CONTINUOUS
370
-3
390
F
  0
LAYER
  5
21C
100
AcDbSymbolTableRecord
100
AcDbLayerTableRecord
  2
COSM
 70
0
 62
7
  6
CONTINUOUS
370
-3
390
F
  0
LAYER
  5
21D
100
AcDbSymbolTableRecord
100
AcDbLayerTableRecord
  2
CRVS
 70
0
 62
7
  6
CONTINUOUS
370
-3
390
F
  0
LAYER
  5
21E
100
AcDbSymbolTableRecord
100
AcDbLayerTableRecord
  2
CSYS
 70
0
 62
7
  6
CONTINUOUS
370
-3
390
F
  0
LAYER
  5
21F
100
AcDbSymbolTableRecord
100
AcDbLayerTableRecord
  2
CTRLS
 70
0
 62
7
  6
CONTINUOUS
370
-3
390
F
  0
LAYER
  5
220
100
AcDbSymbolTableRecord
100
AcDbLayerTableRecord
  2
DRW_FORMAT
 70
0
 62
7
  6
CONTINUOUS
370
-3
390
F
  0
LAYER
  5
221
100
AcDbSymbolTableRecord
100
AcDbLayerTableRecord
  2
EXTRA_DATUMS
 70
0
 62
7
  6
CONTINUOUS
370
-3
390
F
  0
LAYER
  5
222
100
AcDbSymbolTableRecord
100
AcDbLayerTableRecord
  2
IMPORT
 70
0
 62
7
  6
CONTINUOUS
370
-3
390
F
  0
LAYER
  5
223
100
AcDbSymbolTableRecord
100
AcDbLayerTableRecord
  2
MERGE
 70
0
 62
7
  6
CONTINUOUS
370
-3
390
F
  0
LAYER
  5
224
100
AcDbSymbolTableRecord
100
AcDbLayerTableRecord
  2
NOTES
 70
0
 62
7
  6
CONTINUOUS
370
-3
390
F
  0
LAYER
  5
225
100
AcDbSymbolTableRecord
100
AcDbLayerTableRecord
  2
PLNS
 70
0
 62
7
  6
CONTINUOUS
370
-3
390
F
  0
LAYER
  5
226
100
AcDbSymbolTableRecord
100
AcDbLayerTableRecord
  2
PNTS
 70
0
 62
7
  6
CONTINUOUS
370
-3
390
F
  0
LAYER
  5
227
100
AcDbSymbolTableRecord
100
AcDbLayerTableRecord
  2
RNDS
 70
0
 62
7
  6
CONTINUOUS
370
-3
390
F
  0
LAYER
  5
228
100
AcDbSymbolTableRecord
100
AcDbLayerTableRecord
  2
SRFS
 70
0
 62
7
  6
CONTINUOUS
370
-3
390
F
  0
LAYER
  5
229
100
AcDbSymbolTableRecord
100
AcDbLayerTableRecord
  2
THDS
 70
0
 62
7
  6
CONTINUOUS
370
-3
390
F
  0
LAYER
  5
22A
100
AcDbSymbolTableRecord
100
AcDbLayerTableRecord
  2
XSEC
 70
0
 62
7
  6
CONTINUOUS
370
-3
390
F
  0
ENDTAB
  0
TABLE
  2
STYLE
  5
3
100
AcDbSymbolTable
 70
1
  0
STYLE
  5
11
100
AcDbSymbolTableRecord
100
AcDbTextStyleTableRecord
  2
STANDARD
 70
0
 40
0.0
 41
0.8
 50
0.0
 71
0
 42
0.2
  3
txt
  4

  0
STYLE
  5
22B
100
AcDbSymbolTableRecord
100
AcDbTextStyleTableRecord
  2
TEXTSTYLE_1
 70
0
 40
0.0
 41
0.8
 50
0.0
 71
0
 42
0.2
  3
gdt
  4

  0
ENDTAB
  0
TABLE
  2
VIEW
  5
6
100
AcDbSymbolTable
 70
0
  0
ENDTAB
  0
TABLE
  2
UCS
  5
7
100
AcDbSymbolTable
 70
0
  0
ENDTAB
  0
TABLE
  2
APPID
  5
9
100
AcDbSymbolTable
 70
1
  0
APPID
  5
22C
100
AcDbSymbolTableRecord
100
AcDbRegAppTableRecord
  2
ACAD
 70
0
  0
ENDTAB
  0
TABLE
  2
BLOCK_RECORD
  5
1
100
AcDbSymbolTable
 70
0
  0
BLOCK_RECORD
  5
22D
100
AcDbSymbolTableRecord
100
AcDbBlockTableRecord
  2
*Model_Space
  0
BLOCK_RECORD
  5
22E
100
AcDbSymbolTableRecord
100
AcDbBlockTableRecord
  2
*Paper_Space
  0
BLOCK_RECORD
  5
22F
100
AcDbSymbolTableRecord
100
AcDbBlockTableRecord
  2
_FILLED
  0
BLOCK_RECORD
  5
230
100
AcDbSymbolTableRecord
100
AcDbBlockTableRecord
  2
*D0
  0
BLOCK_RECORD
  5
231
100
AcDbSymbolTableRecord
100
AcDbBlockTableRecord
  2
*D1
  0
BLOCK_RECORD
  5
232
100
AcDbSymbolTableRecord
100
AcDbBlockTableRecord
  2
*D2
  0
BLOCK_RECORD
  5
233
100
AcDbSymbolTableRecord
100
AcDbBlockTableRecord
  2
*D3
  0
BLOCK_RECORD
  5
234
100
AcDbSymbolTableRecord
100
AcDbBlockTableRecord
  2
*D4
  0
BLOCK_RECORD
  5
235
100
AcDbSymbolTableRecord
100
AcDbBlockTableRecord
  2
*D5
  0
BLOCK_RECORD
  5
236
100
AcDbSymbolTableRecord
100
AcDbBlockTableRecord
  2
*D6
  0
BLOCK_RECORD
  5
237
100
AcDbSymbolTableRecord
100
AcDbBlockTableRecord
  2
*D7
  0
BLOCK_RECORD
  5
238
100
AcDbSymbolTableRecord
100
AcDbBlockTableRecord
  2
RD010411_BL0
  0
ENDTAB
  0
TABLE
  2
DIMSTYLE
  5
A
100
AcDbSymbolTable
 70
1
100
AcDbDimStyleTable
 71
0
  0
DIMSTYLE
105
239
100
AcDbSymbolTableRecord
100
AcDbDimStyleTableRecord
  2
STANDARD
 70
0
  3

  4

 40
1.0
 41
2.9761904762
 42
0.0625
 43
0.38
 44
0.125
 45
0.0
 46
0.0
 47
0.001
 48
0.001
140
2.4801587302
141
0.09
142
0.0
143
25.4
144
1.0
145
0.0
146
1.0
147
0.09
 71
1.0
 72
0.0
 73
1
 74
1
 75
0
 76
0
 77
0
 78
4
170
0
171
2
172
0
173
0
174
0
175
0
176
0
177
0
178
0
270
2
271
3
272
3
273
2
274
2
275
0
280
0
281
0
282
0
283
1
284
4
285
0
286
0
287
3
288
0
340
11
278
46
341
22F
342
22F
343
22F
344
22F
  0
DIMSTYLE
105
23A
100
AcDbSymbolTableRecord
100
AcDbDimStyleTableRecord
  2
DIMSTYLE_1
 70
0
  3

  4

 40
1.0
 41
2.9761904762
 42
0.0625
 43
0.38
 44
0.125
 45
0.0
 46
0.0
 47
0.1
 48
0.1
140
2.4801587302
141
0.09
142
0.0
143
25.4
144
1.0
145
0.0
146
1.0
147
0.078125
 71
0.0
 72
0.0
 73
1
 74
1
 75
0
 76
0
 77
0
 78
4
170
0
171
2
172
0
173
0
174
0
175
0
176
0
177
0
178
0
270
2
271
1
272
1
273
2
274
2
275
0
280
0
281
0
282
0
283
1
284
4
285
0
286
0
287
3
288
0
340
11
278
46
341
22F
342
22F
343
22F
344
22F
  0
ENDTAB
  0
ENDSEC
  0
SECTION
  2
BLOCKS
  0
BLOCK
  5
20
100
AcDbEntity
  8
0
100
AcDbBlockBegin
  2
*Model_Space
 70
0
 10
0.0
 20
0.0
 30
0.0
  3
*Model_Space
  1

  0
ENDBLK
  5
21
100
AcDbEntity
  8
0
100
AcDbBlockEnd
  0
BLOCK
  5
1C
100
AcDbEntity
  8
0
100
AcDbBlockBegin
  2
*Paper_Space
 70
0
 10
0.0
 20
0.0
 30
0.0
  3
*Paper_Space
  1

  0
ENDBLK
  5
1D
100
AcDbEntity
  8
0
100
AcDbBlockEnd
  0
BLOCK
  5
23B
100
AcDbEntity
  8
0
100
AcDbBlockBegin
 62
7
  6
CONTINUOUS
  2
RD010411_BL0
 70
64
 10
188.7114333144
 20
42.8747724631
  3
RD010411_BL0
  1

  0
ARC
  5
23C
100
AcDbEntity
  8
0
100
AcDbCircle
 62
7
  6
CONTINUOUS
 10
199.0632042611
 20
44.4680575033
 40
0.1963732265
100
AcDbArc
 50
270.0
 51
360.0
  0
LINE
  5
23D
100
AcDbEntity
  8
0
100
AcDbLine
 62
7
  6
CONTINUOUS
 10
199.2595774876
 20
44.4680575033
 11
199.2595774876
 21
44.8609389191
  0
ARC
  5
23E
100
AcDbEntity
  8
0
100
AcDbCircle
 62
7
  6
CONTINUOUS
 10
199.0632042611
 20
44.8609389191
 40
0.1963732265
100
AcDbArc
 50
0.0
 51
90.0
  0
LINE
  5
23F
100
AcDbEntity
  8
0
100
AcDbLine
 62
7
  6
CONTINUOUS
 10
199.0632042611
 20
45.0573121456
 11
193.7839450195
 21
45.0573121456
  0
SPLINE
  5
240
100
AcDbEntity
  8
0
100
AcDbSpline
 62
7
  6
CONTINUOUS
 70
0
 71
3
 72
13
 73
9
 74
0
 42
0.0000001
 43
0.0000001
 44
0.0000000001
 40
0.0
 40
0.0
 40
0.0
 40
0.0
 40
0.1310616762
 40
0.2699656353
 40
0.4157607805
 40
0.5899807757
 40
0.76586761
 40
0.9948829976
 40
0.9948829976
 40
0.9948829976
 40
0.9948829976
 10
193.7839450195
 20
45.0573121456
 30
0.0
 10
193.672970186
 20
45.0490466666
 30
0.0
 10
193.4443801673
 20
45.032021132
 30
0.0
 10
193.1345951699
 20
44.8400606899
 30
0.0
 10
192.912206509
 20
44.5177936815
 30
0.0
 10
192.7675979115
 20
44.1237320687
 30
0.0
 10
192.6861455207
 20
43.642024961
 30
0.0
 10
192.6786459577
 20
43.3016422596
 30
0.0
 10
192.6747591092
 20
43.1090942537
 30
0.0
  0
LINE
  5
241
100
AcDbEntity
  8
0
100
AcDbLine
 62
7
  6
CONTINUOUS
 10
192.6747591092
 20
43.1090942537
 11
192.6751037654
 21
43.0792144298
  0
SPLINE
  5
242
100
AcDbEntity
  8
0
100
AcDbSpline
 62
7
  6
CONTINUOUS
 70
0
 71
3
 72
13
 73
9
 74
0
 42
0.0000001
 43
0.0000001
 44
0.0000000001
 40
0.0
 40
0.0
 40
0.0
 40
0.0
 40
0.2222860645
 40
0.3981728988
 40
0.572392894
 40
0.7181880393
 40
0.8570919984
 40
0.9881536746
 40
0.9881536746
 40
0.9881536746
 40
0.9881536746
 10
192.6751037654
 20
43.0792144298
 30
0.0
 10
192.6789140102
 20
42.8923266736
 30
0.0
 10
192.6870903116
 20
42.5576631824
 30
0.0
 10
192.7675978451
 20
42.0815399323
 30
0.0
 10
192.9122081736
 20
41.6875223917
 30
0.0
 10
193.1345898981
 20
41.3651186139
 30
0.0
 10
193.4443985388
 20
41.1736170385
 30
0.0
 10
193.6729328267
 20
41.1555110192
 30
0.0
 10
193.7839450195
 20
41.1472427607
 30
0.0
  0
LINE
  5
243
100
AcDbEntity
  8
0
100
AcDbLine
 62
7
  6
CONTINUOUS
 10
193.7839450195
 20
41.1472427607
 11
199.0636328653
 21
41.1587662166
  0
ARC
  5
244
100
AcDbEntity
  8
0
100
AcDbCircle
 62
7
  6
CONTINUOUS
 10
199.0632042611
 20
41.3551389748
 40
0.196373226
100
AcDbArc
 50
270.125053868
 51
360.0
  0
LINE
  5
245
100
AcDbEntity
  8
0
100
AcDbLine
 62
7
  6
CONTINUOUS
 10
199.2595774876
 20
41.3551389748
 11
199.2595774876
 21
41.7326815027
  0
ARC
  5
246
100
AcDbEntity
  8
0
100
AcDbCircle
 62
7
  6
CONTINUOUS
 10
199.0632042611
 20
41.7326815027
 40
0.1963732265
100
AcDbArc
 50
0.0
 51
90.0
  0
LINE
  5
247
100
AcDbEntity
  8
0
100
AcDbLine
 62
7
  6
CONTINUOUS
 10
199.0632042611
 20
41.9290547292
 11
194.5381575436
 21
41.9290547292
  0
LINE
  5
248
100
AcDbEntity
  8
0
100
AcDbLine
 62
7
  6
CONTINUOUS
 10
194.3417843171
 20
42.1254279557
 11
194.3417843171
 21
44.0753110503
  0
ARC
  5
249
100
AcDbEntity
  8
0
100
AcDbCircle
 62
7
  6
CONTINUOUS
 10
194.5381575454
 20
44.0753110503
 40
0.1963732265
100
AcDbArc
 50
90.0
 51
180.0
  0
LINE
  5
24A
100
AcDbEntity
  8
0
100
AcDbLine
 62
7
  6
CONTINUOUS
 10
194.5381575436
 20
44.2716842768
 11
199.0632042611
 21
44.2716842768
  0
LINE
  5
24B
100
AcDbEntity
  8
0
100
AcDbLine
 62
7
  6
CONTINUOUS
 10
186.4695973494
 20
42.7057635013
 11
190.2412153528
 21
42.7057635013
  0
ARC
  5
24C
100
AcDbEntity
  8
0
100
AcDbCircle
 62
7
  6
CONTINUOUS
 10
190.2412153524
 20
42.5093902752
 40
0.1963732265
100
AcDbArc
 50
0.0
 51
90.0
  0
LINE
  5
24D
100
AcDbEntity
  8
0
100
AcDbLine
 62
7
  6
CONTINUOUS
 10
190.4375885793
 20
42.5093902748
 11
190.4375885793
 21
42.1084164301
  0
LINE
  5
24E
100
AcDbEntity
  8
0
100
AcDbLine
 62
7
  6
CONTINUOUS
 10
190.2412153528
 20
41.9120432036
 11
185.8447051961
 21
41.9120432036
  0
ARC
  5
24F
100
AcDbEntity
  8
0
100
AcDbCircle
 62
7
  6
CONTINUOUS
 10
185.8447051961
 20
41.7156699771
 40
0.1963732265
100
AcDbArc
 50
90.0
 51
180.0
  0
LINE
  5
250
100
AcDbEntity
  8
0
100
AcDbLine
 62
7
  6
CONTINUOUS
 10
185.6483319696
 20
41.7156699771
 11
185.6483319696
 21
41.3436140054
  0
ARC
  5
251
100
AcDbEntity
  8
0
100
AcDbCircle
 62
7
  6
CONTINUOUS
 10
185.8447051961
 20
41.3436140054
 40
0.1963732265
100
AcDbArc
 50
180.0
 51
270.0
  0
LINE
  5
252
100
AcDbEntity
  8
0
100
AcDbLine
 62
7
  6
CONTINUOUS
 10
185.8447051961
 20
41.1472407789
 11
191.3027483239
 21
41.1472407789
  0
SPLINE
  5
253
100
AcDbEntity
  8
0
100
AcDbSpline
 62
7
  6
CONTINUOUS
 70
0
 71
3
 72
13
 73
9
 74
0
 42
0.0000001
 43
0.0000001
 44
0.0000000001
 40
0.0
 40
0.0
 40
0.0
 40
0.0
 40
0.1604571392
 40
0.3334692485
 40
0.4767982758
 40
0.6242014838
 40
0.7505998515
 40
1.0
 40
1.0
 40
1.0
 40
1.0
 10
191.3027483239
 20
41.1472407789
 30
0.0
 10
191.3947716124
 20
41.1516715359
 30
0.0
 10
191.586018549
 20
41.1608797303
 30
0.0
 10
191.8431915065
 20
41.2725324351
 30
0.0
 10
192.0369798028
 20
41.4602113126
 30
0.0
 10
192.1461871292
 20
41.6753778949
 30
0.0
 10
192.2299147576
 20
41.9640260697
 30
0.0
 10
192.2333124283
 20
42.1800366702
 30
0.0
 10
192.2355673036
 20
42.3233929443
 30
0.0
  0
SPLINE
  5
254
100
AcDbEntity
  8
0
100
AcDbSpline
 62
7
  6
CONTINUOUS
 70
0
 71
3
 72
13
 73
9
 74
0
 42
0.0000001
 43
0.0000001
 44
0.0000000001
 40
0.0
 40
0.0
 40
0.0
 40
0.0
 40
0.2494001485
 40
0.3757985162
 40
0.5232017242
 40
0.6665307515
 40
0.8395428608
 40
1.0
 40
1.0
 40
1.0
 40
1.0
 10
192.2355673036
 20
42.3233929443
 30
0.0
 10
192.2333124283
 20
42.4667492214
 30
0.0
 10
192.2299147576
 20
42.6827598189
 30
0.0
 10
192.1461871292
 20
42.9714079967
 30
0.0
 10
192.0369798028
 20
43.1865745791
 30
0.0
 10
191.8431915065
 20
43.3742534535
 30
0.0
 10
191.586018549
 20
43.4859061583
 30
0.0
 10
191.3947716124
 20
43.4951143557
 30
0.0
 10
191.3027483239
 20
43.4995451097
 30
0.0
  0
LINE
  5
255
100
AcDbEntity
  8
0
100
AcDbLine
 62
7
  6
CONTINUOUS
 10
191.3027483239
 20
43.4995451097
 11
187.5814034918
 21
43.4995451097
  0
LINE
  5
256
100
AcDbEntity
  8
0
100
AcDbLine
 62
7
  6
CONTINUOUS
 10
187.3850302653
 20
43.6959183362
 11
187.3850302653
 21
44.0674761815
  0
ARC
  5
257
100
AcDbEntity
  8
0
100
AcDbCircle
 62
7
  6
CONTINUOUS
 10
187.5814034902
 20
44.0674761815
 40
0.1963732265
100
AcDbArc
 50
90.0
 51
180.0
  0
LINE
  5
258
100
AcDbEntity
  8
0
100
AcDbLine
 62
7
  6
CONTINUOUS
 10
187.5814034918
 20
44.263849408
 11
191.9838812648
 21
44.263849408
  0
ARC
  5
259
100
AcDbEntity
  8
0
100
AcDbCircle
 62
7
  6
CONTINUOUS
 10
191.9838812648
 20
44.4602226345
 40
0.1963732265
100
AcDbArc
 50
270.0
 51
360.0
  0
LINE
  5
25A
100
AcDbEntity
  8
0
100
AcDbLine
 62
7
  6
CONTINUOUS
 10
192.1802544913
 20
44.4602226345
 11
192.1802544913
 21
44.8609389191
  0
ARC
  5
25B
100
AcDbEntity
  8
0
100
AcDbCircle
 62
7
  6
CONTINUOUS
 10
191.9838812648
 20
44.8609389191
 40
0.1963732265
100
AcDbArc
 50
0.0
 51
90.0
  0
LINE
  5
25C
100
AcDbEntity
  8
0
100
AcDbLine
 62
7
  6
CONTINUOUS
 10
191.9838812648
 20
45.0573121456
 11
186.4695973494
 21
45.0573121456
  0
SPLINE
  5
25D
100
AcDbEntity
  8
0
100
AcDbSpline
 62
7
  6
CONTINUOUS
 70
0
 71
3
 72
13
 73
9
 74
0
 42
0.0000001
 43
0.0000001
 44
0.0000000001
 40
0.0
 40
0.0
 40
0.0
 40
0.0
 40
0.1133740464
 40
0.2392044088
 40
0.3655787964
 40
0.4912154373
 40
0.7445390876
 40
1.0
 40
1.0
 40
1.0
 40
1.0
 10
186.4695973494
 20
45.0573121456
 30
0.0
 10
186.4066032836
 20
45.0542093942
 30
0.0
 10
186.273694047
 20
45.0476629906
 30
0.0
 10
186.0762705229
 20
44.9886787392
 30
0.0
 10
185.8996559414
 20
44.8695711659
 30
0.0
 10
185.7192425713
 20
44.6501704717
 30
0.0
 10
185.6057150338
 20
44.3057405725
 30
0.0
 10
185.5934029552
 20
44.0233341781
 30
0.0
 10
185.5872210595
 20
43.8815378234
 30
0.0
  0
SPLINE
  5
25E
100
AcDbEntity
  8
0
100
AcDbSpline
 62
7
  6
CONTINUOUS
 70
0
 71
3
 72
13
 73
9
 74
0
 42
0.0000001
 43
0.0000001
 44
0.0000000001
 40
0.0
 40
0.0
 40
0.0
 40
0.0
 40
0.2554609124
 40
0.5087845627
 40
0.6344212036
 40
0.7607955912
 40
0.8866259536
 40
1.0
 40
1.0
 40
1.0
 40
1.0
 10
185.5872210595
 20
43.8815378234
 30
0.0
 10
185.5934029552
 20
43.7397414688
 30
0.0
 10
185.6057150338
 20
43.4573350714
 30
0.0
 10
185.7192425713
 20
43.1129051752
 30
0.0
 10
185.8996559414
 20
42.893504481
 30
0.0
 10
186.0762705229
 20
42.7743969077
 30
0.0
 10
186.273694047
 20
42.7154126562
 30
0.0
 10
186.4066032836
 20
42.7088662526
 30
0.0
 10
186.4695973494
 20
42.7057635013
 30
0.0
  0
LINE
  5
25F
100
AcDbEntity
  8
0
100
AcDbLine
 62
7
  6
CONTINUOUS
 10
179.2138223143
 20
41.1472407789
 11
182.2650524233
 21
41.1472407789
  0
LINE
  5
260
100
AcDbEntity
  8
0
100
AcDbLine
 62
7
  6
CONTINUOUS
 10
182.2650524233
 20
41.1472407789
 11
182.2650524233
 21
40.7677609446
  0
ARC
  5
261
100
AcDbEntity
  8
0
100
AcDbCircle
 62
7
  6
CONTINUOUS
 10
182.3405805873
 20
40.7677609446
 40
0.075528164
100
AcDbArc
 50
180.0
 51
270.0
  0
LINE
  5
262
100
AcDbEntity
  8
0
100
AcDbLine
 62
7
  6
CONTINUOUS
 10
182.3405805873
 20
40.6922327805
 11
183.5166309196
 21
40.6922327805
  0
ARC
  5
263
100
AcDbEntity
  8
0
100
AcDbCircle
 62
7
  6
CONTINUOUS
 10
183.5166309196
 20
40.7677609446
 40
0.075528164
100
AcDbArc
 50
270.0
 51
360.0
  0
LINE
  5
264
100
AcDbEntity
  8
0
100
AcDbLine
 62
7
  6
CONTINUOUS
 10
183.5921590836
 20
40.7677609446
 11
183.5921590836
 21
41.1472407789
  0
LINE
  5
265
100
AcDbEntity
  8
0
100
AcDbLine
 62
7
  6
CONTINUOUS
 10
183.5921590836
 20
41.1472407789
 11
184.192145121
 21
41.1472407789
  0
SPLINE
  5
266
100
AcDbEntity
  8
0
100
AcDbSpline
 62
7
  6
CONTINUOUS
 70
0
 71
3
 72
12
 73
8
 74
0
 42
0.0000001
 43
0.0000001
 44
0.0000000001
 40
0.0
 40
0.0
 40
0.0
 40
0.0
 40
0.2415790084
 40
0.4893269843
 40
0.7378634303
 40
0.8656387112
 40
1.0
 40
1.0
 40
1.0
 40
1.0
 10
184.192145121
 20
41.1472407789
 30
0.0
 10
184.2997285285
 20
41.1505854258
 30
0.0
 10
184.5176425988
 20
41.1573601299
 30
0.0
 10
184.8365371025
 20
41.271086391
 30
0.0
 10
185.0302080128
 20
41.4857714753
 30
0.0
 10
185.1155329864
 20
41.700281588
 30
0.0
 10
185.1170706673
 20
41.8177897739
 30
0.0
 10
185.1178588248
 20
41.8780200225
 30
0.0
  0
LINE
  5
267
100
AcDbEntity
  8
0
100
AcDbLine
 62
7
  6
CONTINUOUS
 10
185.1178588248
 20
41.8780200225
 11
185.1178588248
 21
44.3219468561
  0
SPLINE
  5
268
100
AcDbEntity
  8
0
100
AcDbSpline
 62
7
  6
CONTINUOUS
 70
0
 71
3
 72
12
 73
8
 74
0
 42
0.0000001
 43
0.0000001
 44
0.0000000001
 40
0.0
 40
0.0
 40
0.0
 40
0.0
 40
0.1343612888
 40
0.2621365697
 40
0.5106730157
 40
0.7584209916
 40
1.0
 40
1.0
 40
1.0
 40
1.0
 10
185.1178588248
 20
44.3219468561
 30
0.0
 10
185.1170706673
 20
44.3821771077
 30
0.0
 10
185.1155329864
 20
44.4996852936
 30
0.0
 10
185.0302080128
 20
44.7141954063
 30
0.0
 10
184.8365371025
 20
44.9288804905
 30
0.0
 10
184.5176425988
 20
45.0426067486
 30
0.0
 10
184.2997285285
 20
45.0493814527
 30
0.0
 10
184.192145121
 20
45.0527260997
 30
0.0
  0
LINE
  5
269
100
AcDbEntity
  8
0
100
AcDbLine
 62
7
  6
CONTINUOUS
 10
184.192145121
 20
45.0527260997
 11
179.2138223143
 21
45.0527260997
  0
SPLINE
  5
26A
100
AcDbEntity
  8
0
100
AcDbSpline
 62
7
  6
CONTINUOUS
 70
0
 71
3
 72
12
 73
8
 74
0
 42
0.0000001
 43
0.0000001
 44
0.0000000001
 40
0.0
 40
0.0
 40
0.0
 40
0.0
 40
0.1341799809
 40
0.290831959
 40
0.5815217441
 40
0.760783857
 40
1.0
 40
1.0
 40
1.0
 40
1.0
 10
179.2138223143
 20
45.0527260997
 30
0.0
 10
179.1052362553
 20
45.0341677119
 30
0.0
 10
178.8698785235
 20
44.9939428377
 30
0.0
 10
178.4736915541
 20
44.6979524734
 30
0.0
 10
178.2860372989
 20
44.1999784089
 30
0.0
 10
178.1762424721
 20
43.6354789108
 30
0.0
 10
178.1680005186
 20
43.2940438846
 30
0.0
 10
178.1632891412
 20
43.0988682236
 30
0.0
  0
SPLINE
  5
26B
100
AcDbEntity
  8
0
100
AcDbSpline
 62
7
  6
CONTINUOUS
 70
0
 71
3
 72
12
 73
8
 74
0
 42
0.0000001
 43
0.0000001
 44
0.0000000001
 40
0.0
 40
0.0
 40
0.0
 40
0.0
 40
0.2392679579
 40
0.4185688994
 40
0.7093216488
 40
0.8660075581
 40
1.0
 40
1.0
 40
1.0
 40
1.0
 10
178.1632891412
 20
43.0988682236
 30
0.0
 10
178.1680024007
 20
42.9037001698
 30
0.0
 10
178.1762476442
 20
42.5622784517
 30
0.0
 10
178.2860187794
 20
41.9976831598
 30
0.0
 10
178.4737876864
 20
41.5001727022
 30
0.0
 10
178.8695621692
 20
41.2032211967
 30
0.0
 10
179.1052010985
 20
41.1649037621
 30
0.0
 10
179.2138223143
 20
41.1472407789
 30
0.0
  0
LINE
  5
26C
100
AcDbEntity
  8
0
100
AcDbLine
 62
7
  6
CONTINUOUS
 10
184.1122405016
 20
42.1527374353
 11
184.1122405016
 21
44.1108802657
  0
ARC
  5
26D
100
AcDbEntity
  8
0
100
AcDbCircle
 62
7
  6
CONTINUOUS
 10
179.9924002332
 20
42.1527374353
 40
0.1963732265
100
AcDbArc
 50
180.0
 51
270.0
  0
LINE
  5
26E
100
AcDbEntity
  8
0
100
AcDbLine
 62
7
  6
CONTINUOUS
 10
179.9924002332
 20
41.9563642088
 11
182.2478747266
 21
41.9563642088
  0
LINE
  5
26F
100
AcDbEntity
  8
0
100
AcDbLine
 62
7
  6
CONTINUOUS
 10
182.2478747266
 20
41.9563642088
 11
182.2478747266
 21
42.3346682478
  0
ARC
  5
270
100
AcDbEntity
  8
0
100
AcDbCircle
 62
7
  6
CONTINUOUS
 10
182.3234028921
 20
42.3346682478
 40
0.075528164
100
AcDbArc
 50
90.0
 51
180.0
  0
LINE
  5
271
100
AcDbEntity
  8
0
100
AcDbLine
 62
7
  6
CONTINUOUS
 10
182.3234028907
 20
42.4101964119
 11
183.4934598064
 21
42.4101964119
  0
ARC
  5
272
100
AcDbEntity
  8
0
100
AcDbCircle
 62
7
  6
CONTINUOUS
 10
183.4934598036
 20
42.3346682506
 40
0.075528164
100
AcDbArc
 50
0.0
 51
90.0
  0
LINE
  5
273
100
AcDbEntity
  8
0
100
AcDbLine
 62
7
  6
CONTINUOUS
 10
183.5689879704
 20
41.9563642088
 11
183.9158672751
 21
41.9563642088
  0
ARC
  5
274
100
AcDbEntity
  8
0
100
AcDbCircle
 62
7
  6
CONTINUOUS
 10
183.9158672751
 20
42.1527374353
 40
0.1963732265
100
AcDbArc
 50
270.0
 51
360.0
  0
LINE
  5
275
100
AcDbEntity
  8
0
100
AcDbLine
 62
7
  6
CONTINUOUS
 10
183.5689879704
 20
41.9563642088
 11
183.5689879704
 21
42.3346682478
  0
LINE
  5
276
100
AcDbEntity
  8
0
100
AcDbLine
 62
7
  6
CONTINUOUS
 10
179.7960270067
 20
42.1527374353
 11
179.7960270067
 21
44.1108802657
  0
ARC
  5
277
100
AcDbEntity
  8
0
100
AcDbCircle
 62
7
  6
CONTINUOUS
 10
179.9924002359
 20
44.1108802657
 40
0.1963732265
100
AcDbArc
 50
90.0
 51
180.0
  0
LINE
  5
278
100
AcDbEntity
  8
0
100
AcDbLine
 62
7
  6
CONTINUOUS
 10
179.9924002332
 20
44.3072534922
 11
183.9158672751
 21
44.3072534922
  0
ARC
  5
279
100
AcDbEntity
  8
0
100
AcDbCircle
 62
7
  6
CONTINUOUS
 10
183.9158672769
 20
44.110880264
 40
0.1963732265
100
AcDbArc
 50
0.0000000277
 51
90.0000000277
  0
ARC
  5
27A
100
AcDbEntity
  8
0
100
AcDbCircle
 62
7
  6
CONTINUOUS
 10
187.5814034918
 20
43.6959183362
 40
0.1963732265
100
AcDbArc
 50
180.0
 51
270.0
  0
ARC
  5
27B
100
AcDbEntity
  8
0
100
AcDbCircle
 62
7
  6
CONTINUOUS
 10
190.2412153528
 20
42.1084164301
 40
0.1963732265
100
AcDbArc
 50
270.0
 51
360.0
  0
ARC
  5
27C
100
AcDbEntity
  8
0
100
AcDbCircle
 62
7
  6
CONTINUOUS
 10
194.5381575436
 20
42.1254279557
 40
0.1963732265
100
AcDbArc
 50
180.0
 51
270.0
  0
ENDBLK
  5
27D
100
AcDbEntity
  8
0
  6
BYBLOCK
 62
0
100
AcDbBlockEnd
  0
BLOCK
  5
27E
100
AcDbEntity
  8
0
100
AcDbBlockBegin
  2
_FILLED
 70
64
 10
0.0
 20
0.0
  3
_FILLED
  1

  0
SOLID
  5
27F
100
AcDbEntity
  8
0
  6
BYBLOCK
 62
0
100
AcDbTrace
 10
0.0
 20
0.0
 11
-1.0
 21
0.1666666667
 12
-1.0
 22
-0.1666666667
 13
-1.0
 23
-0.1666666667
  0
ENDBLK
  5
280
100
AcDbEntity
  8
0
  6
BYBLOCK
 62
0
100
AcDbBlockEnd
  0
BLOCK
  5
281
100
AcDbEntity
  8
0
100
AcDbBlockBegin
 62
2
  6
CONTINUOUS
  2
*D0
 70
65
 10
0.0
 20
0.0
  3
*D0
  1

  0
MTEXT
  5
282
100
AcDbEntity
  8
0
100
AcDbMText
 62
2
  6
CONTINUOUS
  7
STANDARD
 71
2
 72
1
 10
53.7007675877
 20
120.648746434
 30
0.0
 11
1.0
 21
0.0
 31
0.0
 44
0.9
  1
30.0\P[762]
 40
2.4801587302
 41
11.9579081633
  0
LINE
  5
283
100
AcDbEntity
  8
0
100
AcDbLine
 62
2
  6
CONTINUOUS
 10
69.1436530753
 20
63.3881183611
 11
69.1436530753
 21
121.392794053
  0
LINE
  5
284
100
AcDbEntity
  8
0
100
AcDbLine
 62
2
  6
CONTINUOUS
 10
39.1436530753
 20
112.0431892594
 11
39.1436530753
 21
121.392794053
  0
LINE
  5
285
100
AcDbEntity
  8
0
100
AcDbLine
 62
2
  6
CONTINUOUS
 10
69.1436530753
 20
119.4086670689
 11
59.3697018281
 21
119.4086670689
  0
LINE
  5
286
100
AcDbEntity
  8
0
100
AcDbLine
 62
2
  6
CONTINUOUS
 10
39.1436530753
 20
119.4086670689
 11
48.9176043224
 21
119.4086670689
  0
INSERT
  5
287
100
AcDbEntity
  8
0
100
AcDbBlockReference
 62
2
  6
CONTINUOUS
  2
_FILLED
 10
69.1436530753
 20
119.4086670689
 41
2.9761904762
 42
2.9761904762
 43
2.9761904762
  0
INSERT
  5
288
100
AcDbEntity
  8
0
100
AcDbBlockReference
 62
2
  6
CONTINUOUS
  2
_FILLED
 10
39.1436530753
 20
119.4086670689
 41
2.9761904762
 42
2.9761904762
 43
2.9761904762
 50
180.0
  0
ENDBLK
  5
289
100
AcDbEntity
  8
0
  6
BYBLOCK
 62
0
100
AcDbBlockEnd
  0
BLOCK
  5
28A
100
AcDbEntity
  8
0
100
AcDbBlockBegin
 62
2
  6
CONTINUOUS
  2
*D1
 70
65
 10
0.0
 20
0.0
  3
*D1
  1

  0
MTEXT
  5
28B
100
AcDbEntity
  8
0
100
AcDbMText
 62
2
  6
CONTINUOUS
  7
STANDARD
 71
2
 72
1
 10
79.8380911097
 20
147.0304833205
 30
0.0
 11
1.0
 21
0.0
 31
0.0
 44
0.9
  1
24.0\P[610]
 40
2.4801587302
 41
11.1607142857
  0
LINE
  5
28C
100
AcDbEntity
  8
0
100
AcDbLine
 62
2
  6
CONTINUOUS
 10
40.108022388
 20
132.25887533
 11
81.9107951913
 21
132.25887533
  0
LINE
  5
28D
100
AcDbEntity
  8
0
100
AcDbLine
 62
2
  6
CONTINUOUS
 10
70.7030932863
 20
156.25887533
 11
81.9107951913
 21
156.25887533
  0
LINE
  5
28E
100
AcDbEntity
  8
0
100
AcDbLine
 62
2
  6
CONTINUOUS
 10
79.9266682072
 20
132.25887533
 11
79.9266682072
 21
139.59000713
  0
LINE
  5
28F
100
AcDbEntity
  8
0
100
AcDbLine
 62
2
  6
CONTINUOUS
 10
79.9266682072
 20
156.25887533
 11
79.9266682072
 21
148.2705626855
  0
INSERT
  5
290
100
AcDbEntity
  8
0
100
AcDbBlockReference
 62
2
  6
CONTINUOUS
  2
_FILLED
 10
79.9266682072
 20
132.25887533
 41
2.9761904762
 42
2.9761904762
 43
2.9761904762
 50
270.0
  0
INSERT
  5
291
100
AcDbEntity
  8
0
100
AcDbBlockReference
 62
2
  6
CONTINUOUS
  2
_FILLED
 10
79.9266682072
 20
156.25887533
 41
2.9761904762
 42
2.9761904762
 43
2.9761904762
 50
90.0
  0
ENDBLK
  5
292
100
AcDbEntity
  8
0
  6
BYBLOCK
 62
0
100
AcDbBlockEnd
  0
BLOCK
  5
293
100
AcDbEntity
  8
0
100
AcDbBlockBegin
 62
2
  6
CONTINUOUS
  2
*D2
 70
65
 10
0.0
 20
0.0
  3
*D2
  1

  0
MTEXT
  5
294
100
AcDbEntity
  8
0
100
AcDbMText
 62
2
  6
CONTINUOUS
  7
STANDARD
 71
2
 72
1
 10
131.7096435847
 20
130.3244420381
 30
0.0
 11
1.0
 21
0.0
 31
0.0
 44
0.9
  1
14.9\P[380]
 40
2.4801587302
 41
11.6921768707
  0
LINE
  5
295
100
AcDbEntity
  8
0
100
AcDbLine
 62
2
  6
CONTINUOUS
 10
139.7136061697
 20
94.9069992944
 11
139.7136061697
 21
131.0684896571
  0
LINE
  5
296
100
AcDbEntity
  8
0
100
AcDbLine
 62
2
  6
CONTINUOUS
 10
124.7686061697
 20
110.8206546421
 11
124.7686061697
 21
131.0684896571
  0
LINE
  5
297
100
AcDbEntity
  8
0
100
AcDbLine
 62
2
  6
CONTINUOUS
 10
139.7136061697
 20
129.084362673
 11
147.6501141062
 21
129.084362673
  0
LINE
  5
298
100
AcDbEntity
  8
0
100
AcDbLine
 62
2
  6
CONTINUOUS
 10
124.7686061697
 20
129.084362673
 11
116.8320982332
 21
129.084362673
  0
INSERT
  5
299
100
AcDbEntity
  8
0
100
AcDbBlockReference
 62
2
  6
CONTINUOUS
  2
_FILLED
 10
139.7136061697
 20
129.084362673
 41
2.9761904762
 42
2.9761904762
 43
2.9761904762
 50
180.0
  0
INSERT
  5
29A
100
AcDbEntity
  8
0
100
AcDbBlockReference
 62
2
  6
CONTINUOUS
  2
_FILLED
 10
124.7686061697
 20
129.084362673
 41
2.9761904762
 42
2.9761904762
 43
2.9761904762
  0
ENDBLK
  5
29B
100
AcDbEntity
  8
0
  6
BYBLOCK
 62
0
100
AcDbBlockEnd
  0
BLOCK
  5
29C
100
AcDbEntity
  8
0
100
AcDbBlockBegin
 62
2
  6
CONTINUOUS
  2
*D3
 70
65
 10
0.0
 20
0.0
  3
*D3
  1

  0
MTEXT
  5
29D
100
AcDbEntity
  8
0
100
AcDbMText
 62
2
  6
CONTINUOUS
  7
STANDARD
 71
1
 72
1
 10
153.9979137351
 20
119.019863474
 30
0.0
 11
1.0
 21
0.0
 31
0.0
 44
0.9
  1
5.1\P[128]
 40
2.4801587302
 41
11.1607142857
  0
LINE
  5
29E
100
AcDbEntity
  8
0
100
AcDbLine
 62
2
  6
CONTINUOUS
 10
139.7136061697
 20
95.2758125404
 11
139.7136061697
 21
119.763911093
  0
LINE
  5
29F
100
AcDbEntity
  8
0
100
AcDbLine
 62
2
  6
CONTINUOUS
 10
144.7636061697
 20
95.2758125404
 11
144.7636061697
 21
119.763911093
  0
LINE
  5
2A0
100
AcDbEntity
  8
0
100
AcDbLine
 62
2
  6
CONTINUOUS
 10
139.7136061697
 20
117.7797841089
 11
131.7770982332
 21
117.7797841089
  0
LINE
  5
2A1
100
AcDbEntity
  8
0
100
AcDbLine
 62
2
  6
CONTINUOUS
 10
144.7636061697
 20
117.7797841089
 11
152.75783437
 21
117.7797841089
  0
INSERT
  5
2A2
100
AcDbEntity
  8
0
100
AcDbBlockReference
 62
2
  6
CONTINUOUS
  2
_FILLED
 10
139.7136061697
 20
117.7797841089
 41
2.9761904762
 42
2.9761904762
 43
2.9761904762
  0
INSERT
  5
2A3
100
AcDbEntity
  8
0
100
AcDbBlockReference
 62
2
  6
CONTINUOUS
  2
_FILLED
 10
144.7636061697
 20
117.7797841089
 41
2.9761904762
 42
2.9761904762
 43
2.9761904762
 50
180.0
  0
ENDBLK
  5
2A4
100
AcDbEntity
  8
0
  6
BYBLOCK
 62
0
100
AcDbBlockEnd
  0
BLOCK
  5
2A5
100
AcDbEntity
  8
0
100
AcDbBlockBegin
 62
2
  6
CONTINUOUS
  2
*D4
 70
65
 10
0.0
 20
0.0
  3
*D4
  1

  0
MTEXT
  5
2A6
100
AcDbEntity
  8
0
100
AcDbMText
 62
2
  6
CONTINUOUS
  7
STANDARD
 71
1
 72
1
 10
161.1962516749
 20
104.8005949313
 30
0.0
 11
1.0
 21
0.0
 31
0.0
 44
0.9
  1
7.1\P[180]
 40
2.4801587302
 41
11.1607142857
  0
LINE
  5
2A7
100
AcDbEntity
  8
0
100
AcDbLine
 62
2
  6
CONTINUOUS
 10
145.5656696618
 20
94.4737490484
 11
159.2121246908
 21
94.4737490484
  0
LINE
  5
2A8
100
AcDbEntity
  8
0
100
AcDbLine
 62
2
  6
CONTINUOUS
 10
145.5656696618
 20
87.3737490484
 11
159.2121246908
 21
87.3737490484
  0
LINE
  5
2A9
100
AcDbEntity
  8
0
100
AcDbLine
 62
2
  6
CONTINUOUS
 10
157.2279977066
 20
94.4737490484
 11
157.2279977066
 21
103.5605155662
  0
LINE
  5
2AA
100
AcDbEntity
  8
0
100
AcDbLine
 62
2
  6
CONTINUOUS
 10
157.2279977066
 20
103.5605155662
 11
159.9561723098
 21
103.5605155662
  0
LINE
  5
2AB
100
AcDbEntity
  8
0
100
AcDbLine
 62
2
  6
CONTINUOUS
 10
157.2279977066
 20
87.3737490484
 11
157.2279977066
 21
79.4372411119
  0
INSERT
  5
2AC
100
AcDbEntity
  8
0
100
AcDbBlockReference
 62
2
  6
CONTINUOUS
  2
_FILLED
 10
157.2279977066
 20
94.4737490484
 41
2.9761904762
 42
2.9761904762
 43
2.9761904762
 50
270.0
  0
INSERT
  5
2AD
100
AcDbEntity
  8
0
100
AcDbBlockReference
 62
2
  6
CONTINUOUS
  2
_FILLED
 10
157.2279977066
 20
87.3737490484
 41
2.9761904762
 42
2.9761904762
 43
2.9761904762
 50
90.0
  0
ENDBLK
  5
2AE
100
AcDbEntity
  8
0
  6
BYBLOCK
 62
0
100
AcDbBlockEnd
  0
BLOCK
  5
2AF
100
AcDbEntity
  8
0
100
AcDbBlockBegin
 62
2
  6
CONTINUOUS
  2
*D5
 70
65
 10
0.0
 20
0.0
  3
*D5
  1

  0
MTEXT
  5
2B0
100
AcDbEntity
  8
0
100
AcDbMText
 62
2
  6
CONTINUOUS
  7
STANDARD
 71
2
 72
1
 10
156.8736893166
 20
75.7838284134
 30
0.0
 11
1.0
 21
0.0
 31
0.0
 44
0.9
  1
25.7\P[652]
 40
2.4801587302
 41
11.6921768707
  0
LINE
  5
2B1
100
AcDbEntity
  8
0
100
AcDbLine
 62
2
  6
CONTINUOUS
 10
145.5656696618
 20
87.3737490484
 11
159.2121246908
 21
87.3737490484
  0
LINE
  5
2B2
100
AcDbEntity
  8
0
100
AcDbLine
 62
2
  6
CONTINUOUS
 10
147.8956696618
 20
61.7137490484
 11
159.2121246908
 21
61.7137490484
  0
LINE
  5
2B3
100
AcDbEntity
  8
0
100
AcDbLine
 62
2
  6
CONTINUOUS
 10
157.2279977066
 20
87.3737490484
 11
157.2279977066
 21
77.0239077785
  0
LINE
  5
2B4
100
AcDbEntity
  8
0
100
AcDbLine
 62
2
  6
CONTINUOUS
 10
157.2279977066
 20
61.7137490484
 11
157.2279977066
 21
68.343352223
  0
INSERT
  5
2B5
100
AcDbEntity
  8
0
100
AcDbBlockReference
 62
2
  6
CONTINUOUS
  2
_FILLED
 10
157.2279977066
 20
87.3737490484
 41
2.9761904762
 42
2.9761904762
 43
2.9761904762
 50
90.0
  0
INSERT
  5
2B6
100
AcDbEntity
  8
0
100
AcDbBlockReference
 62
2
  6
CONTINUOUS
  2
_FILLED
 10
157.2279977066
 20
61.7137490484
 41
2.9761904762
 42
2.9761904762
 43
2.9761904762
 50
270.0
  0
ENDBLK
  5
2B7
100
AcDbEntity
  8
0
  6
BYBLOCK
 62
0
100
AcDbBlockEnd
  0
BLOCK
  5
2B8
100
AcDbEntity
  8
0
100
AcDbBlockBegin
 62
2
  6
CONTINUOUS
  2
*D6
 70
65
 10
0.0
 20
0.0
  3
*D6
  1

  0
MTEXT
  5
2B9
100
AcDbEntity
  8
0
100
AcDbMText
 62
2
  6
CONTINUOUS
  7
STANDARD
 71
2
 72
1
 10
83.2276035377
 20
87.3186573849
 30
0.0
 11
1.0
 21
0.0
 31
0.0
 44
0.9
  1
48.8\P[1238]
 40
2.4801587302
 41
13.8180272109
  0
LINE
  5
2BA
100
AcDbEntity
  8
0
100
AcDbLine
 62
2
  6
CONTINUOUS
 10
70.7030932863
 20
110.4537490484
 11
86.1860785944
 21
110.4537490484
  0
LINE
  5
2BB
100
AcDbEntity
  8
0
100
AcDbLine
 62
2
  6
CONTINUOUS
 10
68.7336161304
 20
61.7034069913
 11
86.1860785944
 21
61.7034069913
  0
LINE
  5
2BC
100
AcDbEntity
  8
0
100
AcDbLine
 62
2
  6
CONTINUOUS
 10
84.2019516102
 20
110.4537490484
 11
84.2019516102
 21
88.55873675
  0
LINE
  5
2BD
100
AcDbEntity
  8
0
100
AcDbLine
 62
2
  6
CONTINUOUS
 10
84.2019516102
 20
61.7034069913
 11
84.2019516102
 21
79.8781811944
  0
INSERT
  5
2BE
100
AcDbEntity
  8
0
100
AcDbBlockReference
 62
2
  6
CONTINUOUS
  2
_FILLED
 10
84.2019516102
 20
110.4537490484
 41
2.9761904762
 42
2.9761904762
 43
2.9761904762
 50
90.0
  0
INSERT
  5
2BF
100
AcDbEntity
  8
0
100
AcDbBlockReference
 62
2
  6
CONTINUOUS
  2
_FILLED
 10
84.2019516102
 20
61.7034069913
 41
2.9761904762
 42
2.9761904762
 43
2.9761904762
 50
270.0
  0
ENDBLK
  5
2C0
100
AcDbEntity
  8
0
  6
BYBLOCK
 62
0
100
AcDbBlockEnd
  0
BLOCK
  5
2C1
100
AcDbEntity
  8
0
100
AcDbBlockBegin
 62
2
  6
CONTINUOUS
  2
*D7
 70
65
 10
0.0
 20
0.0
  3
*D7
  1

  0
MTEXT
  5
2C2
100
AcDbEntity
  8
0
100
AcDbMText
 62
2
  6
CONTINUOUS
  7
STANDARD
 71
1
 72
1
 10
77.6401734305
 20
55.8795229258
 30
0.0
 11
1.0
 21
0.0
 31
0.0
 44
0.9
  1
.8\P[19]
 40
2.4801587302
 41
8.237670068
  0
LINE
  5
2C3
100
AcDbEntity
  8
0
100
AcDbLine
 62
2
  6
CONTINUOUS
 10
69.5544509594
 20
62.4537490484
 11
75.6560464464
 21
62.4537490484
  0
LINE
  5
2C4
100
AcDbEntity
  8
0
100
AcDbLine
 62
2
  6
CONTINUOUS
 10
68.7336161304
 20
61.7034069913
 11
75.6560464464
 21
61.7034069913
  0
LINE
  5
2C5
100
AcDbEntity
  8
0
100
AcDbLine
 62
2
  6
CONTINUOUS
 10
73.6719194623
 20
62.4537490484
 11
73.6719194623
 21
70.3902569849
  0
LINE
  5
2C6
100
AcDbEntity
  8
0
100
AcDbLine
 62
2
  6
CONTINUOUS
 10
73.6719194623
 20
61.7034069913
 11
73.6719194623
 21
54.6394435607
  0
LINE
  5
2C7
100
AcDbEntity
  8
0
100
AcDbLine
 62
2
  6
CONTINUOUS
 10
73.6719194623
 20
54.6394435607
 11
76.4000940654
 21
54.6394435607
  0
INSERT
  5
2C8
100
AcDbEntity
  8
0
100
AcDbBlockReference
 62
2
  6
CONTINUOUS
  2
_FILLED
 10
73.6719194623
 20
62.4537490484
 41
2.9761904762
 42
2.9761904762
 43
2.9761904762
 50
270.0
  0
INSERT
  5
2C9
100
AcDbEntity
  8
0
100
AcDbBlockReference
 62
2
  6
CONTINUOUS
  2
_FILLED
 10
73.6719194623
 20
61.7034069913
 41
2.9761904762
 42
2.9761904762
 43
2.9761904762
 50
90.0
  0
ENDBLK
  5
2CA
100
AcDbEntity
  8
0
  6
BYBLOCK
 62
0
100
AcDbBlockEnd
  0
ENDSEC
  0
SECTION
  2
ENTITIES
  0
MTEXT
  5
2CB
100
AcDbEntity
  8
0
100
AcDbMText
 62
2
  6
CONTINUOUS
  7
STANDARD
 71
1
 72
1
 10
39.2229065219
 20
6.3987908957
 30
0.0
 11
1.0
 21
0.0
 31
0.0
 44
0.9
  1
4
 40
2.4801587302
 41
2.9230442177
  0
MTEXT
  5
2CC
100
AcDbEntity
  8
0
100
AcDbMText
 62
2
  6
CONTINUOUS
  7
STANDARD
 71
1
 72
1
 10
100.7008695384
 20
6.3871879492
 30
0.0
 11
1.0
 21
0.0
 31
0.0
 44
0.9
  1
3
 40
2.4801587302
 41
2.6573129252
  0
MTEXT
  5
2CD
100
AcDbEntity
  8
0
100
AcDbMText
 62
2
  6
CONTINUOUS
  7
STANDARD
 71
1
 72
1
 10
162.0364581516
 20
6.3924666821
 30
0.0
 11
1.0
 21
0.0
 31
0.0
 44
0.9
  1
2
 40
2.4801587302
 41
2.9230442177
  0
MTEXT
  5
2CE
100
AcDbEntity
  8
0
100
AcDbMText
 62
2
  6
CONTINUOUS
  7
STANDARD
 71
1
 72
1
 10
223.4872744838
 20
6.3927327985
 30
0.0
 11
1.0
 21
0.0
 31
0.0
 44
0.9
  1
1
 40
2.4801587302
 41
2.1258503401
  0
MTEXT
  5
2CF
100
AcDbEntity
  8
0
100
AcDbMText
 62
2
  6
CONTINUOUS
  7
STANDARD
 71
1
 72
1
 10
39.231696371
 20
172.5326745307
 30
0.0
 11
1.0
 21
0.0
 31
0.0
 44
0.9
  1
4
 40
2.4801587302
 41
2.9230442177
  0
MTEXT
  5
2D0
100
AcDbEntity
  8
0
100
AcDbMText
 62
2
  6
CONTINUOUS
  7
STANDARD
 71
1
 72
1
 10
100.6765957674
 20
172.514238598
 30
0.0
 11
1.0
 21
0.0
 31
0.0
 44
0.9
  1
3
 40
2.4801587302
 41
2.6573129252
  0
MTEXT
  5
2D1
100
AcDbEntity
  8
0
100
AcDbMText
 62
2
  6
CONTINUOUS
  7
STANDARD
 71
1
 72
1
 10
162.0655852197
 20
172.5111213457
 30
0.0
 11
1.0
 21
0.0
 31
0.0
 44
0.9
  1
2
 40
2.4801587302
 41
2.9230442177
  0
MTEXT
  5
2D2
100
AcDbEntity
  8
0
100
AcDbMText
 62
2
  6
CONTINUOUS
  7
STANDARD
 71
1
 72
1
 10
223.4900321422
 20
172.5133567225
 30
0.0
 11
1.0
 21
0.0
 31
0.0
 44
0.9
  1
1
 40
2.4801587302
 41
2.1258503401
  0
MTEXT
  5
2D3
100
AcDbEntity
  8
0
100
AcDbMText
 62
2
  6
CONTINUOUS
  7
STANDARD
 71
1
 72
1
 10
4.0360026438
 20
29.5126398288
 30
0.0
 11
1.0
 21
0.0
 31
0.0
 44
0.9
  1
A
 40
2.4801587302
 41
3.1887755102
  0
MTEXT
  5
2D4
100
AcDbEntity
  8
0
100
AcDbMText
 62
2
  6
CONTINUOUS
  7
STANDARD
 71
1
 72
1
 10
4.1229719157
 20
69.2106446392
 30
0.0
 11
1.0
 21
0.0
 31
0.0
 44
0.9
  1
B
 40
2.4801587302
 41
2.9230442177
  0
MTEXT
  5
2D5
100
AcDbEntity
  8
0
100
AcDbMText
 62
2
  6
CONTINUOUS
  7
STANDARD
 71
1
 72
1
 10
4.0999850251
 20
108.8555565626
 30
0.0
 11
1.0
 21
0.0
 31
0.0
 44
0.9
  1
C
 40
2.4801587302
 41
3.1001984127
  0
MTEXT
  5
2D6
100
AcDbEntity
  8
0
100
AcDbMText
 62
2
  6
CONTINUOUS
  7
STANDARD
 71
1
 72
1
 10
4.1332026118
 20
148.6048841202
 30
0.0
 11
1.0
 21
0.0
 31
0.0
 44
0.9
  1
D
 40
2.4801587302
 41
3.3659297052
  0
MTEXT
  5
2D7
100
AcDbEntity
  8
0
100
AcDbMText
 62
2
  6
CONTINUOUS
  7
STANDARD
 71
1
 72
1
 10
257.9428384193
 20
29.5078601527
 30
0.0
 11
1.0
 21
0.0
 31
0.0
 44
0.9
  1
A
 40
2.4801587302
 41
3.1887755102
  0
MTEXT
  5
2D8
100
AcDbEntity
  8
0
100
AcDbMText
 62
2
  6
CONTINUOUS
  7
STANDARD
 71
1
 72
1
 10
257.9280454126
 20
69.2052879656
 30
0.0
 11
1.0
 21
0.0
 31
0.0
 44
0.9
  1
B
 40
2.4801587302
 41
2.9230442177
  0
MTEXT
  5
2D9
100
AcDbEntity
  8
0
100
AcDbMText
 62
2
  6
CONTINUOUS
  7
STANDARD
 71
1
 72
1
 10
257.9214763216
 20
108.846853336
 30
0.0
 11
1.0
 21
0.0
 31
0.0
 44
0.9
  1
C
 40
2.4801587302
 41
3.1001984127
  0
MTEXT
  5
2DA
100
AcDbEntity
  8
0
100
AcDbMText
 62
2
  6
CONTINUOUS
  7
STANDARD
 71
1
 72
1
 10
257.9275362505
 20
148.6002985835
 30
0.0
 11
1.0
 21
0.0
 31
0.0
 44
0.9
  1
D
 40
2.4801587302
 41
3.3659297052
  0
MTEXT
  5
2DB
100
AcDbEntity
  8
0
100
AcDbMText
 62
5
  6
CONTINUOUS
  7
STANDARD
 71
1
 72
1
 10
8.6388151767
 20
166.0709876208
 30
0.0
 11
1.0
 21
0.0
 31
0.0
 44
0.9
  1
THIS DOCUMENT CONTAINS PROPRIETARY INFORMATION\PWHICH IS THE PROPERTY OF QSC, LLC, THAT MAY NOT BE\PDISCLOSED, REPRODUCED OR USED WITHOUT EXPRESS\PWRITTEN CONSENT FROM QSC, LLC.
 40
1.1904761905
 41
70.5357142857
  0
MTEXT
  5
2DC
100
AcDbEntity
  8
0
100
AcDbMText
 62
2
  6
CONTINUOUS
  7
STANDARD
 71
2
 72
1
 10
114.7355965932
 20
47.2739280206
 30
0.0
 11
1.0
 21
0.0
 31
0.0
 44
0.9
  1
UNLESS OTHERWISE SPECIFIED\PDIMENSIONS IN INCHES [MM]
 40
1.5873015873
 41
48.6394557823
  0
MTEXT
  5
2DD
100
AcDbEntity
  8
0
100
AcDbMText
 62
2
  6
CONTINUOUS
  7
STANDARD
 71
2
 72
1
 10
114.8404330028
 20
41.1426269622
 30
0.0
 11
1.0
 21
0.0
 31
0.0
 44
0.9
  1
TOLERANCES ARE:
 40
1.4285714286
 41
24.5408163265
  0
MTEXT
  5
2DE
100
AcDbEntity
  8
0
100
AcDbMText
 62
2
  6
CONTINUOUS
  7
STANDARD
 71
2
 72
1
 10
103.1631212836
 20
37.5191360752
 30
0.0
 11
1.0
 21
0.0
 31
0.0
 44
0.9
  1
DECIMALS\P.XX\Fgdt;{\Fgdt;`}\Ftxt;.02[.5]
 40
1.4285714286
 41
16.5816326531
  0
MTEXT
  5
2DF
100
AcDbEntity
  8
0
100
AcDbMText
 62
2
  6
CONTINUOUS
  7
STANDARD
 71
2
 72
1
 10
117.0634920635
 20
37.4206349206
 30
0.0
 11
1.0
 21
0.0
 31
0.0
 44
0.9
  1
DECIMALS\P.XXX\Fgdt;{\Fgdt;`}\Ftxt;.010[.25]
 40
1.4285714286
 41
21.3265306122
  0
MTEXT
  5
2E0
100
AcDbEntity
  8
0
100
AcDbMText
 62
2
  6
CONTINUOUS
  7
STANDARD
 71
2
 72
1
 10
129.0364602283
 20
37.5000110258
 30
0.0
 11
1.0
 21
0.0
 31
0.0
 44
0.9
  1
ANGLES\P\Fgdt;{\Fgdt;`}\Ftxt; 1/2
 40
1.4285714286
 41
10.2040816327
  0
MTEXT
  5
2E1
100
AcDbEntity
  8
0
100
AcDbMText
 62
2
  6
CONTINUOUS
  7
STANDARD
 71
2
 72
1
 10
115.0793650794
 20
31.4682539683
 30
0.0
 11
1.0
 21
0.0
 31
0.0
 44
0.9
  1
DEBURR EDGES .010 [.25] R MAX
 40
1.4285714286
 41
46.6836734694
  0
MTEXT
  5
2E2
100
AcDbEntity
  8
0
100
AcDbMText
 62
2
  6
CONTINUOUS
  7
STANDARD
 71
2
 72
1
 10
102.5226108064
 20
26.7653955169
 30
0.0
 11
1.0
 21
0.0
 31
0.0
 44
0.9
  1
MATERIAL
 40
1.4285714286
 41
13.7244897959
  0
MTEXT
  5
2E3
100
AcDbEntity
  8
0
100
AcDbMText
 62
2
  6
CONTINUOUS
  7
STANDARD
 71
2
 72
1
 10
101.0022177147
 20
17.0975655071
 30
0.0
 11
1.0
 21
0.0
 31
0.0
 44
0.9
  1
FINISH
 40
1.4285714286
 41
9.7448979592
  0
MTEXT
  5
2E4
100
AcDbEntity
  8
0
100
AcDbMText
 62
2
  6
CONTINUOUS
  7
STANDARD
 71
2
 72
1
 10
210.6316240444
 20
10.8079771704
 30
0.0
 11
1.0
 21
0.0
 31
0.0
 44
0.9
  1
DO NOT SCALE DRAWING
 40
1.9841269841
 41
49.4614512472
  0
MTEXT
  5
2E5
100
AcDbEntity
  8
0
100
AcDbMText
 62
2
  6
CONTINUOUS
  7
STANDARD
 71
2
 72
1
 10
136.8880443558
 20
43.1375645805
 30
0.0
 11
1.0
 21
0.0
 31
0.0
 44
0.9
  1
DRAWN
 40
1.4285714286
 41
10.4591836735
  0
MTEXT
  5
2E6
100
AcDbEntity
  8
0
100
AcDbMText
 62
2
  6
CONTINUOUS
  7
STANDARD
 71
2
 72
1
 10
137.4455695003
 20
36.1016745144
 30
0.0
 11
1.0
 21
0.0
 31
0.0
 44
0.9
  1
CHECKED
 40
1.4285714286
 41
12.3469387755
  0
MTEXT
  5
2E7
100
AcDbEntity
  8
0
100
AcDbMText
 62
2
  6
CONTINUOUS
  7
STANDARD
 71
2
 72
1
 10
137.3470654971
 20
29.1763372146
 30
0.0
 11
1.0
 21
0.0
 31
0.0
 44
0.9
  1
MFG ENG
 40
1.4285714286
 41
12.0408163265
  0
MTEXT
  5
2E8
100
AcDbEntity
  8
0
100
AcDbMText
 62
2
  6
CONTINUOUS
  7
STANDARD
 71
2
 72
1
 10
138.0632171831
 20
22.2029261396
 30
0.0
 11
1.0
 21
0.0
 31
0.0
 44
0.9
  1
QA CHECK
 40
1.4285714286
 41
14.2346938776
  0
MTEXT
  5
2E9
100
AcDbEntity
  8
0
100
AcDbMText
 62
2
  6
CONTINUOUS
  7
STANDARD
 71
2
 72
1
 10
142.1670396884
 20
10.7301979184
 30
0.0
 11
1.0
 21
0.0
 31
0.0
 44
0.9
  1
MODEL INFO:
 40
1.4285714286
 41
17.5
  0
MTEXT
  5
2EA
100
AcDbEntity
  8
0
100
AcDbMText
 62
2
  6
CONTINUOUS
  7
STANDARD
 71
2
 72
1
 10
140.6960459251
 20
14.5771593889
 30
0.0
 11
1.0
 21
0.0
 31
0.0
 44
0.9
  1
DRAWING INFO:
 40
1.4285714286
 41
22.2448979592
  0
MTEXT
  5
2EB
100
AcDbEntity
  8
0
100
AcDbMText
 62
2
  6
CONTINUOUS
  7
STANDARD
 71
2
 72
1
 10
146.6876705646
 20
46.9246549955
 30
0.0
 11
1.0
 21
0.0
 31
0.0
 44
0.9
  1
APPROVALS
 40
1.4285714286
 41
15.6632653061
  0
MTEXT
  5
2EC
100
AcDbEntity
  8
0
100
AcDbMText
 62
2
  6
CONTINUOUS
  7
STANDARD
 71
2
 72
1
 10
167.3660737228
 20
48.1771032561
 30
0.0
 11
1.0
 21
0.0
 31
0.0
 44
0.9
  1
DATE\P(DD-MMM-YY)
 40
1.4285714286
 41
17.9591836735
  0
MTEXT
  5
2ED
100
AcDbEntity
  8
0
100
AcDbMText
 62
2
  6
CONTINUOUS
  7
STANDARD
 71
2
 72
1
 10
178.402612403
 20
10.5876242893
 30
0.0
 11
1.0
 21
0.0
 31
0.0
 44
0.9
  1
SCALE:
 40
1.4285714286
 41
9.387755102
  0
MTEXT
  5
2EE
100
AcDbEntity
  8
0
100
AcDbMText
 62
2
  6
CONTINUOUS
  7
STANDARD
 71
2
 72
1
 10
232.0038529251
 20
10.6139823256
 30
0.0
 11
1.0
 21
0.0
 31
0.0
 44
0.9
  1
SHEET
 40
1.4285714286
 41
8.6734693878
  0
MTEXT
  5
2EF
100
AcDbEntity
  8
0
100
AcDbMText
 62
2
  6
CONTINUOUS
  7
STANDARD
 71
2
 72
1
 10
178.4441182663
 20
19.2115820209
 30
0.0
 11
1.0
 21
0.0
 31
0.0
 44
0.9
  1
SIZE
 40
1.4285714286
 41
6.6836734694
  0
MTEXT
  5
2F0
100
AcDbEntity
  8
0
100
AcDbMText
 62
2
  6
CONTINUOUS
  7
STANDARD
 71
2
 72
1
 10
190.2174223598
 20
19.2288324303
 30
0.0
 11
1.0
 21
0.0
 31
0.0
 44
0.9
  1
CAGE CODE
 40
1.4285714286
 41
15.8673469388
  0
MTEXT
  5
2F1
100
AcDbEntity
  8
0
100
AcDbMText
 62
2
  6
CONTINUOUS
  7
STANDARD
 71
2
 72
1
 10
205.4119007624
 20
19.1957613606
 30
0.0
 11
1.0
 21
0.0
 31
0.0
 44
0.9
  1
DRAWING NO.
 40
1.4285714286
 41
19.7959183673
  0
MTEXT
  5
2F2
100
AcDbEntity
  8
0
100
AcDbMText
 62
2
  6
CONTINUOUS
  7
STANDARD
 71
2
 72
1
 10
250.1925818959
 20
19.2170461378
 30
0.0
 11
1.0
 21
0.0
 31
0.0
 44
0.9
  1
REV
 40
1.4285714286
 41
5.4081632653
  0
MTEXT
  5
2F3
100
AcDbEntity
  8
0
100
AcDbMText
 62
2
  6
CONTINUOUS
  7
STANDARD
 71
2
 72
1
 10
212.6808099744
 20
47.5371493822
 30
0.0
 11
1.0
 21
0.0
 31
0.0
 44
0.9
  1
QSC, LLC
 40
2.4801587302
 41
22.8528911565
  0
MTEXT
  5
2F4
100
AcDbEntity
  8
0
100
AcDbMText
 62
2
  6
CONTINUOUS
  7
STANDARD
 71
1
 72
1
 10
204.9544827588
 20
43.7188914903
 30
0.0
 11
1.0
 21
0.0
 31
0.0
 44
0.9
  1
1675  MACARTHUR BOULEVARD\PCOSTA MESA, CA  92626
 40
1.9841269841
 41
59.2403628118
  0
MTEXT
  5
2F5
100
AcDbEntity
  8
0
100
AcDbMText
 62
2
  6
CONTINUOUS
  7
STANDARD
 71
1
 72
1
 10
184.6048966494
 20
15.8139125679
 30
0.0
 11
1.0
 21
0.0
 31
0.0
 44
0.9
  1
00PW4
 40
2.4801587302
 41
17.4496882086
  0
INSERT
  5
2F6
100
AcDbEntity
  8
0
100
AcDbBlockReference
 62
7
  6
CONTINUOUS
  2
RD010411_BL0
 10
188.7114333144
 20
42.8747724631
  0
DIMENSION
  5
2F7
100
AcDbEntity
  8
0
100
AcDbDimension
 62
2
  6
CONTINUOUS
  2
*D0
 10
39.1436530753
 20
119.4086670689
 11
54.1436530753
 21
117.5485480213
 70
160
 71
2
 42
30.0
  3
DIMSTYLE_1
100
AcDbAlignedDimension
 13
69.1436530753
 23
63.3256183611
 14
39.1436530753
 24
111.9806892594
 50
180.0
100
AcDbRotatedDimension
  0
DIMENSION
  5
2F8
100
AcDbEntity
  8
0
100
AcDbDimension
 62
2
  6
CONTINUOUS
  2
*D1
 10
79.9266682072
 20
156.25887533
 11
79.9266682072
 21
143.9302849078
 70
160
 71
2
 42
24.0
  3
DIMSTYLE_1
100
AcDbAlignedDimension
 13
40.045522388
 23
132.25887533
 14
70.6405932863
 24
156.25887533
 50
90.0
100
AcDbRotatedDimension
  0
DIMENSION
  5
2F9
100
AcDbEntity
  8
0
100
AcDbDimension
 62
2
  6
CONTINUOUS
  2
*D2
 10
124.7686061697
 20
129.084362673
 11
132.2411061697
 21
127.2242436254
 70
160
 71
2
 42
14.945
  3
DIMSTYLE_1
100
AcDbAlignedDimension
 13
139.7136061697
 23
94.8444992944
 14
124.7686061697
 24
110.7581546421
 50
180.0
100
AcDbRotatedDimension
  0
DIMENSION
  5
2FA
100
AcDbEntity
  8
0
100
AcDbDimension
 62
2
  6
CONTINUOUS
  2
*D3
 10
144.7636061697
 20
117.7797841089
 11
157.7181518303
 21
115.9196650613
 70
160
 71
1
 42
5.05
  3
DIMSTYLE_1
100
AcDbAlignedDimension
 13
139.7136061697
 23
95.2133125404
 14
144.7636061697
 24
95.2133125404
100
AcDbRotatedDimension
  0
DIMENSION
  5
2FB
100
AcDbEntity
  8
0
100
AcDbDimension
 62
2
  6
CONTINUOUS
  2
*D4
 10
157.2279977066
 20
87.3737490484
 11
164.9164897701
 21
101.7003965186
 70
160
 71
1
 42
7.1
  3
DIMSTYLE_1
100
AcDbAlignedDimension
 13
145.5031696618
 23
94.4737490484
 14
145.5031696618
 24
87.3737490484
 50
270.0
100
AcDbRotatedDimension
  0
DIMENSION
  5
2FC
100
AcDbEntity
  8
0
100
AcDbDimension
 62
2
  6
CONTINUOUS
  2
*D5
 10
157.2279977066
 20
61.7137490484
 11
157.2279977066
 21
72.6836300007
 70
160
 71
2
 42
25.66
  3
DIMSTYLE_1
100
AcDbAlignedDimension
 13
145.5031696618
 23
87.3737490484
 14
147.8331696618
 24
61.7137490484
 50
270.0
100
AcDbRotatedDimension
  0
DIMENSION
  5
2FD
100
AcDbEntity
  8
0
100
AcDbDimension
 62
2
  6
CONTINUOUS
  2
*D6
 10
84.2019516102
 20
61.7034069913
 11
84.2019516102
 21
84.2184589722
 70
160
 71
2
 42
48.7503420571
  3
DIMSTYLE_1
100
AcDbAlignedDimension
 13
70.6405932863
 23
110.4537490484
 14
68.6711161304
 24
61.7034069913
 50
270.0
100
AcDbRotatedDimension
  0
DIMENSION
  5
2FE
100
AcDbEntity
  8
0
100
AcDbDimension
 62
2
  6
CONTINUOUS
  2
*D7
 10
73.6719194623
 20
61.7034069913
 11
80.3860634532
 21
52.7793245131
 70
160
 71
1
 42
0.7503420571
  3
DIMSTYLE_1
100
AcDbAlignedDimension
 13
69.4919509594
 23
62.4537490484
 14
68.6711161304
 24
61.7034069913
 50
270.0
100
AcDbRotatedDimension
  0
LWPOLYLINE
  5
2FF
100
AcDbEntity
  8
0
100
AcDbPolyline
 62
2
  6
CONTINUOUS
 90
2
 70
0
 43
0.3174603175
 10
254.1297765773
 20
166.6868768328
 10
122.8599353075
 20
166.6868768328
  0
LWPOLYLINE
  5
300
100
AcDbEntity
  8
0
100
AcDbPolyline
 62
2
  6
CONTINUOUS
 90
2
 70
0
 43
0.3174603175
 10
253.9710464186
 20
166.6868768328
 10
253.9710464186
 20
146.8456069916
  0
LWPOLYLINE
  5
301
100
AcDbEntity
  8
0
100
AcDbPolyline
 62
2
  6
CONTINUOUS
 90
2
 70
0
 43
0.3174603175
 10
253.9710464186
 20
162.7186228646
 10
123.0186654662
 20
162.7186228646
  0
LWPOLYLINE
  5
302
100
AcDbEntity
  8
0
100
AcDbPolyline
 62
2
  6
CONTINUOUS
 90
2
 70
0
 43
0.3174603175
 10
253.9710464186
 20
158.7503688963
 10
123.0186654662
 20
158.7503688963
  0
LWPOLYLINE
  5
303
100
AcDbEntity
  8
0
100
AcDbPolyline
 62
2
  6
CONTINUOUS
 90
2
 70
0
 43
0.3174603175
 10
253.9710464186
 20
154.7821149281
 10
123.0186654662
 20
154.7821149281
  0
LWPOLYLINE
  5
304
100
AcDbEntity
  8
0
100
AcDbPolyline
 62
2
  6
CONTINUOUS
 90
2
 70
0
 43
0.3174603175
 10
253.9710464186
 20
150.8138609598
 10
123.0186654662
 20
150.8138609598
  0
LWPOLYLINE
  5
305
100
AcDbEntity
  8
0
100
AcDbPolyline
 62
2
  6
CONTINUOUS
 90
2
 70
0
 43
0.3174603175
 10
254.1297765773
 20
146.8456069916
 10
122.8599353075
 20
146.8456069916
  0
LWPOLYLINE
  5
306
100
AcDbEntity
  8
0
100
AcDbPolyline
 62
2
  6
CONTINUOUS
 90
2
 70
0
 43
0.3174603175
 10
236.1139035614
 20
162.7186228646
 10
236.1139035614
 20
146.8456069916
  0
LWPOLYLINE
  5
307
100
AcDbEntity
  8
0
100
AcDbPolyline
 62
2
  6
CONTINUOUS
 90
2
 70
0
 43
0.3174603175
 10
228.1773956249
 20
162.7186228646
 10
228.1773956249
 20
146.8456069916
  0
LWPOLYLINE
  5
308
100
AcDbEntity
  8
0
100
AcDbPolyline
 62
2
  6
CONTINUOUS
 90
2
 70
0
 43
0.3174603175
 10
212.3043797519
 20
162.7186228646
 10
212.3043797519
 20
146.8456069916
  0
LWPOLYLINE
  5
309
100
AcDbEntity
  8
0
100
AcDbPolyline
 62
2
  6
CONTINUOUS
 90
2
 70
0
 43
0.3174603175
 10
130.9551734027
 20
162.7186228646
 10
130.9551734027
 20
146.8456069916
  0
LWPOLYLINE
  5
30A
100
AcDbEntity
  8
0
100
AcDbPolyline
 62
2
  6
CONTINUOUS
 90
2
 70
0
 43
0.3174603175
 10
123.0186654662
 20
166.6868768328
 10
123.0186654662
 20
146.8456069916
  0
MTEXT
  5
30B
100
AcDbEntity
  8
0
100
AcDbMText
 62
2
  6
CONTINUOUS
  7
STANDARD
 71
2
 72
1
 10
188.4948559424
 20
165.8138609598
 30
0.0
 11
1.0
 21
0.0
 31
0.0
 44
0.9
  1
REVISIONS
 40
2.2222222222
 41
22.5396825397
  0
MTEXT
  5
30C
100
AcDbEntity
  8
0
100
AcDbMText
 62
2
  6
CONTINUOUS
  7
STANDARD
 71
2
 72
1
 10
245.04247499
 20
161.8456069916
 30
0.0
 11
1.0
 21
0.0
 31
0.0
 44
0.9
  1
APVD
 40
2.2222222222
 41
11.2698412698
  0
MTEXT
  5
30D
100
AcDbEntity
  8
0
100
AcDbMText
 62
2
  6
CONTINUOUS
  7
STANDARD
 71
2
 72
1
 10
232.1456495932
 20
161.8456069916
 30
0.0
 11
1.0
 21
0.0
 31
0.0
 44
0.9
  1
CHK
 40
2.2222222222
 41
8.0158730159
  0
MTEXT
  5
30E
100
AcDbEntity
  8
0
100
AcDbMText
 62
2
  6
CONTINUOUS
  7
STANDARD
 71
2
 72
1
 10
220.2408876884
 20
161.8456069916
 30
0.0
 11
1.0
 21
0.0
 31
0.0
 44
0.9
  1
EFF DATE
 40
2.2222222222
 41
20.873015873
  0
MTEXT
  5
30F
100
AcDbEntity
  8
0
100
AcDbMText
 62
2
  6
CONTINUOUS
  7
STANDARD
 71
2
 72
1
 10
171.6297765773
 20
161.8456069916
 30
0.0
 11
1.0
 21
0.0
 31
0.0
 44
0.9
  1
DESCRIPTION
 40
2.2222222222
 41
28.4126984127
  0
MTEXT
  5
310
100
AcDbEntity
  8
0
100
AcDbMText
 62
2
  6
CONTINUOUS
  7
STANDARD
 71
2
 72
1
 10
126.9869194345
 20
161.8456069916
 30
0.0
 11
1.0
 21
0.0
 31
0.0
 44
0.9
  1
REV
 40
2.2222222222
 41
7.7777777778
  0
MTEXT
  5
311
100
AcDbEntity
  8
0
100
AcDbMText
 62
2
  6
CONTINUOUS
  7
STANDARD
 71
2
 72
1
 10
220.2408876884
 20
157.8773530233
 30
0.0
 11
1.0
 21
0.0
 31
0.0
 44
0.9
  1
 7-08-09 
 40
2.2222222222
 41
23.0952380952
  0
MTEXT
  5
312
100
AcDbEntity
  8
0
100
AcDbMText
 62
2
  6
CONTINUOUS
  7
STANDARD
 71
1
 72
1
 10
131.9472368948
 20
157.8773530233
 30
0.0
 11
1.0
 21
0.0
 31
0.0
 44
0.9
  1
ENG RELEASE 
 40
2.2222222222
 41
30.2380952381
  0
MTEXT
  5
313
100
AcDbEntity
  8
0
100
AcDbMText
 62
2
  6
CONTINUOUS
  7
STANDARD
 71
2
 72
1
 10
126.9869194345
 20
157.8773530233
 30
0.0
 11
1.0
 21
0.0
 31
0.0
 44
0.9
  1
 1 
 40
2.2222222222
 41
7.1428571429
  0
MTEXT
  5
314
100
AcDbEntity
  8
0
100
AcDbMText
 62
2
  6
CONTINUOUS
  7
STANDARD
 71
2
 72
1
 10
245.04247499
 20
153.9090990551
 30
0.0
 11
1.0
 21
0.0
 31
0.0
 44
0.9
  1
DD 
 40
2.2222222222
 41
9.2857142857
  0
MTEXT
  5
315
100
AcDbEntity
  8
0
100
AcDbMText
 62
2
  6
CONTINUOUS
  7
STANDARD
 71
2
 72
1
 10
232.1456495932
 20
153.9090990551
 30
0.0
 11
1.0
 21
0.0
 31
0.0
 44
0.9
  1
 MH 
 40
2.2222222222
 41
10.7142857143
  0
MTEXT
  5
316
100
AcDbEntity
  8
0
100
AcDbMText
 62
2
  6
CONTINUOUS
  7
STANDARD
 71
2
 72
1
 10
220.2408876884
 20
153.9090990551
 30
0.0
 11
1.0
 21
0.0
 31
0.0
 44
0.9
  1
 7-15-09 
 40
2.2222222222
 41
22.1428571429
  0
MTEXT
  5
317
100
AcDbEntity
  8
0
100
AcDbMText
 62
2
  6
CONTINUOUS
  7
STANDARD
 71
1
 72
1
 10
131.9472368948
 20
154.038067309
 30
0.0
 11
1.0
 21
0.0
 31
0.0
 44
0.9
  1
RELEASE PER ECO 9334
 40
2.4801587302
 41
56.5121882086
  0
MTEXT
  5
318
100
AcDbEntity
  8
0
100
AcDbMText
 62
2
  6
CONTINUOUS
  7
STANDARD
 71
2
 72
1
 10
126.9869194345
 20
153.9090990551
 30
0.0
 11
1.0
 21
0.0
 31
0.0
 44
0.9
  1
 A 
 40
2.2222222222
 41
8.0952380952
  0
LINE
  5
319
100
AcDbEntity
  8
0
100
AcDbLine
 62
2
  6
CONTINUOUS
 10
97.2222222222
 20
27.7777777778
 11
132.9365079365
 21
27.7777777778
  0
LINE
  5
31A
100
AcDbEntity
  8
0
100
AcDbLine
 62
2
  6
CONTINUOUS
 10
97.2222222222
 20
27.7777777778
 11
97.2222222222
 21
17.8571428571
  0
LINE
  5
31B
100
AcDbEntity
  8
0
100
AcDbLine
 62
2
  6
CONTINUOUS
 10
97.2222222222
 20
17.8571428571
 11
132.9365079365
 21
17.8571428571
  0
LINE
  5
31C
100
AcDbEntity
  8
0
100
AcDbLine
 62
2
  6
CONTINUOUS
 10
132.9365079365
 20
27.7777777778
 11
132.9365079365
 21
17.8571428571
  0
LINE
  5
31D
100
AcDbEntity
  8
0
100
AcDbLine
 62
2
  6
CONTINUOUS
 10
97.2222222222
 20
17.8571428571
 11
132.9365079365
 21
17.8571428571
  0
LINE
  5
31E
100
AcDbEntity
  8
0
100
AcDbLine
 62
2
  6
CONTINUOUS
 10
97.2222222222
 20
17.8571428571
 11
97.2222222222
 21
7.9365079365
  0
LINE
  5
31F
100
AcDbEntity
  8
0
100
AcDbLine
 62
2
  6
CONTINUOUS
 10
97.2222222222
 20
7.9365079365
 11
132.9365079365
 21
7.9365079365
  0
LINE
  5
320
100
AcDbEntity
  8
0
100
AcDbLine
 62
2
  6
CONTINUOUS
 10
132.9365079365
 20
17.8571428571
 11
132.9365079365
 21
7.9365079365
  0
LINE
  5
321
100
AcDbEntity
  8
0
100
AcDbLine
 62
2
  6
CONTINUOUS
 10
132.9365079365
 20
43.6507936508
 11
160.7142857143
 21
43.6507936508
  0
LINE
  5
322
100
AcDbEntity
  8
0
100
AcDbLine
 62
2
  6
CONTINUOUS
 10
132.9365079365
 20
43.6507936508
 11
132.9365079365
 21
36.8303571429
  0
LINE
  5
323
100
AcDbEntity
  8
0
100
AcDbLine
 62
2
  6
CONTINUOUS
 10
132.9365079365
 20
36.8303571429
 11
160.7142857143
 21
36.8303571429
  0
LINE
  5
324
100
AcDbEntity
  8
0
100
AcDbLine
 62
2
  6
CONTINUOUS
 10
160.7142857143
 20
43.6507936508
 11
160.7142857143
 21
36.8303571429
  0
MTEXT
  5
325
100
AcDbEntity
  8
0
100
AcDbMText
 62
2
  6
CONTINUOUS
  7
STANDARD
 71
1
 72
1
 10
133.9285714286
 20
40.5505952381
 30
0.0
 11
1.0
 21
0.0
 31
0.0
 44
0.9
  1
J. DELARM 
 40
2.4801587302
 41
28.0789399093
  0
LINE
  5
326
100
AcDbEntity
  8
0
100
AcDbLine
 62
2
  6
CONTINUOUS
 10
132.9365079365
 20
36.7063492063
 11
160.7142857143
 21
36.7063492063
  0
LINE
  5
327
100
AcDbEntity
  8
0
100
AcDbLine
 62
2
  6
CONTINUOUS
 10
132.9365079365
 20
36.7063492063
 11
132.9365079365
 21
29.7222222222
  0
LINE
  5
328
100
AcDbEntity
  8
0
100
AcDbLine
 62
2
  6
CONTINUOUS
 10
132.9365079365
 20
29.7222222222
 11
160.7142857143
 21
29.7222222222
  0
LINE
  5
329
100
AcDbEntity
  8
0
100
AcDbLine
 62
2
  6
CONTINUOUS
 10
160.7142857143
 20
36.7063492063
 11
160.7142857143
 21
29.7222222222
  0
MTEXT
  5
32A
100
AcDbEntity
  8
0
100
AcDbMText
 62
2
  6
CONTINUOUS
  7
STANDARD
 71
1
 72
1
 10
133.9285714286
 20
33.4424603175
 30
0.0
 11
1.0
 21
0.0
 31
0.0
 44
0.9
  1
B. FERRELL 
 40
2.4801587302
 41
29.4961734694
  0
LINE
  5
32B
100
AcDbEntity
  8
0
100
AcDbLine
 62
2
  6
CONTINUOUS
 10
132.9365079365
 20
29.7619047619
 11
160.7142857143
 21
29.7619047619
  0
LINE
  5
32C
100
AcDbEntity
  8
0
100
AcDbLine
 62
2
  6
CONTINUOUS
 10
132.9365079365
 20
29.7619047619
 11
132.9365079365
 21
22.941468254
  0
LINE
  5
32D
100
AcDbEntity
  8
0
100
AcDbLine
 62
2
  6
CONTINUOUS
 10
132.9365079365
 20
22.941468254
 11
160.7142857143
 21
22.941468254
  0
LINE
  5
32E
100
AcDbEntity
  8
0
100
AcDbLine
 62
2
  6
CONTINUOUS
 10
160.7142857143
 20
29.7619047619
 11
160.7142857143
 21
22.941468254
  0
MTEXT
  5
32F
100
AcDbEntity
  8
0
100
AcDbMText
 62
2
  6
CONTINUOUS
  7
STANDARD
 71
1
 72
1
 10
133.9285714286
 20
26.6617063492
 30
0.0
 11
1.0
 21
0.0
 31
0.0
 44
0.9
  1
N/A
 40
2.4801587302
 41
8.9462868481
  0
LINE
  5
330
100
AcDbEntity
  8
0
100
AcDbLine
 62
2
  6
CONTINUOUS
 10
132.9365079365
 20
22.8174603175
 11
160.7142857143
 21
22.8174603175
  0
LINE
  5
331
100
AcDbEntity
  8
0
100
AcDbLine
 62
2
  6
CONTINUOUS
 10
132.9365079365
 20
22.8174603175
 11
132.9365079365
 21
15.8333333333
  0
LINE
  5
332
100
AcDbEntity
  8
0
100
AcDbLine
 62
2
  6
CONTINUOUS
 10
132.9365079365
 20
15.8333333333
 11
160.7142857143
 21
15.8333333333
  0
LINE
  5
333
100
AcDbEntity
  8
0
100
AcDbLine
 62
2
  6
CONTINUOUS
 10
160.7142857143
 20
22.8174603175
 11
160.7142857143
 21
15.8333333333
  0
MTEXT
  5
334
100
AcDbEntity
  8
0
100
AcDbMText
 62
2
  6
CONTINUOUS
  7
STANDARD
 71
1
 72
1
 10
133.9285714286
 20
19.5535714286
 30
0.0
 11
1.0
 21
0.0
 31
0.0
 44
0.9
  1
N/A
 40
2.4801587302
 41
8.9462868481
  0
LINE
  5
335
100
AcDbEntity
  8
0
100
AcDbLine
 62
2
  6
CONTINUOUS
 10
160.7142857143
 20
43.6507936508
 11
174.6031746032
 21
43.6507936508
  0
LINE
  5
336
100
AcDbEntity
  8
0
100
AcDbLine
 62
2
  6
CONTINUOUS
 10
160.7142857143
 20
43.6507936508
 11
160.7142857143
 21
36.6666666667
  0
LINE
  5
337
100
AcDbEntity
  8
0
100
AcDbLine
 62
2
  6
CONTINUOUS
 10
160.7142857143
 20
36.6666666667
 11
174.6031746032
 21
36.6666666667
  0
LINE
  5
338
100
AcDbEntity
  8
0
100
AcDbLine
 62
2
  6
CONTINUOUS
 10
174.6031746032
 20
43.6507936508
 11
174.6031746032
 21
36.6666666667
  0
MTEXT
  5
339
100
AcDbEntity
  8
0
100
AcDbMText
 62
2
  6
CONTINUOUS
  7
STANDARD
 71
2
 72
1
 10
167.6587301587
 20
39.8115079365
 30
0.0
 11
1.0
 21
0.0
 31
0.0
 44
0.9
  1
08-JUL-09
 40
1.9047619048
 41
19.5238095238
  0
LINE
  5
33A
100
AcDbEntity
  8
0
100
AcDbLine
 62
2
  6
CONTINUOUS
 10
160.7142857143
 20
36.7063492063
 11
174.6031746032
 21
36.7063492063
  0
LINE
  5
33B
100
AcDbEntity
  8
0
100
AcDbLine
 62
2
  6
CONTINUOUS
 10
160.7142857143
 20
36.7063492063
 11
160.7142857143
 21
29.7222222222
  0
LINE
  5
33C
100
AcDbEntity
  8
0
100
AcDbLine
 62
2
  6
CONTINUOUS
 10
160.7142857143
 20
29.7222222222
 11
174.6031746032
 21
29.7222222222
  0
LINE
  5
33D
100
AcDbEntity
  8
0
100
AcDbLine
 62
2
  6
CONTINUOUS
 10
174.6031746032
 20
36.7063492063
 11
174.6031746032
 21
29.7222222222
  0
MTEXT
  5
33E
100
AcDbEntity
  8
0
100
AcDbMText
 62
2
  6
CONTINUOUS
  7
STANDARD
 71
2
 72
1
 10
167.6587301587
 20
32.8670634921
 30
0.0
 11
1.0
 21
0.0
 31
0.0
 44
0.9
  1
10-JUL-09
 40
1.9047619048
 41
18.9115646259
  0
LINE
  5
33F
100
AcDbEntity
  8
0
100
AcDbLine
 62
2
  6
CONTINUOUS
 10
160.7142857143
 20
29.7619047619
 11
174.6031746032
 21
29.7619047619
  0
LINE
  5
340
100
AcDbEntity
  8
0
100
AcDbLine
 62
2
  6
CONTINUOUS
 10
160.7142857143
 20
29.7619047619
 11
160.7142857143
 21
22.7777777778
  0
LINE
  5
341
100
AcDbEntity
  8
0
100
AcDbLine
 62
2
  6
CONTINUOUS
 10
160.7142857143
 20
22.7777777778
 11
174.6031746032
 21
22.7777777778
  0
LINE
  5
342
100
AcDbEntity
  8
0
100
AcDbLine
 62
2
  6
CONTINUOUS
 10
174.6031746032
 20
29.7619047619
 11
174.6031746032
 21
22.7777777778
  0
MTEXT
  5
343
100
AcDbEntity
  8
0
100
AcDbMText
 62
2
  6
CONTINUOUS
  7
STANDARD
 71
2
 72
1
 10
167.6587301587
 20
25.9226190476
 30
0.0
 11
1.0
 21
0.0
 31
0.0
 44
0.9
  1
-
 40
1.9047619048
 41
2.0408163265
  0
LINE
  5
344
100
AcDbEntity
  8
0
100
AcDbLine
 62
2
  6
CONTINUOUS
 10
160.7142857143
 20
22.8174603175
 11
174.6031746032
 21
22.8174603175
  0
LINE
  5
345
100
AcDbEntity
  8
0
100
AcDbLine
 62
2
  6
CONTINUOUS
 10
160.7142857143
 20
22.8174603175
 11
160.7142857143
 21
15.9970238095
  0
LINE
  5
346
100
AcDbEntity
  8
0
100
AcDbLine
 62
2
  6
CONTINUOUS
 10
160.7142857143
 20
15.9970238095
 11
174.6031746032
 21
15.9970238095
  0
LINE
  5
347
100
AcDbEntity
  8
0
100
AcDbLine
 62
2
  6
CONTINUOUS
 10
174.6031746032
 20
22.8174603175
 11
174.6031746032
 21
15.9970238095
  0
MTEXT
  5
348
100
AcDbEntity
  8
0
100
AcDbMText
 62
2
  6
CONTINUOUS
  7
STANDARD
 71
2
 72
1
 10
167.6587301587
 20
19.1418650794
 30
0.0
 11
1.0
 21
0.0
 31
0.0
 44
0.9
  1
-
 40
1.9047619048
 41
2.0408163265
  0
LINE
  5
349
100
AcDbEntity
  8
0
100
AcDbLine
 62
2
  6
CONTINUOUS
 10
132.9365079365
 20
15.873015873
 11
174.6031746032
 21
15.873015873
  0
LINE
  5
34A
100
AcDbEntity
  8
0
100
AcDbLine
 62
2
  6
CONTINUOUS
 10
132.9365079365
 20
15.873015873
 11
132.9365079365
 21
11.9047619048
  0
LINE
  5
34B
100
AcDbEntity
  8
0
100
AcDbLine
 62
2
  6
CONTINUOUS
 10
132.9365079365
 20
11.9047619048
 11
174.6031746032
 21
11.9047619048
  0
LINE
  5
34C
100
AcDbEntity
  8
0
100
AcDbLine
 62
2
  6
CONTINUOUS
 10
174.6031746032
 20
15.873015873
 11
174.6031746032
 21
11.9047619048
  0
MTEXT
  5
34D
100
AcDbEntity
  8
0
100
AcDbMText
 62
2
  6
CONTINUOUS
  7
STANDARD
 71
3
 72
1
 10
173.6111111111
 20
14.8908730159
 30
0.0
 11
1.0
 21
0.0
 31
0.0
 44
0.9
  1
RD-000531-01.A.5
 40
1.746031746
 41
30.2437641723
  0
LINE
  5
34E
100
AcDbEntity
  8
0
100
AcDbLine
 62
2
  6
CONTINUOUS
 10
132.9365079365
 20
11.9047619048
 11
174.6031746032
 21
11.9047619048
  0
LINE
  5
34F
100
AcDbEntity
  8
0
100
AcDbLine
 62
2
  6
CONTINUOUS
 10
132.9365079365
 20
11.9047619048
 11
132.9365079365
 21
7.9365079365
  0
LINE
  5
350
100
AcDbEntity
  8
0
100
AcDbLine
 62
2
  6
CONTINUOUS
 10
132.9365079365
 20
7.9365079365
 11
174.6031746032
 21
7.9365079365
  0
LINE
  5
351
100
AcDbEntity
  8
0
100
AcDbLine
 62
2
  6
CONTINUOUS
 10
174.6031746032
 20
11.9047619048
 11
174.6031746032
 21
7.9365079365
  0
MTEXT
  5
352
100
AcDbEntity
  8
0
100
AcDbMText
 62
2
  6
CONTINUOUS
  7
STANDARD
 71
3
 72
1
 10
173.6111111111
 20
10.9226190476
 30
0.0
 11
1.0
 21
0.0
 31
0.0
 44
0.9
  1
WP-151210-00.D.1
 40
1.746031746
 41
30.8049886621
  0
LINE
  5
353
100
AcDbEntity
  8
0
100
AcDbLine
 62
2
  6
CONTINUOUS
 10
174.6031746032
 20
37.6984126984
 11
253.9682539683
 21
37.6984126984
  0
LINE
  5
354
100
AcDbEntity
  8
0
100
AcDbLine
 62
2
  6
CONTINUOUS
 10
174.6031746032
 20
37.6984126984
 11
174.6031746032
 21
19.8412698413
  0
LINE
  5
355
100
AcDbEntity
  8
0
100
AcDbLine
 62
2
  6
CONTINUOUS
 10
174.6031746032
 20
19.8412698413
 11
253.9682539683
 21
19.8412698413
  0
LINE
  5
356
100
AcDbEntity
  8
0
100
AcDbLine
 62
2
  6
CONTINUOUS
 10
253.9682539683
 20
37.6984126984
 11
253.9682539683
 21
19.8412698413
  0
MTEXT
  5
357
100
AcDbEntity
  8
0
100
AcDbMText
 62
2
  6
CONTINUOUS
  7
STANDARD
 71
2
 72
1
 10
214.2857142857
 20
35.753968254
 30
0.0
 11
1.0
 21
0.0
 31
0.0
 44
1.02
  1
SPEAKER, FINISHED,\PSB-15121\P 
 40
3.1746031746
 41
63.4920634921
  0
LINE
  5
358
100
AcDbEntity
  8
0
100
AcDbLine
 62
2
  6
CONTINUOUS
 10
174.6205127451
 20
19.8085788491
 11
182.5570206816
 21
19.8085788491
  0
LINE
  5
359
100
AcDbEntity
  8
0
100
AcDbLine
 62
2
  6
CONTINUOUS
 10
174.6205127451
 20
19.8085788491
 11
174.6205127451
 21
11.8720709126
  0
LINE
  5
35A
100
AcDbEntity
  8
0
100
AcDbLine
 62
2
  6
CONTINUOUS
 10
174.6205127451
 20
11.8720709126
 11
182.5570206816
 21
11.8720709126
  0
LINE
  5
35B
100
AcDbEntity
  8
0
100
AcDbLine
 62
2
  6
CONTINUOUS
 10
182.5570206816
 20
19.8085788491
 11
182.5570206816
 21
11.8720709126
  0
MTEXT
  5
35C
100
AcDbEntity
  8
0
100
AcDbMText
 62
2
  6
CONTINUOUS
  7
STANDARD
 71
2
 72
1
 10
178.5887667133
 20
16.2867534523
 30
0.0
 11
1.0
 21
0.0
 31
0.0
 44
0.9
  1
B
 40
3.1746031746
 41
3.7414965986
  0
LINE
  5
35D
100
AcDbEntity
  8
0
100
AcDbLine
 62
2
  6
CONTINUOUS
 10
198.4209126602
 20
19.7615014146
 11
246.0399602792
 21
19.7615014146
  0
LINE
  5
35E
100
AcDbEntity
  8
0
100
AcDbLine
 62
2
  6
CONTINUOUS
 10
198.4209126602
 20
19.7615014146
 11
198.4209126602
 21
11.8249934781
  0
LINE
  5
35F
100
AcDbEntity
  8
0
100
AcDbLine
 62
2
  6
CONTINUOUS
 10
198.4209126602
 20
11.8249934781
 11
246.0399602792
 21
11.8249934781
  0
LINE
  5
360
100
AcDbEntity
  8
0
100
AcDbLine
 62
2
  6
CONTINUOUS
 10
246.0399602792
 20
19.7615014146
 11
246.0399602792
 21
11.8249934781
  0
MTEXT
  5
361
100
AcDbEntity
  8
0
100
AcDbMText
 62
2
  6
CONTINUOUS
  7
STANDARD
 71
2
 72
1
 10
222.2304364697
 20
16.715866494
 30
0.0
 11
1.0
 21
0.0
 31
0.0
 44
0.9
  1
RD-000531-01
 40
3.6507936508
 41
48.373015873
  0
LINE
  5
362
100
AcDbEntity
  8
0
100
AcDbLine
 62
2
  6
CONTINUOUS
 10
246.0111094645
 20
19.8140924225
 11
253.9476174011
 21
19.8140924225
  0
LINE
  5
363
100
AcDbEntity
  8
0
100
AcDbLine
 62
2
  6
CONTINUOUS
 10
246.0111094645
 20
19.8140924225
 11
246.0111094645
 21
11.877584486
  0
LINE
  5
364
100
AcDbEntity
  8
0
100
AcDbLine
 62
2
  6
CONTINUOUS
 10
246.0111094645
 20
11.877584486
 11
253.9476174011
 21
11.877584486
  0
LINE
  5
365
100
AcDbEntity
  8
0
100
AcDbLine
 62
2
  6
CONTINUOUS
 10
253.9476174011
 20
19.8140924225
 11
253.9476174011
 21
11.877584486
  0
MTEXT
  5
366
100
AcDbEntity
  8
0
100
AcDbMText
 62
2
  6
CONTINUOUS
  7
STANDARD
 71
2
 72
1
 10
249.9793634328
 20
15.9748067082
 30
0.0
 11
1.0
 21
0.0
 31
0.0
 44
0.9
  1
A
 40
2.8571428571
 41
3.6734693878
  0
LINE
  5
367
100
AcDbEntity
  8
0
100
AcDbLine
 62
2
  6
CONTINUOUS
 10
228.1844542757
 20
11.7925219624
 11
253.9781050694
 21
11.7925219624
  0
LINE
  5
368
100
AcDbEntity
  8
0
100
AcDbLine
 62
2
  6
CONTINUOUS
 10
228.1844542757
 20
11.7925219624
 11
228.1844542757
 21
7.8242679941
  0
LINE
  5
369
100
AcDbEntity
  8
0
100
AcDbLine
 62
2
  6
CONTINUOUS
 10
228.1844542757
 20
7.8242679941
 11
253.9781050694
 21
7.8242679941
  0
LINE
  5
36A
100
AcDbEntity
  8
0
100
AcDbLine
 62
2
  6
CONTINUOUS
 10
253.9781050694
 20
11.7925219624
 11
253.9781050694
 21
7.8242679941
  0
MTEXT
  5
36B
100
AcDbEntity
  8
0
100
AcDbMText
 62
2
  6
CONTINUOUS
  7
STANDARD
 71
3
 72
1
 10
252.9860415773
 20
11.2865695814
 30
0.0
 11
1.0
 21
0.0
 31
0.0
 44
0.9
  1
1 OF 1
 40
2.2222222222
 41
14.0476190476
  0
LINE
  5
36C
100
AcDbEntity
  8
0
100
AcDbLine
 62
2
  6
CONTINUOUS
 10
174.575552573
 20
11.8860828081
 11
193.4326954302
 21
11.8860828081
  0
LINE
  5
36D
100
AcDbEntity
  8
0
100
AcDbLine
 62
2
  6
CONTINUOUS
 10
174.575552573
 20
11.8860828081
 11
174.575552573
 21
7.8558248716
  0
LINE
  5
36E
100
AcDbEntity
  8
0
100
AcDbLine
 62
2
  6
CONTINUOUS
 10
174.575552573
 20
7.8558248716
 11
193.4326954302
 21
7.8558248716
  0
LINE
  5
36F
100
AcDbEntity
  8
0
100
AcDbLine
 62
2
  6
CONTINUOUS
 10
193.4326954302
 20
11.8860828081
 11
193.4326954302
 21
7.8558248716
  0
MTEXT
  5
370
100
AcDbEntity
  8
0
100
AcDbMText
 62
2
  6
CONTINUOUS
  7
STANDARD
 71
3
 72
1
 10
192.4406319381
 20
11.0006661414
 30
0.0
 11
1.0
 21
0.0
 31
0.0
 44
0.9
  1
0.063
 40
1.9047619048
 41
10.4081632653
  0
MTEXT
  5
371
100
AcDbEntity
  8
0
100
AcDbMText
 62
2
  6
CONTINUOUS
  7
STANDARD
 71
1
 72
1
 10
7.4207359526
 20
23.6481832865
 30
0.0
 11
1.0
 21
0.0
 31
0.0
 44
1.5
  1
 2. TOLERANCES (INCHES): .X \Fgdt;{\Fgdt;`}\Ftxt; .13, ANGLES: \Fgdt;{\Fgdt;`}\Ftxt; 1\Fgdt;{\Fgdt;~}\Ftxt;.\P 1.  NET WEIGHT APPROX.: 231 LBS (104.8 KG).
 40
2.4801587302
 41
130.4740646259
  0
MTEXT
  5
372
100
AcDbEntity
  8
0
100
AcDbMText
 62
2
  6
CONTINUOUS
  7
STANDARD
 71
1
 72
1
 10
9.0079442165
 20
11.9564234198
 30
0.0
 11
1.0
 21
0.0
 31
0.0
 44
0.9
  1
NOTE:  UNLESS OTHERWISE SPECIFIED
 40
2.4801587302
 41
94.1574546485
  0
MTEXT
  5
373
100
AcDbEntity
  8
0
100
AcDbMText
 62
2
  6
CONTINUOUS
  7
STANDARD
 71
1
 72
1
 10
47.3829552706
 20
58.0094160259
 30
0.0
 11
1.0
 21
0.0
 31
0.0
 44
0.9
  1
FRONT
 40
3.9682539683
 41
23.3843537415
  0
MTEXT
  5
374
100
AcDbEntity
  8
0
100
AcDbMText
 62
2
  6
CONTINUOUS
  7
STANDARD
 71
1
 72
1
 10
130.4450953156
 20
57.8891997437
 30
0.0
 11
1.0
 21
0.0
 31
0.0
 44
0.9
  1
RIGHT
 40
3.9682539683
 41
22.9591836735
  0
MTEXT
  5
375
100
AcDbEntity
  8
0
100
AcDbMText
 62
2
  6
CONTINUOUS
  7
STANDARD
 71
1
 72
1
 10
49.1693086056
 20
130.0357008774
 30
0.0
 11
1.0
 21
0.0
 31
0.0
 44
0.9
  1
TOP
 40
3.9682539683
 41
14.4557823129
  0
LINE
  5
376
100
AcDbEntity
  8
DEFAULT_3
100
AcDbLine
 62
7
  6
PHANTOM
 10
-0.0000308235
 20
-0.0
 11
-0.0000308235
 21
174.6029062321
  0
LWPOLYLINE
  5
377
100
AcDbEntity
  8
0
100
AcDbPolyline
 62
7
  6
CONTINUOUS
 90
2
 70
0
 43
0.3174603307
 10
4.1668006688
 20
84.6246561698
 10
4.1668006688
 20
89.9787796407
  0
LWPOLYLINE
  5
378
100
AcDbEntity
  8
0
100
AcDbPolyline
 62
7
  6
CONTINUOUS
 90
2
 70
0
 43
0.47619048
 10
7.9344031222
 20
166.6608601428
 10
7.9344031222
 20
7.9365079365
  0
LINE
  5
379
100
AcDbEntity
  8
DEFAULT_3
100
AcDbLine
 62
7
  6
PHANTOM
 10
-0.0000308235
 20
-0.0
 11
269.8412698413
 21
-0.0
  0
LWPOLYLINE
  5
37A
100
AcDbEntity
  8
0
100
AcDbPolyline
 62
7
  6
CONTINUOUS
 90
2
 70
0
 43
0.47619048
 10
56.366326906
 20
166.7608520946
 10
56.366326906
 20
158.8243441581
  0
LWPOLYLINE
  5
37B
100
AcDbEntity
  8
0
100
AcDbPolyline
 62
7
  6
CONTINUOUS
 90
2
 70
0
 43
0.3174603307
 10
128.2758073019
 20
4.1737043088
 10
133.6299307729
 20
4.1737043088
  0
LWPOLYLINE
  5
37C
100
AcDbEntity
  8
0
100
AcDbPolyline
 62
7
  6
CONTINUOUS
 90
2
 70
0
 43
0.47619048
 10
7.9344031222
 20
7.9365079365
 10
253.9682539683
 20
7.9365079365
  0
LWPOLYLINE
  5
37D
100
AcDbEntity
  8
0
100
AcDbPolyline
 62
7
  6
CONTINUOUS
 90
2
 70
0
 43
0.3174603307
 10
132.9365079365
 20
11.9047619048
 10
253.9682539683
 20
11.9047619048
  0
LWPOLYLINE
  5
37E
100
AcDbEntity
  8
0
100
AcDbPolyline
 62
7
  6
CONTINUOUS
 90
2
 70
0
 43
0.3174603307
 10
69.4429830894
 20
7.9354833784
 10
69.4429830894
 20
-0.0010245581
  0
LWPOLYLINE
  5
37F
100
AcDbEntity
  8
0
100
AcDbPolyline
 62
7
  6
CONTINUOUS
 90
2
 70
0
 43
0.3174603307
 10
69.4439648272
 20
166.6633693958
 10
69.4439648272
 20
174.5998773323
  0
LWPOLYLINE
  5
380
100
AcDbEntity
  8
0
100
AcDbPolyline
 62
7
  6
CONTINUOUS
 90
2
 70
0
 43
0.3174603307
 10
7.937233651
 20
87.3017179053
 10
4.1668006688
 20
84.6246561698
  0
LINE
  5
381
100
AcDbEntity
  8
0
100
AcDbLine
 62
7
  6
CONTINUOUS
 10
132.8205582271
 20
17.7485371875
 11
97.3326992777
 21
8.1056578193
  0
LWPOLYLINE
  5
382
100
AcDbEntity
  8
0
100
AcDbPolyline
 62
7
  6
CONTINUOUS
 90
2
 70
0
 43
0.3174603307
 10
132.9365079365
 20
15.873015873
 10
174.6031746032
 20
15.873015873
  0
LWPOLYLINE
  5
383
100
AcDbEntity
  8
0
100
AcDbPolyline
 62
7
  6
CONTINUOUS
 90
2
 70
0
 43
0.3174603307
 10
132.9365079365
 20
17.8571428571
 10
97.2222222222
 20
17.8571428571
  0
LWPOLYLINE
  5
384
100
AcDbEntity
  8
0
100
AcDbPolyline
 62
7
  6
CONTINUOUS
 90
2
 70
0
 43
0.3174603307
 10
174.6031746032
 20
19.8412698413
 10
253.9682539683
 20
19.8412698413
  0
LWPOLYLINE
  5
385
100
AcDbEntity
  8
0
100
AcDbPolyline
 62
7
  6
CONTINUOUS
 90
2
 70
0
 43
0.3174603307
 10
7.937233651
 20
87.3017179053
 10
4.1668006688
 20
89.9787796407
  0
LINE
  5
386
100
AcDbEntity
  8
0
100
AcDbLine
 62
7
  6
CONTINUOUS
 10
132.9414551884
 20
27.689640441
 11
97.2582553324
 21
17.9327868833
  0
LWPOLYLINE
  5
387
100
AcDbEntity
  8
0
100
AcDbPolyline
 62
7
  6
CONTINUOUS
 90
2
 70
0
 43
0.3174603307
 10
132.9365079365
 20
22.8174603175
 10
174.6031746032
 20
22.8174603175
  0
LWPOLYLINE
  5
388
100
AcDbEntity
  8
0
100
AcDbPolyline
 62
7
  6
CONTINUOUS
 90
2
 70
0
 43
0.3174603307
 10
97.2222222222
 20
27.7777777778
 10
132.9365079365
 20
27.7777777778
  0
LWPOLYLINE
  5
389
100
AcDbEntity
  8
0
100
AcDbPolyline
 62
7
  6
CONTINUOUS
 90
2
 70
0
 43
0.3174603307
 10
132.9365079365
 20
29.7619047619
 10
174.6031746032
 20
29.7619047619
  0
LWPOLYLINE
  5
38A
100
AcDbEntity
  8
0
100
AcDbPolyline
 62
7
  6
CONTINUOUS
 90
2
 70
0
 43
0.3174603307
 10
130.9474626815
 20
166.6672883916
 10
133.624524417
 20
170.4377213738
  0
LWPOLYLINE
  5
38B
100
AcDbEntity
  8
0
100
AcDbPolyline
 62
7
  6
CONTINUOUS
 90
2
 70
0
 43
0.3174603307
 10
132.9365079365
 20
36.7063492063
 10
174.6031746032
 20
36.7063492063
  0
LWPOLYLINE
  5
38C
100
AcDbEntity
  8
0
100
AcDbPolyline
 62
7
  6
CONTINUOUS
 90
2
 70
0
 43
0.3174603307
 10
174.6031746032
 20
37.6984126984
 10
253.9682539683
 20
37.6984126984
  0
LINE
  5
38D
100
AcDbEntity
  8
0
100
AcDbLine
 62
7
  6
CONTINUOUS
 10
97.2686404557
 20
48.598910394
 11
132.9103978006
 21
27.9035230892
  0
LWPOLYLINE
  5
38E
100
AcDbEntity
  8
0
100
AcDbPolyline
 62
7
  6
CONTINUOUS
 90
2
 70
0
 43
0.3174603307
 10
130.9528690374
 20
7.9441372911
 10
133.6299307729
 20
4.1737043088
  0
LWPOLYLINE
  5
38F
100
AcDbEntity
  8
0
100
AcDbPolyline
 62
7
  6
CONTINUOUS
 90
2
 70
0
 43
0.3174603307
 10
97.2222222222
 20
7.9365079365
 10
97.2222222222
 20
48.6111111111
  0
LWPOLYLINE
  5
390
100
AcDbEntity
  8
0
100
AcDbPolyline
 62
7
  6
CONTINUOUS
 90
2
 70
0
 43
0.3174603307
 10
132.9365079365
 20
43.6507936508
 10
174.6031746032
 20
43.6507936508
  0
LWPOLYLINE
  5
391
100
AcDbEntity
  8
0
100
AcDbPolyline
 62
7
  6
CONTINUOUS
 90
2
 70
0
 43
0.3174603307
 10
7.9361372769
 20
47.6164584724
 10
-0.0003706597
 20
47.6164584724
  0
LWPOLYLINE
  5
392
100
AcDbEntity
  8
0
100
AcDbPolyline
 62
7
  6
CONTINUOUS
 90
2
 70
0
 43
0.3174603307
 10
254.1199701807
 20
47.6166100259
 10
262.0564781172
 20
47.6166100259
  0
LWPOLYLINE
  5
393
100
AcDbEntity
  8
0
100
AcDbPolyline
 62
7
  6
CONTINUOUS
 90
2
 70
0
 43
0.3174603307
 10
97.2222222222
 20
48.6111111111
 10
253.9682539683
 20
48.6111111111
  0
LINE
  5
394
100
AcDbEntity
  8
0
100
AcDbLine
 62
7
  6
CONTINUOUS
 10
67.7411974237
 20
61.7034069913
 11
67.7415526383
 21
61.7034069913
  0
LWPOLYLINE
  5
395
100
AcDbEntity
  8
0
100
AcDbPolyline
 62
7
  6
CONTINUOUS
 90
2
 70
0
 43
0.3174603307
 10
130.9474626815
 20
166.6672883916
 10
130.9474626815
 20
174.6037963281
  0
LWPOLYLINE
  5
396
100
AcDbEntity
  8
0
100
AcDbPolyline
 62
7
  6
CONTINUOUS
 90
2
 70
0
 43
0.3174603307
 10
130.9528690374
 20
7.9441372911
 10
130.9528690374
 20
0.0076293545
  0
LWPOLYLINE
  5
397
100
AcDbEntity
  8
0
100
AcDbPolyline
 62
7
  6
CONTINUOUS
 90
2
 70
0
 43
0.3174603307
 10
132.9365079365
 20
7.9365079365
 10
132.9365079365
 20
48.6111111111
  0
LWPOLYLINE
  5
398
100
AcDbEntity
  8
0
100
AcDbPolyline
 62
7
  6
CONTINUOUS
 90
2
 70
0
 43
0.3174603307
 10
254.0228223
 20
87.3013987012
 10
261.9593302366
 20
87.3013987012
  0
LWPOLYLINE
  5
399
100
AcDbEntity
  8
0
100
AcDbPolyline
 62
7
  6
CONTINUOUS
 90
2
 70
0
 43
0.3174603307
 10
7.937233651
 20
87.3017179053
 10
0.0007257145
 20
87.3017179053
  0
LWPOLYLINE
  5
39A
100
AcDbEntity
  8
0
100
AcDbPolyline
 62
7
  6
CONTINUOUS
 90
2
 70
0
 43
0.3174603307
 10
160.7142857143
 20
15.873015873
 10
160.7142857143
 20
48.6111111111
  0
LINE
  5
39B
100
AcDbEntity
  8
0
100
AcDbLine
 62
7
  6
CONTINUOUS
 10
132.8811137295
 20
48.579781255
 11
97.2691682069
 21
27.894027022
  0
LWPOLYLINE
  5
39C
100
AcDbEntity
  8
0
100
AcDbPolyline
 62
7
  6
CONTINUOUS
 90
2
 70
0
 43
0.3174603307
 10
174.6031746032
 20
7.9365079365
 10
174.6031746032
 20
48.6111111111
  0
LWPOLYLINE
  5
39D
100
AcDbEntity
  8
0
100
AcDbPolyline
 62
7
  6
CONTINUOUS
 90
2
 70
0
 43
0.3174603307
 10
182.5396825397
 20
11.9047619048
 10
182.5396825397
 20
19.8412698413
  0
LWPOLYLINE
  5
39E
100
AcDbEntity
  8
0
100
AcDbPolyline
 62
7
  6
CONTINUOUS
 90
2
 70
0
 43
0.3174603307
 10
130.9528690374
 20
7.9441372911
 10
128.2758073019
 20
4.1737043088
  0
LWPOLYLINE
  5
39F
100
AcDbEntity
  8
0
100
AcDbPolyline
 62
7
  6
CONTINUOUS
 90
2
 70
0
 43
0.3174603307
 10
254.0401820266
 20
126.9791521192
 10
261.9766899631
 20
126.9791521192
  0
LWPOLYLINE
  5
3A0
100
AcDbEntity
  8
0
100
AcDbPolyline
 62
7
  6
CONTINUOUS
 90
2
 70
0
 43
0.3174603307
 10
7.9344011386
 20
126.9796675321
 10
-0.0021067979
 20
126.9796675321
  0
LWPOLYLINE
  5
3A1
100
AcDbEntity
  8
0
100
AcDbPolyline
 62
7
  6
CONTINUOUS
 90
2
 70
0
 43
0.3174603307
 10
130.9474626815
 20
166.6672883916
 10
128.270400946
 20
170.4377213738
  0
LWPOLYLINE
  5
3A2
100
AcDbEntity
  8
0
100
AcDbPolyline
 62
7
  6
CONTINUOUS
 90
2
 70
0
 43
0.3174603307
 10
192.455760638
 20
166.689393652
 10
192.455760638
 20
174.6259015885
  0
LWPOLYLINE
  5
3A3
100
AcDbEntity
  8
0
100
AcDbPolyline
 62
7
  6
CONTINUOUS
 90
2
 70
0
 43
0.3174603307
 10
192.4601681782
 20
7.9313016531
 10
192.4601681782
 20
-0.0052062834
  0
LWPOLYLINE
  5
3A4
100
AcDbEntity
  8
0
100
AcDbPolyline
 62
7
  6
CONTINUOUS
 90
2
 70
0
 43
0.3174603307
 10
193.3909359769
 20
8.011907231
 10
193.3909359769
 20
11.9801611992
  0
LWPOLYLINE
  5
3A5
100
AcDbEntity
  8
0
100
AcDbPolyline
 62
7
  6
CONTINUOUS
 90
2
 70
0
 43
0.3174603307
 10
198.4126984127
 20
11.9047619048
 10
198.4126984127
 20
19.8412698413
  0
LWPOLYLINE
  5
3A6
100
AcDbEntity
  8
0
100
AcDbPolyline
 62
7
  6
CONTINUOUS
 90
2
 70
0
 43
0.3174603307
 10
254.0228223
 20
87.3013987012
 10
257.7932552823
 20
89.9784604367
  0
LWPOLYLINE
  5
3A7
100
AcDbEntity
  8
0
100
AcDbPolyline
 62
7
  6
CONTINUOUS
 90
2
 70
0
 43
0.47619048
 10
56.366326906
 20
158.8243441581
 10
7.7552157949
 20
158.8243441581
  0
LWPOLYLINE
  5
3A8
100
AcDbEntity
  8
0
100
AcDbPolyline
 62
7
  6
CONTINUOUS
 90
2
 70
0
 43
0.3174603307
 10
254.0228223
 20
87.3013987012
 10
257.7932552823
 20
84.6243369657
  0
LWPOLYLINE
  5
3A9
100
AcDbEntity
  8
0
100
AcDbPolyline
 62
7
  6
CONTINUOUS
 90
2
 70
0
 43
0.47619048
 10
253.9682539683
 20
166.6608601428
 10
7.9344031222
 20
166.6608601428
  0
LWPOLYLINE
  5
3AA
100
AcDbEntity
  8
0
100
AcDbPolyline
 62
7
  6
CONTINUOUS
 90
2
 70
0
 43
0.3174603307
 10
128.270400946
 20
170.4377213738
 10
133.624524417
 20
170.4377213738
  0
LWPOLYLINE
  5
3AB
100
AcDbEntity
  8
0
100
AcDbPolyline
 62
7
  6
CONTINUOUS
 90
2
 70
0
 43
0.3174603307
 10
228.1746031746
 20
7.9365079365
 10
228.1746031746
 20
11.9047619048
  0
LINE
  5
3AC
100
AcDbEntity
  8
DEFAULT_3
100
AcDbLine
 62
7
  6
PHANTOM
 10
-0.0000308235
 20
174.6029062321
 11
269.8414280742
 21
174.6029062321
  0
LWPOLYLINE
  5
3AD
100
AcDbEntity
  8
0
100
AcDbPolyline
 62
7
  6
CONTINUOUS
 90
2
 70
0
 43
0.3174603307
 10
246.0317460317
 20
11.9047619048
 10
246.0317460317
 20
19.8412698413
  0
LWPOLYLINE
  5
3AE
100
AcDbEntity
  8
0
100
AcDbPolyline
 62
7
  6
CONTINUOUS
 90
2
 70
0
 43
0.47619048
 10
253.9682539683
 20
166.6608601428
 10
253.9682539683
 20
7.9365079365
  0
LWPOLYLINE
  5
3AF
100
AcDbEntity
  8
0
100
AcDbPolyline
 62
7
  6
CONTINUOUS
 90
2
 70
0
 43
0.3174603307
 10
257.7932552823
 20
84.6243369657
 10
257.7932552823
 20
89.9784604367
  0
LINE
  5
3B0
100
AcDbEntity
  8
DEFAULT_3
100
AcDbLine
 62
7
  6
PHANTOM
 10
269.8412698413
 20
-0.0
 11
269.8412698413
 21
174.5973680793
  0
LINE
  5
3B1
100
AcDbEntity
  8
CTRLS
100
AcDbLine
 62
7
  6
CONTINUOUS
 10
40.5086530753
 20
61.7137490484
 11
41.7586530753
 21
61.7137490484
  0
LINE
  5
3B2
100
AcDbEntity
  8
CTRLS
100
AcDbLine
 62
7
  6
CONTINUOUS
 10
66.5086530753
 20
61.7137490484
 11
67.7586530753
 21
61.7137490484
  0
LINE
  5
3B3
100
AcDbEntity
  8
7_ALL_ROUNDS
100
AcDbLine
 62
7
  6
CONTINUOUS
 10
68.8836530753
 20
62.4337490484
 11
68.6836530753
 21
62.4337490484
  0
LINE
  5
3B4
100
AcDbEntity
  8
7_ALL_ROUNDS
100
AcDbLine
 62
7
  6
CONTINUOUS
 10
39.4036530753
 20
62.4337490484
 11
39.6036530753
 21
62.4337490484
  0
LINE
  5
3B5
100
AcDbEntity
  8
7_ALL_ROUNDS
100
AcDbLine
 62
7
  6
CONTINUOUS
 10
68.6736530753
 20
62.4637490484
 11
39.6136530753
 21
62.4637490484
  0
LINE
  5
3B6
100
AcDbEntity
  8
3_AXES_OTHER
100
AcDbLine
 62
7
  6
CONTINUOUS
 10
39.6136530753
 20
63.2137490484
 11
68.6736530753
 21
63.2137490484
  0
LINE
  5
3B7
100
AcDbEntity
  8
3_AXES_OTHER
100
AcDbLine
 62
7
  6
CONTINUOUS
 10
39.9036530753
 20
63.2237490484
 11
39.6036530753
 21
63.2237490484
  0
LINE
  5
3B8
100
AcDbEntity
  8
3_AXES_OTHER
100
AcDbLine
 62
7
  6
CONTINUOUS
 10
68.3836530753
 20
63.2237490484
 11
68.6836530753
 21
63.2237490484
  0
LINE
  5
3B9
100
AcDbEntity
  8
7_ALL_ROUNDS
100
AcDbLine
 62
7
  6
CONTINUOUS
 10
40.8166530753
 20
63.2728041665
 11
41.4366236607
 21
63.2728041665
  0
LINE
  5
3BA
100
AcDbEntity
  8
3_AXES_OTHER
100
AcDbLine
 62
7
  6
CONTINUOUS
 10
41.4366236607
 20
63.2728041665
 11
41.4506530753
 21
63.2728041665
  0
LINE
  5
3BB
100
AcDbEntity
  8
7_ALL_ROUNDS
100
AcDbLine
 62
7
  6
CONTINUOUS
 10
66.8166530753
 20
63.2728041665
 11
67.4366236607
 21
63.2728041665
  0
LINE
  5
3BC
100
AcDbEntity
  8
3_AXES_OTHER
100
AcDbLine
 62
7
  6
CONTINUOUS
 10
67.4366236607
 20
63.2728041665
 11
67.4506530753
 21
63.2728041665
  0
LINE
  5
3BD
100
AcDbEntity
  8
3_AXES_OTHER
100
AcDbLine
 62
7
  6
CONTINUOUS
 10
47.653653075
 20
109.6937490484
 11
39.9036530753
 21
101.9437490486
  0
LINE
  5
3BE
100
AcDbEntity
  8
7_ALL_ROUNDS
100
AcDbLine
 62
7
  6
CONTINUOUS
 10
47.6676530753
 20
109.6937490484
 11
39.9036530753
 21
101.9297490484
  0
LINE
  5
3BF
100
AcDbEntity
  8
3_AXES_OTHER
100
AcDbLine
 62
7
  6
CONTINUOUS
 10
39.9036530753
 20
70.9637490481
 11
47.653653075
 21
63.2137490484
  0
LINE
  5
3C0
100
AcDbEntity
  8
7_ALL_ROUNDS
100
AcDbLine
 62
7
  6
CONTINUOUS
 10
39.9036530753
 20
70.9777490484
 11
47.6676530753
 21
63.2137490484
  0
LINE
  5
3C1
100
AcDbEntity
  8
7_ALL_ROUNDS
100
AcDbLine
 62
7
  6
CONTINUOUS
 10
39.1536530753
 20
62.6837490484
 11
39.1536530753
 21
110.2237490484
  0
LINE
  5
3C2
100
AcDbEntity
  8
7_ALL_ROUNDS
100
AcDbLine
 62
7
  6
CONTINUOUS
 10
39.6036530753
 20
62.4337490484
 11
39.6036530753
 21
63.2237490484
  0
LINE
  5
3C3
100
AcDbEntity
  8
7_ALL_ROUNDS
100
AcDbLine
 62
7
  6
CONTINUOUS
 10
39.6036530753
 20
109.6837490484
 11
39.6036530753
 21
110.4737490484
  0
LINE
  5
3C4
100
AcDbEntity
  8
3_AXES_OTHER
100
AcDbLine
 62
7
  6
CONTINUOUS
 10
39.6136530753
 20
109.6937490484
 11
39.6136530753
 21
109.6837490484
  0
LINE
  5
3C5
100
AcDbEntity
  8
3_AXES_OTHER
100
AcDbLine
 62
7
  6
CONTINUOUS
 10
39.6136530753
 20
63.2237490484
 11
39.6136530753
 21
63.2137490484
  0
LINE
  5
3C6
100
AcDbEntity
  8
7_ALL_ROUNDS
100
AcDbLine
 62
7
  6
CONTINUOUS
 10
39.6136530753
 20
62.4637490484
 11
39.6136530753
 21
63.2137490484
  0
LINE
  5
3C7
100
AcDbEntity
  8
7_ALL_ROUNDS
100
AcDbLine
 62
7
  6
CONTINUOUS
 10
39.6136530753
 20
109.6937490484
 11
39.6136530753
 21
110.4437490484
  0
LINE
  5
3C8
100
AcDbEntity
  8
3_AXES_OTHER
100
AcDbLine
 62
7
  6
CONTINUOUS
 10
39.9036530753
 20
63.2237490484
 11
39.9036530753
 21
109.6837490484
  0
LINE
  5
3C9
100
AcDbEntity
  8
CTRLS
100
AcDbLine
 62
7
  6
CONTINUOUS
 10
40.3836530753
 20
61.8387490484
 11
40.3836530753
 21
62.4637490484
  0
LINE
  5
3CA
100
AcDbEntity
  8
7_ALL_ROUNDS
100
AcDbLine
 62
7
  6
CONTINUOUS
 10
40.8166530753
 20
63.2137490484
 11
40.8166530753
 21
63.2728041665
  0
LINE
  5
3CB
100
AcDbEntity
  8
3_AXES_OTHER
100
AcDbLine
 62
7
  6
CONTINUOUS
 10
41.4366236607
 20
63.2137490484
 11
41.4366236607
 21
63.2728041665
  0
LINE
  5
3CC
100
AcDbEntity
  8
7_ALL_ROUNDS
100
AcDbLine
 62
7
  6
CONTINUOUS
 10
41.4506530753
 20
63.2137490484
 11
41.4506530753
 21
63.2728041665
  0
LINE
  5
3CD
100
AcDbEntity
  8
CTRLS
100
AcDbLine
 62
7
  6
CONTINUOUS
 10
41.8836530753
 20
61.8387490484
 11
41.8836530753
 21
62.4637490484
  0
LINE
  5
3CE
100
AcDbEntity
  8
3_AXES_OTHER
100
AcDbLine
 62
7
  6
CONTINUOUS
 10
50.1586951479
 20
77.1124603266
 11
50.1586951479
 21
77.0762218052
  0
LINE
  5
3CF
100
AcDbEntity
  8
3_AXES_OTHER
100
AcDbLine
 62
7
  6
CONTINUOUS
 10
50.1886951479
 20
77.1124603266
 11
50.1886951479
 21
77.0780309745
  0
LINE
  5
3D0
100
AcDbEntity
  8
3_AXES_OTHER
100
AcDbLine
 62
7
  6
CONTINUOUS
 10
44.7205737019
 20
82.6662512214
 11
44.6949491976
 21
82.6406267171
  0
LINE
  5
3D1
100
AcDbEntity
  8
3_AXES_OTHER
100
AcDbLine
 62
7
  6
CONTINUOUS
 10
44.7417869054
 20
82.6450380179
 11
44.717441677
 21
82.6206927896
  0
LINE
  5
3D2
100
AcDbEntity
  8
3_AXES_OTHER
100
AcDbLine
 62
7
  6
CONTINUOUS
 10
63.484941797
 20
82.468791121
 11
63.5211803185
 21
82.468791121
  0
LINE
  5
3D3
100
AcDbEntity
  8
3_AXES_OTHER
100
AcDbLine
 62
7
  6
CONTINUOUS
 10
63.484941797
 20
82.498791121
 11
63.5193711491
 21
82.498791121
  0
LINE
  5
3D4
100
AcDbEntity
  8
3_AXES_OTHER
100
AcDbLine
 62
7
  6
CONTINUOUS
 10
57.9311509022
 20
77.030669675
 11
57.9567754065
 21
77.0050451708
  0
LINE
  5
3D5
100
AcDbEntity
  8
3_AXES_OTHER
100
AcDbLine
 62
7
  6
CONTINUOUS
 10
57.9523641057
 20
77.0518828785
 11
57.976709334
 21
77.0275376501
  0
LINE
  5
3D6
100
AcDbEntity
  8
3_AXES_OTHER
100
AcDbLine
 62
7
  6
CONTINUOUS
 10
58.0986110026
 20
95.7950377701
 11
58.0986110026
 21
95.8294671222
  0
LINE
  5
3D7
100
AcDbEntity
  8
3_AXES_OTHER
100
AcDbLine
 62
7
  6
CONTINUOUS
 10
58.1286110026
 20
95.7950377701
 11
58.1286110026
 21
95.8312762916
  0
LINE
  5
3D8
100
AcDbEntity
  8
3_AXES_OTHER
100
AcDbLine
 62
7
  6
CONTINUOUS
 10
63.5455192452
 20
90.2624600788
 11
63.5698644735
 21
90.2868053071
  0
LINE
  5
3D9
100
AcDbEntity
  8
3_AXES_OTHER
100
AcDbLine
 62
7
  6
CONTINUOUS
 10
63.5667324486
 20
90.2412468753
 11
63.5923569529
 21
90.2668713796
  0
LINE
  5
3DA
100
AcDbEntity
  8
3_AXES_OTHER
100
AcDbLine
 62
7
  6
CONTINUOUS
 10
44.8023643535
 20
90.4087069757
 11
44.7679350014
 21
90.4087069757
  0
LINE
  5
3DB
100
AcDbEntity
  8
3_AXES_OTHER
100
AcDbLine
 62
7
  6
CONTINUOUS
 10
44.8023643535
 20
90.4387069757
 11
44.7661258321
 21
90.4387069757
  0
LINE
  5
3DC
100
AcDbEntity
  8
3_AXES_OTHER
100
AcDbLine
 62
7
  6
CONTINUOUS
 10
50.3349420448
 20
95.8556152183
 11
50.3105968165
 21
95.8799604466
  0
LINE
  5
3DD
100
AcDbEntity
  8
3_AXES_OTHER
100
AcDbLine
 62
7
  6
CONTINUOUS
 10
50.3561552483
 20
95.8768284217
 11
50.330530744
 21
95.902452926
  0
LINE
  5
3DE
100
AcDbEntity
  8
CTRLS
100
AcDbLine
 62
7
  6
CONTINUOUS
 10
66.3836530753
 20
61.8387490484
 11
66.3836530753
 21
62.4637490484
  0
LINE
  5
3DF
100
AcDbEntity
  8
7_ALL_ROUNDS
100
AcDbLine
 62
7
  6
CONTINUOUS
 10
66.8166530753
 20
63.2137490484
 11
66.8166530753
 21
63.2728041665
  0
LINE
  5
3E0
100
AcDbEntity
  8
3_AXES_OTHER
100
AcDbLine
 62
7
  6
CONTINUOUS
 10
67.4366236607
 20
63.2137490484
 11
67.4366236607
 21
63.2728041665
  0
LINE
  5
3E1
100
AcDbEntity
  8
7_ALL_ROUNDS
100
AcDbLine
 62
7
  6
CONTINUOUS
 10
67.4506530753
 20
63.2137490484
 11
67.4506530753
 21
63.2728041665
  0
LINE
  5
3E2
100
AcDbEntity
  8
CTRLS
100
AcDbLine
 62
7
  6
CONTINUOUS
 10
67.8836530753
 20
61.8387490484
 11
67.8836530753
 21
62.4637490484
  0
LINE
  5
3E3
100
AcDbEntity
  8
3_AXES_OTHER
100
AcDbLine
 62
7
  6
CONTINUOUS
 10
68.3836530753
 20
109.6837490484
 11
68.3836530753
 21
63.2237490484
  0
LINE
  5
3E4
100
AcDbEntity
  8
7_ALL_ROUNDS
100
AcDbLine
 62
7
  6
CONTINUOUS
 10
68.3836530753
 20
109.6837490484
 11
68.3836530753
 21
109.6937490484
  0
LINE
  5
3E5
100
AcDbEntity
  8
7_ALL_ROUNDS
100
AcDbLine
 62
7
  6
CONTINUOUS
 10
68.6736530753
 20
63.2137490484
 11
68.6736530753
 21
62.4637490484
  0
LINE
  5
3E6
100
AcDbEntity
  8
3_AXES_OTHER
100
AcDbLine
 62
7
  6
CONTINUOUS
 10
68.6736530753
 20
63.2137490484
 11
68.6736530753
 21
63.2237490484
  0
LINE
  5
3E7
100
AcDbEntity
  8
7_ALL_ROUNDS
100
AcDbLine
 62
7
  6
CONTINUOUS
 10
68.6736530753
 20
109.6937490484
 11
68.6736530753
 21
110.4437490484
  0
LINE
  5
3E8
100
AcDbEntity
  8
7_ALL_ROUNDS
100
AcDbLine
 62
7
  6
CONTINUOUS
 10
68.6836530753
 20
62.4337490484
 11
68.6836530753
 21
63.2237490484
  0
LINE
  5
3E9
100
AcDbEntity
  8
7_ALL_ROUNDS
100
AcDbLine
 62
7
  6
CONTINUOUS
 10
68.6836530753
 20
109.6837490484
 11
68.6836530753
 21
110.4737490484
  0
LINE
  5
3EA
100
AcDbEntity
  8
7_ALL_ROUNDS
100
AcDbLine
 62
7
  6
CONTINUOUS
 10
69.1336530753
 20
110.2237490484
 11
69.1336530753
 21
62.6837490484
  0
LINE
  5
3EB
100
AcDbEntity
  8
7_ALL_ROUNDS
100
AcDbLine
 62
7
  6
CONTINUOUS
 10
60.6196530753
 20
63.2137490484
 11
68.3836530753
 21
70.9777490484
  0
LINE
  5
3EC
100
AcDbEntity
  8
3_AXES_OTHER
100
AcDbLine
 62
7
  6
CONTINUOUS
 10
60.6336530755
 20
63.2137490484
 11
68.3836530753
 21
70.9637490481
  0
LINE
  5
3ED
100
AcDbEntity
  8
7_ALL_ROUNDS
100
AcDbLine
 62
7
  6
CONTINUOUS
 10
68.3836530753
 20
101.9297490484
 11
60.6196530753
 21
109.6937490484
  0
LINE
  5
3EE
100
AcDbEntity
  8
3_AXES_OTHER
100
AcDbLine
 62
7
  6
CONTINUOUS
 10
68.3836530753
 20
101.9437490486
 11
60.6336530755
 21
109.6937490484
  0
LINE
  5
3EF
100
AcDbEntity
  8
3_AXES_OTHER
100
AcDbLine
 62
7
  6
CONTINUOUS
 10
39.9036530753
 20
109.6837490484
 11
39.6036530753
 21
109.6837490484
  0
LINE
  5
3F0
100
AcDbEntity
  8
3_AXES_OTHER
100
AcDbLine
 62
7
  6
CONTINUOUS
 10
68.3836530753
 20
109.6837490484
 11
68.6836530753
 21
109.6837490484
  0
LINE
  5
3F1
100
AcDbEntity
  8
3_AXES_OTHER
100
AcDbLine
 62
7
  6
CONTINUOUS
 10
68.6736530753
 20
109.6937490484
 11
39.6136530753
 21
109.6937490484
  0
LINE
  5
3F2
100
AcDbEntity
  8
3_AXES_OTHER
100
AcDbLine
 62
7
  6
CONTINUOUS
 10
68.6736530753
 20
110.0587490484
 11
68.6836530753
 21
110.0587490484
  0
LINE
  5
3F3
100
AcDbEntity
  8
7_ALL_ROUNDS
100
AcDbLine
 62
7
  6
CONTINUOUS
 10
39.6136530753
 20
110.4437490484
 11
68.6736530753
 21
110.4437490484
  0
LINE
  5
3F4
100
AcDbEntity
  8
7_ALL_ROUNDS
100
AcDbLine
 62
7
  6
CONTINUOUS
 10
68.8836530753
 20
110.4737490484
 11
68.6836530753
 21
110.4737490484
  0
LINE
  5
3F5
100
AcDbEntity
  8
7_ALL_ROUNDS
100
AcDbLine
 62
7
  6
CONTINUOUS
 10
39.4036530753
 20
110.4737490484
 11
39.6036530753
 21
110.4737490484
  0
LINE
  5
3F6
100
AcDbEntity
  8
CTRLS
100
AcDbLine
 62
7
  6
CONTINUOUS
 10
146.9036061697
 20
61.7137490484
 11
145.6536061697
 21
61.7137490484
  0
LINE
  5
3F7
100
AcDbEntity
  8
CTRLS
100
AcDbLine
 62
7
  6
CONTINUOUS
 10
127.9036061697
 20
61.7137490484
 11
126.6536061697
 21
61.7137490484
  0
LINE
  5
3F8
100
AcDbEntity
  8
7_ALL_ROUNDS
100
AcDbLine
 62
7
  6
CONTINUOUS
 10
125.0286061697
 20
62.4337490484
 11
148.5386061697
 21
62.4337490484
  0
LINE
  5
3F9
100
AcDbEntity
  8
7_ALL_ROUNDS
100
AcDbLine
 62
7
  6
CONTINUOUS
 10
124.7786061697
 20
110.2237490484
 11
124.7786061697
 21
62.6837490484
  0
LINE
  5
3FA
100
AcDbEntity
  8
CTRLS
100
AcDbLine
 62
7
  6
CONTINUOUS
 10
126.5286061697
 20
61.8387490484
 11
126.5286061697
 21
62.4337490484
  0
LINE
  5
3FB
100
AcDbEntity
  8
CTRLS
100
AcDbLine
 62
7
  6
CONTINUOUS
 10
128.0286061697
 20
61.8387490484
 11
128.0286061697
 21
62.4337490484
  0
LINE
  5
3FC
100
AcDbEntity
  8
3_AXES_OTHER
100
AcDbLine
 62
7
  6
CONTINUOUS
 10
141.1806061697
 20
94.2507490484
 11
141.2081840647
 21
94.2666711534
  0
LINE
  5
3FD
100
AcDbEntity
  8
3_AXES_OTHER
100
AcDbLine
 62
7
  6
CONTINUOUS
 10
141.2966061697
 20
94.2217490484
 11
141.2690282748
 21
94.2058269433
  0
LINE
  5
3FE
100
AcDbEntity
  8
3_AXES_OTHER
100
AcDbLine
 62
7
  6
CONTINUOUS
 10
139.8706061697
 20
92.5182490484
 11
139.8981840647
 21
92.5341711534
  0
LINE
  5
3FF
100
AcDbEntity
  8
3_AXES_OTHER
100
AcDbLine
 62
7
  6
CONTINUOUS
 10
139.9866061697
 20
92.4892490484
 11
139.9590282748
 21
92.4733269433
  0
LINE
  5
400
100
AcDbEntity
  8
3_AXES_OTHER
100
AcDbLine
 62
7
  6
CONTINUOUS
 10
143.1806061697
 20
94.2507490484
 11
143.2081840647
 21
94.2666711534
  0
LINE
  5
401
100
AcDbEntity
  8
3_AXES_OTHER
100
AcDbLine
 62
7
  6
CONTINUOUS
 10
143.2966061697
 20
94.2217490484
 11
143.2690282748
 21
94.2058269433
  0
LINE
  5
402
100
AcDbEntity
  8
3_AXES_OTHER
100
AcDbLine
 62
7
  6
CONTINUOUS
 10
141.2081840647
 20
94.2058269433
 11
141.2690282748
 21
94.2666711534
  0
LINE
  5
403
100
AcDbEntity
  8
3_AXES_OTHER
100
AcDbLine
 62
7
  6
CONTINUOUS
 10
139.8981840647
 20
92.4733269433
 11
139.9590282748
 21
92.5341711534
  0
LINE
  5
404
100
AcDbEntity
  8
3_AXES_OTHER
100
AcDbLine
 62
7
  6
CONTINUOUS
 10
144.4906061697
 20
92.5182490484
 11
144.5181840647
 21
92.5341711534
  0
LINE
  5
405
100
AcDbEntity
  8
3_AXES_OTHER
100
AcDbLine
 62
7
  6
CONTINUOUS
 10
144.6066061697
 20
92.4892490484
 11
144.5790282748
 21
92.4733269433
  0
LINE
  5
406
100
AcDbEntity
  8
3_AXES_OTHER
100
AcDbLine
 62
7
  6
CONTINUOUS
 10
139.8981840647
 20
92.5341711534
 11
139.9141061697
 21
92.5617490484
  0
LINE
  5
407
100
AcDbEntity
  8
3_AXES_OTHER
100
AcDbLine
 62
7
  6
CONTINUOUS
 10
139.9590282748
 20
92.4733269433
 11
139.9431061697
 21
92.4457490484
  0
LINE
  5
408
100
AcDbEntity
  8
3_AXES_OTHER
100
AcDbLine
 62
7
  6
CONTINUOUS
 10
141.2081840647
 20
94.2666711534
 11
141.2241061697
 21
94.2942490484
  0
LINE
  5
409
100
AcDbEntity
  8
3_AXES_OTHER
100
AcDbLine
 62
7
  6
CONTINUOUS
 10
141.2690282748
 20
94.2058269433
 11
141.2531061697
 21
94.1782490484
  0
LINE
  5
40A
100
AcDbEntity
  8
3_AXES_OTHER
100
AcDbLine
 62
7
  6
CONTINUOUS
 10
143.2081840647
 20
94.2058269433
 11
143.2690282748
 21
94.2666711534
  0
LINE
  5
40B
100
AcDbEntity
  8
3_AXES_OTHER
100
AcDbLine
 62
7
  6
CONTINUOUS
 10
139.8981840647
 20
89.3133269433
 11
139.9590282748
 21
89.3741711534
  0
LINE
  5
40C
100
AcDbEntity
  8
3_AXES_OTHER
100
AcDbLine
 62
7
  6
CONTINUOUS
 10
139.8706061697
 20
89.3582490484
 11
139.8981840647
 21
89.3741711534
  0
LINE
  5
40D
100
AcDbEntity
  8
3_AXES_OTHER
100
AcDbLine
 62
7
  6
CONTINUOUS
 10
139.9866061697
 20
89.3292490484
 11
139.9590282748
 21
89.3133269433
  0
LINE
  5
40E
100
AcDbEntity
  8
3_AXES_OTHER
100
AcDbLine
 62
7
  6
CONTINUOUS
 10
143.1806061697
 20
87.5967490484
 11
143.2966061697
 21
87.6257490484
  0
LINE
  5
40F
100
AcDbEntity
  8
3_AXES_OTHER
100
AcDbLine
 62
7
  6
CONTINUOUS
 10
139.9141061697
 20
92.4167490484
 11
139.9431061697
 21
92.5907490484
  0
LINE
  5
410
100
AcDbEntity
  8
3_AXES_OTHER
100
AcDbLine
 62
7
  6
CONTINUOUS
 10
139.9141061697
 20
92.4457490484
 11
139.9431061697
 21
92.5617490484
  0
LINE
  5
411
100
AcDbEntity
  8
3_AXES_OTHER
100
AcDbLine
 62
7
  6
CONTINUOUS
 10
139.8981840647
 20
89.3741711534
 11
139.9141061697
 21
89.4017490484
  0
LINE
  5
412
100
AcDbEntity
  8
3_AXES_OTHER
100
AcDbLine
 62
7
  6
CONTINUOUS
 10
139.9590282748
 20
89.3133269433
 11
139.9431061697
 21
89.2857490484
  0
LINE
  5
413
100
AcDbEntity
  8
3_AXES_OTHER
100
AcDbLine
 62
7
  6
CONTINUOUS
 10
143.2081840647
 20
94.2666711534
 11
143.2241061697
 21
94.2942490484
  0
LINE
  5
414
100
AcDbEntity
  8
3_AXES_OTHER
100
AcDbLine
 62
7
  6
CONTINUOUS
 10
143.2690282748
 20
94.2058269433
 11
143.2531061697
 21
94.1782490484
  0
LINE
  5
415
100
AcDbEntity
  8
3_AXES_OTHER
100
AcDbLine
 62
7
  6
CONTINUOUS
 10
144.5181840647
 20
92.4733269433
 11
144.5790282748
 21
92.5341711534
  0
LINE
  5
416
100
AcDbEntity
  8
3_AXES_OTHER
100
AcDbLine
 62
7
  6
CONTINUOUS
 10
141.1806061697
 20
87.6257490484
 11
141.2081840647
 21
87.6416711534
  0
LINE
  5
417
100
AcDbEntity
  8
3_AXES_OTHER
100
AcDbLine
 62
7
  6
CONTINUOUS
 10
141.2966061697
 20
87.5967490484
 11
141.2690282748
 21
87.5808269433
  0
LINE
  5
418
100
AcDbEntity
  8
3_AXES_OTHER
100
AcDbLine
 62
7
  6
CONTINUOUS
 10
144.4906061697
 20
89.3582490484
 11
144.5181840647
 21
89.3741711534
  0
LINE
  5
419
100
AcDbEntity
  8
3_AXES_OTHER
100
AcDbLine
 62
7
  6
CONTINUOUS
 10
144.6066061697
 20
89.3292490484
 11
144.5790282748
 21
89.3133269433
  0
LINE
  5
41A
100
AcDbEntity
  8
3_AXES_OTHER
100
AcDbLine
 62
7
  6
CONTINUOUS
 10
143.1806061697
 20
87.6257490484
 11
143.2081840647
 21
87.6416711534
  0
LINE
  5
41B
100
AcDbEntity
  8
3_AXES_OTHER
100
AcDbLine
 62
7
  6
CONTINUOUS
 10
143.2966061697
 20
87.5967490484
 11
143.2690282748
 21
87.5808269433
  0
LINE
  5
41C
100
AcDbEntity
  8
3_AXES_OTHER
100
AcDbLine
 62
7
  6
CONTINUOUS
 10
141.1806061697
 20
87.5967490484
 11
141.2966061697
 21
87.6257490484
  0
LINE
  5
41D
100
AcDbEntity
  8
3_AXES_OTHER
100
AcDbLine
 62
7
  6
CONTINUOUS
 10
144.4906061697
 20
89.3292490484
 11
144.6066061697
 21
89.3582490484
  0
LINE
  5
41E
100
AcDbEntity
  8
3_AXES_OTHER
100
AcDbLine
 62
7
  6
CONTINUOUS
 10
143.1516061697
 20
87.5967490484
 11
143.3256061697
 21
87.6257490484
  0
LINE
  5
41F
100
AcDbEntity
  8
3_AXES_OTHER
100
AcDbLine
 62
7
  6
CONTINUOUS
 10
141.1516061697
 20
87.5967490484
 11
141.3256061697
 21
87.6257490484
  0
LINE
  5
420
100
AcDbEntity
  8
3_AXES_OTHER
100
AcDbLine
 62
7
  6
CONTINUOUS
 10
144.4616061697
 20
89.3292490484
 11
144.6356061697
 21
89.3582490484
  0
LINE
  5
421
100
AcDbEntity
  8
7_ALL_ROUNDS
100
AcDbLine
 62
7
  6
CONTINUOUS
 10
139.9036061697
 20
87.3737490484
 11
144.5736061697
 21
87.3737490484
  0
LINE
  5
422
100
AcDbEntity
  8
3_ALL_AXES
100
AcDbLine
 62
7
  6
CONTINUOUS
 10
139.9356061697
 20
87.4287490484
 11
144.5416061697
 21
87.4287490484
  0
LINE
  5
423
100
AcDbEntity
  8
3_AXES_OTHER
100
AcDbLine
 62
7
  6
CONTINUOUS
 10
143.2531061697
 20
87.5242490484
 11
143.2241061697
 21
87.5242490484
  0
LINE
  5
424
100
AcDbEntity
  8
3_AXES_OTHER
100
AcDbLine
 62
7
  6
CONTINUOUS
 10
141.2531061697
 20
87.5242490484
 11
141.2241061697
 21
87.5242490484
  0
LINE
  5
425
100
AcDbEntity
  8
3_AXES_OTHER
100
AcDbLine
 62
7
  6
CONTINUOUS
 10
143.3256061697
 20
87.5967490484
 11
143.2966061697
 21
87.5967490484
  0
LINE
  5
426
100
AcDbEntity
  8
3_AXES_OTHER
100
AcDbLine
 62
7
  6
CONTINUOUS
 10
143.1806061697
 20
87.5967490484
 11
143.1516061697
 21
87.5967490484
  0
LINE
  5
427
100
AcDbEntity
  8
3_AXES_OTHER
100
AcDbLine
 62
7
  6
CONTINUOUS
 10
141.3256061697
 20
87.5967490484
 11
141.2966061697
 21
87.5967490484
  0
LINE
  5
428
100
AcDbEntity
  8
3_AXES_OTHER
100
AcDbLine
 62
7
  6
CONTINUOUS
 10
141.1806061697
 20
87.5967490484
 11
141.1516061697
 21
87.5967490484
  0
LINE
  5
429
100
AcDbEntity
  8
3_AXES_OTHER
100
AcDbLine
 62
7
  6
CONTINUOUS
 10
141.2966061697
 20
87.6257490484
 11
141.3256061697
 21
87.6257490484
  0
LINE
  5
42A
100
AcDbEntity
  8
3_AXES_OTHER
100
AcDbLine
 62
7
  6
CONTINUOUS
 10
141.1516061697
 20
87.6257490484
 11
141.1806061697
 21
87.6257490484
  0
LINE
  5
42B
100
AcDbEntity
  8
3_AXES_OTHER
100
AcDbLine
 62
7
  6
CONTINUOUS
 10
143.1516061697
 20
87.6257490484
 11
143.1806061697
 21
87.6257490484
  0
LINE
  5
42C
100
AcDbEntity
  8
3_AXES_OTHER
100
AcDbLine
 62
7
  6
CONTINUOUS
 10
143.2966061697
 20
87.6257490484
 11
143.3256061697
 21
87.6257490484
  0
LINE
  5
42D
100
AcDbEntity
  8
3_AXES_OTHER
100
AcDbLine
 62
7
  6
CONTINUOUS
 10
141.2241061697
 20
87.6982490484
 11
141.2531061697
 21
87.6982490484
  0
LINE
  5
42E
100
AcDbEntity
  8
3_AXES_OTHER
100
AcDbLine
 62
7
  6
CONTINUOUS
 10
143.2241061697
 20
87.6982490484
 11
143.2531061697
 21
87.6982490484
  0
LINE
  5
42F
100
AcDbEntity
  8
3_ALL_AXES
100
AcDbLine
 62
7
  6
CONTINUOUS
 10
143.8511061697
 20
88.1187490484
 11
140.6261061697
 21
88.1187490484
  0
LINE
  5
430
100
AcDbEntity
  8
7_ALL_ROUNDS
100
AcDbLine
 62
7
  6
CONTINUOUS
 10
139.7136061697
 20
94.2837490484
 11
139.7136061697
 21
87.5637490484
  0
LINE
  5
431
100
AcDbEntity
  8
3_ALL_AXES
100
AcDbLine
 62
7
  6
CONTINUOUS
 10
139.7486061697
 20
94.2317490484
 11
139.7486061697
 21
87.6157490484
  0
LINE
  5
432
100
AcDbEntity
  8
3_AXES_OTHER
100
AcDbLine
 62
7
  6
CONTINUOUS
 10
139.8416061697
 20
89.3292490484
 11
139.8416061697
 21
89.3582490484
  0
LINE
  5
433
100
AcDbEntity
  8
3_AXES_OTHER
100
AcDbLine
 62
7
  6
CONTINUOUS
 10
139.8416061697
 20
92.4892490484
 11
139.8416061697
 21
92.5182490484
  0
LINE
  5
434
100
AcDbEntity
  8
3_AXES_OTHER
100
AcDbLine
 62
7
  6
CONTINUOUS
 10
139.9141061697
 20
89.4017490484
 11
139.9141061697
 21
89.4307490484
  0
LINE
  5
435
100
AcDbEntity
  8
3_AXES_OTHER
100
AcDbLine
 62
7
  6
CONTINUOUS
 10
139.9141061697
 20
89.2567490484
 11
139.9141061697
 21
89.2857490484
  0
LINE
  5
436
100
AcDbEntity
  8
3_AXES_OTHER
100
AcDbLine
 62
7
  6
CONTINUOUS
 10
139.9141061697
 20
92.4167490484
 11
139.9141061697
 21
92.4457490484
  0
LINE
  5
437
100
AcDbEntity
  8
3_AXES_OTHER
100
AcDbLine
 62
7
  6
CONTINUOUS
 10
139.9141061697
 20
92.5617490484
 11
139.9141061697
 21
92.5907490484
  0
LINE
  5
438
100
AcDbEntity
  8
3_AXES_OTHER
100
AcDbLine
 62
7
  6
CONTINUOUS
 10
139.9431061697
 20
92.5907490484
 11
139.9431061697
 21
92.5617490484
  0
LINE
  5
439
100
AcDbEntity
  8
3_AXES_OTHER
100
AcDbLine
 62
7
  6
CONTINUOUS
 10
139.9431061697
 20
92.4457490484
 11
139.9431061697
 21
92.4167490484
  0
LINE
  5
43A
100
AcDbEntity
  8
3_AXES_OTHER
100
AcDbLine
 62
7
  6
CONTINUOUS
 10
139.9431061697
 20
89.4307490484
 11
139.9431061697
 21
89.4017490484
  0
LINE
  5
43B
100
AcDbEntity
  8
3_AXES_OTHER
100
AcDbLine
 62
7
  6
CONTINUOUS
 10
139.9431061697
 20
89.2857490484
 11
139.9431061697
 21
89.2567490484
  0
LINE
  5
43C
100
AcDbEntity
  8
3_AXES_OTHER
100
AcDbLine
 62
7
  6
CONTINUOUS
 10
140.0156061697
 20
92.5182490484
 11
140.0156061697
 21
92.4892490484
  0
LINE
  5
43D
100
AcDbEntity
  8
3_AXES_OTHER
100
AcDbLine
 62
7
  6
CONTINUOUS
 10
140.0156061697
 20
89.3582490484
 11
140.0156061697
 21
89.3292490484
  0
LINE
  5
43E
100
AcDbEntity
  8
3_ALL_AXES
100
AcDbLine
 62
7
  6
CONTINUOUS
 10
140.4386061697
 20
88.3062490484
 11
140.4386061697
 21
93.5412490484
  0
LINE
  5
43F
100
AcDbEntity
  8
3_ALL_AXES
100
AcDbLine
 62
7
  6
CONTINUOUS
 10
140.6446061697
 20
92.8187490484
 11
140.6446061697
 21
92.1187490484
  0
LINE
  5
440
100
AcDbEntity
  8
3_AXES_OTHER
100
AcDbLine
 62
7
  6
CONTINUOUS
 10
139.9141061697
 20
89.2567490484
 11
139.9431061697
 21
89.4307490484
  0
LINE
  5
441
100
AcDbEntity
  8
3_AXES_OTHER
100
AcDbLine
 62
7
  6
CONTINUOUS
 10
141.2241061697
 20
94.1492490484
 11
141.2531061697
 21
94.3232490484
  0
LINE
  5
442
100
AcDbEntity
  8
3_AXES_OTHER
100
AcDbLine
 62
7
  6
CONTINUOUS
 10
139.9141061697
 20
89.2857490484
 11
139.9431061697
 21
89.4017490484
  0
LINE
  5
443
100
AcDbEntity
  8
3_AXES_OTHER
100
AcDbLine
 62
7
  6
CONTINUOUS
 10
141.2241061697
 20
94.1782490484
 11
141.2531061697
 21
94.2942490484
  0
LINE
  5
444
100
AcDbEntity
  8
3_AXES_OTHER
100
AcDbLine
 62
7
  6
CONTINUOUS
 10
141.2081840647
 20
87.6416711534
 11
141.2241061697
 21
87.6692490484
  0
LINE
  5
445
100
AcDbEntity
  8
3_AXES_OTHER
100
AcDbLine
 62
7
  6
CONTINUOUS
 10
141.2690282748
 20
87.5808269433
 11
141.2531061697
 21
87.5532490484
  0
LINE
  5
446
100
AcDbEntity
  8
3_AXES_OTHER
100
AcDbLine
 62
7
  6
CONTINUOUS
 10
144.5181840647
 20
92.5341711534
 11
144.5341061697
 21
92.5617490484
  0
LINE
  5
447
100
AcDbEntity
  8
3_AXES_OTHER
100
AcDbLine
 62
7
  6
CONTINUOUS
 10
144.5790282748
 20
92.4733269433
 11
144.5631061697
 21
92.4457490484
  0
LINE
  5
448
100
AcDbEntity
  8
3_AXES_OTHER
100
AcDbLine
 62
7
  6
CONTINUOUS
 10
141.2081840647
 20
87.5808269433
 11
141.2690282748
 21
87.6416711534
  0
LINE
  5
449
100
AcDbEntity
  8
3_AXES_OTHER
100
AcDbLine
 62
7
  6
CONTINUOUS
 10
144.5181840647
 20
89.3133269433
 11
144.5790282748
 21
89.3741711534
  0
LINE
  5
44A
100
AcDbEntity
  8
3_AXES_OTHER
100
AcDbLine
 62
7
  6
CONTINUOUS
 10
143.2081840647
 20
87.5808269433
 11
143.2690282748
 21
87.6416711534
  0
LINE
  5
44B
100
AcDbEntity
  8
3_AXES_OTHER
100
AcDbLine
 62
7
  6
CONTINUOUS
 10
139.8706061697
 20
89.3292490484
 11
139.9866061697
 21
89.3582490484
  0
LINE
  5
44C
100
AcDbEntity
  8
3_AXES_OTHER
100
AcDbLine
 62
7
  6
CONTINUOUS
 10
139.8416061697
 20
89.3292490484
 11
140.0156061697
 21
89.3582490484
  0
LINE
  5
44D
100
AcDbEntity
  8
7_ALL_ROUNDS
100
AcDbLine
 62
7
  6
CONTINUOUS
 10
141.3636061697
 20
88.6187490484
 11
143.1136061697
 21
88.6187490484
  0
LINE
  5
44E
100
AcDbEntity
  8
3_AXES_OTHER
100
AcDbLine
 62
7
  6
CONTINUOUS
 10
144.5631061697
 20
89.2567490484
 11
144.5341061697
 21
89.2567490484
  0
LINE
  5
44F
100
AcDbEntity
  8
3_AXES_OTHER
100
AcDbLine
 62
7
  6
CONTINUOUS
 10
139.9431061697
 20
89.2567490484
 11
139.9141061697
 21
89.2567490484
  0
LINE
  5
450
100
AcDbEntity
  8
3_AXES_OTHER
100
AcDbLine
 62
7
  6
CONTINUOUS
 10
144.6356061697
 20
89.3292490484
 11
144.6066061697
 21
89.3292490484
  0
LINE
  5
451
100
AcDbEntity
  8
3_AXES_OTHER
100
AcDbLine
 62
7
  6
CONTINUOUS
 10
144.4906061697
 20
89.3292490484
 11
144.4616061697
 21
89.3292490484
  0
LINE
  5
452
100
AcDbEntity
  8
3_AXES_OTHER
100
AcDbLine
 62
7
  6
CONTINUOUS
 10
140.0156061697
 20
89.3292490484
 11
139.9866061697
 21
89.3292490484
  0
LINE
  5
453
100
AcDbEntity
  8
3_AXES_OTHER
100
AcDbLine
 62
7
  6
CONTINUOUS
 10
139.8706061697
 20
89.3292490484
 11
139.8416061697
 21
89.3292490484
  0
LINE
  5
454
100
AcDbEntity
  8
3_AXES_OTHER
100
AcDbLine
 62
7
  6
CONTINUOUS
 10
139.9866061697
 20
89.3582490484
 11
140.0156061697
 21
89.3582490484
  0
LINE
  5
455
100
AcDbEntity
  8
3_AXES_OTHER
100
AcDbLine
 62
7
  6
CONTINUOUS
 10
139.8416061697
 20
89.3582490484
 11
139.8706061697
 21
89.3582490484
  0
LINE
  5
456
100
AcDbEntity
  8
3_AXES_OTHER
100
AcDbLine
 62
7
  6
CONTINUOUS
 10
144.6066061697
 20
89.3582490484
 11
144.6356061697
 21
89.3582490484
  0
LINE
  5
457
100
AcDbEntity
  8
3_AXES_OTHER
100
AcDbLine
 62
7
  6
CONTINUOUS
 10
144.4616061697
 20
89.3582490484
 11
144.4906061697
 21
89.3582490484
  0
LINE
  5
458
100
AcDbEntity
  8
3_AXES_OTHER
100
AcDbLine
 62
7
  6
CONTINUOUS
 10
139.9141061697
 20
89.4307490484
 11
139.9431061697
 21
89.4307490484
  0
LINE
  5
459
100
AcDbEntity
  8
3_AXES_OTHER
100
AcDbLine
 62
7
  6
CONTINUOUS
 10
144.5341061697
 20
89.4307490484
 11
144.5631061697
 21
89.4307490484
  0
LINE
  5
45A
100
AcDbEntity
  8
7_ALL_ROUNDS
100
AcDbLine
 62
7
  6
CONTINUOUS
 10
141.3636061697
 20
89.8687490484
 11
143.1136061697
 21
89.8687490484
  0
LINE
  5
45B
100
AcDbEntity
  8
3_AXES_OTHER
100
AcDbLine
 62
7
  6
CONTINUOUS
 10
141.1516061697
 20
87.6257490484
 11
141.3256061697
 21
87.5967490484
  0
LINE
  5
45C
100
AcDbEntity
  8
3_AXES_OTHER
100
AcDbLine
 62
7
  6
CONTINUOUS
 10
143.1516061697
 20
87.6257490484
 11
143.3256061697
 21
87.5967490484
  0
LINE
  5
45D
100
AcDbEntity
  8
3_AXES_OTHER
100
AcDbLine
 62
7
  6
CONTINUOUS
 10
139.8416061697
 20
89.3582490484
 11
140.0156061697
 21
89.3292490484
  0
LINE
  5
45E
100
AcDbEntity
  8
3_AXES_OTHER
100
AcDbLine
 62
7
  6
CONTINUOUS
 10
141.1806061697
 20
87.6257490484
 11
141.2966061697
 21
87.5967490484
  0
LINE
  5
45F
100
AcDbEntity
  8
3_AXES_OTHER
100
AcDbLine
 62
7
  6
CONTINUOUS
 10
143.1806061697
 20
87.6257490484
 11
143.2966061697
 21
87.5967490484
  0
LINE
  5
460
100
AcDbEntity
  8
3_AXES_OTHER
100
AcDbLine
 62
7
  6
CONTINUOUS
 10
141.2081840647
 20
87.5808269433
 11
141.1806061697
 21
87.5967490484
  0
LINE
  5
461
100
AcDbEntity
  8
3_AXES_OTHER
100
AcDbLine
 62
7
  6
CONTINUOUS
 10
141.2690282748
 20
87.6416711534
 11
141.2966061697
 21
87.6257490484
  0
LINE
  5
462
100
AcDbEntity
  8
3_AXES_OTHER
100
AcDbLine
 62
7
  6
CONTINUOUS
 10
139.9431061697
 20
89.2857490484
 11
139.9141061697
 21
89.4017490484
  0
LINE
  5
463
100
AcDbEntity
  8
3_AXES_OTHER
100
AcDbLine
 62
7
  6
CONTINUOUS
 10
139.9431061697
 20
89.2567490484
 11
139.9141061697
 21
89.4307490484
  0
LINE
  5
464
100
AcDbEntity
  8
3_ALL_AXES
100
AcDbLine
 62
7
  6
CONTINUOUS
 10
140.7696061697
 20
92.8187490484
 11
140.7696061697
 21
92.1187490484
  0
LINE
  5
465
100
AcDbEntity
  8
3_ALL_AXES
100
AcDbLine
 62
7
  6
CONTINUOUS
 10
141.1446061697
 20
92.8187490484
 11
141.1446061697
 21
92.1187490484
  0
LINE
  5
466
100
AcDbEntity
  8
3_AXES_OTHER
100
AcDbLine
 62
7
  6
CONTINUOUS
 10
141.1516061697
 20
87.5967490484
 11
141.1516061697
 21
87.6257490484
  0
LINE
  5
467
100
AcDbEntity
  8
3_AXES_OTHER
100
AcDbLine
 62
7
  6
CONTINUOUS
 10
141.1516061697
 20
94.2217490484
 11
141.1516061697
 21
94.2507490484
  0
LINE
  5
468
100
AcDbEntity
  8
3_AXES_OTHER
100
AcDbLine
 62
7
  6
CONTINUOUS
 10
141.2241061697
 20
87.5242490484
 11
141.2241061697
 21
87.5532490484
  0
LINE
  5
469
100
AcDbEntity
  8
3_AXES_OTHER
100
AcDbLine
 62
7
  6
CONTINUOUS
 10
141.2241061697
 20
87.6692490484
 11
141.2241061697
 21
87.6982490484
  0
LINE
  5
46A
100
AcDbEntity
  8
3_AXES_OTHER
100
AcDbLine
 62
7
  6
CONTINUOUS
 10
141.2241061697
 20
94.2942490484
 11
141.2241061697
 21
94.3232490484
  0
LINE
  5
46B
100
AcDbEntity
  8
3_AXES_OTHER
100
AcDbLine
 62
7
  6
CONTINUOUS
 10
141.2241061697
 20
94.1492490484
 11
141.2241061697
 21
94.1782490484
  0
LINE
  5
46C
100
AcDbEntity
  8
7_ALL_ROUNDS
100
AcDbLine
 62
7
  6
CONTINUOUS
 10
141.2386061697
 20
88.7437490484
 11
141.2386061697
 21
89.7437490484
  0
LINE
  5
46D
100
AcDbEntity
  8
3_AXES_OTHER
100
AcDbLine
 62
7
  6
CONTINUOUS
 10
141.2531061697
 20
94.3232490484
 11
141.2531061697
 21
94.2942490484
  0
LINE
  5
46E
100
AcDbEntity
  8
3_AXES_OTHER
100
AcDbLine
 62
7
  6
CONTINUOUS
 10
141.2531061697
 20
94.1782490484
 11
141.2531061697
 21
94.1492490484
  0
LINE
  5
46F
100
AcDbEntity
  8
3_AXES_OTHER
100
AcDbLine
 62
7
  6
CONTINUOUS
 10
141.2531061697
 20
87.6982490484
 11
141.2531061697
 21
87.6692490484
  0
LINE
  5
470
100
AcDbEntity
  8
3_AXES_OTHER
100
AcDbLine
 62
7
  6
CONTINUOUS
 10
141.2531061697
 20
87.5532490484
 11
141.2531061697
 21
87.5242490484
  0
LINE
  5
471
100
AcDbEntity
  8
3_ALL_AXES
100
AcDbLine
 62
7
  6
CONTINUOUS
 10
141.2696061697
 20
92.8187490484
 11
141.2696061697
 21
92.1187490484
  0
LINE
  5
472
100
AcDbEntity
  8
3_AXES_OTHER
100
AcDbLine
 62
7
  6
CONTINUOUS
 10
141.3256061697
 20
94.2507490484
 11
141.3256061697
 21
94.2217490484
  0
LINE
  5
473
100
AcDbEntity
  8
3_AXES_OTHER
100
AcDbLine
 62
7
  6
CONTINUOUS
 10
141.3256061697
 20
87.6257490484
 11
141.3256061697
 21
87.5967490484
  0
LINE
  5
474
100
AcDbEntity
  8
3_ALL_AXES
100
AcDbLine
 62
7
  6
CONTINUOUS
 10
141.6446061697
 20
92.8187490484
 11
141.6446061697
 21
92.1187490484
  0
LINE
  5
475
100
AcDbEntity
  8
3_ALL_AXES
100
AcDbLine
 62
7
  6
CONTINUOUS
 10
141.7696061697
 20
92.8187490484
 11
141.7696061697
 21
92.1187490484
  0
LINE
  5
476
100
AcDbEntity
  8
3_ALL_AXES
100
AcDbLine
 62
7
  6
CONTINUOUS
 10
141.8636061697
 20
90.6437490484
 11
141.8636061697
 21
90.1937490484
  0
LINE
  5
477
100
AcDbEntity
  8
3_ALL_AXES
100
AcDbLine
 62
7
  6
CONTINUOUS
 10
142.1771061697
 20
92.8187490484
 11
142.1771061697
 21
92.1187490484
  0
LINE
  5
478
100
AcDbEntity
  8
3_ALL_AXES
100
AcDbLine
 62
7
  6
CONTINUOUS
 10
142.1986061697
 20
90.1487490484
 11
142.1986061697
 21
90.2187490484
  0
LINE
  5
479
100
AcDbEntity
  8
3_ALL_AXES
100
AcDbLine
 62
7
  6
CONTINUOUS
 10
142.1986061697
 20
90.6187490484
 11
142.1986061697
 21
90.6887490484
  0
LINE
  5
47A
100
AcDbEntity
  8
3_ALL_AXES
100
AcDbLine
 62
7
  6
CONTINUOUS
 10
142.3021061697
 20
92.8187490484
 11
142.3021061697
 21
92.1187490484
  0
LINE
  5
47B
100
AcDbEntity
  8
3_AXES_OTHER
100
AcDbLine
 62
7
  6
CONTINUOUS
 10
141.2241061697
 20
87.5242490484
 11
141.2531061697
 21
87.6982490484
  0
LINE
  5
47C
100
AcDbEntity
  8
3_AXES_OTHER
100
AcDbLine
 62
7
  6
CONTINUOUS
 10
143.2241061697
 20
94.1492490484
 11
143.2531061697
 21
94.3232490484
  0
LINE
  5
47D
100
AcDbEntity
  8
3_AXES_OTHER
100
AcDbLine
 62
7
  6
CONTINUOUS
 10
141.2241061697
 20
87.5532490484
 11
141.2531061697
 21
87.6692490484
  0
LINE
  5
47E
100
AcDbEntity
  8
3_AXES_OTHER
100
AcDbLine
 62
7
  6
CONTINUOUS
 10
143.2241061697
 20
94.1782490484
 11
143.2531061697
 21
94.2942490484
  0
LINE
  5
47F
100
AcDbEntity
  8
3_AXES_OTHER
100
AcDbLine
 62
7
  6
CONTINUOUS
 10
143.2081840647
 20
87.6416711534
 11
143.2241061697
 21
87.6692490484
  0
LINE
  5
480
100
AcDbEntity
  8
3_AXES_OTHER
100
AcDbLine
 62
7
  6
CONTINUOUS
 10
143.2690282748
 20
87.5808269433
 11
143.2531061697
 21
87.5532490484
  0
LINE
  5
481
100
AcDbEntity
  8
3_AXES_OTHER
100
AcDbLine
 62
7
  6
CONTINUOUS
 10
144.5181840647
 20
89.3741711534
 11
144.5341061697
 21
89.4017490484
  0
LINE
  5
482
100
AcDbEntity
  8
3_AXES_OTHER
100
AcDbLine
 62
7
  6
CONTINUOUS
 10
144.5790282748
 20
89.3133269433
 11
144.5631061697
 21
89.2857490484
  0
LINE
  5
483
100
AcDbEntity
  8
3_AXES_OTHER
100
AcDbLine
 62
7
  6
CONTINUOUS
 10
144.4906061697
 20
92.4892490484
 11
144.6066061697
 21
92.5182490484
  0
LINE
  5
484
100
AcDbEntity
  8
3_AXES_OTHER
100
AcDbLine
 62
7
  6
CONTINUOUS
 10
139.8706061697
 20
92.4892490484
 11
139.9866061697
 21
92.5182490484
  0
LINE
  5
485
100
AcDbEntity
  8
3_AXES_OTHER
100
AcDbLine
 62
7
  6
CONTINUOUS
 10
144.4616061697
 20
92.4892490484
 11
144.6356061697
 21
92.5182490484
  0
LINE
  5
486
100
AcDbEntity
  8
3_ALL_AXES
100
AcDbLine
 62
7
  6
CONTINUOUS
 10
141.9886061697
 20
90.0687490484
 11
142.4886061697
 21
90.0687490484
  0
LINE
  5
487
100
AcDbEntity
  8
3_ALL_AXES
100
AcDbLine
 62
7
  6
CONTINUOUS
 10
142.3516924831
 20
90.3837490484
 11
142.5486061697
 21
90.3837490484
  0
LINE
  5
488
100
AcDbEntity
  8
3_ALL_AXES
100
AcDbLine
 62
7
  6
CONTINUOUS
 10
142.5486061697
 20
90.4537490484
 11
142.3516924831
 21
90.4537490484
  0
LINE
  5
489
100
AcDbEntity
  8
3_ALL_AXES
100
AcDbLine
 62
7
  6
CONTINUOUS
 10
142.4886061697
 20
90.7687490484
 11
141.9886061697
 21
90.7687490484
  0
LINE
  5
48A
100
AcDbEntity
  8
3_AXES_OTHER
100
AcDbLine
 62
7
  6
CONTINUOUS
 10
144.4616061697
 20
89.3582490484
 11
144.6356061697
 21
89.3292490484
  0
LINE
  5
48B
100
AcDbEntity
  8
3_AXES_OTHER
100
AcDbLine
 62
7
  6
CONTINUOUS
 10
139.8706061697
 20
89.3582490484
 11
139.9866061697
 21
89.3292490484
  0
LINE
  5
48C
100
AcDbEntity
  8
3_AXES_OTHER
100
AcDbLine
 62
7
  6
CONTINUOUS
 10
144.4906061697
 20
89.3582490484
 11
144.6066061697
 21
89.3292490484
  0
LINE
  5
48D
100
AcDbEntity
  8
3_AXES_OTHER
100
AcDbLine
 62
7
  6
CONTINUOUS
 10
139.8981840647
 20
89.3133269433
 11
139.8706061697
 21
89.3292490484
  0
LINE
  5
48E
100
AcDbEntity
  8
3_AXES_OTHER
100
AcDbLine
 62
7
  6
CONTINUOUS
 10
139.9590282748
 20
89.3741711534
 11
139.9866061697
 21
89.3582490484
  0
LINE
  5
48F
100
AcDbEntity
  8
3_AXES_OTHER
100
AcDbLine
 62
7
  6
CONTINUOUS
 10
143.2081840647
 20
87.5808269433
 11
143.1806061697
 21
87.5967490484
  0
LINE
  5
490
100
AcDbEntity
  8
3_AXES_OTHER
100
AcDbLine
 62
7
  6
CONTINUOUS
 10
143.2690282748
 20
87.6416711534
 11
143.2966061697
 21
87.6257490484
  0
LINE
  5
491
100
AcDbEntity
  8
3_AXES_OTHER
100
AcDbLine
 62
7
  6
CONTINUOUS
 10
141.2081840647
 20
87.6416711534
 11
141.2690282748
 21
87.5808269433
  0
LINE
  5
492
100
AcDbEntity
  8
3_AXES_OTHER
100
AcDbLine
 62
7
  6
CONTINUOUS
 10
139.8981840647
 20
89.3741711534
 11
139.9590282748
 21
89.3133269433
  0
LINE
  5
493
100
AcDbEntity
  8
3_AXES_OTHER
100
AcDbLine
 62
7
  6
CONTINUOUS
 10
143.2081840647
 20
87.6416711534
 11
143.2690282748
 21
87.5808269433
  0
LINE
  5
494
100
AcDbEntity
  8
3_AXES_OTHER
100
AcDbLine
 62
7
  6
CONTINUOUS
 10
139.9141061697
 20
89.2857490484
 11
139.8981840647
 21
89.3133269433
  0
LINE
  5
495
100
AcDbEntity
  8
3_AXES_OTHER
100
AcDbLine
 62
7
  6
CONTINUOUS
 10
139.9431061697
 20
89.4017490484
 11
139.9590282748
 21
89.3741711534
  0
LINE
  5
496
100
AcDbEntity
  8
3_AXES_OTHER
100
AcDbLine
 62
7
  6
CONTINUOUS
 10
141.2241061697
 20
87.5532490484
 11
141.2081840647
 21
87.5808269433
  0
LINE
  5
497
100
AcDbEntity
  8
3_AXES_OTHER
100
AcDbLine
 62
7
  6
CONTINUOUS
 10
141.2531061697
 20
87.6692490484
 11
141.2690282748
 21
87.6416711534
  0
LINE
  5
498
100
AcDbEntity
  8
3_AXES_OTHER
100
AcDbLine
 62
7
  6
CONTINUOUS
 10
139.9431061697
 20
92.4457490484
 11
139.9141061697
 21
92.5617490484
  0
LINE
  5
499
100
AcDbEntity
  8
3_AXES_OTHER
100
AcDbLine
 62
7
  6
CONTINUOUS
 10
141.2531061697
 20
87.5532490484
 11
141.2241061697
 21
87.6692490484
  0
LINE
  5
49A
100
AcDbEntity
  8
3_AXES_OTHER
100
AcDbLine
 62
7
  6
CONTINUOUS
 10
139.9431061697
 20
92.4167490484
 11
139.9141061697
 21
92.5907490484
  0
LINE
  5
49B
100
AcDbEntity
  8
3_AXES_OTHER
100
AcDbLine
 62
7
  6
CONTINUOUS
 10
141.2531061697
 20
87.5242490484
 11
141.2241061697
 21
87.6982490484
  0
LINE
  5
49C
100
AcDbEntity
  8
3_ALL_AXES
100
AcDbLine
 62
7
  6
CONTINUOUS
 10
142.5486061697
 20
90.1487490484
 11
142.5486061697
 21
90.2187490484
  0
LINE
  5
49D
100
AcDbEntity
  8
3_ALL_AXES
100
AcDbLine
 62
7
  6
CONTINUOUS
 10
142.5486061697
 20
90.3837490484
 11
142.5486061697
 21
90.4537490484
  0
LINE
  5
49E
100
AcDbEntity
  8
3_ALL_AXES
100
AcDbLine
 62
7
  6
CONTINUOUS
 10
142.5486061697
 20
90.6187490484
 11
142.5486061697
 21
90.6887490484
  0
LINE
  5
49F
100
AcDbEntity
  8
3_ALL_AXES
100
AcDbLine
 62
7
  6
CONTINUOUS
 10
142.6136061697
 20
90.1937490484
 11
142.6136061697
 21
90.6437490484
  0
LINE
  5
4A0
100
AcDbEntity
  8
3_ALL_AXES
100
AcDbLine
 62
7
  6
CONTINUOUS
 10
142.7096061697
 20
92.8187490484
 11
142.7096061697
 21
92.1187490484
  0
LINE
  5
4A1
100
AcDbEntity
  8
3_ALL_AXES
100
AcDbLine
 62
7
  6
CONTINUOUS
 10
142.8346061697
 20
92.8187490484
 11
142.8346061697
 21
92.1187490484
  0
LINE
  5
4A2
100
AcDbEntity
  8
3_AXES_OTHER
100
AcDbLine
 62
7
  6
CONTINUOUS
 10
143.1516061697
 20
87.5967490484
 11
143.1516061697
 21
87.6257490484
  0
LINE
  5
4A3
100
AcDbEntity
  8
3_AXES_OTHER
100
AcDbLine
 62
7
  6
CONTINUOUS
 10
143.1516061697
 20
94.2217490484
 11
143.1516061697
 21
94.2507490484
  0
LINE
  5
4A4
100
AcDbEntity
  8
3_ALL_AXES
100
AcDbLine
 62
7
  6
CONTINUOUS
 10
143.2096061697
 20
92.8187490484
 11
143.2096061697
 21
92.1187490484
  0
LINE
  5
4A5
100
AcDbEntity
  8
3_AXES_OTHER
100
AcDbLine
 62
7
  6
CONTINUOUS
 10
143.2241061697
 20
87.5242490484
 11
143.2241061697
 21
87.5532490484
  0
LINE
  5
4A6
100
AcDbEntity
  8
3_AXES_OTHER
100
AcDbLine
 62
7
  6
CONTINUOUS
 10
143.2241061697
 20
87.6692490484
 11
143.2241061697
 21
87.6982490484
  0
LINE
  5
4A7
100
AcDbEntity
  8
3_AXES_OTHER
100
AcDbLine
 62
7
  6
CONTINUOUS
 10
143.2241061697
 20
94.2942490484
 11
143.2241061697
 21
94.3232490484
  0
LINE
  5
4A8
100
AcDbEntity
  8
3_AXES_OTHER
100
AcDbLine
 62
7
  6
CONTINUOUS
 10
143.2241061697
 20
94.1492490484
 11
143.2241061697
 21
94.1782490484
  0
LINE
  5
4A9
100
AcDbEntity
  8
7_ALL_ROUNDS
100
AcDbLine
 62
7
  6
CONTINUOUS
 10
143.2386061697
 20
88.7437490484
 11
143.2386061697
 21
89.7437490484
  0
LINE
  5
4AA
100
AcDbEntity
  8
3_AXES_OTHER
100
AcDbLine
 62
7
  6
CONTINUOUS
 10
143.2531061697
 20
94.3232490484
 11
143.2531061697
 21
94.2942490484
  0
LINE
  5
4AB
100
AcDbEntity
  8
3_AXES_OTHER
100
AcDbLine
 62
7
  6
CONTINUOUS
 10
143.2531061697
 20
94.1782490484
 11
143.2531061697
 21
94.1492490484
  0
LINE
  5
4AC
100
AcDbEntity
  8
3_AXES_OTHER
100
AcDbLine
 62
7
  6
CONTINUOUS
 10
143.2531061697
 20
87.6982490484
 11
143.2531061697
 21
87.6692490484
  0
LINE
  5
4AD
100
AcDbEntity
  8
3_AXES_OTHER
100
AcDbLine
 62
7
  6
CONTINUOUS
 10
143.2531061697
 20
87.5532490484
 11
143.2531061697
 21
87.5242490484
  0
LINE
  5
4AE
100
AcDbEntity
  8
3_AXES_OTHER
100
AcDbLine
 62
7
  6
CONTINUOUS
 10
143.3256061697
 20
94.2507490484
 11
143.3256061697
 21
94.2217490484
  0
LINE
  5
4AF
100
AcDbEntity
  8
3_AXES_OTHER
100
AcDbLine
 62
7
  6
CONTINUOUS
 10
143.3256061697
 20
87.6257490484
 11
143.3256061697
 21
87.5967490484
  0
LINE
  5
4B0
100
AcDbEntity
  8
3_ALL_AXES
100
AcDbLine
 62
7
  6
CONTINUOUS
 10
143.3346061697
 20
92.8187490484
 11
143.3346061697
 21
92.1187490484
  0
LINE
  5
4B1
100
AcDbEntity
  8
3_ALL_AXES
100
AcDbLine
 62
7
  6
CONTINUOUS
 10
143.7096061697
 20
92.8187490484
 11
143.7096061697
 21
92.1187490484
  0
LINE
  5
4B2
100
AcDbEntity
  8
3_ALL_AXES
100
AcDbLine
 62
7
  6
CONTINUOUS
 10
143.8346061697
 20
92.8187490484
 11
143.8346061697
 21
92.1187490484
  0
LINE
  5
4B3
100
AcDbEntity
  8
3_ALL_AXES
100
AcDbLine
 62
7
  6
CONTINUOUS
 10
144.0386061697
 20
93.5412490484
 11
144.0386061697
 21
88.3062490484
  0
LINE
  5
4B4
100
AcDbEntity
  8
3_AXES_OTHER
100
AcDbLine
 62
7
  6
CONTINUOUS
 10
143.2241061697
 20
87.5242490484
 11
143.2531061697
 21
87.6982490484
  0
LINE
  5
4B5
100
AcDbEntity
  8
3_AXES_OTHER
100
AcDbLine
 62
7
  6
CONTINUOUS
 10
144.5341061697
 20
92.4167490484
 11
144.5631061697
 21
92.5907490484
  0
LINE
  5
4B6
100
AcDbEntity
  8
3_AXES_OTHER
100
AcDbLine
 62
7
  6
CONTINUOUS
 10
144.5341061697
 20
89.2567490484
 11
144.5631061697
 21
89.4307490484
  0
LINE
  5
4B7
100
AcDbEntity
  8
3_AXES_OTHER
100
AcDbLine
 62
7
  6
CONTINUOUS
 10
143.2241061697
 20
87.5532490484
 11
143.2531061697
 21
87.6692490484
  0
LINE
  5
4B8
100
AcDbEntity
  8
3_AXES_OTHER
100
AcDbLine
 62
7
  6
CONTINUOUS
 10
144.5341061697
 20
92.4457490484
 11
144.5631061697
 21
92.5617490484
  0
LINE
  5
4B9
100
AcDbEntity
  8
3_AXES_OTHER
100
AcDbLine
 62
7
  6
CONTINUOUS
 10
144.5341061697
 20
89.2857490484
 11
144.5631061697
 21
89.4017490484
  0
LINE
  5
4BA
100
AcDbEntity
  8
3_AXES_OTHER
100
AcDbLine
 62
7
  6
CONTINUOUS
 10
143.1806061697
 20
94.2217490484
 11
143.2966061697
 21
94.2507490484
  0
LINE
  5
4BB
100
AcDbEntity
  8
3_AXES_OTHER
100
AcDbLine
 62
7
  6
CONTINUOUS
 10
141.1806061697
 20
94.2217490484
 11
141.2966061697
 21
94.2507490484
  0
LINE
  5
4BC
100
AcDbEntity
  8
3_AXES_OTHER
100
AcDbLine
 62
7
  6
CONTINUOUS
 10
139.8416061697
 20
92.4892490484
 11
140.0156061697
 21
92.5182490484
  0
LINE
  5
4BD
100
AcDbEntity
  8
3_AXES_OTHER
100
AcDbLine
 62
7
  6
CONTINUOUS
 10
143.1516061697
 20
94.2217490484
 11
143.3256061697
 21
94.2507490484
  0
LINE
  5
4BE
100
AcDbEntity
  8
3_AXES_OTHER
100
AcDbLine
 62
7
  6
CONTINUOUS
 10
141.1516061697
 20
94.2217490484
 11
141.3256061697
 21
94.2507490484
  0
LINE
  5
4BF
100
AcDbEntity
  8
3_ALL_AXES
100
AcDbLine
 62
7
  6
CONTINUOUS
 10
140.6446061697
 20
92.1187490484
 11
143.8346061697
 21
92.1187490484
  0
LINE
  5
4C0
100
AcDbEntity
  8
3_ALL_AXES
100
AcDbLine
 62
7
  6
CONTINUOUS
 10
140.7696061697
 20
92.2187490484
 11
141.1446061697
 21
92.2187490484
  0
LINE
  5
4C1
100
AcDbEntity
  8
3_ALL_AXES
100
AcDbLine
 62
7
  6
CONTINUOUS
 10
141.2696061697
 20
92.2187490484
 11
141.6446061697
 21
92.2187490484
  0
LINE
  5
4C2
100
AcDbEntity
  8
3_ALL_AXES
100
AcDbLine
 62
7
  6
CONTINUOUS
 10
141.7696061697
 20
92.2187490484
 11
142.1771061697
 21
92.2187490484
  0
LINE
  5
4C3
100
AcDbEntity
  8
3_ALL_AXES
100
AcDbLine
 62
7
  6
CONTINUOUS
 10
142.3021061697
 20
92.2187490484
 11
142.7096061697
 21
92.2187490484
  0
LINE
  5
4C4
100
AcDbEntity
  8
3_ALL_AXES
100
AcDbLine
 62
7
  6
CONTINUOUS
 10
142.8346061697
 20
92.2187490484
 11
143.2096061697
 21
92.2187490484
  0
LINE
  5
4C5
100
AcDbEntity
  8
3_ALL_AXES
100
AcDbLine
 62
7
  6
CONTINUOUS
 10
143.3346061697
 20
92.2187490484
 11
143.7096061697
 21
92.2187490484
  0
LINE
  5
4C6
100
AcDbEntity
  8
3_AXES_OTHER
100
AcDbLine
 62
7
  6
CONTINUOUS
 10
144.5631061697
 20
92.4167490484
 11
144.5341061697
 21
92.4167490484
  0
LINE
  5
4C7
100
AcDbEntity
  8
3_AXES_OTHER
100
AcDbLine
 62
7
  6
CONTINUOUS
 10
139.9431061697
 20
92.4167490484
 11
139.9141061697
 21
92.4167490484
  0
LINE
  5
4C8
100
AcDbEntity
  8
3_AXES_OTHER
100
AcDbLine
 62
7
  6
CONTINUOUS
 10
144.6356061697
 20
92.4892490484
 11
144.6066061697
 21
92.4892490484
  0
LINE
  5
4C9
100
AcDbEntity
  8
3_AXES_OTHER
100
AcDbLine
 62
7
  6
CONTINUOUS
 10
144.4906061697
 20
92.4892490484
 11
144.4616061697
 21
92.4892490484
  0
LINE
  5
4CA
100
AcDbEntity
  8
3_AXES_OTHER
100
AcDbLine
 62
7
  6
CONTINUOUS
 10
140.0156061697
 20
92.4892490484
 11
139.9866061697
 21
92.4892490484
  0
LINE
  5
4CB
100
AcDbEntity
  8
3_AXES_OTHER
100
AcDbLine
 62
7
  6
CONTINUOUS
 10
139.8706061697
 20
92.4892490484
 11
139.8416061697
 21
92.4892490484
  0
LINE
  5
4CC
100
AcDbEntity
  8
3_AXES_OTHER
100
AcDbLine
 62
7
  6
CONTINUOUS
 10
139.9866061697
 20
92.5182490484
 11
140.0156061697
 21
92.5182490484
  0
LINE
  5
4CD
100
AcDbEntity
  8
3_AXES_OTHER
100
AcDbLine
 62
7
  6
CONTINUOUS
 10
139.8416061697
 20
92.5182490484
 11
139.8706061697
 21
92.5182490484
  0
LINE
  5
4CE
100
AcDbEntity
  8
3_AXES_OTHER
100
AcDbLine
 62
7
  6
CONTINUOUS
 10
144.6066061697
 20
92.5182490484
 11
144.6356061697
 21
92.5182490484
  0
LINE
  5
4CF
100
AcDbEntity
  8
3_AXES_OTHER
100
AcDbLine
 62
7
  6
CONTINUOUS
 10
144.4616061697
 20
92.5182490484
 11
144.4906061697
 21
92.5182490484
  0
LINE
  5
4D0
100
AcDbEntity
  8
3_AXES_OTHER
100
AcDbLine
 62
7
  6
CONTINUOUS
 10
139.9141061697
 20
92.5907490484
 11
139.9431061697
 21
92.5907490484
  0
LINE
  5
4D1
100
AcDbEntity
  8
3_AXES_OTHER
100
AcDbLine
 62
7
  6
CONTINUOUS
 10
144.5341061697
 20
92.5907490484
 11
144.5631061697
 21
92.5907490484
  0
LINE
  5
4D2
100
AcDbEntity
  8
3_ALL_AXES
100
AcDbLine
 62
7
  6
CONTINUOUS
 10
140.7696061697
 20
92.7187490484
 11
141.1446061697
 21
92.7187490484
  0
LINE
  5
4D3
100
AcDbEntity
  8
3_ALL_AXES
100
AcDbLine
 62
7
  6
CONTINUOUS
 10
141.2696061697
 20
92.7187490484
 11
141.6446061697
 21
92.7187490484
  0
LINE
  5
4D4
100
AcDbEntity
  8
3_ALL_AXES
100
AcDbLine
 62
7
  6
CONTINUOUS
 10
141.7696061697
 20
92.7187490484
 11
142.1771061697
 21
92.7187490484
  0
LINE
  5
4D5
100
AcDbEntity
  8
3_ALL_AXES
100
AcDbLine
 62
7
  6
CONTINUOUS
 10
142.3021061697
 20
92.7187490484
 11
142.7096061697
 21
92.7187490484
  0
LINE
  5
4D6
100
AcDbEntity
  8
3_ALL_AXES
100
AcDbLine
 62
7
  6
CONTINUOUS
 10
142.8346061697
 20
92.7187490484
 11
143.2096061697
 21
92.7187490484
  0
LINE
  5
4D7
100
AcDbEntity
  8
3_ALL_AXES
100
AcDbLine
 62
7
  6
CONTINUOUS
 10
143.3346061697
 20
92.7187490484
 11
143.7096061697
 21
92.7187490484
  0
LINE
  5
4D8
100
AcDbEntity
  8
3_ALL_AXES
100
AcDbLine
 62
7
  6
CONTINUOUS
 10
140.6446061697
 20
92.8187490484
 11
143.8346061697
 21
92.8187490484
  0
LINE
  5
4D9
100
AcDbEntity
  8
3_AXES_OTHER
100
AcDbLine
 62
7
  6
CONTINUOUS
 10
139.8416061697
 20
92.5182490484
 11
140.0156061697
 21
92.4892490484
  0
LINE
  5
4DA
100
AcDbEntity
  8
3_AXES_OTHER
100
AcDbLine
 62
7
  6
CONTINUOUS
 10
139.8706061697
 20
92.5182490484
 11
139.9866061697
 21
92.4892490484
  0
LINE
  5
4DB
100
AcDbEntity
  8
3_AXES_OTHER
100
AcDbLine
 62
7
  6
CONTINUOUS
 10
144.5181840647
 20
89.3133269433
 11
144.4906061697
 21
89.3292490484
  0
LINE
  5
4DC
100
AcDbEntity
  8
3_AXES_OTHER
100
AcDbLine
 62
7
  6
CONTINUOUS
 10
144.5790282748
 20
89.3741711534
 11
144.6066061697
 21
89.3582490484
  0
LINE
  5
4DD
100
AcDbEntity
  8
3_AXES_OTHER
100
AcDbLine
 62
7
  6
CONTINUOUS
 10
139.8981840647
 20
92.4733269433
 11
139.8706061697
 21
92.4892490484
  0
LINE
  5
4DE
100
AcDbEntity
  8
3_AXES_OTHER
100
AcDbLine
 62
7
  6
CONTINUOUS
 10
139.9590282748
 20
92.5341711534
 11
139.9866061697
 21
92.5182490484
  0
LINE
  5
4DF
100
AcDbEntity
  8
3_AXES_OTHER
100
AcDbLine
 62
7
  6
CONTINUOUS
 10
139.8981840647
 20
92.5341711534
 11
139.9590282748
 21
92.4733269433
  0
LINE
  5
4E0
100
AcDbEntity
  8
3_AXES_OTHER
100
AcDbLine
 62
7
  6
CONTINUOUS
 10
139.9141061697
 20
92.4457490484
 11
139.8981840647
 21
92.4733269433
  0
LINE
  5
4E1
100
AcDbEntity
  8
3_AXES_OTHER
100
AcDbLine
 62
7
  6
CONTINUOUS
 10
139.9431061697
 20
92.5617490484
 11
139.9590282748
 21
92.5341711534
  0
LINE
  5
4E2
100
AcDbEntity
  8
3_AXES_OTHER
100
AcDbLine
 62
7
  6
CONTINUOUS
 10
143.2241061697
 20
87.5532490484
 11
143.2081840647
 21
87.5808269433
  0
LINE
  5
4E3
100
AcDbEntity
  8
3_AXES_OTHER
100
AcDbLine
 62
7
  6
CONTINUOUS
 10
143.2531061697
 20
87.6692490484
 11
143.2690282748
 21
87.6416711534
  0
LINE
  5
4E4
100
AcDbEntity
  8
3_AXES_OTHER
100
AcDbLine
 62
7
  6
CONTINUOUS
 10
141.2531061697
 20
94.1782490484
 11
141.2241061697
 21
94.2942490484
  0
LINE
  5
4E5
100
AcDbEntity
  8
3_AXES_OTHER
100
AcDbLine
 62
7
  6
CONTINUOUS
 10
143.2531061697
 20
87.5532490484
 11
143.2241061697
 21
87.6692490484
  0
LINE
  5
4E6
100
AcDbEntity
  8
3_AXES_OTHER
100
AcDbLine
 62
7
  6
CONTINUOUS
 10
141.2531061697
 20
94.1492490484
 11
141.2241061697
 21
94.3232490484
  0
LINE
  5
4E7
100
AcDbEntity
  8
3_AXES_OTHER
100
AcDbLine
 62
7
  6
CONTINUOUS
 10
143.2531061697
 20
87.5242490484
 11
143.2241061697
 21
87.6982490484
  0
LINE
  5
4E8
100
AcDbEntity
  8
3_AXES_OTHER
100
AcDbLine
 62
7
  6
CONTINUOUS
 10
144.4616061697
 20
89.3292490484
 11
144.4616061697
 21
89.3582490484
  0
LINE
  5
4E9
100
AcDbEntity
  8
3_AXES_OTHER
100
AcDbLine
 62
7
  6
CONTINUOUS
 10
144.4616061697
 20
92.4892490484
 11
144.4616061697
 21
92.5182490484
  0
LINE
  5
4EA
100
AcDbEntity
  8
3_AXES_OTHER
100
AcDbLine
 62
7
  6
CONTINUOUS
 10
144.5341061697
 20
89.4017490484
 11
144.5341061697
 21
89.4307490484
  0
LINE
  5
4EB
100
AcDbEntity
  8
3_AXES_OTHER
100
AcDbLine
 62
7
  6
CONTINUOUS
 10
144.5341061697
 20
89.2567490484
 11
144.5341061697
 21
89.2857490484
  0
LINE
  5
4EC
100
AcDbEntity
  8
3_AXES_OTHER
100
AcDbLine
 62
7
  6
CONTINUOUS
 10
144.5341061697
 20
92.4167490484
 11
144.5341061697
 21
92.4457490484
  0
LINE
  5
4ED
100
AcDbEntity
  8
3_AXES_OTHER
100
AcDbLine
 62
7
  6
CONTINUOUS
 10
144.5341061697
 20
92.5617490484
 11
144.5341061697
 21
92.5907490484
  0
LINE
  5
4EE
100
AcDbEntity
  8
3_AXES_OTHER
100
AcDbLine
 62
7
  6
CONTINUOUS
 10
144.5631061697
 20
92.5907490484
 11
144.5631061697
 21
92.5617490484
  0
LINE
  5
4EF
100
AcDbEntity
  8
3_AXES_OTHER
100
AcDbLine
 62
7
  6
CONTINUOUS
 10
144.5631061697
 20
92.4457490484
 11
144.5631061697
 21
92.4167490484
  0
LINE
  5
4F0
100
AcDbEntity
  8
3_AXES_OTHER
100
AcDbLine
 62
7
  6
CONTINUOUS
 10
144.5631061697
 20
89.4307490484
 11
144.5631061697
 21
89.4017490484
  0
LINE
  5
4F1
100
AcDbEntity
  8
3_AXES_OTHER
100
AcDbLine
 62
7
  6
CONTINUOUS
 10
144.5631061697
 20
89.2857490484
 11
144.5631061697
 21
89.2567490484
  0
LINE
  5
4F2
100
AcDbEntity
  8
3_AXES_OTHER
100
AcDbLine
 62
7
  6
CONTINUOUS
 10
144.6356061697
 20
92.5182490484
 11
144.6356061697
 21
92.4892490484
  0
LINE
  5
4F3
100
AcDbEntity
  8
3_AXES_OTHER
100
AcDbLine
 62
7
  6
CONTINUOUS
 10
144.6356061697
 20
89.3582490484
 11
144.6356061697
 21
89.3292490484
  0
LINE
  5
4F4
100
AcDbEntity
  8
3_ALL_AXES
100
AcDbLine
 62
7
  6
CONTINUOUS
 10
144.7286061697
 20
87.6157490484
 11
144.7286061697
 21
94.2317490484
  0
LINE
  5
4F5
100
AcDbEntity
  8
7_ALL_ROUNDS
100
AcDbLine
 62
7
  6
CONTINUOUS
 10
144.7636061697
 20
87.5637490484
 11
144.7636061697
 21
94.2837490484
  0
LINE
  5
4F6
100
AcDbEntity
  8
CTRLS
100
AcDbLine
 62
7
  6
CONTINUOUS
 10
145.5286061697
 20
61.8387490484
 11
145.5286061697
 21
62.4337490484
  0
LINE
  5
4F7
100
AcDbEntity
  8
3_ALL_AXES
100
AcDbLine
 62
7
  6
CONTINUOUS
 10
140.6261061697
 20
93.7287490484
 11
143.8511061697
 21
93.7287490484
  0
LINE
  5
4F8
100
AcDbEntity
  8
3_AXES_OTHER
100
AcDbLine
 62
7
  6
CONTINUOUS
 10
143.2531061697
 20
94.1492490484
 11
143.2241061697
 21
94.1492490484
  0
LINE
  5
4F9
100
AcDbEntity
  8
3_AXES_OTHER
100
AcDbLine
 62
7
  6
CONTINUOUS
 10
141.2531061697
 20
94.1492490484
 11
141.2241061697
 21
94.1492490484
  0
LINE
  5
4FA
100
AcDbEntity
  8
3_AXES_OTHER
100
AcDbLine
 62
7
  6
CONTINUOUS
 10
143.3256061697
 20
94.2217490484
 11
143.2966061697
 21
94.2217490484
  0
LINE
  5
4FB
100
AcDbEntity
  8
3_AXES_OTHER
100
AcDbLine
 62
7
  6
CONTINUOUS
 10
143.1806061697
 20
94.2217490484
 11
143.1516061697
 21
94.2217490484
  0
LINE
  5
4FC
100
AcDbEntity
  8
3_AXES_OTHER
100
AcDbLine
 62
7
  6
CONTINUOUS
 10
141.3256061697
 20
94.2217490484
 11
141.2966061697
 21
94.2217490484
  0
LINE
  5
4FD
100
AcDbEntity
  8
3_AXES_OTHER
100
AcDbLine
 62
7
  6
CONTINUOUS
 10
141.1806061697
 20
94.2217490484
 11
141.1516061697
 21
94.2217490484
  0
LINE
  5
4FE
100
AcDbEntity
  8
3_AXES_OTHER
100
AcDbLine
 62
7
  6
CONTINUOUS
 10
141.2966061697
 20
94.2507490484
 11
141.3256061697
 21
94.2507490484
  0
LINE
  5
4FF
100
AcDbEntity
  8
3_AXES_OTHER
100
AcDbLine
 62
7
  6
CONTINUOUS
 10
141.1516061697
 20
94.2507490484
 11
141.1806061697
 21
94.2507490484
  0
LINE
  5
500
100
AcDbEntity
  8
3_AXES_OTHER
100
AcDbLine
 62
7
  6
CONTINUOUS
 10
143.1516061697
 20
94.2507490484
 11
143.1806061697
 21
94.2507490484
  0
LINE
  5
501
100
AcDbEntity
  8
3_AXES_OTHER
100
AcDbLine
 62
7
  6
CONTINUOUS
 10
143.2966061697
 20
94.2507490484
 11
143.3256061697
 21
94.2507490484
  0
LINE
  5
502
100
AcDbEntity
  8
3_AXES_OTHER
100
AcDbLine
 62
7
  6
CONTINUOUS
 10
141.2241061697
 20
94.3232490484
 11
141.2531061697
 21
94.3232490484
  0
LINE
  5
503
100
AcDbEntity
  8
3_AXES_OTHER
100
AcDbLine
 62
7
  6
CONTINUOUS
 10
143.2241061697
 20
94.3232490484
 11
143.2531061697
 21
94.3232490484
  0
LINE
  5
504
100
AcDbEntity
  8
3_ALL_AXES
100
AcDbLine
 62
7
  6
CONTINUOUS
 10
144.5416061697
 20
94.4187490484
 11
139.9356061697
 21
94.4187490484
  0
LINE
  5
505
100
AcDbEntity
  8
7_ALL_ROUNDS
100
AcDbLine
 62
7
  6
CONTINUOUS
 10
144.5736061697
 20
94.4737490484
 11
139.9036061697
 21
94.4737490484
  0
LINE
  5
506
100
AcDbEntity
  8
3_AXES_OTHER
100
AcDbLine
 62
7
  6
CONTINUOUS
 10
144.4616061697
 20
92.5182490484
 11
144.6356061697
 21
92.4892490484
  0
LINE
  5
507
100
AcDbEntity
  8
3_AXES_OTHER
100
AcDbLine
 62
7
  6
CONTINUOUS
 10
141.1516061697
 20
94.2507490484
 11
141.3256061697
 21
94.2217490484
  0
LINE
  5
508
100
AcDbEntity
  8
3_AXES_OTHER
100
AcDbLine
 62
7
  6
CONTINUOUS
 10
143.1516061697
 20
94.2507490484
 11
143.3256061697
 21
94.2217490484
  0
LINE
  5
509
100
AcDbEntity
  8
3_AXES_OTHER
100
AcDbLine
 62
7
  6
CONTINUOUS
 10
144.4906061697
 20
92.5182490484
 11
144.6066061697
 21
92.4892490484
  0
LINE
  5
50A
100
AcDbEntity
  8
3_AXES_OTHER
100
AcDbLine
 62
7
  6
CONTINUOUS
 10
141.1806061697
 20
94.2507490484
 11
141.2966061697
 21
94.2217490484
  0
LINE
  5
50B
100
AcDbEntity
  8
3_AXES_OTHER
100
AcDbLine
 62
7
  6
CONTINUOUS
 10
141.2081840647
 20
94.2058269433
 11
141.1806061697
 21
94.2217490484
  0
LINE
  5
50C
100
AcDbEntity
  8
3_AXES_OTHER
100
AcDbLine
 62
7
  6
CONTINUOUS
 10
144.5181840647
 20
89.3741711534
 11
144.5790282748
 21
89.3133269433
  0
LINE
  5
50D
100
AcDbEntity
  8
3_AXES_OTHER
100
AcDbLine
 62
7
  6
CONTINUOUS
 10
141.2081840647
 20
94.2666711534
 11
141.2690282748
 21
94.2058269433
  0
LINE
  5
50E
100
AcDbEntity
  8
3_AXES_OTHER
100
AcDbLine
 62
7
  6
CONTINUOUS
 10
141.2241061697
 20
94.1782490484
 11
141.2081840647
 21
94.2058269433
  0
LINE
  5
50F
100
AcDbEntity
  8
3_AXES_OTHER
100
AcDbLine
 62
7
  6
CONTINUOUS
 10
141.2531061697
 20
94.2942490484
 11
141.2690282748
 21
94.2666711534
  0
LINE
  5
510
100
AcDbEntity
  8
3_AXES_OTHER
100
AcDbLine
 62
7
  6
CONTINUOUS
 10
144.5341061697
 20
89.2857490484
 11
144.5181840647
 21
89.3133269433
  0
LINE
  5
511
100
AcDbEntity
  8
3_AXES_OTHER
100
AcDbLine
 62
7
  6
CONTINUOUS
 10
144.5631061697
 20
89.4017490484
 11
144.5790282748
 21
89.3741711534
  0
LINE
  5
512
100
AcDbEntity
  8
3_AXES_OTHER
100
AcDbLine
 62
7
  6
CONTINUOUS
 10
143.2531061697
 20
94.1782490484
 11
143.2241061697
 21
94.2942490484
  0
LINE
  5
513
100
AcDbEntity
  8
3_AXES_OTHER
100
AcDbLine
 62
7
  6
CONTINUOUS
 10
144.5631061697
 20
89.2857490484
 11
144.5341061697
 21
89.4017490484
  0
LINE
  5
514
100
AcDbEntity
  8
3_AXES_OTHER
100
AcDbLine
 62
7
  6
CONTINUOUS
 10
144.5631061697
 20
92.4457490484
 11
144.5341061697
 21
92.5617490484
  0
LINE
  5
515
100
AcDbEntity
  8
3_AXES_OTHER
100
AcDbLine
 62
7
  6
CONTINUOUS
 10
143.2531061697
 20
94.1492490484
 11
143.2241061697
 21
94.3232490484
  0
LINE
  5
516
100
AcDbEntity
  8
3_AXES_OTHER
100
AcDbLine
 62
7
  6
CONTINUOUS
 10
144.5631061697
 20
89.2567490484
 11
144.5341061697
 21
89.4307490484
  0
LINE
  5
517
100
AcDbEntity
  8
3_AXES_OTHER
100
AcDbLine
 62
7
  6
CONTINUOUS
 10
144.5631061697
 20
92.4167490484
 11
144.5341061697
 21
92.5907490484
  0
LINE
  5
518
100
AcDbEntity
  8
CTRLS
100
AcDbLine
 62
7
  6
CONTINUOUS
 10
147.0286061697
 20
61.8387490484
 11
147.0286061697
 21
62.4337490484
  0
LINE
  5
519
100
AcDbEntity
  8
3_AXES_OTHER
100
AcDbLine
 62
7
  6
CONTINUOUS
 10
143.1806061697
 20
94.2507490484
 11
143.2966061697
 21
94.2217490484
  0
LINE
  5
51A
100
AcDbEntity
  8
3_AXES_OTHER
100
AcDbLine
 62
7
  6
CONTINUOUS
 10
141.2690282748
 20
94.2666711534
 11
141.2966061697
 21
94.2507490484
  0
LINE
  5
51B
100
AcDbEntity
  8
3_AXES_OTHER
100
AcDbLine
 62
7
  6
CONTINUOUS
 10
144.5181840647
 20
92.4733269433
 11
144.4906061697
 21
92.4892490484
  0
LINE
  5
51C
100
AcDbEntity
  8
3_AXES_OTHER
100
AcDbLine
 62
7
  6
CONTINUOUS
 10
144.5790282748
 20
92.5341711534
 11
144.6066061697
 21
92.5182490484
  0
LINE
  5
51D
100
AcDbEntity
  8
3_AXES_OTHER
100
AcDbLine
 62
7
  6
CONTINUOUS
 10
143.2081840647
 20
94.2058269433
 11
143.1806061697
 21
94.2217490484
  0
LINE
  5
51E
100
AcDbEntity
  8
3_AXES_OTHER
100
AcDbLine
 62
7
  6
CONTINUOUS
 10
143.2690282748
 20
94.2666711534
 11
143.2966061697
 21
94.2507490484
  0
LINE
  5
51F
100
AcDbEntity
  8
3_AXES_OTHER
100
AcDbLine
 62
7
  6
CONTINUOUS
 10
144.5181840647
 20
92.5341711534
 11
144.5790282748
 21
92.4733269433
  0
LINE
  5
520
100
AcDbEntity
  8
3_AXES_OTHER
100
AcDbLine
 62
7
  6
CONTINUOUS
 10
143.2081840647
 20
94.2666711534
 11
143.2690282748
 21
94.2058269433
  0
LINE
  5
521
100
AcDbEntity
  8
3_AXES_OTHER
100
AcDbLine
 62
7
  6
CONTINUOUS
 10
143.2241061697
 20
94.1782490484
 11
143.2081840647
 21
94.2058269433
  0
LINE
  5
522
100
AcDbEntity
  8
3_AXES_OTHER
100
AcDbLine
 62
7
  6
CONTINUOUS
 10
143.2531061697
 20
94.2942490484
 11
143.2690282748
 21
94.2666711534
  0
LINE
  5
523
100
AcDbEntity
  8
3_AXES_OTHER
100
AcDbLine
 62
7
  6
CONTINUOUS
 10
144.5341061697
 20
92.4457490484
 11
144.5181840647
 21
92.4733269433
  0
LINE
  5
524
100
AcDbEntity
  8
3_AXES_OTHER
100
AcDbLine
 62
7
  6
CONTINUOUS
 10
144.5631061697
 20
92.5617490484
 11
144.5790282748
 21
92.5341711534
  0
LINE
  5
525
100
AcDbEntity
  8
7_ALL_ROUNDS
100
AcDbLine
 62
7
  6
CONTINUOUS
 10
148.7886061697
 20
62.6837490484
 11
148.7886061697
 21
110.2237490484
  0
LINE
  5
526
100
AcDbEntity
  8
7_ALL_ROUNDS
100
AcDbLine
 62
7
  6
CONTINUOUS
 10
148.5386061697
 20
110.4737490484
 11
125.0286061697
 21
110.4737490484
  0
LINE
  5
527
100
AcDbEntity
  8
7_ALL_ROUNDS
100
AcDbLine
 62
7
  6
CONTINUOUS
 10
39.1536530753
 20
132.51887533
 11
39.1536530753
 21
156.02887533
  0
LINE
  5
528
100
AcDbEntity
  8
7_ALL_ROUNDS
100
AcDbLine
 62
7
  6
CONTINUOUS
 10
39.6036530753
 20
156.27887533
 11
39.6036530753
 21
132.26887533
  0
LINE
  5
529
100
AcDbEntity
  8
7_ALL_ROUNDS
100
AcDbLine
 62
7
  6
CONTINUOUS
 10
39.6136530753
 20
132.26887533
 11
39.6136530753
 21
156.27887533
  0
LINE
  5
52A
100
AcDbEntity
  8
7_ALL_ROUNDS
100
AcDbLine
 62
7
  6
CONTINUOUS
 10
68.8836530753
 20
132.26887533
 11
68.6836530753
 21
132.26887533
  0
LINE
  5
52B
100
AcDbEntity
  8
3_AXES_OTHER
100
AcDbLine
 62
7
  6
CONTINUOUS
 10
39.6136530753
 20
132.26887533
 11
39.6036530753
 21
132.26887533
  0
LINE
  5
52C
100
AcDbEntity
  8
7_ALL_ROUNDS
100
AcDbLine
 62
7
  6
CONTINUOUS
 10
39.4036530753
 20
132.26887533
 11
39.6036530753
 21
132.26887533
  0
LINE
  5
52D
100
AcDbEntity
  8
7_ALL_ROUNDS
100
AcDbLine
 62
7
  6
CONTINUOUS
 10
39.6136530753
 20
132.26887533
 11
68.6736530753
 21
132.26887533
  0
LINE
  5
52E
100
AcDbEntity
  8
3_AXES_OTHER
100
AcDbLine
 62
7
  6
CONTINUOUS
 10
68.6736530753
 20
132.26887533
 11
68.6836530753
 21
132.26887533
  0
LINE
  5
52F
100
AcDbEntity
  8
3_AXES_OTHER
100
AcDbLine
 62
7
  6
CONTINUOUS
 10
68.6736530753
 20
151.29887533
 11
68.6836530753
 21
151.29887533
  0
LINE
  5
530
100
AcDbEntity
  8
3_AXES_OTHER
100
AcDbLine
 62
7
  6
CONTINUOUS
 10
68.6736530753
 20
152.49887533
 11
68.6836530753
 21
152.49887533
  0
LINE
  5
531
100
AcDbEntity
  8
3_AXES_OTHER
100
AcDbLine
 62
7
  6
CONTINUOUS
 10
39.6136530753
 20
155.48887533
 11
39.6036530753
 21
155.48887533
  0
LINE
  5
532
100
AcDbEntity
  8
3_AXES_OTHER
100
AcDbLine
 62
7
  6
CONTINUOUS
 10
68.6736530753
 20
155.48887533
 11
68.6836530753
 21
155.48887533
  0
LINE
  5
533
100
AcDbEntity
  8
7_ALL_ROUNDS
100
AcDbLine
 62
7
  6
CONTINUOUS
 10
68.8836530753
 20
156.27887533
 11
68.6836530753
 21
156.27887533
  0
LINE
  5
534
100
AcDbEntity
  8
7_ALL_ROUNDS
100
AcDbLine
 62
7
  6
CONTINUOUS
 10
68.6736530753
 20
156.27887533
 11
39.6136530753
 21
156.27887533
  0
LINE
  5
535
100
AcDbEntity
  8
7_ALL_ROUNDS
100
AcDbLine
 62
7
  6
CONTINUOUS
 10
39.4036530753
 20
156.27887533
 11
39.6036530753
 21
156.27887533
  0
LINE
  5
536
100
AcDbEntity
  8
7_ALL_ROUNDS
100
AcDbLine
 62
7
  6
CONTINUOUS
 10
68.6736530753
 20
156.27887533
 11
68.6736530753
 21
132.26887533
  0
LINE
  5
537
100
AcDbEntity
  8
7_ALL_ROUNDS
100
AcDbLine
 62
7
  6
CONTINUOUS
 10
68.6836530753
 20
132.26887533
 11
68.6836530753
 21
156.27887533
  0
LINE
  5
538
100
AcDbEntity
  8
7_ALL_ROUNDS
100
AcDbLine
 62
7
  6
CONTINUOUS
 10
69.1336530753
 20
156.02887533
 11
69.1336530753
 21
132.51887533
  0
ARC
  5
539
100
AcDbEntity
  8
7_ALL_ROUNDS
100
AcDbCircle
 62
7
  6
CONTINUOUS
 10
39.4036530753
 20
62.6837490484
 40
0.25
100
AcDbArc
 50
180.0
 51
270.0
  0
ARC
  5
53A
100
AcDbEntity
  8
7_ALL_ROUNDS
100
AcDbCircle
 62
7
  6
CONTINUOUS
 10
41.1347081934
 20
63.1478041665
 40
0.125
100
AcDbArc
 50
31.8577580885
 51
90.0
  0
ARC
  5
53B
100
AcDbEntity
  8
CTRLS
100
AcDbCircle
 62
7
  6
CONTINUOUS
 10
40.5086530753
 20
61.8387490484
 40
0.125
100
AcDbArc
 50
180.0
 51
270.0
  0
ARC
  5
53C
100
AcDbEntity
  8
CTRLS
100
AcDbCircle
 62
7
  6
CONTINUOUS
 10
41.7586530753
 20
61.8387490484
 40
0.125
100
AcDbArc
 50
270.0
 51
360.0
  0
ARC
  5
53D
100
AcDbEntity
  8
3_AXES_OTHER
100
AcDbCircle
 62
7
  6
CONTINUOUS
 10
44.559326805
 20
82.483791121
 40
0.2435
100
AcDbArc
 50
48.5317502369
 51
41.4682497631
  0
CIRCLE
  5
53E
100
AcDbEntity
  8
3_AXES_OTHER
100
AcDbCircle
 62
7
  6
CONTINUOUS
 10
44.5814999138
 20
82.4929755234
 40
0.187007874
  0
CIRCLE
  5
53F
100
AcDbEntity
  8
3_AXES_OTHER
100
AcDbCircle
 62
7
  6
CONTINUOUS
 10
44.5814999138
 20
82.4929755234
 40
0.0984251969
  0
ARC
  5
540
100
AcDbEntity
  8
3_AXES_OTHER
100
AcDbCircle
 62
7
  6
CONTINUOUS
 10
44.6475227124
 20
82.3786206817
 40
0.0619176445
100
AcDbArc
 50
86.236076059
 51
153.763923941
  0
ARC
  5
541
100
AcDbEntity
  8
3_AXES_OTHER
100
AcDbCircle
 62
7
  6
CONTINUOUS
 10
44.713545511
 20
82.4929755234
 40
0.0619176445
100
AcDbArc
 50
146.236076059
 51
213.763923941
  0
ARC
  5
542
100
AcDbEntity
  8
3_AXES_OTHER
100
AcDbCircle
 62
7
  6
CONTINUOUS
 10
44.6475227124
 20
82.6073303651
 40
0.0619176445
100
AcDbArc
 50
206.236076059
 51
273.763923941
  0
ARC
  5
543
100
AcDbEntity
  8
3_AXES_OTHER
100
AcDbCircle
 62
7
  6
CONTINUOUS
 10
44.5154771151
 20
82.6073303651
 40
0.0619176445
100
AcDbArc
 50
266.236076059
 51
333.763923941
  0
ARC
  5
544
100
AcDbEntity
  8
3_AXES_OTHER
100
AcDbCircle
 62
7
  6
CONTINUOUS
 10
44.4494543165
 20
82.4929755234
 40
0.0619176445
100
AcDbArc
 50
326.236076059
 51
33.763923941
  0
ARC
  5
545
100
AcDbEntity
  8
3_AXES_OTHER
100
AcDbCircle
 62
7
  6
CONTINUOUS
 10
44.5154771151
 20
82.3786206817
 40
0.0619176445
100
AcDbArc
 50
26.236076059
 51
93.763923941
  0
CIRCLE
  5
546
100
AcDbEntity
  8
3_AXES_OTHER
100
AcDbCircle
 62
7
  6
CONTINUOUS
 10
44.5814999138
 20
82.4929755234
 40
0.0346948819
  0
ARC
  5
547
100
AcDbEntity
  8
3_AXES_OTHER
100
AcDbCircle
 62
7
  6
CONTINUOUS
 10
44.5814999138
 20
82.4111595785
 40
0.0116879921
100
AcDbArc
 50
206.236076059
 51
333.763923941
  0
ARC
  5
548
100
AcDbEntity
  8
3_AXES_OTHER
100
AcDbCircle
 62
7
  6
CONTINUOUS
 10
44.6523546005
 20
82.4520675509
 40
0.0116879921
100
AcDbArc
 50
266.236076059
 51
33.763923941
  0
ARC
  5
549
100
AcDbEntity
  8
3_AXES_OTHER
100
AcDbCircle
 62
7
  6
CONTINUOUS
 10
44.6523546005
 20
82.5338834958
 40
0.0116879921
100
AcDbArc
 50
326.236076059
 51
93.763923941
  0
ARC
  5
54A
100
AcDbEntity
  8
3_AXES_OTHER
100
AcDbCircle
 62
7
  6
CONTINUOUS
 10
44.5814999138
 20
82.5747914683
 40
0.0116879921
100
AcDbArc
 50
26.236076059
 51
153.763923941
  0
ARC
  5
54B
100
AcDbEntity
  8
3_AXES_OTHER
100
AcDbCircle
 62
7
  6
CONTINUOUS
 10
44.5106452271
 20
82.5338834958
 40
0.0116879921
100
AcDbArc
 50
86.236076059
 51
213.763923941
  0
ARC
  5
54C
100
AcDbEntity
  8
3_AXES_OTHER
100
AcDbCircle
 62
7
  6
CONTINUOUS
 10
44.5106452271
 20
82.4520675509
 40
0.0116879921
100
AcDbArc
 50
146.236076059
 51
273.763923941
  0
ARC
  5
54D
100
AcDbEntity
  8
3_AXES_OTHER
100
AcDbCircle
 62
7
  6
CONTINUOUS
 10
50.1736951479
 20
76.8694227781
 40
0.2435
100
AcDbArc
 50
93.5317502369
 51
86.4682497631
  0
CIRCLE
  5
54E
100
AcDbEntity
  8
3_AXES_OTHER
100
AcDbCircle
 62
7
  6
CONTINUOUS
 10
50.1828795503
 20
76.8915958869
 40
0.187007874
  0
CIRCLE
  5
54F
100
AcDbEntity
  8
3_AXES_OTHER
100
AcDbCircle
 62
7
  6
CONTINUOUS
 10
50.1828795503
 20
76.8915958869
 40
0.0984251969
  0
ARC
  5
550
100
AcDbEntity
  8
3_AXES_OTHER
100
AcDbCircle
 62
7
  6
CONTINUOUS
 10
50.2489023489
 20
76.7772410452
 40
0.0619176445
100
AcDbArc
 50
86.236076059
 51
153.763923941
  0
ARC
  5
551
100
AcDbEntity
  8
3_AXES_OTHER
100
AcDbCircle
 62
7
  6
CONTINUOUS
 10
50.3149251476
 20
76.8915958869
 40
0.0619176445
100
AcDbArc
 50
146.236076059
 51
213.763923941
  0
ARC
  5
552
100
AcDbEntity
  8
3_AXES_OTHER
100
AcDbCircle
 62
7
  6
CONTINUOUS
 10
50.2489023489
 20
77.0059507286
 40
0.0619176445
100
AcDbArc
 50
206.236076059
 51
273.763923941
  0
ARC
  5
553
100
AcDbEntity
  8
3_AXES_OTHER
100
AcDbCircle
 62
7
  6
CONTINUOUS
 10
50.1168567516
 20
77.0059507286
 40
0.0619176445
100
AcDbArc
 50
266.236076059
 51
333.763923941
  0
ARC
  5
554
100
AcDbEntity
  8
3_AXES_OTHER
100
AcDbCircle
 62
7
  6
CONTINUOUS
 10
50.050833953
 20
76.8915958869
 40
0.0619176445
100
AcDbArc
 50
326.236076059
 51
33.763923941
  0
ARC
  5
555
100
AcDbEntity
  8
3_AXES_OTHER
100
AcDbCircle
 62
7
  6
CONTINUOUS
 10
50.1168567516
 20
76.7772410452
 40
0.0619176445
100
AcDbArc
 50
26.236076059
 51
93.763923941
  0
CIRCLE
  5
556
100
AcDbEntity
  8
3_AXES_OTHER
100
AcDbCircle
 62
7
  6
CONTINUOUS
 10
50.1828795503
 20
76.8915958869
 40
0.0346948819
  0
ARC
  5
557
100
AcDbEntity
  8
3_AXES_OTHER
100
AcDbCircle
 62
7
  6
CONTINUOUS
 10
50.1828795503
 20
76.809779942
 40
0.0116879921
100
AcDbArc
 50
206.236076059
 51
333.763923941
  0
ARC
  5
558
100
AcDbEntity
  8
3_AXES_OTHER
100
AcDbCircle
 62
7
  6
CONTINUOUS
 10
50.253734237
 20
76.8506879144
 40
0.0116879921
100
AcDbArc
 50
266.236076059
 51
33.763923941
  0
ARC
  5
559
100
AcDbEntity
  8
3_AXES_OTHER
100
AcDbCircle
 62
7
  6
CONTINUOUS
 10
50.253734237
 20
76.9325038593
 40
0.0116879921
100
AcDbArc
 50
326.236076059
 51
93.763923941
  0
ARC
  5
55A
100
AcDbEntity
  8
3_AXES_OTHER
100
AcDbCircle
 62
7
  6
CONTINUOUS
 10
50.1828795503
 20
76.9734118317
 40
0.0116879921
100
AcDbArc
 50
26.236076059
 51
153.763923941
  0
ARC
  5
55B
100
AcDbEntity
  8
3_AXES_OTHER
100
AcDbCircle
 62
7
  6
CONTINUOUS
 10
50.1120248636
 20
76.9325038593
 40
0.0116879921
100
AcDbArc
 50
86.236076059
 51
213.763923941
  0
ARC
  5
55C
100
AcDbEntity
  8
3_AXES_OTHER
100
AcDbCircle
 62
7
  6
CONTINUOUS
 10
50.1120248636
 20
76.8506879144
 40
0.0116879921
100
AcDbArc
 50
146.236076059
 51
273.763923941
  0
ARC
  5
55D
100
AcDbEntity
  8
3_AXES_OTHER
100
AcDbCircle
 62
7
  6
CONTINUOUS
 10
44.559326805
 20
90.4237069757
 40
0.2435
100
AcDbArc
 50
3.5317502369
 51
356.4682497631
  0
CIRCLE
  5
55E
100
AcDbEntity
  8
3_AXES_OTHER
100
AcDbCircle
 62
7
  6
CONTINUOUS
 10
44.5814999138
 20
90.4145225733
 40
0.187007874
  0
CIRCLE
  5
55F
100
AcDbEntity
  8
3_AXES_OTHER
100
AcDbCircle
 62
7
  6
CONTINUOUS
 10
44.5814999138
 20
90.4145225733
 40
0.0984251969
  0
ARC
  5
560
100
AcDbEntity
  8
3_AXES_OTHER
100
AcDbCircle
 62
7
  6
CONTINUOUS
 10
44.6475227124
 20
90.3001677316
 40
0.0619176445
100
AcDbArc
 50
86.236076059
 51
153.763923941
  0
ARC
  5
561
100
AcDbEntity
  8
3_AXES_OTHER
100
AcDbCircle
 62
7
  6
CONTINUOUS
 10
44.713545511
 20
90.4145225733
 40
0.0619176445
100
AcDbArc
 50
146.236076059
 51
213.763923941
  0
ARC
  5
562
100
AcDbEntity
  8
3_AXES_OTHER
100
AcDbCircle
 62
7
  6
CONTINUOUS
 10
44.6475227124
 20
90.528877415
 40
0.0619176445
100
AcDbArc
 50
206.236076059
 51
273.763923941
  0
ARC
  5
563
100
AcDbEntity
  8
3_AXES_OTHER
100
AcDbCircle
 62
7
  6
CONTINUOUS
 10
44.5154771151
 20
90.528877415
 40
0.0619176445
100
AcDbArc
 50
266.236076059
 51
333.763923941
  0
ARC
  5
564
100
AcDbEntity
  8
3_AXES_OTHER
100
AcDbCircle
 62
7
  6
CONTINUOUS
 10
44.4494543165
 20
90.4145225733
 40
0.0619176445
100
AcDbArc
 50
326.236076059
 51
33.763923941
  0
ARC
  5
565
100
AcDbEntity
  8
3_AXES_OTHER
100
AcDbCircle
 62
7
  6
CONTINUOUS
 10
44.5154771151
 20
90.3001677316
 40
0.0619176445
100
AcDbArc
 50
26.236076059
 51
93.763923941
  0
CIRCLE
  5
566
100
AcDbEntity
  8
3_AXES_OTHER
100
AcDbCircle
 62
7
  6
CONTINUOUS
 10
44.5814999138
 20
90.4145225733
 40
0.0346948819
  0
ARC
  5
567
100
AcDbEntity
  8
3_AXES_OTHER
100
AcDbCircle
 62
7
  6
CONTINUOUS
 10
44.5814999138
 20
90.3327066285
 40
0.0116879921
100
AcDbArc
 50
206.236076059
 51
333.763923941
  0
ARC
  5
568
100
AcDbEntity
  8
3_AXES_OTHER
100
AcDbCircle
 62
7
  6
CONTINUOUS
 10
44.6523546005
 20
90.3736146009
 40
0.0116879921
100
AcDbArc
 50
266.236076059
 51
33.763923941
  0
ARC
  5
569
100
AcDbEntity
  8
3_AXES_OTHER
100
AcDbCircle
 62
7
  6
CONTINUOUS
 10
44.6523546005
 20
90.4554305458
 40
0.0116879921
100
AcDbArc
 50
326.236076059
 51
93.763923941
  0
ARC
  5
56A
100
AcDbEntity
  8
3_AXES_OTHER
100
AcDbCircle
 62
7
  6
CONTINUOUS
 10
44.5814999138
 20
90.4963385182
 40
0.0116879921
100
AcDbArc
 50
26.236076059
 51
153.763923941
  0
ARC
  5
56B
100
AcDbEntity
  8
3_AXES_OTHER
100
AcDbCircle
 62
7
  6
CONTINUOUS
 10
44.5106452271
 20
90.4554305458
 40
0.0116879921
100
AcDbArc
 50
86.236076059
 51
213.763923941
  0
ARC
  5
56C
100
AcDbEntity
  8
3_AXES_OTHER
100
AcDbCircle
 62
7
  6
CONTINUOUS
 10
44.5106452271
 20
90.3736146009
 40
0.0116879921
100
AcDbArc
 50
146.236076059
 51
273.763923941
  0
ARC
  5
56D
100
AcDbEntity
  8
7_ALL_ROUNDS
100
AcDbCircle
 62
7
  6
CONTINUOUS
 10
39.4036530753
 20
110.2237490484
 40
0.25
100
AcDbArc
 50
90.0
 51
180.0
  0
ARC
  5
56E
100
AcDbEntity
  8
3_AXES_OTHER
100
AcDbCircle
 62
7
  6
CONTINUOUS
 10
50.1736951479
 20
96.0380753186
 40
0.2435
100
AcDbArc
 50
318.5317502369
 51
311.4682497631
  0
CIRCLE
  5
56F
100
AcDbEntity
  8
3_AXES_OTHER
100
AcDbCircle
 62
7
  6
CONTINUOUS
 10
50.1828795503
 20
96.0159022099
 40
0.187007874
  0
CIRCLE
  5
570
100
AcDbEntity
  8
3_AXES_OTHER
100
AcDbCircle
 62
7
  6
CONTINUOUS
 10
50.1828795503
 20
96.0159022099
 40
0.0984251969
  0
ARC
  5
571
100
AcDbEntity
  8
3_AXES_OTHER
100
AcDbCircle
 62
7
  6
CONTINUOUS
 10
50.2489023489
 20
95.9015473682
 40
0.0619176445
100
AcDbArc
 50
86.236076059
 51
153.763923941
  0
ARC
  5
572
100
AcDbEntity
  8
3_AXES_OTHER
100
AcDbCircle
 62
7
  6
CONTINUOUS
 10
50.3149251476
 20
96.0159022099
 40
0.0619176445
100
AcDbArc
 50
146.236076059
 51
213.763923941
  0
ARC
  5
573
100
AcDbEntity
  8
3_AXES_OTHER
100
AcDbCircle
 62
7
  6
CONTINUOUS
 10
50.2489023489
 20
96.1302570516
 40
0.0619176445
100
AcDbArc
 50
206.236076059
 51
273.763923941
  0
ARC
  5
574
100
AcDbEntity
  8
3_AXES_OTHER
100
AcDbCircle
 62
7
  6
CONTINUOUS
 10
50.1168567516
 20
96.1302570516
 40
0.0619176445
100
AcDbArc
 50
266.236076059
 51
333.763923941
  0
ARC
  5
575
100
AcDbEntity
  8
3_AXES_OTHER
100
AcDbCircle
 62
7
  6
CONTINUOUS
 10
50.050833953
 20
96.0159022099
 40
0.0619176445
100
AcDbArc
 50
326.236076059
 51
33.763923941
  0
ARC
  5
576
100
AcDbEntity
  8
3_AXES_OTHER
100
AcDbCircle
 62
7
  6
CONTINUOUS
 10
50.1168567516
 20
95.9015473682
 40
0.0619176445
100
AcDbArc
 50
26.236076059
 51
93.763923941
  0
CIRCLE
  5
577
100
AcDbEntity
  8
3_AXES_OTHER
100
AcDbCircle
 62
7
  6
CONTINUOUS
 10
50.1828795503
 20
96.0159022099
 40
0.0346948819
  0
ARC
  5
578
100
AcDbEntity
  8
3_AXES_OTHER
100
AcDbCircle
 62
7
  6
CONTINUOUS
 10
50.1828795503
 20
95.934086265
 40
0.0116879921
100
AcDbArc
 50
206.236076059
 51
333.763923941
  0
ARC
  5
579
100
AcDbEntity
  8
3_AXES_OTHER
100
AcDbCircle
 62
7
  6
CONTINUOUS
 10
50.253734237
 20
95.9749942374
 40
0.0116879921
100
AcDbArc
 50
266.236076059
 51
33.763923941
  0
ARC
  5
57A
100
AcDbEntity
  8
3_AXES_OTHER
100
AcDbCircle
 62
7
  6
CONTINUOUS
 10
50.253734237
 20
96.0568101823
 40
0.0116879921
100
AcDbArc
 50
326.236076059
 51
93.763923941
  0
ARC
  5
57B
100
AcDbEntity
  8
3_AXES_OTHER
100
AcDbCircle
 62
7
  6
CONTINUOUS
 10
50.1828795503
 20
96.0977181547
 40
0.0116879921
100
AcDbArc
 50
26.236076059
 51
153.763923941
  0
ARC
  5
57C
100
AcDbEntity
  8
3_AXES_OTHER
100
AcDbCircle
 62
7
  6
CONTINUOUS
 10
50.1120248636
 20
96.0568101823
 40
0.0116879921
100
AcDbArc
 50
86.236076059
 51
213.763923941
  0
ARC
  5
57D
100
AcDbEntity
  8
3_AXES_OTHER
100
AcDbCircle
 62
7
  6
CONTINUOUS
 10
50.1120248636
 20
95.9749942374
 40
0.0116879921
100
AcDbArc
 50
146.236076059
 51
273.763923941
  0
ARC
  5
57E
100
AcDbEntity
  8
3_AXES_OTHER
100
AcDbCircle
 62
7
  6
CONTINUOUS
 10
58.1136110026
 20
76.8694227781
 40
0.2435
100
AcDbArc
 50
138.5317502369
 51
131.4682497631
  0
CIRCLE
  5
57F
100
AcDbEntity
  8
3_AXES_OTHER
100
AcDbCircle
 62
7
  6
CONTINUOUS
 10
58.1044266002
 20
76.8915958869
 40
0.187007874
  0
CIRCLE
  5
580
100
AcDbEntity
  8
3_AXES_OTHER
100
AcDbCircle
 62
7
  6
CONTINUOUS
 10
58.1044266002
 20
76.8915958869
 40
0.0984251969
  0
ARC
  5
581
100
AcDbEntity
  8
3_AXES_OTHER
100
AcDbCircle
 62
7
  6
CONTINUOUS
 10
58.1704493989
 20
76.7772410452
 40
0.0619176445
100
AcDbArc
 50
86.236076059
 51
153.763923941
  0
ARC
  5
582
100
AcDbEntity
  8
3_AXES_OTHER
100
AcDbCircle
 62
7
  6
CONTINUOUS
 10
58.2364721975
 20
76.8915958869
 40
0.0619176445
100
AcDbArc
 50
146.236076059
 51
213.763923941
  0
ARC
  5
583
100
AcDbEntity
  8
3_AXES_OTHER
100
AcDbCircle
 62
7
  6
CONTINUOUS
 10
58.1704493989
 20
77.0059507286
 40
0.0619176445
100
AcDbArc
 50
206.236076059
 51
273.763923941
  0
ARC
  5
584
100
AcDbEntity
  8
3_AXES_OTHER
100
AcDbCircle
 62
7
  6
CONTINUOUS
 10
58.0384038016
 20
77.0059507286
 40
0.0619176445
100
AcDbArc
 50
266.236076059
 51
333.763923941
  0
ARC
  5
585
100
AcDbEntity
  8
3_AXES_OTHER
100
AcDbCircle
 62
7
  6
CONTINUOUS
 10
57.972381003
 20
76.8915958869
 40
0.0619176445
100
AcDbArc
 50
326.236076059
 51
33.763923941
  0
ARC
  5
586
100
AcDbEntity
  8
3_AXES_OTHER
100
AcDbCircle
 62
7
  6
CONTINUOUS
 10
58.0384038016
 20
76.7772410452
 40
0.0619176445
100
AcDbArc
 50
26.236076059
 51
93.763923941
  0
CIRCLE
  5
587
100
AcDbEntity
  8
3_AXES_OTHER
100
AcDbCircle
 62
7
  6
CONTINUOUS
 10
58.1044266002
 20
76.8915958869
 40
0.0346948819
  0
ARC
  5
588
100
AcDbEntity
  8
3_AXES_OTHER
100
AcDbCircle
 62
7
  6
CONTINUOUS
 10
58.1044266002
 20
76.809779942
 40
0.0116879921
100
AcDbArc
 50
206.236076059
 51
333.763923941
  0
ARC
  5
589
100
AcDbEntity
  8
3_AXES_OTHER
100
AcDbCircle
 62
7
  6
CONTINUOUS
 10
58.1752812869
 20
76.8506879144
 40
0.0116879921
100
AcDbArc
 50
266.236076059
 51
33.763923941
  0
ARC
  5
58A
100
AcDbEntity
  8
3_AXES_OTHER
100
AcDbCircle
 62
7
  6
CONTINUOUS
 10
58.1752812869
 20
76.9325038593
 40
0.0116879921
100
AcDbArc
 50
326.236076059
 51
93.763923941
  0
ARC
  5
58B
100
AcDbEntity
  8
3_AXES_OTHER
100
AcDbCircle
 62
7
  6
CONTINUOUS
 10
58.1044266002
 20
76.9734118317
 40
0.0116879921
100
AcDbArc
 50
26.236076059
 51
153.763923941
  0
ARC
  5
58C
100
AcDbEntity
  8
3_AXES_OTHER
100
AcDbCircle
 62
7
  6
CONTINUOUS
 10
58.0335719135
 20
76.9325038593
 40
0.0116879921
100
AcDbArc
 50
86.236076059
 51
213.763923941
  0
ARC
  5
58D
100
AcDbEntity
  8
3_AXES_OTHER
100
AcDbCircle
 62
7
  6
CONTINUOUS
 10
58.0335719135
 20
76.8506879144
 40
0.0116879921
100
AcDbArc
 50
146.236076059
 51
273.763923941
  0
ARC
  5
58E
100
AcDbEntity
  8
7_ALL_ROUNDS
100
AcDbCircle
 62
7
  6
CONTINUOUS
 10
68.8836530753
 20
62.6837490484
 40
0.25
100
AcDbArc
 50
270.0
 51
360.0
  0
ARC
  5
58F
100
AcDbEntity
  8
7_ALL_ROUNDS
100
AcDbCircle
 62
7
  6
CONTINUOUS
 10
67.1347081934
 20
63.1478041665
 40
0.125
100
AcDbArc
 50
31.8577580885
 51
90.0
  0
ARC
  5
590
100
AcDbEntity
  8
CTRLS
100
AcDbCircle
 62
7
  6
CONTINUOUS
 10
66.5086530753
 20
61.8387490484
 40
0.125
100
AcDbArc
 50
180.0
 51
270.0
  0
ARC
  5
591
100
AcDbEntity
  8
CTRLS
100
AcDbCircle
 62
7
  6
CONTINUOUS
 10
67.7586530753
 20
61.8387490484
 40
0.125
100
AcDbArc
 50
270.0
 51
360.0
  0
ARC
  5
592
100
AcDbEntity
  8
3_AXES_OTHER
100
AcDbCircle
 62
7
  6
CONTINUOUS
 10
63.7279793455
 20
82.483791121
 40
0.2435
100
AcDbArc
 50
183.5317502369
 51
176.4682497631
  0
CIRCLE
  5
593
100
AcDbEntity
  8
3_AXES_OTHER
100
AcDbCircle
 62
7
  6
CONTINUOUS
 10
63.7058062367
 20
82.4929755234
 40
0.187007874
  0
CIRCLE
  5
594
100
AcDbEntity
  8
3_AXES_OTHER
100
AcDbCircle
 62
7
  6
CONTINUOUS
 10
63.7058062367
 20
82.4929755234
 40
0.0984251969
  0
ARC
  5
595
100
AcDbEntity
  8
3_AXES_OTHER
100
AcDbCircle
 62
7
  6
CONTINUOUS
 10
63.7718290354
 20
82.3786206817
 40
0.0619176445
100
AcDbArc
 50
86.236076059
 51
153.763923941
  0
ARC
  5
596
100
AcDbEntity
  8
3_AXES_OTHER
100
AcDbCircle
 62
7
  6
CONTINUOUS
 10
63.837851834
 20
82.4929755234
 40
0.0619176445
100
AcDbArc
 50
146.236076059
 51
213.763923941
  0
ARC
  5
597
100
AcDbEntity
  8
3_AXES_OTHER
100
AcDbCircle
 62
7
  6
CONTINUOUS
 10
63.7718290354
 20
82.6073303651
 40
0.0619176445
100
AcDbArc
 50
206.236076059
 51
273.763923941
  0
ARC
  5
598
100
AcDbEntity
  8
3_AXES_OTHER
100
AcDbCircle
 62
7
  6
CONTINUOUS
 10
63.6397834381
 20
82.6073303651
 40
0.0619176445
100
AcDbArc
 50
266.236076059
 51
333.763923941
  0
ARC
  5
599
100
AcDbEntity
  8
3_AXES_OTHER
100
AcDbCircle
 62
7
  6
CONTINUOUS
 10
63.5737606395
 20
82.4929755234
 40
0.0619176445
100
AcDbArc
 50
326.236076059
 51
33.763923941
  0
ARC
  5
59A
100
AcDbEntity
  8
3_AXES_OTHER
100
AcDbCircle
 62
7
  6
CONTINUOUS
 10
63.6397834381
 20
82.3786206817
 40
0.0619176445
100
AcDbArc
 50
26.236076059
 51
93.763923941
  0
CIRCLE
  5
59B
100
AcDbEntity
  8
3_AXES_OTHER
100
AcDbCircle
 62
7
  6
CONTINUOUS
 10
63.7058062367
 20
82.4929755234
 40
0.0346948819
  0
ARC
  5
59C
100
AcDbEntity
  8
3_AXES_OTHER
100
AcDbCircle
 62
7
  6
CONTINUOUS
 10
63.7058062367
 20
82.4111595785
 40
0.0116879921
100
AcDbArc
 50
206.236076059
 51
333.763923941
  0
ARC
  5
59D
100
AcDbEntity
  8
3_AXES_OTHER
100
AcDbCircle
 62
7
  6
CONTINUOUS
 10
63.7766609235
 20
82.4520675509
 40
0.0116879921
100
AcDbArc
 50
266.236076059
 51
33.763923941
  0
ARC
  5
59E
100
AcDbEntity
  8
3_AXES_OTHER
100
AcDbCircle
 62
7
  6
CONTINUOUS
 10
63.7766609235
 20
82.5338834958
 40
0.0116879921
100
AcDbArc
 50
326.236076059
 51
93.763923941
  0
ARC
  5
59F
100
AcDbEntity
  8
3_AXES_OTHER
100
AcDbCircle
 62
7
  6
CONTINUOUS
 10
63.7058062367
 20
82.5747914683
 40
0.0116879921
100
AcDbArc
 50
26.236076059
 51
153.763923941
  0
ARC
  5
5A0
100
AcDbEntity
  8
3_AXES_OTHER
100
AcDbCircle
 62
7
  6
CONTINUOUS
 10
63.63495155
 20
82.5338834958
 40
0.0116879921
100
AcDbArc
 50
86.236076059
 51
213.763923941
  0
ARC
  5
5A1
100
AcDbEntity
  8
3_AXES_OTHER
100
AcDbCircle
 62
7
  6
CONTINUOUS
 10
63.63495155
 20
82.4520675509
 40
0.0116879921
100
AcDbArc
 50
146.236076059
 51
273.763923941
  0
CIRCLE
  5
5A2
100
AcDbEntity
  8
3_AXES_OTHER
100
AcDbCircle
 62
7
  6
CONTINUOUS
 10
54.1436530753
 20
86.4537490484
 40
10.77
  0
ARC
  5
5A3
100
AcDbEntity
  8
3_AXES_OTHER
100
AcDbCircle
 62
7
  6
CONTINUOUS
 10
54.1436530753
 20
86.4537490484
 40
10.61
100
AcDbArc
 50
112.9884622859
 51
156.9750589038
  0
ARC
  5
5A4
100
AcDbEntity
  8
3_AXES_OTHER
100
AcDbCircle
 62
7
  6
CONTINUOUS
 10
54.1436530753
 20
86.4537490484
 40
10.61
100
AcDbArc
 50
67.8917371692
 51
112.1124542381
  0
ARC
  5
5A5
100
AcDbEntity
  8
3_AXES_OTHER
100
AcDbCircle
 62
7
  6
CONTINUOUS
 10
54.1436530753
 20
86.4537490484
 40
10.61
100
AcDbArc
 50
23.0249901607
 51
67.0078559795
  0
ARC
  5
5A6
100
AcDbEntity
  8
3_AXES_OTHER
100
AcDbCircle
 62
7
  6
CONTINUOUS
 10
54.1436530753
 20
86.4537490484
 40
10.61
100
AcDbArc
 50
158.0606197727
 51
201.942854006
  0
ARC
  5
5A7
100
AcDbEntity
  8
3_AXES_OTHER
100
AcDbCircle
 62
7
  6
CONTINUOUS
 10
54.1436530753
 20
86.4537490484
 40
10.61
100
AcDbArc
 50
203.0249901607
 51
247.0078559795
  0
ARC
  5
5A8
100
AcDbEntity
  8
3_AXES_OTHER
100
AcDbCircle
 62
7
  6
CONTINUOUS
 10
54.1436530753
 20
86.4537490484
 40
10.61
100
AcDbArc
 50
247.8917371692
 51
292.1124542381
  0
ARC
  5
5A9
100
AcDbEntity
  8
3_AXES_OTHER
100
AcDbCircle
 62
7
  6
CONTINUOUS
 10
54.1436530753
 20
86.4537490484
 40
10.61
100
AcDbArc
 50
292.9884622859
 51
336.9750589038
  0
ARC
  5
5AA
100
AcDbEntity
  8
3_AXES_OTHER
100
AcDbCircle
 62
7
  6
CONTINUOUS
 10
54.1436530753
 20
86.4537490484
 40
10.61
100
AcDbArc
 50
338.0606197727
 51
21.942854006
  0
CIRCLE
  5
5AB
100
AcDbEntity
  8
3_AXES_OTHER
100
AcDbCircle
 62
7
  6
CONTINUOUS
 10
54.1436530753
 20
86.4537490484
 40
10.01
  0
CIRCLE
  5
5AC
100
AcDbEntity
  8
3_AXES_OTHER
100
AcDbCircle
 62
7
  6
CONTINUOUS
 10
54.1436530753
 20
86.4537490484
 40
8.9739
  0
CIRCLE
  5
5AD
100
AcDbEntity
  8
3_AXES_OTHER
100
AcDbCircle
 62
7
  6
CONTINUOUS
 10
54.1436530753
 20
86.4537490484
 40
3.5
  0
ARC
  5
5AE
100
AcDbEntity
  8
3_AXES_OTHER
100
AcDbCircle
 62
7
  6
CONTINUOUS
 10
58.1136110026
 20
96.0380753186
 40
0.2435
100
AcDbArc
 50
273.5317502369
 51
266.4682497631
  0
CIRCLE
  5
5AF
100
AcDbEntity
  8
3_AXES_OTHER
100
AcDbCircle
 62
7
  6
CONTINUOUS
 10
58.1044266002
 20
96.0159022099
 40
0.187007874
  0
CIRCLE
  5
5B0
100
AcDbEntity
  8
3_AXES_OTHER
100
AcDbCircle
 62
7
  6
CONTINUOUS
 10
58.1044266002
 20
96.0159022099
 40
0.0984251969
  0
ARC
  5
5B1
100
AcDbEntity
  8
3_AXES_OTHER
100
AcDbCircle
 62
7
  6
CONTINUOUS
 10
58.1704493989
 20
95.9015473682
 40
0.0619176445
100
AcDbArc
 50
86.236076059
 51
153.763923941
  0
ARC
  5
5B2
100
AcDbEntity
  8
3_AXES_OTHER
100
AcDbCircle
 62
7
  6
CONTINUOUS
 10
58.2364721975
 20
96.0159022099
 40
0.0619176445
100
AcDbArc
 50
146.236076059
 51
213.763923941
  0
ARC
  5
5B3
100
AcDbEntity
  8
3_AXES_OTHER
100
AcDbCircle
 62
7
  6
CONTINUOUS
 10
58.1704493989
 20
96.1302570516
 40
0.0619176445
100
AcDbArc
 50
206.236076059
 51
273.763923941
  0
ARC
  5
5B4
100
AcDbEntity
  8
3_AXES_OTHER
100
AcDbCircle
 62
7
  6
CONTINUOUS
 10
58.0384038016
 20
96.1302570516
 40
0.0619176445
100
AcDbArc
 50
266.236076059
 51
333.763923941
  0
ARC
  5
5B5
100
AcDbEntity
  8
3_AXES_OTHER
100
AcDbCircle
 62
7
  6
CONTINUOUS
 10
57.972381003
 20
96.0159022099
 40
0.0619176445
100
AcDbArc
 50
326.236076059
 51
33.763923941
  0
ARC
  5
5B6
100
AcDbEntity
  8
3_AXES_OTHER
100
AcDbCircle
 62
7
  6
CONTINUOUS
 10
58.0384038016
 20
95.9015473682
 40
0.0619176445
100
AcDbArc
 50
26.236076059
 51
93.763923941
  0
CIRCLE
  5
5B7
100
AcDbEntity
  8
3_AXES_OTHER
100
AcDbCircle
 62
7
  6
CONTINUOUS
 10
58.1044266002
 20
96.0159022099
 40
0.0346948819
  0
ARC
  5
5B8
100
AcDbEntity
  8
3_AXES_OTHER
100
AcDbCircle
 62
7
  6
CONTINUOUS
 10
58.1044266002
 20
95.934086265
 40
0.0116879921
100
AcDbArc
 50
206.236076059
 51
333.763923941
  0
ARC
  5
5B9
100
AcDbEntity
  8
3_AXES_OTHER
100
AcDbCircle
 62
7
  6
CONTINUOUS
 10
58.1752812869
 20
95.9749942374
 40
0.0116879921
100
AcDbArc
 50
266.236076059
 51
33.763923941
  0
ARC
  5
5BA
100
AcDbEntity
  8
3_AXES_OTHER
100
AcDbCircle
 62
7
  6
CONTINUOUS
 10
58.1752812869
 20
96.0568101823
 40
0.0116879921
100
AcDbArc
 50
326.236076059
 51
93.763923941
  0
ARC
  5
5BB
100
AcDbEntity
  8
3_AXES_OTHER
100
AcDbCircle
 62
7
  6
CONTINUOUS
 10
58.1044266002
 20
96.0977181547
 40
0.0116879921
100
AcDbArc
 50
26.236076059
 51
153.763923941
  0
ARC
  5
5BC
100
AcDbEntity
  8
3_AXES_OTHER
100
AcDbCircle
 62
7
  6
CONTINUOUS
 10
58.0335719135
 20
96.0568101823
 40
0.0116879921
100
AcDbArc
 50
86.236076059
 51
213.763923941
  0
ARC
  5
5BD
100
AcDbEntity
  8
3_AXES_OTHER
100
AcDbCircle
 62
7
  6
CONTINUOUS
 10
58.0335719135
 20
95.9749942374
 40
0.0116879921
100
AcDbArc
 50
146.236076059
 51
273.763923941
  0
ARC
  5
5BE
100
AcDbEntity
  8
3_AXES_OTHER
100
AcDbCircle
 62
7
  6
CONTINUOUS
 10
63.7279793455
 20
90.4237069757
 40
0.2435
100
AcDbArc
 50
228.5317502369
 51
221.4682497631
  0
CIRCLE
  5
5BF
100
AcDbEntity
  8
3_AXES_OTHER
100
AcDbCircle
 62
7
  6
CONTINUOUS
 10
63.7058062367
 20
90.4145225733
 40
0.187007874
  0
CIRCLE
  5
5C0
100
AcDbEntity
  8
3_AXES_OTHER
100
AcDbCircle
 62
7
  6
CONTINUOUS
 10
63.7058062367
 20
90.4145225733
 40
0.0984251969
  0
ARC
  5
5C1
100
AcDbEntity
  8
3_AXES_OTHER
100
AcDbCircle
 62
7
  6
CONTINUOUS
 10
63.7718290354
 20
90.3001677316
 40
0.0619176445
100
AcDbArc
 50
86.236076059
 51
153.763923941
  0
ARC
  5
5C2
100
AcDbEntity
  8
3_AXES_OTHER
100
AcDbCircle
 62
7
  6
CONTINUOUS
 10
63.837851834
 20
90.4145225733
 40
0.0619176445
100
AcDbArc
 50
146.236076059
 51
213.763923941
  0
ARC
  5
5C3
100
AcDbEntity
  8
3_AXES_OTHER
100
AcDbCircle
 62
7
  6
CONTINUOUS
 10
63.7718290354
 20
90.528877415
 40
0.0619176445
100
AcDbArc
 50
206.236076059
 51
273.763923941
  0
ARC
  5
5C4
100
AcDbEntity
  8
3_AXES_OTHER
100
AcDbCircle
 62
7
  6
CONTINUOUS
 10
63.6397834381
 20
90.528877415
 40
0.0619176445
100
AcDbArc
 50
266.236076059
 51
333.763923941
  0
ARC
  5
5C5
100
AcDbEntity
  8
3_AXES_OTHER
100
AcDbCircle
 62
7
  6
CONTINUOUS
 10
63.5737606395
 20
90.4145225733
 40
0.0619176445
100
AcDbArc
 50
326.236076059
 51
33.763923941
  0
ARC
  5
5C6
100
AcDbEntity
  8
3_AXES_OTHER
100
AcDbCircle
 62
7
  6
CONTINUOUS
 10
63.6397834381
 20
90.3001677316
 40
0.0619176445
100
AcDbArc
 50
26.236076059
 51
93.763923941
  0
CIRCLE
  5
5C7
100
AcDbEntity
  8
3_AXES_OTHER
100
AcDbCircle
 62
7
  6
CONTINUOUS
 10
63.7058062367
 20
90.4145225733
 40
0.0346948819
  0
ARC
  5
5C8
100
AcDbEntity
  8
3_AXES_OTHER
100
AcDbCircle
 62
7
  6
CONTINUOUS
 10
63.7058062367
 20
90.3327066285
 40
0.0116879921
100
AcDbArc
 50
206.236076059
 51
333.763923941
  0
ARC
  5
5C9
100
AcDbEntity
  8
3_AXES_OTHER
100
AcDbCircle
 62
7
  6
CONTINUOUS
 10
63.7766609235
 20
90.3736146009
 40
0.0116879921
100
AcDbArc
 50
266.236076059
 51
33.763923941
  0
ARC
  5
5CA
100
AcDbEntity
  8
3_AXES_OTHER
100
AcDbCircle
 62
7
  6
CONTINUOUS
 10
63.7766609235
 20
90.4554305458
 40
0.0116879921
100
AcDbArc
 50
326.236076059
 51
93.763923941
  0
ARC
  5
5CB
100
AcDbEntity
  8
3_AXES_OTHER
100
AcDbCircle
 62
7
  6
CONTINUOUS
 10
63.7058062367
 20
90.4963385182
 40
0.0116879921
100
AcDbArc
 50
26.236076059
 51
153.763923941
  0
ARC
  5
5CC
100
AcDbEntity
  8
3_AXES_OTHER
100
AcDbCircle
 62
7
  6
CONTINUOUS
 10
63.63495155
 20
90.4554305458
 40
0.0116879921
100
AcDbArc
 50
86.236076059
 51
213.763923941
  0
ARC
  5
5CD
100
AcDbEntity
  8
3_AXES_OTHER
100
AcDbCircle
 62
7
  6
CONTINUOUS
 10
63.63495155
 20
90.3736146009
 40
0.0116879921
100
AcDbArc
 50
146.236076059
 51
273.763923941
  0
ARC
  5
5CE
100
AcDbEntity
  8
7_ALL_ROUNDS
100
AcDbCircle
 62
7
  6
CONTINUOUS
 10
68.8836530753
 20
110.2237490484
 40
0.25
100
AcDbArc
 50
0.0
 51
90.0
  0
ARC
  5
5CF
100
AcDbEntity
  8
7_ALL_ROUNDS
100
AcDbCircle
 62
7
  6
CONTINUOUS
 10
125.0286061697
 20
62.6837490484
 40
0.25
100
AcDbArc
 50
180.0
 51
270.0
  0
ARC
  5
5D0
100
AcDbEntity
  8
CTRLS
100
AcDbCircle
 62
7
  6
CONTINUOUS
 10
127.9036061697
 20
61.8387490484
 40
0.125
100
AcDbArc
 50
270.0
 51
360.0
  0
ARC
  5
5D1
100
AcDbEntity
  8
CTRLS
100
AcDbCircle
 62
7
  6
CONTINUOUS
 10
126.6536061697
 20
61.8387490484
 40
0.125
100
AcDbArc
 50
180.0
 51
270.0
  0
ARC
  5
5D2
100
AcDbEntity
  8
7_ALL_ROUNDS
100
AcDbCircle
 62
7
  6
CONTINUOUS
 10
125.0286061697
 20
110.2237490484
 40
0.25
100
AcDbArc
 50
90.0
 51
180.0
  0
ARC
  5
5D3
100
AcDbEntity
  8
7_ALL_ROUNDS
100
AcDbCircle
 62
7
  6
CONTINUOUS
 10
148.5386061697
 20
62.6837490484
 40
0.25
100
AcDbArc
 50
270.0
 51
360.0
  0
ARC
  5
5D4
100
AcDbEntity
  8
CTRLS
100
AcDbCircle
 62
7
  6
CONTINUOUS
 10
146.9036061697
 20
61.8387490484
 40
0.125
100
AcDbArc
 50
270.0
 51
360.0
  0
ARC
  5
5D5
100
AcDbEntity
  8
CTRLS
100
AcDbCircle
 62
7
  6
CONTINUOUS
 10
145.6536061697
 20
61.8387490484
 40
0.125
100
AcDbArc
 50
180.0
 51
270.0
  0
ARC
  5
5D6
100
AcDbEntity
  8
7_ALL_ROUNDS
100
AcDbCircle
 62
7
  6
CONTINUOUS
 10
139.9036061697
 20
87.5637490484
 40
0.19
100
AcDbArc
 50
180.0
 51
270.0
  0
ARC
  5
5D7
100
AcDbEntity
  8
3_ALL_AXES
100
AcDbCircle
 62
7
  6
CONTINUOUS
 10
140.6261061697
 20
88.3062490484
 40
0.1875
100
AcDbArc
 50
180.0
 51
270.0
  0
ARC
  5
5D8
100
AcDbEntity
  8
3_ALL_AXES
100
AcDbCircle
 62
7
  6
CONTINUOUS
 10
139.9356061697
 20
87.6157490484
 40
0.187
100
AcDbArc
 50
180.0
 51
270.0
  0
CIRCLE
  5
5D9
100
AcDbEntity
  8
3_AXES_OTHER
100
AcDbCircle
 62
7
  6
CONTINUOUS
 10
139.9286061697
 20
89.3437490484
 40
0.1395
  0
CIRCLE
  5
5DA
100
AcDbEntity
  8
02___PRT_ALL_AXES
100
AcDbCircle
 62
7
  6
CONTINUOUS
 10
139.9286061697
 20
89.3437490484
 40
0.1395
  0
CIRCLE
  5
5DB
100
AcDbEntity
  8
3_AXES_OTHER
100
AcDbCircle
 62
7
  6
CONTINUOUS
 10
141.2386061697
 20
87.6112490484
 40
0.1395
  0
CIRCLE
  5
5DC
100
AcDbEntity
  8
02___PRT_ALL_AXES
100
AcDbCircle
 62
7
  6
CONTINUOUS
 10
141.2386061697
 20
87.6112490484
 40
0.1395
  0
ARC
  5
5DD
100
AcDbEntity
  8
7_ALL_ROUNDS
100
AcDbCircle
 62
7
  6
CONTINUOUS
 10
141.3636061697
 20
89.7437490484
 40
0.125
100
AcDbArc
 50
90.0
 51
180.0
  0
ARC
  5
5DE
100
AcDbEntity
  8
7_ALL_ROUNDS
100
AcDbCircle
 62
7
  6
CONTINUOUS
 10
141.3636061697
 20
88.7437490484
 40
0.125
100
AcDbArc
 50
180.0
 51
270.0
  0
CIRCLE
  5
5DF
100
AcDbEntity
  8
3_AXES_OTHER
100
AcDbCircle
 62
7
  6
CONTINUOUS
 10
139.9286061697
 20
92.5037490484
 40
0.1395
  0
CIRCLE
  5
5E0
100
AcDbEntity
  8
02___PRT_ALL_AXES
100
AcDbCircle
 62
7
  6
CONTINUOUS
 10
139.9286061697
 20
92.5037490484
 40
0.1395
  0
ARC
  5
5E1
100
AcDbEntity
  8
7_ALL_ROUNDS
100
AcDbCircle
 62
7
  6
CONTINUOUS
 10
139.9036061697
 20
94.2837490484
 40
0.19
100
AcDbArc
 50
90.0
 51
180.0
  0
ARC
  5
5E2
100
AcDbEntity
  8
3_ALL_AXES
100
AcDbCircle
 62
7
  6
CONTINUOUS
 10
140.6261061697
 20
93.5412490484
 40
0.1875
100
AcDbArc
 50
90.0
 51
180.0
  0
ARC
  5
5E3
100
AcDbEntity
  8
3_ALL_AXES
100
AcDbCircle
 62
7
  6
CONTINUOUS
 10
139.9356061697
 20
94.2317490484
 40
0.187
100
AcDbArc
 50
90.0
 51
180.0
  0
CIRCLE
  5
5E4
100
AcDbEntity
  8
3_ALL_AXES
100
AcDbCircle
 62
7
  6
CONTINUOUS
 10
141.4571061697
 20
92.4687490484
 40
0.135
  0
CIRCLE
  5
5E5
100
AcDbEntity
  8
3_ALL_AXES
100
AcDbCircle
 62
7
  6
CONTINUOUS
 10
140.9571061697
 20
92.4687490484
 40
0.0835
  0
CIRCLE
  5
5E6
100
AcDbEntity
  8
3_AXES_OTHER
100
AcDbCircle
 62
7
  6
CONTINUOUS
 10
141.2386061697
 20
94.2362490484
 40
0.1395
  0
CIRCLE
  5
5E7
100
AcDbEntity
  8
02___PRT_ALL_AXES
100
AcDbCircle
 62
7
  6
CONTINUOUS
 10
141.2386061697
 20
94.2362490484
 40
0.1395
  0
ARC
  5
5E8
100
AcDbEntity
  8
3_ALL_AXES
100
AcDbCircle
 62
7
  6
CONTINUOUS
 10
142.5486061697
 20
90.4187490484
 40
0.27
100
AcDbArc
 50
90.0
 51
270.0
  0
ARC
  5
5E9
100
AcDbEntity
  8
3_ALL_AXES
100
AcDbCircle
 62
7
  6
CONTINUOUS
 10
142.1986061697
 20
90.4187490484
 40
0.27
100
AcDbArc
 50
90.0
 51
270.0
  0
ARC
  5
5EA
100
AcDbEntity
  8
3_ALL_AXES
100
AcDbCircle
 62
7
  6
CONTINUOUS
 10
142.5486061697
 20
90.4187490484
 40
0.2
100
AcDbArc
 50
90.0
 51
169.9213418922
  0
ARC
  5
5EB
100
AcDbEntity
  8
3_ALL_AXES
100
AcDbCircle
 62
7
  6
CONTINUOUS
 10
142.5486061697
 20
90.4187490484
 40
0.2
100
AcDbArc
 50
190.0786581078
 51
270.0
  0
ARC
  5
5EC
100
AcDbEntity
  8
3_ALL_AXES
100
AcDbCircle
 62
7
  6
CONTINUOUS
 10
142.1986061697
 20
90.4187490484
 40
0.2
100
AcDbArc
 50
90.0
 51
270.0
  0
ARC
  5
5ED
100
AcDbEntity
  8
3_ALL_AXES
100
AcDbCircle
 62
7
  6
CONTINUOUS
 10
141.9886061697
 20
90.6437490484
 40
0.125
100
AcDbArc
 50
90.0
 51
180.0
  0
ARC
  5
5EE
100
AcDbEntity
  8
3_ALL_AXES
100
AcDbCircle
 62
7
  6
CONTINUOUS
 10
142.4886061697
 20
90.6437490484
 40
0.125
100
AcDbArc
 50
0.0
 51
90.0
  0
ARC
  5
5EF
100
AcDbEntity
  8
3_ALL_AXES
100
AcDbCircle
 62
7
  6
CONTINUOUS
 10
142.4886061697
 20
90.1937490484
 40
0.125
100
AcDbArc
 50
270.0
 51
360.0
  0
ARC
  5
5F0
100
AcDbEntity
  8
3_ALL_AXES
100
AcDbCircle
 62
7
  6
CONTINUOUS
 10
141.9886061697
 20
90.1937490484
 40
0.125
100
AcDbArc
 50
180.0
 51
270.0
  0
CIRCLE
  5
5F1
100
AcDbEntity
  8
3_AXES_OTHER
100
AcDbCircle
 62
7
  6
CONTINUOUS
 10
143.2386061697
 20
87.6112490484
 40
0.1395
  0
CIRCLE
  5
5F2
100
AcDbEntity
  8
02___PRT_ALL_AXES
100
AcDbCircle
 62
7
  6
CONTINUOUS
 10
143.2386061697
 20
87.6112490484
 40
0.1395
  0
ARC
  5
5F3
100
AcDbEntity
  8
7_ALL_ROUNDS
100
AcDbCircle
 62
7
  6
CONTINUOUS
 10
143.1136061697
 20
88.7437490484
 40
0.125
100
AcDbArc
 50
270.0
 51
360.0
  0
ARC
  5
5F4
100
AcDbEntity
  8
3_ALL_AXES
100
AcDbCircle
 62
7
  6
CONTINUOUS
 10
143.8511061697
 20
88.3062490484
 40
0.1875
100
AcDbArc
 50
270.0
 51
360.0
  0
ARC
  5
5F5
100
AcDbEntity
  8
7_ALL_ROUNDS
100
AcDbCircle
 62
7
  6
CONTINUOUS
 10
143.1136061697
 20
89.7437490484
 40
0.125
100
AcDbArc
 50
0.0
 51
90.0
  0
CIRCLE
  5
5F6
100
AcDbEntity
  8
3_ALL_AXES
100
AcDbCircle
 62
7
  6
CONTINUOUS
 10
141.9733561697
 20
92.4687490484
 40
0.135
  0
CIRCLE
  5
5F7
100
AcDbEntity
  8
3_ALL_AXES
100
AcDbCircle
 62
7
  6
CONTINUOUS
 10
142.5058561697
 20
92.4687490484
 40
0.135
  0
CIRCLE
  5
5F8
100
AcDbEntity
  8
3_ALL_AXES
100
AcDbCircle
 62
7
  6
CONTINUOUS
 10
143.0221061697
 20
92.4687490484
 40
0.135
  0
CIRCLE
  5
5F9
100
AcDbEntity
  8
3_ALL_AXES
100
AcDbCircle
 62
7
  6
CONTINUOUS
 10
143.5221061697
 20
92.4687490484
 40
0.0835
  0
CIRCLE
  5
5FA
100
AcDbEntity
  8
3_AXES_OTHER
100
AcDbCircle
 62
7
  6
CONTINUOUS
 10
143.2386061697
 20
94.2362490484
 40
0.1395
  0
CIRCLE
  5
5FB
100
AcDbEntity
  8
02___PRT_ALL_AXES
100
AcDbCircle
 62
7
  6
CONTINUOUS
 10
143.2386061697
 20
94.2362490484
 40
0.1395
  0
ARC
  5
5FC
100
AcDbEntity
  8
3_ALL_AXES
100
AcDbCircle
 62
7
  6
CONTINUOUS
 10
143.8511061697
 20
93.5412490484
 40
0.1875
100
AcDbArc
 50
0.0
 51
90.0
  0
ARC
  5
5FD
100
AcDbEntity
  8
3_ALL_AXES
100
AcDbCircle
 62
7
  6
CONTINUOUS
 10
144.5416061697
 20
87.6157490484
 40
0.187
100
AcDbArc
 50
270.0
 51
360.0
  0
CIRCLE
  5
5FE
100
AcDbEntity
  8
3_AXES_OTHER
100
AcDbCircle
 62
7
  6
CONTINUOUS
 10
144.5486061697
 20
89.3437490484
 40
0.1395
  0
CIRCLE
  5
5FF
100
AcDbEntity
  8
02___PRT_ALL_AXES
100
AcDbCircle
 62
7
  6
CONTINUOUS
 10
144.5486061697
 20
89.3437490484
 40
0.1395
  0
ARC
  5
600
100
AcDbEntity
  8
3_ALL_AXES
100
AcDbCircle
 62
7
  6
CONTINUOUS
 10
144.5416061697
 20
94.2317490484
 40
0.187
100
AcDbArc
 50
0.0
 51
90.0
  0
CIRCLE
  5
601
100
AcDbEntity
  8
3_AXES_OTHER
100
AcDbCircle
 62
7
  6
CONTINUOUS
 10
144.5486061697
 20
92.5037490484
 40
0.1395
  0
CIRCLE
  5
602
100
AcDbEntity
  8
02___PRT_ALL_AXES
100
AcDbCircle
 62
7
  6
CONTINUOUS
 10
144.5486061697
 20
92.5037490484
 40
0.1395
  0
ARC
  5
603
100
AcDbEntity
  8
7_ALL_ROUNDS
100
AcDbCircle
 62
7
  6
CONTINUOUS
 10
144.5736061697
 20
87.5637490484
 40
0.19
100
AcDbArc
 50
270.0
 51
360.0
  0
ARC
  5
604
100
AcDbEntity
  8
7_ALL_ROUNDS
100
AcDbCircle
 62
7
  6
CONTINUOUS
 10
144.5736061697
 20
94.2837490484
 40
0.19
100
AcDbArc
 50
0.0
 51
90.0
  0
ARC
  5
605
100
AcDbEntity
  8
7_ALL_ROUNDS
100
AcDbCircle
 62
7
  6
CONTINUOUS
 10
148.5386061697
 20
110.2237490484
 40
0.25
100
AcDbArc
 50
0.0
 51
90.0
  0
CIRCLE
  5
606
100
AcDbEntity
  8
0
100
AcDbCircle
 62
7
  6
CONTINUOUS
 10
41.1336530753
 20
134.76887533
 40
0.8724737127
  0
CIRCLE
  5
607
100
AcDbEntity
  8
0
100
AcDbCircle
 62
7
  6
CONTINUOUS
 10
41.1336530753
 20
134.76887533
 40
0.8125
  0
ARC
  5
608
100
AcDbEntity
  8
7_ALL_ROUNDS
100
AcDbCircle
 62
7
  6
CONTINUOUS
 10
39.4036530753
 20
132.51887533
 40
0.25
100
AcDbArc
 50
180.0
 51
270.0
  0
CIRCLE
  5
609
100
AcDbEntity
  8
0
100
AcDbCircle
 62
7
  6
CONTINUOUS
 10
41.1336530753
 20
150.01887533
 40
0.8724737127
  0
CIRCLE
  5
60A
100
AcDbEntity
  8
0
100
AcDbCircle
 62
7
  6
CONTINUOUS
 10
41.1336530753
 20
153.76887533
 40
0.8724737127
  0
CIRCLE
  5
60B
100
AcDbEntity
  8
0
100
AcDbCircle
 62
7
  6
CONTINUOUS
 10
41.1336530753
 20
153.76887533
 40
0.8125
  0
CIRCLE
  5
60C
100
AcDbEntity
  8
0
100
AcDbCircle
 62
7
  6
CONTINUOUS
 10
41.1336530753
 20
150.01887533
 40
0.8125
  0
ARC
  5
60D
100
AcDbEntity
  8
7_ALL_ROUNDS
100
AcDbCircle
 62
7
  6
CONTINUOUS
 10
39.4036530753
 20
156.02887533
 40
0.25
100
AcDbArc
 50
90.0
 51
180.0
  0
CIRCLE
  5
60E
100
AcDbEntity
  8
0
100
AcDbCircle
 62
7
  6
CONTINUOUS
 10
67.1336530753
 20
134.76887533
 40
0.8724737127
  0
CIRCLE
  5
60F
100
AcDbEntity
  8
0
100
AcDbCircle
 62
7
  6
CONTINUOUS
 10
67.1336530753
 20
134.76887533
 40
0.8125
  0
ARC
  5
610
100
AcDbEntity
  8
7_ALL_ROUNDS
100
AcDbCircle
 62
7
  6
CONTINUOUS
 10
68.8836530753
 20
132.51887533
 40
0.25
100
AcDbArc
 50
270.0
 51
360.0
  0
CIRCLE
  5
611
100
AcDbEntity
  8
0
100
AcDbCircle
 62
7
  6
CONTINUOUS
 10
67.1336530753
 20
150.01887533
 40
0.8724737127
  0
CIRCLE
  5
612
100
AcDbEntity
  8
0
100
AcDbCircle
 62
7
  6
CONTINUOUS
 10
67.1336530753
 20
153.76887533
 40
0.8724737127
  0
CIRCLE
  5
613
100
AcDbEntity
  8
0
100
AcDbCircle
 62
7
  6
CONTINUOUS
 10
67.1336530753
 20
153.76887533
 40
0.8125
  0
CIRCLE
  5
614
100
AcDbEntity
  8
0
100
AcDbCircle
 62
7
  6
CONTINUOUS
 10
67.1336530753
 20
150.01887533
 40
0.8125
  0
ARC
  5
615
100
AcDbEntity
  8
7_ALL_ROUNDS
100
AcDbCircle
 62
7
  6
CONTINUOUS
 10
68.8836530753
 20
156.02887533
 40
0.25
100
AcDbArc
 50
0.0
 51
90.0
  0
ENDSEC
  0
SECTION
  2
OBJECTS
  0
DICTIONARY
  5
C
100
AcDbDictionary
280
0
281
1
  3
ACAD_GROUP
350
D
  3
ACAD_MLINESTYLE
350
17
  3
ACAD_LAYOUT
350
1A
  3
ACAD_PLOTSETTINGS
350
19
  3
ACAD_PLOTSTYLENAME
350
E
  0
DICTIONARY
  5
D
102
{ACAD_REACTORS
330
C
102
}
100
AcDbDictionary
280
0
281
1
  0
ACDBDICTIONARYWDFLT
  5
E
102
{ACAD_REACTORS
330
C
102
}
100
AcDbDictionary
281
1
  3
Normal
350
F
100
AcDbDictionaryWithDefault
340
F
  0
DICTIONARY
  5
17
102
{ACAD_REACTORS
330
C
102
}
100
AcDbDictionary
280
0
281
1
  3
Standard
350
18
  0
DICTIONARY
  5
19
102
{ACAD_REACTORS
330
C
102
}
100
AcDbDictionary
281
1
  0
DICTIONARY
  5
1A
102
{ACAD_REACTORS
330
C
102
}
100
AcDbDictionary
281
1
  3
Model
350
616
  3
Layout1
350
617
  0
ACDBPLACEHOLDER
  5
F
102
{ACAD_REACTORS
330
E
102
}
  0
MLINESTYLE
  5
18
102
{ACAD_REACTORS
330
17
102
}
100
AcDbMlineStyle
  2
STANDARD
 70
0
  3

 62
256
 51
90.0
 52
90.0
 71
2
 49
0.5
 62
256
  6
BYLAYER
 49
-0.5
 62
256
  6
BYLAYER
  0
LAYOUT
  5
616
102
{ACAD_REACTORS
330
1A
102
}
100
AcDbPlotSettings
  1

  2
none_device
  4
ANSI_B_(17.00_x_11.00_Inches)
  6

 40
0.0
 41
0.0
 42
0.0
 43
0.0
 44
431.8
 45
279.4
 46
0.0
 47
0.0
 48
0.0
 49
0.0
140
0.0
141
0.0
142
1.0
143
1.0
 70
1024
 72
0
 73
0
 74
0
  7

 75
0
147
1.0
148
0.0
149
0.0
100
AcDbLayout
  1
Model
 70
0
 71
0
 10
0.0
 20
0.0
 11
17.0
 21
11.0
 12
0.0
 22
0.0
 32
0.0
 14
0.0
 24
0.0
 34
0.0
 15
0.0
 25
0.0
 35
0.0
146
0.0
 13
0.0
 23
0.0
 33
0.0
 16
1.0
 26
0.0
 36
0.0
 17
0.0
 27
1.0
 37
0.0
 76
0
330
22D
345
0
346
0
  0
LAYOUT
  5
617
102
{ACAD_REACTORS
330
1A
102
}
100
AcDbPlotSettings
  1

  2
none_device
  4
ANSI_B_(17.00_x_11.00_Inches)
  6

 40
0.0
 41
0.0
 42
0.0
 43
0.0
 44
431.8
 45
279.4
 46
0.0
 47
0.0
 48
0.0
 49
0.0
140
0.0
141
0.0
142
1.0
143
1.0
 70
0
 72
0
 73
0
 74
0
  7

 75
0
147
1.0
148
0.0
149
0.0
100
AcDbLayout
  1
Layout1
 70
0
 71
1
 10
0.0
 20
0.0
 11
17.0
 21
11.0
 12
0.0
 22
0.0
 32
0.0
 14
0.0
 24
0.0
 34
0.0
 15
0.0
 25
0.0
 35
0.0
146
0.0
 13
0.0
 23
0.0
 33
0.0
 16
1.0
 26
0.0
 36
0.0
 17
0.0
 27
1.0
 37
0.0
 76
0
330
22E
345
0
346
0
  0
ENDSEC
  0
EOF
