999
DXF file: D:\Agile attachment\ECO-113244\FG-901595-2D-A.dxf
999
Pro/ENGINEER 2022014 by Parametric Technology Corporation
  0
SECTION
  2
HEADER
  9
$ACADVER
  1
AC1015
  9
$DWGCODEPAGE
  3
ANSI_1252
  9
$EXTMAX
 10
1727.2
 20
1117.6
 30
0.0
  9
$EXTMIN
 10
0.0
 20
0.0
 30
0.0
  9
$LIMMIN
 10
0.0
 20
0.0
  9
$LIMMAX
 10
1727.2
 20
1117.6
  9
$VIEWCTR
 10
863.6
 20
558.8
  9
$VIEWSIZE
 40
1117.6
  9
$CLAYER
  8
0
  9
$LTSCALE
 40
94.996
  9
$CELTYPE
  6
BYLAYER
  9
$DIMSCALE
 40
1.0
  9
$DIMASZ
 40
8.0
  9
$DIMEXO
 40
1.5875
  9
$DIMDLI
 40
65.6336
  9
$DIMEXE
 40
3.175
  9
$DIMCEN
 40
15.5448
  9
$DIMLFAC
 40
1.0
  9
$DIMBLK
  1
_FILLED
  9
$DIMALT
 70
1
  9
$DIMALTD
 70
1
  9
$DIMALTTD
 70
2
  9
$DIMALTF
 40
0.0393700787
  9
$DIMTXT
 40
9.144
  9
$DIMTOL
 70
1
  9
$DIMLIM
 70
0
  9
$DIMTFAC
 40
1.0
  9
$DIMTP
 40
0.02
  9
$DIMTM
 40
0.02
  9
$DIMGAP
 40
0.625
  9
$DIMDSEP
 70
46
  9
$AUNITS
 70
0
  9
$PDMODE
 70
3
  9
$PDSIZE
 40
7.9375
  9
$HANDSEED
  5
4A6
  9
$TILEMODE
 70
1
  9
$MEASUREMENT
 70
1
  9
$INSUNITS
 70
4
  0
ENDSEC
  0
SECTION
  2
CLASSES
  0
CLASS
  1
ACDBDICTIONARYWDFLT
  2
AcDbDictionaryWithDefault
  3
AutoCAD 2000
 90
0
280
0
281
0
  0
CLASS
  1
ACDBPLACEHOLDER
  2
AcDbPlaceHolder
  3
AutoCAD 2000
 90
0
280
0
281
0
  0
CLASS
  1
LAYOUT
  2
AcDbLayout
  3
AutoCAD 2000
 90
0
280
0
281
0
  0
ENDSEC
  0
SECTION
  2
TABLES
  0
TABLE
  2
VPORT
  5
8
100
AcDbSymbolTable
 70
2
  0
VPORT
  5
1F4
100
AcDbSymbolTableRecord
100
AcDbViewportTableRecord
  2
*ACTIVE
 70
0
 10
0.0
 20
0.0
 11
1.0
 21
1.0
 12
863.6
 22
558.8
 13
0.0
 23
0.0
 14
1.0
 24
1.0
 15
0.0
 25
0.0
 16
0.0
 26
0.0
 36
1.0
 17
0.0
 27
0.0
 37
0.0
 40
1117.6
 41
1.5454545455
 42
50.0
 43
0.0
 44
0.0
 50
0.0
 51
0.0
 71
0
 72
100
 73
1
 74
1
 75
0
 76
0
 77
0
 78
0
  0
ENDTAB
  0
TABLE
  2
LTYPE
  5
5
100
AcDbSymbolTable
 70
6
  0
LTYPE
  5
14
100
AcDbSymbolTableRecord
100
AcDbLinetypeTableRecord
  2
BYBLOCK
 70
0
  3

 72
65
 73
0
 40
0.0
  0
LTYPE
  5
15
100
AcDbSymbolTableRecord
100
AcDbLinetypeTableRecord
  2
BYLAYER
 70
0
  3

 72
65
 73
0
 40
0.0
  0
LTYPE
  5
16
100
AcDbSymbolTableRecord
100
AcDbLinetypeTableRecord
  2
CONTINUOUS
 70
64
  3
Solid line
 72
65
 73
0
 40
0.0
  0
LTYPE
  5
1F5
100
AcDbSymbolTableRecord
100
AcDbLinetypeTableRecord
  2
CENTER
 70
64
  3
____ _ ____ _ ____ _ ____ _ ____ _ ____ _ ____
 72
65
 73
4
 40
0.6
 49
0.375
 74
0
 49
-0.075
 74
0
 49
0.075
 74
0
 49
-0.075
 74
0
  0
LTYPE
  5
1F6
100
AcDbSymbolTableRecord
100
AcDbLinetypeTableRecord
  2
HIDDEN
 70
64
  3
- - - - - - - - - - - - - - - - - - - -
 72
65
 73
2
 40
0.2
 49
0.1
 74
0
 49
-0.1
 74
0
  0
LTYPE
  5
1F7
100
AcDbSymbolTableRecord
100
AcDbLinetypeTableRecord
  2
PHANTOM
 70
64
  3
_____ _ _ _____ _ _ _____ _ _ _____
 72
65
 73
6
 40
0.8
 49
0.45
 74
0
 49
-0.05
 74
0
 49
0.1
 74
0
 49
-0.05
 74
0
 49
0.1
 74
0
 49
-0.05
 74
0
  0
LTYPE
  5
1F8
100
AcDbSymbolTableRecord
100
AcDbLinetypeTableRecord
  2
DOT
 70
64
  3
. . . . . . . . . . . . . . . . . . . .
 72
65
 73
2
 40
0.2
 49
0.1
 74
0
 49
-0.1
 74
0
  0
LTYPE
  5
1F9
100
AcDbSymbolTableRecord
100
AcDbLinetypeTableRecord
  2
DASHED
 70
64
  3
- - - - - - - - - - - - - - - - - - - -
 72
65
 73
2
 40
0.2
 49
0.1
 74
0
 49
-0.1
 74
0
  0
ENDTAB
  0
TABLE
  2
LAYER
  5
2
100
AcDbSymbolTable
 70
36
  0
LAYER
  5
10
100
AcDbSymbolTableRecord
100
AcDbLayerTableRecord
  2
0
 70
0
 62
7
  6
CONTINUOUS
370
-3
390
F
  0
LAYER
  5
1FA
100
AcDbSymbolTableRecord
100
AcDbLayerTableRecord
  2
DEFAULT_1
 70
0
 62
7
  6
CENTER
370
-3
390
F
  0
LAYER
  5
1FB
100
AcDbSymbolTableRecord
100
AcDbLayerTableRecord
  2
DEFAULT_2
 70
0
 62
8
  6
HIDDEN
370
-3
390
F
  0
LAYER
  5
1FC
100
AcDbSymbolTableRecord
100
AcDbLayerTableRecord
  2
DEFAULT_3
 70
0
 62
7
  6
PHANTOM
370
-3
390
F
  0
LAYER
  5
1FD
100
AcDbSymbolTableRecord
100
AcDbLayerTableRecord
  2
1_ALL_PLANES
 70
0
 62
7
  6
CONTINUOUS
370
-3
390
F
  0
LAYER
  5
1FE
100
AcDbSymbolTableRecord
100
AcDbLayerTableRecord
  2
1_DEF_PLANES
 70
0
 62
7
  6
CONTINUOUS
370
-3
390
F
  0
LAYER
  5
1FF
100
AcDbSymbolTableRecord
100
AcDbLayerTableRecord
  2
2_ALL_CSYS
 70
0
 62
7
  6
CONTINUOUS
370
-3
390
F
  0
LAYER
  5
200
100
AcDbSymbolTableRecord
100
AcDbLayerTableRecord
  2
2_DEF_CSYS
 70
0
 62
7
  6
CONTINUOUS
370
-3
390
F
  0
LAYER
  5
201
100
AcDbSymbolTableRecord
100
AcDbLayerTableRecord
  2
3_ALL_AXES
 70
0
 62
7
  6
CONTINUOUS
370
-3
390
F
  0
LAYER
  5
202
100
AcDbSymbolTableRecord
100
AcDbLayerTableRecord
  2
3_AXES_OTHER
 70
0
 62
7
  6
CONTINUOUS
370
-3
390
F
  0
LAYER
  5
203
100
AcDbSymbolTableRecord
100
AcDbLayerTableRecord
  2
3_HOLES
 70
0
 62
7
  6
CONTINUOUS
370
-3
390
F
  0
LAYER
  5
204
100
AcDbSymbolTableRecord
100
AcDbLayerTableRecord
  2
4_ALL_POINTS
 70
0
 62
7
  6
CONTINUOUS
370
-3
390
F
  0
LAYER
  5
205
100
AcDbSymbolTableRecord
100
AcDbLayerTableRecord
  2
5_ALL_CURVES
 70
0
 62
7
  6
CONTINUOUS
370
-3
390
F
  0
LAYER
  5
206
100
AcDbSymbolTableRecord
100
AcDbLayerTableRecord
  2
6_ALL_SURFS
 70
0
 62
7
  6
CONTINUOUS
370
-3
390
F
  0
LAYER
  5
207
100
AcDbSymbolTableRecord
100
AcDbLayerTableRecord
  2
6_COPYGEOM
 70
0
 62
7
  6
CONTINUOUS
370
-3
390
F
  0
LAYER
  5
208
100
AcDbSymbolTableRecord
100
AcDbLayerTableRecord
  2
7_ALL_ROUNDS
 70
0
 62
7
  6
CONTINUOUS
370
-3
390
F
  0
LAYER
  5
209
100
AcDbSymbolTableRecord
100
AcDbLayerTableRecord
  2
7_MERGES
 70
0
 62
7
  6
CONTINUOUS
370
-3
390
F
  0
LAYER
  5
20A
100
AcDbSymbolTableRecord
100
AcDbLayerTableRecord
  2
8_GDT
 70
0
 62
7
  6
CONTINUOUS
370
-3
390
F
  0
LAYER
  5
20B
100
AcDbSymbolTableRecord
100
AcDbLayerTableRecord
  2
8_SET_DATUMS
 70
0
 62
7
  6
CONTINUOUS
370
-3
390
F
  0
LAYER
  5
20C
100
AcDbSymbolTableRecord
100
AcDbLayerTableRecord
  2
9_COSMETICS
 70
0
 62
7
  6
CONTINUOUS
370
-3
390
F
  0
LAYER
  5
20D
100
AcDbSymbolTableRecord
100
AcDbLayerTableRecord
  2
9_THREADS
 70
0
 62
7
  6
CONTINUOUS
370
-3
390
F
  0
ENDTAB
  0
TABLE
  2
STYLE
  5
3
100
AcDbSymbolTable
 70
1
  0
STYLE
  5
11
100
AcDbSymbolTableRecord
100
AcDbTextStyleTableRecord
  2
STANDARD
 70
0
 40
0.0
 41
1.0
 50
0.0
 71
0
 42
0.2
  3
gothic.ttf
  4

1001
ACAD
1000
Century Gothic
1071
34
  0
STYLE
  5
20E
100
AcDbSymbolTableRecord
100
AcDbTextStyleTableRecord
  2
TEXTSTYLE_1
 70
0
 40
0.0
 41
0.8
 50
0.0
 71
0
 42
0.2
  3
gdt
  4

  0
STYLE
  5
20F
100
AcDbSymbolTableRecord
100
AcDbTextStyleTableRecord
  2
TEXTSTYLE_2
 70
0
 40
0.0
 41
1.0
 50
0.0
 71
0
 42
0.2
  3
gothic.ttf
  4

1001
ACAD
1000
Century Gothic
1071
34
  0
STYLE
  5
210
100
AcDbSymbolTableRecord
100
AcDbTextStyleTableRecord
  2
TEXTSTYLE_3
 70
0
 40
0.0
 41
1.0
 50
0.0
 71
0
 42
0.2
  3
ar_wgl_b.ttf
  4

1001
ACAD
1000
Arial WGL
1071
33554466
  0
STYLE
  5
211
100
AcDbSymbolTableRecord
100
AcDbTextStyleTableRecord
  2
TEXTSTYLE_4
 70
0
 40
0.0
 41
1.0
 50
0.0
 71
0
 42
0.2
  3
gdt
  4

  0
ENDTAB
  0
TABLE
  2
VIEW
  5
6
100
AcDbSymbolTable
 70
0
  0
ENDTAB
  0
TABLE
  2
UCS
  5
7
100
AcDbSymbolTable
 70
0
  0
ENDTAB
  0
TABLE
  2
APPID
  5
9
100
AcDbSymbolTable
 70
1
  0
APPID
  5
212
100
AcDbSymbolTableRecord
100
AcDbRegAppTableRecord
  2
ACAD
 70
0
  0
ENDTAB
  0
TABLE
  2
BLOCK_RECORD
  5
1
100
AcDbSymbolTable
 70
0
  0
BLOCK_RECORD
  5
213
100
AcDbSymbolTableRecord
100
AcDbBlockTableRecord
  2
*Model_Space
  0
BLOCK_RECORD
  5
214
100
AcDbSymbolTableRecord
100
AcDbBlockTableRecord
  2
*Paper_Space
  0
BLOCK_RECORD
  5
215
100
AcDbSymbolTableRecord
100
AcDbBlockTableRecord
  2
_FILLED
  0
BLOCK_RECORD
  5
216
100
AcDbSymbolTableRecord
100
AcDbBlockTableRecord
  2
*D0
  0
BLOCK_RECORD
  5
217
100
AcDbSymbolTableRecord
100
AcDbBlockTableRecord
  2
*D1
  0
BLOCK_RECORD
  5
218
100
AcDbSymbolTableRecord
100
AcDbBlockTableRecord
  2
*D2
  0
BLOCK_RECORD
  5
219
100
AcDbSymbolTableRecord
100
AcDbBlockTableRecord
  2
*D3
  0
BLOCK_RECORD
  5
21A
100
AcDbSymbolTableRecord
100
AcDbBlockTableRecord
  2
*D4
  0
BLOCK_RECORD
  5
21B
100
AcDbSymbolTableRecord
100
AcDbBlockTableRecord
  2
*D5
  0
BLOCK_RECORD
  5
21C
100
AcDbSymbolTableRecord
100
AcDbBlockTableRecord
  2
*D6
  0
BLOCK_RECORD
  5
21D
100
AcDbSymbolTableRecord
100
AcDbBlockTableRecord
  2
*D7
  0
BLOCK_RECORD
  5
21E
100
AcDbSymbolTableRecord
100
AcDbBlockTableRecord
  2
*D8
  0
BLOCK_RECORD
  5
21F
100
AcDbSymbolTableRecord
100
AcDbBlockTableRecord
  2
*D9
  0
BLOCK_RECORD
  5
220
100
AcDbSymbolTableRecord
100
AcDbBlockTableRecord
  2
*D10
  0
BLOCK_RECORD
  5
221
100
AcDbSymbolTableRecord
100
AcDbBlockTableRecord
  2
*D11
  0
BLOCK_RECORD
  5
222
100
AcDbSymbolTableRecord
100
AcDbBlockTableRecord
  2
*D12
  0
BLOCK_RECORD
  5
223
100
AcDbSymbolTableRecord
100
AcDbBlockTableRecord
  2
*D13
  0
BLOCK_RECORD
  5
224
100
AcDbSymbolTableRecord
100
AcDbBlockTableRecord
  2
*D14
  0
BLOCK_RECORD
  5
225
100
AcDbSymbolTableRecord
100
AcDbBlockTableRecord
  2
CG_3D_BL2
  0
BLOCK_RECORD
  5
226
100
AcDbSymbolTableRecord
100
AcDbBlockTableRecord
  2
CG_3D_BL1
  0
BLOCK_RECORD
  5
227
100
AcDbSymbolTableRecord
100
AcDbBlockTableRecord
  2
CG_3D_BL0
  0
ENDTAB
  0
TABLE
  2
DIMSTYLE
  5
A
100
AcDbSymbolTable
 70
1
100
AcDbDimStyleTable
 71
0
  0
DIMSTYLE
105
228
100
AcDbSymbolTableRecord
100
AcDbDimStyleTableRecord
  2
STANDARD
 70
0
  3

  4

 40
1.0
 41
8.0
 42
1.5875
 43
0.38
 44
3.175
 45
0.0
 46
0.0
 47
0.02
 48
0.02
140
9.144
141
0.09
142
0.0
143
0.0393700787
144
1.0
145
0.0
146
1.0
147
0.625
 71
1
 72
0
 73
1
 74
1
 75
0
 76
0
 77
0
 78
4
 79
1
170
1
171
1
172
0
173
0
174
0
175
0
176
0
177
0
178
0
270
2
179
2
271
2
272
2
273
2
274
2
275
0
280
0
281
0
282
0
283
1
284
4
285
0
286
0
287
3
288
0
340
11
278
46
341
215
342
215
343
215
344
215
  0
DIMSTYLE
105
229
100
AcDbSymbolTableRecord
100
AcDbDimStyleTableRecord
  2
DIMSTYLE_1
 70
0
  3

  4

 40
1.0
 41
8.0
 42
1.5875
 43
0.38
 44
3.175
 45
0.0
 46
0.0
 47
0.02
 48
0.02
140
9.144
141
0.09
142
0.0
143
0.0393700787
144
1.0
145
0.0
146
1.0
147
1.143
 71
0
 72
0
 73
1
 74
1
 75
0
 76
0
 77
0
 78
4
 79
1
170
1
171
2
172
0
173
0
174
0
175
0
176
0
177
0
178
0
270
2
179
2
271
1
272
1
273
2
274
2
275
0
280
0
281
0
282
0
283
1
284
4
285
0
286
0
287
3
288
0
340
11
278
46
341
215
342
215
343
215
344
215
  0
DIMSTYLE
105
22A
100
AcDbSymbolTableRecord
100
AcDbDimStyleTableRecord
  2
DIMSTYLE_2
 70
0
  3
<>
  4

 40
1.0
 41
8.0
 42
1.5875
 43
0.38
 44
3.175
 45
0.0
 46
0.0
 47
0.02
 48
0.02
140
9.144
141
0.09
142
0.0
143
0.0393700787
144
1.0
145
0.0
146
1.0
147
0.625
 71
0
 72
0
 73
1
 74
1
 75
0
 76
0
 77
0
 78
4
 79
1
170
1
171
2
172
0
173
0
174
0
175
0
176
0
177
0
178
0
270
2
179
2
271
1
272
1
273
2
274
2
275
0
280
0
281
0
282
0
283
1
284
4
285
0
286
0
287
3
288
1
340
11
278
46
289
1
341
215
342
215
343
215
344
215
  0
ENDTAB
  0
ENDSEC
  0
SECTION
  2
BLOCKS
  0
BLOCK
  5
20
100
AcDbEntity
  8
0
100
AcDbBlockBegin
  2
*Model_Space
 70
0
 10
0.0
 20
0.0
 30
0.0
  3
*Model_Space
  1

  0
ENDBLK
  5
21
100
AcDbEntity
  8
0
100
AcDbBlockEnd
  0
BLOCK
  5
1C
100
AcDbEntity
  8
0
100
AcDbBlockBegin
  2
*Paper_Space
 70
0
 10
0.0
 20
0.0
 30
0.0
  3
*Paper_Space
  1

  0
ENDBLK
  5
1D
100
AcDbEntity
  8
0
100
AcDbBlockEnd
  0
BLOCK
  5
22B
100
AcDbEntity
  8
0
100
AcDbBlockBegin
 62
2
  6
CONTINUOUS
  2
CG_3D_BL2
 70
64
 10
579.3474017582
 20
792.8940615542
  3
CG_3D_BL2
  1

  0
ARC
  5
22C
100
AcDbEntity
  8
0
100
AcDbCircle
 62
7
  6
CONTINUOUS
 10
579.3474017582
 20
792.8940615542
 40
8.0
100
AcDbArc
 50
90.0
 51
180.0
  0
ARC
  5
22D
100
AcDbEntity
  8
0
100
AcDbCircle
 62
7
  6
CONTINUOUS
 10
579.3474017582
 20
792.8940615542
 40
8.0
100
AcDbArc
 50
180.0
 51
270.0
  0
ARC
  5
22E
100
AcDbEntity
  8
0
100
AcDbCircle
 62
7
  6
CONTINUOUS
 10
579.3474017582
 20
792.8940615542
 40
8.0
100
AcDbArc
 50
270.0
 51
360.0
  0
ARC
  5
22F
100
AcDbEntity
  8
0
100
AcDbCircle
 62
7
  6
CONTINUOUS
 10
579.3474017582
 20
792.8940615542
 40
8.0
100
AcDbArc
 50
0.0
 51
90.0
  0
LINE
  5
230
100
AcDbEntity
  8
0
100
AcDbLine
 62
7
  6
CONTINUOUS
 10
579.3474017582
 20
792.8940615542
 11
587.3474017582
 21
792.8940615542
  0
LINE
  5
231
100
AcDbEntity
  8
0
100
AcDbLine
 62
7
  6
CONTINUOUS
 10
579.3474017582
 20
792.8940615542
 11
579.3474017582
 21
784.8940615542
  0
LINE
  5
232
100
AcDbEntity
  8
0
100
AcDbLine
 62
7
  6
CONTINUOUS
 10
571.3474017582
 20
792.8940615542
 11
579.3474017582
 21
792.8940615542
  0
LINE
  5
233
100
AcDbEntity
  8
0
100
AcDbLine
 62
7
  6
CONTINUOUS
 10
579.3474017582
 20
800.8940615542
 11
579.3474017582
 21
792.8940615542
  0
LINE
  5
234
100
AcDbEntity
  8
0
100
AcDbLine
 62
2
  6
CONTINUOUS
 10
579.3474017582
 20
792.8413362793
 11
579.4001270331
 21
792.8940615542
  0
LWPOLYLINE
  5
235
100
AcDbEntity
  8
0
100
AcDbPolyline
 62
7
  6
CONTINUOUS
 90
8
 70
0
 10
579.3474017582
 20
792.8940615542
 10
579.3474017582
 20
784.8940615542
 10
581.8195377132
 20
785.2856094239
 10
584.0496837765
 20
786.4219255992
 10
585.8195377132
 20
788.1917795359
 10
586.9558538885
 20
790.4219255992
 10
587.3474017582
 20
792.8940615542
 10
579.3474017582
 20
792.8940615542
  0
HATCH
  5
236
100
AcDbEntity
  8
0
100
AcDbHatch
 62
7
  6
CONTINUOUS
 10
0.0
 20
0.0
 30
0.0
210
0.0
220
0.0
230
1.0
  2
SOLID
 70
1
 71
1
 91
1
 92
1
 93
7
 72
1
 10
579.3474017582
 20
792.8940615542
 11
579.3474017582
 21
784.8940615542
 72
1
 10
579.3474017582
 20
784.8940615542
 11
581.8195377132
 21
785.2856094239
 72
1
 10
581.8195377132
 20
785.2856094239
 11
584.0496837765
 21
786.4219255992
 72
1
 10
584.0496837765
 20
786.4219255992
 11
585.8195377132
 21
788.1917795359
 72
1
 10
585.8195377132
 20
788.1917795359
 11
586.9558538885
 21
790.4219255992
 72
1
 10
586.9558538885
 20
790.4219255992
 11
587.3474017582
 21
792.8940615542
 72
1
 10
587.3474017582
 20
792.8940615542
 11
579.3474017582
 21
792.8940615542
 97
1
330
235
 75
0
 76
1
 98
1
 10
0.0
 20
0.0
  0
LWPOLYLINE
  5
237
100
AcDbEntity
  8
0
100
AcDbPolyline
 62
7
  6
CONTINUOUS
 90
8
 70
0
 10
579.3474017582
 20
792.8940615542
 10
571.3474017582
 20
792.8940615542
 10
571.7389496278
 20
795.3661975092
 10
572.8752658032
 20
797.5963435726
 10
574.6451197398
 20
799.3661975092
 10
576.8752658032
 20
800.5025136846
 10
579.3474017582
 20
800.8940615542
 10
579.3474017582
 20
792.8940615542
  0
HATCH
  5
238
100
AcDbEntity
  8
0
100
AcDbHatch
 62
7
  6
CONTINUOUS
 10
0.0
 20
0.0
 30
0.0
210
0.0
220
0.0
230
1.0
  2
SOLID
 70
1
 71
1
 91
1
 92
1
 93
7
 72
1
 10
579.3474017582
 20
792.8940615542
 11
571.3474017582
 21
792.8940615542
 72
1
 10
571.3474017582
 20
792.8940615542
 11
571.7389496278
 21
795.3661975092
 72
1
 10
571.7389496278
 20
795.3661975092
 11
572.8752658032
 21
797.5963435726
 72
1
 10
572.8752658032
 20
797.5963435726
 11
574.6451197398
 21
799.3661975092
 72
1
 10
574.6451197398
 20
799.3661975092
 11
576.8752658032
 21
800.5025136846
 72
1
 10
576.8752658032
 20
800.5025136846
 11
579.3474017582
 21
800.8940615542
 72
1
 10
579.3474017582
 20
800.8940615542
 11
579.3474017582
 21
792.8940615542
 97
1
330
237
 75
0
 76
1
 98
1
 10
0.0
 20
0.0
  0
ENDBLK
  5
239
100
AcDbEntity
  8
0
  6
BYBLOCK
 62
0
100
AcDbBlockEnd
  0
BLOCK
  5
23A
100
AcDbEntity
  8
0
100
AcDbBlockBegin
 62
2
  6
CONTINUOUS
  2
CG_3D_BL1
 70
64
 10
579.4380962887
 20
556.9642699898
  3
CG_3D_BL1
  1

  0
ARC
  5
23B
100
AcDbEntity
  8
0
100
AcDbCircle
 62
7
  6
CONTINUOUS
 10
579.4380962887
 20
556.9642699898
 40
8.0
100
AcDbArc
 50
90.0
 51
180.0
  0
ARC
  5
23C
100
AcDbEntity
  8
0
100
AcDbCircle
 62
7
  6
CONTINUOUS
 10
579.4380962887
 20
556.9642699898
 40
8.0
100
AcDbArc
 50
180.0
 51
270.0
  0
ARC
  5
23D
100
AcDbEntity
  8
0
100
AcDbCircle
 62
7
  6
CONTINUOUS
 10
579.4380962887
 20
556.9642699898
 40
8.0
100
AcDbArc
 50
270.0
 51
360.0
  0
ARC
  5
23E
100
AcDbEntity
  8
0
100
AcDbCircle
 62
7
  6
CONTINUOUS
 10
579.4380962887
 20
556.9642699898
 40
8.0
100
AcDbArc
 50
0.0
 51
90.0
  0
LINE
  5
23F
100
AcDbEntity
  8
0
100
AcDbLine
 62
7
  6
CONTINUOUS
 10
579.4380962887
 20
556.9642699898
 11
587.4380962887
 21
556.9642699898
  0
LINE
  5
240
100
AcDbEntity
  8
0
100
AcDbLine
 62
7
  6
CONTINUOUS
 10
579.4380962887
 20
556.9642699898
 11
579.4380962887
 21
548.9642699898
  0
LINE
  5
241
100
AcDbEntity
  8
0
100
AcDbLine
 62
7
  6
CONTINUOUS
 10
571.4380962887
 20
556.9642699898
 11
579.4380962887
 21
556.9642699898
  0
LINE
  5
242
100
AcDbEntity
  8
0
100
AcDbLine
 62
7
  6
CONTINUOUS
 10
579.4380962887
 20
564.9642699898
 11
579.4380962887
 21
556.9642699898
  0
LINE
  5
243
100
AcDbEntity
  8
0
100
AcDbLine
 62
2
  6
CONTINUOUS
 10
579.4380962887
 20
556.9115447149
 11
579.4908215636
 21
556.9642699898
  0
LWPOLYLINE
  5
244
100
AcDbEntity
  8
0
100
AcDbPolyline
 62
7
  6
CONTINUOUS
 90
8
 70
0
 10
579.4380962887
 20
556.9642699898
 10
579.4380962887
 20
548.9642699898
 10
581.9102322437
 20
549.3558178595
 10
584.1403783071
 20
550.4921340348
 10
585.9102322437
 20
552.2619879715
 10
587.0465484191
 20
554.4921340348
 10
587.4380962887
 20
556.9642699898
 10
579.4380962887
 20
556.9642699898
  0
HATCH
  5
245
100
AcDbEntity
  8
0
100
AcDbHatch
 62
7
  6
CONTINUOUS
 10
0.0
 20
0.0
 30
0.0
210
0.0
220
0.0
230
1.0
  2
SOLID
 70
1
 71
1
 91
1
 92
1
 93
7
 72
1
 10
579.4380962887
 20
556.9642699898
 11
579.4380962887
 21
548.9642699898
 72
1
 10
579.4380962887
 20
548.9642699898
 11
581.9102322437
 21
549.3558178595
 72
1
 10
581.9102322437
 20
549.3558178595
 11
584.1403783071
 21
550.4921340348
 72
1
 10
584.1403783071
 20
550.4921340348
 11
585.9102322437
 21
552.2619879715
 72
1
 10
585.9102322437
 20
552.2619879715
 11
587.0465484191
 21
554.4921340348
 72
1
 10
587.0465484191
 20
554.4921340348
 11
587.4380962887
 21
556.9642699898
 72
1
 10
587.4380962887
 20
556.9642699898
 11
579.4380962887
 21
556.9642699898
 97
1
330
244
 75
0
 76
1
 98
1
 10
0.0
 20
0.0
  0
LWPOLYLINE
  5
246
100
AcDbEntity
  8
0
100
AcDbPolyline
 62
7
  6
CONTINUOUS
 90
8
 70
0
 10
579.4380962887
 20
556.9642699898
 10
571.4380962887
 20
556.9642699898
 10
571.8296441584
 20
559.4364059448
 10
572.9659603337
 20
561.6665520082
 10
574.7358142704
 20
563.4364059448
 10
576.9659603337
 20
564.5727221202
 10
579.4380962887
 20
564.9642699898
 10
579.4380962887
 20
556.9642699898
  0
HATCH
  5
247
100
AcDbEntity
  8
0
100
AcDbHatch
 62
7
  6
CONTINUOUS
 10
0.0
 20
0.0
 30
0.0
210
0.0
220
0.0
230
1.0
  2
SOLID
 70
1
 71
1
 91
1
 92
1
 93
7
 72
1
 10
579.4380962887
 20
556.9642699898
 11
571.4380962887
 21
556.9642699898
 72
1
 10
571.4380962887
 20
556.9642699898
 11
571.8296441584
 21
559.4364059448
 72
1
 10
571.8296441584
 20
559.4364059448
 11
572.9659603337
 21
561.6665520082
 72
1
 10
572.9659603337
 20
561.6665520082
 11
574.7358142704
 21
563.4364059448
 72
1
 10
574.7358142704
 20
563.4364059448
 11
576.9659603337
 21
564.5727221202
 72
1
 10
576.9659603337
 20
564.5727221202
 11
579.4380962887
 21
564.9642699898
 72
1
 10
579.4380962887
 20
564.9642699898
 11
579.4380962887
 21
556.9642699898
 97
1
330
246
 75
0
 76
1
 98
1
 10
0.0
 20
0.0
  0
ENDBLK
  5
248
100
AcDbEntity
  8
0
  6
BYBLOCK
 62
0
100
AcDbBlockEnd
  0
BLOCK
  5
249
100
AcDbEntity
  8
0
100
AcDbBlockBegin
 62
2
  6
CONTINUOUS
  2
CG_3D_BL0
 70
64
 10
127.8205524934
 20
1011.7298938611
  3
CG_3D_BL0
  1

  0
ARC
  5
24A
100
AcDbEntity
  8
0
100
AcDbCircle
 62
7
  6
CONTINUOUS
 10
127.8205524934
 20
1011.7298938611
 40
6.5
100
AcDbArc
 50
90.0
 51
180.0
  0
ARC
  5
24B
100
AcDbEntity
  8
0
100
AcDbCircle
 62
7
  6
CONTINUOUS
 10
127.8205524934
 20
1011.7298938611
 40
6.5
100
AcDbArc
 50
180.0
 51
270.0
  0
ARC
  5
24C
100
AcDbEntity
  8
0
100
AcDbCircle
 62
7
  6
CONTINUOUS
 10
127.8205524934
 20
1011.7298938611
 40
6.5
100
AcDbArc
 50
270.0
 51
360.0
  0
ARC
  5
24D
100
AcDbEntity
  8
0
100
AcDbCircle
 62
7
  6
CONTINUOUS
 10
127.8205524934
 20
1011.7298938611
 40
6.5
100
AcDbArc
 50
0.0
 51
90.0
  0
LINE
  5
24E
100
AcDbEntity
  8
0
100
AcDbLine
 62
7
  6
CONTINUOUS
 10
127.8205524934
 20
1011.7298938611
 11
134.3205524934
 21
1011.7298938611
  0
LINE
  5
24F
100
AcDbEntity
  8
0
100
AcDbLine
 62
7
  6
CONTINUOUS
 10
127.8205524934
 20
1011.7298938611
 11
127.8205524934
 21
1005.2298938611
  0
LINE
  5
250
100
AcDbEntity
  8
0
100
AcDbLine
 62
7
  6
CONTINUOUS
 10
121.3205524934
 20
1011.7298938611
 11
127.8205524934
 21
1011.7298938611
  0
LINE
  5
251
100
AcDbEntity
  8
0
100
AcDbLine
 62
7
  6
CONTINUOUS
 10
127.8205524934
 20
1018.2298938611
 11
127.8205524934
 21
1011.7298938611
  0
LINE
  5
252
100
AcDbEntity
  8
0
100
AcDbLine
 62
2
  6
CONTINUOUS
 10
127.8205524934
 20
1011.6870545753
 11
127.8633917793
 21
1011.7298938611
  0
LWPOLYLINE
  5
253
100
AcDbEntity
  8
0
100
AcDbPolyline
 62
7
  6
CONTINUOUS
 90
8
 70
0
 10
127.8205524934
 20
1011.7298938611
 10
127.8205524934
 20
1005.2298938611
 10
129.8291629568
 20
1005.5480265052
 10
131.6411566333
 20
1006.4712833977
 10
133.0791629568
 20
1007.9092897212
 10
134.0024198493
 20
1009.7212833977
 10
134.3205524934
 20
1011.7298938611
 10
127.8205524934
 20
1011.7298938611
  0
HATCH
  5
254
100
AcDbEntity
  8
0
100
AcDbHatch
 62
7
  6
CONTINUOUS
 10
0.0
 20
0.0
 30
0.0
210
0.0
220
0.0
230
1.0
  2
SOLID
 70
1
 71
1
 91
1
 92
1
 93
7
 72
1
 10
127.8205524934
 20
1011.7298938611
 11
127.8205524934
 21
1005.2298938611
 72
1
 10
127.8205524934
 20
1005.2298938611
 11
129.8291629568
 21
1005.5480265052
 72
1
 10
129.8291629568
 20
1005.5480265052
 11
131.6411566333
 21
1006.4712833977
 72
1
 10
131.6411566333
 20
1006.4712833977
 11
133.0791629568
 21
1007.9092897212
 72
1
 10
133.0791629568
 20
1007.9092897212
 11
134.0024198493
 21
1009.7212833977
 72
1
 10
134.0024198493
 20
1009.7212833977
 11
134.3205524934
 21
1011.7298938611
 72
1
 10
134.3205524934
 20
1011.7298938611
 11
127.8205524934
 21
1011.7298938611
 97
1
330
253
 75
0
 76
1
 98
1
 10
0.0
 20
0.0
  0
LWPOLYLINE
  5
255
100
AcDbEntity
  8
0
100
AcDbPolyline
 62
7
  6
CONTINUOUS
 90
8
 70
0
 10
127.8205524934
 20
1011.7298938611
 10
121.3205524934
 20
1011.7298938611
 10
121.6386851375
 20
1013.7385043246
 10
122.56194203
 20
1015.550498001
 10
123.9999483535
 20
1016.9885043246
 10
125.81194203
 20
1017.9117612171
 10
127.8205524934
 20
1018.2298938611
 10
127.8205524934
 20
1011.7298938611
  0
HATCH
  5
256
100
AcDbEntity
  8
0
100
AcDbHatch
 62
7
  6
CONTINUOUS
 10
0.0
 20
0.0
 30
0.0
210
0.0
220
0.0
230
1.0
  2
SOLID
 70
1
 71
1
 91
1
 92
1
 93
7
 72
1
 10
127.8205524934
 20
1011.7298938611
 11
121.3205524934
 21
1011.7298938611
 72
1
 10
121.3205524934
 20
1011.7298938611
 11
121.6386851375
 21
1013.7385043246
 72
1
 10
121.6386851375
 20
1013.7385043246
 11
122.56194203
 21
1015.550498001
 72
1
 10
122.56194203
 20
1015.550498001
 11
123.9999483535
 21
1016.9885043246
 72
1
 10
123.9999483535
 20
1016.9885043246
 11
125.81194203
 21
1017.9117612171
 72
1
 10
125.81194203
 20
1017.9117612171
 11
127.8205524934
 21
1018.2298938611
 72
1
 10
127.8205524934
 20
1018.2298938611
 11
127.8205524934
 21
1011.7298938611
 97
1
330
255
 75
0
 76
1
 98
1
 10
0.0
 20
0.0
  0
ENDBLK
  5
257
100
AcDbEntity
  8
0
  6
BYBLOCK
 62
0
100
AcDbBlockEnd
  0
BLOCK
  5
258
100
AcDbEntity
  8
0
100
AcDbBlockBegin
  2
_FILLED
 70
64
 10
0.0
 20
0.0
  3
_FILLED
  1

  0
SOLID
  5
259
100
AcDbEntity
  8
0
  6
BYBLOCK
 62
0
100
AcDbTrace
 10
0.0
 20
0.0
 11
-1.0
 21
0.1275
 12
-1.0
 22
-0.1275
 13
-1.0
 23
-0.1275
  0
ENDBLK
  5
25A
100
AcDbEntity
  8
0
  6
BYBLOCK
 62
0
100
AcDbBlockEnd
  0
BLOCK
  5
25B
100
AcDbEntity
  8
0
100
AcDbBlockBegin
 62
2
  6
CONTINUOUS
  2
*D0
 70
65
 10
0.0
 20
0.0
  3
*D0
  1

  0
MTEXT
  5
25C
100
AcDbEntity
  8
0
100
AcDbMText
 62
2
  6
CONTINUOUS
  7
STANDARD
 71
2
 72
1
 10
457.8958243762
 20
721.4583118226
 30
0.0
 11
1.0
 21
0.0
 31
0.0
 73
2
 44
0.9
  1
237,5\P[9.35]
 40
9.144
 41
33.7206245353
  0
LINE
  5
25D
100
AcDbEntity
  8
0
100
AcDbLine
 62
2
  6
CONTINUOUS
 10
579.4029891304
 20
776.3033968943
 11
579.4029891304
 21
704.1863118226
  0
LINE
  5
25E
100
AcDbEntity
  8
0
100
AcDbLine
 62
2
  6
CONTINUOUS
 10
341.9029891304
 20
760.5069238989
 11
341.9029891304
 21
704.1863118226
  0
LINE
  5
25F
100
AcDbEntity
  8
0
100
AcDbLine
 62
2
  6
CONTINUOUS
 10
579.4029891304
 20
716.8863118226
 11
480.2799284654
 21
716.8863118226
  0
LINE
  5
260
100
AcDbEntity
  8
0
100
AcDbLine
 62
2
  6
CONTINUOUS
 10
341.9029891304
 20
716.8863118226
 11
437.4153039301
 21
716.8863118226
  0
INSERT
  5
261
100
AcDbEntity
  8
0
100
AcDbBlockReference
 62
2
  6
CONTINUOUS
  2
_FILLED
 10
579.4029891304
 20
716.8863118226
 41
8.0
 42
8.0
 43
8.0
  0
INSERT
  5
262
100
AcDbEntity
  8
0
100
AcDbBlockReference
 62
2
  6
CONTINUOUS
  2
_FILLED
 10
341.9029891304
 20
716.8863118226
 41
8.0
 42
8.0
 43
8.0
 50
180.0
  0
ENDBLK
  5
263
100
AcDbEntity
  8
0
  6
BYBLOCK
 62
0
100
AcDbBlockEnd
  0
BLOCK
  5
264
100
AcDbEntity
  8
0
100
AcDbBlockBegin
 62
2
  6
CONTINUOUS
  2
*D1
 70
65
 10
0.0
 20
0.0
  3
*D1
  1

  0
MTEXT
  5
265
100
AcDbEntity
  8
0
100
AcDbMText
 62
2
  6
CONTINUOUS
  7
STANDARD
 71
2
 72
1
 10
296.8591255548
 20
746.0801300348
 30
0.0
 11
1.0
 21
0.0
 31
0.0
 73
2
 44
0.9
  1
31,0\P[1.22]
 40
9.144
 41
33.7206245353
  0
LINE
  5
266
100
AcDbEntity
  8
0
100
AcDbLine
 62
2
  6
CONTINUOUS
 10
562.8928891304
 20
792.8134968943
 11
288.6461441421
 21
792.8134968943
  0
LINE
  5
267
100
AcDbEntity
  8
0
100
AcDbLine
 62
2
  6
CONTINUOUS
 10
340.5529891304
 20
761.8569238989
 11
288.6461441421
 21
761.8569238989
  0
LINE
  5
268
100
AcDbEntity
  8
0
100
AcDbLine
 62
2
  6
CONTINUOUS
 10
301.3461441421
 20
792.8134968943
 11
301.3461441421
 21
777.3352103966
  0
LINE
  5
269
100
AcDbEntity
  8
0
100
AcDbLine
 62
2
  6
CONTINUOUS
 10
301.3461441421
 20
761.8569238989
 11
301.3461441421
 21
777.3352103966
  0
LINE
  5
26A
100
AcDbEntity
  8
0
100
AcDbLine
 62
2
  6
CONTINUOUS
 10
301.3461441421
 20
777.3352103966
 11
301.3461441421
 21
750.6521300348
  0
INSERT
  5
26B
100
AcDbEntity
  8
0
100
AcDbBlockReference
 62
2
  6
CONTINUOUS
  2
_FILLED
 10
301.3461441421
 20
792.8134968943
 41
8.0
 42
8.0
 43
8.0
 50
90.0
  0
INSERT
  5
26C
100
AcDbEntity
  8
0
100
AcDbBlockReference
 62
2
  6
CONTINUOUS
  2
_FILLED
 10
301.3461441421
 20
761.8569238989
 41
8.0
 42
8.0
 43
8.0
 50
270.0
  0
ENDBLK
  5
26D
100
AcDbEntity
  8
0
  6
BYBLOCK
 62
0
100
AcDbBlockEnd
  0
BLOCK
  5
26E
100
AcDbEntity
  8
0
100
AcDbBlockBegin
 62
2
  6
CONTINUOUS
  2
*D2
 70
65
 10
0.0
 20
0.0
  3
*D2
  1

  0
MTEXT
  5
26F
100
AcDbEntity
  8
0
100
AcDbMText
 62
2
  6
CONTINUOUS
  7
STANDARD
 71
2
 72
1
 10
311.9342734231
 20
523.4116603881
 30
0.0
 11
1.0
 21
0.0
 31
0.0
 73
2
 44
0.9
  1
12,6\P[.50]
 40
9.144
 41
26.6501710037
  0
LINE
  5
270
100
AcDbEntity
  8
0
100
AcDbLine
 62
2
  6
CONTINUOUS
 10
335.5529891304
 20
544.3228458721
 11
300.1860652447
 21
544.3228458721
  0
LINE
  5
271
100
AcDbEntity
  8
0
100
AcDbLine
 62
2
  6
CONTINUOUS
 10
569.0083230722
 20
556.9530749228
 11
300.1860652447
 21
556.9530749228
  0
LINE
  5
272
100
AcDbEntity
  8
0
100
AcDbLine
 62
2
  6
CONTINUOUS
 10
312.8860652447
 20
544.3228458721
 11
312.8860652447
 21
527.9836603881
  0
LINE
  5
273
100
AcDbEntity
  8
0
100
AcDbLine
 62
2
  6
CONTINUOUS
 10
312.8860652447
 20
556.9530749228
 11
312.8860652447
 21
572.9530749228
  0
INSERT
  5
274
100
AcDbEntity
  8
0
100
AcDbBlockReference
 62
2
  6
CONTINUOUS
  2
_FILLED
 10
312.8860652447
 20
544.3228458721
 41
8.0
 42
8.0
 43
8.0
 50
90.0
  0
INSERT
  5
275
100
AcDbEntity
  8
0
100
AcDbBlockReference
 62
2
  6
CONTINUOUS
  2
_FILLED
 10
312.8860652447
 20
556.9530749228
 41
8.0
 42
8.0
 43
8.0
 50
270.0
  0
ENDBLK
  5
276
100
AcDbEntity
  8
0
  6
BYBLOCK
 62
0
100
AcDbBlockEnd
  0
BLOCK
  5
277
100
AcDbEntity
  8
0
100
AcDbBlockBegin
 62
2
  6
CONTINUOUS
  2
*D3
 70
65
 10
0.0
 20
0.0
  3
*D3
  1

  0
MTEXT
  5
278
100
AcDbEntity
  8
0
100
AcDbMText
 62
2
  6
CONTINUOUS
  7
STANDARD
 71
1
 72
1
 10
1110.3401959069
 20
895.9691113856
 30
0.0
 11
1.0
 21
0.0
 31
0.0
 73
2
 44
0.9
  1
50,0{\ftxt;\W0.0001;\H0.0001;\~}{\ftxt;\W0.9814126394;\H9.144; }2X\P[1.97]
 40
9.144
 41
48.5413828996
  0
LINE
  5
279
100
AcDbEntity
  8
0
100
AcDbLine
 62
2
  6
CONTINUOUS
 10
1085.8670997801
 20
844.0039575996
 11
1085.8670997801
 21
904.0971113856
  0
LINE
  5
27A
100
AcDbEntity
  8
0
100
AcDbLine
 62
2
  6
CONTINUOUS
 10
1035.8670997801
 20
858.3670238989
 11
1035.8670997801
 21
904.0971113856
  0
LINE
  5
27B
100
AcDbEntity
  8
0
100
AcDbLine
 62
2
  6
CONTINUOUS
 10
1085.8670997801
 20
891.3971113856
 11
1105.7681959069
 21
891.3971113856
  0
LINE
  5
27C
100
AcDbEntity
  8
0
100
AcDbLine
 62
2
  6
CONTINUOUS
 10
1035.8670997801
 20
891.3971113856
 11
1019.8670997801
 21
891.3971113856
  0
INSERT
  5
27D
100
AcDbEntity
  8
0
100
AcDbBlockReference
 62
2
  6
CONTINUOUS
  2
_FILLED
 10
1085.8670997801
 20
891.3971113856
 41
8.0
 42
8.0
 43
8.0
 50
180.0
  0
INSERT
  5
27E
100
AcDbEntity
  8
0
100
AcDbBlockReference
 62
2
  6
CONTINUOUS
  2
_FILLED
 10
1035.8670997801
 20
891.3971113856
 41
8.0
 42
8.0
 43
8.0
  0
ENDBLK
  5
27F
100
AcDbEntity
  8
0
  6
BYBLOCK
 62
0
100
AcDbBlockEnd
  0
BLOCK
  5
280
100
AcDbEntity
  8
0
100
AcDbBlockBegin
 62
2
  6
CONTINUOUS
  2
*D4
 70
65
 10
0.0
 20
0.0
  3
*D4
  1

  0
MTEXT
  5
281
100
AcDbEntity
  8
0
100
AcDbMText
 62
2
  6
CONTINUOUS
  7
STANDARD
 71
2
 72
1
 10
1126.3482859699
 20
815.428408256
 30
0.0
 11
1.0
 21
0.0
 31
0.0
 73
2
 44
0.9
  1
80,0{\ftxt;\W0.0001;\H0.0001;\~}{\ftxt;\W0.9814126394;\H9.144; }2X\P[3.15]
 40
9.144
 41
48.5413828996
  0
LINE
  5
282
100
AcDbEntity
  8
0
100
AcDbLine
 62
2
  6
CONTINUOUS
 10
1092.2170997801
 20
761.8569238989
 11
1139.0482859699
 21
761.8569238989
  0
LINE
  5
283
100
AcDbEntity
  8
0
100
AcDbLine
 62
2
  6
CONTINUOUS
 10
1052.3771997801
 20
841.8569238989
 11
1139.0482859699
 21
841.8569238989
  0
LINE
  5
284
100
AcDbEntity
  8
0
100
AcDbLine
 62
2
  6
CONTINUOUS
 10
1126.3482859699
 20
761.8569238989
 11
1126.3482859699
 21
785.514986377
  0
LINE
  5
285
100
AcDbEntity
  8
0
100
AcDbLine
 62
2
  6
CONTINUOUS
 10
1126.3482859699
 20
841.8569238989
 11
1126.3482859699
 21
820.000408256
  0
INSERT
  5
286
100
AcDbEntity
  8
0
100
AcDbBlockReference
 62
2
  6
CONTINUOUS
  2
_FILLED
 10
1126.3482859699
 20
761.8569238989
 41
8.0
 42
8.0
 43
8.0
 50
270.0
  0
INSERT
  5
287
100
AcDbEntity
  8
0
100
AcDbBlockReference
 62
2
  6
CONTINUOUS
  2
_FILLED
 10
1126.3482859699
 20
841.8569238989
 41
8.0
 42
8.0
 43
8.0
 50
90.0
  0
ENDBLK
  5
288
100
AcDbEntity
  8
0
  6
BYBLOCK
 62
0
100
AcDbBlockEnd
  0
BLOCK
  5
289
100
AcDbEntity
  8
0
100
AcDbBlockBegin
 62
2
  6
CONTINUOUS
  2
*D5
 70
65
 10
0.0
 20
0.0
  3
*D5
  1

  0
MTEXT
  5
28A
100
AcDbEntity
  8
0
100
AcDbMText
 62
2
  6
CONTINUOUS
  7
STANDARD
 71
1
 72
1
 10
1105.5877941695
 20
745.142887823
 30
0.0
 11
1.0
 21
0.0
 31
0.0
 73
2
 44
0.9
  1
22,0\P[.87]
 40
9.144
 41
26.6501710037
  0
LINE
  5
28B
100
AcDbEntity
  8
0
100
AcDbLine
 62
2
  6
CONTINUOUS
 10
1085.8670997801
 20
755.5069238989
 11
1085.8670997801
 21
727.870887823
  0
LINE
  5
28C
100
AcDbEntity
  8
0
100
AcDbLine
 62
2
  6
CONTINUOUS
 10
1063.8670997801
 20
760.5069238989
 11
1063.8670997801
 21
727.870887823
  0
LINE
  5
28D
100
AcDbEntity
  8
0
100
AcDbLine
 62
2
  6
CONTINUOUS
 10
1085.8670997801
 20
740.570887823
 11
1074.8670997801
 21
740.570887823
  0
LINE
  5
28E
100
AcDbEntity
  8
0
100
AcDbLine
 62
2
  6
CONTINUOUS
 10
1074.8670997801
 20
740.570887823
 11
1101.0157941695
 21
740.570887823
  0
LINE
  5
28F
100
AcDbEntity
  8
0
100
AcDbLine
 62
2
  6
CONTINUOUS
 10
1063.8670997801
 20
740.570887823
 11
1074.8670997801
 21
740.570887823
  0
INSERT
  5
290
100
AcDbEntity
  8
0
100
AcDbBlockReference
 62
2
  6
CONTINUOUS
  2
_FILLED
 10
1085.8670997801
 20
740.570887823
 41
8.0
 42
8.0
 43
8.0
  0
INSERT
  5
291
100
AcDbEntity
  8
0
100
AcDbBlockReference
 62
2
  6
CONTINUOUS
  2
_FILLED
 10
1063.8670997801
 20
740.570887823
 41
8.0
 42
8.0
 43
8.0
 50
180.0
  0
ENDBLK
  5
292
100
AcDbEntity
  8
0
  6
BYBLOCK
 62
0
100
AcDbBlockEnd
  0
BLOCK
  5
293
100
AcDbEntity
  8
0
100
AcDbBlockBegin
 62
2
  6
CONTINUOUS
  2
*D6
 70
65
 10
0.0
 20
0.0
  3
*D6
  1

  0
MTEXT
  5
294
100
AcDbEntity
  8
0
100
AcDbMText
 62
2
  6
CONTINUOUS
  7
TEXTSTYLE_4
 71
3
 72
1
 10
990.6425403794
 20
865.2035632957
 30
0.0
 11
1.0
 21
0.0
 31
0.0
 73
2
 44
0.9
  1
{\fgdt;n}\fCentury Gothic;{\W0.8;8,3}{\W0.8;{\ftxt;\W0.0001;\H0.0001;\~}{\ftxt;\W0.9814126394;\H9.144; }2X}\P{\W0.8;[}{\W0.8;.33}{\W0.8;]}
 40
9.144
 41
53.662929368
  0
LINE
  5
295
100
AcDbEntity
  8
0
100
AcDbLine
 62
2
  6
CONTINUOUS
 10
1032.8539012502
 20
844.7105417113
 11
1016.0425403794
 21
860.6315632957
  0
LINE
  5
296
100
AcDbEntity
  8
0
100
AcDbLine
 62
2
  6
CONTINUOUS
 10
1016.0425403794
 20
860.6315632957
 11
995.2145403794
 21
860.6315632957
  0
INSERT
  5
297
100
AcDbEntity
  8
0
100
AcDbBlockReference
 62
2
  6
CONTINUOUS
  2
_FILLED
 10
1032.8539012502
 20
844.7105417113
 41
8.0
 42
8.0
 43
8.0
 50
316.5580933703
  0
ENDBLK
  5
298
100
AcDbEntity
  8
0
  6
BYBLOCK
 62
0
100
AcDbBlockEnd
  0
BLOCK
  5
299
100
AcDbEntity
  8
0
100
AcDbBlockBegin
 62
2
  6
CONTINUOUS
  2
*D7
 70
65
 10
0.0
 20
0.0
  3
*D7
  1

  0
MTEXT
  5
29A
100
AcDbEntity
  8
0
100
AcDbMText
 62
2
  6
CONTINUOUS
  7
STANDARD
 71
2
 72
1
 10
1057.1995247172
 20
523.6139407967
 30
0.0
 11
1.0
 21
0.0
 31
0.0
 73
2
 44
0.9
  1
100,8{\ftxt;\W0.0001;\H0.0001;\~}{\ftxt;\W0.2081784387;\H9.144; } 2X\P[3.97]
 40
9.144
 41
52.0766096654
  0
LINE
  5
29B
100
AcDbEntity
  8
0
100
AcDbLine
 62
2
  6
CONTINUOUS
 10
1001.8273926489
 20
537.9728458721
 11
1001.8273926489
 21
506.3419407967
  0
LINE
  5
29C
100
AcDbEntity
  8
0
100
AcDbLine
 62
2
  6
CONTINUOUS
 10
1102.6244263496
 20
562.9728458721
 11
1102.6244263496
 21
506.3419407967
  0
LINE
  5
29D
100
AcDbEntity
  8
0
100
AcDbLine
 62
2
  6
CONTINUOUS
 10
1001.8273926489
 20
519.0419407967
 11
1026.5892198845
 21
519.0419407967
  0
LINE
  5
29E
100
AcDbEntity
  8
0
100
AcDbLine
 62
2
  6
CONTINUOUS
 10
1102.6244263496
 20
519.0419407967
 11
1087.8098295499
 21
519.0419407967
  0
INSERT
  5
29F
100
AcDbEntity
  8
0
100
AcDbBlockReference
 62
2
  6
CONTINUOUS
  2
_FILLED
 10
1001.8273926489
 20
519.0419407967
 41
8.0
 42
8.0
 43
8.0
 50
180.0
  0
INSERT
  5
2A0
100
AcDbEntity
  8
0
100
AcDbBlockReference
 62
2
  6
CONTINUOUS
  2
_FILLED
 10
1102.6244263496
 20
519.0419407967
 41
8.0
 42
8.0
 43
8.0
  0
ENDBLK
  5
2A1
100
AcDbEntity
  8
0
  6
BYBLOCK
 62
0
100
AcDbBlockEnd
  0
BLOCK
  5
2A2
100
AcDbEntity
  8
0
100
AcDbBlockBegin
 62
2
  6
CONTINUOUS
  2
*D8
 70
65
 10
0.0
 20
0.0
  3
*D8
  1

  0
MTEXT
  5
2A3
100
AcDbEntity
  8
0
100
AcDbMText
 62
2
  6
CONTINUOUS
  7
STANDARD
 71
2
 72
1
 10
965.6532596693
 20
587.6463010488
 30
0.0
 11
1.0
 21
0.0
 31
0.0
 73
2
 44
0.9
  1
62,5{\ftxt;\W0.0001;\H0.0001;\~}{\ftxt;\W0.9814126394;\H9.144; }2X\P[2.46]
 40
9.144
 41
48.5413828996
  0
LINE
  5
2A4
100
AcDbEntity
  8
0
100
AcDbLine
 62
2
  6
CONTINUOUS
 10
995.4773926489
 20
544.3228458721
 11
952.9532596693
 21
544.3228458721
  0
LINE
  5
2A5
100
AcDbEntity
  8
0
100
AcDbLine
 62
2
  6
CONTINUOUS
 10
1075.4773926489
 20
606.8228458721
 11
952.9532596693
 21
606.8228458721
  0
LINE
  5
2A6
100
AcDbEntity
  8
0
100
AcDbLine
 62
2
  6
CONTINUOUS
 10
965.6532596693
 20
544.3228458721
 11
965.6532596693
 21
557.7328434326
  0
LINE
  5
2A7
100
AcDbEntity
  8
0
100
AcDbLine
 62
2
  6
CONTINUOUS
 10
965.6532596693
 20
606.8228458721
 11
965.6532596693
 21
592.2183010488
  0
INSERT
  5
2A8
100
AcDbEntity
  8
0
100
AcDbBlockReference
 62
2
  6
CONTINUOUS
  2
_FILLED
 10
965.6532596693
 20
544.3228458721
 41
8.0
 42
8.0
 43
8.0
 50
270.0
  0
INSERT
  5
2A9
100
AcDbEntity
  8
0
100
AcDbBlockReference
 62
2
  6
CONTINUOUS
  2
_FILLED
 10
965.6532596693
 20
606.8228458721
 41
8.0
 42
8.0
 43
8.0
 50
90.0
  0
ENDBLK
  5
2AA
100
AcDbEntity
  8
0
  6
BYBLOCK
 62
0
100
AcDbBlockEnd
  0
BLOCK
  5
2AB
100
AcDbEntity
  8
0
100
AcDbBlockBegin
 62
2
  6
CONTINUOUS
  2
*D9
 70
65
 10
0.0
 20
0.0
  3
*D9
  1

  0
MTEXT
  5
2AC
100
AcDbEntity
  8
0
100
AcDbMText
 62
2
  6
CONTINUOUS
  7
STANDARD
 71
2
 72
1
 10
501.118501687
 20
391.2154470957
 30
0.0
 11
1.0
 21
0.0
 31
0.0
 73
2
 44
0.9
  1
152,5{\ftxt;\W0.0001;\H0.0001;\~}{\ftxt;\W0.2081784387;\H9.144; } 2X\P[6.00]
 40
9.144
 41
52.0766096654
  0
LINE
  5
2AD
100
AcDbEntity
  8
0
100
AcDbLine
 62
2
  6
CONTINUOUS
 10
579.4029891304
 20
350.816804345
 11
579.4029891304
 21
399.3434470957
  0
LINE
  5
2AE
100
AcDbEntity
  8
0
100
AcDbLine
 62
2
  6
CONTINUOUS
 10
426.9029891304
 20
350.191488327
 11
426.9029891304
 21
399.3434470957
  0
LINE
  5
2AF
100
AcDbEntity
  8
0
100
AcDbLine
 62
2
  6
CONTINUOUS
 10
579.4029891304
 20
386.6434470957
 11
531.7288065197
 21
386.6434470957
  0
LINE
  5
2B0
100
AcDbEntity
  8
0
100
AcDbLine
 62
2
  6
CONTINUOUS
 10
426.9029891304
 20
386.6434470957
 11
470.5081968542
 21
386.6434470957
  0
INSERT
  5
2B1
100
AcDbEntity
  8
0
100
AcDbBlockReference
 62
2
  6
CONTINUOUS
  2
_FILLED
 10
579.4029891304
 20
386.6434470957
 41
8.0
 42
8.0
 43
8.0
  0
INSERT
  5
2B2
100
AcDbEntity
  8
0
100
AcDbBlockReference
 62
2
  6
CONTINUOUS
  2
_FILLED
 10
426.9029891304
 20
386.6434470957
 41
8.0
 42
8.0
 43
8.0
 50
180.0
  0
ENDBLK
  5
2B3
100
AcDbEntity
  8
0
  6
BYBLOCK
 62
0
100
AcDbBlockEnd
  0
BLOCK
  5
2B4
100
AcDbEntity
  8
0
100
AcDbBlockBegin
 62
2
  6
CONTINUOUS
  2
*D10
 70
65
 10
0.0
 20
0.0
  3
*D10
  1

  0
MTEXT
  5
2B5
100
AcDbEntity
  8
0
100
AcDbMText
 62
2
  6
CONTINUOUS
  7
STANDARD
 71
2
 72
1
 10
609.4814832387
 20
428.3435856696
 30
0.0
 11
1.0
 21
0.0
 31
0.0
 73
2
 44
0.9
  1
475,0\P[18.70]
 40
9.144
 41
40.7910780669
  0
LINE
  5
2B6
100
AcDbEntity
  8
0
100
AcDbLine
 62
2
  6
CONTINUOUS
 10
341.9029891304
 20
355.2294891446
 11
341.9029891304
 21
436.4715856696
  0
LINE
  5
2B7
100
AcDbEntity
  8
0
100
AcDbLine
 62
2
  6
CONTINUOUS
 10
816.9029891304
 20
355.2294891446
 11
816.9029891304
 21
436.4715856696
  0
LINE
  5
2B8
100
AcDbEntity
  8
0
100
AcDbLine
 62
2
  6
CONTINUOUS
 10
341.9029891304
 20
423.7715856696
 11
589.0009627926
 21
423.7715856696
  0
LINE
  5
2B9
100
AcDbEntity
  8
0
100
AcDbLine
 62
2
  6
CONTINUOUS
 10
816.9029891304
 20
423.7715856696
 11
638.9360408595
 21
423.7715856696
  0
INSERT
  5
2BA
100
AcDbEntity
  8
0
100
AcDbBlockReference
 62
2
  6
CONTINUOUS
  2
_FILLED
 10
341.9029891304
 20
423.7715856696
 41
8.0
 42
8.0
 43
8.0
 50
180.0
  0
INSERT
  5
2BB
100
AcDbEntity
  8
0
100
AcDbBlockReference
 62
2
  6
CONTINUOUS
  2
_FILLED
 10
816.9029891304
 20
423.7715856696
 41
8.0
 42
8.0
 43
8.0
  0
ENDBLK
  5
2BC
100
AcDbEntity
  8
0
  6
BYBLOCK
 62
0
100
AcDbBlockEnd
  0
BLOCK
  5
2BD
100
AcDbEntity
  8
0
100
AcDbBlockBegin
 62
2
  6
CONTINUOUS
  2
*D11
 70
65
 10
0.0
 20
0.0
  3
*D11
  1

  0
MTEXT
  5
2BE
100
AcDbEntity
  8
0
100
AcDbMText
 62
2
  6
CONTINUOUS
  7
STANDARD
 71
2
 72
1
 10
309.4101503229
 20
391.9931838931
 30
0.0
 11
1.0
 21
0.0
 31
0.0
 73
2
 44
0.9
  1
25,0\P[.98]
 40
9.144
 41
26.6501710037
  0
LINE
  5
2BF
100
AcDbEntity
  8
0
100
AcDbLine
 62
2
  6
CONTINUOUS
 10
340.5529891304
 20
353.8794891446
 11
297.6619421444
 21
353.8794891446
  0
LINE
  5
2C0
100
AcDbEntity
  8
0
100
AcDbLine
 62
2
  6
CONTINUOUS
 10
405.5909899481
 20
328.8794891446
 11
297.6619421444
 21
328.8794891446
  0
LINE
  5
2C1
100
AcDbEntity
  8
0
100
AcDbLine
 62
2
  6
CONTINUOUS
 10
310.3619421444
 20
353.8794891446
 11
310.3619421444
 21
341.3794891446
  0
LINE
  5
2C2
100
AcDbEntity
  8
0
100
AcDbLine
 62
2
  6
CONTINUOUS
 10
310.3619421444
 20
341.3794891446
 11
310.3619421444
 21
362.079740918
  0
LINE
  5
2C3
100
AcDbEntity
  8
0
100
AcDbLine
 62
2
  6
CONTINUOUS
 10
310.3619421444
 20
328.8794891446
 11
310.3619421444
 21
341.3794891446
  0
INSERT
  5
2C4
100
AcDbEntity
  8
0
100
AcDbBlockReference
 62
2
  6
CONTINUOUS
  2
_FILLED
 10
310.3619421444
 20
353.8794891446
 41
8.0
 42
8.0
 43
8.0
 50
90.0
  0
INSERT
  5
2C5
100
AcDbEntity
  8
0
100
AcDbBlockReference
 62
2
  6
CONTINUOUS
  2
_FILLED
 10
310.3619421444
 20
328.8794891446
 41
8.0
 42
8.0
 43
8.0
 50
270.0
  0
ENDBLK
  5
2C6
100
AcDbEntity
  8
0
  6
BYBLOCK
 62
0
100
AcDbBlockEnd
  0
BLOCK
  5
2C7
100
AcDbEntity
  8
0
100
AcDbBlockBegin
 62
2
  6
CONTINUOUS
  2
*D12
 70
65
 10
0.0
 20
0.0
  3
*D12
  1

  0
MTEXT
  5
2C8
100
AcDbEntity
  8
0
100
AcDbMText
 62
2
  6
CONTINUOUS
  7
STANDARD
 71
2
 72
1
 10
251.0222024505
 20
343.1059775991
 30
0.0
 11
1.0
 21
0.0
 31
0.0
 73
2
 44
0.9
  1
50,0\P[1.97]
 40
9.144
 41
33.7206245353
  0
LINE
  5
2C9
100
AcDbEntity
  8
0
100
AcDbLine
 62
2
  6
CONTINUOUS
 10
340.5529891304
 20
353.8794891446
 11
242.8092210378
 21
353.8794891446
  0
LINE
  5
2CA
100
AcDbEntity
  8
0
100
AcDbLine
 62
2
  6
CONTINUOUS
 10
344.5529891304
 20
303.8794891446
 11
242.8092210378
 21
303.8794891446
  0
LINE
  5
2CB
100
AcDbEntity
  8
0
100
AcDbLine
 62
2
  6
CONTINUOUS
 10
255.5092210378
 20
353.8794891446
 11
255.5092210378
 21
369.8794891446
  0
LINE
  5
2CC
100
AcDbEntity
  8
0
100
AcDbLine
 62
2
  6
CONTINUOUS
 10
255.5092210378
 20
303.8794891446
 11
255.5092210378
 21
287.8794891446
  0
INSERT
  5
2CD
100
AcDbEntity
  8
0
100
AcDbBlockReference
 62
2
  6
CONTINUOUS
  2
_FILLED
 10
255.5092210378
 20
353.8794891446
 41
8.0
 42
8.0
 43
8.0
 50
270.0
  0
INSERT
  5
2CE
100
AcDbEntity
  8
0
100
AcDbBlockReference
 62
2
  6
CONTINUOUS
  2
_FILLED
 10
255.5092210378
 20
303.8794891446
 41
8.0
 42
8.0
 43
8.0
 50
90.0
  0
ENDBLK
  5
2CF
100
AcDbEntity
  8
0
  6
BYBLOCK
 62
0
100
AcDbBlockEnd
  0
BLOCK
  5
2D0
100
AcDbEntity
  8
0
100
AcDbBlockBegin
 62
2
  6
CONTINUOUS
  2
*D13
 70
65
 10
0.0
 20
0.0
  3
*D13
  1

  0
MTEXT
  5
2D1
100
AcDbEntity
  8
0
100
AcDbMText
 62
2
  6
CONTINUOUS
  7
STANDARD
 71
1
 72
1
 10
379.6344506281
 20
234.9263064701
 30
0.0
 11
1.0
 21
0.0
 31
0.0
 73
2
 44
0.9
  1
6,0{\ftxt;\W0.0001;\H0.0001;\~}{\ftxt;\W0.9814126394;\H9.144; }2X\P[.24]
 40
9.144
 41
41.470929368
  0
LINE
  5
2D2
100
AcDbEntity
  8
0
100
AcDbLine
 62
2
  6
CONTINUOUS
 10
341.9029891304
 20
246.7324554439
 11
341.9029891304
 21
217.6543064701
  0
LINE
  5
2D3
100
AcDbEntity
  8
0
100
AcDbLine
 62
2
  6
CONTINUOUS
 10
347.9029891304
 20
246.7324554439
 11
347.9029891304
 21
217.6543064701
  0
LINE
  5
2D4
100
AcDbEntity
  8
0
100
AcDbLine
 62
2
  6
CONTINUOUS
 10
341.9029891304
 20
230.3543064701
 11
325.9029891304
 21
230.3543064701
  0
LINE
  5
2D5
100
AcDbEntity
  8
0
100
AcDbLine
 62
2
  6
CONTINUOUS
 10
347.9029891304
 20
230.3543064701
 11
375.0624506281
 21
230.3543064701
  0
INSERT
  5
2D6
100
AcDbEntity
  8
0
100
AcDbBlockReference
 62
2
  6
CONTINUOUS
  2
_FILLED
 10
341.9029891304
 20
230.3543064701
 41
8.0
 42
8.0
 43
8.0
  0
INSERT
  5
2D7
100
AcDbEntity
  8
0
100
AcDbBlockReference
 62
2
  6
CONTINUOUS
  2
_FILLED
 10
347.9029891304
 20
230.3543064701
 41
8.0
 42
8.0
 43
8.0
 50
180.0
  0
ENDBLK
  5
2D8
100
AcDbEntity
  8
0
  6
BYBLOCK
 62
0
100
AcDbBlockEnd
  0
BLOCK
  5
2D9
100
AcDbEntity
  8
0
100
AcDbBlockBegin
 62
2
  6
CONTINUOUS
  2
*D14
 70
65
 10
0.0
 20
0.0
  3
*D14
  1

  0
MTEXT
  5
2DA
100
AcDbEntity
  8
0
100
AcDbMText
 62
2
  6
CONTINUOUS
  7
TEXTSTYLE_4
 71
1
 72
1
 10
648.5852691102
 20
281.0550874793
 30
0.0
 11
1.0
 21
0.0
 31
0.0
 73
2
 44
0.9
  1
{\fgdt;n}\fCentury Gothic;{\W0.8;20,0}{\W0.8;{\ftxt;\W0.0001;\H0.0001;\~}{\ftxt;\W0.2081784387;\H9.144; } 3X}\P{\W0.8;[}{\W0.8;.79}{\W0.8;]}
 40
9.144
 41
57.1981561338
  0
LINE
  5
2DB
100
AcDbEntity
  8
0
100
AcDbLine
 62
2
  6
CONTINUOUS
 10
585.8150792772
 20
321.2058263979
 11
623.1852691102
 21
276.4830874793
  0
LINE
  5
2DC
100
AcDbEntity
  8
0
100
AcDbLine
 62
2
  6
CONTINUOUS
 10
623.1852691102
 20
276.4830874793
 11
644.0132691102
 21
276.4830874793
  0
INSERT
  5
2DD
100
AcDbEntity
  8
0
100
AcDbBlockReference
 62
2
  6
CONTINUOUS
  2
_FILLED
 10
585.8150792772
 20
321.2058263979
 41
8.0
 42
8.0
 43
8.0
 50
129.8820318672
  0
ENDBLK
  5
2DE
100
AcDbEntity
  8
0
  6
BYBLOCK
 62
0
100
AcDbBlockEnd
  0
ENDSEC
  0
SECTION
  2
ENTITIES
  0
MTEXT
  5
2DF
100
AcDbEntity
  8
0
100
AcDbMText
 62
2
  6
CONTINUOUS
  7
TEXTSTYLE_2
 71
1
 72
1
 10
908.9616186372
 20
63.8923724266
 30
0.0
 11
1.0
 21
0.0
 31
0.0
 73
2
 44
1.0000002
  1
DRAWN BY
 40
4.0
 41
29.1747211896
  0
MTEXT
  5
2E0
100
AcDbEntity
  8
0
100
AcDbMText
 62
2
  6
CONTINUOUS
  7
TEXTSTYLE_2
 71
1
 72
1
 10
909.0186536509
 20
45.9024195011
 30
0.0
 11
1.0
 21
0.0
 31
0.0
 73
2
 44
1.0000002
  1
MECH ENGINEER
 40
4.0
 41
44.7286245353
  0
MTEXT
  5
2E1
100
AcDbEntity
  8
0
100
AcDbMText
 62
2
  6
CONTINUOUS
  7
TEXTSTYLE_2
 71
1
 72
1
 10
788.8124246464
 20
56.3429189546
 30
0.0
 11
1.0
 21
0.0
 31
0.0
 73
2
 44
1.0000002
  1
DECIMALS          ANGLES
 40
5.92
 41
95.3802230483
  0
MTEXT
  5
2E2
100
AcDbEntity
  8
0
100
AcDbMText
 62
2
  6
CONTINUOUS
  7
TEXTSTYLE_2
 71
1
 72
1
 10
651.3209059061
 20
40.4701444964
 30
0.0
 11
1.0
 21
0.0
 31
0.0
 73
2
 44
1.0000002
  1
PROJECTION
 40
6.28
 41
53.9519702602
  0
MTEXT
  5
2E3
100
AcDbEntity
  8
0
100
AcDbMText
 62
2
  6
CONTINUOUS
  7
TEXTSTYLE_2
 71
2
 72
1
 10
705.8698055747
 20
64.5376893728
 30
0.0
 11
1.0
 21
0.0
 31
0.0
 73
2
 44
0.81
  1
UNLESS  OTHERWISE  SPECIFIED\PDIMENSIONS ARE IN MM [IN]
 40
5.92
 41
119.6764312268
  0
MTEXT
  5
2E4
100
AcDbEntity
  8
0
100
AcDbMText
 62
2
  6
CONTINUOUS
  7
TEXTSTYLE_2
 71
1
 72
1
 10
568.9149211299
 20
66.5708040424
 30
0.0
 11
1.0
 21
0.0
 31
0.0
 73
2
 44
1.0000002
  1
CAGE CODE
 40
5.291668
 41
45.7365356877
  0
MTEXT
  5
2E5
100
AcDbEntity
  8
0
100
AcDbMText
 62
2
  6
CONTINUOUS
  7
TEXTSTYLE_2
 71
1
 72
1
 10
576.3608321997
 20
57.6431794159
 30
0.0
 11
1.0
 21
0.0
 31
0.0
 73
2
 44
1.0000002
  1
00PW4
 40
7.408332
 41
33.2135627955
  0
MTEXT
  5
2E6
100
AcDbEntity
  8
0
100
AcDbMText
 62
2
  6
CONTINUOUS
  7
TEXTSTYLE_2
 71
1
 72
1
 10
196.1575178859
 20
46.5940069939
 30
0.0
 11
1.0
 21
0.0
 31
0.0
 73
2
 44
1.0000002
  1
1675 MACARTHUR BOULEVARD\PCOSTA MESA, CA 92626 USA
 40
6.096
 41
126.2257249071
  0
MTEXT
  5
2E7
100
AcDbEntity
  8
0
100
AcDbMText
 62
2
  6
CONTINUOUS
  7
TEXTSTYLE_2
 71
1
 72
1
 10
195.5919520639
 20
60.6748330172
 30
0.0
 11
1.0
 21
0.0
 31
0.0
 73
2
 44
1.0000002
  1
QSC, LLC
 40
10.16
 41
63.3772490706
  0
MTEXT
  5
2E8
100
AcDbEntity
  8
0
100
AcDbMText
 62
2
  6
CONTINUOUS
  7
TEXTSTYLE_2
 71
2
 72
1
 10
593.2683224413
 20
43.9841450818
 30
0.0
 11
1.0
 21
0.0
 31
0.0
 73
2
 44
1.0000002
  1
FORM
 40
5.2
 41
20.8966542751
  0
MTEXT
  5
2E9
100
AcDbEntity
  8
0
100
AcDbMText
 62
2
  6
CONTINUOUS
  7
TEXTSTYLE_2
 71
1
 72
1
 10
337.4130556513
 20
59.6093149325
 30
0.0
 11
1.0
 21
0.0
 31
0.0
 73
2
 44
1.0000002
  3
THIS DOCUMENT CONTAINS CONFIDENTIAL OR PROPRIETARY INFORMATION WHICH \PIS THE PROPERTY OF QSC, LLC, THAT MAY NOT BE DISCLOSED, REPRODUCED OR\P USED WITHOUT EXPRESS WRITTEN CONSENT FROM QSC, LLC. NO PORTION OF THIS \PDOCUMENT MAY BE REPRODUCED,REDISTR
  1
UBUTED, OR OTHERWISE DISCLOSED TO \P                        ANY THIRD PARTY WITHOUT QSC'S WRITTEN PERMISSION.
 40
3.6
 41
200.2483271375
  0
MTEXT
  5
2EA
100
AcDbEntity
  8
0
100
AcDbMText
 62
2
  6
CONTINUOUS
  7
TEXTSTYLE_2
 71
2
 72
1
 10
592.1604760117
 20
36.5615533129
 30
0.0
 11
1.0
 21
0.0
 31
0.0
 73
2
 44
1.0000002
  1
QOS40169 B
 40
6.8
 41
55.5881040892
  0
MTEXT
  5
2EB
100
AcDbEntity
  8
0
100
AcDbMText
 62
2
  6
CONTINUOUS
  7
TEXTSTYLE_2
 71
1
 72
1
 10
789.1734057814
 20
64.1785980347
 30
0.0
 11
1.0
 21
0.0
 31
0.0
 73
2
 44
1.2
  1
TOLERANCES ARE:
 40
5.92
 41
71.5021561338
  0
MTEXT
  5
2EC
100
AcDbEntity
  8
0
100
AcDbMText
 62
2
  6
CONTINUOUS
  7
TEXTSTYLE_2
 71
1
 72
1
 10
1015.1146303091
 20
63.8697325794
 30
0.0
 11
1.0
 21
0.0
 31
0.0
 73
2
 44
1.0000002
  1
TECH DIRECTOR
 40
4.0
 41
42.2007434944
  0
MTEXT
  5
2ED
100
AcDbEntity
  8
0
100
AcDbMText
 62
2
  6
CONTINUOUS
  7
TEXTSTYLE_2
 71
1
 72
1
 10
1014.6630469225
 20
45.8731441405
 30
0.0
 11
1.0
 21
0.0
 31
0.0
 73
2
 44
1.0000002
  1
MFG ENGINEER
 40
4.0
 41
40.9665427509
  0
MTEXT
  5
2EE
100
AcDbEntity
  8
0
100
AcDbMText
 62
2
  6
CONTINUOUS
  7
TEXTSTYLE_2
 71
1
 72
1
 10
1121.655165346
 20
63.8556107553
 30
0.0
 11
1.0
 21
0.0
 31
0.0
 73
2
 44
1.0000002
  1
REV BY
 40
4.0
 41
18.3345724907
  0
MTEXT
  5
2EF
100
AcDbEntity
  8
0
100
AcDbMText
 62
2
  6
CONTINUOUS
  7
TEXTSTYLE_2
 71
1
 72
1
 10
1121.6565865618
 20
45.8613813643
 30
0.0
 11
1.0
 21
0.0
 31
0.0
 73
2
 44
1.0000002
  1
REV DATE
 40
4.0
 41
25.4721189591
  0
MTEXT
  5
2F0
100
AcDbEntity
  8
0
100
AcDbMText
 62
2
  6
CONTINUOUS
  7
TEXTSTYLE_2
 71
1
 72
1
 10
1531.2608776974
 20
66.2231134639
 30
0.0
 11
1.0
 21
0.0
 31
0.0
 73
2
 44
1.0000002
  1
DRAWING NUMBER
 40
4.0
 41
51.2862453532
  0
MTEXT
  5
2F1
100
AcDbEntity
  8
0
100
AcDbMText
 62
2
  6
CONTINUOUS
  7
TEXTSTYLE_2
 71
1
 72
1
 10
1661.7765770227
 20
65.2368100712
 30
0.0
 11
1.0
 21
0.0
 31
0.0
 73
2
 44
1.0000002
  1
REV
 40
4.0
 41
10.2899628253
  0
MTEXT
  5
2F2
100
AcDbEntity
  8
0
100
AcDbMText
 62
2
  6
CONTINUOUS
  7
TEXTSTYLE_2
 71
1
 72
1
 10
1532.204961989
 20
38.247332783
 30
0.0
 11
1.0
 21
0.0
 31
0.0
 73
2
 44
1.0000002
  1
SCALE:  
 40
5.291668
 41
28.6222191078
  0
MTEXT
  5
2F3
100
AcDbEntity
  8
0
100
AcDbMText
 62
2
  6
CONTINUOUS
  7
TEXTSTYLE_2
 71
1
 72
1
 10
1635.0053329348
 20
38.3827360884
 30
0.0
 11
1.0
 21
0.0
 31
0.0
 73
2
 44
1.0000002
  1
SHEET:
 40
5.291668
 41
21.8158357323
  0
MTEXT
  5
2F4
100
AcDbEntity
  8
0
100
AcDbMText
 62
2
  6
CONTINUOUS
  7
TEXTSTYLE_3
 71
1
 72
1
 10
171.2789404097
 20
53.934777886
 30
0.0
 11
1.0
 21
0.0
 31
0.0
 73
2
 44
1.0000002
  1
TM
 40
2.28
 41
4.5854275093
  0
DIMENSION
  5
2F5
100
AcDbEntity
  8
0
100
AcDbDimension
 62
2
  6
CONTINUOUS
  2
*D0
 10
341.9029891304
 20
716.8863118226
 11
458.8476161978
 21
710.0283118226
 70
160
 71
2
 72
2
 41
0.9
 42
237.5
  1
<>\P[]
  3
DIMSTYLE_1
100
AcDbAlignedDimension
 13
579.4029891304
 23
777.8908968943
 14
341.9029891304
 24
762.0944238989
 50
180.0
100
AcDbRotatedDimension
  0
DIMENSION
  5
2F6
100
AcDbEntity
  8
0
100
AcDbDimension
 62
2
  6
CONTINUOUS
  2
*D1
 10
301.3461441421
 20
761.8569238989
 11
301.3461441421
 21
734.6501300348
 70
160
 71
2
 72
2
 41
0.9
 42
30.9565729954
  1
<>\P[]
  3
DIMSTYLE_1
100
AcDbAlignedDimension
 13
564.4803891304
 23
792.8134968943
 14
342.1404891304
 24
761.8569238989
 50
270.0
100
AcDbRotatedDimension
  0
DIMENSION
  5
2F7
100
AcDbEntity
  8
0
100
AcDbDimension
 62
2
  6
CONTINUOUS
  2
*D2
 10
312.8860652447
 20
556.9530749228
 11
312.8860652447
 21
511.9816603881
 70
160
 71
2
 72
2
 41
0.9
 42
12.6302290507
  1
<>\P[]
  3
DIMSTYLE_1
100
AcDbAlignedDimension
 13
337.1404891304
 23
544.3228458721
 14
570.5958230722
 24
556.9530749228
 50
90.0
100
AcDbRotatedDimension
  0
DIMENSION
  5
2F8
100
AcDbEntity
  8
0
100
AcDbDimension
 62
2
  6
CONTINUOUS
  2
*D3
 10
1035.8670997801
 20
891.3971113856
 11
1134.6108873567
 21
884.5391113856
 70
160
 71
1
 72
2
 41
0.9
 42
50.0
  1
<>2X\P[]
  3
DIMSTYLE_1
100
AcDbAlignedDimension
 13
1085.8670997801
 23
842.4164575996
 14
1035.8670997801
 24
856.7795238989
 50
180.0
100
AcDbRotatedDimension
  0
DIMENSION
  5
2F9
100
AcDbEntity
  8
0
100
AcDbDimension
 62
2
  6
CONTINUOUS
  2
*D4
 10
1126.3482859699
 20
841.8569238989
 11
1126.3482859699
 21
803.998408256
 70
160
 71
2
 72
2
 41
0.9
 42
80.0
  1
<>2X\P[]
  3
DIMSTYLE_1
100
AcDbAlignedDimension
 13
1090.6295997801
 23
761.8569238989
 14
1050.7896997801
 24
841.8569238989
 50
90.0
100
AcDbRotatedDimension
  0
DIMENSION
  5
2FA
100
AcDbEntity
  8
0
100
AcDbDimension
 62
2
  6
CONTINUOUS
  2
*D5
 10
1063.8670997801
 20
740.570887823
 11
1118.9128796713
 21
733.712887823
 70
160
 71
1
 72
2
 41
0.9
 42
22.0
  1
<>\P[]
  3
DIMSTYLE_1
100
AcDbAlignedDimension
 13
1085.8670997801
 23
757.0944238989
 14
1063.8670997801
 24
762.0944238989
 50
180.0
100
AcDbRotatedDimension
  0
DIMENSION
  5
2FB
100
AcDbEntity
  8
0
100
AcDbDimension
 62
2
  6
CONTINUOUS
  2
*D6
 10
1032.8539012502
 20
844.7105417113
 11
963.8110756954
 21
853.7735632957
 70
163
 71
3
 72
2
 41
0.9
 42
8.3
  1
%%c<>2X\P[]
  3
DIMSTYLE_2
100
AcDbDiametricDimension
 15
1038.88029831
 25
839.0033060864
  0
DIMENSION
  5
2FC
100
AcDbEntity
  8
0
100
AcDbDimension
 62
2
  6
CONTINUOUS
  2
*D7
 10
1102.6244263496
 20
519.0419407967
 11
1057.1995247172
 21
512.1839407967
 70
160
 71
2
 72
2
 41
0.9
 42
100.7970337007
  1
<> 2X\P[]
  3
DIMSTYLE_1
100
AcDbAlignedDimension
 13
1001.8273926489
 23
539.5603458721
 14
1102.6244263496
 24
564.5603458721
100
AcDbRotatedDimension
  0
DIMENSION
  5
2FD
100
AcDbEntity
  8
0
100
AcDbDimension
 62
2
  6
CONTINUOUS
  2
*D8
 10
965.6532596693
 20
606.8228458721
 11
965.6532596693
 21
576.2163010488
 70
160
 71
2
 72
2
 41
0.9
 42
62.5
  1
<>2X\P[]
  3
DIMSTYLE_1
100
AcDbAlignedDimension
 13
997.0648926489
 23
544.3228458721
 14
1077.0648926489
 24
606.8228458721
 50
90.0
100
AcDbRotatedDimension
  0
DIMENSION
  5
2FE
100
AcDbEntity
  8
0
100
AcDbDimension
 62
2
  6
CONTINUOUS
  2
*D9
 10
426.9029891304
 20
386.6434470957
 11
501.118501687
 21
379.7854470957
 70
160
 71
2
 72
2
 41
0.9
 42
152.5
  1
<> 2X\P[]
  3
DIMSTYLE_1
100
AcDbAlignedDimension
 13
579.4029891304
 23
349.229304345
 14
426.9029891304
 24
348.603988327
 50
180.0
100
AcDbRotatedDimension
  0
DIMENSION
  5
2FF
100
AcDbEntity
  8
0
100
AcDbDimension
 62
2
  6
CONTINUOUS
  2
*D10
 10
816.9029891304
 20
423.7715856696
 11
613.9685018261
 21
416.9135856696
 70
160
 71
2
 72
2
 41
0.9
 42
475.0
  1
<>\P[]
  3
DIMSTYLE_1
100
AcDbAlignedDimension
 13
341.9029891304
 23
353.6419891446
 14
816.9029891304
 24
353.6419891446
100
AcDbRotatedDimension
  0
DIMENSION
  5
300
100
AcDbEntity
  8
0
100
AcDbDimension
 62
2
  6
CONTINUOUS
  2
*D11
 10
310.3619421444
 20
328.8794891446
 11
310.3619421444
 21
380.5631838931
 70
160
 71
2
 72
2
 41
0.9
 42
25.0
  1
<>\P[]
  3
DIMSTYLE_1
100
AcDbAlignedDimension
 13
342.1404891304
 23
353.8794891446
 14
407.1784899481
 24
328.8794891446
 50
270.0
100
AcDbRotatedDimension
  0
DIMENSION
  5
301
100
AcDbEntity
  8
0
100
AcDbDimension
 62
2
  6
CONTINUOUS
  2
*D12
 10
255.5092210378
 20
303.8794891446
 11
255.5092210378
 21
331.6759775991
 70
160
 71
2
 72
2
 41
0.9
 42
50.0
  1
<>\P[]
  3
DIMSTYLE_1
100
AcDbAlignedDimension
 13
342.1404891304
 23
353.8794891446
 14
346.1404891304
 24
303.8794891446
 50
270.0
100
AcDbRotatedDimension
  0
DIMENSION
  5
302
100
AcDbEntity
  8
0
100
AcDbDimension
 62
2
  6
CONTINUOUS
  2
*D13
 10
347.9029891304
 20
230.3543064701
 11
400.3699153121
 21
223.4963064701
 70
160
 71
1
 72
2
 41
0.9
 42
6.0
  1
<>2X\P[]
  3
DIMSTYLE_1
100
AcDbAlignedDimension
 13
341.9029891304
 23
248.3199554439
 14
347.9029891304
 24
248.3199554439
100
AcDbRotatedDimension
  0
DIMENSION
  5
303
100
AcDbEntity
  8
0
100
AcDbDimension
 62
2
  6
CONTINUOUS
  2
*D14
 10
585.8150792772
 20
321.2058263979
 11
677.1843471771
 21
269.6250874793
 70
163
 71
1
 72
2
 41
0.9
 42
20.0
  1
%%c<> 3X\P[]
  3
DIMSTYLE_2
100
AcDbDiametricDimension
 15
572.9908989837
 25
336.5531518913
  0
LINE
  5
304
100
AcDbEntity
  8
0
100
AcDbLine
 62
2
  6
CONTINUOUS
 10
1257.3289752462
 20
72.078746919
 11
1492.9289752462
 21
72.078746919
  0
LINE
  5
305
100
AcDbEntity
  8
0
100
AcDbLine
 62
2
  6
CONTINUOUS
 10
1257.3289752462
 20
72.078746919
 11
1257.3289752462
 21
-4.358753081
  0
LINE
  5
306
100
AcDbEntity
  8
0
100
AcDbLine
 62
2
  6
CONTINUOUS
 10
1257.3289752462
 20
-4.358753081
 11
1492.9289752462
 21
-4.358753081
  0
LINE
  5
307
100
AcDbEntity
  8
0
100
AcDbLine
 62
2
  6
CONTINUOUS
 10
1492.9289752462
 20
72.078746919
 11
1492.9289752462
 21
-4.358753081
  0
MTEXT
  5
308
100
AcDbEntity
  8
0
100
AcDbMText
 62
2
  6
CONTINUOUS
  7
TEXTSTYLE_2
 71
2
 72
1
 10
1375.1289752462
 20
50.793329829
 30
0.0
 11
1.0
 21
0.0
 31
0.0
 73
2
 44
0.99999996
  1
ACCESSORY, PL-LA8-PB, \PPULL BACK BAR
 40
12.7
 41
207.449070632
  0
LINE
  5
309
100
AcDbEntity
  8
0
100
AcDbLine
 62
2
  6
CONTINUOUS
 10
1659.3653788375
 20
67.187082079
 11
1701.2153788375
 21
67.187082079
  0
LINE
  5
30A
100
AcDbEntity
  8
0
100
AcDbLine
 62
2
  6
CONTINUOUS
 10
1659.3653788375
 20
67.187082079
 11
1659.3653788375
 21
42.787082079
  0
LINE
  5
30B
100
AcDbEntity
  8
0
100
AcDbLine
 62
2
  6
CONTINUOUS
 10
1659.3653788375
 20
42.787082079
 11
1701.2153788375
 21
42.787082079
  0
LINE
  5
30C
100
AcDbEntity
  8
0
100
AcDbLine
 62
2
  6
CONTINUOUS
 10
1701.2153788375
 20
67.187082079
 11
1701.2153788375
 21
42.787082079
  0
MTEXT
  5
30D
100
AcDbEntity
  8
0
100
AcDbMText
 62
2
  6
CONTINUOUS
  7
TEXTSTYLE_2
 71
2
 72
1
 10
1680.2903788375
 20
60.679582079
 30
0.0
 11
1.0
 21
0.0
 31
0.0
 73
2
 44
0.9
  1
A
 40
12.7
 41
13.0776951673
  0
LINE
  5
30E
100
AcDbEntity
  8
0
100
AcDbLine
 62
2
  6
CONTINUOUS
 10
1530.4974260922
 20
67.641222168
 11
1656.4974260922
 21
67.641222168
  0
LINE
  5
30F
100
AcDbEntity
  8
0
100
AcDbLine
 62
2
  6
CONTINUOUS
 10
1530.4974260922
 20
67.641222168
 11
1530.4974260922
 21
42.703722168
  0
LINE
  5
310
100
AcDbEntity
  8
0
100
AcDbLine
 62
2
  6
CONTINUOUS
 10
1530.4974260922
 20
42.703722168
 11
1656.4974260922
 21
42.703722168
  0
LINE
  5
311
100
AcDbEntity
  8
0
100
AcDbLine
 62
2
  6
CONTINUOUS
 10
1656.4974260922
 20
67.641222168
 11
1656.4974260922
 21
42.703722168
  0
MTEXT
  5
312
100
AcDbEntity
  8
0
100
AcDbMText
 62
2
  6
CONTINUOUS
  7
TEXTSTYLE_2
 71
2
 72
1
 10
1593.4974260922
 20
59.016222168
 30
0.0
 11
1.0
 21
0.0
 31
0.0
 73
2
 44
0.9
  1
FG-901595-2D
 40
12.7
 41
117.7464684015
  0
LINE
  5
313
100
AcDbEntity
  8
0
100
AcDbLine
 62
2
  6
CONTINUOUS
 10
1530.7288520578
 20
41.5177978148
 11
1592.7288520578
 21
41.5177978148
  0
LINE
  5
314
100
AcDbEntity
  8
0
100
AcDbLine
 62
2
  6
CONTINUOUS
 10
1530.7288520578
 20
41.5177978148
 11
1530.7288520578
 21
29.1115478148
  0
LINE
  5
315
100
AcDbEntity
  8
0
100
AcDbLine
 62
2
  6
CONTINUOUS
 10
1530.7288520578
 20
29.1115478148
 11
1592.7288520578
 21
29.1115478148
  0
LINE
  5
316
100
AcDbEntity
  8
0
100
AcDbLine
 62
2
  6
CONTINUOUS
 10
1592.7288520578
 20
41.5177978148
 11
1592.7288520578
 21
29.1115478148
  0
MTEXT
  5
317
100
AcDbEntity
  8
0
100
AcDbMText
 62
2
  6
CONTINUOUS
  7
TEXTSTYLE_2
 71
1
 72
1
 10
1564.9788520578
 20
38.8706728148
 30
0.0
 11
1.0
 21
0.0
 31
0.0
 73
2
 44
0.9
  1
1:4
 40
7.112
 41
13.7481040892
  0
LINE
  5
318
100
AcDbEntity
  8
0
100
AcDbLine
 62
2
  6
CONTINUOUS
 10
774.2649723096
 20
72.0567472258
 11
894.4149723096
 21
72.0567472258
  0
LINE
  5
319
100
AcDbEntity
  8
0
100
AcDbLine
 62
2
  6
CONTINUOUS
 10
774.2649723096
 20
72.0567472258
 11
774.2649723096
 21
23.1504972258
  0
MTEXT
  5
31A
100
AcDbEntity
  8
0
100
AcDbMText
 62
2
  6
CONTINUOUS
  7
TEXTSTYLE_2
 71
1
 72
1
 10
787.8649723096
 20
40.8692472258
 30
0.0
 11
1.0
 21
0.0
 31
0.0
 73
2
 44
0.9
  1
.X \fgdt;{\W1.0;{\fgdt;`}}\fCentury Gothic; 3.0 [.12]       \fgdt;{\W1.0;{\fgdt;`}}\fCentury Gothic;1\fgdt;{\W1.0;{\fgdt;~}}\P\fCentury Gothic;.XX \fgdt;{\W1.0;{\fgdt;`}}\fCentury Gothic; 
 40
6.35
 41
87.1295539033
  0
LINE
  5
31B
100
AcDbEntity
  8
0
100
AcDbLine
 62
2
  6
CONTINUOUS
 10
1632.2388290287
 20
41.0127845118
 11
1701.2388290287
 21
41.0127845118
  0
LINE
  5
31C
100
AcDbEntity
  8
0
100
AcDbLine
 62
2
  6
CONTINUOUS
 10
1632.2388290287
 20
41.0127845118
 11
1632.2388290287
 21
28.9815345118
  0
LINE
  5
31D
100
AcDbEntity
  8
0
100
AcDbLine
 62
2
  6
CONTINUOUS
 10
1632.2388290287
 20
28.9815345118
 11
1701.2388290287
 21
28.9815345118
  0
LINE
  5
31E
100
AcDbEntity
  8
0
100
AcDbLine
 62
2
  6
CONTINUOUS
 10
1701.2388290287
 20
41.0127845118
 11
1701.2388290287
 21
28.9815345118
  0
MTEXT
  5
31F
100
AcDbEntity
  8
0
100
AcDbMText
 62
2
  6
CONTINUOUS
  7
TEXTSTYLE_2
 71
2
 72
1
 10
1680.5388290287
 20
38.7013255118
 30
0.0
 11
1.0
 21
0.0
 31
0.0
 73
2
 44
0.9
  1
1 OF 1
 40
7.408332
 41
31.1755829888
  0
LINE
  5
320
100
AcDbEntity
  8
0
100
AcDbLine
 62
2
  6
CONTINUOUS
 10
907.1555668628
 20
64.6516612072
 11
1009.1555668628
 21
64.6516612072
  0
LINE
  5
321
100
AcDbEntity
  8
0
100
AcDbLine
 62
2
  6
CONTINUOUS
 10
907.1555668628
 20
64.6516612072
 11
907.1555668628
 21
48.5579112072
  0
LINE
  5
322
100
AcDbEntity
  8
0
100
AcDbLine
 62
2
  6
CONTINUOUS
 10
907.1555668628
 20
48.5579112072
 11
1009.1555668628
 21
48.5579112072
  0
LINE
  5
323
100
AcDbEntity
  8
0
100
AcDbLine
 62
2
  6
CONTINUOUS
 10
1009.1555668628
 20
64.6516612072
 11
1009.1555668628
 21
48.5579112072
  0
MTEXT
  5
324
100
AcDbEntity
  8
0
100
AcDbMText
 62
2
  6
CONTINUOUS
  7
TEXTSTYLE_2
 71
1
 72
1
 10
907.4055668628
 20
56.5610362072
 30
0.0
 11
1.0
 21
0.0
 31
0.0
 73
2
 44
0.9
  1
 M. DAVILA
 40
6.35
 41
47.4715613383
  0
LINE
  5
325
100
AcDbEntity
  8
0
100
AcDbLine
 62
2
  6
CONTINUOUS
 10
907.2626340036
 20
46.557446053
 11
1009.2626340036
 21
46.557446053
  0
LINE
  5
326
100
AcDbEntity
  8
0
100
AcDbLine
 62
2
  6
CONTINUOUS
 10
907.2626340036
 20
46.557446053
 11
907.2626340036
 21
30.463696053
  0
LINE
  5
327
100
AcDbEntity
  8
0
100
AcDbLine
 62
2
  6
CONTINUOUS
 10
907.2626340036
 20
30.463696053
 11
1009.2626340036
 21
30.463696053
  0
LINE
  5
328
100
AcDbEntity
  8
0
100
AcDbLine
 62
2
  6
CONTINUOUS
 10
1009.2626340036
 20
46.557446053
 11
1009.2626340036
 21
30.463696053
  0
MTEXT
  5
329
100
AcDbEntity
  8
0
100
AcDbMText
 62
2
  6
CONTINUOUS
  7
TEXTSTYLE_2
 71
1
 72
1
 10
907.5126340036
 20
38.466821053
 30
0.0
 11
1.0
 21
0.0
 31
0.0
 73
2
 44
0.9
  1
 B. HAWKINS
 40
6.35
 41
51.7206319703
  0
LINE
  5
32A
100
AcDbEntity
  8
0
100
AcDbLine
 62
2
  6
CONTINUOUS
 10
1012.854522913
 20
64.5698414628
 11
1114.854522913
 21
64.5698414628
  0
LINE
  5
32B
100
AcDbEntity
  8
0
100
AcDbLine
 62
2
  6
CONTINUOUS
 10
1012.854522913
 20
64.5698414628
 11
1012.854522913
 21
48.4760914628
  0
LINE
  5
32C
100
AcDbEntity
  8
0
100
AcDbLine
 62
2
  6
CONTINUOUS
 10
1012.854522913
 20
48.4760914628
 11
1114.854522913
 21
48.4760914628
  0
LINE
  5
32D
100
AcDbEntity
  8
0
100
AcDbLine
 62
2
  6
CONTINUOUS
 10
1114.854522913
 20
64.5698414628
 11
1114.854522913
 21
48.4760914628
  0
MTEXT
  5
32E
100
AcDbEntity
  8
0
100
AcDbMText
 62
2
  6
CONTINUOUS
  7
TEXTSTYLE_2
 71
1
 72
1
 10
1013.104522913
 20
56.4792164628
 30
0.0
 11
1.0
 21
0.0
 31
0.0
 73
2
 44
0.9
  1
 R. VAUCHER
 40
6.35
 41
54.6713754647
  0
LINE
  5
32F
100
AcDbEntity
  8
0
100
AcDbLine
 62
2
  6
CONTINUOUS
 10
1012.8137536003
 20
46.5034488113
 11
1114.8137536003
 21
46.5034488113
  0
LINE
  5
330
100
AcDbEntity
  8
0
100
AcDbLine
 62
2
  6
CONTINUOUS
 10
1012.8137536003
 20
46.5034488113
 11
1012.8137536003
 21
30.4096988113
  0
LINE
  5
331
100
AcDbEntity
  8
0
100
AcDbLine
 62
2
  6
CONTINUOUS
 10
1012.8137536003
 20
30.4096988113
 11
1114.8137536003
 21
30.4096988113
  0
LINE
  5
332
100
AcDbEntity
  8
0
100
AcDbLine
 62
2
  6
CONTINUOUS
 10
1114.8137536003
 20
46.5034488113
 11
1114.8137536003
 21
30.4096988113
  0
MTEXT
  5
333
100
AcDbEntity
  8
0
100
AcDbMText
 62
2
  6
CONTINUOUS
  7
TEXTSTYLE_2
 71
1
 72
1
 10
1013.0637536003
 20
38.4128238113
 30
0.0
 11
1.0
 21
0.0
 31
0.0
 73
2
 44
0.9
  1
 A. TRAN
 40
6.35
 41
36.1407063197
  0
LINE
  5
334
100
AcDbEntity
  8
0
100
AcDbLine
 62
2
  6
CONTINUOUS
 10
1120.2153180921
 20
64.6591592838
 11
1222.2153180921
 21
64.6591592838
  0
LINE
  5
335
100
AcDbEntity
  8
0
100
AcDbLine
 62
2
  6
CONTINUOUS
 10
1120.2153180921
 20
64.6591592838
 11
1120.2153180921
 21
48.5654092838
  0
LINE
  5
336
100
AcDbEntity
  8
0
100
AcDbLine
 62
2
  6
CONTINUOUS
 10
1120.2153180921
 20
48.5654092838
 11
1222.2153180921
 21
48.5654092838
  0
LINE
  5
337
100
AcDbEntity
  8
0
100
AcDbLine
 62
2
  6
CONTINUOUS
 10
1222.2153180921
 20
64.6591592838
 11
1222.2153180921
 21
48.5654092838
  0
MTEXT
  5
338
100
AcDbEntity
  8
0
100
AcDbMText
 62
2
  6
CONTINUOUS
  7
TEXTSTYLE_2
 71
1
 72
1
 10
1120.4653180921
 20
56.5685342838
 30
0.0
 11
1.0
 21
0.0
 31
0.0
 73
2
 44
0.9
  1
 MD
 40
6.35
 41
17.1851301115
  0
LINE
  5
339
100
AcDbEntity
  8
0
100
AcDbLine
 62
2
  6
CONTINUOUS
 10
1119.8930635233
 20
46.5837896906
 11
1221.8930635233
 21
46.5837896906
  0
LINE
  5
33A
100
AcDbEntity
  8
0
100
AcDbLine
 62
2
  6
CONTINUOUS
 10
1119.8930635233
 20
46.5837896906
 11
1119.8930635233
 21
30.4900396906
  0
LINE
  5
33B
100
AcDbEntity
  8
0
100
AcDbLine
 62
2
  6
CONTINUOUS
 10
1119.8930635233
 20
30.4900396906
 11
1221.8930635233
 21
30.4900396906
  0
LINE
  5
33C
100
AcDbEntity
  8
0
100
AcDbLine
 62
2
  6
CONTINUOUS
 10
1221.8930635233
 20
46.5837896906
 11
1221.8930635233
 21
30.4900396906
  0
MTEXT
  5
33D
100
AcDbEntity
  8
0
100
AcDbMText
 62
2
  6
CONTINUOUS
  7
TEXTSTYLE_2
 71
1
 72
1
 10
1120.1430635233
 20
38.4931646906
 30
0.0
 11
1.0
 21
0.0
 31
0.0
 73
2
 44
0.9
  1
 22-JAN-2024
 40
6.35
 41
55.1671003717
  0
MTEXT
  5
33E
100
AcDbEntity
  8
0
100
AcDbMText
 62
2
  6
CONTINUOUS
  7
TEXTSTYLE_2
 71
1
 72
1
 10
1665.0929545215
 20
38.7716541509
 30
0.0
 11
1.0
 21
0.0
 31
0.0
 73
2
 44
0.9
  1
1 OF 1
 40
7.408332
 41
31.1755829888
  0
MTEXT
  5
33F
100
AcDbEntity
  8
0
100
AcDbMText
 62
2
  6
CONTINUOUS
  7
STANDARD
 71
1
 72
1
 10
34.4152234896
 20
1070.9436833827
 30
0.0
 11
1.0
 21
0.0
 31
0.0
 73
2
 44
0.9
  1
NOTES: UNLESS OTHERWISE SPECIFIED\P \P1.      NET WEIGHT APPROX. 1.6 KG [3 LBS]. \P \P2.      SYMBOL      INDICATES CENTER OF GRAVITY.\P \P3.      PARTS ARE SYMMETRICAL ABOUT CENTER LINES\P         UNLESS OTHERWISE NOTED. 
 40
9.144
 41
315.5529814126
  0
MTEXT
  5
340
100
AcDbEntity
  8
0
100
AcDbMText
 62
2
  6
CONTINUOUS
  7
TEXTSTYLE_4
 71
1
 72
1
 10
573.2788186981
 20
278.0187860532
 30
0.0
 11
1.0
 21
0.0
 31
0.0
 73
2
 44
0.9
  1
{\fgdt;q}
 40
9.144
 41
14.478
  0
INSERT
  5
341
100
AcDbEntity
  8
0
100
AcDbBlockReference
 62
2
  6
CONTINUOUS
  2
CG_3D_BL0
 10
127.8205524934
 20
1011.7298938611
  0
INSERT
  5
342
100
AcDbEntity
  8
0
100
AcDbBlockReference
 62
2
  6
CONTINUOUS
  2
CG_3D_BL1
 10
579.4380962887
 20
556.9642699898
  0
INSERT
  5
343
100
AcDbEntity
  8
0
100
AcDbBlockReference
 62
2
  6
CONTINUOUS
  2
CG_3D_BL2
 10
579.3474017582
 20
792.8940615542
  0
LINE
  5
344
100
AcDbEntity
  8
0
100
AcDbLine
 62
7
  6
CONTINUOUS
 10
50.1905013589
 20
39.8429549364
 11
54.984666675
 21
37.1835878942
  0
LINE
  5
345
100
AcDbEntity
  8
0
100
AcDbLine
 62
7
  6
CONTINUOUS
 10
52.587584017
 20
42.2613694892
 11
57.2877460915
 21
39.6541468988
  0
LINE
  5
346
100
AcDbEntity
  8
0
100
AcDbLine
 62
7
  6
CONTINUOUS
 10
30.0503068695
 20
37.4956564757
 11
41.0251853135
 21
31.1593074517
  0
LINE
  5
347
100
AcDbEntity
  8
0
100
AcDbLine
 62
7
  6
CONTINUOUS
 10
34.0454446328
 20
40.6163422905
 11
41.7302096247
 21
36.1795411538
  0
LINE
  5
348
100
AcDbEntity
  8
0
100
AcDbLine
 62
7
  6
CONTINUOUS
 10
38.087584017
 20
43.4928005198
 11
42.2002258322
 21
41.1183656607
  0
LINE
  5
349
100
AcDbEntity
  8
0
100
AcDbLine
 62
7
  6
CONTINUOUS
 10
47.4879081661
 20
50.2769001173
 11
43.3752663508
 21
52.6513349764
  0
LINE
  5
34A
100
AcDbEntity
  8
0
100
AcDbLine
 62
7
  6
CONTINUOUS
 10
51.5300475502
 20
53.1533583466
 11
43.8452825583
 21
57.5901594833
  0
LINE
  5
34B
100
AcDbEntity
  8
0
100
AcDbLine
 62
7
  6
CONTINUOUS
 10
55.5251853135
 20
56.2740441614
 11
44.5503068695
 21
62.6103931854
  0
LINE
  5
34C
100
AcDbEntity
  8
0
100
AcDbLine
 62
7
  6
CONTINUOUS
 10
28.2877460915
 20
53.2211993426
 11
28.2877460915
 21
40.5485012945
  0
LINE
  5
34D
100
AcDbEntity
  8
0
100
AcDbLine
 62
7
  6
CONTINUOUS
 10
32.9879081661
 20
51.3216514553
 11
32.9879081661
 21
42.4480491818
  0
LINE
  5
34E
100
AcDbEntity
  8
0
100
AcDbLine
 62
7
  6
CONTINUOUS
 10
37.5000637576
 20
49.2592851777
 11
37.5000637576
 21
44.5104154594
  0
LINE
  5
34F
100
AcDbEntity
  8
0
100
AcDbLine
 62
7
  6
CONTINUOUS
 10
48.0754284254
 20
44.5104154594
 11
48.0754284254
 21
49.2592851777
  0
LINE
  5
350
100
AcDbEntity
  8
0
100
AcDbLine
 62
7
  6
CONTINUOUS
 10
52.587584017
 20
42.2613694892
 11
52.587584017
 21
51.3216514553
  0
LINE
  5
351
100
AcDbEntity
  8
0
100
AcDbLine
 62
7
  6
CONTINUOUS
 10
57.2877460915
 20
39.6541468988
 11
57.2877460915
 21
53.2211993426
  0
LINE
  5
352
100
AcDbEntity
  8
0
100
AcDbLine
 62
7
  6
CONTINUOUS
 10
41.0251853135
 20
62.6103931854
 11
30.0503068695
 21
56.2740441614
  0
LINE
  5
353
100
AcDbEntity
  8
0
100
AcDbLine
 62
7
  6
CONTINUOUS
 10
41.7302096247
 20
57.5901594833
 11
34.0454446328
 21
53.1533583466
  0
LINE
  5
354
100
AcDbEntity
  8
0
100
AcDbLine
 62
7
  6
CONTINUOUS
 10
42.2002258322
 20
52.6513349764
 11
38.087584017
 21
50.2769001173
  0
LINE
  5
355
100
AcDbEntity
  8
0
100
AcDbLine
 62
7
  6
CONTINUOUS
 10
43.3752663508
 20
41.1183656607
 11
47.4879081661
 21
43.4928005198
  0
LINE
  5
356
100
AcDbEntity
  8
0
100
AcDbLine
 62
7
  6
CONTINUOUS
 10
43.8452825583
 20
36.1795411538
 11
50.1905013589
 21
39.8429549364
  0
LINE
  5
357
100
AcDbEntity
  8
0
100
AcDbLine
 62
7
  6
CONTINUOUS
 10
44.5503068695
 20
31.1593074517
 11
54.984666675
 21
37.1835878942
  0
ARC
  5
358
100
AcDbEntity
  8
0
100
AcDbCircle
 62
7
  6
CONTINUOUS
 10
53.7626245356
 20
53.2211993426
 40
3.5251215559
100
AcDbArc
 50
0.0
 51
60.0
  0
ARC
  5
359
100
AcDbEntity
  8
0
100
AcDbCircle
 62
7
  6
CONTINUOUS
 10
42.7877460915
 20
59.5575483666
 40
3.5251215559
100
AcDbArc
 50
60.0
 51
120.0
  0
ARC
  5
35A
100
AcDbEntity
  8
0
100
AcDbCircle
 62
7
  6
CONTINUOUS
 10
31.8128676474
 20
53.2211993426
 40
3.5251215559
100
AcDbArc
 50
120.0
 51
180.0
  0
ARC
  5
35B
100
AcDbEntity
  8
0
100
AcDbCircle
 62
7
  6
CONTINUOUS
 10
31.8128676474
 20
40.5485012945
 40
3.5251215559
100
AcDbArc
 50
180.0
 51
240.0
  0
ARC
  5
35C
100
AcDbEntity
  8
0
100
AcDbCircle
 62
7
  6
CONTINUOUS
 10
42.7877460915
 20
34.2121522705
 40
3.5251215559
100
AcDbArc
 50
240.0
 51
300.0
  0
ARC
  5
35D
100
AcDbEntity
  8
0
100
AcDbCircle
 62
7
  6
CONTINUOUS
 10
50.4725110834
 20
51.3216514553
 40
2.1150729335
100
AcDbArc
 50
0.0
 51
60.0
  0
ARC
  5
35E
100
AcDbEntity
  8
0
100
AcDbCircle
 62
7
  6
CONTINUOUS
 10
42.7877460915
 20
55.758452592
 40
2.1150729335
100
AcDbArc
 50
60.0
 51
120.0
  0
ARC
  5
35F
100
AcDbEntity
  8
0
100
AcDbCircle
 62
7
  6
CONTINUOUS
 10
35.1029810996
 20
51.3216514553
 40
2.1150729335
100
AcDbArc
 50
120.0
 51
180.0
  0
ARC
  5
360
100
AcDbEntity
  8
0
100
AcDbCircle
 62
7
  6
CONTINUOUS
 10
35.1029810996
 20
42.4480491818
 40
2.1150729335
100
AcDbArc
 50
180.0
 51
240.0
  0
ARC
  5
361
100
AcDbEntity
  8
0
100
AcDbCircle
 62
7
  6
CONTINUOUS
 10
42.7877460915
 20
38.0112480451
 40
2.1150729335
100
AcDbArc
 50
240.0
 51
300.0
  0
ARC
  5
362
100
AcDbEntity
  8
0
100
AcDbCircle
 62
7
  6
CONTINUOUS
 10
42.7877460915
 20
42.1359806003
 40
1.1750405186
100
AcDbArc
 50
240.0
 51
300.0
  0
ARC
  5
363
100
AcDbEntity
  8
0
100
AcDbCircle
 62
7
  6
CONTINUOUS
 10
46.9003879067
 20
44.5104154594
 40
1.1750405186
100
AcDbArc
 50
300.0
 51
360.0
  0
ARC
  5
364
100
AcDbEntity
  8
0
100
AcDbCircle
 62
7
  6
CONTINUOUS
 10
46.9003879067
 20
49.2592851777
 40
1.1750405186
100
AcDbArc
 50
0.0
 51
60.0
  0
ARC
  5
365
100
AcDbEntity
  8
0
100
AcDbCircle
 62
7
  6
CONTINUOUS
 10
42.7877460915
 20
51.6337200368
 40
1.1750405186
100
AcDbArc
 50
60.0
 51
120.0
  0
ARC
  5
366
100
AcDbEntity
  8
0
100
AcDbCircle
 62
7
  6
CONTINUOUS
 10
38.6751042763
 20
49.2592851777
 40
1.1750405186
100
AcDbArc
 50
120.0
 51
180.0
  0
ARC
  5
367
100
AcDbEntity
  8
0
100
AcDbCircle
 62
7
  6
CONTINUOUS
 10
38.6751042763
 20
44.5104154594
 40
1.1750405186
100
AcDbArc
 50
180.0
 51
240.0
  0
HATCH
  5
368
100
AcDbEntity
  8
0
100
AcDbHatch
 62
7
  6
CONTINUOUS
 10
0.0
 20
0.0
 30
0.0
210
0.0
220
0.0
230
1.0
  2
XSEC0001
 70
1
 71
1
 91
2
 92
1
 93
24
 72
1
 10
54.984666675
 20
37.1835878942
 11
44.5503068695
 21
31.1593074517
 72
2
 10
42.7877460915
 20
34.2121522705
 40
3.5251215559
 50
-300.0
 51
-240.0
 73
0
 72
1
 10
41.0251853135
 20
31.1593074517
 11
30.0503068695
 21
37.4956564757
 72
2
 10
31.8128676474
 20
40.5485012945
 40
3.5251215559
 50
-240.0
 51
-180.0
 73
0
 72
1
 10
28.2877460915
 20
40.5485012945
 11
28.2877460915
 21
53.2211993426
 72
2
 10
31.8128676474
 20
53.2211993426
 40
3.5251215559
 50
-180.0
 51
-120.0
 73
0
 72
1
 10
30.0503068695
 20
56.2740441614
 11
41.0251853135
 21
62.6103931854
 72
2
 10
42.7877460915
 20
59.5575483666
 40
3.5251215559
 50
-120.0
 51
-60.0
 73
0
 72
1
 10
44.5503068695
 20
62.6103931854
 11
55.5251853135
 21
56.2740441614
 72
2
 10
53.7626245356
 20
53.2211993426
 40
3.5251215559
 50
-60.0
 51
0.0
 73
0
 72
1
 10
57.2877460915
 20
53.2211993426
 11
57.2877460915
 21
39.6541468988
 72
1
 10
57.2877460915
 20
39.6541468988
 11
52.587584017
 21
42.2613694892
 72
1
 10
52.587584017
 20
42.2613694892
 11
52.587584017
 21
51.3216514553
 72
2
 10
50.4725110834
 20
51.3216514553
 40
2.1150729335
 50
0.0
 51
60.0
 73
1
 72
1
 10
51.5300475502
 20
53.1533583466
 11
43.8452825583
 21
57.5901594833
 72
2
 10
42.7877460915
 20
55.758452592
 40
2.1150729335
 50
60.0
 51
120.0
 73
1
 72
1
 10
41.7302096247
 20
57.5901594833
 11
34.0454446328
 21
53.1533583466
 72
2
 10
35.1029810996
 20
51.3216514553
 40
2.1150729335
 50
120.0
 51
180.0
 73
1
 72
1
 10
32.9879081661
 20
51.3216514553
 11
32.9879081661
 21
42.4480491818
 72
2
 10
35.1029810996
 20
42.4480491818
 40
2.1150729335
 50
180.0
 51
240.0
 73
1
 72
1
 10
34.0454446328
 20
40.6163422905
 11
41.7302096247
 21
36.1795411538
 72
2
 10
42.7877460915
 20
38.0112480451
 40
2.1150729335
 50
240.0
 51
300.0
 73
1
 72
1
 10
43.8452825583
 20
36.1795411538
 11
50.1905013589
 21
39.8429549364
 72
1
 10
50.1905013589
 20
39.8429549364
 11
54.984666675
 21
37.1835878942
 97
36
330
344
330
345
330
346
330
347
330
348
330
349
330
34A
330
34B
330
34C
330
34D
330
34E
330
34F
330
350
330
351
330
352
330
353
330
354
330
355
330
356
330
357
330
358
330
359
330
35A
330
35B
330
35C
330
35D
330
35E
330
35F
330
360
330
361
330
362
330
363
330
364
330
365
330
366
330
367
 92
1
 93
12
 72
2
 10
42.7877460915
 20
42.1359806003
 40
1.1750405186
 50
240.0
 51
300.0
 73
1
 72
1
 10
43.3752663508
 20
41.1183656607
 11
47.4879081661
 21
43.4928005198
 72
2
 10
46.9003879067
 20
44.5104154594
 40
1.1750405186
 50
-60.0
 51
0.0
 73
1
 72
1
 10
48.0754284254
 20
44.5104154594
 11
48.0754284254
 21
49.2592851777
 72
2
 10
46.9003879067
 20
49.2592851777
 40
1.1750405186
 50
0.0
 51
60.0
 73
1
 72
1
 10
47.4879081661
 20
50.2769001173
 11
43.3752663508
 21
52.6513349764
 72
2
 10
42.7877460915
 20
51.6337200368
 40
1.1750405186
 50
60.0
 51
120.0
 73
1
 72
1
 10
42.2002258322
 20
52.6513349764
 11
38.087584017
 21
50.2769001173
 72
2
 10
38.6751042763
 20
49.2592851777
 40
1.1750405186
 50
120.0
 51
180.0
 73
1
 72
1
 10
37.5000637576
 20
49.2592851777
 11
37.5000637576
 21
44.5104154594
 72
2
 10
38.6751042763
 20
44.5104154594
 40
1.1750405186
 50
180.0
 51
240.0
 73
1
 72
1
 10
38.087584017
 20
43.4928005198
 11
42.2002258322
 21
41.1183656607
 97
36
330
344
330
345
330
346
330
347
330
348
330
349
330
34A
330
34B
330
34C
330
34D
330
34E
330
34F
330
350
330
351
330
352
330
353
330
354
330
355
330
356
330
357
330
358
330
359
330
35A
330
35B
330
35C
330
35D
330
35E
330
35F
330
360
330
361
330
362
330
363
330
364
330
365
330
366
330
367
 75
0
 76
1
 98
1
 10
0.0
 20
0.0
  0
LINE
  5
369
100
AcDbEntity
  8
0
100
AcDbLine
 62
7
  6
CONTINUOUS
 10
136.438475427
 20
45.2097535016
 11
126.8031431742
 21
53.9245126093
  0
LINE
  5
36A
100
AcDbEntity
  8
0
100
AcDbLine
 62
7
  6
CONTINUOUS
 10
137.9425272909
 20
47.2502824634
 11
130.5632728338
 21
53.9245126093
  0
LINE
  5
36B
100
AcDbEntity
  8
0
100
AcDbLine
 62
7
  6
CONTINUOUS
 10
136.438475427
 20
45.2097535016
 11
136.438475427
 21
39.5420166612
  0
LINE
  5
36C
100
AcDbEntity
  8
0
100
AcDbLine
 62
7
  6
CONTINUOUS
 10
139.4465791547
 20
45.2097535016
 11
139.4465791547
 21
39.5420166612
  0
LINE
  5
36D
100
AcDbEntity
  8
0
100
AcDbLine
 62
7
  6
CONTINUOUS
 10
139.4465791547
 20
39.5420166612
 11
136.438475427
 21
39.5420166612
  0
LINE
  5
36E
100
AcDbEntity
  8
0
100
AcDbLine
 62
7
  6
CONTINUOUS
 10
130.5632728338
 20
53.9245126093
 11
126.8031431742
 21
53.9245126093
  0
LINE
  5
36F
100
AcDbEntity
  8
0
100
AcDbLine
 62
7
  6
CONTINUOUS
 10
145.3217817479
 20
53.9245126093
 11
149.0819114076
 21
53.9245126093
  0
LINE
  5
370
100
AcDbEntity
  8
0
100
AcDbLine
 62
7
  6
CONTINUOUS
 10
137.9425272909
 20
47.2502824634
 11
145.3217817479
 21
53.9245126093
  0
LINE
  5
371
100
AcDbEntity
  8
0
100
AcDbLine
 62
7
  6
CONTINUOUS
 10
139.4465791547
 20
45.2097535016
 11
149.0819114076
 21
53.9245126093
  0
HATCH
  5
372
100
AcDbEntity
  8
0
100
AcDbHatch
 62
7
  6
CONTINUOUS
 10
0.0
 20
0.0
 30
0.0
210
0.0
220
0.0
230
1.0
  2
XSEC0005
 70
1
 71
1
 91
1
 92
1
 93
9
 72
1
 10
126.8031431742
 20
53.9245126093
 11
130.5632728338
 21
53.9245126093
 72
1
 10
130.5632728338
 20
53.9245126093
 11
137.9425272909
 21
47.2502824634
 72
1
 10
137.9425272909
 20
47.2502824634
 11
145.3217817479
 21
53.9245126093
 72
1
 10
145.3217817479
 20
53.9245126093
 11
149.0819114076
 21
53.9245126093
 72
1
 10
149.0819114076
 20
53.9245126093
 11
139.4465791547
 21
45.2097535016
 72
1
 10
139.4465791547
 20
45.2097535016
 11
139.4465791547
 21
39.5420166612
 72
1
 10
139.4465791547
 20
39.5420166612
 11
136.438475427
 21
39.5420166612
 72
1
 10
136.438475427
 20
39.5420166612
 11
136.438475427
 21
45.2097535016
 72
1
 10
136.438475427
 20
45.2097535016
 11
126.8031431742
 21
53.9245126093
 97
9
330
369
330
36A
330
36B
330
36C
330
36D
330
36E
330
36F
330
370
330
371
 75
0
 76
1
 98
1
 10
0.0
 20
0.0
  0
LINE
  5
373
100
AcDbEntity
  8
0
100
AcDbLine
 62
7
  6
CONTINUOUS
 10
70.6362063832
 20
43.3021463208
 11
70.6362063832
 21
50.1643829497
  0
LINE
  5
374
100
AcDbEntity
  8
0
100
AcDbLine
 62
7
  6
CONTINUOUS
 10
73.2212955242
 20
43.3256471312
 11
73.2212955242
 21
50.1408821393
  0
LINE
  5
375
100
AcDbEntity
  8
0
100
AcDbLine
 62
7
  6
CONTINUOUS
 10
81.8225921207
 20
39.5420166612
 11
81.8225921207
 21
41.7040912155
  0
LINE
  5
376
100
AcDbEntity
  8
0
100
AcDbLine
 62
7
  6
CONTINUOUS
 10
82.9976326393
 20
37.7559550728
 11
82.9976326393
 21
43.1141398378
  0
LINE
  5
377
100
AcDbEntity
  8
0
100
AcDbLine
 62
7
  6
CONTINUOUS
 10
85.7237266426
 20
37.7559550728
 11
85.7237266426
 21
43.1141398378
  0
LINE
  5
378
100
AcDbEntity
  8
0
100
AcDbLine
 62
7
  6
CONTINUOUS
 10
86.9927704027
 20
39.5420166612
 11
86.9927704027
 21
41.7040912155
  0
LINE
  5
379
100
AcDbEntity
  8
0
100
AcDbLine
 62
7
  6
CONTINUOUS
 10
89.6718627852
 20
43.3256471312
 11
89.6718627852
 21
50.1408821393
  0
LINE
  5
37A
100
AcDbEntity
  8
0
100
AcDbLine
 62
7
  6
CONTINUOUS
 10
92.2569519262
 20
43.3021463208
 11
92.2569519262
 21
50.1643829497
  0
LINE
  5
37B
100
AcDbEntity
  8
0
100
AcDbLine
 62
7
  6
CONTINUOUS
 10
82.9976326393
 20
37.7559550728
 11
85.7237266426
 21
37.7559550728
  0
LINE
  5
37C
100
AcDbEntity
  8
0
100
AcDbLine
 62
7
  6
CONTINUOUS
 10
87.3092568337
 20
39.5420166612
 11
86.9927704027
 21
39.5420166612
  0
LINE
  5
37D
100
AcDbEntity
  8
0
100
AcDbLine
 62
7
  6
CONTINUOUS
 10
75.5839014757
 20
39.5420166612
 11
81.8225921207
 21
39.5420166612
  0
LINE
  5
37E
100
AcDbEntity
  8
0
100
AcDbLine
 62
7
  6
CONTINUOUS
 10
87.0576385021
 20
41.7040912155
 11
86.9927704027
 21
41.7040912155
  0
LINE
  5
37F
100
AcDbEntity
  8
0
100
AcDbLine
 62
7
  6
CONTINUOUS
 10
75.8355198074
 20
41.7040912155
 11
81.8225921207
 21
41.7040912155
  0
LINE
  5
380
100
AcDbEntity
  8
0
100
AcDbLine
 62
7
  6
CONTINUOUS
 10
82.9976326393
 20
43.1141398378
 11
85.7237266426
 21
43.1141398378
  0
LINE
  5
381
100
AcDbEntity
  8
0
100
AcDbLine
 62
7
  6
CONTINUOUS
 10
75.8355198074
 20
51.762438055
 11
87.0576385021
 21
51.762438055
  0
LINE
  5
382
100
AcDbEntity
  8
0
100
AcDbLine
 62
7
  6
CONTINUOUS
 10
75.5839014757
 20
53.9245126093
 11
87.3092568337
 21
53.9245126093
  0
ELLIPSE
  5
383
100
AcDbEntity
  8
0
100
AcDbEllipse
 62
7
  6
CONTINUOUS
 10
87.0576385021
 20
43.3256471312
 30
0.0
 11
2.6142242831
 21
0.0
 31
0.0
 40
0.6202818657
 41
-1.5707963268
 42
0.0
  0
ELLIPSE
  5
384
100
AcDbEntity
  8
0
100
AcDbEllipse
 62
7
  6
CONTINUOUS
 10
87.3092568337
 20
43.3021463208
 30
0.0
 11
4.9476950925
 21
0.0
 31
0.0
 40
0.7599760271
 41
4.7123889804
 42
6.2831853072
  0
ELLIPSE
  5
385
100
AcDbEntity
  8
0
100
AcDbEllipse
 62
7
  6
CONTINUOUS
 10
75.8355198074
 20
43.3256471312
 30
0.0
 11
2.6142242831
 21
0.0
 31
0.0
 40
0.6202818657
 41
9.4247779608
 42
10.9955742876
  0
ELLIPSE
  5
386
100
AcDbEntity
  8
0
100
AcDbEllipse
 62
7
  6
CONTINUOUS
 10
75.8355198074
 20
50.1408821393
 30
0.0
 11
2.6142242831
 21
0.0
 31
0.0
 40
0.6202818657
 41
1.5707963268
 42
3.1415926536
  0
ELLIPSE
  5
387
100
AcDbEntity
  8
0
100
AcDbEllipse
 62
7
  6
CONTINUOUS
 10
75.5839014757
 20
43.3021463208
 30
0.0
 11
4.9476950925
 21
0.0
 31
0.0
 40
0.7599760271
 41
3.1415926536
 42
4.7123889804
  0
ELLIPSE
  5
388
100
AcDbEntity
  8
0
100
AcDbEllipse
 62
7
  6
CONTINUOUS
 10
75.5839014757
 20
50.1643829497
 30
0.0
 11
4.9476950925
 21
0.0
 31
0.0
 40
0.7599760271
 41
7.853981634
 42
9.4247779608
  0
ELLIPSE
  5
389
100
AcDbEntity
  8
0
100
AcDbEllipse
 62
7
  6
CONTINUOUS
 10
87.0576385021
 20
50.1408821393
 30
0.0
 11
-2.6142242831
 21
0.0
 31
0.0
 40
0.6202818657
 41
3.1415926536
 42
4.7123889804
  0
ELLIPSE
  5
38A
100
AcDbEntity
  8
0
100
AcDbEllipse
 62
7
  6
CONTINUOUS
 10
87.3092568337
 20
50.1643829497
 30
0.0
 11
4.9476950925
 21
0.0
 31
0.0
 40
0.7599760271
 41
0.0
 42
1.5707963268
  0
HATCH
  5
38B
100
AcDbEntity
  8
0
100
AcDbHatch
 62
7
  6
CONTINUOUS
 10
0.0
 20
0.0
 30
0.0
210
0.0
220
0.0
230
1.0
  2
XSEC0002
 70
1
 71
1
 91
2
 92
1
 93
20
 72
3
 10
75.5839014757
 20
50.1643829497
 11
4.9476950925
 21
0.0
 40
0.7599760271
 50
-180.0
 51
-90.0
 73
0
 72
1
 10
75.5839014757
 20
53.9245126093
 11
87.3092568337
 21
53.9245126093
 72
3
 10
87.3092568337
 20
50.1643829497
 11
4.9476950925
 21
0.0
 40
0.7599760271
 50
-90.0
 51
0.0
 73
0
 72
1
 10
92.2569519262
 20
50.1643829497
 11
92.2569519262
 21
43.3021463208
 72
3
 10
87.3092568337
 20
43.3021463208
 11
4.9476950925
 21
0.0
 40
0.7599760271
 50
0.0
 51
90.0
 73
0
 72
1
 10
87.3092568337
 20
39.5420166612
 11
86.9927704027
 21
39.5420166612
 72
1
 10
86.9927704027
 20
39.5420166612
 11
86.9927704027
 21
41.7040912155
 72
1
 10
86.9927704027
 20
41.7040912155
 11
87.0576385021
 21
41.7040912155
 72
3
 10
87.0576385021
 20
43.3256471312
 11
2.6142242831
 21
0.0
 40
0.6202818657
 50
-90.0
 51
0.0
 73
1
 72
1
 10
89.6718627852
 20
43.3256471312
 11
89.6718627852
 21
50.1408821393
 72
3
 10
87.0576385021
 20
50.1408821393
 11
-2.6142242831
 21
0.0
 40
0.6202818657
 50
180.0
 51
-90.0
 73
1
 72
1
 10
87.0576385021
 20
51.762438055
 11
75.8355198074
 21
51.762438055
 72
3
 10
75.8355198074
 20
50.1408821393
 11
2.6142242831
 21
0.0
 40
0.6202818657
 50
90.0
 51
180.0
 73
1
 72
1
 10
73.2212955242
 20
50.1408821393
 11
73.2212955242
 21
43.3256471312
 72
3
 10
75.8355198074
 20
43.3256471312
 11
2.6142242831
 21
0.0
 40
0.6202818657
 50
180.0
 51
-90.0
 73
1
 72
1
 10
75.8355198074
 20
41.7040912155
 11
81.8225921207
 21
41.7040912155
 72
1
 10
81.8225921207
 20
41.7040912155
 11
81.8225921207
 21
39.5420166612
 72
1
 10
81.8225921207
 20
39.5420166612
 11
75.5839014757
 21
39.5420166612
 72
3
 10
75.5839014757
 20
43.3021463208
 11
4.9476950925
 21
0.0
 40
0.7599760271
 50
-270.0
 51
-180.0
 73
0
 72
1
 10
70.6362063832
 20
43.3021463208
 11
70.6362063832
 21
50.1643829497
 97
24
330
373
330
374
330
375
330
376
330
377
330
378
330
379
330
37A
330
37B
330
37C
330
37D
330
37E
330
37F
330
380
330
381
330
382
330
383
330
384
330
385
330
386
330
387
330
388
330
389
330
38A
 92
1
 93
4
 72
1
 10
82.9976326393
 20
43.1141398378
 11
85.7237266426
 21
43.1141398378
 72
1
 10
85.7237266426
 20
43.1141398378
 11
85.7237266426
 21
37.7559550728
 72
1
 10
85.7237266426
 20
37.7559550728
 11
82.9976326393
 21
37.7559550728
 72
1
 10
82.9976326393
 20
37.7559550728
 11
82.9976326393
 21
43.1141398378
 97
24
330
373
330
374
330
375
330
376
330
377
330
378
330
379
330
37A
330
37B
330
37C
330
37D
330
37E
330
37F
330
380
330
381
330
382
330
383
330
384
330
385
330
386
330
387
330
388
330
389
330
38A
 75
0
 76
1
 98
1
 10
0.0
 20
0.0
  0
LINE
  5
38C
100
AcDbEntity
  8
0
100
AcDbLine
 62
7
  6
CONTINUOUS
 10
96.3460929311
 20
43.9601690112
 11
96.3460929311
 21
45.7462305996
  0
LINE
  5
38D
100
AcDbEntity
  8
0
100
AcDbLine
 62
7
  6
CONTINUOUS
 10
102.2212955242
 20
43.9601690112
 11
102.2212955242
 21
45.7462305996
  0
LINE
  5
38E
100
AcDbEntity
  8
0
100
AcDbLine
 62
7
  6
CONTINUOUS
 10
96.3460929311
 20
43.9601690112
 11
102.2212955242
 21
43.9601690112
  0
LINE
  5
38F
100
AcDbEntity
  8
0
100
AcDbLine
 62
7
  6
CONTINUOUS
 10
96.3460929311
 20
45.7462305996
 11
102.2212955242
 21
45.7462305996
  0
HATCH
  5
390
100
AcDbEntity
  8
0
100
AcDbHatch
 62
7
  6
CONTINUOUS
 10
0.0
 20
0.0
 30
0.0
210
0.0
220
0.0
230
1.0
  2
XSEC0003
 70
1
 71
1
 91
1
 92
1
 93
4
 72
1
 10
96.3460929311
 20
45.7462305996
 11
102.2212955242
 21
45.7462305996
 72
1
 10
102.2212955242
 20
45.7462305996
 11
102.2212955242
 21
43.9601690112
 72
1
 10
102.2212955242
 20
43.9601690112
 11
96.3460929311
 21
43.9601690112
 72
1
 10
96.3460929311
 20
43.9601690112
 11
96.3460929311
 21
45.7462305996
 97
4
330
38C
330
38D
330
38E
330
38F
 75
0
 76
1
 98
1
 10
0.0
 20
0.0
  0
LINE
  5
391
100
AcDbEntity
  8
0
100
AcDbLine
 62
7
  6
CONTINUOUS
 10
105.2764008727
 20
43.3021463208
 11
105.2764008727
 21
44.2421787357
  0
LINE
  5
392
100
AcDbEntity
  8
0
100
AcDbLine
 62
7
  6
CONTINUOUS
 10
105.2764008727
 20
49.4123570177
 11
105.2764008727
 21
50.1643829497
  0
LINE
  5
393
100
AcDbEntity
  8
0
100
AcDbLine
 62
7
  6
CONTINUOUS
 10
107.8614900137
 20
43.3256471312
 11
107.8614900137
 21
44.2421787357
  0
LINE
  5
394
100
AcDbEntity
  8
0
100
AcDbLine
 62
7
  6
CONTINUOUS
 10
107.8614900137
 20
49.4358578281
 11
107.8614900137
 21
50.1408821393
  0
LINE
  5
395
100
AcDbEntity
  8
0
100
AcDbLine
 62
7
  6
CONTINUOUS
 10
122.4319924448
 20
44.0306714424
 11
122.4319924448
 21
43.3256471312
  0
LINE
  5
396
100
AcDbEntity
  8
0
100
AcDbLine
 62
7
  6
CONTINUOUS
 10
122.4319924448
 20
49.2243505347
 11
122.4319924448
 21
50.1408821393
  0
LINE
  5
397
100
AcDbEntity
  8
0
100
AcDbLine
 62
7
  6
CONTINUOUS
 10
125.0170815858
 20
43.3021463208
 11
125.0170815858
 21
44.0541722527
  0
LINE
  5
398
100
AcDbEntity
  8
0
100
AcDbLine
 62
7
  6
CONTINUOUS
 10
125.0170815858
 20
49.2243505347
 11
125.0170815858
 21
50.1643829497
  0
LINE
  5
399
100
AcDbEntity
  8
0
100
AcDbLine
 62
7
  6
CONTINUOUS
 10
110.2240959652
 20
39.5420166612
 11
120.0693864933
 21
39.5420166612
  0
LINE
  5
39A
100
AcDbEntity
  8
0
100
AcDbLine
 62
7
  6
CONTINUOUS
 10
110.4757142968
 20
41.7040912155
 11
119.8177681617
 21
41.7040912155
  0
LINE
  5
39B
100
AcDbEntity
  8
0
100
AcDbLine
 62
7
  6
CONTINUOUS
 10
105.2764008727
 20
44.2421787357
 11
107.8614900137
 21
44.2421787357
  0
LINE
  5
39C
100
AcDbEntity
  8
0
100
AcDbLine
 62
7
  6
CONTINUOUS
 10
110.2240959652
 20
45.6522273581
 11
119.8177681617
 21
45.6522273581
  0
LINE
  5
39D
100
AcDbEntity
  8
0
100
AcDbLine
 62
7
  6
CONTINUOUS
 10
110.4757142968
 20
47.8143019124
 11
120.0693864933
 21
47.8143019124
  0
LINE
  5
39E
100
AcDbEntity
  8
0
100
AcDbLine
 62
7
  6
CONTINUOUS
 10
122.4319924448
 20
49.2243505347
 11
125.0170815858
 21
49.2243505347
  0
LINE
  5
39F
100
AcDbEntity
  8
0
100
AcDbLine
 62
7
  6
CONTINUOUS
 10
110.4757142968
 20
51.762438055
 11
119.8177681617
 21
51.762438055
  0
LINE
  5
3A0
100
AcDbEntity
  8
0
100
AcDbLine
 62
7
  6
CONTINUOUS
 10
110.2240959652
 20
53.9245126093
 11
120.0693864933
 21
53.9245126093
  0
ELLIPSE
  5
3A1
100
AcDbEntity
  8
0
100
AcDbEllipse
 62
7
  6
CONTINUOUS
 10
110.4757142968
 20
43.3256471312
 30
0.0
 11
2.6142242831
 21
0.0
 31
0.0
 40
0.6202818657
 41
9.4247779608
 42
10.9955742876
  0
ELLIPSE
  5
3A2
100
AcDbEntity
  8
0
100
AcDbEllipse
 62
7
  6
CONTINUOUS
 10
110.4757142968
 20
50.1408821393
 30
0.0
 11
2.6142242831
 21
0.0
 31
0.0
 40
0.6202818657
 41
1.5707963268
 42
3.1415926536
  0
ELLIPSE
  5
3A3
100
AcDbEntity
  8
0
100
AcDbEllipse
 62
7
  6
CONTINUOUS
 10
119.8177681617
 20
43.3256471312
 30
0.0
 11
2.6142242831
 21
-0.0
 31
0.0
 40
0.6202818657
 41
-1.5707963268
 42
0.0
  0
ELLIPSE
  5
3A4
100
AcDbEntity
  8
0
100
AcDbEllipse
 62
7
  6
CONTINUOUS
 10
119.8177681617
 20
50.1408821393
 30
0.0
 11
-2.6142242831
 21
0.0
 31
0.0
 40
0.6202818657
 41
3.1415926536
 42
4.7123889804
  0
ELLIPSE
  5
3A5
100
AcDbEntity
  8
0
100
AcDbEllipse
 62
7
  6
CONTINUOUS
 10
119.8177681617
 20
44.0306714424
 30
0.0
 11
2.6142242831
 21
0.0
 31
0.0
 40
0.6202818657
 41
0.0
 42
1.5707963268
  0
ELLIPSE
  5
3A6
100
AcDbEntity
  8
0
100
AcDbEllipse
 62
7
  6
CONTINUOUS
 10
110.4757142968
 20
49.4358578281
 30
0.0
 11
2.6142242831
 21
0.0
 31
0.0
 40
0.6202818657
 41
3.1415926536
 42
4.7123889804
  0
ELLIPSE
  5
3A7
100
AcDbEntity
  8
0
100
AcDbEllipse
 62
7
  6
CONTINUOUS
 10
120.0693864933
 20
43.3021463208
 30
0.0
 11
4.9476950925
 21
0.0
 31
0.0
 40
0.7599760271
 41
4.7123889804
 42
6.2831853072
  0
ELLIPSE
  5
3A8
100
AcDbEntity
  8
0
100
AcDbEllipse
 62
7
  6
CONTINUOUS
 10
110.2240959652
 20
43.3021463208
 30
0.0
 11
4.9476950925
 21
0.0
 31
0.0
 40
0.7599760271
 41
3.1415926536
 42
4.7123889804
  0
ELLIPSE
  5
3A9
100
AcDbEntity
  8
0
100
AcDbEllipse
 62
7
  6
CONTINUOUS
 10
120.0693864933
 20
50.1643829497
 30
0.0
 11
4.9476950925
 21
0.0
 31
0.0
 40
0.7599760271
 41
0.0
 42
1.5707963268
  0
ELLIPSE
  5
3AA
100
AcDbEntity
  8
0
100
AcDbEllipse
 62
7
  6
CONTINUOUS
 10
110.2240959652
 20
49.4123570177
 30
0.0
 11
4.9476950925
 21
0.0
 31
0.0
 40
0.7599760271
 41
9.4247779608
 42
10.9955742876
  0
ELLIPSE
  5
3AB
100
AcDbEntity
  8
0
100
AcDbEllipse
 62
7
  6
CONTINUOUS
 10
120.0693864933
 20
44.0541722527
 30
0.0
 11
4.9476950925
 21
0.0
 31
0.0
 40
0.7599760271
 41
6.2831853072
 42
7.853981634
  0
ELLIPSE
  5
3AC
100
AcDbEntity
  8
0
100
AcDbEllipse
 62
7
  6
CONTINUOUS
 10
110.2240959652
 20
50.1643829497
 30
0.0
 11
4.9476950925
 21
0.0
 31
0.0
 40
0.7599760271
 41
7.853981634
 42
9.4247779608
  0
HATCH
  5
3AD
100
AcDbEntity
  8
0
100
AcDbHatch
 62
7
  6
CONTINUOUS
 10
0.0
 20
0.0
 30
0.0
210
0.0
220
0.0
230
1.0
  2
XSEC0004
 70
1
 71
1
 91
1
 92
1
 93
28
 72
1
 10
105.2764008727
 20
44.2421787357
 11
107.8614900137
 21
44.2421787357
 72
1
 10
107.8614900137
 20
44.2421787357
 11
107.8614900137
 21
43.3256471312
 72
3
 10
110.4757142968
 20
43.3256471312
 11
2.6142242831
 21
0.0
 40
0.6202818657
 50
180.0
 51
-90.0
 73
1
 72
1
 10
110.4757142968
 20
41.7040912155
 11
119.8177681617
 21
41.7040912155
 72
3
 10
119.8177681617
 20
43.3256471312
 11
2.6142242831
 21
-0.0
 40
0.6202818657
 50
-90.0
 51
0.0
 73
1
 72
1
 10
122.4319924448
 20
43.3256471312
 11
122.4319924448
 21
44.0306714424
 72
3
 10
119.8177681617
 20
44.0306714424
 11
2.6142242831
 21
0.0
 40
0.6202818657
 50
0.0
 51
90.0
 73
1
 72
1
 10
119.8177681617
 20
45.6522273581
 11
110.2240959652
 21
45.6522273581
 72
3
 10
110.2240959652
 20
49.4123570177
 11
4.9476950925
 21
0.0
 40
0.7599760271
 50
-270.0
 51
-180.0
 73
0
 72
1
 10
105.2764008727
 20
49.4123570177
 11
105.2764008727
 21
50.1643829497
 72
3
 10
110.2240959652
 20
50.1643829497
 11
4.9476950925
 21
0.0
 40
0.7599760271
 50
-180.0
 51
-90.0
 73
0
 72
1
 10
110.2240959652
 20
53.9245126093
 11
120.0693864933
 21
53.9245126093
 72
3
 10
120.0693864933
 20
50.1643829497
 11
4.9476950925
 21
0.0
 40
0.7599760271
 50
-90.0
 51
0.0
 73
0
 72
1
 10
125.0170815858
 20
50.1643829497
 11
125.0170815858
 21
49.2243505347
 72
1
 10
125.0170815858
 20
49.2243505347
 11
122.4319924448
 21
49.2243505347
 72
1
 10
122.4319924448
 20
49.2243505347
 11
122.4319924448
 21
50.1408821393
 72
3
 10
119.8177681617
 20
50.1408821393
 11
-2.6142242831
 21
0.0
 40
0.6202818657
 50
180.0
 51
-90.0
 73
1
 72
1
 10
119.8177681617
 20
51.762438055
 11
110.4757142968
 21
51.762438055
 72
3
 10
110.4757142968
 20
50.1408821393
 11
2.6142242831
 21
0.0
 40
0.6202818657
 50
90.0
 51
180.0
 73
1
 72
1
 10
107.8614900137
 20
50.1408821393
 11
107.8614900137
 21
49.4358578281
 72
3
 10
110.4757142968
 20
49.4358578281
 11
2.6142242831
 21
0.0
 40
0.6202818657
 50
180.0
 51
-90.0
 73
1
 72
1
 10
110.4757142968
 20
47.8143019124
 11
120.0693864933
 21
47.8143019124
 72
3
 10
120.0693864933
 20
44.0541722527
 11
4.9476950925
 21
0.0
 40
0.7599760271
 50
-90.0
 51
0.0
 73
0
 72
1
 10
125.0170815858
 20
44.0541722527
 11
125.0170815858
 21
43.3021463208
 72
3
 10
120.0693864933
 20
43.3021463208
 11
4.9476950925
 21
0.0
 40
0.7599760271
 50
0.0
 51
90.0
 73
0
 72
1
 10
120.0693864933
 20
39.5420166612
 11
110.2240959652
 21
39.5420166612
 72
3
 10
110.2240959652
 20
43.3021463208
 11
4.9476950925
 21
0.0
 40
0.7599760271
 50
-270.0
 51
-180.0
 73
0
 72
1
 10
105.2764008727
 20
43.3021463208
 11
105.2764008727
 21
44.2421787357
 97
28
330
391
330
392
330
393
330
394
330
395
330
396
330
397
330
398
330
399
330
39A
330
39B
330
39C
330
39D
330
39E
330
39F
330
3A0
330
3A1
330
3A2
330
3A3
330
3A4
330
3A5
330
3A6
330
3A7
330
3A8
330
3A9
330
3AA
330
3AB
330
3AC
 75
0
 76
1
 98
1
 10
0.0
 20
0.0
  0
LINE
  5
3AE
100
AcDbEntity
  8
0
100
AcDbLine
 62
7
  6
CONTINUOUS
 10
150.3039535469
 20
43.3021463208
 11
150.3039535469
 21
44.2421787357
  0
LINE
  5
3AF
100
AcDbEntity
  8
0
100
AcDbLine
 62
7
  6
CONTINUOUS
 10
150.3039535469
 20
49.4123570177
 11
150.3039535469
 21
50.1643829497
  0
LINE
  5
3B0
100
AcDbEntity
  8
0
100
AcDbLine
 62
7
  6
CONTINUOUS
 10
152.8890426879
 20
43.3256471312
 11
152.8890426879
 21
44.2421787357
  0
LINE
  5
3B1
100
AcDbEntity
  8
0
100
AcDbLine
 62
7
  6
CONTINUOUS
 10
152.8890426879
 20
49.4358578281
 11
152.8890426879
 21
50.1408821393
  0
LINE
  5
3B2
100
AcDbEntity
  8
0
100
AcDbLine
 62
7
  6
CONTINUOUS
 10
167.4595451191
 20
44.0306714424
 11
167.4595451191
 21
43.3256471312
  0
LINE
  5
3B3
100
AcDbEntity
  8
0
100
AcDbLine
 62
7
  6
CONTINUOUS
 10
167.4595451191
 20
49.2243505347
 11
167.4595451191
 21
50.1408821393
  0
LINE
  5
3B4
100
AcDbEntity
  8
0
100
AcDbLine
 62
7
  6
CONTINUOUS
 10
170.0446342601
 20
43.3021463208
 11
170.0446342601
 21
44.0541722527
  0
LINE
  5
3B5
100
AcDbEntity
  8
0
100
AcDbLine
 62
7
  6
CONTINUOUS
 10
170.0446342601
 20
49.2243505347
 11
170.0446342601
 21
50.1643829497
  0
LINE
  5
3B6
100
AcDbEntity
  8
0
100
AcDbLine
 62
7
  6
CONTINUOUS
 10
155.2516486394
 20
39.5420166612
 11
165.0969391676
 21
39.5420166612
  0
LINE
  5
3B7
100
AcDbEntity
  8
0
100
AcDbLine
 62
7
  6
CONTINUOUS
 10
155.503266971
 20
41.7040912155
 11
164.8453208359
 21
41.7040912155
  0
LINE
  5
3B8
100
AcDbEntity
  8
0
100
AcDbLine
 62
7
  6
CONTINUOUS
 10
150.3039535469
 20
44.2421787357
 11
152.8890426879
 21
44.2421787357
  0
LINE
  5
3B9
100
AcDbEntity
  8
0
100
AcDbLine
 62
7
  6
CONTINUOUS
 10
155.2516486394
 20
45.6522273581
 11
164.8453208359
 21
45.6522273581
  0
LINE
  5
3BA
100
AcDbEntity
  8
0
100
AcDbLine
 62
7
  6
CONTINUOUS
 10
155.503266971
 20
47.8143019124
 11
165.0969391676
 21
47.8143019124
  0
LINE
  5
3BB
100
AcDbEntity
  8
0
100
AcDbLine
 62
7
  6
CONTINUOUS
 10
167.4595451191
 20
49.2243505347
 11
170.0446342601
 21
49.2243505347
  0
LINE
  5
3BC
100
AcDbEntity
  8
0
100
AcDbLine
 62
7
  6
CONTINUOUS
 10
155.503266971
 20
51.762438055
 11
164.8453208359
 21
51.762438055
  0
LINE
  5
3BD
100
AcDbEntity
  8
0
100
AcDbLine
 62
7
  6
CONTINUOUS
 10
155.2516486394
 20
53.9245126093
 11
165.0969391676
 21
53.9245126093
  0
ELLIPSE
  5
3BE
100
AcDbEntity
  8
0
100
AcDbEllipse
 62
7
  6
CONTINUOUS
 10
155.503266971
 20
43.3256471312
 30
0.0
 11
2.6142242831
 21
0.0
 31
0.0
 40
0.6202818657
 41
9.4247779608
 42
10.9955742876
  0
ELLIPSE
  5
3BF
100
AcDbEntity
  8
0
100
AcDbEllipse
 62
7
  6
CONTINUOUS
 10
155.503266971
 20
50.1408821393
 30
0.0
 11
2.6142242831
 21
0.0
 31
0.0
 40
0.6202818657
 41
1.5707963268
 42
3.1415926536
  0
ELLIPSE
  5
3C0
100
AcDbEntity
  8
0
100
AcDbEllipse
 62
7
  6
CONTINUOUS
 10
164.8453208359
 20
43.3256471312
 30
0.0
 11
2.6142242831
 21
-0.0
 31
0.0
 40
0.6202818657
 41
-1.5707963268
 42
0.0
  0
ELLIPSE
  5
3C1
100
AcDbEntity
  8
0
100
AcDbEllipse
 62
7
  6
CONTINUOUS
 10
164.8453208359
 20
50.1408821393
 30
0.0
 11
-2.6142242831
 21
0.0
 31
0.0
 40
0.6202818657
 41
3.1415926536
 42
4.7123889804
  0
ELLIPSE
  5
3C2
100
AcDbEntity
  8
0
100
AcDbEllipse
 62
7
  6
CONTINUOUS
 10
164.8453208359
 20
44.0306714424
 30
0.0
 11
2.6142242831
 21
0.0
 31
0.0
 40
0.6202818657
 41
0.0
 42
1.5707963268
  0
ELLIPSE
  5
3C3
100
AcDbEntity
  8
0
100
AcDbEllipse
 62
7
  6
CONTINUOUS
 10
155.503266971
 20
49.4358578281
 30
0.0
 11
2.6142242831
 21
0.0
 31
0.0
 40
0.6202818657
 41
3.1415926536
 42
4.7123889804
  0
ELLIPSE
  5
3C4
100
AcDbEntity
  8
0
100
AcDbEllipse
 62
7
  6
CONTINUOUS
 10
165.0969391676
 20
43.3021463208
 30
0.0
 11
4.9476950925
 21
0.0
 31
0.0
 40
0.7599760271
 41
4.7123889804
 42
6.2831853072
  0
ELLIPSE
  5
3C5
100
AcDbEntity
  8
0
100
AcDbEllipse
 62
7
  6
CONTINUOUS
 10
155.2516486394
 20
43.3021463208
 30
0.0
 11
4.9476950925
 21
0.0
 31
0.0
 40
0.7599760271
 41
3.1415926536
 42
4.7123889804
  0
ELLIPSE
  5
3C6
100
AcDbEntity
  8
0
100
AcDbEllipse
 62
7
  6
CONTINUOUS
 10
165.0969391676
 20
50.1643829497
 30
0.0
 11
4.9476950925
 21
0.0
 31
0.0
 40
0.7599760271
 41
0.0
 42
1.5707963268
  0
ELLIPSE
  5
3C7
100
AcDbEntity
  8
0
100
AcDbEllipse
 62
7
  6
CONTINUOUS
 10
155.2516486394
 20
50.1643829497
 30
0.0
 11
4.9476950925
 21
0.0
 31
0.0
 40
0.7599760271
 41
7.853981634
 42
9.4247779608
  0
ELLIPSE
  5
3C8
100
AcDbEntity
  8
0
100
AcDbEllipse
 62
7
  6
CONTINUOUS
 10
155.2516486394
 20
49.4123570177
 30
0.0
 11
4.9476950925
 21
0.0
 31
0.0
 40
0.7599760271
 41
9.4247779608
 42
10.9955742876
  0
ELLIPSE
  5
3C9
100
AcDbEntity
  8
0
100
AcDbEllipse
 62
7
  6
CONTINUOUS
 10
165.0969391676
 20
44.0541722527
 30
0.0
 11
4.9476950925
 21
0.0
 31
0.0
 40
0.7599760271
 41
6.2831853072
 42
7.853981634
  0
HATCH
  5
3CA
100
AcDbEntity
  8
0
100
AcDbHatch
 62
7
  6
CONTINUOUS
 10
0.0
 20
0.0
 30
0.0
210
0.0
220
0.0
230
1.0
  2
XSEC0006
 70
1
 71
1
 91
1
 92
1
 93
28
 72
1
 10
150.3039535469
 20
44.2421787357
 11
152.8890426879
 21
44.2421787357
 72
1
 10
152.8890426879
 20
44.2421787357
 11
152.8890426879
 21
43.3256471312
 72
3
 10
155.503266971
 20
43.3256471312
 11
2.6142242831
 21
0.0
 40
0.6202818657
 50
180.0
 51
-90.0
 73
1
 72
1
 10
155.503266971
 20
41.7040912155
 11
164.8453208359
 21
41.7040912155
 72
3
 10
164.8453208359
 20
43.3256471312
 11
2.6142242831
 21
-0.0
 40
0.6202818657
 50
-90.0
 51
0.0
 73
1
 72
1
 10
167.4595451191
 20
43.3256471312
 11
167.4595451191
 21
44.0306714424
 72
3
 10
164.8453208359
 20
44.0306714424
 11
2.6142242831
 21
0.0
 40
0.6202818657
 50
0.0
 51
90.0
 73
1
 72
1
 10
164.8453208359
 20
45.6522273581
 11
155.2516486394
 21
45.6522273581
 72
3
 10
155.2516486394
 20
49.4123570177
 11
4.9476950925
 21
0.0
 40
0.7599760271
 50
-270.0
 51
-180.0
 73
0
 72
1
 10
150.3039535469
 20
49.4123570177
 11
150.3039535469
 21
50.1643829497
 72
3
 10
155.2516486394
 20
50.1643829497
 11
4.9476950925
 21
0.0
 40
0.7599760271
 50
-180.0
 51
-90.0
 73
0
 72
1
 10
155.2516486394
 20
53.9245126093
 11
165.0969391676
 21
53.9245126093
 72
3
 10
165.0969391676
 20
50.1643829497
 11
4.9476950925
 21
0.0
 40
0.7599760271
 50
-90.0
 51
0.0
 73
0
 72
1
 10
170.0446342601
 20
50.1643829497
 11
170.0446342601
 21
49.2243505347
 72
1
 10
170.0446342601
 20
49.2243505347
 11
167.4595451191
 21
49.2243505347
 72
1
 10
167.4595451191
 20
49.2243505347
 11
167.4595451191
 21
50.1408821393
 72
3
 10
164.8453208359
 20
50.1408821393
 11
-2.6142242831
 21
0.0
 40
0.6202818657
 50
180.0
 51
-90.0
 73
1
 72
1
 10
164.8453208359
 20
51.762438055
 11
155.503266971
 21
51.762438055
 72
3
 10
155.503266971
 20
50.1408821393
 11
2.6142242831
 21
0.0
 40
0.6202818657
 50
90.0
 51
180.0
 73
1
 72
1
 10
152.8890426879
 20
50.1408821393
 11
152.8890426879
 21
49.4358578281
 72
3
 10
155.503266971
 20
49.4358578281
 11
2.6142242831
 21
0.0
 40
0.6202818657
 50
180.0
 51
-90.0
 73
1
 72
1
 10
155.503266971
 20
47.8143019124
 11
165.0969391676
 21
47.8143019124
 72
3
 10
165.0969391676
 20
44.0541722527
 11
4.9476950925
 21
0.0
 40
0.7599760271
 50
-90.0
 51
0.0
 73
0
 72
1
 10
170.0446342601
 20
44.0541722527
 11
170.0446342601
 21
43.3021463208
 72
3
 10
165.0969391676
 20
43.3021463208
 11
4.9476950925
 21
0.0
 40
0.7599760271
 50
0.0
 51
90.0
 73
0
 72
1
 10
165.0969391676
 20
39.5420166612
 11
155.2516486394
 21
39.5420166612
 72
3
 10
155.2516486394
 20
43.3021463208
 11
4.9476950925
 21
0.0
 40
0.7599760271
 50
-270.0
 51
-180.0
 73
0
 72
1
 10
150.3039535469
 20
43.3021463208
 11
150.3039535469
 21
44.2421787357
 97
28
330
3AE
330
3AF
330
3B0
330
3B1
330
3B2
330
3B3
330
3B4
330
3B5
330
3B6
330
3B7
330
3B8
330
3B9
330
3BA
330
3BB
330
3BC
330
3BD
330
3BE
330
3BF
330
3C0
330
3C1
330
3C2
330
3C3
330
3C4
330
3C5
330
3C6
330
3C7
330
3C8
330
3C9
 75
0
 76
1
 98
1
 10
0.0
 20
0.0
  0
LWPOLYLINE
  5
3CB
100
AcDbEntity
  8
0
100
AcDbPolyline
 62
7
  6
CONTINUOUS
 90
2
 70
0
 43
0.9999999955
 10
736.9639201033
 20
35.0787110479
 10
752.2039201037
 20
32.5387110479
  0
LWPOLYLINE
  5
3CC
100
AcDbEntity
  8
0
100
AcDbPolyline
 62
7
  6
CONTINUOUS
 90
2
 70
0
 43
0.9999999955
 10
736.9639201033
 20
40.1587110479
 10
752.2039201037
 20
42.6987110479
  0
LWPOLYLINE
  5
3CD
100
AcDbEntity
  8
0
100
AcDbPolyline
 62
7
  6
CONTINUOUS
 90
2
 70
0
 43
0.3999999879
 10
720.2202401033
 20
37.6187110479
 10
733.3876001037
 20
37.6187110479
  0
LWPOLYLINE
  5
3CE
100
AcDbEntity
  8
0
100
AcDbPolyline
 62
7
  6
CONTINUOUS
 90
2
 70
0
 43
0.3999999879
 10
735.0723741361
 20
37.6187110479
 10
753.7584341337
 20
37.6187110479
  0
LWPOLYLINE
  5
3CF
100
AcDbEntity
  8
0
100
AcDbPolyline
 62
7
  6
CONTINUOUS
 90
2
 70
0
 43
0.9999999955
 10
1701.2
 20
72.0
 10
26.0
 20
72.0
  0
LWPOLYLINE
  5
3D0
100
AcDbEntity
  8
0
100
AcDbPolyline
 62
7
  6
CONTINUOUS
 90
2
 70
0
 43
0.3999999879
 10
726.8039201033
 20
31.0350310479
 10
726.8039201033
 20
44.2023910479
  0
LWPOLYLINE
  5
3D1
100
AcDbEntity
  8
0
100
AcDbPolyline
 62
7
  6
CONTINUOUS
 90
2
 70
0
 43
0.9999999955
 10
736.9639201033
 20
40.1587110479
 10
736.9639201033
 20
35.0787110479
  0
LWPOLYLINE
  5
3D2
100
AcDbEntity
  8
0
100
AcDbPolyline
 62
7
  6
CONTINUOUS
 90
2
 70
0
 43
0.9999999955
 10
752.2039201037
 20
42.6987110479
 10
752.2039201037
 20
32.5387110479
  0
LWPOLYLINE
  5
3D3
100
AcDbEntity
  8
0
100
AcDbPolyline
 62
7
  6
CONTINUOUS
 90
2
 70
0
 43
0.9999999955
 10
26.0
 20
1091.6
 10
1701.2
 20
1091.6
  0
LINE
  5
3D4
100
AcDbEntity
  8
6_COPYGEOM
100
AcDbLine
 62
7
  6
CONTINUOUS
 10
341.9029891304
 20
606.822845796
 11
341.9029891304
 21
566.3228458721
  0
LINE
  5
3D5
100
AcDbEntity
  8
7_ALL_ROUNDS
100
AcDbLine
 62
7
  6
CONTINUOUS
 10
341.9029891304
 20
544.3228458721
 11
341.9029891304
 21
566.3228458721
  0
LINE
  5
3D6
100
AcDbEntity
  8
7_ALL_ROUNDS
100
AcDbLine
 62
9
  6
CONTINUOUS
 10
346.9029891304
 20
544.3228458721
 11
346.9029891304
 21
561.3228458721
  0
LINE
  5
3D7
100
AcDbEntity
  8
6_COPYGEOM
100
AcDbLine
 62
7
  6
CONTINUOUS
 10
347.9029891304
 20
566.3228458721
 11
347.9029891304
 21
606.822845796
  0
LINE
  5
3D8
100
AcDbEntity
  8
7_ALL_ROUNDS
100
AcDbLine
 62
7
  6
CONTINUOUS
 10
346.9029891304
 20
561.3228458721
 11
341.9029891304
 21
566.3228458721
  0
LINE
  5
3D9
100
AcDbEntity
  8
7_ALL_ROUNDS
100
AcDbLine
 62
7
  6
CONTINUOUS
 10
341.9029891304
 20
544.3228458721
 11
816.9029891304
 21
544.3228458721
  0
LINE
  5
3DA
100
AcDbEntity
  8
3_ALL_AXES
100
AcDbLine
 62
7
  6
CENTER
 10
583.6569169608
 20
556.9530749228
 11
575.3583230722
 21
556.9530749228
  0
LINE
  5
3DB
100
AcDbEntity
  8
7_ALL_ROUNDS
100
AcDbLine
 62
9
  6
CONTINUOUS
 10
811.9029891304
 20
561.3228458721
 11
346.9029891304
 21
561.3228458721
  0
LINE
  5
3DC
100
AcDbEntity
  8
3_ALL_AXES
100
AcDbLine
 62
7
  6
CENTER
 10
579.4029891304
 20
552.4840934681
 11
579.4029891304
 21
560.5277585225
  0
LINE
  5
3DD
100
AcDbEntity
  8
7_ALL_ROUNDS
100
AcDbLine
 62
7
  6
CONTINUOUS
 10
816.9029891304
 20
566.3228458721
 11
341.9029891304
 21
566.3228458721
  0
LINE
  5
3DE
100
AcDbEntity
  8
6_COPYGEOM
100
AcDbLine
 62
9
  6
CONTINUOUS
 10
347.9029891304
 20
579.7430473053
 11
341.9029891304
 21
579.7430473053
  0
LINE
  5
3DF
100
AcDbEntity
  8
6_COPYGEOM
100
AcDbLine
 62
9
  6
CONTINUOUS
 10
810.9029891304
 20
579.7430473053
 11
816.9029891304
 21
579.7430473053
  0
LINE
  5
3E0
100
AcDbEntity
  8
6_COPYGEOM
100
AcDbLine
 62
9
  6
CONTINUOUS
 10
816.9029891304
 20
590.0475940805
 11
810.9029891304
 21
590.0475940805
  0
LINE
  5
3E1
100
AcDbEntity
  8
6_COPYGEOM
100
AcDbLine
 62
9
  6
CONTINUOUS
 10
341.9029891304
 20
590.0475940805
 11
347.9029891304
 21
590.0475940805
  0
LINE
  5
3E2
100
AcDbEntity
  8
6_COPYGEOM
100
AcDbLine
 62
7
  6
CONTINUOUS
 10
341.9029891304
 20
606.8228458721
 11
347.9029891304
 21
606.8228458721
  0
LINE
  5
3E3
100
AcDbEntity
  8
6_COPYGEOM
100
AcDbLine
 62
7
  6
CONTINUOUS
 10
810.9029891304
 20
606.8228458721
 11
816.9029891304
 21
606.8228458721
  0
LINE
  5
3E4
100
AcDbEntity
  8
7_ALL_ROUNDS
100
AcDbLine
 62
7
  6
CONTINUOUS
 10
811.9029891304
 20
561.3228458721
 11
816.9029891304
 21
566.3228458721
  0
LINE
  5
3E5
100
AcDbEntity
  8
6_COPYGEOM
100
AcDbLine
 62
7
  6
CONTINUOUS
 10
810.9029891304
 20
566.3228458721
 11
810.9029891304
 21
606.822845796
  0
LINE
  5
3E6
100
AcDbEntity
  8
7_ALL_ROUNDS
100
AcDbLine
 62
9
  6
CONTINUOUS
 10
811.9029891304
 20
561.3228458721
 11
811.9029891304
 21
544.3228458721
  0
LINE
  5
3E7
100
AcDbEntity
  8
6_COPYGEOM
100
AcDbLine
 62
7
  6
CONTINUOUS
 10
816.9029891304
 20
606.822845796
 11
816.9029891304
 21
566.3228458721
  0
LINE
  5
3E8
100
AcDbEntity
  8
7_ALL_ROUNDS
100
AcDbLine
 62
7
  6
CONTINUOUS
 10
816.9029891304
 20
566.3228458721
 11
816.9029891304
 21
544.3228458721
  0
LINE
  5
3E9
100
AcDbEntity
  8
6_COPYGEOM
100
AcDbLine
 62
7
  6
CONTINUOUS
 10
341.9029891304
 20
862.6539574431
 11
341.9029891304
 21
824.4643882349
  0
LINE
  5
3EA
100
AcDbEntity
  8
7_ALL_ROUNDS
100
AcDbLine
 62
7
  6
CONTINUOUS
 10
341.9029891304
 20
824.4643882349
 11
341.9029891304
 21
766.8569238989
  0
LINE
  5
3EB
100
AcDbEntity
  8
7_ALL_ROUNDS
100
AcDbLine
 62
7
  6
CONTINUOUS
 10
347.9029891304
 20
824.4643882349
 11
347.9029891304
 21
814.8569238989
  0
LINE
  5
3EC
100
AcDbEntity
  8
6_COPYGEOM
100
AcDbLine
 62
7
  6
CONTINUOUS
 10
347.9029891304
 20
824.4643882349
 11
347.9029891304
 21
862.6539574431
  0
LINE
  5
3ED
100
AcDbEntity
  8
7_ALL_ROUNDS
100
AcDbLine
 62
7
  6
CONTINUOUS
 10
811.9029891304
 20
761.8569238989
 11
346.9029891304
 21
761.8569238989
  0
LINE
  5
3EE
100
AcDbEntity
  8
7_ALL_ROUNDS
100
AcDbLine
 62
9
  6
CONTINUOUS
 10
816.9029891304
 20
766.8569238989
 11
341.9029891304
 21
766.8569238989
  0
LINE
  5
3EF
100
AcDbEntity
  8
3_ALL_AXES
100
AcDbLine
 62
7
  6
CENTER
 10
579.4029891304
 20
792.8134968943
 11
569.2428891304
 21
792.8134968943
  0
LINE
  5
3F0
100
AcDbEntity
  8
3_ALL_AXES
100
AcDbLine
 62
7
  6
CENTER
 10
579.4029891304
 20
792.8134968943
 11
589.5630891304
 21
792.8134968943
  0
LINE
  5
3F1
100
AcDbEntity
  8
3_ALL_AXES
100
AcDbLine
 62
7
  6
CENTER
 10
579.4029891304
 20
792.8134968943
 11
579.4029891304
 21
782.6533968943
  0
LINE
  5
3F2
100
AcDbEntity
  8
3_ALL_AXES
100
AcDbLine
 62
7
  6
CENTER
 10
579.4029891304
 20
792.8134968943
 11
579.4029891304
 21
802.9735968943
  0
LINE
  5
3F3
100
AcDbEntity
  8
7_ALL_ROUNDS
100
AcDbLine
 62
7
  6
CONTINUOUS
 10
350.9029891304
 20
811.8569238989
 11
807.9029891304
 21
811.8569238989
  0
LINE
  5
3F4
100
AcDbEntity
  8
6_COPYGEOM
100
AcDbLine
 62
9
  6
CONTINUOUS
 10
347.9029891304
 20
824.4643882349
 11
341.9029891304
 21
824.4643882349
  0
LINE
  5
3F5
100
AcDbEntity
  8
6_COPYGEOM
100
AcDbLine
 62
9
  6
CONTINUOUS
 10
810.9029891304
 20
824.4643882349
 11
816.9029891304
 21
824.4643882349
  0
LINE
  5
3F6
100
AcDbEntity
  8
6_COPYGEOM
100
AcDbLine
 62
7
  6
CONTINUOUS
 10
341.9029891304
 20
829.3569238989
 11
347.9029891304
 21
829.3569238989
  0
LINE
  5
3F7
100
AcDbEntity
  8
6_COPYGEOM
100
AcDbLine
 62
7
  6
CONTINUOUS
 10
810.9029891304
 20
829.3569238989
 11
816.9029891304
 21
829.3569238989
  0
LINE
  5
3F8
100
AcDbEntity
  8
6_COPYGEOM
100
AcDbLine
 62
9
  6
CONTINUOUS
 10
816.9029891304
 20
853.6030816587
 11
810.9029891304
 21
853.6030816587
  0
LINE
  5
3F9
100
AcDbEntity
  8
6_COPYGEOM
100
AcDbLine
 62
9
  6
CONTINUOUS
 10
341.9029891304
 20
853.6030816587
 11
347.9029891304
 21
853.6030816587
  0
LINE
  5
3FA
100
AcDbEntity
  8
6_COPYGEOM
100
AcDbLine
 62
9
  6
CONTINUOUS
 10
816.9029891304
 20
861.1462731192
 11
810.9029891304
 21
861.1462731192
  0
LINE
  5
3FB
100
AcDbEntity
  8
6_COPYGEOM
100
AcDbLine
 62
9
  6
CONTINUOUS
 10
341.9029891304
 20
861.1462731192
 11
347.9029891304
 21
861.1462731192
  0
LINE
  5
3FC
100
AcDbEntity
  8
6_COPYGEOM
100
AcDbLine
 62
7
  6
CONTINUOUS
 10
816.9029891304
 20
862.6539575996
 11
810.9029891304
 21
862.6539575996
  0
LINE
  5
3FD
100
AcDbEntity
  8
6_COPYGEOM
100
AcDbLine
 62
7
  6
CONTINUOUS
 10
347.9029891304
 20
862.6539575996
 11
341.9029891304
 21
862.6539575996
  0
LINE
  5
3FE
100
AcDbEntity
  8
7_ALL_ROUNDS
100
AcDbLine
 62
7
  6
CONTINUOUS
 10
810.9029891304
 20
824.4643882349
 11
810.9029891304
 21
814.8569238989
  0
LINE
  5
3FF
100
AcDbEntity
  8
6_COPYGEOM
100
AcDbLine
 62
7
  6
CONTINUOUS
 10
810.9029891304
 20
824.4643882349
 11
810.9029891304
 21
862.6539574431
  0
LINE
  5
400
100
AcDbEntity
  8
6_COPYGEOM
100
AcDbLine
 62
7
  6
CONTINUOUS
 10
816.9029891304
 20
862.6539574431
 11
816.9029891304
 21
824.4643882349
  0
LINE
  5
401
100
AcDbEntity
  8
7_ALL_ROUNDS
100
AcDbLine
 62
7
  6
CONTINUOUS
 10
816.9029891304
 20
824.4643882349
 11
816.9029891304
 21
766.8569238989
  0
LINE
  5
402
100
AcDbEntity
  8
7_ALL_ROUNDS
100
AcDbLine
 62
7
  6
CONTINUOUS
 10
1001.8273926489
 20
561.3228458721
 11
1001.8273926489
 21
544.3228458721
  0
LINE
  5
403
100
AcDbEntity
  8
7_ALL_ROUNDS
100
AcDbLine
 62
9
  6
CONTINUOUS
 10
1006.8273926489
 20
566.3228458721
 11
1006.8273926489
 21
544.3228458721
  0
LINE
  5
404
100
AcDbEntity
  8
7_ALL_ROUNDS
100
AcDbLine
 62
7
  6
CONTINUOUS
 10
1001.8273926489
 20
544.3228458721
 11
1077.6244263496
 21
544.3228458721
  0
LINE
  5
405
100
AcDbEntity
  8
7_ALL_ROUNDS
100
AcDbLine
 62
7
  6
CONTINUOUS
 10
1064.4348569849
 20
566.3228458721
 11
1006.8273926489
 21
566.3228458721
  0
LINE
  5
406
100
AcDbEntity
  8
6_COPYGEOM
100
AcDbLine
 62
7
  6
CONTINUOUS
 10
1070.081234889
 20
590.0475940805
 11
1073.8317831928
 21
579.7430473053
  0
LINE
  5
407
100
AcDbEntity
  8
6_COPYGEOM
100
AcDbLine
 62
7
  6
CONTINUOUS
 10
1101.1167418692
 20
577.8733494552
 11
1093.5735504087
 21
598.5980976637
  0
LINE
  5
408
100
AcDbEntity
  8
7_ALL_ROUNDS
100
AcDbLine
 62
7
  6
CONTINUOUS
 10
1276.4432390807
 20
941.9717899214
 11
1276.4432390807
 21
958.7367872663
  0
LINE
  5
409
100
AcDbEntity
  8
7_ALL_ROUNDS
100
AcDbLine
 62
9
  6
CONTINUOUS
 10
1277.9077051747
 20
939.9300139211
 11
1277.9077051747
 21
953.8086379768
  0
LINE
  5
40A
100
AcDbEntity
  8
7_ALL_ROUNDS
100
AcDbLine
 62
9
  6
CONTINUOUS
 10
1316.0914713588
 20
979.1250566314
 11
1316.0914713588
 21
976.674925431
  0
LINE
  5
40B
100
AcDbEntity
  8
7_ALL_ROUNDS
100
AcDbLine
 62
7
  6
CONTINUOUS
 10
1318.6423338537
 20
985.4984458527
 11
1277.9077051747
 21
961.974138229
  0
LINE
  5
40C
100
AcDbEntity
  8
7_ALL_ROUNDS
100
AcDbLine
 62
7
  6
CONTINUOUS
 10
1322.8849745409
 20
983.0483146523
 11
1316.0914713588
 21
979.1250566314
  0
LINE
  5
40D
100
AcDbEntity
  8
7_ALL_ROUNDS
100
AcDbLine
 62
7
  6
CONTINUOUS
 10
1332.2114084795
 20
970.4737715815
 11
1329.5203906973
 21
968.9197048775
  0
LINE
  5
40E
100
AcDbEntity
  8
6_COPYGEOM
100
AcDbLine
 62
7
  6
CONTINUOUS
 10
1322.6349259589
 20
1007.1728125255
 11
1325.2869640976
 21
1000.2918430897
  0
LINE
  5
40F
100
AcDbEntity
  8
6_COPYGEOM
100
AcDbLine
 62
7
  6
CONTINUOUS
 10
1326.877566646
 20
1004.7226813251
 11
1329.5296047847
 21
997.8417118894
  0
LINE
  5
410
100
AcDbEntity
  8
6_COPYGEOM
100
AcDbLine
 62
7
  6
CONTINUOUS
 10
1348.8229840892
 20
1007.4572646741
 11
1343.4891422557
 21
1021.2964331594
  0
LINE
  5
411
100
AcDbEntity
  8
7_ALL_ROUNDS
100
AcDbLine
 62
7
  6
CONTINUOUS
 10
1277.9077051747
 20
939.9300139211
 11
1606.7123584265
 21
750.0448458951
  0
LINE
  5
412
100
AcDbEntity
  8
7_ALL_ROUNDS
100
AcDbLine
 62
9
  6
CONTINUOUS
 10
1606.7123584265
 20
763.9234699508
 11
1277.9077051747
 21
953.8086379768
  0
LINE
  5
413
100
AcDbEntity
  8
7_ALL_ROUNDS
100
AcDbLine
 62
9
  6
CONTINUOUS
 10
1613.7834262383
 20
768.0054182025
 11
1277.9077051747
 21
961.974138229
  0
LINE
  5
414
100
AcDbEntity
  8
6_COPYGEOM
100
AcDbLine
 62
7
  6
CONTINUOUS
 10
1576.648939234
 20
808.2410721933
 11
1566.4707767073
 21
814.1189759349
  0
LINE
  5
415
100
AcDbEntity
  8
6_COPYGEOM
100
AcDbLine
 62
7
  6
CONTINUOUS
 10
1468.8197136898
 20
870.5126076113
 11
1458.6193755188
 21
876.4033178198
  0
LINE
  5
416
100
AcDbEntity
  8
6_COPYGEOM
100
AcDbLine
 62
7
  6
CONTINUOUS
 10
1360.9813709721
 20
932.7894082103
 11
1350.8032084454
 21
938.6673119519
  0
LINE
  5
417
100
AcDbEntity
  8
7_ALL_ROUNDS
100
AcDbLine
 62
7
  6
CONTINUOUS
 10
1316.0914713588
 20
976.674925431
 11
1639.2392703611
 21
790.0565990055
  0
LINE
  5
418
100
AcDbEntity
  8
6_COPYGEOM
100
AcDbLine
 62
9
  6
CONTINUOUS
 10
1322.8849745409
 20
983.0483146523
 11
1318.6423338537
 21
985.4984458527
  0
LINE
  5
419
100
AcDbEntity
  8
6_COPYGEOM
100
AcDbLine
 62
9
  6
CONTINUOUS
 10
1650.2754142302
 20
793.9798570265
 11
1654.5180549173
 21
791.5297258262
  0
LINE
  5
41A
100
AcDbEntity
  8
6_COPYGEOM
100
AcDbLine
 62
9
  6
CONTINUOUS
 10
1329.5296047847
 20
997.8417118894
 11
1325.2869640976
 21
1000.2918430897
  0
LINE
  5
41B
100
AcDbEntity
  8
6_COPYGEOM
100
AcDbLine
 62
9
  6
CONTINUOUS
 10
1656.9200444741
 20
808.7732542636
 11
1661.1626851612
 21
806.3231230632
  0
LINE
  5
41C
100
AcDbEntity
  8
6_COPYGEOM
100
AcDbLine
 62
9
  6
CONTINUOUS
 10
1658.5106470225
 20
813.204092499
 11
1654.2680063354
 21
815.6542236993
  0
LINE
  5
41D
100
AcDbEntity
  8
6_COPYGEOM
100
AcDbLine
 62
9
  6
CONTINUOUS
 10
1322.6349259589
 20
1007.1728125255
 11
1326.877566646
 21
1004.7226813251
  0
LINE
  5
41E
100
AcDbEntity
  8
6_COPYGEOM
100
AcDbLine
 62
7
  6
CONTINUOUS
 10
1337.1919411773
 20
1026.2842972495
 11
1341.4345818644
 21
1023.8341660492
  0
LINE
  5
41F
100
AcDbEntity
  8
6_COPYGEOM
100
AcDbLine
 62
7
  6
CONTINUOUS
 10
1668.8250215538
 20
834.7657084234
 11
1673.0676622409
 21
832.3155772231
  0
LINE
  5
420
100
AcDbEntity
  8
7_ALL_ROUNDS
100
AcDbLine
 62
9
  6
CONTINUOUS
 10
1606.7123584265
 20
763.9234699508
 11
1606.7123584265
 21
750.0448458951
  0
LINE
  5
421
100
AcDbEntity
  8
7_ALL_ROUNDS
100
AcDbLine
 62
9
  6
CONTINUOUS
 10
1613.7834262383
 20
768.0054182025
 11
1613.7834262383
 21
750.0448458951
  0
LINE
  5
422
100
AcDbEntity
  8
6_COPYGEOM
100
AcDbLine
 62
7
  6
CONTINUOUS
 10
1654.2680063354
 20
815.6542236993
 11
1656.9200444741
 21
808.7732542636
  0
LINE
  5
423
100
AcDbEntity
  8
6_COPYGEOM
100
AcDbLine
 62
7
  6
CONTINUOUS
 10
1658.5106470225
 20
813.204092499
 11
1661.1626851612
 21
806.3231230632
  0
LINE
  5
424
100
AcDbEntity
  8
6_COPYGEOM
100
AcDbLine
 62
7
  6
CONTINUOUS
 10
1680.4560644657
 20
815.938675848
 11
1675.1222226322
 21
829.7778443332
  0
LINE
  5
425
100
AcDbEntity
  8
7_ALL_ROUNDS
100
AcDbLine
 62
7
  6
CONTINUOUS
 10
1650.2754142302
 20
793.9798570265
 11
1643.4819110482
 21
790.0565990055
  0
LINE
  5
426
100
AcDbEntity
  8
7_ALL_ROUNDS
100
AcDbLine
 62
7
  6
CONTINUOUS
 10
1606.7123584265
 20
763.9234699508
 11
1654.5180549173
 21
791.5297258262
  0
LINE
  5
427
100
AcDbEntity
  8
7_ALL_ROUNDS
100
AcDbLine
 62
7
  6
CONTINUOUS
 10
1613.7834262383
 20
750.0448458951
 11
1663.844488856
 21
778.9551827554
  0
LINE
  5
428
100
AcDbEntity
  8
7_ALL_ROUNDS
100
AcDbLine
 62
7
  6
CONTINUOUS
 10
341.9029891304
 20
348.8794891446
 11
341.9029891304
 21
278.0824554439
  0
LINE
  5
429
100
AcDbEntity
  8
6_COPYGEOM
100
AcDbLine
 62
7
  6
CONTINUOUS
 10
341.9029891304
 20
278.0824554439
 11
341.9029891304
 21
253.0824556004
  0
LINE
  5
42A
100
AcDbEntity
  8
6_COPYGEOM
100
AcDbLine
 62
7
  6
CONTINUOUS
 10
347.9029891304
 20
253.0824556004
 11
347.9029891304
 21
278.0824554439
  0
LINE
  5
42B
100
AcDbEntity
  8
7_ALL_ROUNDS
100
AcDbLine
 62
7
  6
CONTINUOUS
 10
347.9029891304
 20
278.0824554439
 11
347.9029891304
 21
302.6344911462
  0
LINE
  5
42C
100
AcDbEntity
  8
7_ALL_ROUNDS
100
AcDbLine
 62
9
  6
CONTINUOUS
 10
350.9029891304
 20
303.8794891446
 11
350.9029891304
 21
308.8794891446
  0
LINE
  5
42D
100
AcDbEntity
  8
3_ALL_AXES
100
AcDbLine
 62
7
  6
CENTER
 10
426.9029891304
 20
328.8794891446
 11
426.9029891304
 21
313.9174899623
  0
LINE
  5
42E
100
AcDbEntity
  8
3_ALL_AXES
100
AcDbLine
 62
7
  6
CENTER
 10
426.9029891304
 20
328.8794891446
 11
426.9029891304
 21
343.841488327
  0
LINE
  5
42F
100
AcDbEntity
  8
6_COPYGEOM
100
AcDbLine
 62
7
  6
CONTINUOUS
 10
816.9029891304
 20
253.0824554439
 11
810.9029891304
 21
253.0824554439
  0
LINE
  5
430
100
AcDbEntity
  8
6_COPYGEOM
100
AcDbLine
 62
7
  6
CONTINUOUS
 10
347.9029891304
 20
253.0824554439
 11
341.9029891304
 21
253.0824554439
  0
LINE
  5
431
100
AcDbEntity
  8
6_COPYGEOM
100
AcDbLine
 62
9
  6
CONTINUOUS
 10
816.9029891304
 20
278.0824554439
 11
810.9029891304
 21
278.0824554439
  0
LINE
  5
432
100
AcDbEntity
  8
6_COPYGEOM
100
AcDbLine
 62
9
  6
CONTINUOUS
 10
341.9029891304
 20
278.0824554439
 11
347.9029891304
 21
278.0824554439
  0
LINE
  5
433
100
AcDbEntity
  8
3_ALL_AXES
100
AcDbLine
 62
7
  6
CENTER
 10
579.4029891304
 20
328.8794891446
 11
579.4029891304
 21
284.4523479715
  0
LINE
  5
434
100
AcDbEntity
  8
3_ALL_AXES
100
AcDbLine
 62
7
  6
CENTER
 10
579.4029891304
 20
328.8794891446
 11
579.4029891304
 21
344.466804345
  0
LINE
  5
435
100
AcDbEntity
  8
7_ALL_ROUNDS
100
AcDbLine
 62
7
  6
CONTINUOUS
 10
350.9029891304
 20
303.8794891446
 11
807.9029891304
 21
303.8794891446
  0
LINE
  5
436
100
AcDbEntity
  8
7_ALL_ROUNDS
100
AcDbLine
 62
9
  6
CONTINUOUS
 10
350.9029891304
 20
308.8794891446
 11
807.9029891304
 21
308.8794891446
  0
LINE
  5
437
100
AcDbEntity
  8
3_ALL_AXES
100
AcDbLine
 62
7
  6
CENTER
 10
731.9029891304
 20
328.8794891446
 11
715.3776999029
 21
328.8794891446
  0
LINE
  5
438
100
AcDbEntity
  8
3_ALL_AXES
100
AcDbLine
 62
7
  6
CENTER
 10
579.4029891304
 20
328.8794891446
 11
438.2346920814
 21
328.8794891446
  0
LINE
  5
439
100
AcDbEntity
  8
3_ALL_AXES
100
AcDbLine
 62
7
  6
CENTER
 10
426.9029891304
 20
328.8794891446
 11
411.9409899481
 21
328.8794891446
  0
LINE
  5
43A
100
AcDbEntity
  8
3_ALL_AXES
100
AcDbLine
 62
7
  6
CENTER
 10
426.9029891304
 20
328.8794891446
 11
438.2346920814
 21
328.8794891446
  0
LINE
  5
43B
100
AcDbEntity
  8
3_ALL_AXES
100
AcDbLine
 62
7
  6
CENTER
 10
579.4029891304
 20
328.8794891446
 11
715.3776999029
 21
328.8794891446
  0
LINE
  5
43C
100
AcDbEntity
  8
3_ALL_AXES
100
AcDbLine
 62
7
  6
CENTER
 10
731.9029891304
 20
328.8794891446
 11
748.428278358
 21
328.8794891446
  0
LINE
  5
43D
100
AcDbEntity
  8
7_ALL_ROUNDS
100
AcDbLine
 62
7
  6
CONTINUOUS
 10
346.9029891304
 20
353.8794891446
 11
811.9029891304
 21
353.8794891446
  0
LINE
  5
43E
100
AcDbEntity
  8
3_ALL_AXES
100
AcDbLine
 62
7
  6
CENTER
 10
731.9029891304
 20
328.8794891446
 11
731.9029891304
 21
312.3541999171
  0
LINE
  5
43F
100
AcDbEntity
  8
3_ALL_AXES
100
AcDbLine
 62
7
  6
CENTER
 10
731.9029891304
 20
328.8794891446
 11
731.9029891304
 21
345.4047783722
  0
LINE
  5
440
100
AcDbEntity
  8
7_ALL_ROUNDS
100
AcDbLine
 62
9
  6
CONTINUOUS
 10
807.9029891304
 20
308.8794891446
 11
807.9029891304
 21
303.8794891446
  0
LINE
  5
441
100
AcDbEntity
  8
7_ALL_ROUNDS
100
AcDbLine
 62
7
  6
CONTINUOUS
 10
810.9029891304
 20
302.6344911462
 11
810.9029891304
 21
278.0824554439
  0
LINE
  5
442
100
AcDbEntity
  8
6_COPYGEOM
100
AcDbLine
 62
7
  6
CONTINUOUS
 10
810.9029891304
 20
253.0824556004
 11
810.9029891304
 21
278.0824554439
  0
LINE
  5
443
100
AcDbEntity
  8
7_ALL_ROUNDS
100
AcDbLine
 62
7
  6
CONTINUOUS
 10
816.9029891304
 20
348.8794891446
 11
816.9029891304
 21
278.0824554439
  0
LINE
  5
444
100
AcDbEntity
  8
6_COPYGEOM
100
AcDbLine
 62
7
  6
CONTINUOUS
 10
816.9029891304
 20
278.0824554439
 11
816.9029891304
 21
253.0824556004
  0
LINE
  5
445
100
AcDbEntity
  8
7_ALL_ROUNDS
100
AcDbLine
 62
7
  6
CONTINUOUS
 10
1068.8670997801
 20
761.8569238989
 11
1085.8670997801
 21
761.8569238989
  0
LINE
  5
446
100
AcDbEntity
  8
6_COPYGEOM
100
AcDbLine
 62
7
  6
CONTINUOUS
 10
1052.3165961969
 20
861.1462731192
 11
1031.5918479885
 21
853.6030816587
  0
LINE
  5
447
100
AcDbEntity
  8
7_ALL_ROUNDS
100
AcDbLine
 62
9
  6
CONTINUOUS
 10
1063.8670997801
 20
766.8569238989
 11
1085.8670997801
 21
766.8569238989
  0
LINE
  5
448
100
AcDbEntity
  8
6_COPYGEOM
100
AcDbLine
 62
7
  6
CONTINUOUS
 10
1040.1423515717
 20
830.110766139
 11
1050.4468983468
 21
833.8613144428
  0
LINE
  5
449
100
AcDbEntity
  8
3_ALL_AXES
100
AcDbLine
 62
7
  6
CENTER
 10
1035.8670997801
 20
841.8569238989
 11
1035.8670997801
 21
831.6968238989
  0
LINE
  5
44A
100
AcDbEntity
  8
3_ALL_AXES
100
AcDbLine
 62
7
  6
CENTER
 10
1035.8670997801
 20
841.8569238989
 11
1035.8670997801
 21
852.0170238989
  0
LINE
  5
44B
100
AcDbEntity
  8
7_ALL_ROUNDS
100
AcDbLine
 62
7
  6
CONTINUOUS
 10
1063.8670997801
 20
824.4643882349
 11
1063.8670997801
 21
766.8569238989
  0
LINE
  5
44C
100
AcDbEntity
  8
7_ALL_ROUNDS
100
AcDbLine
 62
7
  6
CONTINUOUS
 10
1085.8670997801
 20
761.8569238989
 11
1085.8670997801
 21
837.6539575996
  0
LINE
  5
44D
100
AcDbEntity
  8
3_ALL_AXES
100
AcDbLine
 62
7
  6
CENTER
 10
1035.8670997801
 20
841.8569238989
 11
1025.7069997801
 21
841.8569238989
  0
LINE
  5
44E
100
AcDbEntity
  8
3_ALL_AXES
100
AcDbLine
 62
7
  6
CENTER
 10
1035.8670997801
 20
841.8569238989
 11
1046.0271997801
 21
841.8569238989
  0
LWPOLYLINE
  5
44F
100
AcDbEntity
  8
0
100
AcDbPolyline
 62
7
  6
CONTINUOUS
 90
2
 70
1
 43
1.0
 10
721.7239201033
 20
37.6187110479
 42
1.0
 10
731.8839201033
 20
37.6187110479
 42
1.0
  0
LWPOLYLINE
  5
450
100
AcDbEntity
  8
0
100
AcDbPolyline
 62
7
  6
CONTINUOUS
 90
2
 70
1
 43
1.0
 10
724.2639201033
 20
37.6187110479
 42
1.0
 10
729.3439201033
 20
37.6187110479
 42
1.0
  0
CIRCLE
  5
451
100
AcDbEntity
  8
6_COPYGEOM
100
AcDbCircle
 62
7
  6
CONTINUOUS
 10
426.9029891304
 20
786.8569238989
 40
10.0
  0
CIRCLE
  5
452
100
AcDbEntity
  8
6_COPYGEOM
100
AcDbCircle
 62
7
  6
CONTINUOUS
 10
731.9029891304
 20
786.8569238989
 40
10.0
  0
CIRCLE
  5
453
100
AcDbEntity
  8
6_COPYGEOM
100
AcDbCircle
 62
7
  6
CONTINUOUS
 10
579.4029891304
 20
786.8569238989
 40
10.0
  0
ARC
  5
454
100
AcDbEntity
  8
7_ALL_ROUNDS
100
AcDbCircle
 62
7
  6
CONTINUOUS
 10
346.9029891304
 20
766.8569238989
 40
5.0
100
AcDbArc
 50
180.0
 51
270.0
  0
ARC
  5
455
100
AcDbEntity
  8
7_ALL_ROUNDS
100
AcDbCircle
 62
7
  6
CONTINUOUS
 10
811.9029891304
 20
766.8569238989
 40
5.0
100
AcDbArc
 50
270.0
 51
360.0
  0
ARC
  5
456
100
AcDbEntity
  8
7_ALL_ROUNDS
100
AcDbCircle
 62
7
  6
CONTINUOUS
 10
807.9029891304
 20
814.8569238989
 40
3.0
100
AcDbArc
 50
270.0
 51
360.0
  0
ARC
  5
457
100
AcDbEntity
  8
7_ALL_ROUNDS
100
AcDbCircle
 62
7
  6
CONTINUOUS
 10
350.9029891304
 20
814.8569238989
 40
3.0
100
AcDbArc
 50
180.0
 51
270.0
  0
ARC
  5
458
100
AcDbEntity
  8
6_COPYGEOM
100
AcDbCircle
 62
7
  6
CONTINUOUS
 10
1077.6244263496
 20
569.3228458721
 40
25.0
100
AcDbArc
 50
270.0
 51
20.0
  0
ARC
  5
459
100
AcDbEntity
  8
6_COPYGEOM
100
AcDbCircle
 62
7
  6
CONTINUOUS
 10
1081.8273926489
 20
594.3228458721
 40
12.5
100
AcDbArc
 50
20.0
 51
200.0
  0
ARC
  5
45A
100
AcDbEntity
  8
6_COPYGEOM
100
AcDbCircle
 62
7
  6
CONTINUOUS
 10
1064.4348569849
 20
576.3228458721
 40
10.0
100
AcDbArc
 50
270.0
 51
20.0
  0
ARC
  5
45B
100
AcDbEntity
  8
7_ALL_ROUNDS
100
AcDbCircle
 62
7
  6
CONTINUOUS
 10
1006.8273926489
 20
561.3228458721
 40
5.0
100
AcDbArc
 50
90.0
 51
180.0
  0
CIRCLE
  5
45C
100
AcDbEntity
  8
6_COPYGEOM
100
AcDbCircle
 62
7
  6
CONTINUOUS
 10
1081.8273926489
 20
594.3228458721
 40
4.15
  0
ARC
  5
45D
100
AcDbEntity
  8
6_COPYGEOM
100
AcDbCircle
 62
7
  6
CONTINUOUS
 10
1357.3992797187
 20
932.3299815839
 40
4.9130213722
100
AcDbArc
 50
33.7111119736
 51
37.9597813856
  0
ARC
  5
45E
100
AcDbEntity
  8
6_COPYGEOM
100
AcDbCircle
 62
7
  6
CONTINUOUS
 10
1573.0668479805
 20
807.7816455668
 40
4.9130213723
100
AcDbArc
 50
33.7111119736
 51
37.9597813856
  0
ARC
  5
45F
100
AcDbEntity
  8
6_COPYGEOM
100
AcDbCircle
 62
7
  6
CONTINUOUS
 10
1454.7422646926
 20
870.0558648228
 40
4.9129313212
100
AcDbArc
 50
142.0422031309
 51
146.2883935451
  0
ARC
  5
460
100
AcDbEntity
  8
6_COPYGEOM
100
AcDbCircle
 62
7
  6
CONTINUOUS
 10
1465.6706638674
 20
870.3393711386
 40
4.3915344446
100
AcDbArc
 50
28.3695097012
 51
32.036314542
  0
ARC
  5
461
100
AcDbEntity
  8
6_COPYGEOM
100
AcDbCircle
 62
7
  6
CONTINUOUS
 10
1346.4708506747
 20
932.6136010735
 40
4.3914134499
100
AcDbArc
 50
147.9633773157
 51
151.6340771475
  0
ARC
  5
462
100
AcDbEntity
  8
6_COPYGEOM
100
AcDbCircle
 62
7
  6
CONTINUOUS
 10
1562.1384189366
 20
808.0652650565
 40
4.3914134499
100
AcDbArc
 50
147.9633773157
 51
151.6340771475
  0
CIRCLE
  5
463
100
AcDbEntity
  8
6_COPYGEOM
100
AcDbCircle
 62
7
  6
CONTINUOUS
 10
426.9029891304
 20
328.8794891446
 40
10.0
  0
CIRCLE
  5
464
100
AcDbEntity
  8
6_COPYGEOM
100
AcDbCircle
 62
7
  6
CONTINUOUS
 10
731.9029891304
 20
328.8794891446
 40
10.0
  0
CIRCLE
  5
465
100
AcDbEntity
  8
6_COPYGEOM
100
AcDbCircle
 62
7
  6
CONTINUOUS
 10
579.4029891304
 20
328.8794891446
 40
10.0
  0
ARC
  5
466
100
AcDbEntity
  8
7_ALL_ROUNDS
100
AcDbCircle
 62
7
  6
CONTINUOUS
 10
346.9029891304
 20
348.8794891446
 40
5.0
100
AcDbArc
 50
90.0
 51
180.0
  0
ARC
  5
467
100
AcDbEntity
  8
7_ALL_ROUNDS
100
AcDbCircle
 62
7
  6
CONTINUOUS
 10
811.9029891304
 20
348.8794891446
 40
5.0
100
AcDbArc
 50
0.0
 51
90.0
  0
ARC
  5
468
100
AcDbEntity
  8
7_ALL_ROUNDS
100
AcDbCircle
 62
7
  6
CONTINUOUS
 10
807.9029891304
 20
300.8794891446
 40
3.0
100
AcDbArc
 50
0.0000006322
 51
90.0
  0
ARC
  5
469
100
AcDbEntity
  8
7_ALL_ROUNDS
100
AcDbCircle
 62
7
  6
CONTINUOUS
 10
350.9029891304
 20
300.8794892511
 40
3.0
100
AcDbArc
 50
90.0
 51
180.0000020344
  0
ARC
  5
46A
100
AcDbEntity
  8
6_COPYGEOM
100
AcDbCircle
 62
7
  6
CONTINUOUS
 10
1060.8670997801
 20
837.6539575996
 40
25.0
100
AcDbArc
 50
0.0
 51
110.0
  0
ARC
  5
46B
100
AcDbEntity
  8
6_COPYGEOM
100
AcDbCircle
 62
7
  6
CONTINUOUS
 10
1035.8670997801
 20
841.8569238989
 40
12.5
100
AcDbArc
 50
110.0
 51
290.0
  0
ARC
  5
46C
100
AcDbEntity
  8
6_COPYGEOM
100
AcDbCircle
 62
7
  6
CONTINUOUS
 10
1053.8670997801
 20
824.4643882349
 40
10.0
100
AcDbArc
 50
0.0
 51
110.0
  0
ARC
  5
46D
100
AcDbEntity
  8
7_ALL_ROUNDS
100
AcDbCircle
 62
7
  6
CONTINUOUS
 10
1068.8670997801
 20
766.8569238989
 40
5.0
100
AcDbArc
 50
180.0
 51
270.0
  0
CIRCLE
  5
46E
100
AcDbEntity
  8
6_COPYGEOM
100
AcDbCircle
 62
7
  6
CONTINUOUS
 10
1035.8670997801
 20
841.8569238989
 40
4.15
  0
SPLINE
  5
46F
100
AcDbEntity
  8
6_COPYGEOM
100
AcDbSpline
 62
7
  6
CONTINUOUS
 70
0
 71
3
 72
9
 73
5
 74
0
 42
0.0000001
 43
0.0000001
 44
0.0000000001
 40
0.0
 40
0.0
 40
0.0
 40
0.0
 40
0.5507928343
 40
1.0
 40
1.0
 40
1.0
 40
1.0
 10
1663.8819416854
 20
819.7962943359
 30
0.0
 10
1663.8819416854
 20
819.4002670281
 30
0.0
 10
1663.977932518
 20
818.6643351907
 30
0.0
 10
1664.460774761
 20
818.0595055111
 30
0.0
 10
1664.7403002163
 20
817.8976864949
 30
0.0
  0
SPLINE
  5
470
100
AcDbEntity
  8
6_COPYGEOM
100
AcDbSpline
 62
7
  6
CONTINUOUS
 70
0
 71
3
 72
9
 73
5
 74
0
 42
0.0000001
 43
0.0000001
 44
0.0000000001
 40
0.0
 40
0.0
 40
0.0
 40
0.0
 40
0.5204773138
 40
1.0
 40
1.0
 40
1.0
 40
1.0
 10
1675.1222226322
 20
829.7778443332
 30
0.0
 10
1674.9155550753
 20
830.3140632969
 30
0.0
 10
1674.3798149258
 20
831.3025249125
 30
0.0
 10
1673.5274495521
 20
832.0497946803
 30
0.0
 10
1673.0690783398
 20
832.3147691793
 30
0.0
  0
SPLINE
  5
471
100
AcDbEntity
  8
6_COPYGEOM
100
AcDbSpline
 62
7
  6
CONTINUOUS
 70
0
 71
3
 72
12
 73
8
 74
0
 42
0.0000001
 43
0.0000001
 44
0.0000000001
 40
0.0
 40
0.0
 40
0.0
 40
0.0
 40
0.2500691414
 40
0.5257213653
 40
0.6607747903
 40
0.7871898814
 40
1.0
 40
1.0
 40
1.0
 40
1.0
 10
1663.844488856
 20
778.9551827554
 30
0.0
 10
1666.9521793319
 20
780.7498785492
 30
0.0
 10
1672.6624092464
 20
785.9391081711
 30
0.0
 10
1677.742551281
 20
794.0647462381
 30
0.0
 10
1680.4253208993
 20
801.3296756153
 30
0.0
 10
1681.7860440073
 20
807.9885827897
 30
0.0
 10
1681.5543713724
 20
813.0890123587
 30
0.0
 10
1680.4560644657
 20
815.938675848
 30
0.0
  0
SPLINE
  5
472
100
AcDbEntity
  8
7_ALL_ROUNDS
100
AcDbSpline
 62
7
  6
CONTINUOUS
 70
0
 71
3
 72
9
 73
5
 74
0
 42
0.0000001
 43
0.0000001
 44
0.0000000001
 40
0.0
 40
0.0
 40
0.0
 40
0.0
 40
0.5234073865
 40
1.0
 40
1.0
 40
1.0
 40
1.0
 10
1276.4431894159
 20
958.7367967662
 30
0.0
 10
1276.4433296777
 20
959.3782492297
 30
0.0
 10
1276.5965153494
 20
960.6242660603
 30
0.0
 10
1277.4019106254
 20
961.6820411372
 30
0.0
 10
1277.9077051747
 20
961.974138229
 30
0.0
  0
SPLINE
  5
473
100
AcDbEntity
  8
6_COPYGEOM
100
AcDbSpline
 62
7
  6
CONTINUOUS
 70
0
 71
3
 72
13
 73
9
 74
0
 42
0.0000001
 43
0.0000001
 44
0.0000000001
 40
0.0
 40
0.0
 40
0.0
 40
0.0
 40
0.2698433663
 40
0.5612749346
 40
0.6954163463
 40
0.8131027299
 40
0.9128342173
 40
1.0
 40
1.0
 40
1.0
 40
1.0
 10
1359.2249850112
 20
931.3474982248
 30
0.0
 10
1357.6783768496
 20
930.4543297501
 30
0.0
 10
1353.980752606
 20
929.4530786629
 30
0.0
 10
1349.3051946405
 20
929.6896014973
 30
0.0
 10
1345.8715971435
 20
930.8333809455
 30
0.0
 10
1343.8634623891
 20
932.0575801854
 30
0.0
 10
1342.5027929897
 20
933.6046797691
 30
0.0
 10
1342.154278582
 20
934.8528582505
 30
0.0
 10
1342.153956148
 20
935.4297739011
 30
0.0
  0
SPLINE
  5
474
100
AcDbEntity
  8
6_COPYGEOM
100
AcDbSpline
 62
7
  6
CONTINUOUS
 70
0
 71
3
 72
9
 73
5
 74
0
 42
0.0000001
 43
0.0000001
 44
0.0000000001
 40
0.0
 40
0.0
 40
0.0
 40
0.0
 40
0.5507506055
 40
1.0
 40
1.0
 40
1.0
 40
1.0
 10
1574.8925532731
 20
806.7991622078
 30
0.0
 10
1575.7198412946
 20
807.2769222499
 30
0.0
 10
1577.1411364906
 20
808.365603861
 30
0.0
 10
1577.82188204
 20
810.1047222714
 30
0.0
 10
1577.8214465125
 20
810.8839905327
 30
0.0
  0
SPLINE
  5
475
100
AcDbEntity
  8
6_COPYGEOM
100
AcDbSpline
 62
7
  6
CONTINUOUS
 70
0
 71
3
 72
8
 73
4
 74
0
 42
0.0000001
 43
0.0000001
 44
0.0000000001
 40
0.0
 40
0.0
 40
0.0
 40
0.0
 40
1.0
 40
1.0
 40
1.0
 40
1.0
 10
1342.3700934694
 20
934.1758423475
 30
0.0
 10
1342.4359428036
 20
934.3558629721
 30
0.0
 10
1342.5157029508
 20
934.5312602659
 30
0.0
 10
1342.6067085342
 20
934.6999657604
 30
0.0
  0
SPLINE
  5
476
100
AcDbEntity
  8
6_COPYGEOM
100
AcDbSpline
 62
7
  6
CONTINUOUS
 70
0
 71
3
 72
9
 73
5
 74
0
 42
0.0000001
 43
0.0000001
 44
0.0000000001
 40
0.0
 40
0.0
 40
0.0
 40
0.0
 40
0.2279408855
 40
1.0
 40
1.0
 40
1.0
 40
1.0
 10
1342.748209067
 20
934.9430755956
 30
0.0
 10
1342.8760466213
 20
935.1475345383
 30
0.0
 10
1343.5085549251
 20
936.0000226354
 30
0.0
 10
1344.3755715209
 20
936.6569792728
 30
0.0
 10
1345.0828493875
 20
937.0654332749
 30
0.0
  0
SPLINE
  5
477
100
AcDbEntity
  8
7_ALL_ROUNDS
100
AcDbSpline
 62
7
  6
CONTINUOUS
 70
0
 71
3
 72
9
 73
5
 74
0
 42
0.0000001
 43
0.0000001
 44
0.0000000001
 40
0.0
 40
0.0
 40
0.0
 40
0.0
 40
0.5507951038
 40
1.0
 40
1.0
 40
1.0
 40
1.0
 10
1277.9077051747
 20
939.9300139211
 30
0.0
 10
1277.4941325342
 20
940.1688527257
 30
0.0
 10
1276.7834658531
 20
940.7129586096
 30
0.0
 10
1276.4434713708
 20
941.5822930139
 30
0.0
 10
1276.4434713708
 20
941.9717899214
 30
0.0
  0
SPLINE
  5
478
100
AcDbEntity
  8
7_ALL_ROUNDS
100
AcDbSpline
 62
7
  6
CONTINUOUS
 70
0
 71
3
 72
9
 73
5
 74
0
 42
0.0000001
 43
0.0000001
 44
0.0000000001
 40
0.0
 40
0.0
 40
0.0
 40
0.0
 40
0.5
 40
1.0
 40
1.0
 40
1.0
 40
1.0
 10
1613.7834262383
 20
750.0448458951
 30
0.0
 10
1612.7340889782
 20
749.4388520931
 30
0.0
 10
1610.2478923324
 20
748.9596453717
 30
0.0
 10
1607.7616956866
 20
749.4388520931
 30
0.0
 10
1606.7123584265
 20
750.0448458951
 30
0.0
  0
SPLINE
  5
479
100
AcDbEntity
  8
6_COPYGEOM
100
AcDbSpline
 62
7
  6
CONTINUOUS
 70
0
 71
3
 72
9
 73
5
 74
0
 42
0.0000001
 43
0.0000001
 44
0.0000000001
 40
0.0
 40
0.0
 40
0.0
 40
0.0
 40
0.4492493945
 40
1.0
 40
1.0
 40
1.0
 40
1.0
 10
1362.1538782507
 20
935.4323265497
 30
0.0
 10
1362.1543137781
 20
934.6530582884
 30
0.0
 10
1361.4735682287
 20
932.913939878
 30
0.0
 10
1360.0522730327
 20
931.8252582669
 30
0.0
 10
1359.2249850112
 20
931.3474982248
 30
0.0
  0
SPLINE
  5
47A
100
AcDbEntity
  8
6_COPYGEOM
100
AcDbSpline
 62
7
  6
CONTINUOUS
 70
0
 71
3
 72
8
 73
4
 74
0
 42
0.0000001
 43
0.0000001
 44
0.0000000001
 40
0.0
 40
0.0
 40
0.0
 40
0.0
 40
1.0
 40
1.0
 40
1.0
 40
1.0
 10
1450.2319857732
 20
871.9762983693
 30
0.0
 10
1450.3423197547
 20
872.2591251554
 30
0.0
 10
1450.4871264724
 20
872.529978134
 30
0.0
 10
1450.6554835025
 20
872.7826053075
 30
0.0
  0
SPLINE
  5
47B
100
AcDbEntity
  8
6_COPYGEOM
100
AcDbSpline
 62
7
  6
CONTINUOUS
 70
0
 71
3
 72
11
 73
7
 74
0
 42
0.0000001
 43
0.0000001
 44
0.0000000001
 40
0.0
 40
0.0
 40
0.0
 40
0.0
 40
0.2120210716
 40
0.4727591787
 40
0.7491579715
 40
1.0
 40
1.0
 40
1.0
 40
1.0
 10
1450.8685950839
 20
873.0777149068
 30
0.0
 10
1451.6199483865
 20
874.0418939453
 30
0.0
 10
1454.007701826
 20
875.6010516154
 30
0.0
 10
1458.2540215891
 20
876.6004740718
 30
0.0
 10
1462.8434624774
 20
876.4596910654
 30
0.0
 10
1465.8064243362
 20
875.514496223
 30
0.0
 10
1467.0587691421
 20
874.7912652664
 30
0.0
  0
SPLINE
  5
47C
100
AcDbEntity
  8
6_COPYGEOM
100
AcDbSpline
 62
7
  6
CONTINUOUS
 70
0
 71
3
 72
11
 73
7
 74
0
 42
0.0000001
 43
0.0000001
 44
0.0000000001
 40
0.0
 40
0.0
 40
0.0
 40
0.0
 40
0.2508409972
 40
0.5272387247
 40
0.7879770505
 40
1.0
 40
1.0
 40
1.0
 40
1.0
 10
1345.0828493875
 20
937.0654332749
 30
0.0
 10
1346.3351767275
 20
937.7886541449
 30
0.0
 10
1349.2980936958
 20
938.7338433022
 30
0.0
 10
1353.8874765074
 20
938.8746493103
 30
0.0
 10
1358.1337682109
 20
937.8752720134
 30
0.0
 10
1360.5215302904
 20
936.3161737604
 30
0.0
 10
1361.2729156592
 20
935.3520212269
 30
0.0
  0
SPLINE
  5
47D
100
AcDbEntity
  8
6_COPYGEOM
100
AcDbSpline
 62
7
  6
CONTINUOUS
 70
0
 71
3
 72
8
 73
4
 74
0
 42
0.0000001
 43
0.0000001
 44
0.0000000001
 40
0.0
 40
0.0
 40
0.0
 40
0.0
 40
1.0
 40
1.0
 40
1.0
 40
1.0
 10
1361.4861593499
 20
935.056736777
 30
0.0
 10
1361.6545008907
 20
934.80412776
 30
0.0
 10
1361.7992953747
 20
934.5332960407
 30
0.0
 10
1361.9096227646
 20
934.2504921212
 30
0.0
  0
SPLINE
  5
47E
100
AcDbEntity
  8
6_COPYGEOM
100
AcDbSpline
 62
7
  6
CONTINUOUS
 70
0
 71
3
 72
9
 73
5
 74
0
 42
0.0000001
 43
0.0000001
 44
0.0000000001
 40
0.0
 40
0.0
 40
0.0
 40
0.0
 40
0.4492495098
 40
1.0
 40
1.0
 40
1.0
 40
1.0
 10
1449.9877403344
 20
873.158158076
 30
0.0
 10
1449.9873049187
 20
872.3788896858
 30
0.0
 10
1450.6680506774
 20
870.6397715234
 30
0.0
 10
1452.0893457454
 20
869.5510901149
 30
0.0
 10
1452.9166335184
 20
869.0733302163
 30
0.0
  0
SPLINE
  5
47F
100
AcDbEntity
  8
6_COPYGEOM
100
AcDbSpline
 62
7
  6
CONTINUOUS
 70
0
 71
3
 72
9
 73
5
 74
0
 42
0.0000001
 43
0.0000001
 44
0.0000000001
 40
0.0
 40
0.0
 40
0.0
 40
0.0
 40
0.2742702574
 40
1.0
 40
1.0
 40
1.0
 40
1.0
 10
1560.7504176493
 20
812.5170972579
 30
0.0
 10
1560.4993369669
 20
812.3720977967
 30
0.0
 10
1559.6105513931
 20
811.8030064252
 30
0.0
 10
1558.8225073394
 20
811.0452494256
 30
0.0
 10
1558.4157773288
 20
810.3947395786
 30
0.0
  0
SPLINE
  5
480
100
AcDbEntity
  8
6_COPYGEOM
100
AcDbSpline
 62
7
  6
CONTINUOUS
 70
0
 71
3
 72
8
 73
4
 74
0
 42
0.0000001
 43
0.0000001
 44
0.0000000001
 40
0.0
 40
0.0
 40
0.0
 40
0.0
 40
1.0
 40
1.0
 40
1.0
 40
1.0
 10
1558.2742767961
 20
810.1516297434
 30
0.0
 10
1558.1832712127
 20
809.9829242489
 30
0.0
 10
1558.1035110655
 20
809.8075269551
 30
0.0
 10
1558.0376617313
 20
809.6275063305
 30
0.0
  0
SPLINE
  5
481
100
AcDbEntity
  8
6_COPYGEOM
100
AcDbSpline
 62
7
  6
CONTINUOUS
 70
0
 71
3
 72
13
 73
9
 74
0
 42
0.0000001
 43
0.0000001
 44
0.0000000001
 40
0.0
 40
0.0
 40
0.0
 40
0.0
 40
0.0871356718
 40
0.1868359544
 40
0.3045084521
 40
0.4386550364
 40
0.7301301208
 40
1.0
 40
1.0
 40
1.0
 40
1.0
 10
1337.2594890618
 20
1016.6028391634
 30
0.0
 10
1337.0523234086
 20
1016.7227686423
 30
0.0
 10
1336.5314848639
 20
1016.8568607491
 30
0.0
 10
1335.6931269755
 20
1016.6892431335
 30
0.0
 10
1334.8363118264
 20
1016.2216666353
 30
0.0
 10
1333.7123678089
 20
1015.22491516
 30
0.0
 10
1332.6566442047
 20
1013.5933255361
 30
0.0
 10
1332.2488613089
 20
1012.0562588638
 30
0.0
 10
1332.2488613089
 20
1011.314883162
 30
0.0
  0
SPLINE
  5
482
100
AcDbEntity
  8
6_COPYGEOM
100
AcDbSpline
 62
7
  6
CONTINUOUS
 70
0
 71
3
 72
14
 73
10
 74
0
 42
0.0000001
 43
0.0000001
 44
0.0000000001
 40
0.0
 40
0.0
 40
0.0
 40
0.0
 40
0.0890095925
 40
0.1940709953
 40
0.3201561407
 40
0.4628565625
 40
0.7571832098
 40
0.8888318037
 40
1.0
 40
1.0
 40
1.0
 40
1.0
 10
1337.1933572762
 20
1026.2834892058
 30
0.0
 10
1336.4728983093
 20
1026.6999709756
 30
0.0
 10
1334.5893885841
 20
1027.094789598
 30
0.0
 10
1331.6480569098
 20
1026.2271859005
 30
0.0
 10
1328.7192145253
 20
1024.2483322319
 30
0.0
 10
1325.1317757987
 20
1020.3590665908
 30
0.0
 10
1322.6746499269
 20
1015.4493688642
 30
0.0
 10
1321.9373521042
 20
1010.4493208474
 30
0.0
 10
1322.2611465934
 20
1008.1426192383
 30
0.0
 10
1322.6349259589
 20
1007.1728125255
 30
0.0
  0
SPLINE
  5
483
100
AcDbEntity
  8
6_COPYGEOM
100
AcDbSpline
 62
7
  6
CONTINUOUS
 70
0
 71
3
 72
13
 73
9
 74
0
 42
0.0000001
 43
0.0000001
 44
0.0000000001
 40
0.0
 40
0.0
 40
0.0
 40
0.0
 40
0.0871657827
 40
0.1868972701
 40
0.3045836537
 40
0.4387250654
 40
0.7301566337
 40
1.0
 40
1.0
 40
1.0
 40
1.0
 10
1557.8215244099
 20
810.8814378841
 30
0.0
 10
1557.8218468439
 20
810.3045222335
 30
0.0
 10
1558.1703612516
 20
809.0563437521
 30
0.0
 10
1559.531030651
 20
807.5092441684
 30
0.0
 10
1561.5391654054
 20
806.2850449285
 30
0.0
 10
1564.9727629024
 20
805.1412654803
 30
0.0
 10
1569.6483208679
 20
804.9047426459
 30
0.0
 10
1573.3459451114
 20
805.9059937331
 30
0.0
 10
1574.8925532731
 20
806.7991622078
 30
0.0
  0
SPLINE
  5
484
100
AcDbEntity
  8
6_COPYGEOM
100
AcDbSpline
 62
7
  6
CONTINUOUS
 70
0
 71
3
 72
8
 73
4
 74
0
 42
0.0000001
 43
0.0000001
 44
0.0000000001
 40
0.0
 40
0.0
 40
0.0
 40
0.0
 40
1.0
 40
1.0
 40
1.0
 40
1.0
 10
1577.5771910265
 20
809.7021561042
 30
0.0
 10
1577.4668636365
 20
809.9849600237
 30
0.0
 10
1577.3220691526
 20
810.255791743
 30
0.0
 10
1577.1537276118
 20
810.50840076
 30
0.0
  0
SPLINE
  5
485
100
AcDbEntity
  8
6_COPYGEOM
100
AcDbSpline
 62
7
  6
CONTINUOUS
 70
0
 71
3
 72
11
 73
7
 74
0
 42
0.0000001
 43
0.0000001
 44
0.0000000001
 40
0.0
 40
0.0
 40
0.0
 40
0.0
 40
0.2120229495
 40
0.4727612753
 40
0.7491590028
 40
1.0
 40
1.0
 40
1.0
 40
1.0
 10
1576.9404839211
 20
810.8036852099
 30
0.0
 10
1576.1890985523
 20
811.7678377434
 30
0.0
 10
1573.8013364728
 20
813.3269359964
 30
0.0
 10
1569.5550447693
 20
814.3263132932
 30
0.0
 10
1564.9656619577
 20
814.1855072852
 30
0.0
 10
1562.0027449894
 20
813.2403181279
 30
0.0
 10
1560.7504176493
 20
812.5170972579
 30
0.0
  0
SPLINE
  5
486
100
AcDbEntity
  8
6_COPYGEOM
100
AcDbSpline
 62
7
  6
CONTINUOUS
 70
0
 71
3
 72
13
 73
9
 74
0
 42
0.0000001
 43
0.0000001
 44
0.0000000001
 40
0.0
 40
0.0
 40
0.0
 40
0.0
 40
0.0871657895
 40
0.186897299
 40
0.304583721
 40
0.4387251746
 40
0.7301567637
 40
1.0
 40
1.0
 40
1.0
 40
1.0
 10
1469.9876623262
 20
873.1556063578
 30
0.0
 10
1469.9873399749
 20
872.5786906489
 30
0.0
 10
1469.6388256643
 20
871.3305118853
 30
0.0
 10
1468.2781559055
 20
869.7834119007
 30
0.0
 10
1466.2700204061
 20
868.5592124495
 30
0.0
 10
1462.8364220734
 20
867.4154331105
 30
0.0
 10
1458.160864382
 20
867.1789108962
 30
0.0
 10
1454.4632409705
 20
868.1801621513
 30
0.0
 10
1452.9166335184
 20
869.0733302163
 30
0.0
  0
SPLINE
  5
487
100
AcDbEntity
  8
6_COPYGEOM
100
AcDbSpline
 62
7
  6
CONTINUOUS
 70
0
 71
3
 72
8
 73
4
 74
0
 42
0.0000001
 43
0.0000001
 44
0.0000000001
 40
0.0
 40
0.0
 40
0.0
 40
0.0
 40
1.0
 40
1.0
 40
1.0
 40
1.0
 10
1469.7715137842
 20
871.9017051218
 30
0.0
 10
1469.7056357747
 20
872.0817991858
 30
0.0
 10
1469.6258355573
 20
872.2572661237
 30
0.0
 10
1469.5347818524
 20
872.426035217
 30
0.0
  0
SPLINE
  5
488
100
AcDbEntity
  8
6_COPYGEOM
100
AcDbSpline
 62
7
  6
CONTINUOUS
 70
0
 71
3
 72
9
 73
5
 74
0
 42
0.0000001
 43
0.0000001
 44
0.0000000001
 40
0.0
 40
0.0
 40
0.0
 40
0.0
 40
0.2279407852
 40
1.0
 40
1.0
 40
1.0
 40
1.0
 10
1469.3934205719
 20
872.6688898223
 30
0.0
 10
1469.2655831896
 20
872.8733505969
 30
0.0
 10
1468.6330737868
 20
873.7258465858
 30
0.0
 10
1467.7660516998
 20
874.3828085552
 30
0.0
 10
1467.0587691421
 20
874.7912652664
 30
0.0
  0
SPLINE
  5
489
100
AcDbEntity
  8
6_COPYGEOM
100
AcDbSpline
 62
7
  6
CONTINUOUS
 70
0
 71
3
 72
11
 73
7
 74
0
 42
0.0000001
 43
0.0000001
 44
0.0000000001
 40
0.0
 40
0.0
 40
0.0
 40
0.0
 40
0.2502688214
 40
0.5261388485
 40
0.78702031
 40
1.0
 40
1.0
 40
1.0
 40
1.0
 10
1650.2754142302
 20
793.9798570265
 30
0.0
 10
1651.5184971046
 20
794.6977392041
 30
0.0
 10
1653.8039543192
 20
796.7725875525
 30
0.0
 10
1656.2159191746
 20
800.6446722114
 30
0.0
 10
1657.4869355919
 20
804.7974012347
 30
0.0
 10
1657.3593688621
 20
807.6333846509
 30
0.0
 10
1656.9200444741
 20
808.7732542636
 30
0.0
  0
SPLINE
  5
48A
100
AcDbEntity
  8
6_COPYGEOM
100
AcDbSpline
 62
7
  6
CONTINUOUS
 70
0
 71
3
 72
13
 73
9
 74
0
 42
0.0000001
 43
0.0000001
 44
0.0000000001
 40
0.0
 40
0.0
 40
0.0
 40
0.0
 40
0.0871356718
 40
0.1868359544
 40
0.3045084521
 40
0.4386550364
 40
0.7301301208
 40
1.0
 40
1.0
 40
1.0
 40
1.0
 10
1668.8925694383
 20
825.0842503373
 30
0.0
 10
1668.6854037851
 20
825.2041798161
 30
0.0
 10
1668.1645652404
 20
825.338271923
 30
0.0
 10
1667.326207352
 20
825.1706543074
 30
0.0
 10
1666.4693922029
 20
824.7030778091
 30
0.0
 10
1665.3454481854
 20
823.7063263339
 30
0.0
 10
1664.2897245812
 20
822.0747367099
 30
0.0
 10
1663.8819416854
 20
820.5376700377
 30
0.0
 10
1663.8819416854
 20
819.7962943359
 30
0.0
  0
SPLINE
  5
48B
100
AcDbEntity
  8
6_COPYGEOM
100
AcDbSpline
 62
7
  6
CONTINUOUS
 70
0
 71
3
 72
14
 73
10
 74
0
 42
0.0000001
 43
0.0000001
 44
0.0000000001
 40
0.0
 40
0.0
 40
0.0
 40
0.0
 40
0.0890095925
 40
0.1940709953
 40
0.3201561407
 40
0.4628565625
 40
0.7571832098
 40
0.8888318037
 40
1.0
 40
1.0
 40
1.0
 40
1.0
 10
1668.8264376527
 20
834.7649003796
 30
0.0
 10
1668.1059786858
 20
835.1813821494
 30
0.0
 10
1666.2224689606
 20
835.5762007719
 30
0.0
 10
1663.2811372863
 20
834.7085970744
 30
0.0
 10
1660.3522949017
 20
832.7297434058
 30
0.0
 10
1656.7648561752
 20
828.8404777646
 30
0.0
 10
1654.3077303034
 20
823.9307800381
 30
0.0
 10
1653.5704324807
 20
818.9307320212
 30
0.0
 10
1653.8942269698
 20
816.6240304122
 30
0.0
 10
1654.2680063354
 20
815.6542236993
 30
0.0
  0
SPLINE
  5
48C
100
AcDbEntity
  8
6_COPYGEOM
100
AcDbSpline
 62
7
  6
CONTINUOUS
 70
0
 71
3
 72
9
 73
5
 74
0
 42
0.0000001
 43
0.0000001
 44
0.0000000001
 40
0.0
 40
0.0
 40
0.0
 40
0.0
 40
0.5507928343
 40
1.0
 40
1.0
 40
1.0
 40
1.0
 10
1332.2488613089
 20
1011.314883162
 30
0.0
 10
1332.2488613089
 20
1010.9188558542
 30
0.0
 10
1332.3448521415
 20
1010.1829240168
 30
0.0
 10
1332.8276943845
 20
1009.5780943372
 30
0.0
 10
1333.1072198399
 20
1009.4162753211
 30
0.0
  0
SPLINE
  5
48D
100
AcDbEntity
  8
6_COPYGEOM
100
AcDbSpline
 62
7
  6
CONTINUOUS
 70
0
 71
3
 72
9
 73
5
 74
0
 42
0.0000001
 43
0.0000001
 44
0.0000000001
 40
0.0
 40
0.0
 40
0.0
 40
0.0
 40
0.5204773138
 40
1.0
 40
1.0
 40
1.0
 40
1.0
 10
1343.4891422557
 20
1021.2964331594
 30
0.0
 10
1343.2824746988
 20
1021.8326521231
 30
0.0
 10
1342.7467345493
 20
1022.8211137386
 30
0.0
 10
1341.8943691757
 20
1023.5683835065
 30
0.0
 10
1341.4359979633
 20
1023.8333580054
 30
0.0
  0
SPLINE
  5
48E
100
AcDbEntity
  8
6_COPYGEOM
100
AcDbSpline
 62
7
  6
CONTINUOUS
 70
0
 71
3
 72
12
 73
8
 74
0
 42
0.0000001
 43
0.0000001
 44
0.0000000001
 40
0.0
 40
0.0
 40
0.0
 40
0.0
 40
0.2128101186
 40
0.3392252097
 40
0.4742786347
 40
0.7499308586
 40
1.0
 40
1.0
 40
1.0
 40
1.0
 10
1348.8229840892
 20
1007.4572646741
 30
0.0
 10
1349.9212909959
 20
1004.6076011849
 30
0.0
 10
1350.1529636308
 20
999.5071716158
 30
0.0
 10
1348.7922405228
 20
992.8482644415
 30
0.0
 10
1346.1094709045
 20
985.5833350642
 30
0.0
 10
1341.0293288699
 20
977.4576969972
 30
0.0
 10
1335.3190989554
 20
972.2684673753
 30
0.0
 10
1332.2114084795
 20
970.4737715815
 30
0.0
  0
SPLINE
  5
48F
100
AcDbEntity
  8
7_ALL_ROUNDS
100
AcDbSpline
 62
7
  6
CONTINUOUS
 70
0
 71
3
 72
9
 73
5
 74
0
 42
0.0000001
 43
0.0000001
 44
0.0000000001
 40
0.0
 40
0.0
 40
0.0
 40
0.0
 40
0.5
 40
1.0
 40
1.0
 40
1.0
 40
1.0
 10
1643.4819110482
 20
790.0565990055
 30
0.0
 10
1642.8523086921
 20
789.6930027243
 30
0.0
 10
1641.3605907046
 20
789.4054786914
 30
0.0
 10
1639.8688727171
 20
789.6930027243
 30
0.0
 10
1639.2392703611
 20
790.0565990055
 30
0.0
  0
SPLINE
  5
490
100
AcDbEntity
  8
7_ALL_ROUNDS
100
AcDbSpline
 62
7
  6
CONTINUOUS
 70
0
 71
3
 72
9
 73
5
 74
0
 42
0.0000001
 43
0.0000001
 44
0.0000000001
 40
0.0
 40
0.0
 40
0.0
 40
0.0
 40
0.5507951038
 40
1.0
 40
1.0
 40
1.0
 40
1.0
 10
1316.0914713588
 20
976.674925431
 30
0.0
 10
1315.8433277745
 20
976.8182287138
 30
0.0
 10
1315.4169277659
 20
977.1446922441
 30
0.0
 10
1315.2129310764
 20
977.6662928867
 30
0.0
 10
1315.2129310764
 20
977.8999910312
 30
0.0
  0
SPLINE
  5
491
100
AcDbEntity
  8
6_COPYGEOM
100
AcDbSpline
 62
7
  6
CONTINUOUS
 70
0
 71
3
 72
11
 73
7
 74
0
 42
0.0000001
 43
0.0000001
 44
0.0000000001
 40
0.0
 40
0.0
 40
0.0
 40
0.0
 40
0.21297969
 40
0.4738611515
 40
0.7497311786
 40
1.0
 40
1.0
 40
1.0
 40
1.0
 10
1325.2869640976
 20
1000.2918430897
 30
0.0
 10
1325.7262884856
 20
999.1519734771
 30
0.0
 10
1325.8538552154
 20
996.3159900608
 30
0.0
 10
1324.5828387981
 20
992.1632610376
 30
0.0
 10
1322.1708739427
 20
988.2911763787
 30
0.0
 10
1319.8854167281
 20
986.2163280303
 30
0.0
 10
1318.6423338537
 20
985.4984458527
 30
0.0
  0
SPLINE
  5
492
100
AcDbEntity
  8
6_COPYGEOM
100
AcDbSpline
 62
7
  6
CONTINUOUS
 70
0
 71
3
 72
9
 73
5
 74
0
 42
0.0000001
 43
0.0000001
 44
0.0000000001
 40
0.0
 40
0.0
 40
0.0
 40
0.0
 40
0.5507928343
 40
1.0
 40
1.0
 40
1.0
 40
1.0
 10
1669.7509279693
 20
823.1856424963
 30
0.0
 10
1669.7509279693
 20
823.5816698041
 30
0.0
 10
1669.6549371367
 20
824.3176016415
 30
0.0
 10
1669.1720948937
 20
824.9224313211
 30
0.0
 10
1668.8925694383
 20
825.0842503373
 30
0.0
  0
SPLINE
  5
493
100
AcDbEntity
  8
6_COPYGEOM
100
AcDbSpline
 62
7
  6
CONTINUOUS
 70
0
 71
3
 72
11
 73
7
 74
0
 42
0.0000001
 43
0.0000001
 44
0.0000000001
 40
0.0
 40
0.0
 40
0.0
 40
0.0
 40
0.21297969
 40
0.4738611515
 40
0.7497311786
 40
1.0
 40
1.0
 40
1.0
 40
1.0
 10
1661.1626851612
 20
806.3231230632
 30
0.0
 10
1661.6020095492
 20
805.1832534506
 30
0.0
 10
1661.729576279
 20
802.3472700343
 30
0.0
 10
1660.4585598617
 20
798.1945410111
 30
0.0
 10
1658.0465950063
 20
794.3224563522
 30
0.0
 10
1655.7611377917
 20
792.2476080038
 30
0.0
 10
1654.5180549173
 20
791.5297258262
 30
0.0
  0
SPLINE
  5
494
100
AcDbEntity
  8
6_COPYGEOM
100
AcDbSpline
 62
7
  6
CONTINUOUS
 70
0
 71
3
 72
13
 73
9
 74
0
 42
0.0000001
 43
0.0000001
 44
0.0000000001
 40
0.0
 40
0.0
 40
0.0
 40
0.0
 40
0.2698433663
 40
0.5612749346
 40
0.6954163463
 40
0.8131027299
 40
0.9128342173
 40
1.0
 40
1.0
 40
1.0
 40
1.0
 10
1345.0828493875
 20
939.5146022259
 30
0.0
 10
1346.6294575491
 20
940.4077707007
 30
0.0
 10
1350.3270817927
 20
941.4090217879
 30
0.0
 10
1355.0026397581
 20
941.1724989535
 30
0.0
 10
1358.4362372551
 20
940.0287195053
 30
0.0
 10
1360.4443720095
 20
938.8045202653
 30
0.0
 10
1361.8050414089
 20
937.2574206817
 30
0.0
 10
1362.1535558166
 20
936.0092422003
 30
0.0
 10
1362.1538782507
 20
935.4323265497
 30
0.0
  0
SPLINE
  5
495
100
AcDbEntity
  8
6_COPYGEOM
100
AcDbSpline
 62
7
  6
CONTINUOUS
 70
0
 71
3
 72
9
 73
5
 74
0
 42
0.0000001
 43
0.0000001
 44
0.0000000001
 40
0.0
 40
0.0
 40
0.0
 40
0.0
 40
0.5507504902
 40
1.0
 40
1.0
 40
1.0
 40
1.0
 10
1467.0587691421
 20
877.2404342174
 30
0.0
 10
1467.8860569151
 20
876.7626743189
 30
0.0
 10
1469.3073519831
 20
875.6739929104
 30
0.0
 10
1469.9880977419
 20
873.934874748
 30
0.0
 10
1469.9876623262
 20
873.1556063578
 30
0.0
  0
SPLINE
  5
496
100
AcDbEntity
  8
6_COPYGEOM
100
AcDbSpline
 62
7
  6
CONTINUOUS
 70
0
 71
3
 72
13
 73
9
 74
0
 42
0.0000001
 43
0.0000001
 44
0.0000000001
 40
0.0
 40
0.0
 40
0.0
 40
0.0
 40
0.0871356718
 40
0.1868359544
 40
0.3045084521
 40
0.4386550364
 40
0.7301301208
 40
1.0
 40
1.0
 40
1.0
 40
1.0
 10
1664.7403002163
 20
817.8976864949
 30
0.0
 10
1664.9474658696
 20
817.7777570161
 30
0.0
 10
1665.4683044143
 20
817.6436649092
 30
0.0
 10
1666.3066623027
 20
817.8112825248
 30
0.0
 10
1667.1634774517
 20
818.2788590231
 30
0.0
 10
1668.2874214692
 20
819.2756104983
 30
0.0
 10
1669.3431450734
 20
820.9072001223
 30
0.0
 10
1669.7509279693
 20
822.4442667945
 30
0.0
 10
1669.7509279693
 20
823.1856424963
 30
0.0
  0
SPLINE
  5
497
100
AcDbEntity
  8
6_COPYGEOM
100
AcDbSpline
 62
7
  6
CONTINUOUS
 70
0
 71
3
 72
13
 73
9
 74
0
 42
0.0000001
 43
0.0000001
 44
0.0000000001
 40
0.0
 40
0.0
 40
0.0
 40
0.0
 40
0.0871356718
 40
0.1868359544
 40
0.3045084521
 40
0.4386550364
 40
0.7301301208
 40
1.0
 40
1.0
 40
1.0
 40
1.0
 10
1333.1072198399
 20
1009.4162753211
 30
0.0
 10
1333.3143854931
 20
1009.2963458422
 30
0.0
 10
1333.8352240378
 20
1009.1622537354
 30
0.0
 10
1334.6735819262
 20
1009.329871351
 30
0.0
 10
1335.5303970752
 20
1009.7974478492
 30
0.0
 10
1336.6543410927
 20
1010.7941993245
 30
0.0
 10
1337.7100646969
 20
1012.4257889484
 30
0.0
 10
1338.1178475928
 20
1013.9628556207
 30
0.0
 10
1338.1178475928
 20
1014.7042313225
 30
0.0
  0
SPLINE
  5
498
100
AcDbEntity
  8
6_COPYGEOM
100
AcDbSpline
 62
7
  6
CONTINUOUS
 70
0
 71
3
 72
14
 73
10
 74
0
 42
0.0000001
 43
0.0000001
 44
0.0000000001
 40
0.0
 40
0.0
 40
0.0
 40
0.0
 40
0.0890095925
 40
0.1940709953
 40
0.3201561407
 40
0.4628565625
 40
0.7571832098
 40
0.8888318037
 40
1.0
 40
1.0
 40
1.0
 40
1.0
 10
1673.0690783398
 20
832.3147691793
 30
0.0
 10
1672.3486193729
 20
832.7312509491
 30
0.0
 10
1670.4651096477
 20
833.1260695715
 30
0.0
 10
1667.5237779734
 20
832.258465874
 30
0.0
 10
1664.5949355889
 20
830.2796122054
 30
0.0
 10
1661.0074968623
 20
826.3903465643
 30
0.0
 10
1658.5503709905
 20
821.4806488377
 30
0.0
 10
1657.8130731679
 20
816.4806008209
 30
0.0
 10
1658.136867657
 20
814.1738992119
 30
0.0
 10
1658.5106470225
 20
813.204092499
 30
0.0
  0
SPLINE
  5
499
100
AcDbEntity
  8
6_COPYGEOM
100
AcDbSpline
 62
7
  6
CONTINUOUS
 70
0
 71
3
 72
9
 73
5
 74
0
 42
0.0000001
 43
0.0000001
 44
0.0000000001
 40
0.0
 40
0.0
 40
0.0
 40
0.0
 40
0.5507506055
 40
1.0
 40
1.0
 40
1.0
 40
1.0
 10
1560.7504176493
 20
814.9662662089
 30
0.0
 10
1559.9231296278
 20
814.4885061669
 30
0.0
 10
1558.5018344318
 20
813.3998245558
 30
0.0
 10
1557.8210888824
 20
811.6607061453
 30
0.0
 10
1557.8215244099
 20
810.8814378841
 30
0.0
  0
SPLINE
  5
49A
100
AcDbEntity
  8
6_COPYGEOM
100
AcDbSpline
 62
7
  6
CONTINUOUS
 70
0
 71
3
 72
9
 73
5
 74
0
 42
0.0000001
 43
0.0000001
 44
0.0000000001
 40
0.0
 40
0.0
 40
0.0
 40
0.0
 40
0.4492493945
 40
1.0
 40
1.0
 40
1.0
 40
1.0
 10
1342.153956148
 20
935.4297739011
 30
0.0
 10
1342.1535206205
 20
936.2090421623
 30
0.0
 10
1342.8342661699
 20
937.9481605728
 30
0.0
 10
1344.2555613659
 20
939.0368421839
 30
0.0
 10
1345.0828493875
 20
939.5146022259
 30
0.0
  0
SPLINE
  5
49B
100
AcDbEntity
  8
6_COPYGEOM
100
AcDbSpline
 62
7
  6
CONTINUOUS
 70
0
 71
3
 72
9
 73
5
 74
0
 42
0.0000001
 43
0.0000001
 44
0.0000000001
 40
0.0
 40
0.0
 40
0.0
 40
0.0
 40
0.5507928343
 40
1.0
 40
1.0
 40
1.0
 40
1.0
 10
1338.1178475928
 20
1014.7042313225
 30
0.0
 10
1338.1178475928
 20
1015.1002586303
 30
0.0
 10
1338.0218567602
 20
1015.8361904677
 30
0.0
 10
1337.5390145172
 20
1016.4410201473
 30
0.0
 10
1337.2594890618
 20
1016.6028391634
 30
0.0
  0
SPLINE
  5
49C
100
AcDbEntity
  8
6_COPYGEOM
100
AcDbSpline
 62
7
  6
CONTINUOUS
 70
0
 71
3
 72
14
 73
10
 74
0
 42
0.0000001
 43
0.0000001
 44
0.0000000001
 40
0.0
 40
0.0
 40
0.0
 40
0.0
 40
0.0890095925
 40
0.1940709953
 40
0.3201561407
 40
0.4628565625
 40
0.7571832098
 40
0.8888318037
 40
1.0
 40
1.0
 40
1.0
 40
1.0
 10
1341.4359979633
 20
1023.8333580054
 30
0.0
 10
1340.7155389965
 20
1024.2498397753
 30
0.0
 10
1338.8320292712
 20
1024.6446583977
 30
0.0
 10
1335.8906975969
 20
1023.7770547002
 30
0.0
 10
1332.9618552124
 20
1021.7982010316
 30
0.0
 10
1329.3744164858
 20
1017.9089353904
 30
0.0
 10
1326.917290614
 20
1012.9992376639
 30
0.0
 10
1326.1799927914
 20
1007.999189647
 30
0.0
 10
1326.5037872805
 20
1005.692488038
 30
0.0
 10
1326.877566646
 20
1004.7226813251
 30
0.0
  0
SPLINE
  5
49D
100
AcDbEntity
  8
7_ALL_ROUNDS
100
AcDbSpline
 62
7
  6
CONTINUOUS
 70
0
 71
3
 72
9
 73
5
 74
0
 42
0.0000001
 43
0.0000001
 44
0.0000000001
 40
0.0
 40
0.0
 40
0.0
 40
0.0
 40
0.4492048962
 40
1.0
 40
1.0
 40
1.0
 40
1.0
 10
1315.2129310764
 20
977.8999910312
 30
0.0
 10
1315.2129310764
 20
978.1336891756
 30
0.0
 10
1315.4169277659
 20
978.6552898183
 30
0.0
 10
1315.8433277745
 20
978.9817533486
 30
0.0
 10
1316.0914713588
 20
979.1250566314
 30
0.0
  0
SPLINE
  5
49E
100
AcDbEntity
  8
6_COPYGEOM
100
AcDbSpline
 62
7
  6
CONTINUOUS
 70
0
 71
3
 72
11
 73
7
 74
0
 42
0.0000001
 43
0.0000001
 44
0.0000000001
 40
0.0
 40
0.0
 40
0.0
 40
0.0
 40
0.2502688214
 40
0.5261388485
 40
0.78702031
 40
1.0
 40
1.0
 40
1.0
 40
1.0
 10
1322.8849745409
 20
983.0483146523
 30
0.0
 10
1324.1280574152
 20
983.7661968299
 30
0.0
 10
1326.4135146298
 20
985.8410451783
 30
0.0
 10
1328.8254794852
 20
989.7131298372
 30
0.0
 10
1330.0964959025
 20
993.8658588605
 30
0.0
 10
1329.9689291727
 20
996.7018422768
 30
0.0
 10
1329.5296047847
 20
997.8417118894
 30
0.0
  0
SPLINE
  5
49F
100
AcDbEntity
  8
6_COPYGEOM
100
AcDbSpline
 62
7
  6
CONTINUOUS
 70
0
 71
3
 72
13
 73
9
 74
0
 42
0.0000001
 43
0.0000001
 44
0.0000000001
 40
0.0
 40
0.0
 40
0.0
 40
0.0
 40
0.2698432363
 40
0.5612748254
 40
0.695416279
 40
0.813102701
 40
0.9128342105
 40
1.0
 40
1.0
 40
1.0
 40
1.0
 10
1467.0587691421
 20
877.2404342174
 30
0.0
 10
1465.5121616901
 20
878.1336022824
 30
0.0
 10
1461.8145382786
 20
879.1348535376
 30
0.0
 10
1457.1389805872
 20
878.8983313232
 30
0.0
 10
1453.7053822544
 20
877.7545519843
 30
0.0
 10
1451.697246755
 20
876.5303525331
 30
0.0
 10
1450.3365769963
 20
874.9832525485
 30
0.0
 10
1449.9880626856
 20
873.7350737849
 30
0.0
 10
1449.9877403344
 20
873.158158076
 30
0.0
  0
SPLINE
  5
4A0
100
AcDbEntity
  8
6_COPYGEOM
100
AcDbSpline
 62
7
  6
CONTINUOUS
 70
0
 71
3
 72
13
 73
9
 74
0
 42
0.0000001
 43
0.0000001
 44
0.0000000001
 40
0.0
 40
0.0
 40
0.0
 40
0.0
 40
0.0871657827
 40
0.1868972701
 40
0.3045836537
 40
0.4387250654
 40
0.7301566337
 40
1.0
 40
1.0
 40
1.0
 40
1.0
 10
1577.8214465125
 20
810.8839905327
 30
0.0
 10
1577.8211240785
 20
811.4609061833
 30
0.0
 10
1577.4726096708
 20
812.7090846647
 30
0.0
 10
1576.1119402714
 20
814.2561842483
 30
0.0
 10
1574.103805517
 20
815.4803834883
 30
0.0
 10
1570.67020802
 20
816.6241629365
 30
0.0
 10
1565.9946500546
 20
816.8606857709
 30
0.0
 10
1562.297025811
 20
815.8594346837
 30
0.0
 10
1560.7504176493
 20
814.9662662089
 30
0.0
  0
SPLINE
  5
4A1
100
AcDbEntity
  8
7_ALL_ROUNDS
100
AcDbSpline
 62
7
  6
CONTINUOUS
 70
0
 71
3
 72
9
 73
5
 74
0
 42
0.0000001
 43
0.0000001
 44
0.0000000001
 40
0.0
 40
0.0
 40
0.0
 40
0.0
 40
0.2553424182
 40
1.0
 40
1.0
 40
1.0
 40
1.0
 10
1277.9077051747
 20
953.8086379768
 30
0.0
 10
1277.6876887242
 20
954.1897176411
 30
0.0
 10
1276.909467835
 20
955.7239630199
 30
0.0
 10
1276.442908812
 20
957.4535245769
 30
0.0
 10
1276.4431894159
 20
958.7367967662
 30
0.0
  0
SPLINE
  5
4A2
100
AcDbEntity
  8
7_ALL_ROUNDS
100
AcDbSpline
 62
7
  6
CONTINUOUS
 70
0
 71
3
 72
9
 73
5
 74
0
 42
0.0000001
 43
0.0000001
 44
0.0000000001
 40
0.0
 40
0.0
 40
0.0
 40
0.0
 40
0.4978830856
 40
1.0
 40
1.0
 40
1.0
 40
1.0
 10
347.9029891304
 20
302.6344911462
 30
0.0
 10
347.9029890981
 20
303.7993759999
 30
0.0
 10
348.7448118138
 20
306.1167148904
 30
0.0
 10
350.1835797204
 20
307.9507355998
 30
0.0
 10
350.9029891304
 20
308.8794891446
 30
0.0
  0
SPLINE
  5
4A3
100
AcDbEntity
  8
7_ALL_ROUNDS
100
AcDbSpline
 62
7
  6
CONTINUOUS
 70
0
 71
3
 72
9
 73
5
 74
0
 42
0.0000001
 43
0.0000001
 44
0.0000000001
 40
0.0
 40
0.0
 40
0.0
 40
0.0
 40
0.502116908
 40
1.0
 40
1.0
 40
1.0
 40
1.0
 10
807.9029891304
 20
308.8794891446
 30
0.0
 10
808.6223985323
 20
307.9507356103
 30
0.0
 10
810.0611664991
 20
306.1167149337
 30
0.0
 10
810.9029891627
 20
303.7993760166
 30
0.0
 10
810.9029891304
 20
302.6344911462
 30
0.0
  0
ENDSEC
  0
SECTION
  2
OBJECTS
  0
DICTIONARY
  5
C
100
AcDbDictionary
280
0
281
1
  3
ACAD_GROUP
350
D
  3
ACAD_MLINESTYLE
350
17
  3
ACAD_LAYOUT
350
1A
  3
ACAD_PLOTSETTINGS
350
19
  3
ACAD_PLOTSTYLENAME
350
E
  0
DICTIONARY
  5
D
102
{ACAD_REACTORS
330
C
102
}
100
AcDbDictionary
280
0
281
1
  0
ACDBDICTIONARYWDFLT
  5
E
102
{ACAD_REACTORS
330
C
102
}
100
AcDbDictionary
281
1
  3
Normal
350
F
100
AcDbDictionaryWithDefault
340
F
  0
DICTIONARY
  5
17
102
{ACAD_REACTORS
330
C
102
}
100
AcDbDictionary
280
0
281
1
  3
Standard
350
18
  0
DICTIONARY
  5
19
102
{ACAD_REACTORS
330
C
102
}
100
AcDbDictionary
281
1
  0
DICTIONARY
  5
1A
102
{ACAD_REACTORS
330
C
102
}
100
AcDbDictionary
281
1
  3
Model
350
4A4
  3
Layout1
350
4A5
  0
ACDBPLACEHOLDER
  5
F
102
{ACAD_REACTORS
330
E
102
}
  0
MLINESTYLE
  5
18
102
{ACAD_REACTORS
330
17
102
}
100
AcDbMlineStyle
  2
STANDARD
 70
0
  3

 62
256
 51
90.0
 52
90.0
 71
2
 49
0.5
 62
256
  6
BYLAYER
 49
-0.5
 62
256
  6
BYLAYER
  0
LAYOUT
  5
4A4
102
{ACAD_REACTORS
330
1A
102
}
100
AcDbPlotSettings
  1

  2
none_device
  4

  6

 40
0.0
 41
0.0
 42
0.0
 43
0.0
 44
431.8
 45
279.4
 46
0.0
 47
0.0
 48
0.0
 49
0.0
140
0.0
141
0.0
142
1.0
143
1.0
 70
1024
 72
1
 73
0
 74
0
  7

 75
0
147
1.0
148
0.0
149
0.0
100
AcDbLayout
  1
Model
 70
0
 71
0
 10
0.0
 20
0.0
 11
431.8
 21
279.4
 12
0.0
 22
0.0
 32
0.0
 14
0.0
 24
0.0
 34
0.0
 15
0.0
 25
0.0
 35
0.0
146
0.0
 13
0.0
 23
0.0
 33
0.0
 16
1.0
 26
0.0
 36
0.0
 17
0.0
 27
1.0
 37
0.0
 76
0
330
213
345
0
346
0
  0
LAYOUT
  5
4A5
102
{ACAD_REACTORS
330
1A
102
}
100
AcDbPlotSettings
  1

  2
none_device
  4

  6

 40
0.0
 41
0.0
 42
0.0
 43
0.0
 44
431.8
 45
279.4
 46
0.0
 47
0.0
 48
0.0
 49
0.0
140
0.0
141
0.0
142
1.0
143
1.0
 70
0
 72
1
 73
0
 74
0
  7

 75
0
147
1.0
148
0.0
149
0.0
100
AcDbLayout
  1
Layout1
 70
0
 71
1
 10
0.0
 20
0.0
 11
431.8
 21
279.4
 12
0.0
 22
0.0
 32
0.0
 14
0.0
 24
0.0
 34
0.0
 15
0.0
 25
0.0
 35
0.0
146
0.0
 13
0.0
 23
0.0
 33
0.0
 16
1.0
 26
0.0
 36
0.0
 17
0.0
 27
1.0
 37
0.0
 76
0
330
214
345
0
346
0
  0
ENDSEC
  0
EOF
