999
DXF file: D:\Agile attachment\ECO-113244\FG-901550-2D-A.dxf
999
Pro/ENGINEER 2022014 by Parametric Technology Corporation
  0
SECTION
  2
HEADER
  9
$ACADVER
  1
AC1015
  9
$DWGCODEPAGE
  3
ANSI_1252
  9
$EXTMAX
 10
3454.4
 20
2235.2
 30
0.0
  9
$EXTMIN
 10
0.0
 20
0.0
 30
0.0
  9
$LIMMIN
 10
0.0
 20
0.0
  9
$LIMMAX
 10
3454.4
 20
2235.2
  9
$VIEWCTR
 10
1727.2
 20
1117.6
  9
$VIEWSIZE
 40
2235.2
  9
$CLAYER
  8
0
  9
$LTSCALE
 40
189.992
  9
$CELTYPE
  6
BYLAYER
  9
$DIMSCALE
 40
1.0
  9
$DIMASZ
 40
16.0
  9
$DIMEXO
 40
1.5875
  9
$DIMDLI
 40
131.2672
  9
$DIMEXE
 40
3.175
  9
$DIMCEN
 40
31.0896
  9
$DIMLFAC
 40
1.0
  9
$DIMBLK
  1
_FILLED
  9
$DIMALT
 70
1
  9
$DIMALTD
 70
1
  9
$DIMALTTD
 70
2
  9
$DIMALTF
 40
0.0393700787
  9
$DIMTXT
 40
18.288
  9
$DIMTOL
 70
1
  9
$DIMLIM
 70
0
  9
$DIMTFAC
 40
1.0
  9
$DIMTP
 40
0.02
  9
$DIMTM
 40
0.02
  9
$DIMGAP
 40
0.625
  9
$DIMDSEP
 70
46
  9
$AUNITS
 70
0
  9
$PDMODE
 70
3
  9
$PDSIZE
 40
7.9375
  9
$HANDSEED
  5
5EF
  9
$TILEMODE
 70
1
  9
$MEASUREMENT
 70
1
  9
$INSUNITS
 70
4
  0
ENDSEC
  0
SECTION
  2
CLASSES
  0
CLASS
  1
ACDBDICTIONARYWDFLT
  2
AcDbDictionaryWithDefault
  3
AutoCAD 2000
 90
0
280
0
281
0
  0
CLASS
  1
ACDBPLACEHOLDER
  2
AcDbPlaceHolder
  3
AutoCAD 2000
 90
0
280
0
281
0
  0
CLASS
  1
LAYOUT
  2
AcDbLayout
  3
AutoCAD 2000
 90
0
280
0
281
0
  0
ENDSEC
  0
SECTION
  2
TABLES
  0
TABLE
  2
VPORT
  5
8
100
AcDbSymbolTable
 70
2
  0
VPORT
  5
1F4
100
AcDbSymbolTableRecord
100
AcDbViewportTableRecord
  2
*ACTIVE
 70
0
 10
0.0
 20
0.0
 11
1.0
 21
1.0
 12
1727.2
 22
1117.6
 13
0.0
 23
0.0
 14
1.0
 24
1.0
 15
0.0
 25
0.0
 16
0.0
 26
0.0
 36
1.0
 17
0.0
 27
0.0
 37
0.0
 40
2235.2
 41
1.5454545455
 42
50.0
 43
0.0
 44
0.0
 50
0.0
 51
0.0
 71
0
 72
100
 73
1
 74
1
 75
0
 76
0
 77
0
 78
0
  0
ENDTAB
  0
TABLE
  2
LTYPE
  5
5
100
AcDbSymbolTable
 70
6
  0
LTYPE
  5
14
100
AcDbSymbolTableRecord
100
AcDbLinetypeTableRecord
  2
BYBLOCK
 70
0
  3

 72
65
 73
0
 40
0.0
  0
LTYPE
  5
15
100
AcDbSymbolTableRecord
100
AcDbLinetypeTableRecord
  2
BYLAYER
 70
0
  3

 72
65
 73
0
 40
0.0
  0
LTYPE
  5
16
100
AcDbSymbolTableRecord
100
AcDbLinetypeTableRecord
  2
CONTINUOUS
 70
64
  3
Solid line
 72
65
 73
0
 40
0.0
  0
LTYPE
  5
1F5
100
AcDbSymbolTableRecord
100
AcDbLinetypeTableRecord
  2
CENTER
 70
64
  3
____ _ ____ _ ____ _ ____ _ ____ _ ____ _ ____
 72
65
 73
4
 40
0.6
 49
0.375
 74
0
 49
-0.075
 74
0
 49
0.075
 74
0
 49
-0.075
 74
0
  0
LTYPE
  5
1F6
100
AcDbSymbolTableRecord
100
AcDbLinetypeTableRecord
  2
HIDDEN
 70
64
  3
- - - - - - - - - - - - - - - - - - - -
 72
65
 73
2
 40
0.2
 49
0.1
 74
0
 49
-0.1
 74
0
  0
LTYPE
  5
1F7
100
AcDbSymbolTableRecord
100
AcDbLinetypeTableRecord
  2
PHANTOM
 70
64
  3
_____ _ _ _____ _ _ _____ _ _ _____
 72
65
 73
6
 40
0.8
 49
0.45
 74
0
 49
-0.05
 74
0
 49
0.1
 74
0
 49
-0.05
 74
0
 49
0.1
 74
0
 49
-0.05
 74
0
  0
LTYPE
  5
1F8
100
AcDbSymbolTableRecord
100
AcDbLinetypeTableRecord
  2
DOT
 70
64
  3
. . . . . . . . . . . . . . . . . . . .
 72
65
 73
2
 40
0.2
 49
0.1
 74
0
 49
-0.1
 74
0
  0
LTYPE
  5
1F9
100
AcDbSymbolTableRecord
100
AcDbLinetypeTableRecord
  2
DASHED
 70
64
  3
- - - - - - - - - - - - - - - - - - - -
 72
65
 73
2
 40
0.2
 49
0.1
 74
0
 49
-0.1
 74
0
  0
ENDTAB
  0
TABLE
  2
LAYER
  5
2
100
AcDbSymbolTable
 70
36
  0
LAYER
  5
10
100
AcDbSymbolTableRecord
100
AcDbLayerTableRecord
  2
0
 70
0
 62
7
  6
CONTINUOUS
370
-3
390
F
  0
LAYER
  5
1FA
100
AcDbSymbolTableRecord
100
AcDbLayerTableRecord
  2
DEFAULT_1
 70
0
 62
7
  6
CENTER
370
-3
390
F
  0
LAYER
  5
1FB
100
AcDbSymbolTableRecord
100
AcDbLayerTableRecord
  2
DEFAULT_2
 70
0
 62
8
  6
HIDDEN
370
-3
390
F
  0
LAYER
  5
1FC
100
AcDbSymbolTableRecord
100
AcDbLayerTableRecord
  2
DEFAULT_3
 70
0
 62
7
  6
PHANTOM
370
-3
390
F
  0
LAYER
  5
1FD
100
AcDbSymbolTableRecord
100
AcDbLayerTableRecord
  2
1_ALL_PLANES
 70
0
 62
7
  6
CONTINUOUS
370
-3
390
F
  0
LAYER
  5
1FE
100
AcDbSymbolTableRecord
100
AcDbLayerTableRecord
  2
1_DEF_PLANES
 70
0
 62
7
  6
CONTINUOUS
370
-3
390
F
  0
LAYER
  5
1FF
100
AcDbSymbolTableRecord
100
AcDbLayerTableRecord
  2
2_ALL_CSYS
 70
0
 62
7
  6
CONTINUOUS
370
-3
390
F
  0
LAYER
  5
200
100
AcDbSymbolTableRecord
100
AcDbLayerTableRecord
  2
2_DEF_CSYS
 70
0
 62
7
  6
CONTINUOUS
370
-3
390
F
  0
LAYER
  5
201
100
AcDbSymbolTableRecord
100
AcDbLayerTableRecord
  2
3_ALL_AXES
 70
0
 62
7
  6
CONTINUOUS
370
-3
390
F
  0
LAYER
  5
202
100
AcDbSymbolTableRecord
100
AcDbLayerTableRecord
  2
3_AXES_OTHER
 70
0
 62
7
  6
CONTINUOUS
370
-3
390
F
  0
LAYER
  5
203
100
AcDbSymbolTableRecord
100
AcDbLayerTableRecord
  2
3_HOLES
 70
0
 62
7
  6
CONTINUOUS
370
-3
390
F
  0
LAYER
  5
204
100
AcDbSymbolTableRecord
100
AcDbLayerTableRecord
  2
4_ALL_POINTS
 70
0
 62
7
  6
CONTINUOUS
370
-3
390
F
  0
LAYER
  5
205
100
AcDbSymbolTableRecord
100
AcDbLayerTableRecord
  2
5_ALL_CURVES
 70
0
 62
7
  6
CONTINUOUS
370
-3
390
F
  0
LAYER
  5
206
100
AcDbSymbolTableRecord
100
AcDbLayerTableRecord
  2
6_ALL_SURFS
 70
0
 62
7
  6
CONTINUOUS
370
-3
390
F
  0
LAYER
  5
207
100
AcDbSymbolTableRecord
100
AcDbLayerTableRecord
  2
6_COPYGEOM
 70
0
 62
7
  6
CONTINUOUS
370
-3
390
F
  0
LAYER
  5
208
100
AcDbSymbolTableRecord
100
AcDbLayerTableRecord
  2
7_ALL_ROUNDS
 70
0
 62
7
  6
CONTINUOUS
370
-3
390
F
  0
LAYER
  5
209
100
AcDbSymbolTableRecord
100
AcDbLayerTableRecord
  2
7_MERGES
 70
0
 62
7
  6
CONTINUOUS
370
-3
390
F
  0
LAYER
  5
20A
100
AcDbSymbolTableRecord
100
AcDbLayerTableRecord
  2
8_GDT
 70
0
 62
7
  6
CONTINUOUS
370
-3
390
F
  0
LAYER
  5
20B
100
AcDbSymbolTableRecord
100
AcDbLayerTableRecord
  2
8_SET_DATUMS
 70
0
 62
7
  6
CONTINUOUS
370
-3
390
F
  0
LAYER
  5
20C
100
AcDbSymbolTableRecord
100
AcDbLayerTableRecord
  2
9_COSMETICS
 70
0
 62
7
  6
CONTINUOUS
370
-3
390
F
  0
LAYER
  5
20D
100
AcDbSymbolTableRecord
100
AcDbLayerTableRecord
  2
9_THREADS
 70
0
 62
7
  6
CONTINUOUS
370
-3
390
F
  0
ENDTAB
  0
TABLE
  2
STYLE
  5
3
100
AcDbSymbolTable
 70
1
  0
STYLE
  5
11
100
AcDbSymbolTableRecord
100
AcDbTextStyleTableRecord
  2
STANDARD
 70
0
 40
0.0
 41
1.0
 50
0.0
 71
0
 42
0.2
  3
gothic.ttf
  4

1001
ACAD
1000
Century Gothic
1071
34
  0
STYLE
  5
20E
100
AcDbSymbolTableRecord
100
AcDbTextStyleTableRecord
  2
TEXTSTYLE_1
 70
0
 40
0.0
 41
0.8
 50
0.0
 71
0
 42
0.2
  3
gdt
  4

  0
STYLE
  5
20F
100
AcDbSymbolTableRecord
100
AcDbTextStyleTableRecord
  2
TEXTSTYLE_2
 70
0
 40
0.0
 41
1.0
 50
0.0
 71
0
 42
0.2
  3
gothic.ttf
  4

1001
ACAD
1000
Century Gothic
1071
34
  0
STYLE
  5
210
100
AcDbSymbolTableRecord
100
AcDbTextStyleTableRecord
  2
TEXTSTYLE_3
 70
0
 40
0.0
 41
1.0
 50
0.0
 71
0
 42
0.2
  3
ar_wgl_b.ttf
  4

1001
ACAD
1000
Arial WGL
1071
33554466
  0
STYLE
  5
211
100
AcDbSymbolTableRecord
100
AcDbTextStyleTableRecord
  2
TEXTSTYLE_4
 70
0
 40
0.0
 41
1.0
 50
0.0
 71
0
 42
0.2
  3
gdt
  4

  0
ENDTAB
  0
TABLE
  2
VIEW
  5
6
100
AcDbSymbolTable
 70
0
  0
ENDTAB
  0
TABLE
  2
UCS
  5
7
100
AcDbSymbolTable
 70
0
  0
ENDTAB
  0
TABLE
  2
APPID
  5
9
100
AcDbSymbolTable
 70
1
  0
APPID
  5
212
100
AcDbSymbolTableRecord
100
AcDbRegAppTableRecord
  2
ACAD
 70
0
  0
ENDTAB
  0
TABLE
  2
BLOCK_RECORD
  5
1
100
AcDbSymbolTable
 70
0
  0
BLOCK_RECORD
  5
213
100
AcDbSymbolTableRecord
100
AcDbBlockTableRecord
  2
*Model_Space
  0
BLOCK_RECORD
  5
214
100
AcDbSymbolTableRecord
100
AcDbBlockTableRecord
  2
*Paper_Space
  0
BLOCK_RECORD
  5
215
100
AcDbSymbolTableRecord
100
AcDbBlockTableRecord
  2
_FILLED
  0
BLOCK_RECORD
  5
216
100
AcDbSymbolTableRecord
100
AcDbBlockTableRecord
  2
XSEC_FILLED
  0
BLOCK_RECORD
  5
217
100
AcDbSymbolTableRecord
100
AcDbBlockTableRecord
  2
*D0
  0
BLOCK_RECORD
  5
218
100
AcDbSymbolTableRecord
100
AcDbBlockTableRecord
  2
*D1
  0
BLOCK_RECORD
  5
219
100
AcDbSymbolTableRecord
100
AcDbBlockTableRecord
  2
*D2
  0
BLOCK_RECORD
  5
21A
100
AcDbSymbolTableRecord
100
AcDbBlockTableRecord
  2
*D3
  0
BLOCK_RECORD
  5
21B
100
AcDbSymbolTableRecord
100
AcDbBlockTableRecord
  2
*D4
  0
BLOCK_RECORD
  5
21C
100
AcDbSymbolTableRecord
100
AcDbBlockTableRecord
  2
*D5
  0
BLOCK_RECORD
  5
21D
100
AcDbSymbolTableRecord
100
AcDbBlockTableRecord
  2
*D6
  0
BLOCK_RECORD
  5
21E
100
AcDbSymbolTableRecord
100
AcDbBlockTableRecord
  2
*D7
  0
BLOCK_RECORD
  5
21F
100
AcDbSymbolTableRecord
100
AcDbBlockTableRecord
  2
*D8
  0
BLOCK_RECORD
  5
220
100
AcDbSymbolTableRecord
100
AcDbBlockTableRecord
  2
*D9
  0
BLOCK_RECORD
  5
221
100
AcDbSymbolTableRecord
100
AcDbBlockTableRecord
  2
*D10
  0
BLOCK_RECORD
  5
222
100
AcDbSymbolTableRecord
100
AcDbBlockTableRecord
  2
*D11
  0
BLOCK_RECORD
  5
223
100
AcDbSymbolTableRecord
100
AcDbBlockTableRecord
  2
*D12
  0
BLOCK_RECORD
  5
224
100
AcDbSymbolTableRecord
100
AcDbBlockTableRecord
  2
*D13
  0
BLOCK_RECORD
  5
225
100
AcDbSymbolTableRecord
100
AcDbBlockTableRecord
  2
*D14
  0
BLOCK_RECORD
  5
226
100
AcDbSymbolTableRecord
100
AcDbBlockTableRecord
  2
CG_3D_BL2
  0
BLOCK_RECORD
  5
227
100
AcDbSymbolTableRecord
100
AcDbBlockTableRecord
  2
CG_3D_BL1
  0
BLOCK_RECORD
  5
228
100
AcDbSymbolTableRecord
100
AcDbBlockTableRecord
  2
CG_3D_BL0
  0
ENDTAB
  0
TABLE
  2
DIMSTYLE
  5
A
100
AcDbSymbolTable
 70
1
100
AcDbDimStyleTable
 71
0
  0
DIMSTYLE
105
229
100
AcDbSymbolTableRecord
100
AcDbDimStyleTableRecord
  2
STANDARD
 70
0
  3

  4

 40
1.0
 41
16.0
 42
1.5875
 43
0.38
 44
3.175
 45
0.0
 46
0.0
 47
0.02
 48
0.02
140
18.288
141
0.09
142
0.0
143
0.0393700787
144
1.0
145
0.0
146
1.0
147
0.625
 71
1
 72
0
 73
1
 74
1
 75
0
 76
0
 77
0
 78
4
 79
1
170
1
171
1
172
0
173
0
174
0
175
0
176
0
177
0
178
0
270
2
179
2
271
2
272
2
273
2
274
2
275
0
280
0
281
0
282
0
283
1
284
4
285
0
286
0
287
3
288
0
340
11
278
46
341
215
342
215
343
215
344
215
  0
DIMSTYLE
105
22A
100
AcDbSymbolTableRecord
100
AcDbDimStyleTableRecord
  2
DIMSTYLE_1
 70
0
  3

  4

 40
1.0
 41
16.0
 42
1.5875
 43
0.38
 44
3.175
 45
0.0
 46
0.0
 47
0.02
 48
0.02
140
18.288
141
0.09
142
0.0
143
0.0393700787
144
1.0
145
0.0
146
1.0
147
1.143
 71
0
 72
0
 73
1
 74
1
 75
0
 76
0
 77
0
 78
4
 79
1
170
1
171
2
172
0
173
0
174
0
175
0
176
0
177
0
178
0
270
2
179
2
271
1
272
1
273
2
274
2
275
0
280
0
281
0
282
0
283
1
284
4
285
0
286
0
287
3
288
0
340
11
278
46
341
215
342
215
343
215
344
215
  0
DIMSTYLE
105
22B
100
AcDbSymbolTableRecord
100
AcDbDimStyleTableRecord
  2
DIMSTYLE_2
 70
0
  3
<>
  4

 40
1.0
 41
16.0
 42
1.5875
 43
0.38
 44
3.175
 45
0.0
 46
0.0
 47
0.02
 48
0.02
140
18.288
141
0.09
142
0.0
143
0.0393700787
144
1.0
145
0.0
146
1.0
147
0.625
 71
0
 72
0
 73
1
 74
1
 75
0
 76
0
 77
0
 78
4
 79
1
170
1
171
2
172
0
173
0
174
0
175
0
176
0
177
0
178
0
270
2
179
2
271
1
272
1
273
2
274
2
275
0
280
0
281
0
282
0
283
1
284
4
285
0
286
0
287
3
288
1
340
11
278
46
289
1
341
215
342
215
343
215
344
215
  0
ENDTAB
  0
ENDSEC
  0
SECTION
  2
BLOCKS
  0
BLOCK
  5
20
100
AcDbEntity
  8
0
100
AcDbBlockBegin
  2
*Model_Space
 70
0
 10
0.0
 20
0.0
 30
0.0
  3
*Model_Space
  1

  0
ENDBLK
  5
21
100
AcDbEntity
  8
0
100
AcDbBlockEnd
  0
BLOCK
  5
1C
100
AcDbEntity
  8
0
100
AcDbBlockBegin
  2
*Paper_Space
 70
0
 10
0.0
 20
0.0
 30
0.0
  3
*Paper_Space
  1

  0
ENDBLK
  5
1D
100
AcDbEntity
  8
0
100
AcDbBlockEnd
  0
BLOCK
  5
22C
100
AcDbEntity
  8
0
100
AcDbBlockBegin
 62
2
  6
CONTINUOUS
  2
CG_3D_BL2
 70
64
 10
457.3028005367
 20
1209.547196682
  3
CG_3D_BL2
  1

  0
ARC
  5
22D
100
AcDbEntity
  8
0
100
AcDbCircle
 62
7
  6
CONTINUOUS
 10
457.3028005367
 20
1209.547196682
 40
16.0
100
AcDbArc
 50
90.0
 51
180.0
  0
ARC
  5
22E
100
AcDbEntity
  8
0
100
AcDbCircle
 62
7
  6
CONTINUOUS
 10
457.3028005367
 20
1209.547196682
 40
16.0
100
AcDbArc
 50
180.0
 51
270.0
  0
ARC
  5
22F
100
AcDbEntity
  8
0
100
AcDbCircle
 62
7
  6
CONTINUOUS
 10
457.3028005367
 20
1209.547196682
 40
16.0
100
AcDbArc
 50
270.0
 51
360.0
  0
ARC
  5
230
100
AcDbEntity
  8
0
100
AcDbCircle
 62
7
  6
CONTINUOUS
 10
457.3028005367
 20
1209.547196682
 40
16.0
100
AcDbArc
 50
0.0
 51
90.0
  0
LINE
  5
231
100
AcDbEntity
  8
0
100
AcDbLine
 62
7
  6
CONTINUOUS
 10
457.3028005367
 20
1209.547196682
 11
473.3028005367
 21
1209.547196682
  0
LINE
  5
232
100
AcDbEntity
  8
0
100
AcDbLine
 62
7
  6
CONTINUOUS
 10
457.3028005367
 20
1209.547196682
 11
457.3028005367
 21
1193.547196682
  0
LINE
  5
233
100
AcDbEntity
  8
0
100
AcDbLine
 62
7
  6
CONTINUOUS
 10
441.3028005367
 20
1209.547196682
 11
457.3028005367
 21
1209.547196682
  0
LINE
  5
234
100
AcDbEntity
  8
0
100
AcDbLine
 62
7
  6
CONTINUOUS
 10
457.3028005367
 20
1225.547196682
 11
457.3028005367
 21
1209.547196682
  0
LINE
  5
235
100
AcDbEntity
  8
0
100
AcDbLine
 62
2
  6
CONTINUOUS
 10
457.3028005367
 20
1209.4417461321
 11
457.4082510865
 21
1209.547196682
  0
LWPOLYLINE
  5
236
100
AcDbEntity
  8
0
100
AcDbPolyline
 62
7
  6
CONTINUOUS
 90
8
 70
0
 10
457.3028005367
 20
1209.547196682
 10
457.3028005367
 20
1193.547196682
 10
462.2470724467
 20
1194.3302924212
 10
466.7073645734
 20
1196.602924772
 10
470.2470724467
 20
1200.1426326453
 10
472.5197047974
 20
1204.602924772
 10
473.3028005367
 20
1209.547196682
 10
457.3028005367
 20
1209.547196682
  0
HATCH
  5
237
100
AcDbEntity
  8
0
100
AcDbHatch
 62
7
  6
CONTINUOUS
 10
0.0
 20
0.0
 30
0.0
210
0.0
220
0.0
230
1.0
  2
SOLID
 70
1
 71
1
 91
1
 92
1
 93
7
 72
1
 10
457.3028005367
 20
1209.547196682
 11
457.3028005367
 21
1193.547196682
 72
1
 10
457.3028005367
 20
1193.547196682
 11
462.2470724467
 21
1194.3302924212
 72
1
 10
462.2470724467
 20
1194.3302924212
 11
466.7073645734
 21
1196.602924772
 72
1
 10
466.7073645734
 20
1196.602924772
 11
470.2470724467
 21
1200.1426326453
 72
1
 10
470.2470724467
 20
1200.1426326453
 11
472.5197047974
 21
1204.602924772
 72
1
 10
472.5197047974
 20
1204.602924772
 11
473.3028005367
 21
1209.547196682
 72
1
 10
473.3028005367
 20
1209.547196682
 11
457.3028005367
 21
1209.547196682
 97
1
330
236
 75
0
 76
1
 98
1
 10
0.0
 20
0.0
  0
LWPOLYLINE
  5
238
100
AcDbEntity
  8
0
100
AcDbPolyline
 62
7
  6
CONTINUOUS
 90
8
 70
0
 10
457.3028005367
 20
1209.547196682
 10
441.3028005367
 20
1209.547196682
 10
442.085896276
 20
1214.491468592
 10
444.3585286267
 20
1218.9517607186
 10
447.8982365
 20
1222.491468592
 10
452.3585286267
 20
1224.7641009427
 10
457.3028005367
 20
1225.547196682
 10
457.3028005367
 20
1209.547196682
  0
HATCH
  5
239
100
AcDbEntity
  8
0
100
AcDbHatch
 62
7
  6
CONTINUOUS
 10
0.0
 20
0.0
 30
0.0
210
0.0
220
0.0
230
1.0
  2
SOLID
 70
1
 71
1
 91
1
 92
1
 93
7
 72
1
 10
457.3028005367
 20
1209.547196682
 11
441.3028005367
 21
1209.547196682
 72
1
 10
441.3028005367
 20
1209.547196682
 11
442.085896276
 21
1214.491468592
 72
1
 10
442.085896276
 20
1214.491468592
 11
444.3585286267
 21
1218.9517607186
 72
1
 10
444.3585286267
 20
1218.9517607186
 11
447.8982365
 21
1222.491468592
 72
1
 10
447.8982365
 20
1222.491468592
 11
452.3585286267
 21
1224.7641009427
 72
1
 10
452.3585286267
 20
1224.7641009427
 11
457.3028005367
 21
1225.547196682
 72
1
 10
457.3028005367
 20
1225.547196682
 11
457.3028005367
 21
1209.547196682
 97
1
330
238
 75
0
 76
1
 98
1
 10
0.0
 20
0.0
  0
ENDBLK
  5
23A
100
AcDbEntity
  8
0
  6
BYBLOCK
 62
0
100
AcDbBlockEnd
  0
BLOCK
  5
23B
100
AcDbEntity
  8
0
100
AcDbBlockBegin
 62
2
  6
CONTINUOUS
  2
CG_3D_BL1
 70
64
 10
1157.3845466652
 20
1209.7880327371
  3
CG_3D_BL1
  1

  0
ARC
  5
23C
100
AcDbEntity
  8
0
100
AcDbCircle
 62
7
  6
CONTINUOUS
 10
1157.3845466652
 20
1209.7880327371
 40
16.0
100
AcDbArc
 50
90.0
 51
180.0
  0
ARC
  5
23D
100
AcDbEntity
  8
0
100
AcDbCircle
 62
7
  6
CONTINUOUS
 10
1157.3845466652
 20
1209.7880327371
 40
16.0
100
AcDbArc
 50
180.0
 51
270.0
  0
ARC
  5
23E
100
AcDbEntity
  8
0
100
AcDbCircle
 62
7
  6
CONTINUOUS
 10
1157.3845466652
 20
1209.7880327371
 40
16.0
100
AcDbArc
 50
270.0
 51
360.0
  0
ARC
  5
23F
100
AcDbEntity
  8
0
100
AcDbCircle
 62
7
  6
CONTINUOUS
 10
1157.3845466652
 20
1209.7880327371
 40
16.0
100
AcDbArc
 50
0.0
 51
90.0
  0
LINE
  5
240
100
AcDbEntity
  8
0
100
AcDbLine
 62
7
  6
CONTINUOUS
 10
1157.3845466652
 20
1209.7880327371
 11
1173.3845466652
 21
1209.7880327371
  0
LINE
  5
241
100
AcDbEntity
  8
0
100
AcDbLine
 62
7
  6
CONTINUOUS
 10
1157.3845466652
 20
1209.7880327371
 11
1157.3845466652
 21
1193.7880327371
  0
LINE
  5
242
100
AcDbEntity
  8
0
100
AcDbLine
 62
7
  6
CONTINUOUS
 10
1141.3845466652
 20
1209.7880327371
 11
1157.3845466652
 21
1209.7880327371
  0
LINE
  5
243
100
AcDbEntity
  8
0
100
AcDbLine
 62
7
  6
CONTINUOUS
 10
1157.3845466652
 20
1225.7880327371
 11
1157.3845466652
 21
1209.7880327371
  0
LINE
  5
244
100
AcDbEntity
  8
0
100
AcDbLine
 62
2
  6
CONTINUOUS
 10
1157.3845466652
 20
1209.6825821873
 11
1157.489997215
 21
1209.7880327371
  0
LWPOLYLINE
  5
245
100
AcDbEntity
  8
0
100
AcDbPolyline
 62
7
  6
CONTINUOUS
 90
8
 70
0
 10
1157.3845466652
 20
1209.7880327371
 10
1157.3845466652
 20
1193.7880327371
 10
1162.3288185752
 20
1194.5711284764
 10
1166.7891107018
 20
1196.8437608271
 10
1170.3288185752
 20
1200.3834687004
 10
1172.6014509259
 20
1204.8437608271
 10
1173.3845466652
 20
1209.7880327371
 10
1157.3845466652
 20
1209.7880327371
  0
HATCH
  5
246
100
AcDbEntity
  8
0
100
AcDbHatch
 62
7
  6
CONTINUOUS
 10
0.0
 20
0.0
 30
0.0
210
0.0
220
0.0
230
1.0
  2
SOLID
 70
1
 71
1
 91
1
 92
1
 93
7
 72
1
 10
1157.3845466652
 20
1209.7880327371
 11
1157.3845466652
 21
1193.7880327371
 72
1
 10
1157.3845466652
 20
1193.7880327371
 11
1162.3288185752
 21
1194.5711284764
 72
1
 10
1162.3288185752
 20
1194.5711284764
 11
1166.7891107018
 21
1196.8437608271
 72
1
 10
1166.7891107018
 20
1196.8437608271
 11
1170.3288185752
 21
1200.3834687004
 72
1
 10
1170.3288185752
 20
1200.3834687004
 11
1172.6014509259
 21
1204.8437608271
 72
1
 10
1172.6014509259
 20
1204.8437608271
 11
1173.3845466652
 21
1209.7880327371
 72
1
 10
1173.3845466652
 20
1209.7880327371
 11
1157.3845466652
 21
1209.7880327371
 97
1
330
245
 75
0
 76
1
 98
1
 10
0.0
 20
0.0
  0
LWPOLYLINE
  5
247
100
AcDbEntity
  8
0
100
AcDbPolyline
 62
7
  6
CONTINUOUS
 90
8
 70
0
 10
1157.3845466652
 20
1209.7880327371
 10
1141.3845466652
 20
1209.7880327371
 10
1142.1676424044
 20
1214.7323046471
 10
1144.4402747552
 20
1219.1925967738
 10
1147.9799826285
 20
1222.7323046471
 10
1152.4402747552
 20
1225.0049369978
 10
1157.3845466652
 20
1225.7880327371
 10
1157.3845466652
 20
1209.7880327371
  0
HATCH
  5
248
100
AcDbEntity
  8
0
100
AcDbHatch
 62
7
  6
CONTINUOUS
 10
0.0
 20
0.0
 30
0.0
210
0.0
220
0.0
230
1.0
  2
SOLID
 70
1
 71
1
 91
1
 92
1
 93
7
 72
1
 10
1157.3845466652
 20
1209.7880327371
 11
1141.3845466652
 21
1209.7880327371
 72
1
 10
1141.3845466652
 20
1209.7880327371
 11
1142.1676424044
 21
1214.7323046471
 72
1
 10
1142.1676424044
 20
1214.7323046471
 11
1144.4402747552
 21
1219.1925967738
 72
1
 10
1144.4402747552
 20
1219.1925967738
 11
1147.9799826285
 21
1222.7323046471
 72
1
 10
1147.9799826285
 20
1222.7323046471
 11
1152.4402747552
 21
1225.0049369978
 72
1
 10
1152.4402747552
 20
1225.0049369978
 11
1157.3845466652
 21
1225.7880327371
 72
1
 10
1157.3845466652
 20
1225.7880327371
 11
1157.3845466652
 21
1209.7880327371
 97
1
330
247
 75
0
 76
1
 98
1
 10
0.0
 20
0.0
  0
ENDBLK
  5
249
100
AcDbEntity
  8
0
  6
BYBLOCK
 62
0
100
AcDbBlockEnd
  0
BLOCK
  5
24A
100
AcDbEntity
  8
0
100
AcDbBlockBegin
 62
2
  6
CONTINUOUS
  2
CG_3D_BL0
 70
64
 10
258.8209954831
 20
2030.7083283743
  3
CG_3D_BL0
  1

  0
ARC
  5
24B
100
AcDbEntity
  8
0
100
AcDbCircle
 62
7
  6
CONTINUOUS
 10
258.8209954831
 20
2030.7083283743
 40
13.0
100
AcDbArc
 50
90.0
 51
180.0
  0
ARC
  5
24C
100
AcDbEntity
  8
0
100
AcDbCircle
 62
7
  6
CONTINUOUS
 10
258.8209954831
 20
2030.7083283743
 40
13.0
100
AcDbArc
 50
180.0
 51
270.0
  0
ARC
  5
24D
100
AcDbEntity
  8
0
100
AcDbCircle
 62
7
  6
CONTINUOUS
 10
258.8209954831
 20
2030.7083283743
 40
13.0
100
AcDbArc
 50
270.0
 51
360.0
  0
ARC
  5
24E
100
AcDbEntity
  8
0
100
AcDbCircle
 62
7
  6
CONTINUOUS
 10
258.8209954831
 20
2030.7083283743
 40
13.0
100
AcDbArc
 50
0.0
 51
90.0
  0
LINE
  5
24F
100
AcDbEntity
  8
0
100
AcDbLine
 62
7
  6
CONTINUOUS
 10
258.8209954831
 20
2030.7083283743
 11
271.8209954831
 21
2030.7083283743
  0
LINE
  5
250
100
AcDbEntity
  8
0
100
AcDbLine
 62
7
  6
CONTINUOUS
 10
258.8209954831
 20
2030.7083283743
 11
258.8209954831
 21
2017.7083283743
  0
LINE
  5
251
100
AcDbEntity
  8
0
100
AcDbLine
 62
7
  6
CONTINUOUS
 10
245.8209954831
 20
2030.7083283743
 11
258.8209954831
 21
2030.7083283743
  0
LINE
  5
252
100
AcDbEntity
  8
0
100
AcDbLine
 62
7
  6
CONTINUOUS
 10
258.8209954831
 20
2043.7083283743
 11
258.8209954831
 21
2030.7083283743
  0
LINE
  5
253
100
AcDbEntity
  8
0
100
AcDbLine
 62
2
  6
CONTINUOUS
 10
258.8209954831
 20
2030.6226498025
 11
258.9066740548
 21
2030.7083283743
  0
LWPOLYLINE
  5
254
100
AcDbEntity
  8
0
100
AcDbPolyline
 62
7
  6
CONTINUOUS
 90
8
 70
0
 10
258.8209954831
 20
2030.7083283743
 10
258.8209954831
 20
2017.7083283743
 10
262.83821641
 20
2018.3445936624
 10
266.4622037629
 20
2020.1911074474
 10
269.33821641
 20
2023.0671200945
 10
271.1847301949
 20
2026.6911074474
 10
271.8209954831
 20
2030.7083283743
 10
258.8209954831
 20
2030.7083283743
  0
HATCH
  5
255
100
AcDbEntity
  8
0
100
AcDbHatch
 62
7
  6
CONTINUOUS
 10
0.0
 20
0.0
 30
0.0
210
0.0
220
0.0
230
1.0
  2
SOLID
 70
1
 71
1
 91
1
 92
1
 93
7
 72
1
 10
258.8209954831
 20
2030.7083283743
 11
258.8209954831
 21
2017.7083283743
 72
1
 10
258.8209954831
 20
2017.7083283743
 11
262.83821641
 21
2018.3445936624
 72
1
 10
262.83821641
 20
2018.3445936624
 11
266.4622037629
 21
2020.1911074474
 72
1
 10
266.4622037629
 20
2020.1911074474
 11
269.33821641
 21
2023.0671200945
 72
1
 10
269.33821641
 20
2023.0671200945
 11
271.1847301949
 21
2026.6911074474
 72
1
 10
271.1847301949
 20
2026.6911074474
 11
271.8209954831
 21
2030.7083283743
 72
1
 10
271.8209954831
 20
2030.7083283743
 11
258.8209954831
 21
2030.7083283743
 97
1
330
254
 75
0
 76
1
 98
1
 10
0.0
 20
0.0
  0
LWPOLYLINE
  5
256
100
AcDbEntity
  8
0
100
AcDbPolyline
 62
7
  6
CONTINUOUS
 90
8
 70
0
 10
258.8209954831
 20
2030.7083283743
 10
245.8209954831
 20
2030.7083283743
 10
246.4572607713
 20
2034.7255493011
 10
248.3037745562
 20
2038.3495366541
 10
251.1797872033
 20
2041.2255493011
 10
254.8037745562
 20
2043.0720630861
 10
258.8209954831
 20
2043.7083283743
 10
258.8209954831
 20
2030.7083283743
  0
HATCH
  5
257
100
AcDbEntity
  8
0
100
AcDbHatch
 62
7
  6
CONTINUOUS
 10
0.0
 20
0.0
 30
0.0
210
0.0
220
0.0
230
1.0
  2
SOLID
 70
1
 71
1
 91
1
 92
1
 93
7
 72
1
 10
258.8209954831
 20
2030.7083283743
 11
245.8209954831
 21
2030.7083283743
 72
1
 10
245.8209954831
 20
2030.7083283743
 11
246.4572607713
 21
2034.7255493011
 72
1
 10
246.4572607713
 20
2034.7255493011
 11
248.3037745562
 21
2038.3495366541
 72
1
 10
248.3037745562
 20
2038.3495366541
 11
251.1797872033
 21
2041.2255493011
 72
1
 10
251.1797872033
 20
2041.2255493011
 11
254.8037745562
 21
2043.0720630861
 72
1
 10
254.8037745562
 20
2043.0720630861
 11
258.8209954831
 21
2043.7083283743
 72
1
 10
258.8209954831
 20
2043.7083283743
 11
258.8209954831
 21
2030.7083283743
 97
1
330
256
 75
0
 76
1
 98
1
 10
0.0
 20
0.0
  0
ENDBLK
  5
258
100
AcDbEntity
  8
0
  6
BYBLOCK
 62
0
100
AcDbBlockEnd
  0
BLOCK
  5
259
100
AcDbEntity
  8
0
100
AcDbBlockBegin
  2
_FILLED
 70
64
 10
0.0
 20
0.0
  3
_FILLED
  1

  0
SOLID
  5
25A
100
AcDbEntity
  8
0
  6
BYBLOCK
 62
0
100
AcDbTrace
 10
0.0
 20
0.0
 11
-1.0
 21
0.1275
 12
-1.0
 22
-0.1275
 13
-1.0
 23
-0.1275
  0
ENDBLK
  5
25B
100
AcDbEntity
  8
0
  6
BYBLOCK
 62
0
100
AcDbBlockEnd
  0
BLOCK
  5
25C
100
AcDbEntity
  8
0
100
AcDbBlockBegin
  2
XSEC_FILLED
 70
64
 10
0.0
 20
0.0
  3
XSEC_FILLED
  1

  0
SOLID
  5
25D
100
AcDbEntity
  8
0
  6
BYBLOCK
 62
0
100
AcDbTrace
 10
0.0
 20
0.0
 11
-1.0
 21
0.166
 12
-1.0
 22
-0.166
 13
-1.0
 23
-0.166
  0
ENDBLK
  5
25E
100
AcDbEntity
  8
0
  6
BYBLOCK
 62
0
100
AcDbBlockEnd
  0
BLOCK
  5
25F
100
AcDbEntity
  8
0
100
AcDbBlockBegin
 62
2
  6
CONTINUOUS
  2
*D0
 70
65
 10
0.0
 20
0.0
  3
*D0
  1

  0
MTEXT
  5
260
100
AcDbEntity
  8
0
100
AcDbMText
 62
2
  6
CONTINUOUS
  7
STANDARD
 71
2
 72
1
 10
1148.3410715209
 20
590.1944107243
 30
0.0
 11
1.0
 21
0.0
 31
0.0
 73
2
 44
0.9
  1
475,0\P[18.70]
 40
18.288
 41
81.5821561338
  0
LINE
  5
261
100
AcDbEntity
  8
0
100
AcDbLine
 62
2
  6
CONTINUOUS
 10
919.8151086957
 20
524.8501456104
 11
919.8151086957
 21
606.4504107243
  0
LINE
  5
262
100
AcDbEntity
  8
0
100
AcDbLine
 62
2
  6
CONTINUOUS
 10
1394.8151086957
 20
524.8501456104
 11
1394.8151086957
 21
606.4504107243
  0
LINE
  5
263
100
AcDbEntity
  8
0
100
AcDbLine
 62
2
  6
CONTINUOUS
 10
919.8151086957
 20
581.0504107243
 11
1107.3800306287
 21
581.0504107243
  0
LINE
  5
264
100
AcDbEntity
  8
0
100
AcDbLine
 62
2
  6
CONTINUOUS
 10
1394.8151086957
 20
581.0504107243
 11
1207.2501867626
 21
581.0504107243
  0
INSERT
  5
265
100
AcDbEntity
  8
0
100
AcDbBlockReference
 62
2
  6
CONTINUOUS
  2
_FILLED
 10
919.8151086957
 20
581.0504107243
 41
16.0
 42
16.0
 43
16.0
 50
180.0
  0
INSERT
  5
266
100
AcDbEntity
  8
0
100
AcDbBlockReference
 62
2
  6
CONTINUOUS
  2
_FILLED
 10
1394.8151086957
 20
581.0504107243
 41
16.0
 42
16.0
 43
16.0
  0
ENDBLK
  5
267
100
AcDbEntity
  8
0
  6
BYBLOCK
 62
0
100
AcDbBlockEnd
  0
BLOCK
  5
268
100
AcDbEntity
  8
0
100
AcDbBlockBegin
 62
2
  6
CONTINUOUS
  2
*D1
 70
65
 10
0.0
 20
0.0
  3
*D1
  1

  0
MTEXT
  5
269
100
AcDbEntity
  8
0
100
AcDbMText
 62
2
  6
CONTINUOUS
  7
STANDARD
 71
2
 72
1
 10
1473.8706864915
 20
1213.9401709487
 30
0.0
 11
1.0
 21
0.0
 31
0.0
 73
2
 44
0.9
  1
704,0\P[27.72]
 40
18.288
 41
81.5821561338
  0
LINE
  5
26A
100
AcDbEntity
  8
0
100
AcDbLine
 62
2
  6
CONTINUOUS
 10
1407.5151086957
 20
859.5554038064
 11
1508.2447236662
 21
859.5554038064
  0
LINE
  5
26B
100
AcDbEntity
  8
0
100
AcDbLine
 62
2
  6
CONTINUOUS
 10
1407.5151086957
 20
1563.5554038064
 11
1508.2447236662
 21
1563.5554038064
  0
LINE
  5
26C
100
AcDbEntity
  8
0
100
AcDbLine
 62
2
  6
CONTINUOUS
 10
1482.8447236662
 20
859.5554038064
 11
1482.8447236662
 21
1154.1132627441
  0
LINE
  5
26D
100
AcDbEntity
  8
0
100
AcDbLine
 62
2
  6
CONTINUOUS
 10
1482.8447236662
 20
1563.5554038064
 11
1482.8447236662
 21
1223.0841709487
  0
INSERT
  5
26E
100
AcDbEntity
  8
0
100
AcDbBlockReference
 62
2
  6
CONTINUOUS
  2
_FILLED
 10
1482.8447236662
 20
859.5554038064
 41
16.0
 42
16.0
 43
16.0
 50
270.0
  0
INSERT
  5
26F
100
AcDbEntity
  8
0
100
AcDbBlockReference
 62
2
  6
CONTINUOUS
  2
_FILLED
 10
1482.8447236662
 20
1563.5554038064
 41
16.0
 42
16.0
 43
16.0
 50
90.0
  0
ENDBLK
  5
270
100
AcDbEntity
  8
0
  6
BYBLOCK
 62
0
100
AcDbBlockEnd
  0
BLOCK
  5
271
100
AcDbEntity
  8
0
100
AcDbBlockBegin
 62
2
  6
CONTINUOUS
  2
*D2
 70
65
 10
0.0
 20
0.0
  3
*D2
  1

  0
MTEXT
  5
272
100
AcDbEntity
  8
0
100
AcDbMText
 62
2
  6
CONTINUOUS
  7
STANDARD
 71
1
 72
1
 10
561.7592639231
 20
1631.7199705401
 30
0.0
 11
1.0
 21
0.0
 31
0.0
 73
2
 44
0.9
  1
41,1\P[1.62]
 40
18.288
 41
67.4412490706
  0
LINE
  5
273
100
AcDbEntity
  8
0
100
AcDbLine
 62
2
  6
CONTINUOUS
 10
457.2278137285
 20
1235.9841822061
 11
457.2278137284
 21
1647.9759705401
  0
LINE
  5
274
100
AcDbEntity
  8
0
100
AcDbLine
 62
2
  6
CONTINUOUS
 10
498.2878137284
 20
1576.2554038064
 11
498.2878137284
 21
1647.9759705401
  0
LINE
  5
275
100
AcDbEntity
  8
0
100
AcDbLine
 62
2
  6
CONTINUOUS
 10
457.2278137284
 20
1622.5759705401
 11
425.2278137284
 21
1622.5759705401
  0
LINE
  5
276
100
AcDbEntity
  8
0
100
AcDbLine
 62
2
  6
CONTINUOUS
 10
498.2878137284
 20
1622.5759705401
 11
552.6152639231
 21
1622.5759705401
  0
INSERT
  5
277
100
AcDbEntity
  8
0
100
AcDbBlockReference
 62
2
  6
CONTINUOUS
  2
_FILLED
 10
457.2278137284
 20
1622.5759705401
 41
16.0
 42
16.0
 43
16.0
  0
INSERT
  5
278
100
AcDbEntity
  8
0
100
AcDbBlockReference
 62
2
  6
CONTINUOUS
  2
_FILLED
 10
498.2878137284
 20
1622.5759705401
 41
16.0
 42
16.0
 43
16.0
 50
180.0
  0
ENDBLK
  5
279
100
AcDbEntity
  8
0
  6
BYBLOCK
 62
0
100
AcDbBlockEnd
  0
BLOCK
  5
27A
100
AcDbEntity
  8
0
100
AcDbBlockBegin
 62
2
  6
CONTINUOUS
  2
*D3
 70
65
 10
0.0
 20
0.0
  3
*D3
  1

  0
MTEXT
  5
27B
100
AcDbEntity
  8
0
100
AcDbMText
 62
2
  6
CONTINUOUS
  7
TEXTSTYLE_4
 71
1
 72
1
 10
586.5824960853
 20
1039.8039222189
 30
0.0
 11
1.0
 21
0.0
 31
0.0
 73
2
 44
0.9
  1
{\fgdt;n}\fCentury Gothic;{\W0.8;20,0}{\W0.8;{\ftxt;\W0.0001;\H0.0001;\~}{\ftxt;\W0.2081784387;\H18.288; } TYP}\P{\W0.8;[}{\W0.8;.79}{\W0.8;]}
 40
18.288
 41
125.8178141264
  0
LINE
  5
27C
100
AcDbEntity
  8
0
100
AcDbLine
 62
2
  6
CONTINUOUS
 10
471.5407328171
 20
986.7024673369
 11
535.7824960853
 21
1030.6599222189
  0
LINE
  5
27D
100
AcDbEntity
  8
0
100
AcDbLine
 62
2
  6
CONTINUOUS
 10
535.7824960853
 20
1030.6599222189
 11
577.4384960853
 21
1030.6599222189
  0
INSERT
  5
27E
100
AcDbEntity
  8
0
100
AcDbBlockReference
 62
2
  6
CONTINUOUS
  2
_FILLED
 10
471.5407328171
 20
986.7024673369
 41
16.0
 42
16.0
 43
16.0
 50
214.3819024264
  0
ENDBLK
  5
27F
100
AcDbEntity
  8
0
  6
BYBLOCK
 62
0
100
AcDbBlockEnd
  0
BLOCK
  5
280
100
AcDbEntity
  8
0
100
AcDbBlockBegin
 62
2
  6
CONTINUOUS
  2
*D4
 70
65
 10
0.0
 20
0.0
  3
*D4
  1

  0
MTEXT
  5
281
100
AcDbEntity
  8
0
100
AcDbMText
 62
2
  6
CONTINUOUS
  7
STANDARD
 71
3
 72
1
 10
1711.6914847744
 20
1035.8569294974
 30
0.0
 11
1.0
 21
0.0
 31
0.0
 73
2
 44
0.9
  1
(\fgdt;{\W1.0;{\fgdt;n}}\fCentury Gothic;20,0{\ftxt;\W0.0001;\H0.0001;\~}{\ftxt;\W0.2081784387;\H18.288; } TYP)\P[.79]
 40
18.288
 41
144.5817100372
  0
LINE
  5
282
100
AcDbEntity
  8
0
100
AcDbLine
 62
2
  6
CONTINUOUS
 10
1809.9431390914
 20
987.4320927475
 11
1762.4914847744
 21
1026.7129294974
  0
LINE
  5
283
100
AcDbEntity
  8
0
100
AcDbLine
 62
2
  6
CONTINUOUS
 10
1762.4914847744
 20
1026.7129294974
 11
1720.8354847744
 21
1026.7129294974
  0
INSERT
  5
284
100
AcDbEntity
  8
0
100
AcDbBlockReference
 62
2
  6
CONTINUOUS
  2
_FILLED
 10
1809.9431390914
 20
987.4320927475
 41
16.0
 42
16.0
 43
16.0
 50
320.3817863853
  0
ENDBLK
  5
285
100
AcDbEntity
  8
0
  6
BYBLOCK
 62
0
100
AcDbBlockEnd
  0
BLOCK
  5
286
100
AcDbEntity
  8
0
100
AcDbBlockBegin
 62
2
  6
CONTINUOUS
  2
*D5
 70
65
 10
0.0
 20
0.0
  3
*D5
  1

  0
MTEXT
  5
287
100
AcDbEntity
  8
0
100
AcDbMText
 62
2
  6
CONTINUOUS
  7
STANDARD
 71
3
 72
1
 10
371.8918480068
 20
1674.3767177988
 30
0.0
 11
1.0
 21
0.0
 31
0.0
 73
2
 44
0.9
  1
97,0{\ftxt;\W0.0001;\H0.0001;\~}{\ftxt;\W0.9814126394;\H18.288; } 2X\P[3.82]
 40
18.288
 41
104.1532193309
  0
LINE
  5
288
100
AcDbEntity
  8
0
100
AcDbLine
 62
2
  6
CONTINUOUS
 10
498.2878137284
 20
1576.2554038064
 11
498.2878137284
 21
1690.6327177988
  0
LINE
  5
289
100
AcDbEntity
  8
0
100
AcDbLine
 62
2
  6
CONTINUOUS
 10
401.2878137285
 20
1549.7554038064
 11
401.2878137284
 21
1690.6327177988
  0
LINE
  5
28A
100
AcDbEntity
  8
0
100
AcDbLine
 62
2
  6
CONTINUOUS
 10
498.2878137284
 20
1665.2327177988
 11
449.7878137284
 21
1665.2327177988
  0
LINE
  5
28B
100
AcDbEntity
  8
0
100
AcDbLine
 62
2
  6
CONTINUOUS
 10
401.2878137284
 20
1665.2327177988
 11
449.7878137284
 21
1665.2327177988
  0
LINE
  5
28C
100
AcDbEntity
  8
0
100
AcDbLine
 62
2
  6
CONTINUOUS
 10
449.7878137284
 20
1665.2327177988
 11
381.0358480068
 21
1665.2327177988
  0
INSERT
  5
28D
100
AcDbEntity
  8
0
100
AcDbBlockReference
 62
2
  6
CONTINUOUS
  2
_FILLED
 10
498.2878137284
 20
1665.2327177988
 41
16.0
 42
16.0
 43
16.0
  0
INSERT
  5
28E
100
AcDbEntity
  8
0
100
AcDbBlockReference
 62
2
  6
CONTINUOUS
  2
_FILLED
 10
401.2878137284
 20
1665.2327177988
 41
16.0
 42
16.0
 43
16.0
 50
180.0
  0
ENDBLK
  5
28F
100
AcDbEntity
  8
0
  6
BYBLOCK
 62
0
100
AcDbBlockEnd
  0
BLOCK
  5
290
100
AcDbEntity
  8
0
100
AcDbBlockBegin
 62
2
  6
CONTINUOUS
  2
*D6
 70
65
 10
0.0
 20
0.0
  3
*D6
  1

  0
MTEXT
  5
291
100
AcDbEntity
  8
0
100
AcDbMText
 62
2
  6
CONTINUOUS
  7
STANDARD
 71
2
 72
1
 10
828.498740947
 20
1414.6230412522
 30
0.0
 11
1.0
 21
0.0
 31
0.0
 73
2
 44
0.9
  1
353,9\P[13.93]
 40
18.288
 41
81.5821561338
  0
LINE
  5
292
100
AcDbEntity
  8
0
100
AcDbLine
 62
2
  6
CONTINUOUS
 10
907.1151086957
 20
1563.5554038064
 11
812.0727781217
 21
1563.5554038064
  0
LINE
  5
293
100
AcDbEntity
  8
0
100
AcDbLine
 62
2
  6
CONTINUOUS
 10
886.7951086957
 20
1209.6754038064
 11
812.0727781217
 21
1209.6754038064
  0
LINE
  5
294
100
AcDbEntity
  8
0
100
AcDbLine
 62
2
  6
CONTINUOUS
 10
837.4727781217
 20
1563.5554038064
 11
837.4727781217
 21
1423.7670412522
  0
LINE
  5
295
100
AcDbEntity
  8
0
100
AcDbLine
 62
2
  6
CONTINUOUS
 10
837.4727781217
 20
1209.6754038064
 11
837.4727781217
 21
1354.7961078613
  0
INSERT
  5
296
100
AcDbEntity
  8
0
100
AcDbBlockReference
 62
2
  6
CONTINUOUS
  2
_FILLED
 10
837.4727781217
 20
1563.5554038064
 41
16.0
 42
16.0
 43
16.0
 50
90.0
  0
INSERT
  5
297
100
AcDbEntity
  8
0
100
AcDbBlockReference
 62
2
  6
CONTINUOUS
  2
_FILLED
 10
837.4727781217
 20
1209.6754038064
 41
16.0
 42
16.0
 43
16.0
 50
270.0
  0
ENDBLK
  5
298
100
AcDbEntity
  8
0
  6
BYBLOCK
 62
0
100
AcDbBlockEnd
  0
BLOCK
  5
299
100
AcDbEntity
  8
0
100
AcDbBlockBegin
 62
2
  6
CONTINUOUS
  2
*D7
 70
65
 10
0.0
 20
0.0
  3
*D7
  1

  0
MTEXT
  5
29A
100
AcDbEntity
  8
0
100
AcDbMText
 62
2
  6
CONTINUOUS
  7
STANDARD
 71
1
 72
1
 10
541.8596379846
 20
780.998625103
 30
0.0
 11
1.0
 21
0.0
 31
0.0
 73
2
 44
0.9
  1
35,0{\ftxt;\W0.0001;\H0.0001;\~}{\ftxt;\W0.9814126394;\H18.288; }TYP\P[1.38]
 40
18.288
 41
108.504267658
  0
LINE
  5
29B
100
AcDbEntity
  8
0
100
AcDbLine
 62
2
  6
CONTINUOUS
 10
498.2878137284
 20
846.8554038064
 11
498.2878137284
 21
746.454625103
  0
LINE
  5
29C
100
AcDbEntity
  8
0
100
AcDbLine
 62
2
  6
CONTINUOUS
 10
463.2878137285
 20
948.0353038064
 11
463.2878137285
 21
746.454625103
  0
LINE
  5
29D
100
AcDbEntity
  8
0
100
AcDbLine
 62
2
  6
CONTINUOUS
 10
498.2878137284
 20
771.854625103
 11
532.7156379846
 21
771.854625103
  0
LINE
  5
29E
100
AcDbEntity
  8
0
100
AcDbLine
 62
2
  6
CONTINUOUS
 10
463.2878137285
 20
771.854625103
 11
431.2878137285
 21
771.854625103
  0
INSERT
  5
29F
100
AcDbEntity
  8
0
100
AcDbBlockReference
 62
2
  6
CONTINUOUS
  2
_FILLED
 10
498.2878137284
 20
771.854625103
 41
16.0
 42
16.0
 43
16.0
 50
180.0
  0
INSERT
  5
2A0
100
AcDbEntity
  8
0
100
AcDbBlockReference
 62
2
  6
CONTINUOUS
  2
_FILLED
 10
463.2878137285
 20
771.854625103
 41
16.0
 42
16.0
 43
16.0
  0
ENDBLK
  5
2A1
100
AcDbEntity
  8
0
  6
BYBLOCK
 62
0
100
AcDbBlockEnd
  0
BLOCK
  5
2A2
100
AcDbEntity
  8
0
100
AcDbBlockBegin
 62
2
  6
CONTINUOUS
  2
*D8
 70
65
 10
0.0
 20
0.0
  3
*D8
  1

  0
MTEXT
  5
2A3
100
AcDbEntity
  8
0
100
AcDbMText
 62
2
  6
CONTINUOUS
  7
STANDARD
 71
2
 72
1
 10
333.9515299797
 20
1464.6972468189
 30
0.0
 11
1.0
 21
0.0
 31
0.0
 73
2
 44
0.9
  1
74,5\P[2.93]
 40
18.288
 41
67.4412490706
  0
LINE
  5
2A4
100
AcDbEntity
  8
0
100
AcDbLine
 62
2
  6
CONTINUOUS
 10
430.2677137285
 20
1489.0554038064
 11
317.5255671545
 21
1489.0554038064
  0
LINE
  5
2A5
100
AcDbEntity
  8
0
100
AcDbLine
 62
2
  6
CONTINUOUS
 10
400.5878137285
 20
1563.5554038064
 11
317.5255671545
 21
1563.5554038064
  0
LINE
  5
2A6
100
AcDbEntity
  8
0
100
AcDbLine
 62
2
  6
CONTINUOUS
 10
342.9255671545
 20
1489.0554038064
 11
342.9255671545
 21
1526.3054038064
  0
LINE
  5
2A7
100
AcDbEntity
  8
0
100
AcDbLine
 62
2
  6
CONTINUOUS
 10
342.9255671545
 20
1526.3054038064
 11
342.9255671545
 21
1473.8412468189
  0
LINE
  5
2A8
100
AcDbEntity
  8
0
100
AcDbLine
 62
2
  6
CONTINUOUS
 10
342.9255671545
 20
1563.5554038064
 11
342.9255671545
 21
1526.3054038064
  0
INSERT
  5
2A9
100
AcDbEntity
  8
0
100
AcDbBlockReference
 62
2
  6
CONTINUOUS
  2
_FILLED
 10
342.9255671545
 20
1489.0554038064
 41
16.0
 42
16.0
 43
16.0
 50
270.0
  0
INSERT
  5
2AA
100
AcDbEntity
  8
0
100
AcDbBlockReference
 62
2
  6
CONTINUOUS
  2
_FILLED
 10
342.9255671545
 20
1563.5554038064
 41
16.0
 42
16.0
 43
16.0
 50
90.0
  0
ENDBLK
  5
2AB
100
AcDbEntity
  8
0
  6
BYBLOCK
 62
0
100
AcDbBlockEnd
  0
BLOCK
  5
2AC
100
AcDbEntity
  8
0
100
AcDbBlockBegin
 62
2
  6
CONTINUOUS
  2
*D9
 70
65
 10
0.0
 20
0.0
  3
*D9
  1

  0
MTEXT
  5
2AD
100
AcDbEntity
  8
0
100
AcDbMText
 62
2
  6
CONTINUOUS
  7
STANDARD
 71
2
 72
1
 10
584.9384990546
 20
1404.1260888914
 30
0.0
 11
1.0
 21
0.0
 31
0.0
 73
2
 44
0.9
  1
50,8{\ftxt;\W0.0001;\H0.0001;\~}{\ftxt;\W0.9814126394;\H18.288; }TYP\P[2.00]
 40
18.288
 41
108.504267658
  0
LINE
  5
2AE
100
AcDbEntity
  8
0
100
AcDbLine
 62
2
  6
CONTINUOUS
 10
496.3079137284
 20
1489.0554038064
 11
610.3384990546
 21
1489.0554038064
  0
LINE
  5
2AF
100
AcDbEntity
  8
0
100
AcDbLine
 62
2
  6
CONTINUOUS
 10
496.3079137284
 20
1438.2554038064
 11
610.3384990546
 21
1438.2554038064
  0
LINE
  5
2B0
100
AcDbEntity
  8
0
100
AcDbLine
 62
2
  6
CONTINUOUS
 10
584.9384990546
 20
1489.0554038064
 11
584.9384990546
 21
1463.6554038064
  0
LINE
  5
2B1
100
AcDbEntity
  8
0
100
AcDbLine
 62
2
  6
CONTINUOUS
 10
584.9384990546
 20
1438.2554038064
 11
584.9384990546
 21
1463.6554038064
  0
LINE
  5
2B2
100
AcDbEntity
  8
0
100
AcDbLine
 62
2
  6
CONTINUOUS
 10
584.9384990546
 20
1463.6554038064
 11
584.9384990546
 21
1413.2700888914
  0
INSERT
  5
2B3
100
AcDbEntity
  8
0
100
AcDbBlockReference
 62
2
  6
CONTINUOUS
  2
_FILLED
 10
584.9384990546
 20
1489.0554038064
 41
16.0
 42
16.0
 43
16.0
 50
90.0
  0
INSERT
  5
2B4
100
AcDbEntity
  8
0
100
AcDbBlockReference
 62
2
  6
CONTINUOUS
  2
_FILLED
 10
584.9384990546
 20
1438.2554038064
 41
16.0
 42
16.0
 43
16.0
 50
270.0
  0
ENDBLK
  5
2B5
100
AcDbEntity
  8
0
  6
BYBLOCK
 62
0
100
AcDbBlockEnd
  0
BLOCK
  5
2B6
100
AcDbEntity
  8
0
100
AcDbBlockBegin
 62
2
  6
CONTINUOUS
  2
*D10
 70
65
 10
0.0
 20
0.0
  3
*D10
  1

  0
MTEXT
  5
2B7
100
AcDbEntity
  8
0
100
AcDbMText
 62
2
  6
CONTINUOUS
  7
STANDARD
 71
2
 72
1
 10
267.3479987736
 20
1368.3430963046
 30
0.0
 11
1.0
 21
0.0
 31
0.0
 73
2
 44
0.9
  1
430,1\P[16.93]
 40
18.288
 41
81.5821561338
  0
LINE
  5
2B8
100
AcDbEntity
  8
0
100
AcDbLine
 62
2
  6
CONTINUOUS
 10
430.2677137284
 20
1133.4554038064
 11
250.9220359483
 21
1133.4554038064
  0
LINE
  5
2B9
100
AcDbEntity
  8
0
100
AcDbLine
 62
2
  6
CONTINUOUS
 10
400.5878137285
 20
1563.5554038064
 11
250.9220359483
 21
1563.5554038064
  0
LINE
  5
2BA
100
AcDbEntity
  8
0
100
AcDbLine
 62
2
  6
CONTINUOUS
 10
276.3220359483
 20
1133.4554038064
 11
276.3220359483
 21
1308.5161296387
  0
LINE
  5
2BB
100
AcDbEntity
  8
0
100
AcDbLine
 62
2
  6
CONTINUOUS
 10
276.3220359483
 20
1563.5554038064
 11
276.3220359483
 21
1377.4870963046
  0
INSERT
  5
2BC
100
AcDbEntity
  8
0
100
AcDbBlockReference
 62
2
  6
CONTINUOUS
  2
_FILLED
 10
276.3220359483
 20
1133.4554038064
 41
16.0
 42
16.0
 43
16.0
 50
270.0
  0
INSERT
  5
2BD
100
AcDbEntity
  8
0
100
AcDbBlockReference
 62
2
  6
CONTINUOUS
  2
_FILLED
 10
276.3220359483
 20
1563.5554038064
 41
16.0
 42
16.0
 43
16.0
 50
90.0
  0
ENDBLK
  5
2BE
100
AcDbEntity
  8
0
  6
BYBLOCK
 62
0
100
AcDbBlockEnd
  0
BLOCK
  5
2BF
100
AcDbEntity
  8
0
100
AcDbBlockBegin
 62
2
  6
CONTINUOUS
  2
*D11
 70
65
 10
0.0
 20
0.0
  3
*D11
  1

  0
MTEXT
  5
2C0
100
AcDbEntity
  8
0
100
AcDbMText
 62
2
  6
CONTINUOUS
  7
STANDARD
 71
1
 72
1
 10
1865.1781238256
 20
829.3570617565
 30
0.0
 11
1.0
 21
0.0
 31
0.0
 73
2
 44
0.9
  1
(35,0{\ftxt;\W0.0001;\H0.0001;\~}{\ftxt;\W0.9814126394;\H18.288; }TYP)\P[1.38]
 40
18.288
 41
127.2681635688
  0
LINE
  5
2C1
100
AcDbEntity
  8
0
100
AcDbLine
 62
2
  6
CONTINUOUS
 10
1782.6462448384
 20
846.8554038064
 11
1782.6462448384
 21
794.8130617565
  0
LINE
  5
2C2
100
AcDbEntity
  8
0
100
AcDbLine
 62
2
  6
CONTINUOUS
 10
1817.6462448384
 20
948.0353038064
 11
1817.6462448384
 21
794.8130617565
  0
LINE
  5
2C3
100
AcDbEntity
  8
0
100
AcDbLine
 62
2
  6
CONTINUOUS
 10
1782.6462448384
 20
820.2130617565
 11
1750.6462448384
 21
820.2130617565
  0
LINE
  5
2C4
100
AcDbEntity
  8
0
100
AcDbLine
 62
2
  6
CONTINUOUS
 10
1817.6462448384
 20
820.2130617565
 11
1856.0341238256
 21
820.2130617565
  0
INSERT
  5
2C5
100
AcDbEntity
  8
0
100
AcDbBlockReference
 62
2
  6
CONTINUOUS
  2
_FILLED
 10
1782.6462448384
 20
820.2130617565
 41
16.0
 42
16.0
 43
16.0
  0
INSERT
  5
2C6
100
AcDbEntity
  8
0
100
AcDbBlockReference
 62
2
  6
CONTINUOUS
  2
_FILLED
 10
1817.6462448384
 20
820.2130617565
 41
16.0
 42
16.0
 43
16.0
 50
180.0
  0
ENDBLK
  5
2C7
100
AcDbEntity
  8
0
  6
BYBLOCK
 62
0
100
AcDbBlockEnd
  0
BLOCK
  5
2C8
100
AcDbEntity
  8
0
100
AcDbBlockBegin
 62
2
  6
CONTINUOUS
  2
*D12
 70
65
 10
0.0
 20
0.0
  3
*D12
  1

  0
MTEXT
  5
2C9
100
AcDbEntity
  8
0
100
AcDbMText
 62
2
  6
CONTINUOUS
  7
STANDARD
 71
2
 72
1
 10
1938.3837463586
 20
1455.5214071861
 30
0.0
 11
1.0
 21
0.0
 31
0.0
 73
2
 44
0.9
  1
(74,5{\ftxt;\W0.0001;\H0.0001;\~}{\ftxt;\W0.9814126394;\H18.288; })\P[2.93]
 40
18.288
 41
86.2051449814
  0
LINE
  5
2CA
100
AcDbEntity
  8
0
100
AcDbLine
 62
2
  6
CONTINUOUS
 10
1880.3462448384
 20
1563.5554038064
 11
1963.7837463586
 21
1563.5554038064
  0
LINE
  5
2CB
100
AcDbEntity
  8
0
100
AcDbLine
 62
2
  6
CONTINUOUS
 10
1850.6663448384
 20
1489.0554038064
 11
1963.7837463586
 21
1489.0554038064
  0
LINE
  5
2CC
100
AcDbEntity
  8
0
100
AcDbLine
 62
2
  6
CONTINUOUS
 10
1938.3837463586
 20
1563.5554038064
 11
1938.3837463586
 21
1526.3054038064
  0
LINE
  5
2CD
100
AcDbEntity
  8
0
100
AcDbLine
 62
2
  6
CONTINUOUS
 10
1938.3837463586
 20
1489.0554038064
 11
1938.3837463586
 21
1526.3054038064
  0
LINE
  5
2CE
100
AcDbEntity
  8
0
100
AcDbLine
 62
2
  6
CONTINUOUS
 10
1938.3837463586
 20
1526.3054038064
 11
1938.3837463586
 21
1464.6654071861
  0
INSERT
  5
2CF
100
AcDbEntity
  8
0
100
AcDbBlockReference
 62
2
  6
CONTINUOUS
  2
_FILLED
 10
1938.3837463586
 20
1563.5554038064
 41
16.0
 42
16.0
 43
16.0
 50
90.0
  0
INSERT
  5
2D0
100
AcDbEntity
  8
0
100
AcDbBlockReference
 62
2
  6
CONTINUOUS
  2
_FILLED
 10
1938.3837463586
 20
1489.0554038064
 41
16.0
 42
16.0
 43
16.0
 50
270.0
  0
ENDBLK
  5
2D1
100
AcDbEntity
  8
0
  6
BYBLOCK
 62
0
100
AcDbBlockEnd
  0
BLOCK
  5
2D2
100
AcDbEntity
  8
0
100
AcDbBlockBegin
 62
2
  6
CONTINUOUS
  2
*D13
 70
65
 10
0.0
 20
0.0
  3
*D13
  1

  0
MTEXT
  5
2D3
100
AcDbEntity
  8
0
100
AcDbMText
 62
2
  6
CONTINUOUS
  7
STANDARD
 71
2
 72
1
 10
1674.143321509
 20
1409.1368670402
 30
0.0
 11
1.0
 21
0.0
 31
0.0
 73
2
 44
0.9
  1
(50,8{\ftxt;\W0.0001;\H0.0001;\~}{\ftxt;\W0.9814126394;\H18.288; }TYP)\P[2.00]
 40
18.288
 41
127.2681635688
  0
LINE
  5
2D4
100
AcDbEntity
  8
0
100
AcDbLine
 62
2
  6
CONTINUOUS
 10
1784.6261448384
 20
1489.0554038064
 11
1648.743321509
 21
1489.0554038064
  0
LINE
  5
2D5
100
AcDbEntity
  8
0
100
AcDbLine
 62
2
  6
CONTINUOUS
 10
1784.6261448384
 20
1438.2554038064
 11
1648.743321509
 21
1438.2554038064
  0
LINE
  5
2D6
100
AcDbEntity
  8
0
100
AcDbLine
 62
2
  6
CONTINUOUS
 10
1674.143321509
 20
1489.0554038064
 11
1674.143321509
 21
1463.6554038064
  0
LINE
  5
2D7
100
AcDbEntity
  8
0
100
AcDbLine
 62
2
  6
CONTINUOUS
 10
1674.143321509
 20
1438.2554038064
 11
1674.143321509
 21
1463.6554038064
  0
LINE
  5
2D8
100
AcDbEntity
  8
0
100
AcDbLine
 62
2
  6
CONTINUOUS
 10
1674.143321509
 20
1463.6554038064
 11
1674.143321509
 21
1418.2808670402
  0
INSERT
  5
2D9
100
AcDbEntity
  8
0
100
AcDbBlockReference
 62
2
  6
CONTINUOUS
  2
_FILLED
 10
1674.143321509
 20
1489.0554038064
 41
16.0
 42
16.0
 43
16.0
 50
90.0
  0
INSERT
  5
2DA
100
AcDbEntity
  8
0
100
AcDbBlockReference
 62
2
  6
CONTINUOUS
  2
_FILLED
 10
1674.143321509
 20
1438.2554038064
 41
16.0
 42
16.0
 43
16.0
 50
270.0
  0
ENDBLK
  5
2DB
100
AcDbEntity
  8
0
  6
BYBLOCK
 62
0
100
AcDbBlockEnd
  0
BLOCK
  5
2DC
100
AcDbEntity
  8
0
100
AcDbBlockBegin
 62
2
  6
CONTINUOUS
  2
*D14
 70
65
 10
0.0
 20
0.0
  3
*D14
  1

  0
MTEXT
  5
2DD
100
AcDbEntity
  8
0
100
AcDbMText
 62
2
  6
CONTINUOUS
  7
STANDARD
 71
2
 72
1
 10
2009.0266382308
 20
1375.5768274167
 30
0.0
 11
1.0
 21
0.0
 31
0.0
 73
2
 44
0.9
  1
(430,1{\ftxt;\W0.0001;\H0.0001;\~}{\ftxt;\W0.9814126394;\H18.288; })\P[16.93]
 40
18.288
 41
100.3460520446
  0
LINE
  5
2DE
100
AcDbEntity
  8
0
100
AcDbLine
 62
2
  6
CONTINUOUS
 10
1880.3462448384
 20
1563.5554038064
 11
2034.4266382308
 21
1563.5554038064
  0
LINE
  5
2DF
100
AcDbEntity
  8
0
100
AcDbLine
 62
2
  6
CONTINUOUS
 10
1850.6663448384
 20
1133.4554038064
 11
2034.4266382308
 21
1133.4554038064
  0
LINE
  5
2E0
100
AcDbEntity
  8
0
100
AcDbLine
 62
2
  6
CONTINUOUS
 10
2009.0266382308
 20
1563.5554038064
 11
2009.0266382308
 21
1384.7208274167
  0
LINE
  5
2E1
100
AcDbEntity
  8
0
100
AcDbLine
 62
2
  6
CONTINUOUS
 10
2009.0266382308
 20
1133.4554038064
 11
2009.0266382308
 21
1315.7499392578
  0
INSERT
  5
2E2
100
AcDbEntity
  8
0
100
AcDbBlockReference
 62
2
  6
CONTINUOUS
  2
_FILLED
 10
2009.0266382308
 20
1563.5554038064
 41
16.0
 42
16.0
 43
16.0
 50
90.0
  0
INSERT
  5
2E3
100
AcDbEntity
  8
0
100
AcDbBlockReference
 62
2
  6
CONTINUOUS
  2
_FILLED
 10
2009.0266382308
 20
1133.4554038064
 41
16.0
 42
16.0
 43
16.0
 50
270.0
  0
ENDBLK
  5
2E4
100
AcDbEntity
  8
0
  6
BYBLOCK
 62
0
100
AcDbBlockEnd
  0
ENDSEC
  0
SECTION
  2
ENTITIES
  0
MTEXT
  5
2E5
100
AcDbEntity
  8
0
100
AcDbMText
 62
2
  6
CONTINUOUS
  7
TEXTSTYLE_2
 71
1
 72
1
 10
1817.9232372745
 20
127.7847448532
 30
0.0
 11
1.0
 21
0.0
 31
0.0
 73
2
 44
1.0000002
  1
DRAWN BY
 40
8.0
 41
58.3494423792
  0
MTEXT
  5
2E6
100
AcDbEntity
  8
0
100
AcDbMText
 62
2
  6
CONTINUOUS
  7
TEXTSTYLE_2
 71
1
 72
1
 10
1818.0373073019
 20
91.8048390021
 30
0.0
 11
1.0
 21
0.0
 31
0.0
 73
2
 44
1.0000002
  1
MECH ENGINEER
 40
8.0
 41
89.4572490706
  0
MTEXT
  5
2E7
100
AcDbEntity
  8
0
100
AcDbMText
 62
2
  6
CONTINUOUS
  7
TEXTSTYLE_2
 71
1
 72
1
 10
1577.6248492928
 20
112.6858379092
 30
0.0
 11
1.0
 21
0.0
 31
0.0
 73
2
 44
1.0000002
  1
DECIMALS          ANGLES
 40
11.84
 41
190.7604460967
  0
MTEXT
  5
2E8
100
AcDbEntity
  8
0
100
AcDbMText
 62
2
  6
CONTINUOUS
  7
TEXTSTYLE_2
 71
1
 72
1
 10
1302.6418118122
 20
80.9402889928
 30
0.0
 11
1.0
 21
0.0
 31
0.0
 73
2
 44
1.0000002
  1
PROJECTION
 40
12.56
 41
107.9039405204
  0
MTEXT
  5
2E9
100
AcDbEntity
  8
0
100
AcDbMText
 62
2
  6
CONTINUOUS
  7
TEXTSTYLE_2
 71
2
 72
1
 10
1411.7396111494
 20
129.0753787456
 30
0.0
 11
1.0
 21
0.0
 31
0.0
 73
2
 44
0.81
  1
UNLESS  OTHERWISE  SPECIFIED\PDIMENSIONS ARE IN MM [IN]
 40
11.84
 41
239.3528624535
  0
MTEXT
  5
2EA
100
AcDbEntity
  8
0
100
AcDbMText
 62
2
  6
CONTINUOUS
  7
TEXTSTYLE_2
 71
1
 72
1
 10
1137.8298422599
 20
133.1416080849
 30
0.0
 11
1.0
 21
0.0
 31
0.0
 73
2
 44
1.0000002
  1
CAGE CODE
 40
10.583336
 41
91.4730713755
  0
MTEXT
  5
2EB
100
AcDbEntity
  8
0
100
AcDbMText
 62
2
  6
CONTINUOUS
  7
TEXTSTYLE_2
 71
1
 72
1
 10
1152.7216643994
 20
115.2863588317
 30
0.0
 11
1.0
 21
0.0
 31
0.0
 73
2
 44
1.0000002
  1
00PW4
 40
14.816664
 41
66.4271255911
  0
MTEXT
  5
2EC
100
AcDbEntity
  8
0
100
AcDbMText
 62
2
  6
CONTINUOUS
  7
TEXTSTYLE_2
 71
1
 72
1
 10
392.3150357717
 20
93.1880139879
 30
0.0
 11
1.0
 21
0.0
 31
0.0
 73
2
 44
1.0000002
  1
1675 MACARTHUR BOULEVARD\PCOSTA MESA, CA 92626 USA
 40
12.192
 41
252.4514498141
  0
MTEXT
  5
2ED
100
AcDbEntity
  8
0
100
AcDbMText
 62
2
  6
CONTINUOUS
  7
TEXTSTYLE_2
 71
1
 72
1
 10
391.1839041279
 20
121.3496660343
 30
0.0
 11
1.0
 21
0.0
 31
0.0
 73
2
 44
1.0000002
  1
QSC, LLC
 40
20.32
 41
126.7544981413
  0
MTEXT
  5
2EE
100
AcDbEntity
  8
0
100
AcDbMText
 62
2
  6
CONTINUOUS
  7
TEXTSTYLE_2
 71
2
 72
1
 10
1186.5366448827
 20
87.9682901636
 30
0.0
 11
1.0
 21
0.0
 31
0.0
 73
2
 44
1.0000002
  1
FORM
 40
10.4
 41
41.7933085502
  0
MTEXT
  5
2EF
100
AcDbEntity
  8
0
100
AcDbMText
 62
2
  6
CONTINUOUS
  7
TEXTSTYLE_2
 71
1
 72
1
 10
674.8261113027
 20
119.218629865
 30
0.0
 11
1.0
 21
0.0
 31
0.0
 73
2
 44
1.0000002
  3
THIS DOCUMENT CONTAINS CONFIDENTIAL OR PROPRIETARY INFORMATION WHICH \PIS THE PROPERTY OF QSC, LLC, THAT MAY NOT BE DISCLOSED, REPRODUCED OR\P USED WITHOUT EXPRESS WRITTEN CONSENT FROM QSC, LLC. NO PORTION OF THIS \PDOCUMENT MAY BE REPRODUCED,REDISTR
  1
UBUTED, OR OTHERWISE DISCLOSED TO \P                        ANY THIRD PARTY WITHOUT QSC'S WRITTEN PERMISSION.
 40
7.2
 41
400.4966542751
  0
MTEXT
  5
2F0
100
AcDbEntity
  8
0
100
AcDbMText
 62
2
  6
CONTINUOUS
  7
TEXTSTYLE_2
 71
2
 72
1
 10
1184.3209520234
 20
73.1231066257
 30
0.0
 11
1.0
 21
0.0
 31
0.0
 73
2
 44
1.0000002
  1
QOS40169 B
 40
13.6
 41
111.1762081784
  0
MTEXT
  5
2F1
100
AcDbEntity
  8
0
100
AcDbMText
 62
2
  6
CONTINUOUS
  7
TEXTSTYLE_2
 71
1
 72
1
 10
1578.3468115628
 20
128.3571960694
 30
0.0
 11
1.0
 21
0.0
 31
0.0
 73
2
 44
1.2
  1
TOLERANCES ARE:
 40
11.84
 41
143.0043122677
  0
MTEXT
  5
2F2
100
AcDbEntity
  8
0
100
AcDbMText
 62
2
  6
CONTINUOUS
  7
TEXTSTYLE_2
 71
1
 72
1
 10
2030.2292606181
 20
127.7394651588
 30
0.0
 11
1.0
 21
0.0
 31
0.0
 73
2
 44
1.0000002
  1
TECH DIRECTOR
 40
8.0
 41
84.4014869888
  0
MTEXT
  5
2F3
100
AcDbEntity
  8
0
100
AcDbMText
 62
2
  6
CONTINUOUS
  7
TEXTSTYLE_2
 71
1
 72
1
 10
2029.3260938449
 20
91.746288281
 30
0.0
 11
1.0
 21
0.0
 31
0.0
 73
2
 44
1.0000002
  1
MFG ENGINEER
 40
8.0
 41
81.9330855019
  0
MTEXT
  5
2F4
100
AcDbEntity
  8
0
100
AcDbMText
 62
2
  6
CONTINUOUS
  7
TEXTSTYLE_2
 71
1
 72
1
 10
2243.3103306919
 20
127.7112215106
 30
0.0
 11
1.0
 21
0.0
 31
0.0
 73
2
 44
1.0000002
  1
REV BY
 40
8.0
 41
36.6691449814
  0
MTEXT
  5
2F5
100
AcDbEntity
  8
0
100
AcDbMText
 62
2
  6
CONTINUOUS
  7
TEXTSTYLE_2
 71
1
 72
1
 10
2243.3131731236
 20
91.7227627286
 30
0.0
 11
1.0
 21
0.0
 31
0.0
 73
2
 44
1.0000002
  1
REV DATE
 40
8.0
 41
50.9442379182
  0
MTEXT
  5
2F6
100
AcDbEntity
  8
0
100
AcDbMText
 62
2
  6
CONTINUOUS
  7
TEXTSTYLE_2
 71
1
 72
1
 10
3062.5217553947
 20
132.4462269278
 30
0.0
 11
1.0
 21
0.0
 31
0.0
 73
2
 44
1.0000002
  1
DRAWING NUMBER
 40
8.0
 41
102.5724907063
  0
MTEXT
  5
2F7
100
AcDbEntity
  8
0
100
AcDbMText
 62
2
  6
CONTINUOUS
  7
TEXTSTYLE_2
 71
1
 72
1
 10
3323.5531540454
 20
130.4736201424
 30
0.0
 11
1.0
 21
0.0
 31
0.0
 73
2
 44
1.0000002
  1
REV
 40
8.0
 41
20.5799256506
  0
MTEXT
  5
2F8
100
AcDbEntity
  8
0
100
AcDbMText
 62
2
  6
CONTINUOUS
  7
TEXTSTYLE_2
 71
1
 72
1
 10
3064.4099239781
 20
76.494665566
 30
0.0
 11
1.0
 21
0.0
 31
0.0
 73
2
 44
1.0000002
  1
SCALE:  
 40
10.583336
 41
57.2444382156
  0
MTEXT
  5
2F9
100
AcDbEntity
  8
0
100
AcDbMText
 62
2
  6
CONTINUOUS
  7
TEXTSTYLE_2
 71
1
 72
1
 10
3270.0106658695
 20
76.7654721767
 30
0.0
 11
1.0
 21
0.0
 31
0.0
 73
2
 44
1.0000002
  1
SHEET:
 40
10.583336
 41
43.6316714647
  0
MTEXT
  5
2FA
100
AcDbEntity
  8
0
100
AcDbMText
 62
2
  6
CONTINUOUS
  7
TEXTSTYLE_3
 71
1
 72
1
 10
342.5578808194
 20
107.869555772
 30
0.0
 11
1.0
 21
0.0
 31
0.0
 73
2
 44
1.0000002
  1
TM
 40
4.56
 41
9.1708550186
  0
HATCH
  5
2FB
100
AcDbEntity
  8
0
100
AcDbHatch
 62
2
  6
CONTINUOUS
 10
0.0
 20
0.0
 30
0.0
210
0.0
220
0.0
230
1.0
  2
A
 70
0
 71
0
 91
3
 92
1
 93
10
 72
1
 10
1867.6462448384
 20
859.5554038064
 11
1867.6462448384
 21
892.5554038064
 72
1
 10
1782.6462448384
 20
859.5554038064
 11
1867.6462448384
 21
859.5554038064
 72
1
 10
1782.6462448384
 20
895.5554038064
 11
1782.6462448384
 21
859.5554038064
 72
1
 10
1798.6462448384
 20
895.5554038064
 11
1782.6462448384
 21
895.5554038064
 72
1
 10
1798.6462448384
 20
895.5554038064
 11
1798.6462448384
 21
892.5554038064
 72
1
 10
1785.6462448384
 20
892.5554038064
 11
1798.6462448384
 21
892.5554038064
 72
1
 10
1785.6462448384
 20
862.5554038064
 11
1785.6462448384
 21
892.5554038064
 72
1
 10
1864.6462448384
 20
862.5554038064
 11
1785.6462448384
 21
862.5554038064
 72
1
 10
1864.6462448384
 20
892.5554038064
 11
1864.6462448384
 21
862.5554038064
 72
1
 10
1867.6462448384
 20
892.5554038064
 11
1864.6462448384
 21
892.5554038064
 97
0
 92
1
 93
10
 72
1
 10
1782.6462448384
 20
1563.5554038064
 11
1782.6462448384
 21
1527.5554038064
 72
1
 10
1867.6462448384
 20
1563.5554038064
 11
1782.6462448384
 21
1563.5554038064
 72
1
 10
1867.6462448384
 20
1530.5554038064
 11
1867.6462448384
 21
1563.5554038064
 72
1
 10
1864.6462448384
 20
1530.5554038064
 11
1867.6462448384
 21
1530.5554038064
 72
1
 10
1864.6462448384
 20
1560.5554038064
 11
1864.6462448384
 21
1530.5554038064
 72
1
 10
1785.6462448384
 20
1560.5554038064
 11
1864.6462448384
 21
1560.5554038064
 72
1
 10
1785.6462448384
 20
1560.5554038064
 11
1785.6462448384
 21
1530.5554038064
 72
1
 10
1798.6462448384
 20
1530.5554038064
 11
1785.6462448384
 21
1530.5554038064
 72
1
 10
1798.6462448384
 20
1530.5554038064
 11
1798.6462448384
 21
1527.5554038064
 72
1
 10
1782.6462448384
 20
1527.5554038064
 11
1798.6462448384
 21
1527.5554038064
 97
0
 92
1
 93
10
 72
1
 10
1861.6462448384
 20
1168.5554038064
 11
1861.6462448384
 21
1190.5554038064
 72
1
 10
1858.6462448384
 20
1168.5554038064
 11
1861.6462448384
 21
1168.5554038064
 72
1
 10
1858.6462448384
 20
1187.5554038064
 11
1858.6462448384
 21
1168.5554038064
 72
1
 10
1801.6462448384
 20
1187.5554038064
 11
1858.6462448384
 21
1187.5554038064
 72
1
 10
1801.6462448384
 20
1171.5554038064
 11
1801.6462448384
 21
1187.5554038064
 72
1
 10
1810.6462448384
 20
1171.5554038064
 11
1801.6462448384
 21
1171.5554038064
 72
1
 10
1810.6462448384
 20
1168.5554038064
 11
1810.6462448384
 21
1171.5554038064
 72
1
 10
1798.6462448384
 20
1168.5554038064
 11
1810.6462448384
 21
1168.5554038064
 72
1
 10
1798.6462448384
 20
1190.5554038064
 11
1798.6462448384
 21
1168.5554038064
 72
1
 10
1861.6462448384
 20
1190.5554038064
 11
1798.6462448384
 21
1190.5554038064
 97
0
 75
0
 76
0
 52
125.0
 41
48.1105412515
 77
0
 78
1
 53
125.0
 43
0.0
 44
0.0
 45
-39.409848218
 46
-27.5950728019
 79
0
 98
1
 10
0.0
 20
0.0
  0
MTEXT
  5
2FC
100
AcDbEntity
  8
0
100
AcDbMText
 62
7
  6
CONTINUOUS
  7
STANDARD
 71
1
 72
1
 10
1030.9593022018
 20
786.8761701433
 30
0.0
 11
1.0
 21
0.0
 31
0.0
 73
2
 44
0.9
  1
A
 40
50.8
 41
52.3107806691
  0
LEADER
  5
2FD
100
AcDbEntity
  8
0
100
AcDbLeader
 62
7
  6
CONTINUOUS
  3
STANDARD
 71
1
 72
0
 73
3
 75
0
 76
2
 10
1093.0901572204
 20
761.4761701433
 30
0.0
 10
1188.3151086957
 20
761.4761701433
 30
0.0
1001
ACAD
1000
DSTYLE
1002
{
1070
77
1070
0
1070
341
1005
216
1070
41
1040
50.8
1002
}
  0
MTEXT
  5
2FE
100
AcDbEntity
  8
0
100
AcDbMText
 62
7
  6
CONTINUOUS
  7
STANDARD
 71
1
 72
1
 10
1012.4165264705
 20
1655.8673713646
 30
0.0
 11
1.0
 21
0.0
 31
0.0
 73
2
 44
0.9
  1
A
 40
50.8
 41
52.3107806691
  0
LEADER
  5
2FF
100
AcDbEntity
  8
0
100
AcDbLeader
 62
7
  6
CONTINUOUS
  3
STANDARD
 71
1
 72
0
 73
3
 75
0
 76
2
 10
1074.5473814891
 20
1630.4673713646
 30
0.0
 10
1188.3151086957
 20
1630.4673713646
 30
0.0
1001
ACAD
1000
DSTYLE
1002
{
1070
77
1070
0
1070
341
1005
216
1070
41
1040
50.8
1002
}
  0
DIMENSION
  5
300
100
AcDbEntity
  8
0
100
AcDbDimension
 62
2
  6
CONTINUOUS
  2
*D0
 10
1394.8151086957
 20
581.0504107243
 11
1157.3151086957
 21
567.3344107243
 70
160
 71
2
 72
2
 41
0.9
 42
475.0
  1
<>\P[]
  3
DIMSTYLE_1
100
AcDbAlignedDimension
 13
919.8151086957
 23
523.2626456104
 14
1394.8151086957
 24
523.2626456104
100
AcDbRotatedDimension
  0
DIMENSION
  5
301
100
AcDbEntity
  8
0
100
AcDbDimension
 62
2
  6
CONTINUOUS
  2
*D1
 10
1482.8447236662
 20
1563.5554038064
 11
1482.8447236662
 21
1191.0801709487
 70
160
 71
2
 72
2
 41
0.9
 42
704.0
  1
<>\P[]
  3
DIMSTYLE_1
100
AcDbAlignedDimension
 13
1405.9276086957
 23
859.5554038064
 14
1405.9276086957
 24
1563.5554038064
 50
90.0
100
AcDbRotatedDimension
  0
DIMENSION
  5
302
100
AcDbEntity
  8
0
100
AcDbDimension
 62
2
  6
CONTINUOUS
  2
*D2
 10
498.2878137284
 20
1622.5759705401
 11
595.4798884585
 21
1608.8599705401
 70
160
 71
1
 72
2
 41
0.9
 42
41.06
  1
<>\P[]
  3
DIMSTYLE_1
100
AcDbAlignedDimension
 13
457.2278137285
 23
1234.3966822061
 14
498.2878137284
 24
1574.6679038064
100
AcDbRotatedDimension
  0
DIMENSION
  5
303
100
AcDbEntity
  8
0
100
AcDbDimension
 62
2
  6
CONTINUOUS
  2
*D3
 10
471.5407328171
 20
986.7024673369
 11
649.4914031485
 21
1016.9439222189
 70
163
 71
1
 72
2
 41
0.9
 42
20.0
  1
%%c<> TYP\P[]
  3
DIMSTYLE_2
100
AcDbDiametricDimension
 15
455.0348946398
 25
975.408340276
  0
DIMENSION
  5
304
100
AcDbEntity
  8
0
100
AcDbDimension
 62
2
  6
CONTINUOUS
  2
*D4
 10
1809.9431390914
 20
987.4320927475
 11
1639.4006297559
 21
1012.9969294974
 70
163
 71
3
 72
2
 41
0.9
 42
20.0
  1
(%%c<> TYP)\P[]
  3
DIMSTYLE_2
100
AcDbDiametricDimension
 15
1825.3493505854
 25
974.6787148654
  0
DIMENSION
  5
305
100
AcDbEntity
  8
0
100
AcDbDimension
 62
2
  6
CONTINUOUS
  2
*D5
 10
401.2878137284
 20
1665.2327177988
 11
319.8152383414
 21
1651.5167177988
 70
160
 71
3
 72
2
 41
0.9
 42
97.0
  1
<> 2X\P[]
  3
DIMSTYLE_1
100
AcDbAlignedDimension
 13
498.2878137284
 23
1574.6679038064
 14
401.2878137285
 24
1548.1679038064
 50
180.0
100
AcDbRotatedDimension
  0
DIMENSION
  5
306
100
AcDbEntity
  8
0
100
AcDbDimension
 62
2
  6
CONTINUOUS
  2
*D6
 10
837.4727781217
 20
1209.6754038064
 11
837.4727781217
 21
1391.7630412522
 70
160
 71
2
 72
2
 41
0.9
 42
353.88
  1
<>\P[]
  3
DIMSTYLE_1
100
AcDbAlignedDimension
 13
908.7026086957
 23
1563.5554038064
 14
888.3826086957
 24
1209.6754038064
 50
270.0
100
AcDbRotatedDimension
  0
DIMENSION
  5
307
100
AcDbEntity
  8
0
100
AcDbDimension
 62
2
  6
CONTINUOUS
  2
*D7
 10
463.2878137285
 20
771.854625103
 11
596.1117718136
 21
758.138625103
 70
160
 71
1
 72
2
 41
0.9
 42
35.0
  1
<>TYP\P[]
  3
DIMSTYLE_1
100
AcDbAlignedDimension
 13
498.2878137284
 23
848.4429038064
 14
463.2878137285
 24
949.6228038064
 50
180.0
100
AcDbRotatedDimension
  0
DIMENSION
  5
308
100
AcDbEntity
  8
0
100
AcDbDimension
 62
2
  6
CONTINUOUS
  2
*D8
 10
342.9255671545
 20
1563.5554038064
 11
342.9255671545
 21
1441.8372468189
 70
160
 71
2
 72
2
 41
0.9
 42
74.5
  1
<>\P[]
  3
DIMSTYLE_1
100
AcDbAlignedDimension
 13
431.8552137285
 23
1489.0554038064
 14
402.1753137285
 24
1563.5554038064
 50
90.0
100
AcDbRotatedDimension
  0
DIMENSION
  5
309
100
AcDbEntity
  8
0
100
AcDbDimension
 62
2
  6
CONTINUOUS
  2
*D9
 10
584.9384990546
 20
1438.2554038064
 11
584.9384990546
 21
1381.2660888914
 70
160
 71
2
 72
2
 41
0.9
 42
50.8
  1
<>TYP\P[]
  3
DIMSTYLE_1
100
AcDbAlignedDimension
 13
494.7204137285
 23
1489.0554038064
 14
494.7204137285
 24
1438.2554038064
 50
270.0
100
AcDbRotatedDimension
  0
DIMENSION
  5
30A
100
AcDbEntity
  8
0
100
AcDbDimension
 62
2
  6
CONTINUOUS
  2
*D10
 10
276.3220359483
 20
1563.5554038064
 11
276.3220359483
 21
1345.4830963046
 70
160
 71
2
 72
2
 41
0.9
 42
430.1
  1
<>\P[]
  3
DIMSTYLE_1
100
AcDbAlignedDimension
 13
431.8552137284
 23
1133.4554038064
 14
402.1753137285
 24
1563.5554038064
 50
90.0
100
AcDbRotatedDimension
  0
DIMENSION
  5
30B
100
AcDbEntity
  8
0
100
AcDbDimension
 62
2
  6
CONTINUOUS
  2
*D11
 10
1817.6462448384
 20
820.2130617565
 11
1928.81220561
 21
806.4970617565
 70
160
 71
1
 72
2
 41
0.9
 42
35.0
  1
(<>TYP)\P[]
  3
DIMSTYLE_1
100
AcDbAlignedDimension
 13
1782.6462448384
 23
848.4429038064
 14
1817.6462448384
 24
949.6228038064
100
AcDbRotatedDimension
  0
DIMENSION
  5
30C
100
AcDbEntity
  8
0
100
AcDbDimension
 62
2
  6
CONTINUOUS
  2
*D12
 10
1938.3837463586
 20
1489.0554038064
 11
1938.3837463586
 21
1432.6614071861
 70
160
 71
2
 72
2
 41
0.9
 42
74.5
  1
(<>)\P[]
  3
DIMSTYLE_1
100
AcDbAlignedDimension
 13
1878.7587448384
 23
1563.5554038064
 14
1849.0788448384
 24
1489.0554038064
 50
270.0
100
AcDbRotatedDimension
  0
DIMENSION
  5
30D
100
AcDbEntity
  8
0
100
AcDbDimension
 62
2
  6
CONTINUOUS
  2
*D13
 10
1674.143321509
 20
1438.2554038064
 11
1674.143321509
 21
1386.2768670402
 70
160
 71
2
 72
2
 41
0.9
 42
50.8
  1
(<>TYP)\P[]
  3
DIMSTYLE_1
100
AcDbAlignedDimension
 13
1786.2136448384
 23
1489.0554038064
 14
1786.2136448384
 24
1438.2554038064
 50
270.0
100
AcDbRotatedDimension
  0
DIMENSION
  5
30E
100
AcDbEntity
  8
0
100
AcDbDimension
 62
2
  6
CONTINUOUS
  2
*D14
 10
2009.0266382308
 20
1133.4554038064
 11
2009.0266382308
 21
1352.7168274167
 70
160
 71
2
 72
2
 41
0.9
 42
430.1
  1
(<>)\P[]
  3
DIMSTYLE_1
100
AcDbAlignedDimension
 13
1878.7587448384
 23
1563.5554038064
 14
1849.0788448384
 24
1133.4554038064
 50
270.0
100
AcDbRotatedDimension
  0
LINE
  5
30F
100
AcDbEntity
  8
0
100
AcDbLine
 62
2
  6
CONTINUOUS
 10
2514.6579504924
 20
144.157493838
 11
2985.8579504924
 21
144.157493838
  0
LINE
  5
310
100
AcDbEntity
  8
0
100
AcDbLine
 62
2
  6
CONTINUOUS
 10
2514.6579504924
 20
144.157493838
 11
2514.6579504924
 21
-8.717506162
  0
LINE
  5
311
100
AcDbEntity
  8
0
100
AcDbLine
 62
2
  6
CONTINUOUS
 10
2514.6579504924
 20
-8.717506162
 11
2985.8579504924
 21
-8.717506162
  0
LINE
  5
312
100
AcDbEntity
  8
0
100
AcDbLine
 62
2
  6
CONTINUOUS
 10
2985.8579504924
 20
144.157493838
 11
2985.8579504924
 21
-8.717506162
  0
MTEXT
  5
313
100
AcDbEntity
  8
0
100
AcDbMText
 62
2
  6
CONTINUOUS
  7
TEXTSTYLE_2
 71
2
 72
1
 10
2750.2579504924
 20
101.586659658
 30
0.0
 11
1.0
 21
0.0
 31
0.0
 73
2
 44
0.99999996
  1
ACCESSORY, PL-LA8-AF, \PARRAY FRAME
 40
25.4
 41
416.975464684
  0
LINE
  5
314
100
AcDbEntity
  8
0
100
AcDbLine
 62
2
  6
CONTINUOUS
 10
3318.730757675
 20
134.3741641579
 11
3402.430757675
 21
134.3741641579
  0
LINE
  5
315
100
AcDbEntity
  8
0
100
AcDbLine
 62
2
  6
CONTINUOUS
 10
3318.730757675
 20
134.3741641579
 11
3318.730757675
 21
85.5741641579
  0
LINE
  5
316
100
AcDbEntity
  8
0
100
AcDbLine
 62
2
  6
CONTINUOUS
 10
3318.730757675
 20
85.5741641579
 11
3402.430757675
 21
85.5741641579
  0
LINE
  5
317
100
AcDbEntity
  8
0
100
AcDbLine
 62
2
  6
CONTINUOUS
 10
3402.430757675
 20
134.3741641579
 11
3402.430757675
 21
85.5741641579
  0
MTEXT
  5
318
100
AcDbEntity
  8
0
100
AcDbMText
 62
2
  6
CONTINUOUS
  7
TEXTSTYLE_2
 71
2
 72
1
 10
3360.580757675
 20
121.3591641579
 30
0.0
 11
1.0
 21
0.0
 31
0.0
 73
2
 44
0.9
  1
A
 40
25.4
 41
26.1553903346
  0
LINE
  5
319
100
AcDbEntity
  8
0
100
AcDbLine
 62
2
  6
CONTINUOUS
 10
3060.9948521843
 20
135.2824443361
 11
3312.9948521843
 21
135.2824443361
  0
LINE
  5
31A
100
AcDbEntity
  8
0
100
AcDbLine
 62
2
  6
CONTINUOUS
 10
3060.9948521843
 20
135.2824443361
 11
3060.9948521843
 21
85.4074443361
  0
LINE
  5
31B
100
AcDbEntity
  8
0
100
AcDbLine
 62
2
  6
CONTINUOUS
 10
3060.9948521843
 20
85.4074443361
 11
3312.9948521843
 21
85.4074443361
  0
LINE
  5
31C
100
AcDbEntity
  8
0
100
AcDbLine
 62
2
  6
CONTINUOUS
 10
3312.9948521843
 20
135.2824443361
 11
3312.9948521843
 21
85.4074443361
  0
MTEXT
  5
31D
100
AcDbEntity
  8
0
100
AcDbMText
 62
2
  6
CONTINUOUS
  7
TEXTSTYLE_2
 71
2
 72
1
 10
3186.9948521843
 20
118.0324443361
 30
0.0
 11
1.0
 21
0.0
 31
0.0
 73
2
 44
0.9
  1
FG-901550-2D
 40
25.4
 41
235.492936803
  0
LINE
  5
31E
100
AcDbEntity
  8
0
100
AcDbLine
 62
2
  6
CONTINUOUS
 10
3061.4577041156
 20
83.0355956296
 11
3185.4577041156
 21
83.0355956296
  0
LINE
  5
31F
100
AcDbEntity
  8
0
100
AcDbLine
 62
2
  6
CONTINUOUS
 10
3061.4577041156
 20
83.0355956296
 11
3061.4577041156
 21
58.2230956296
  0
LINE
  5
320
100
AcDbEntity
  8
0
100
AcDbLine
 62
2
  6
CONTINUOUS
 10
3061.4577041156
 20
58.2230956296
 11
3185.4577041156
 21
58.2230956296
  0
LINE
  5
321
100
AcDbEntity
  8
0
100
AcDbLine
 62
2
  6
CONTINUOUS
 10
3185.4577041156
 20
83.0355956296
 11
3185.4577041156
 21
58.2230956296
  0
MTEXT
  5
322
100
AcDbEntity
  8
0
100
AcDbMText
 62
2
  6
CONTINUOUS
  7
TEXTSTYLE_2
 71
1
 72
1
 10
3129.9577041156
 20
77.7413456296
 30
0.0
 11
1.0
 21
0.0
 31
0.0
 73
2
 44
0.9
  1
1:8
 40
14.224
 41
27.4962081784
  0
LINE
  5
323
100
AcDbEntity
  8
0
100
AcDbLine
 62
2
  6
CONTINUOUS
 10
1548.5299446192
 20
144.1134944517
 11
1788.8299446192
 21
144.1134944517
  0
LINE
  5
324
100
AcDbEntity
  8
0
100
AcDbLine
 62
2
  6
CONTINUOUS
 10
1548.5299446192
 20
144.1134944517
 11
1548.5299446192
 21
46.3009944517
  0
MTEXT
  5
325
100
AcDbEntity
  8
0
100
AcDbMText
 62
2
  6
CONTINUOUS
  7
TEXTSTYLE_2
 71
1
 72
1
 10
1575.7299446192
 20
81.7384944517
 30
0.0
 11
1.0
 21
0.0
 31
0.0
 73
2
 44
0.9
  1
.X \fgdt;{\W1.0;{\fgdt;`}}\fCentury Gothic; 3.0 [.12]        \fgdt;{\W1.0;{\fgdt;`}}\fCentury Gothic;1\fgdt;{\W1.0;{\fgdt;~}}\P\fCentury Gothic;.XX \fgdt;{\W1.0;{\fgdt;`}}\fCentury Gothic; 
 40
12.7
 41
179.1691449814
  0
LINE
  5
326
100
AcDbEntity
  8
0
100
AcDbLine
 62
2
  6
CONTINUOUS
 10
3264.4776580575
 20
82.0255690237
 11
3402.4776580575
 21
82.0255690237
  0
LINE
  5
327
100
AcDbEntity
  8
0
100
AcDbLine
 62
2
  6
CONTINUOUS
 10
3264.4776580575
 20
82.0255690237
 11
3264.4776580575
 21
57.9630690237
  0
LINE
  5
328
100
AcDbEntity
  8
0
100
AcDbLine
 62
2
  6
CONTINUOUS
 10
3264.4776580575
 20
57.9630690237
 11
3402.4776580575
 21
57.9630690237
  0
LINE
  5
329
100
AcDbEntity
  8
0
100
AcDbLine
 62
2
  6
CONTINUOUS
 10
3402.4776580575
 20
82.0255690237
 11
3402.4776580575
 21
57.9630690237
  0
MTEXT
  5
32A
100
AcDbEntity
  8
0
100
AcDbMText
 62
2
  6
CONTINUOUS
  7
TEXTSTYLE_2
 71
2
 72
1
 10
3361.0776580575
 20
77.4026510237
 30
0.0
 11
1.0
 21
0.0
 31
0.0
 73
2
 44
0.9
  1
1 OF 1
 40
14.816664
 41
62.3511659777
  0
LINE
  5
32B
100
AcDbEntity
  8
0
100
AcDbLine
 62
2
  6
CONTINUOUS
 10
1814.3111337256
 20
129.3033224144
 11
2018.3111337256
 21
129.3033224144
  0
LINE
  5
32C
100
AcDbEntity
  8
0
100
AcDbLine
 62
2
  6
CONTINUOUS
 10
1814.3111337256
 20
129.3033224144
 11
1814.3111337256
 21
97.1158224144
  0
LINE
  5
32D
100
AcDbEntity
  8
0
100
AcDbLine
 62
2
  6
CONTINUOUS
 10
1814.3111337256
 20
97.1158224144
 11
2018.3111337256
 21
97.1158224144
  0
LINE
  5
32E
100
AcDbEntity
  8
0
100
AcDbLine
 62
2
  6
CONTINUOUS
 10
2018.3111337256
 20
129.3033224144
 11
2018.3111337256
 21
97.1158224144
  0
MTEXT
  5
32F
100
AcDbEntity
  8
0
100
AcDbMText
 62
2
  6
CONTINUOUS
  7
TEXTSTYLE_2
 71
1
 72
1
 10
1814.8111337256
 20
113.1220724144
 30
0.0
 11
1.0
 21
0.0
 31
0.0
 73
2
 44
0.9
  1
 M. DAVILA
 40
12.7
 41
94.9431226766
  0
LINE
  5
330
100
AcDbEntity
  8
0
100
AcDbLine
 62
2
  6
CONTINUOUS
 10
1814.5252680072
 20
93.1148921059
 11
2018.5252680072
 21
93.1148921059
  0
LINE
  5
331
100
AcDbEntity
  8
0
100
AcDbLine
 62
2
  6
CONTINUOUS
 10
1814.5252680072
 20
93.1148921059
 11
1814.5252680072
 21
60.9273921059
  0
LINE
  5
332
100
AcDbEntity
  8
0
100
AcDbLine
 62
2
  6
CONTINUOUS
 10
1814.5252680072
 20
60.9273921059
 11
2018.5252680072
 21
60.9273921059
  0
LINE
  5
333
100
AcDbEntity
  8
0
100
AcDbLine
 62
2
  6
CONTINUOUS
 10
2018.5252680072
 20
93.1148921059
 11
2018.5252680072
 21
60.9273921059
  0
MTEXT
  5
334
100
AcDbEntity
  8
0
100
AcDbMText
 62
2
  6
CONTINUOUS
  7
TEXTSTYLE_2
 71
1
 72
1
 10
1815.0252680072
 20
76.9336421059
 30
0.0
 11
1.0
 21
0.0
 31
0.0
 73
2
 44
0.9
  1
 B. HAWKINS
 40
12.7
 41
103.4412639405
  0
LINE
  5
335
100
AcDbEntity
  8
0
100
AcDbLine
 62
2
  6
CONTINUOUS
 10
2025.7090458259
 20
129.1396829257
 11
2229.7090458259
 21
129.1396829257
  0
LINE
  5
336
100
AcDbEntity
  8
0
100
AcDbLine
 62
2
  6
CONTINUOUS
 10
2025.7090458259
 20
129.1396829257
 11
2025.7090458259
 21
96.9521829257
  0
LINE
  5
337
100
AcDbEntity
  8
0
100
AcDbLine
 62
2
  6
CONTINUOUS
 10
2025.7090458259
 20
96.9521829257
 11
2229.7090458259
 21
96.9521829257
  0
LINE
  5
338
100
AcDbEntity
  8
0
100
AcDbLine
 62
2
  6
CONTINUOUS
 10
2229.7090458259
 20
129.1396829257
 11
2229.7090458259
 21
96.9521829257
  0
MTEXT
  5
339
100
AcDbEntity
  8
0
100
AcDbMText
 62
2
  6
CONTINUOUS
  7
TEXTSTYLE_2
 71
1
 72
1
 10
2026.2090458259
 20
112.9584329257
 30
0.0
 11
1.0
 21
0.0
 31
0.0
 73
2
 44
0.9
  1
 R. VAUCHER
 40
12.7
 41
109.3427509294
  0
LINE
  5
33A
100
AcDbEntity
  8
0
100
AcDbLine
 62
2
  6
CONTINUOUS
 10
2025.6275072005
 20
93.0068976227
 11
2229.6275072005
 21
93.0068976227
  0
LINE
  5
33B
100
AcDbEntity
  8
0
100
AcDbLine
 62
2
  6
CONTINUOUS
 10
2025.6275072005
 20
93.0068976227
 11
2025.6275072005
 21
60.8193976227
  0
LINE
  5
33C
100
AcDbEntity
  8
0
100
AcDbLine
 62
2
  6
CONTINUOUS
 10
2025.6275072005
 20
60.8193976227
 11
2229.6275072005
 21
60.8193976227
  0
LINE
  5
33D
100
AcDbEntity
  8
0
100
AcDbLine
 62
2
  6
CONTINUOUS
 10
2229.6275072005
 20
93.0068976227
 11
2229.6275072005
 21
60.8193976227
  0
MTEXT
  5
33E
100
AcDbEntity
  8
0
100
AcDbMText
 62
2
  6
CONTINUOUS
  7
TEXTSTYLE_2
 71
1
 72
1
 10
2026.1275072005
 20
76.8256476227
 30
0.0
 11
1.0
 21
0.0
 31
0.0
 73
2
 44
0.9
  1
 A. TRAN
 40
12.7
 41
72.2814126394
  0
LINE
  5
33F
100
AcDbEntity
  8
0
100
AcDbLine
 62
2
  6
CONTINUOUS
 10
2240.4306361842
 20
129.3183185676
 11
2444.4306361842
 21
129.3183185676
  0
LINE
  5
340
100
AcDbEntity
  8
0
100
AcDbLine
 62
2
  6
CONTINUOUS
 10
2240.4306361842
 20
129.3183185676
 11
2240.4306361842
 21
97.1308185676
  0
LINE
  5
341
100
AcDbEntity
  8
0
100
AcDbLine
 62
2
  6
CONTINUOUS
 10
2240.4306361842
 20
97.1308185676
 11
2444.4306361842
 21
97.1308185676
  0
LINE
  5
342
100
AcDbEntity
  8
0
100
AcDbLine
 62
2
  6
CONTINUOUS
 10
2444.4306361842
 20
129.3183185676
 11
2444.4306361842
 21
97.1308185676
  0
MTEXT
  5
343
100
AcDbEntity
  8
0
100
AcDbMText
 62
2
  6
CONTINUOUS
  7
TEXTSTYLE_2
 71
1
 72
1
 10
2240.9306361842
 20
113.1370685676
 30
0.0
 11
1.0
 21
0.0
 31
0.0
 73
2
 44
0.9
  1
 MD
 40
12.7
 41
34.370260223
  0
LINE
  5
344
100
AcDbEntity
  8
0
100
AcDbLine
 62
2
  6
CONTINUOUS
 10
2239.7861270465
 20
93.1675793812
 11
2443.7861270465
 21
93.1675793812
  0
LINE
  5
345
100
AcDbEntity
  8
0
100
AcDbLine
 62
2
  6
CONTINUOUS
 10
2239.7861270465
 20
93.1675793812
 11
2239.7861270465
 21
60.9800793812
  0
LINE
  5
346
100
AcDbEntity
  8
0
100
AcDbLine
 62
2
  6
CONTINUOUS
 10
2239.7861270465
 20
60.9800793812
 11
2443.7861270465
 21
60.9800793812
  0
LINE
  5
347
100
AcDbEntity
  8
0
100
AcDbLine
 62
2
  6
CONTINUOUS
 10
2443.7861270465
 20
93.1675793812
 11
2443.7861270465
 21
60.9800793812
  0
MTEXT
  5
348
100
AcDbEntity
  8
0
100
AcDbMText
 62
2
  6
CONTINUOUS
  7
TEXTSTYLE_2
 71
1
 72
1
 10
2240.2861270465
 20
76.9863293812
 30
0.0
 11
1.0
 21
0.0
 31
0.0
 73
2
 44
0.9
  1
 18-JAN-2024
 40
12.7
 41
110.3342007435
  0
MTEXT
  5
349
100
AcDbEntity
  8
0
100
AcDbMText
 62
2
  6
CONTINUOUS
  7
TEXTSTYLE_2
 71
1
 72
1
 10
3330.185909043
 20
77.5433083017
 30
0.0
 11
1.0
 21
0.0
 31
0.0
 73
2
 44
0.9
  1
1 OF 1
 40
14.816664
 41
62.3511659777
  0
TEXT
  5
34A
100
AcDbEntity
  8
0
100
AcDbText
 62
2
  6
CONTINUOUS
 10
72.0103374754
 20
2130.8479074173
  7
STANDARD
 40
18.288
  1
NOTES: UNLESS OTHERWISE SPECIFIED
 41
1.0
 72
0
100
AcDbText
  0
TEXT
  5
34B
100
AcDbEntity
  8
0
100
AcDbText
 62
2
  6
CONTINUOUS
 10
72.0103374754
 20
2103.4159074173
  7
STANDARD
 40
18.288
  1
 
 41
1.0
 72
0
100
AcDbText
  0
TEXT
  5
34C
100
AcDbEntity
  8
0
100
AcDbText
 62
2
  6
CONTINUOUS
 10
72.0103374754
 20
2075.9839074173
  7
STANDARD
 40
18.288
  1
1.      NET WEIGHT APPROX. 13.6 KG [30 LBS]. 
 41
1.0
 72
0
100
AcDbText
  0
TEXT
  5
34D
100
AcDbEntity
  8
0
100
AcDbText
 62
2
  6
CONTINUOUS
 10
72.0103374754
 20
2048.5519074173
  7
STANDARD
 40
18.288
  1
 
 41
1.0
 72
0
100
AcDbText
  0
TEXT
  5
34E
100
AcDbEntity
  8
0
100
AcDbText
 62
2
  6
CONTINUOUS
 10
72.0103374754
 20
2021.1199074173
  7
STANDARD
 40
18.288
  1
2.      SYMBOL      INDICATES CENTER OF GRAVITY.
 41
1.0
 72
0
100
AcDbText
  0
TEXT
  5
34F
100
AcDbEntity
  8
0
100
AcDbText
 62
2
  6
CONTINUOUS
 10
72.0103374754
 20
1993.6879074173
  7
STANDARD
 40
18.288
  1
 
 41
1.0
 72
0
100
AcDbText
  0
TEXT
  5
350
100
AcDbEntity
  8
0
100
AcDbText
 62
2
  6
CONTINUOUS
 10
72.0103374754
 20
1966.2559074173
  7
STANDARD
 40
18.288
  1
3.      PARTS ARE SYMMETRICAL ABOUT CENTER LINES
 41
1.0
 72
0
100
AcDbText
  0
TEXT
  5
351
100
AcDbEntity
  8
0
100
AcDbText
 62
2
  6
CONTINUOUS
 10
72.0103374754
 20
1938.8239074173
  7
STANDARD
 40
18.288
  1
         UNLESS OTHERWISE NOTED. 
 41
1.0
 72
0
100
AcDbText
  0
TEXT
  5
352
100
AcDbEntity
  8
0
100
AcDbText
 62
2
  6
CONTINUOUS
 10
72.0103374754
 20
1911.3919074173
  7
STANDARD
 40
18.288
  1
 
 41
1.0
 72
0
100
AcDbText
  0
TEXT
  5
353
100
AcDbEntity
  8
0
100
AcDbText
 62
2
  6
CONTINUOUS
 10
81.1543374754
 20
1879.3879074173
  7
STANDARD
 40
18.288
  1
4
 41
1.0
 72
0
100
AcDbText
  0
TEXT
  5
354
100
AcDbEntity
  8
0
100
AcDbText
 62
2
  6
CONTINUOUS
 10
104.4392445386
 20
1879.3879074173
  7
STANDARD
 40
18.288
  1
    SUSPENSION POINTS 1 THRU 11.
 41
1.0
 72
0
100
AcDbText
  0
MTEXT
  5
355
100
AcDbEntity
  8
0
100
AcDbMText
 62
2
  6
CONTINUOUS
  7
TEXTSTYLE_4
 71
1
 72
1
 10
1144.1638839571
 20
403.1385331583
 30
0.0
 11
1.0
 21
0.0
 31
0.0
 73
2
 44
0.9
  1
{\fgdt;q}
 40
18.288
 41
28.956
  0
MTEXT
  5
356
100
AcDbEntity
  8
0
100
AcDbMText
 62
2
  6
CONTINUOUS
  7
TEXTSTYLE_4
 71
1
 72
1
 10
1142.5044814977
 20
825.2805358592
 30
0.0
 11
1.0
 21
0.0
 31
0.0
 73
2
 44
0.9
  1
{\fgdt;q}
 40
18.288
 41
28.956
  0
MTEXT
  5
357
100
AcDbEntity
  8
0
100
AcDbMText
 62
2
  6
CONTINUOUS
  7
STANDARD
 71
3
 72
1
 10
1940.2923698985
 20
709.4274887762
 30
0.0
 11
1.0
 21
0.0
 31
0.0
 73
2
 44
0.9
  1
SECTION \H50.8;A-A
 40
18.288
 41
240.0630483271
  0
MTEXT
  5
358
100
AcDbEntity
  8
0
100
AcDbMText
 62
2
  6
CONTINUOUS
  7
STANDARD
 71
1
 72
1
 10
1826.6690715429
 20
1516.2093354641
 30
0.0
 11
1.0
 21
0.0
 31
0.0
 73
2
 44
0.9
  1
1
 40
18.288
 41
14.1409070632
  0
MTEXT
  5
359
100
AcDbEntity
  8
0
100
AcDbMText
 62
2
  6
CONTINUOUS
  7
STANDARD
 71
1
 72
1
 10
1827.469476046
 20
1465.7678436755
 30
0.0
 11
1.0
 21
0.0
 31
0.0
 73
2
 44
0.9
  1
2
 40
18.288
 41
14.1409070632
  0
MTEXT
  5
35A
100
AcDbEntity
  8
0
100
AcDbMText
 62
2
  6
CONTINUOUS
  7
STANDARD
 71
1
 72
1
 10
1826.8611686236
 20
1414.862117275
 30
0.0
 11
1.0
 21
0.0
 31
0.0
 73
2
 44
0.9
  1
3
 40
18.288
 41
14.1409070632
  0
MTEXT
  5
35B
100
AcDbEntity
  8
0
100
AcDbMText
 62
2
  6
CONTINUOUS
  7
STANDARD
 71
1
 72
1
 10
1826.5189956985
 20
1363.0329241791
 30
0.0
 11
1.0
 21
0.0
 31
0.0
 73
2
 44
0.9
  1
4
 40
18.288
 41
14.1409070632
  0
TEXT
  5
35C
100
AcDbEntity
  8
0
100
AcDbText
 62
2
  6
CONTINUOUS
 10
1928.3153967891
 20
1598.299313825
  7
STANDARD
 40
18.288
  1
4
 41
1.0
 72
0
100
AcDbText
  0
LEADER
  5
35D
100
AcDbEntity
  8
0
100
AcDbLeader
 62
2
  6
CONTINUOUS
  3
STANDARD
 71
1
 72
0
 73
3
 75
0
 76
3
 10
1836.355216663
 20
1518.1181712734
 30
0.0
 10
1868.3713967891
 20
1607.443313825
 30
0.0
 10
1919.1713967891
 20
1607.443313825
 30
0.0
1001
ACAD
1000
DSTYLE
1002
{
1070
77
1070
0
1002
}
  0
MTEXT
  5
35E
100
AcDbEntity
  8
0
100
AcDbMText
 62
2
  6
CONTINUOUS
  7
STANDARD
 71
1
 72
1
 10
1826.828761621
 20
1312.0228325353
 30
0.0
 11
1.0
 21
0.0
 31
0.0
 73
2
 44
0.9
  1
5
 40
18.288
 41
14.1409070632
  0
MTEXT
  5
35F
100
AcDbEntity
  8
0
100
AcDbMText
 62
2
  6
CONTINUOUS
  7
STANDARD
 71
1
 72
1
 10
1826.57263218
 20
1261.8214620976
 30
0.0
 11
1.0
 21
0.0
 31
0.0
 73
2
 44
0.9
  1
6
 40
18.288
 41
14.1409070632
  0
MTEXT
  5
360
100
AcDbEntity
  8
0
100
AcDbMText
 62
2
  6
CONTINUOUS
  7
STANDARD
 71
1
 72
1
 10
1826.7112164746
 20
1160.8932070574
 30
0.0
 11
1.0
 21
0.0
 31
0.0
 73
2
 44
0.9
  1
7
 40
18.288
 41
14.1409070632
  0
MTEXT
  5
361
100
AcDbEntity
  8
0
100
AcDbMText
 62
2
  6
CONTINUOUS
  7
STANDARD
 71
1
 72
1
 10
1826.6947206381
 20
1110.2406085811
 30
0.0
 11
1.0
 21
0.0
 31
0.0
 73
2
 44
0.9
  1
8
 40
18.288
 41
14.1409070632
  0
MTEXT
  5
362
100
AcDbEntity
  8
0
100
AcDbMText
 62
2
  6
CONTINUOUS
  7
STANDARD
 71
1
 72
1
 10
1826.6204330951
 20
1059.6826079121
 30
0.0
 11
1.0
 21
0.0
 31
0.0
 73
2
 44
0.9
  1
9
 40
18.288
 41
14.1409070632
  0
MTEXT
  5
363
100
AcDbEntity
  8
0
100
AcDbMText
 62
2
  6
CONTINUOUS
  7
STANDARD
 71
1
 72
1
 10
1827.0533018555
 20
1008.6630739963
 30
0.0
 11
1.0
 21
0.0
 31
0.0
 73
2
 44
0.9
  1
10
 40
18.288
 41
28.2818141264
  0
MTEXT
  5
364
100
AcDbEntity
  8
0
100
AcDbMText
 62
2
  6
CONTINUOUS
  7
STANDARD
 71
1
 72
1
 10
1827.0533018555
 20
957.2322822419
 30
0.0
 11
1.0
 21
0.0
 31
0.0
 73
2
 44
0.9
  1
11
 40
18.288
 41
28.2818141264
  0
INSERT
  5
365
100
AcDbEntity
  8
0
100
AcDbBlockReference
 62
2
  6
CONTINUOUS
  2
CG_3D_BL0
 10
258.8209954831
 20
2030.7083283743
  0
INSERT
  5
366
100
AcDbEntity
  8
0
100
AcDbBlockReference
 62
2
  6
CONTINUOUS
  2
CG_3D_BL1
 10
1157.3845466652
 20
1209.7880327371
  0
INSERT
  5
367
100
AcDbEntity
  8
0
100
AcDbBlockReference
 62
2
  6
CONTINUOUS
  2
CG_3D_BL2
 10
457.3028005367
 20
1209.547196682
  0
LINE
  5
368
100
AcDbEntity
  8
0
100
AcDbLine
 62
7
  6
CONTINUOUS
 10
100.3810027179
 20
79.6859098728
 11
109.9693333499
 21
74.3671757884
  0
LINE
  5
369
100
AcDbEntity
  8
0
100
AcDbLine
 62
7
  6
CONTINUOUS
 10
105.1751680339
 20
84.5227389783
 11
114.575492183
 21
79.3082937976
  0
LINE
  5
36A
100
AcDbEntity
  8
0
100
AcDbLine
 62
7
  6
CONTINUOUS
 10
60.1006137389
 20
74.9913129514
 11
82.0503706271
 21
62.3186149033
  0
LINE
  5
36B
100
AcDbEntity
  8
0
100
AcDbLine
 62
7
  6
CONTINUOUS
 10
68.0908892657
 20
81.232684581
 11
83.4604192495
 21
72.3590823076
  0
LINE
  5
36C
100
AcDbEntity
  8
0
100
AcDbLine
 62
7
  6
CONTINUOUS
 10
76.1751680339
 20
86.9856010397
 11
84.4004516644
 21
82.2367313214
  0
LINE
  5
36D
100
AcDbEntity
  8
0
100
AcDbLine
 62
7
  6
CONTINUOUS
 10
94.9758163321
 20
100.5538002345
 11
86.7505327017
 21
105.3026699528
  0
LINE
  5
36E
100
AcDbEntity
  8
0
100
AcDbLine
 62
7
  6
CONTINUOUS
 10
103.0600951004
 20
106.3067166932
 11
87.6905651166
 21
115.1803189666
  0
LINE
  5
36F
100
AcDbEntity
  8
0
100
AcDbLine
 62
7
  6
CONTINUOUS
 10
111.0503706271
 20
112.5480883228
 11
89.1006137389
 21
125.2207863709
  0
LINE
  5
370
100
AcDbEntity
  8
0
100
AcDbLine
 62
7
  6
CONTINUOUS
 10
56.575492183
 20
106.4423986851
 11
56.575492183
 21
81.0970025891
  0
LINE
  5
371
100
AcDbEntity
  8
0
100
AcDbLine
 62
7
  6
CONTINUOUS
 10
65.9758163321
 20
102.6433029106
 11
65.9758163321
 21
84.8960983636
  0
LINE
  5
372
100
AcDbEntity
  8
0
100
AcDbLine
 62
7
  6
CONTINUOUS
 10
75.0001275153
 20
98.5185703553
 11
75.0001275153
 21
89.0208309189
  0
LINE
  5
373
100
AcDbEntity
  8
0
100
AcDbLine
 62
7
  6
CONTINUOUS
 10
96.1508568508
 20
89.0208309189
 11
96.1508568508
 21
98.5185703553
  0
LINE
  5
374
100
AcDbEntity
  8
0
100
AcDbLine
 62
7
  6
CONTINUOUS
 10
105.1751680339
 20
84.5227389783
 11
105.1751680339
 21
102.6433029106
  0
LINE
  5
375
100
AcDbEntity
  8
0
100
AcDbLine
 62
7
  6
CONTINUOUS
 10
114.575492183
 20
79.3082937976
 11
114.575492183
 21
106.4423986851
  0
LINE
  5
376
100
AcDbEntity
  8
0
100
AcDbLine
 62
7
  6
CONTINUOUS
 10
82.0503706271
 20
125.2207863709
 11
60.1006137389
 21
112.5480883228
  0
LINE
  5
377
100
AcDbEntity
  8
0
100
AcDbLine
 62
7
  6
CONTINUOUS
 10
83.4604192495
 20
115.1803189666
 11
68.0908892657
 21
106.3067166932
  0
LINE
  5
378
100
AcDbEntity
  8
0
100
AcDbLine
 62
7
  6
CONTINUOUS
 10
84.4004516644
 20
105.3026699528
 11
76.1751680339
 21
100.5538002345
  0
LINE
  5
379
100
AcDbEntity
  8
0
100
AcDbLine
 62
7
  6
CONTINUOUS
 10
86.7505327017
 20
82.2367313214
 11
94.9758163321
 21
86.9856010397
  0
LINE
  5
37A
100
AcDbEntity
  8
0
100
AcDbLine
 62
7
  6
CONTINUOUS
 10
87.6905651166
 20
72.3590823076
 11
100.3810027179
 21
79.6859098728
  0
LINE
  5
37B
100
AcDbEntity
  8
0
100
AcDbLine
 62
7
  6
CONTINUOUS
 10
89.1006137389
 20
62.3186149033
 11
109.9693333499
 21
74.3671757884
  0
ARC
  5
37C
100
AcDbEntity
  8
0
100
AcDbCircle
 62
7
  6
CONTINUOUS
 10
107.5252490712
 20
106.4423986851
 40
7.0502431118
100
AcDbArc
 50
0.0
 51
60.0
  0
ARC
  5
37D
100
AcDbEntity
  8
0
100
AcDbCircle
 62
7
  6
CONTINUOUS
 10
85.575492183
 20
119.1150967332
 40
7.0502431118
100
AcDbArc
 50
60.0
 51
120.0
  0
ARC
  5
37E
100
AcDbEntity
  8
0
100
AcDbCircle
 62
7
  6
CONTINUOUS
 10
63.6257352948
 20
106.4423986851
 40
7.0502431118
100
AcDbArc
 50
120.0
 51
180.0
  0
ARC
  5
37F
100
AcDbEntity
  8
0
100
AcDbCircle
 62
7
  6
CONTINUOUS
 10
63.6257352948
 20
81.0970025891
 40
7.0502431118
100
AcDbArc
 50
180.0
 51
240.0
  0
ARC
  5
380
100
AcDbEntity
  8
0
100
AcDbCircle
 62
7
  6
CONTINUOUS
 10
85.575492183
 20
68.424304541
 40
7.0502431118
100
AcDbArc
 50
240.0
 51
300.0
  0
ARC
  5
381
100
AcDbEntity
  8
0
100
AcDbCircle
 62
7
  6
CONTINUOUS
 10
100.9450221668
 20
102.6433029106
 40
4.2301458671
100
AcDbArc
 50
0.0
 51
60.0
  0
ARC
  5
382
100
AcDbEntity
  8
0
100
AcDbCircle
 62
7
  6
CONTINUOUS
 10
85.575492183
 20
111.516905184
 40
4.2301458671
100
AcDbArc
 50
60.0
 51
120.0
  0
ARC
  5
383
100
AcDbEntity
  8
0
100
AcDbCircle
 62
7
  6
CONTINUOUS
 10
70.2059621992
 20
102.6433029106
 40
4.2301458671
100
AcDbArc
 50
120.0
 51
180.0
  0
ARC
  5
384
100
AcDbEntity
  8
0
100
AcDbCircle
 62
7
  6
CONTINUOUS
 10
70.2059621992
 20
84.8960983636
 40
4.2301458671
100
AcDbArc
 50
180.0
 51
240.0
  0
ARC
  5
385
100
AcDbEntity
  8
0
100
AcDbCircle
 62
7
  6
CONTINUOUS
 10
85.575492183
 20
76.0224960902
 40
4.2301458671
100
AcDbArc
 50
240.0
 51
300.0
  0
ARC
  5
386
100
AcDbEntity
  8
0
100
AcDbCircle
 62
7
  6
CONTINUOUS
 10
85.575492183
 20
84.2719612007
 40
2.3500810373
100
AcDbArc
 50
240.0
 51
300.0
  0
ARC
  5
387
100
AcDbEntity
  8
0
100
AcDbCircle
 62
7
  6
CONTINUOUS
 10
93.8007758135
 20
89.0208309189
 40
2.3500810373
100
AcDbArc
 50
300.0
 51
360.0
  0
ARC
  5
388
100
AcDbEntity
  8
0
100
AcDbCircle
 62
7
  6
CONTINUOUS
 10
93.8007758135
 20
98.5185703553
 40
2.3500810373
100
AcDbArc
 50
0.0
 51
60.0
  0
ARC
  5
389
100
AcDbEntity
  8
0
100
AcDbCircle
 62
7
  6
CONTINUOUS
 10
85.575492183
 20
103.2674400735
 40
2.3500810373
100
AcDbArc
 50
60.0
 51
120.0
  0
ARC
  5
38A
100
AcDbEntity
  8
0
100
AcDbCircle
 62
7
  6
CONTINUOUS
 10
77.3502085525
 20
98.5185703553
 40
2.3500810373
100
AcDbArc
 50
120.0
 51
180.0
  0
ARC
  5
38B
100
AcDbEntity
  8
0
100
AcDbCircle
 62
7
  6
CONTINUOUS
 10
77.3502085525
 20
89.0208309189
 40
2.3500810373
100
AcDbArc
 50
180.0
 51
240.0
  0
HATCH
  5
38C
100
AcDbEntity
  8
0
100
AcDbHatch
 62
7
  6
CONTINUOUS
 10
0.0
 20
0.0
 30
0.0
210
0.0
220
0.0
230
1.0
  2
XSEC0001
 70
1
 71
1
 91
2
 92
1
 93
24
 72
1
 10
109.9693333499
 20
74.3671757884
 11
89.1006137389
 21
62.3186149033
 72
2
 10
85.575492183
 20
68.424304541
 40
7.0502431118
 50
-300.0
 51
-240.0
 73
0
 72
1
 10
82.0503706271
 20
62.3186149033
 11
60.1006137389
 21
74.9913129514
 72
2
 10
63.6257352948
 20
81.0970025891
 40
7.0502431118
 50
-240.0
 51
-180.0
 73
0
 72
1
 10
56.575492183
 20
81.0970025891
 11
56.575492183
 21
106.4423986851
 72
2
 10
63.6257352948
 20
106.4423986851
 40
7.0502431118
 50
-180.0
 51
-120.0
 73
0
 72
1
 10
60.1006137389
 20
112.5480883228
 11
82.0503706271
 21
125.2207863709
 72
2
 10
85.575492183
 20
119.1150967332
 40
7.0502431118
 50
-120.0
 51
-60.0
 73
0
 72
1
 10
89.1006137389
 20
125.2207863709
 11
111.0503706271
 21
112.5480883228
 72
2
 10
107.5252490712
 20
106.4423986851
 40
7.0502431118
 50
-60.0
 51
0.0
 73
0
 72
1
 10
114.575492183
 20
106.4423986851
 11
114.575492183
 21
79.3082937976
 72
1
 10
114.575492183
 20
79.3082937976
 11
105.1751680339
 21
84.5227389783
 72
1
 10
105.1751680339
 20
84.5227389783
 11
105.1751680339
 21
102.6433029106
 72
2
 10
100.9450221668
 20
102.6433029106
 40
4.2301458671
 50
0.0
 51
60.0
 73
1
 72
1
 10
103.0600951004
 20
106.3067166932
 11
87.6905651166
 21
115.1803189666
 72
2
 10
85.575492183
 20
111.516905184
 40
4.2301458671
 50
60.0
 51
120.0
 73
1
 72
1
 10
83.4604192495
 20
115.1803189666
 11
68.0908892657
 21
106.3067166932
 72
2
 10
70.2059621992
 20
102.6433029106
 40
4.2301458671
 50
120.0
 51
180.0
 73
1
 72
1
 10
65.9758163321
 20
102.6433029106
 11
65.9758163321
 21
84.8960983636
 72
2
 10
70.2059621992
 20
84.8960983636
 40
4.2301458671
 50
180.0
 51
240.0
 73
1
 72
1
 10
68.0908892657
 20
81.232684581
 11
83.4604192495
 21
72.3590823076
 72
2
 10
85.575492183
 20
76.0224960902
 40
4.2301458671
 50
240.0
 51
300.0
 73
1
 72
1
 10
87.6905651166
 20
72.3590823076
 11
100.3810027179
 21
79.6859098728
 72
1
 10
100.3810027179
 20
79.6859098728
 11
109.9693333499
 21
74.3671757884
 97
36
330
368
330
369
330
36A
330
36B
330
36C
330
36D
330
36E
330
36F
330
370
330
371
330
372
330
373
330
374
330
375
330
376
330
377
330
378
330
379
330
37A
330
37B
330
37C
330
37D
330
37E
330
37F
330
380
330
381
330
382
330
383
330
384
330
385
330
386
330
387
330
388
330
389
330
38A
330
38B
 92
1
 93
12
 72
2
 10
85.575492183
 20
84.2719612007
 40
2.3500810373
 50
240.0
 51
300.0
 73
1
 72
1
 10
86.7505327017
 20
82.2367313214
 11
94.9758163321
 21
86.9856010397
 72
2
 10
93.8007758135
 20
89.0208309189
 40
2.3500810373
 50
-60.0
 51
0.0
 73
1
 72
1
 10
96.1508568508
 20
89.0208309189
 11
96.1508568508
 21
98.5185703553
 72
2
 10
93.8007758135
 20
98.5185703553
 40
2.3500810373
 50
0.0
 51
60.0
 73
1
 72
1
 10
94.9758163321
 20
100.5538002345
 11
86.7505327017
 21
105.3026699528
 72
2
 10
85.575492183
 20
103.2674400735
 40
2.3500810373
 50
60.0
 51
120.0
 73
1
 72
1
 10
84.4004516644
 20
105.3026699528
 11
76.1751680339
 21
100.5538002345
 72
2
 10
77.3502085525
 20
98.5185703553
 40
2.3500810373
 50
120.0
 51
180.0
 73
1
 72
1
 10
75.0001275153
 20
98.5185703553
 11
75.0001275153
 21
89.0208309189
 72
2
 10
77.3502085525
 20
89.0208309189
 40
2.3500810373
 50
180.0
 51
240.0
 73
1
 72
1
 10
76.1751680339
 20
86.9856010397
 11
84.4004516644
 21
82.2367313214
 97
36
330
368
330
369
330
36A
330
36B
330
36C
330
36D
330
36E
330
36F
330
370
330
371
330
372
330
373
330
374
330
375
330
376
330
377
330
378
330
379
330
37A
330
37B
330
37C
330
37D
330
37E
330
37F
330
380
330
381
330
382
330
383
330
384
330
385
330
386
330
387
330
388
330
389
330
38A
330
38B
 75
0
 76
1
 98
1
 10
0.0
 20
0.0
  0
LINE
  5
38D
100
AcDbEntity
  8
0
100
AcDbLine
 62
7
  6
CONTINUOUS
 10
272.876950854
 20
90.4195070033
 11
253.6062863483
 21
107.8490252186
  0
LINE
  5
38E
100
AcDbEntity
  8
0
100
AcDbLine
 62
7
  6
CONTINUOUS
 10
275.8850545817
 20
94.5005649269
 11
261.1265456676
 21
107.8490252186
  0
LINE
  5
38F
100
AcDbEntity
  8
0
100
AcDbLine
 62
7
  6
CONTINUOUS
 10
272.876950854
 20
90.4195070033
 11
272.876950854
 21
79.0840333223
  0
LINE
  5
390
100
AcDbEntity
  8
0
100
AcDbLine
 62
7
  6
CONTINUOUS
 10
278.8931583094
 20
90.4195070033
 11
278.8931583094
 21
79.0840333223
  0
LINE
  5
391
100
AcDbEntity
  8
0
100
AcDbLine
 62
7
  6
CONTINUOUS
 10
278.8931583094
 20
79.0840333223
 11
272.876950854
 21
79.0840333223
  0
LINE
  5
392
100
AcDbEntity
  8
0
100
AcDbLine
 62
7
  6
CONTINUOUS
 10
261.1265456676
 20
107.8490252186
 11
253.6062863483
 21
107.8490252186
  0
LINE
  5
393
100
AcDbEntity
  8
0
100
AcDbLine
 62
7
  6
CONTINUOUS
 10
290.6435634958
 20
107.8490252186
 11
298.1638228151
 21
107.8490252186
  0
LINE
  5
394
100
AcDbEntity
  8
0
100
AcDbLine
 62
7
  6
CONTINUOUS
 10
275.8850545817
 20
94.5005649269
 11
290.6435634958
 21
107.8490252186
  0
LINE
  5
395
100
AcDbEntity
  8
0
100
AcDbLine
 62
7
  6
CONTINUOUS
 10
278.8931583094
 20
90.4195070033
 11
298.1638228151
 21
107.8490252186
  0
HATCH
  5
396
100
AcDbEntity
  8
0
100
AcDbHatch
 62
7
  6
CONTINUOUS
 10
0.0
 20
0.0
 30
0.0
210
0.0
220
0.0
230
1.0
  2
XSEC0005
 70
1
 71
1
 91
1
 92
1
 93
9
 72
1
 10
253.6062863483
 20
107.8490252186
 11
261.1265456676
 21
107.8490252186
 72
1
 10
261.1265456676
 20
107.8490252186
 11
275.8850545817
 21
94.5005649269
 72
1
 10
275.8850545817
 20
94.5005649269
 11
290.6435634958
 21
107.8490252186
 72
1
 10
290.6435634958
 20
107.8490252186
 11
298.1638228151
 21
107.8490252186
 72
1
 10
298.1638228151
 20
107.8490252186
 11
278.8931583094
 21
90.4195070033
 72
1
 10
278.8931583094
 20
90.4195070033
 11
278.8931583094
 21
79.0840333223
 72
1
 10
278.8931583094
 20
79.0840333223
 11
272.876950854
 21
79.0840333223
 72
1
 10
272.876950854
 20
79.0840333223
 11
272.876950854
 21
90.4195070033
 72
1
 10
272.876950854
 20
90.4195070033
 11
253.6062863483
 21
107.8490252186
 97
9
330
38D
330
38E
330
38F
330
390
330
391
330
392
330
393
330
394
330
395
 75
0
 76
1
 98
1
 10
0.0
 20
0.0
  0
LINE
  5
397
100
AcDbEntity
  8
0
100
AcDbLine
 62
7
  6
CONTINUOUS
 10
141.2724127665
 20
86.6042926416
 11
141.2724127665
 21
100.3287658993
  0
LINE
  5
398
100
AcDbEntity
  8
0
100
AcDbLine
 62
7
  6
CONTINUOUS
 10
146.4425910485
 20
86.6512942624
 11
146.4425910485
 21
100.2817642786
  0
LINE
  5
399
100
AcDbEntity
  8
0
100
AcDbLine
 62
7
  6
CONTINUOUS
 10
163.6451842414
 20
79.0840333223
 11
163.6451842414
 21
83.4081824309
  0
LINE
  5
39A
100
AcDbEntity
  8
0
100
AcDbLine
 62
7
  6
CONTINUOUS
 10
165.9952652786
 20
75.5119101457
 11
165.9952652786
 21
86.2282796756
  0
LINE
  5
39B
100
AcDbEntity
  8
0
100
AcDbLine
 62
7
  6
CONTINUOUS
 10
171.4474532851
 20
75.5119101457
 11
171.4474532851
 21
86.2282796756
  0
LINE
  5
39C
100
AcDbEntity
  8
0
100
AcDbLine
 62
7
  6
CONTINUOUS
 10
173.9855408054
 20
79.0840333223
 11
173.9855408054
 21
83.4081824309
  0
LINE
  5
39D
100
AcDbEntity
  8
0
100
AcDbLine
 62
7
  6
CONTINUOUS
 10
179.3437255704
 20
86.6512942624
 11
179.3437255704
 21
100.2817642786
  0
LINE
  5
39E
100
AcDbEntity
  8
0
100
AcDbLine
 62
7
  6
CONTINUOUS
 10
184.5139038524
 20
86.6042926416
 11
184.5139038524
 21
100.3287658993
  0
LINE
  5
39F
100
AcDbEntity
  8
0
100
AcDbLine
 62
7
  6
CONTINUOUS
 10
165.9952652786
 20
75.5119101457
 11
171.4474532851
 21
75.5119101457
  0
LINE
  5
3A0
100
AcDbEntity
  8
0
100
AcDbLine
 62
7
  6
CONTINUOUS
 10
174.6185136674
 20
79.0840333223
 11
173.9855408054
 21
79.0840333223
  0
LINE
  5
3A1
100
AcDbEntity
  8
0
100
AcDbLine
 62
7
  6
CONTINUOUS
 10
151.1678029515
 20
79.0840333223
 11
163.6451842414
 21
79.0840333223
  0
LINE
  5
3A2
100
AcDbEntity
  8
0
100
AcDbLine
 62
7
  6
CONTINUOUS
 10
174.1152770042
 20
83.4081824309
 11
173.9855408054
 21
83.4081824309
  0
LINE
  5
3A3
100
AcDbEntity
  8
0
100
AcDbLine
 62
7
  6
CONTINUOUS
 10
151.6710396147
 20
83.4081824309
 11
163.6451842414
 21
83.4081824309
  0
LINE
  5
3A4
100
AcDbEntity
  8
0
100
AcDbLine
 62
7
  6
CONTINUOUS
 10
165.9952652786
 20
86.2282796756
 11
171.4474532851
 21
86.2282796756
  0
LINE
  5
3A5
100
AcDbEntity
  8
0
100
AcDbLine
 62
7
  6
CONTINUOUS
 10
151.6710396147
 20
103.52487611
 11
174.1152770042
 21
103.52487611
  0
LINE
  5
3A6
100
AcDbEntity
  8
0
100
AcDbLine
 62
7
  6
CONTINUOUS
 10
151.1678029515
 20
107.8490252186
 11
174.6185136674
 21
107.8490252186
  0
ELLIPSE
  5
3A7
100
AcDbEntity
  8
0
100
AcDbEllipse
 62
7
  6
CONTINUOUS
 10
174.1152770042
 20
86.6512942624
 30
0.0
 11
5.2284485662
 21
0.0
 31
0.0
 40
0.6202818657
 41
-1.5707963268
 42
0.0
  0
ELLIPSE
  5
3A8
100
AcDbEntity
  8
0
100
AcDbEllipse
 62
7
  6
CONTINUOUS
 10
174.6185136674
 20
86.6042926416
 30
0.0
 11
9.895390185
 21
0.0
 31
0.0
 40
0.7599760271
 41
4.7123889804
 42
6.2831853072
  0
ELLIPSE
  5
3A9
100
AcDbEntity
  8
0
100
AcDbEllipse
 62
7
  6
CONTINUOUS
 10
151.6710396147
 20
86.6512942624
 30
0.0
 11
5.2284485662
 21
0.0
 31
0.0
 40
0.6202818657
 41
9.4247779608
 42
10.9955742876
  0
ELLIPSE
  5
3AA
100
AcDbEntity
  8
0
100
AcDbEllipse
 62
7
  6
CONTINUOUS
 10
151.6710396147
 20
100.2817642786
 30
0.0
 11
5.2284485662
 21
0.0
 31
0.0
 40
0.6202818657
 41
1.5707963268
 42
3.1415926536
  0
ELLIPSE
  5
3AB
100
AcDbEntity
  8
0
100
AcDbEllipse
 62
7
  6
CONTINUOUS
 10
151.1678029515
 20
86.6042926416
 30
0.0
 11
9.895390185
 21
0.0
 31
0.0
 40
0.7599760271
 41
3.1415926536
 42
4.7123889804
  0
ELLIPSE
  5
3AC
100
AcDbEntity
  8
0
100
AcDbEllipse
 62
7
  6
CONTINUOUS
 10
151.1678029515
 20
100.3287658993
 30
0.0
 11
9.895390185
 21
0.0
 31
0.0
 40
0.7599760271
 41
7.853981634
 42
9.4247779608
  0
ELLIPSE
  5
3AD
100
AcDbEntity
  8
0
100
AcDbEllipse
 62
7
  6
CONTINUOUS
 10
174.1152770042
 20
100.2817642786
 30
0.0
 11
-5.2284485662
 21
0.0
 31
0.0
 40
0.6202818657
 41
3.1415926536
 42
4.7123889804
  0
ELLIPSE
  5
3AE
100
AcDbEntity
  8
0
100
AcDbEllipse
 62
7
  6
CONTINUOUS
 10
174.6185136674
 20
100.3287658993
 30
0.0
 11
9.895390185
 21
0.0
 31
0.0
 40
0.7599760271
 41
0.0
 42
1.5707963268
  0
HATCH
  5
3AF
100
AcDbEntity
  8
0
100
AcDbHatch
 62
7
  6
CONTINUOUS
 10
0.0
 20
0.0
 30
0.0
210
0.0
220
0.0
230
1.0
  2
XSEC0002
 70
1
 71
1
 91
2
 92
1
 93
20
 72
3
 10
151.1678029515
 20
100.3287658993
 11
9.895390185
 21
0.0
 40
0.7599760271
 50
-180.0
 51
-90.0
 73
0
 72
1
 10
151.1678029515
 20
107.8490252186
 11
174.6185136674
 21
107.8490252186
 72
3
 10
174.6185136674
 20
100.3287658993
 11
9.895390185
 21
0.0
 40
0.7599760271
 50
-90.0
 51
0.0
 73
0
 72
1
 10
184.5139038524
 20
100.3287658993
 11
184.5139038524
 21
86.6042926416
 72
3
 10
174.6185136674
 20
86.6042926416
 11
9.895390185
 21
0.0
 40
0.7599760271
 50
0.0
 51
90.0
 73
0
 72
1
 10
174.6185136674
 20
79.0840333223
 11
173.9855408054
 21
79.0840333223
 72
1
 10
173.9855408054
 20
79.0840333223
 11
173.9855408054
 21
83.4081824309
 72
1
 10
173.9855408054
 20
83.4081824309
 11
174.1152770042
 21
83.4081824309
 72
3
 10
174.1152770042
 20
86.6512942624
 11
5.2284485662
 21
0.0
 40
0.6202818657
 50
-90.0
 51
0.0
 73
1
 72
1
 10
179.3437255704
 20
86.6512942624
 11
179.3437255704
 21
100.2817642786
 72
3
 10
174.1152770042
 20
100.2817642786
 11
-5.2284485662
 21
0.0
 40
0.6202818657
 50
180.0
 51
-90.0
 73
1
 72
1
 10
174.1152770042
 20
103.52487611
 11
151.6710396147
 21
103.52487611
 72
3
 10
151.6710396147
 20
100.2817642786
 11
5.2284485662
 21
0.0
 40
0.6202818657
 50
90.0
 51
180.0
 73
1
 72
1
 10
146.4425910485
 20
100.2817642786
 11
146.4425910485
 21
86.6512942624
 72
3
 10
151.6710396147
 20
86.6512942624
 11
5.2284485662
 21
0.0
 40
0.6202818657
 50
180.0
 51
-90.0
 73
1
 72
1
 10
151.6710396147
 20
83.4081824309
 11
163.6451842414
 21
83.4081824309
 72
1
 10
163.6451842414
 20
83.4081824309
 11
163.6451842414
 21
79.0840333223
 72
1
 10
163.6451842414
 20
79.0840333223
 11
151.1678029515
 21
79.0840333223
 72
3
 10
151.1678029515
 20
86.6042926416
 11
9.895390185
 21
0.0
 40
0.7599760271
 50
-270.0
 51
-180.0
 73
0
 72
1
 10
141.2724127665
 20
86.6042926416
 11
141.2724127665
 21
100.3287658993
 97
24
330
397
330
398
330
399
330
39A
330
39B
330
39C
330
39D
330
39E
330
39F
330
3A0
330
3A1
330
3A2
330
3A3
330
3A4
330
3A5
330
3A6
330
3A7
330
3A8
330
3A9
330
3AA
330
3AB
330
3AC
330
3AD
330
3AE
 92
1
 93
4
 72
1
 10
165.9952652786
 20
86.2282796756
 11
171.4474532851
 21
86.2282796756
 72
1
 10
171.4474532851
 20
86.2282796756
 11
171.4474532851
 21
75.5119101457
 72
1
 10
171.4474532851
 20
75.5119101457
 11
165.9952652786
 21
75.5119101457
 72
1
 10
165.9952652786
 20
75.5119101457
 11
165.9952652786
 21
86.2282796756
 97
24
330
397
330
398
330
399
330
39A
330
39B
330
39C
330
39D
330
39E
330
39F
330
3A0
330
3A1
330
3A2
330
3A3
330
3A4
330
3A5
330
3A6
330
3A7
330
3A8
330
3A9
330
3AA
330
3AB
330
3AC
330
3AD
330
3AE
 75
0
 76
1
 98
1
 10
0.0
 20
0.0
  0
LINE
  5
3B0
100
AcDbEntity
  8
0
100
AcDbLine
 62
7
  6
CONTINUOUS
 10
192.6921858621
 20
87.9203380225
 11
192.6921858621
 21
91.4924611991
  0
LINE
  5
3B1
100
AcDbEntity
  8
0
100
AcDbLine
 62
7
  6
CONTINUOUS
 10
204.4425910485
 20
87.9203380225
 11
204.4425910485
 21
91.4924611991
  0
LINE
  5
3B2
100
AcDbEntity
  8
0
100
AcDbLine
 62
7
  6
CONTINUOUS
 10
192.6921858621
 20
87.9203380225
 11
204.4425910485
 21
87.9203380225
  0
LINE
  5
3B3
100
AcDbEntity
  8
0
100
AcDbLine
 62
7
  6
CONTINUOUS
 10
192.6921858621
 20
91.4924611991
 11
204.4425910485
 21
91.4924611991
  0
HATCH
  5
3B4
100
AcDbEntity
  8
0
100
AcDbHatch
 62
7
  6
CONTINUOUS
 10
0.0
 20
0.0
 30
0.0
210
0.0
220
0.0
230
1.0
  2
XSEC0003
 70
1
 71
1
 91
1
 92
1
 93
4
 72
1
 10
192.6921858621
 20
91.4924611991
 11
204.4425910485
 21
91.4924611991
 72
1
 10
204.4425910485
 20
91.4924611991
 11
204.4425910485
 21
87.9203380225
 72
1
 10
204.4425910485
 20
87.9203380225
 11
192.6921858621
 21
87.9203380225
 72
1
 10
192.6921858621
 20
87.9203380225
 11
192.6921858621
 21
91.4924611991
 97
4
330
3B0
330
3B1
330
3B2
330
3B3
 75
0
 76
1
 98
1
 10
0.0
 20
0.0
  0
LINE
  5
3B5
100
AcDbEntity
  8
0
100
AcDbLine
 62
7
  6
CONTINUOUS
 10
210.5528017454
 20
86.6042926416
 11
210.5528017454
 21
88.4843574714
  0
LINE
  5
3B6
100
AcDbEntity
  8
0
100
AcDbLine
 62
7
  6
CONTINUOUS
 10
210.5528017454
 20
98.8247140354
 11
210.5528017454
 21
100.3287658993
  0
LINE
  5
3B7
100
AcDbEntity
  8
0
100
AcDbLine
 62
7
  6
CONTINUOUS
 10
215.7229800274
 20
86.6512942624
 11
215.7229800274
 21
88.4843574714
  0
LINE
  5
3B8
100
AcDbEntity
  8
0
100
AcDbLine
 62
7
  6
CONTINUOUS
 10
215.7229800274
 20
98.8717156562
 11
215.7229800274
 21
100.2817642786
  0
LINE
  5
3B9
100
AcDbEntity
  8
0
100
AcDbLine
 62
7
  6
CONTINUOUS
 10
244.8639848897
 20
88.0613428847
 11
244.8639848897
 21
86.6512942624
  0
LINE
  5
3BA
100
AcDbEntity
  8
0
100
AcDbLine
 62
7
  6
CONTINUOUS
 10
244.8639848897
 20
98.4487010695
 11
244.8639848897
 21
100.2817642786
  0
LINE
  5
3BB
100
AcDbEntity
  8
0
100
AcDbLine
 62
7
  6
CONTINUOUS
 10
250.0341631717
 20
86.6042926416
 11
250.0341631717
 21
88.1083445055
  0
LINE
  5
3BC
100
AcDbEntity
  8
0
100
AcDbLine
 62
7
  6
CONTINUOUS
 10
250.0341631717
 20
98.4487010695
 11
250.0341631717
 21
100.3287658993
  0
LINE
  5
3BD
100
AcDbEntity
  8
0
100
AcDbLine
 62
7
  6
CONTINUOUS
 10
220.4481919304
 20
79.0840333223
 11
240.1387729867
 21
79.0840333223
  0
LINE
  5
3BE
100
AcDbEntity
  8
0
100
AcDbLine
 62
7
  6
CONTINUOUS
 10
220.9514285936
 20
83.4081824309
 11
239.6355363234
 21
83.4081824309
  0
LINE
  5
3BF
100
AcDbEntity
  8
0
100
AcDbLine
 62
7
  6
CONTINUOUS
 10
210.5528017454
 20
88.4843574714
 11
215.7229800274
 21
88.4843574714
  0
LINE
  5
3C0
100
AcDbEntity
  8
0
100
AcDbLine
 62
7
  6
CONTINUOUS
 10
220.4481919304
 20
91.3044547162
 11
239.6355363234
 21
91.3044547162
  0
LINE
  5
3C1
100
AcDbEntity
  8
0
100
AcDbLine
 62
7
  6
CONTINUOUS
 10
220.9514285936
 20
95.6286038248
 11
240.1387729867
 21
95.6286038248
  0
LINE
  5
3C2
100
AcDbEntity
  8
0
100
AcDbLine
 62
7
  6
CONTINUOUS
 10
244.8639848897
 20
98.4487010695
 11
250.0341631717
 21
98.4487010695
  0
LINE
  5
3C3
100
AcDbEntity
  8
0
100
AcDbLine
 62
7
  6
CONTINUOUS
 10
220.9514285936
 20
103.52487611
 11
239.6355363234
 21
103.52487611
  0
LINE
  5
3C4
100
AcDbEntity
  8
0
100
AcDbLine
 62
7
  6
CONTINUOUS
 10
220.4481919304
 20
107.8490252186
 11
240.1387729867
 21
107.8490252186
  0
ELLIPSE
  5
3C5
100
AcDbEntity
  8
0
100
AcDbEllipse
 62
7
  6
CONTINUOUS
 10
220.9514285936
 20
86.6512942624
 30
0.0
 11
5.2284485662
 21
0.0
 31
0.0
 40
0.6202818657
 41
9.4247779608
 42
10.9955742876
  0
ELLIPSE
  5
3C6
100
AcDbEntity
  8
0
100
AcDbEllipse
 62
7
  6
CONTINUOUS
 10
220.9514285936
 20
100.2817642786
 30
0.0
 11
5.2284485662
 21
0.0
 31
0.0
 40
0.6202818657
 41
1.5707963268
 42
3.1415926536
  0
ELLIPSE
  5
3C7
100
AcDbEntity
  8
0
100
AcDbEllipse
 62
7
  6
CONTINUOUS
 10
239.6355363234
 20
86.6512942624
 30
0.0
 11
5.2284485662
 21
-0.0
 31
0.0
 40
0.6202818657
 41
-1.5707963268
 42
0.0
  0
ELLIPSE
  5
3C8
100
AcDbEntity
  8
0
100
AcDbEllipse
 62
7
  6
CONTINUOUS
 10
239.6355363234
 20
100.2817642786
 30
0.0
 11
-5.2284485662
 21
0.0
 31
0.0
 40
0.6202818657
 41
3.1415926536
 42
4.7123889804
  0
ELLIPSE
  5
3C9
100
AcDbEntity
  8
0
100
AcDbEllipse
 62
7
  6
CONTINUOUS
 10
239.6355363234
 20
88.0613428847
 30
0.0
 11
5.2284485662
 21
0.0
 31
0.0
 40
0.6202818657
 41
0.0
 42
1.5707963268
  0
ELLIPSE
  5
3CA
100
AcDbEntity
  8
0
100
AcDbEllipse
 62
7
  6
CONTINUOUS
 10
220.9514285936
 20
98.8717156562
 30
0.0
 11
5.2284485662
 21
0.0
 31
0.0
 40
0.6202818657
 41
3.1415926536
 42
4.7123889804
  0
ELLIPSE
  5
3CB
100
AcDbEntity
  8
0
100
AcDbEllipse
 62
7
  6
CONTINUOUS
 10
240.1387729867
 20
86.6042926416
 30
0.0
 11
9.895390185
 21
0.0
 31
0.0
 40
0.7599760271
 41
4.7123889804
 42
6.2831853072
  0
ELLIPSE
  5
3CC
100
AcDbEntity
  8
0
100
AcDbEllipse
 62
7
  6
CONTINUOUS
 10
220.4481919304
 20
86.6042926416
 30
0.0
 11
9.895390185
 21
0.0
 31
0.0
 40
0.7599760271
 41
3.1415926536
 42
4.7123889804
  0
ELLIPSE
  5
3CD
100
AcDbEntity
  8
0
100
AcDbEllipse
 62
7
  6
CONTINUOUS
 10
240.1387729867
 20
100.3287658993
 30
0.0
 11
9.895390185
 21
0.0
 31
0.0
 40
0.7599760271
 41
0.0
 42
1.5707963268
  0
ELLIPSE
  5
3CE
100
AcDbEntity
  8
0
100
AcDbEllipse
 62
7
  6
CONTINUOUS
 10
220.4481919304
 20
98.8247140354
 30
0.0
 11
9.895390185
 21
0.0
 31
0.0
 40
0.7599760271
 41
9.4247779608
 42
10.9955742876
  0
ELLIPSE
  5
3CF
100
AcDbEntity
  8
0
100
AcDbEllipse
 62
7
  6
CONTINUOUS
 10
240.1387729867
 20
88.1083445055
 30
0.0
 11
9.895390185
 21
0.0
 31
0.0
 40
0.7599760271
 41
6.2831853072
 42
7.853981634
  0
ELLIPSE
  5
3D0
100
AcDbEntity
  8
0
100
AcDbEllipse
 62
7
  6
CONTINUOUS
 10
220.4481919304
 20
100.3287658993
 30
0.0
 11
9.895390185
 21
0.0
 31
0.0
 40
0.7599760271
 41
7.853981634
 42
9.4247779608
  0
HATCH
  5
3D1
100
AcDbEntity
  8
0
100
AcDbHatch
 62
7
  6
CONTINUOUS
 10
0.0
 20
0.0
 30
0.0
210
0.0
220
0.0
230
1.0
  2
XSEC0004
 70
1
 71
1
 91
1
 92
1
 93
28
 72
1
 10
210.5528017454
 20
88.4843574714
 11
215.7229800274
 21
88.4843574714
 72
1
 10
215.7229800274
 20
88.4843574714
 11
215.7229800274
 21
86.6512942624
 72
3
 10
220.9514285936
 20
86.6512942624
 11
5.2284485662
 21
0.0
 40
0.6202818657
 50
180.0
 51
-90.0
 73
1
 72
1
 10
220.9514285936
 20
83.4081824309
 11
239.6355363234
 21
83.4081824309
 72
3
 10
239.6355363234
 20
86.6512942624
 11
5.2284485662
 21
-0.0
 40
0.6202818657
 50
-90.0
 51
0.0
 73
1
 72
1
 10
244.8639848897
 20
86.6512942624
 11
244.8639848897
 21
88.0613428847
 72
3
 10
239.6355363234
 20
88.0613428847
 11
5.2284485662
 21
0.0
 40
0.6202818657
 50
0.0
 51
90.0
 73
1
 72
1
 10
239.6355363234
 20
91.3044547162
 11
220.4481919304
 21
91.3044547162
 72
3
 10
220.4481919304
 20
98.8247140354
 11
9.895390185
 21
0.0
 40
0.7599760271
 50
-270.0
 51
-180.0
 73
0
 72
1
 10
210.5528017454
 20
98.8247140354
 11
210.5528017454
 21
100.3287658993
 72
3
 10
220.4481919304
 20
100.3287658993
 11
9.895390185
 21
0.0
 40
0.7599760271
 50
-180.0
 51
-90.0
 73
0
 72
1
 10
220.4481919304
 20
107.8490252186
 11
240.1387729867
 21
107.8490252186
 72
3
 10
240.1387729867
 20
100.3287658993
 11
9.895390185
 21
0.0
 40
0.7599760271
 50
-90.0
 51
0.0
 73
0
 72
1
 10
250.0341631717
 20
100.3287658993
 11
250.0341631717
 21
98.4487010695
 72
1
 10
250.0341631717
 20
98.4487010695
 11
244.8639848897
 21
98.4487010695
 72
1
 10
244.8639848897
 20
98.4487010695
 11
244.8639848897
 21
100.2817642786
 72
3
 10
239.6355363234
 20
100.2817642786
 11
-5.2284485662
 21
0.0
 40
0.6202818657
 50
180.0
 51
-90.0
 73
1
 72
1
 10
239.6355363234
 20
103.52487611
 11
220.9514285936
 21
103.52487611
 72
3
 10
220.9514285936
 20
100.2817642786
 11
5.2284485662
 21
0.0
 40
0.6202818657
 50
90.0
 51
180.0
 73
1
 72
1
 10
215.7229800274
 20
100.2817642786
 11
215.7229800274
 21
98.8717156562
 72
3
 10
220.9514285936
 20
98.8717156562
 11
5.2284485662
 21
0.0
 40
0.6202818657
 50
180.0
 51
-90.0
 73
1
 72
1
 10
220.9514285936
 20
95.6286038248
 11
240.1387729867
 21
95.6286038248
 72
3
 10
240.1387729867
 20
88.1083445055
 11
9.895390185
 21
0.0
 40
0.7599760271
 50
-90.0
 51
0.0
 73
0
 72
1
 10
250.0341631717
 20
88.1083445055
 11
250.0341631717
 21
86.6042926416
 72
3
 10
240.1387729867
 20
86.6042926416
 11
9.895390185
 21
0.0
 40
0.7599760271
 50
0.0
 51
90.0
 73
0
 72
1
 10
240.1387729867
 20
79.0840333223
 11
220.4481919304
 21
79.0840333223
 72
3
 10
220.4481919304
 20
86.6042926416
 11
9.895390185
 21
0.0
 40
0.7599760271
 50
-270.0
 51
-180.0
 73
0
 72
1
 10
210.5528017454
 20
86.6042926416
 11
210.5528017454
 21
88.4843574714
 97
28
330
3B5
330
3B6
330
3B7
330
3B8
330
3B9
330
3BA
330
3BB
330
3BC
330
3BD
330
3BE
330
3BF
330
3C0
330
3C1
330
3C2
330
3C3
330
3C4
330
3C5
330
3C6
330
3C7
330
3C8
330
3C9
330
3CA
330
3CB
330
3CC
330
3CD
330
3CE
330
3CF
330
3D0
 75
0
 76
1
 98
1
 10
0.0
 20
0.0
  0
LINE
  5
3D2
100
AcDbEntity
  8
0
100
AcDbLine
 62
7
  6
CONTINUOUS
 10
300.6079070939
 20
86.6042926416
 11
300.6079070939
 21
88.4843574714
  0
LINE
  5
3D3
100
AcDbEntity
  8
0
100
AcDbLine
 62
7
  6
CONTINUOUS
 10
300.6079070939
 20
98.8247140354
 11
300.6079070939
 21
100.3287658993
  0
LINE
  5
3D4
100
AcDbEntity
  8
0
100
AcDbLine
 62
7
  6
CONTINUOUS
 10
305.7780853759
 20
86.6512942624
 11
305.7780853759
 21
88.4843574714
  0
LINE
  5
3D5
100
AcDbEntity
  8
0
100
AcDbLine
 62
7
  6
CONTINUOUS
 10
305.7780853759
 20
98.8717156562
 11
305.7780853759
 21
100.2817642786
  0
LINE
  5
3D6
100
AcDbEntity
  8
0
100
AcDbLine
 62
7
  6
CONTINUOUS
 10
334.9190902381
 20
88.0613428847
 11
334.9190902381
 21
86.6512942624
  0
LINE
  5
3D7
100
AcDbEntity
  8
0
100
AcDbLine
 62
7
  6
CONTINUOUS
 10
334.9190902381
 20
98.4487010695
 11
334.9190902381
 21
100.2817642786
  0
LINE
  5
3D8
100
AcDbEntity
  8
0
100
AcDbLine
 62
7
  6
CONTINUOUS
 10
340.0892685201
 20
86.6042926416
 11
340.0892685201
 21
88.1083445055
  0
LINE
  5
3D9
100
AcDbEntity
  8
0
100
AcDbLine
 62
7
  6
CONTINUOUS
 10
340.0892685201
 20
98.4487010695
 11
340.0892685201
 21
100.3287658993
  0
LINE
  5
3DA
100
AcDbEntity
  8
0
100
AcDbLine
 62
7
  6
CONTINUOUS
 10
310.5032972788
 20
79.0840333223
 11
330.1938783352
 21
79.0840333223
  0
LINE
  5
3DB
100
AcDbEntity
  8
0
100
AcDbLine
 62
7
  6
CONTINUOUS
 10
311.0065339421
 20
83.4081824309
 11
329.6906416719
 21
83.4081824309
  0
LINE
  5
3DC
100
AcDbEntity
  8
0
100
AcDbLine
 62
7
  6
CONTINUOUS
 10
300.6079070939
 20
88.4843574714
 11
305.7780853759
 21
88.4843574714
  0
LINE
  5
3DD
100
AcDbEntity
  8
0
100
AcDbLine
 62
7
  6
CONTINUOUS
 10
310.5032972788
 20
91.3044547162
 11
329.6906416719
 21
91.3044547162
  0
LINE
  5
3DE
100
AcDbEntity
  8
0
100
AcDbLine
 62
7
  6
CONTINUOUS
 10
311.0065339421
 20
95.6286038248
 11
330.1938783352
 21
95.6286038248
  0
LINE
  5
3DF
100
AcDbEntity
  8
0
100
AcDbLine
 62
7
  6
CONTINUOUS
 10
334.9190902381
 20
98.4487010695
 11
340.0892685201
 21
98.4487010695
  0
LINE
  5
3E0
100
AcDbEntity
  8
0
100
AcDbLine
 62
7
  6
CONTINUOUS
 10
311.0065339421
 20
103.52487611
 11
329.6906416719
 21
103.52487611
  0
LINE
  5
3E1
100
AcDbEntity
  8
0
100
AcDbLine
 62
7
  6
CONTINUOUS
 10
310.5032972788
 20
107.8490252186
 11
330.1938783352
 21
107.8490252186
  0
ELLIPSE
  5
3E2
100
AcDbEntity
  8
0
100
AcDbEllipse
 62
7
  6
CONTINUOUS
 10
311.0065339421
 20
86.6512942624
 30
0.0
 11
5.2284485662
 21
0.0
 31
0.0
 40
0.6202818657
 41
9.4247779608
 42
10.9955742876
  0
ELLIPSE
  5
3E3
100
AcDbEntity
  8
0
100
AcDbEllipse
 62
7
  6
CONTINUOUS
 10
311.0065339421
 20
100.2817642786
 30
0.0
 11
5.2284485662
 21
0.0
 31
0.0
 40
0.6202818657
 41
1.5707963268
 42
3.1415926536
  0
ELLIPSE
  5
3E4
100
AcDbEntity
  8
0
100
AcDbEllipse
 62
7
  6
CONTINUOUS
 10
329.6906416719
 20
86.6512942624
 30
0.0
 11
5.2284485662
 21
-0.0
 31
0.0
 40
0.6202818657
 41
-1.5707963268
 42
0.0
  0
ELLIPSE
  5
3E5
100
AcDbEntity
  8
0
100
AcDbEllipse
 62
7
  6
CONTINUOUS
 10
329.6906416719
 20
100.2817642786
 30
0.0
 11
-5.2284485662
 21
0.0
 31
0.0
 40
0.6202818657
 41
3.1415926536
 42
4.7123889804
  0
ELLIPSE
  5
3E6
100
AcDbEntity
  8
0
100
AcDbEllipse
 62
7
  6
CONTINUOUS
 10
329.6906416719
 20
88.0613428847
 30
0.0
 11
5.2284485662
 21
0.0
 31
0.0
 40
0.6202818657
 41
0.0
 42
1.5707963268
  0
ELLIPSE
  5
3E7
100
AcDbEntity
  8
0
100
AcDbEllipse
 62
7
  6
CONTINUOUS
 10
311.0065339421
 20
98.8717156562
 30
0.0
 11
5.2284485662
 21
0.0
 31
0.0
 40
0.6202818657
 41
3.1415926536
 42
4.7123889804
  0
ELLIPSE
  5
3E8
100
AcDbEntity
  8
0
100
AcDbEllipse
 62
7
  6
CONTINUOUS
 10
330.1938783352
 20
86.6042926416
 30
0.0
 11
9.895390185
 21
0.0
 31
0.0
 40
0.7599760271
 41
4.7123889804
 42
6.2831853072
  0
ELLIPSE
  5
3E9
100
AcDbEntity
  8
0
100
AcDbEllipse
 62
7
  6
CONTINUOUS
 10
310.5032972788
 20
86.6042926416
 30
0.0
 11
9.895390185
 21
0.0
 31
0.0
 40
0.7599760271
 41
3.1415926536
 42
4.7123889804
  0
ELLIPSE
  5
3EA
100
AcDbEntity
  8
0
100
AcDbEllipse
 62
7
  6
CONTINUOUS
 10
330.1938783352
 20
100.3287658993
 30
0.0
 11
9.895390185
 21
0.0
 31
0.0
 40
0.7599760271
 41
0.0
 42
1.5707963268
  0
ELLIPSE
  5
3EB
100
AcDbEntity
  8
0
100
AcDbEllipse
 62
7
  6
CONTINUOUS
 10
310.5032972788
 20
100.3287658993
 30
0.0
 11
9.895390185
 21
0.0
 31
0.0
 40
0.7599760271
 41
7.853981634
 42
9.4247779608
  0
ELLIPSE
  5
3EC
100
AcDbEntity
  8
0
100
AcDbEllipse
 62
7
  6
CONTINUOUS
 10
310.5032972788
 20
98.8247140354
 30
0.0
 11
9.895390185
 21
0.0
 31
0.0
 40
0.7599760271
 41
9.4247779608
 42
10.9955742876
  0
ELLIPSE
  5
3ED
100
AcDbEntity
  8
0
100
AcDbEllipse
 62
7
  6
CONTINUOUS
 10
330.1938783352
 20
88.1083445055
 30
0.0
 11
9.895390185
 21
0.0
 31
0.0
 40
0.7599760271
 41
6.2831853072
 42
7.853981634
  0
HATCH
  5
3EE
100
AcDbEntity
  8
0
100
AcDbHatch
 62
7
  6
CONTINUOUS
 10
0.0
 20
0.0
 30
0.0
210
0.0
220
0.0
230
1.0
  2
XSEC0006
 70
1
 71
1
 91
1
 92
1
 93
28
 72
1
 10
300.6079070939
 20
88.4843574714
 11
305.7780853759
 21
88.4843574714
 72
1
 10
305.7780853759
 20
88.4843574714
 11
305.7780853759
 21
86.6512942624
 72
3
 10
311.0065339421
 20
86.6512942624
 11
5.2284485662
 21
0.0
 40
0.6202818657
 50
180.0
 51
-90.0
 73
1
 72
1
 10
311.0065339421
 20
83.4081824309
 11
329.6906416719
 21
83.4081824309
 72
3
 10
329.6906416719
 20
86.6512942624
 11
5.2284485662
 21
-0.0
 40
0.6202818657
 50
-90.0
 51
0.0
 73
1
 72
1
 10
334.9190902381
 20
86.6512942624
 11
334.9190902381
 21
88.0613428847
 72
3
 10
329.6906416719
 20
88.0613428847
 11
5.2284485662
 21
0.0
 40
0.6202818657
 50
0.0
 51
90.0
 73
1
 72
1
 10
329.6906416719
 20
91.3044547162
 11
310.5032972788
 21
91.3044547162
 72
3
 10
310.5032972788
 20
98.8247140354
 11
9.895390185
 21
0.0
 40
0.7599760271
 50
-270.0
 51
-180.0
 73
0
 72
1
 10
300.6079070939
 20
98.8247140354
 11
300.6079070939
 21
100.3287658993
 72
3
 10
310.5032972788
 20
100.3287658993
 11
9.895390185
 21
0.0
 40
0.7599760271
 50
-180.0
 51
-90.0
 73
0
 72
1
 10
310.5032972788
 20
107.8490252186
 11
330.1938783352
 21
107.8490252186
 72
3
 10
330.1938783352
 20
100.3287658993
 11
9.895390185
 21
0.0
 40
0.7599760271
 50
-90.0
 51
0.0
 73
0
 72
1
 10
340.0892685201
 20
100.3287658993
 11
340.0892685201
 21
98.4487010695
 72
1
 10
340.0892685201
 20
98.4487010695
 11
334.9190902381
 21
98.4487010695
 72
1
 10
334.9190902381
 20
98.4487010695
 11
334.9190902381
 21
100.2817642786
 72
3
 10
329.6906416719
 20
100.2817642786
 11
-5.2284485662
 21
0.0
 40
0.6202818657
 50
180.0
 51
-90.0
 73
1
 72
1
 10
329.6906416719
 20
103.52487611
 11
311.0065339421
 21
103.52487611
 72
3
 10
311.0065339421
 20
100.2817642786
 11
5.2284485662
 21
0.0
 40
0.6202818657
 50
90.0
 51
180.0
 73
1
 72
1
 10
305.7780853759
 20
100.2817642786
 11
305.7780853759
 21
98.8717156562
 72
3
 10
311.0065339421
 20
98.8717156562
 11
5.2284485662
 21
0.0
 40
0.6202818657
 50
180.0
 51
-90.0
 73
1
 72
1
 10
311.0065339421
 20
95.6286038248
 11
330.1938783352
 21
95.6286038248
 72
3
 10
330.1938783352
 20
88.1083445055
 11
9.895390185
 21
0.0
 40
0.7599760271
 50
-90.0
 51
0.0
 73
0
 72
1
 10
340.0892685201
 20
88.1083445055
 11
340.0892685201
 21
86.6042926416
 72
3
 10
330.1938783352
 20
86.6042926416
 11
9.895390185
 21
0.0
 40
0.7599760271
 50
0.0
 51
90.0
 73
0
 72
1
 10
330.1938783352
 20
79.0840333223
 11
310.5032972788
 21
79.0840333223
 72
3
 10
310.5032972788
 20
86.6042926416
 11
9.895390185
 21
0.0
 40
0.7599760271
 50
-270.0
 51
-180.0
 73
0
 72
1
 10
300.6079070939
 20
86.6042926416
 11
300.6079070939
 21
88.4843574714
 97
28
330
3D2
330
3D3
330
3D4
330
3D5
330
3D6
330
3D7
330
3D8
330
3D9
330
3DA
330
3DB
330
3DC
330
3DD
330
3DE
330
3DF
330
3E0
330
3E1
330
3E2
330
3E3
330
3E4
330
3E5
330
3E6
330
3E7
330
3E8
330
3E9
330
3EA
330
3EB
330
3EC
330
3ED
 75
0
 76
1
 98
1
 10
0.0
 20
0.0
  0
LWPOLYLINE
  5
3EF
100
AcDbEntity
  8
0
100
AcDbPolyline
 62
7
  6
CONTINUOUS
 90
2
 70
0
 43
1.999999991
 10
1473.9278402067
 20
70.1574220958
 10
1504.4078402075
 20
65.0774220958
  0
LWPOLYLINE
  5
3F0
100
AcDbEntity
  8
0
100
AcDbPolyline
 62
7
  6
CONTINUOUS
 90
2
 70
0
 43
1.999999991
 10
1473.9278402067
 20
80.3174220958
 10
1504.4078402075
 20
85.3974220958
  0
LWPOLYLINE
  5
3F1
100
AcDbEntity
  8
0
100
AcDbPolyline
 62
7
  6
CONTINUOUS
 90
2
 70
0
 43
0.7999999758
 10
1440.4404802067
 20
75.2374220958
 10
1466.7752002075
 20
75.2374220958
  0
LWPOLYLINE
  5
3F2
100
AcDbEntity
  8
0
100
AcDbPolyline
 62
7
  6
CONTINUOUS
 90
2
 70
0
 43
0.7999999758
 10
1470.1447482723
 20
75.2374220958
 10
1507.5168682675
 20
75.2374220958
  0
LWPOLYLINE
  5
3F3
100
AcDbEntity
  8
0
100
AcDbPolyline
 62
7
  6
CONTINUOUS
 90
2
 70
0
 43
1.999999991
 10
3402.4
 20
144.0
 10
52.0
 20
144.0
  0
LWPOLYLINE
  5
3F4
100
AcDbEntity
  8
0
100
AcDbPolyline
 62
7
  6
CONTINUOUS
 90
2
 70
0
 43
0.7999999758
 10
1453.6078402067
 20
62.0700620958
 10
1453.6078402067
 20
88.4047820958
  0
LWPOLYLINE
  5
3F5
100
AcDbEntity
  8
0
100
AcDbPolyline
 62
7
  6
CONTINUOUS
 90
2
 70
0
 43
1.999999991
 10
1473.9278402067
 20
80.3174220958
 10
1473.9278402067
 20
70.1574220958
  0
LWPOLYLINE
  5
3F6
100
AcDbEntity
  8
0
100
AcDbPolyline
 62
7
  6
CONTINUOUS
 90
2
 70
0
 43
1.999999991
 10
1504.4078402075
 20
85.3974220958
 10
1504.4078402075
 20
65.0774220958
  0
LWPOLYLINE
  5
3F7
100
AcDbEntity
  8
0
100
AcDbPolyline
 62
2
  6
CONTINUOUS
 90
5
 70
0
 10
72.0103374754
 20
1870.2439074173
 10
104.4392445386
 20
1870.2439074173
 10
104.4392445386
 20
1906.8199074173
 10
72.0103374754
 20
1906.8199074173
 10
72.0103374754
 20
1870.2439074173
  0
LWPOLYLINE
  5
3F8
100
AcDbEntity
  8
0
100
AcDbPolyline
 62
7
  6
CONTINUOUS
 90
2
 70
0
 43
1.999999991
 10
52.0
 20
2183.2
 10
3402.4
 20
2183.2
  0
LINE
  5
3F9
100
AcDbEntity
  8
0
100
AcDbLine
 62
7
  6
CONTINUOUS
 10
919.8151086957
 20
415.1501456104
 11
919.8151086957
 21
512.1501456104
  0
LINE
  5
3FA
100
AcDbEntity
  8
0
100
AcDbLine
 62
7
  6
CONTINUOUS
 10
925.8151086957
 20
415.1501456104
 11
925.8151086957
 21
427.1501456104
  0
LINE
  5
3FB
100
AcDbEntity
  8
0
100
AcDbLine
 62
7
  6
CONTINUOUS
 10
919.8151086957
 20
415.1501456104
 11
925.8151086957
 21
415.1501456104
  0
LINE
  5
3FC
100
AcDbEntity
  8
6_COPYGEOM
100
AcDbLine
 62
7
  6
CONTINUOUS
 10
1388.8151086957
 20
415.1501456104
 11
1394.8151086957
 21
415.1501456104
  0
LINE
  5
3FD
100
AcDbEntity
  8
0
100
AcDbLine
 62
9
  6
CONTINUOUS
 10
919.8151086957
 20
418.6648642362
 11
925.8151086957
 21
418.6648642362
  0
LINE
  5
3FE
100
AcDbEntity
  8
0
100
AcDbLine
 62
9
  6
CONTINUOUS
 10
1388.8151086957
 20
418.6648642362
 11
1394.8151086957
 21
418.6648642362
  0
LINE
  5
3FF
100
AcDbEntity
  8
0
100
AcDbLine
 62
9
  6
CONTINUOUS
 10
1394.8151086957
 20
422.7567473282
 11
1388.8151086957
 21
422.7567473282
  0
LINE
  5
400
100
AcDbEntity
  8
0
100
AcDbLine
 62
9
  6
CONTINUOUS
 10
925.8151086957
 20
422.7567473282
 11
919.8151086957
 21
422.7567473282
  0
LINE
  5
401
100
AcDbEntity
  8
0
100
AcDbLine
 62
7
  6
CONTINUOUS
 10
919.8151086957
 20
427.1501456104
 11
1394.8151086957
 21
427.1501456104
  0
LINE
  5
402
100
AcDbEntity
  8
3_ALL_AXES
100
AcDbLine
 62
7
  6
CENTER
 10
1157.3151086957
 20
471.0901456104
 11
1157.3151086957
 21
413.7112026095
  0
LINE
  5
403
100
AcDbEntity
  8
3_ALL_AXES
100
AcDbLine
 62
7
  6
CENTER
 10
1157.3151086957
 20
471.0901456104
 11
1157.3151086957
 21
526.8421628947
  0
LINE
  5
404
100
AcDbEntity
  8
3_ALL_AXES
100
AcDbLine
 62
7
  6
CENTER
 10
1157.3151086957
 20
471.0901456104
 11
1156.0687021645
 21
471.0901456104
  0
LINE
  5
405
100
AcDbEntity
  8
3_ALL_AXES
100
AcDbLine
 62
7
  6
CENTER
 10
1157.3151086957
 20
471.0901456104
 11
1159.6683236281
 21
471.0901456104
  0
LINE
  5
406
100
AcDbEntity
  8
0
100
AcDbLine
 62
7
  6
CONTINUOUS
 10
919.8151086957
 20
512.1501456104
 11
1394.8151086957
 21
512.1501456104
  0
LINE
  5
407
100
AcDbEntity
  8
0
100
AcDbLine
 62
7
  6
CONTINUOUS
 10
1388.8151086957
 20
415.1501456104
 11
1388.8151086957
 21
427.1501456104
  0
LINE
  5
408
100
AcDbEntity
  8
6_COPYGEOM
100
AcDbLine
 62
7
  6
CONTINUOUS
 10
1394.8151086957
 20
427.1501456104
 11
1394.8151086957
 21
415.1501456104
  0
LINE
  5
409
100
AcDbEntity
  8
0
100
AcDbLine
 62
7
  6
CONTINUOUS
 10
1394.8151086957
 20
427.1501456104
 11
1394.8151086957
 21
512.1501456104
  0
LINE
  5
40A
100
AcDbEntity
  8
0
100
AcDbLine
 62
7
  6
CONTINUOUS
 10
919.8151086957
 20
859.5554038064
 11
1394.8151086957
 21
859.5554038064
  0
LINE
  5
40B
100
AcDbEntity
  8
0
100
AcDbLine
 62
7
  6
CONTINUOUS
 10
1372.8151086957
 20
895.5554038064
 11
941.8151086957
 21
895.5554038064
  0
LINE
  5
40C
100
AcDbEntity
  8
0
100
AcDbLine
 62
7
  6
CONTINUOUS
 10
919.8151086957
 20
1563.5554038064
 11
919.8151086957
 21
859.5554038064
  0
LINE
  5
40D
100
AcDbEntity
  8
0
100
AcDbLine
 62
7
  6
CONTINUOUS
 10
941.8151086957
 20
895.5554038064
 11
941.8151086957
 21
1527.5554038064
  0
LINE
  5
40E
100
AcDbEntity
  8
0
100
AcDbLine
 62
7
  6
CONTINUOUS
 10
1146.3151086957
 20
1168.5554038064
 11
941.8151086957
 21
1168.5554038064
  0
LINE
  5
40F
100
AcDbEntity
  8
0
100
AcDbLine
 62
7
  6
CONTINUOUS
 10
1168.3151086957
 20
1168.5554038064
 11
1372.8151086957
 21
1168.5554038064
  0
LINE
  5
410
100
AcDbEntity
  8
0
100
AcDbLine
 62
7
  6
CONTINUOUS
 10
1146.3151086957
 20
1527.5554038064
 11
1146.3151086957
 21
895.5554038064
  0
LINE
  5
411
100
AcDbEntity
  8
3_ALL_AXES
100
AcDbLine
 62
7
  6
CENTER
 10
1157.3151086957
 20
839.2354038064
 11
1157.3151086957
 21
1583.8754038064
  0
LINE
  5
412
100
AcDbEntity
  8
0
100
AcDbLine
 62
7
  6
CONTINUOUS
 10
1146.3151086957
 20
1190.5554038064
 11
941.8151086957
 21
1190.5554038064
  0
LINE
  5
413
100
AcDbEntity
  8
0
100
AcDbLine
 62
7
  6
CONTINUOUS
 10
1168.3151086957
 20
1190.5554038064
 11
1372.8151086957
 21
1190.5554038064
  0
LINE
  5
414
100
AcDbEntity
  8
3_ALL_AXES
100
AcDbLine
 62
7
  6
CENTER
 10
1415.1351086957
 20
1209.6754038064
 11
899.4951086957
 21
1209.6754038064
  0
LINE
  5
415
100
AcDbEntity
  8
0
100
AcDbLine
 62
7
  6
CONTINUOUS
 10
1168.3151086957
 20
895.5554038064
 11
1168.3151086957
 21
1527.5554038064
  0
LINE
  5
416
100
AcDbEntity
  8
DEFAULT_3
100
AcDbLine
 62
7
  6
PHANTOM
 10
1188.3151086957
 20
761.4761701433
 11
1188.3151086957
 21
1630.4673713646
  0
LINE
  5
417
100
AcDbEntity
  8
0
100
AcDbLine
 62
7
  6
CONTINUOUS
 10
1372.8151086957
 20
895.5554038064
 11
1372.8151086957
 21
1527.5554038064
  0
LINE
  5
418
100
AcDbEntity
  8
0
100
AcDbLine
 62
7
  6
CONTINUOUS
 10
1394.8151086957
 20
859.5554038064
 11
1394.8151086957
 21
1563.5554038064
  0
LINE
  5
419
100
AcDbEntity
  8
0
100
AcDbLine
 62
7
  6
CONTINUOUS
 10
941.8151086957
 20
1527.5554038064
 11
1372.8151086957
 21
1527.5554038064
  0
LINE
  5
41A
100
AcDbEntity
  8
0
100
AcDbLine
 62
7
  6
CONTINUOUS
 10
919.8151086957
 20
1563.5554038064
 11
1394.8151086957
 21
1563.5554038064
  0
LINE
  5
41B
100
AcDbEntity
  8
0
100
AcDbLine
 62
7
  6
CONTINUOUS
 10
2413.2895504525
 20
1573.9779651065
 11
2413.2895504525
 21
1643.371085385
  0
LINE
  5
41C
100
AcDbEntity
  8
0
100
AcDbLine
 62
7
  6
CONTINUOUS
 10
2413.2895504525
 20
1573.9779651065
 11
2749.1652715161
 21
1380.00924508
  0
LINE
  5
41D
100
AcDbEntity
  8
0
100
AcDbLine
 62
7
  6
CONTINUOUS
 10
2911.0927244078
 20
1930.8531462243
 11
2413.2895504525
 21
1643.371085385
  0
LINE
  5
41E
100
AcDbEntity
  8
0
100
AcDbLine
 62
7
  6
CONTINUOUS
 10
2413.2895504525
 20
1643.371085385
 11
2749.1652715161
 21
1449.4023653586
  0
LINE
  5
41F
100
AcDbEntity
  8
0
100
AcDbLine
 62
7
  6
CONTINUOUS
 10
2636.0281865262
 20
1705.0570975764
 11
2636.0281865262
 21
1702.6079286254
  0
LINE
  5
420
100
AcDbEntity
  8
0
100
AcDbLine
 62
7
  6
CONTINUOUS
 10
2649.4632153688
 20
1712.8158463775
 11
2649.4632153688
 21
1736.4850519915
  0
LINE
  5
421
100
AcDbEntity
  8
0
100
AcDbLine
 62
7
  6
CONTINUOUS
 10
2623.6434102154
 20
1683.630068401
 11
2626.5368084976
 21
1688.6415811463
  0
LINE
  5
422
100
AcDbEntity
  8
0
100
AcDbLine
 62
7
  6
CONTINUOUS
 10
2454.3017437613
 20
1649.0880581858
 11
2901.1932294712
 21
1907.1685446211
  0
LINE
  5
423
100
AcDbEntity
  8
0
100
AcDbLine
 62
7
  6
CONTINUOUS
 10
2465.6110089846
 20
1642.5569409831
 11
2901.1932294712
 21
1894.1063102157
  0
LINE
  5
424
100
AcDbEntity
  8
0
100
AcDbLine
 62
7
  6
CONTINUOUS
 10
2759.0647664527
 20
1473.0869669618
 11
2454.3017437613
 21
1649.0880581858
  0
LINE
  5
425
100
AcDbEntity
  8
0
100
AcDbLine
 62
7
  6
CONTINUOUS
 10
2913.2140447514
 20
1871.663453201
 11
2892.0008413158
 21
1859.4127971993
  0
LINE
  5
426
100
AcDbEntity
  8
0
100
AcDbLine
 62
7
  6
CONTINUOUS
 10
2636.0281865262
 20
1705.0570975764
 11
2649.4632153688
 21
1712.8158463775
  0
LINE
  5
427
100
AcDbEntity
  8
0
100
AcDbLine
 62
7
  6
CONTINUOUS
 10
2924.1741998598
 20
1865.3339476001
 11
2902.9609964242
 21
1853.0832915985
  0
LINE
  5
428
100
AcDbEntity
  8
0
100
AcDbLine
 62
7
  6
CONTINUOUS
 10
2503.0685067611
 20
1620.9251812475
 11
2601.2500119332
 21
1677.6251440438
  0
LINE
  5
429
100
AcDbEntity
  8
0
100
AcDbLine
 62
7
  6
CONTINUOUS
 10
2634.0368084976
 20
1696.5595670001
 11
2640.269160985
 21
1700.1587596744
  0
LINE
  5
42A
100
AcDbEntity
  8
0
100
AcDbLine
 62
7
  6
CONTINUOUS
 10
2700.3557419878
 20
1734.8588480612
 11
2880.2036371113
 21
1838.7212704658
  0
LINE
  5
42B
100
AcDbEntity
  8
0
100
AcDbLine
 62
7
  6
CONTINUOUS
 10
2924.1741998598
 20
1853.9044924954
 11
2902.9609964242
 21
1841.6538364938
  0
LINE
  5
42C
100
AcDbEntity
  8
0
100
AcDbLine
 62
7
  6
CONTINUOUS
 10
2749.1652715161
 20
1380.00924508
 11
2749.1652715161
 21
1449.4023653586
  0
LINE
  5
42D
100
AcDbEntity
  8
6_COPYGEOM
100
AcDbLine
 62
7
  6
CONTINUOUS
 10
2940.3830923097
 20
1486.8510912967
 11
2943.2764905919
 21
1485.1814620286
  0
LINE
  5
42E
100
AcDbEntity
  8
0
100
AcDbLine
 62
7
  6
CONTINUOUS
 10
2608.7500119332
 20
1678.3696801228
 11
2611.6434102154
 21
1676.7000508548
  0
LINE
  5
42F
100
AcDbEntity
  8
0
100
AcDbLine
 62
7
  6
CONTINUOUS
 10
3045.7965662239
 20
1821.2107372587
 11
2601.0255677433
 21
1564.3548352989
  0
LINE
  5
430
100
AcDbEntity
  8
0
100
AcDbLine
 62
7
  6
CONTINUOUS
 10
2738.2262219672
 20
1643.5884137259
 11
2636.0281865262
 21
1702.6079286254
  0
LINE
  5
431
100
AcDbEntity
  8
0
100
AcDbLine
 62
7
  6
CONTINUOUS
 10
2807.501580964
 20
1603.5817926119
 11
2896.2654206766
 21
1552.3205453888
  0
LINE
  5
432
100
AcDbEntity
  8
0
100
AcDbLine
 62
7
  6
CONTINUOUS
 10
2935.8700964709
 20
1529.4487872082
 11
2939.3144926078
 21
1527.4596434028
  0
LINE
  5
433
100
AcDbEntity
  8
0
100
AcDbLine
 62
7
  6
CONTINUOUS
 10
2740.3467091966
 20
1644.8129982014
 11
2636.0281865262
 21
1705.0570975764
  0
LINE
  5
434
100
AcDbEntity
  8
0
100
AcDbLine
 62
7
  6
CONTINUOUS
 10
2807.501580964
 20
1606.0309615629
 11
2898.385907906
 21
1553.5451298643
  0
LINE
  5
435
100
AcDbEntity
  8
0
100
AcDbLine
 62
7
  6
CONTINUOUS
 10
2936.2555988688
 20
1531.6753279608
 11
2941.0198508902
 21
1528.9239654522
  0
LINE
  5
436
100
AcDbEntity
  8
0
100
AcDbLine
 62
7
  6
CONTINUOUS
 10
2649.4632153688
 20
1712.8158463775
 11
2753.7817380392
 21
1652.5717470025
  0
LINE
  5
437
100
AcDbEntity
  8
0
100
AcDbLine
 62
7
  6
CONTINUOUS
 10
2820.9366098065
 20
1613.789710364
 11
2911.8209367485
 21
1561.3038786653
  0
LINE
  5
438
100
AcDbEntity
  8
0
100
AcDbLine
 62
7
  6
CONTINUOUS
 10
2807.501580964
 20
1606.0309615629
 11
2807.501580964
 21
1603.5817926119
  0
LINE
  5
439
100
AcDbEntity
  8
0
100
AcDbLine
 62
7
  6
CONTINUOUS
 10
2807.501580964
 20
1645.217664779
 11
2807.501580964
 21
1655.0143405831
  0
LINE
  5
43A
100
AcDbEntity
  8
0
100
AcDbLine
 62
7
  6
CONTINUOUS
 10
2820.9366098065
 20
1613.789710364
 11
2820.9366098065
 21
1637.458915978
  0
LINE
  5
43B
100
AcDbEntity
  8
0
100
AcDbLine
 62
7
  6
CONTINUOUS
 10
2616.5819169294
 20
1555.3710208977
 11
3061.35291541
 21
1812.2269228574
  0
LINE
  5
43C
100
AcDbEntity
  8
0
100
AcDbLine
 62
7
  6
CONTINUOUS
 10
2807.501580964
 20
1655.0143405831
 11
2823.0579301501
 21
1663.9981549843
  0
LINE
  5
43D
100
AcDbEntity
  8
0
100
AcDbLine
 62
7
  6
CONTINUOUS
 10
2774.2745048665
 20
1664.4063498094
 11
2638.8599461078
 21
1742.6084554937
  0
LINE
  5
43E
100
AcDbEntity
  8
0
100
AcDbLine
 62
7
  6
CONTINUOUS
 10
2807.501580964
 20
1645.217664779
 11
2932.3137035759
 21
1573.1384814723
  0
LINE
  5
43F
100
AcDbEntity
  8
0
100
AcDbLine
 62
7
  6
CONTINUOUS
 10
2782.756453784
 20
1669.3046877115
 11
2647.3418950252
 21
1747.5067933957
  0
LINE
  5
440
100
AcDbEntity
  8
0
100
AcDbLine
 62
7
  6
CONTINUOUS
 10
2807.501580964
 20
1655.0143405831
 11
2940.7956524933
 21
1578.0368193743
  0
LINE
  5
441
100
AcDbEntity
  8
0
100
AcDbLine
 62
7
  6
CONTINUOUS
 10
2798.3128029701
 20
1678.2885021127
 11
2662.8982442113
 21
1756.4906077969
  0
LINE
  5
442
100
AcDbEntity
  8
0
100
AcDbLine
 62
7
  6
CONTINUOUS
 10
2823.0579301501
 20
1663.9981549843
 11
2956.3520016794
 21
1587.0206337756
  0
LINE
  5
443
100
AcDbEntity
  8
0
100
AcDbLine
 62
7
  6
CONTINUOUS
 10
2807.501580964
 20
1606.0309615629
 11
2820.9366098065
 21
1613.789710364
  0
LINE
  5
444
100
AcDbEntity
  8
0
100
AcDbLine
 62
7
  6
CONTINUOUS
 10
3084.6874391891
 20
1761.2078620828
 11
2869.7086491962
 21
1637.0572965232
  0
LINE
  5
445
100
AcDbEntity
  8
0
100
AcDbLine
 62
7
  6
CONTINUOUS
 10
2809.6220681934
 20
1602.3572081364
 11
2672.4214139694
 21
1523.1236297094
  0
LINE
  5
446
100
AcDbEntity
  8
0
100
AcDbLine
 62
7
  6
CONTINUOUS
 10
2892.0008413158
 20
1859.4127971993
 11
2892.0008413158
 21
1856.9636282483
  0
LINE
  5
447
100
AcDbEntity
  8
0
100
AcDbLine
 62
7
  6
CONTINUOUS
 10
2900.8396760806
 20
1840.4297331429
 11
2900.8396760806
 21
1851.8591882476
  0
LINE
  5
448
100
AcDbEntity
  8
0
100
AcDbLine
 62
7
  6
CONTINUOUS
 10
2901.1932294712
 20
1894.1063102157
 11
2901.1932294712
 21
1907.1685446211
  0
LINE
  5
449
100
AcDbEntity
  8
0
100
AcDbLine
 62
7
  6
CONTINUOUS
 10
2902.9609964242
 20
1841.6538364938
 11
2902.9609964242
 21
1853.0832915985
  0
LINE
  5
44A
100
AcDbEntity
  8
0
100
AcDbLine
 62
7
  6
CONTINUOUS
 10
2913.2140447514
 20
1887.1642718148
 11
2913.2140447514
 21
1871.663453201
  0
LINE
  5
44B
100
AcDbEntity
  8
0
100
AcDbLine
 62
7
  6
CONTINUOUS
 10
2924.1741998598
 20
1865.3339476001
 11
2924.1741998598
 21
1853.9044924954
  0
LINE
  5
44C
100
AcDbEntity
  8
0
100
AcDbLine
 62
7
  6
CONTINUOUS
 10
2759.0647664527
 20
1473.0869669618
 11
3205.9562521626
 21
1731.167453397
  0
LINE
  5
44D
100
AcDbEntity
  8
0
100
AcDbLine
 62
7
  6
CONTINUOUS
 10
2749.1652715161
 20
1449.4023653586
 11
3246.9684454714
 21
1736.8844261978
  0
LINE
  5
44E
100
AcDbEntity
  8
6_COPYGEOM
100
AcDbLine
 62
7
  6
CONTINUOUS
 10
2955.2764905919
 20
1492.1114795748
 11
2958.1698888741
 21
1497.1229923202
  0
LINE
  5
44F
100
AcDbEntity
  8
0
100
AcDbLine
 62
7
  6
CONTINUOUS
 10
3244.8471251279
 20
1677.6956954238
 11
3246.9684454714
 21
1678.920761024
  0
LINE
  5
450
100
AcDbEntity
  8
0
100
AcDbLine
 62
7
  6
CONTINUOUS
 10
2932.8830923097
 20
1486.1065552177
 11
2749.1652715161
 21
1380.00924508
  0
LINE
  5
451
100
AcDbEntity
  8
6_COPYGEOM
100
AcDbLine
 62
7
  6
CONTINUOUS
 10
2965.6698888741
 20
1505.040978174
 11
3211.8367174878
 21
1647.2026816397
  0
LINE
  5
452
100
AcDbEntity
  8
6_COPYGEOM
100
AcDbLine
 62
7
  6
CONTINUOUS
 10
3219.3367174878
 20
1647.9472177187
 11
3222.23011577
 21
1646.2775884506
  0
LINE
  5
453
100
AcDbEntity
  8
0
100
AcDbLine
 62
7
  6
CONTINUOUS
 10
2887.7036371113
 20
1839.4658065448
 11
2890.5970353935
 21
1837.7961772768
  0
LINE
  5
454
100
AcDbEntity
  8
0
100
AcDbLine
 62
7
  6
CONTINUOUS
 10
3191.0461729386
 20
1672.835056872
 11
3187.353044253
 21
1674.967844088
  0
LINE
  5
455
100
AcDbEntity
  8
0
100
AcDbLine
 62
7
  6
CONTINUOUS
 10
3147.9971010074
 20
1697.6959588579
 11
3061.3537485242
 21
1747.7326216056
  0
LINE
  5
456
100
AcDbEntity
  8
0
100
AcDbLine
 62
7
  6
CONTINUOUS
 10
2989.957902298
 20
1788.9638271951
 11
2900.8396760806
 21
1840.4297331429
  0
LINE
  5
457
100
AcDbEntity
  8
0
100
AcDbLine
 62
7
  6
CONTINUOUS
 10
3192.6869731751
 20
1674.3366612873
 11
3187.7919906094
 21
1677.1635208764
  0
LINE
  5
458
100
AcDbEntity
  8
0
100
AcDbLine
 62
7
  6
CONTINUOUS
 10
3150.1175882368
 20
1698.9205433334
 11
3063.4742357535
 21
1748.9572060811
  0
LINE
  5
459
100
AcDbEntity
  8
0
100
AcDbLine
 62
7
  6
CONTINUOUS
 10
2992.0783895274
 20
1790.1884116706
 11
2902.9609964242
 21
1841.6538364938
  0
LINE
  5
45A
100
AcDbEntity
  8
0
100
AcDbLine
 62
7
  6
CONTINUOUS
 10
3061.35291541
 20
1801.6138574031
 11
3061.35291541
 21
1812.2269228574
  0
LINE
  5
45B
100
AcDbEntity
  8
0
100
AcDbLine
 62
7
  6
CONTINUOUS
 10
2892.0008413158
 20
1856.9636282483
 11
2900.8396760806
 21
1851.8591882476
  0
LINE
  5
45C
100
AcDbEntity
  8
0
100
AcDbLine
 62
7
  6
CONTINUOUS
 10
2902.9609964242
 20
1853.0832915985
 11
2892.0008413158
 21
1859.4127971993
  0
LINE
  5
45D
100
AcDbEntity
  8
0
100
AcDbLine
 62
7
  6
CONTINUOUS
 10
2924.1741998598
 20
1853.9044924954
 11
3013.291592963
 21
1802.4390676722
  0
LINE
  5
45E
100
AcDbEntity
  8
0
100
AcDbLine
 62
7
  6
CONTINUOUS
 10
3084.6874391891
 20
1761.2078620828
 11
3171.3307916724
 21
1711.1711993351
  0
LINE
  5
45F
100
AcDbEntity
  8
0
100
AcDbLine
 62
7
  6
CONTINUOUS
 10
2913.2140447514
 20
1871.663453201
 11
2924.1741998598
 21
1865.3339476001
  0
LINE
  5
460
100
AcDbEntity
  8
0
100
AcDbLine
 62
7
  6
CONTINUOUS
 10
3084.6874391891
 20
1788.1381358012
 11
3084.6874391891
 21
1761.2078620828
  0
LINE
  5
461
100
AcDbEntity
  8
0
100
AcDbLine
 62
7
  6
CONTINUOUS
 10
2901.1932294712
 20
1894.1063102157
 11
3036.6077882299
 21
1815.9042045315
  0
LINE
  5
462
100
AcDbEntity
  8
0
100
AcDbLine
 62
7
  6
CONTINUOUS
 10
3061.35291541
 20
1801.6138574031
 11
3194.6469869393
 21
1724.6363361944
  0
LINE
  5
463
100
AcDbEntity
  8
0
100
AcDbLine
 62
7
  6
CONTINUOUS
 10
3045.7965662239
 20
1821.2107372587
 11
3061.35291541
 21
1812.2269228574
  0
LINE
  5
464
100
AcDbEntity
  8
0
100
AcDbLine
 62
7
  6
CONTINUOUS
 10
2901.1932294712
 20
1907.1685446211
 11
3205.9562521626
 21
1731.167453397
  0
LINE
  5
465
100
AcDbEntity
  8
0
100
AcDbLine
 62
7
  6
CONTINUOUS
 10
2911.0927244078
 20
1930.8531462243
 11
3246.9684454714
 21
1736.8844261978
  0
LINE
  5
466
100
AcDbEntity
  8
6_COPYGEOM
100
AcDbLine
 62
7
  6
CONTINUOUS
 10
3232.5630254079
 20
1650.7490157052
 11
3239.3106294794
 21
1659.2725616199
  0
LINE
  5
467
100
AcDbEntity
  8
0
100
AcDbLine
 62
7
  6
CONTINUOUS
 10
3244.8471251279
 20
1673.7007480377
 11
3244.8471251279
 21
1677.6956954238
  0
LINE
  5
468
100
AcDbEntity
  8
0
100
AcDbLine
 62
7
  6
CONTINUOUS
 10
3246.9684454714
 20
1736.8844261978
 11
3246.9684454714
 21
1678.920761024
  0
LINE
  5
469
100
AcDbEntity
  8
0
100
AcDbLine
 62
7
  6
CONTINUOUS
 10
1782.6462448384
 20
859.5554038064
 11
1867.6462448384
 21
859.5554038064
  0
LINE
  5
46A
100
AcDbEntity
  8
0
100
AcDbLine
 62
7
  6
CONTINUOUS
 10
1864.6462448384
 20
862.5554038064
 11
1785.6462448384
 21
862.5554038064
  0
LINE
  5
46B
100
AcDbEntity
  8
0
100
AcDbLine
 62
7
  6
CONTINUOUS
 10
1867.6462448384
 20
892.5554038064
 11
1864.6462448384
 21
892.5554038064
  0
LINE
  5
46C
100
AcDbEntity
  8
0
100
AcDbLine
 62
7
  6
CONTINUOUS
 10
1785.6462448384
 20
892.5554038064
 11
1798.6462448384
 21
892.5554038064
  0
LINE
  5
46D
100
AcDbEntity
  8
0
100
AcDbLine
 62
7
  6
CONTINUOUS
 10
1798.6462448384
 20
895.5554038064
 11
1782.6462448384
 21
895.5554038064
  0
LINE
  5
46E
100
AcDbEntity
  8
3_ALL_AXES
100
AcDbLine
 62
7
  6
CENTER
 10
1817.6462448384
 20
981.0554038064
 11
1797.3261448384
 21
981.0554038064
  0
LINE
  5
46F
100
AcDbEntity
  8
3_ALL_AXES
100
AcDbLine
 62
7
  6
CENTER
 10
1817.6462448384
 20
981.0554038064
 11
1837.9663448384
 21
981.0554038064
  0
LINE
  5
470
100
AcDbEntity
  8
0
100
AcDbLine
 62
7
  6
CONTINUOUS
 10
1872.0396431206
 20
1524.4782393402
 11
1876.1315262126
 21
1528.5701224322
  0
LINE
  5
471
100
AcDbEntity
  8
3_ALL_AXES
100
AcDbLine
 62
7
  6
CENTER
 10
1817.6462448384
 20
1133.4554038064
 11
1797.3261448384
 21
1133.4554038064
  0
LINE
  5
472
100
AcDbEntity
  8
3_ALL_AXES
100
AcDbLine
 62
7
  6
CENTER
 10
1817.6462448384
 20
1133.4554038064
 11
1837.9663448384
 21
1133.4554038064
  0
LINE
  5
473
100
AcDbEntity
  8
0
100
AcDbLine
 62
7
  6
CONTINUOUS
 10
1782.6462448384
 20
859.5554038064
 11
1782.6462448384
 21
1563.5554038064
  0
LINE
  5
474
100
AcDbEntity
  8
0
100
AcDbLine
 62
7
  6
CONTINUOUS
 10
1785.6462448384
 20
1560.5554038064
 11
1785.6462448384
 21
1530.5554038064
  0
LINE
  5
475
100
AcDbEntity
  8
0
100
AcDbLine
 62
7
  6
CONTINUOUS
 10
1785.6462448384
 20
862.5554038064
 11
1785.6462448384
 21
892.5554038064
  0
LINE
  5
476
100
AcDbEntity
  8
0
100
AcDbLine
 62
7
  6
CONTINUOUS
 10
1785.6462448384
 20
895.5554038064
 11
1785.6462448384
 21
1527.5554038064
  0
LINE
  5
477
100
AcDbEntity
  8
0
100
AcDbLine
 62
7
  6
CONTINUOUS
 10
1798.6462448384
 20
1190.5554038064
 11
1798.6462448384
 21
1168.5554038064
  0
LINE
  5
478
100
AcDbEntity
  8
0
100
AcDbLine
 62
7
  6
CONTINUOUS
 10
1798.6462448384
 20
895.5554038064
 11
1798.6462448384
 21
862.5554038064
  0
LINE
  5
479
100
AcDbEntity
  8
0
100
AcDbLine
 62
7
  6
CONTINUOUS
 10
1798.6462448384
 20
1527.5554038064
 11
1798.6462448384
 21
1560.5554038064
  0
LINE
  5
47A
100
AcDbEntity
  8
0
100
AcDbLine
 62
7
  6
CONTINUOUS
 10
1801.6462448384
 20
1171.5554038064
 11
1801.6462448384
 21
1187.5554038064
  0
LINE
  5
47B
100
AcDbEntity
  8
0
100
AcDbLine
 62
7
  6
CONTINUOUS
 10
1798.6462448384
 20
1168.5554038064
 11
1810.6462448384
 21
1168.5554038064
  0
LINE
  5
47C
100
AcDbEntity
  8
0
100
AcDbLine
 62
7
  6
CONTINUOUS
 10
1858.6462448384
 20
1168.5554038064
 11
1861.6462448384
 21
1168.5554038064
  0
LINE
  5
47D
100
AcDbEntity
  8
0
100
AcDbLine
 62
7
  6
CONTINUOUS
 10
1810.6462448384
 20
1171.5554038064
 11
1801.6462448384
 21
1171.5554038064
  0
LINE
  5
47E
100
AcDbEntity
  8
0
100
AcDbLine
 62
7
  6
CONTINUOUS
 10
1801.6462448384
 20
1187.5554038064
 11
1858.6462448384
 21
1187.5554038064
  0
LINE
  5
47F
100
AcDbEntity
  8
0
100
AcDbLine
 62
7
  6
CONTINUOUS
 10
1861.6462448384
 20
1190.5554038064
 11
1798.6462448384
 21
1190.5554038064
  0
LINE
  5
480
100
AcDbEntity
  8
0
100
AcDbLine
 62
7
  6
CONTINUOUS
 10
1810.6462448384
 20
1168.5554038064
 11
1810.6462448384
 21
1171.5554038064
  0
LINE
  5
481
100
AcDbEntity
  8
3_ALL_AXES
100
AcDbLine
 62
7
  6
CENTER
 10
1817.6462448384
 20
1489.0554038064
 11
1817.6462448384
 21
1468.7353038064
  0
LINE
  5
482
100
AcDbEntity
  8
3_ALL_AXES
100
AcDbLine
 62
7
  6
CENTER
 10
1817.6462448384
 20
1438.2554038064
 11
1817.6462448384
 21
1417.9353038064
  0
LINE
  5
483
100
AcDbEntity
  8
3_ALL_AXES
100
AcDbLine
 62
7
  6
CENTER
 10
1817.6462448384
 20
1133.4554038064
 11
1817.6462448384
 21
1113.1353038064
  0
LINE
  5
484
100
AcDbEntity
  8
3_ALL_AXES
100
AcDbLine
 62
7
  6
CENTER
 10
1817.6462448384
 20
981.0554038064
 11
1817.6462448384
 21
960.7353038064
  0
LINE
  5
485
100
AcDbEntity
  8
3_ALL_AXES
100
AcDbLine
 62
7
  6
CENTER
 10
1817.6462448384
 20
981.0554038064
 11
1817.6462448384
 21
1001.3755038064
  0
LINE
  5
486
100
AcDbEntity
  8
3_ALL_AXES
100
AcDbLine
 62
7
  6
CENTER
 10
1817.6462448384
 20
1133.4554038064
 11
1817.6462448384
 21
1153.7755038064
  0
LINE
  5
487
100
AcDbEntity
  8
3_ALL_AXES
100
AcDbLine
 62
7
  6
CENTER
 10
1817.6462448384
 20
1438.2554038064
 11
1817.6462448384
 21
1458.5755038064
  0
LINE
  5
488
100
AcDbEntity
  8
3_ALL_AXES
100
AcDbLine
 62
7
  6
CENTER
 10
1817.6462448384
 20
1489.0554038064
 11
1817.6462448384
 21
1509.3755038064
  0
LINE
  5
489
100
AcDbEntity
  8
0
100
AcDbLine
 62
7
  6
CONTINUOUS
 10
1876.1315262126
 20
1151.0406851807
 11
1872.0396431206
 21
1155.1325682727
  0
LINE
  5
48A
100
AcDbEntity
  8
0
100
AcDbLine
 62
7
  6
CONTINUOUS
 10
1858.6462448384
 20
1187.5554038064
 11
1858.6462448384
 21
1168.5554038064
  0
LINE
  5
48B
100
AcDbEntity
  8
0
100
AcDbLine
 62
7
  6
CONTINUOUS
 10
1861.6462448384
 20
1168.5554038064
 11
1861.6462448384
 21
1190.5554038064
  0
LINE
  5
48C
100
AcDbEntity
  8
0
100
AcDbLine
 62
7
  6
CONTINUOUS
 10
1864.6462448384
 20
1560.5554038064
 11
1864.6462448384
 21
862.5554038064
  0
LINE
  5
48D
100
AcDbEntity
  8
0
100
AcDbLine
 62
7
  6
CONTINUOUS
 10
1867.6462448384
 20
859.5554038064
 11
1867.6462448384
 21
1119.3716376224
  0
LINE
  5
48E
100
AcDbEntity
  8
0
100
AcDbLine
 62
7
  6
CONTINUOUS
 10
1867.6462448384
 20
1165.7391699905
 11
1867.6462448384
 21
1513.8716376224
  0
LINE
  5
48F
100
AcDbEntity
  8
0
100
AcDbLine
 62
7
  6
CONTINUOUS
 10
1867.6462448384
 20
1530.5554038064
 11
1867.6462448384
 21
1563.5554038064
  0
LINE
  5
490
100
AcDbEntity
  8
0
100
AcDbLine
 62
7
  6
CONTINUOUS
 10
1872.0396431206
 20
1129.9782393402
 11
1876.1315262126
 21
1134.0701224322
  0
LINE
  5
491
100
AcDbEntity
  8
0
100
AcDbLine
 62
7
  6
CONTINUOUS
 10
1877.963792422
 20
1543.1830633809
 11
1872.2964071296
 21
1552.7256165724
  0
LINE
  5
492
100
AcDbEntity
  8
3_ALL_AXES
100
AcDbLine
 62
7
  6
CENTER
 10
1817.6462448384
 20
1438.2554038064
 11
1797.3261448384
 21
1438.2554038064
  0
LINE
  5
493
100
AcDbEntity
  8
3_ALL_AXES
100
AcDbLine
 62
7
  6
CENTER
 10
1817.6462448384
 20
1438.2554038064
 11
1837.9663448384
 21
1438.2554038064
  0
LINE
  5
494
100
AcDbEntity
  8
3_ALL_AXES
100
AcDbLine
 62
7
  6
CENTER
 10
1817.6462448384
 20
1489.0554038064
 11
1797.3261448384
 21
1489.0554038064
  0
LINE
  5
495
100
AcDbEntity
  8
3_ALL_AXES
100
AcDbLine
 62
7
  6
CENTER
 10
1817.6462448384
 20
1489.0554038064
 11
1837.9663448384
 21
1489.0554038064
  0
LINE
  5
496
100
AcDbEntity
  8
0
100
AcDbLine
 62
7
  6
CONTINUOUS
 10
1782.6462448384
 20
1527.5554038064
 11
1798.6462448384
 21
1527.5554038064
  0
LINE
  5
497
100
AcDbEntity
  8
0
100
AcDbLine
 62
7
  6
CONTINUOUS
 10
1798.6462448384
 20
1530.5554038064
 11
1785.6462448384
 21
1530.5554038064
  0
LINE
  5
498
100
AcDbEntity
  8
0
100
AcDbLine
 62
7
  6
CONTINUOUS
 10
1864.6462448384
 20
1530.5554038064
 11
1867.6462448384
 21
1530.5554038064
  0
LINE
  5
499
100
AcDbEntity
  8
0
100
AcDbLine
 62
7
  6
CONTINUOUS
 10
1785.6462448384
 20
1560.5554038064
 11
1864.6462448384
 21
1560.5554038064
  0
LINE
  5
49A
100
AcDbEntity
  8
0
100
AcDbLine
 62
7
  6
CONTINUOUS
 10
1867.6462448384
 20
1563.5554038064
 11
1782.6462448384
 21
1563.5554038064
  0
LWPOLYLINE
  5
49B
100
AcDbEntity
  8
0
100
AcDbPolyline
 62
2
  6
CONTINUOUS
 90
5
 70
0
 10
1919.1713967891
 20
1589.155313825
 10
1951.6003038523
 20
1589.155313825
 10
1951.6003038523
 20
1625.731313825
 10
1919.1713967891
 20
1625.731313825
 10
1919.1713967891
 20
1589.155313825
  0
LINE
  5
49C
100
AcDbEntity
  8
0
100
AcDbLine
 62
7
  6
CONTINUOUS
 10
413.2878137285
 20
859.5554038064
 11
498.2878137284
 21
859.5554038064
  0
LINE
  5
49D
100
AcDbEntity
  8
3_ALL_AXES
100
AcDbLine
 62
7
  6
CENTER
 10
463.2878137285
 20
981.0554038064
 11
442.9677137285
 21
981.0554038064
  0
LINE
  5
49E
100
AcDbEntity
  8
3_ALL_AXES
100
AcDbLine
 62
7
  6
CENTER
 10
463.2878137285
 20
981.0554038064
 11
483.6079137285
 21
981.0554038064
  0
LINE
  5
49F
100
AcDbEntity
  8
0
100
AcDbLine
 62
7
  6
CONTINUOUS
 10
402.9702661449
 20
1543.1830633809
 11
408.6376514373
 21
1552.7256165724
  0
LINE
  5
4A0
100
AcDbEntity
  8
3_ALL_AXES
100
AcDbLine
 62
7
  6
CENTER
 10
463.2878137285
 20
1133.4554038064
 11
442.9677137284
 21
1133.4554038064
  0
LINE
  5
4A1
100
AcDbEntity
  8
3_ALL_AXES
100
AcDbLine
 62
7
  6
CENTER
 10
463.2878137285
 20
1133.4554038064
 11
483.6079137285
 21
1133.4554038064
  0
LINE
  5
4A2
100
AcDbEntity
  8
0
100
AcDbLine
 62
7
  6
CONTINUOUS
 10
408.8944154462
 20
1129.9782393402
 11
404.8025323542
 21
1134.0701224322
  0
LINE
  5
4A3
100
AcDbEntity
  8
0
100
AcDbLine
 62
7
  6
CONTINUOUS
 10
413.2878137285
 20
1563.5554038064
 11
413.2878137285
 21
1557.560613185
  0
LINE
  5
4A4
100
AcDbEntity
  8
0
100
AcDbLine
 62
7
  6
CONTINUOUS
 10
413.2878137285
 20
1541.3054038064
 11
413.2878137285
 21
1532.8054038064
  0
LINE
  5
4A5
100
AcDbEntity
  8
0
100
AcDbLine
 62
7
  6
CONTINUOUS
 10
413.2878137285
 20
859.5554038064
 11
413.2878137285
 21
1119.3716376224
  0
LINE
  5
4A6
100
AcDbEntity
  8
0
100
AcDbLine
 62
7
  6
CONTINUOUS
 10
413.2878137285
 20
1165.7391699905
 11
413.2878137285
 21
1513.8716376224
  0
LINE
  5
4A7
100
AcDbEntity
  8
0
100
AcDbLine
 62
7
  6
CONTINUOUS
 10
416.2878137285
 20
1139.6192868177
 11
416.2878137285
 21
1145.4915207952
  0
LINE
  5
4A8
100
AcDbEntity
  8
0
100
AcDbLine
 62
7
  6
CONTINUOUS
 10
427.2878137285
 20
1563.5554038064
 11
427.2878137285
 21
1560.5554038064
  0
LINE
  5
4A9
100
AcDbEntity
  8
3_ALL_AXES
100
AcDbLine
 62
7
  6
CENTER
 10
457.2278137285
 20
1209.6754038064
 11
436.9077137285
 21
1209.6754038064
  0
LINE
  5
4AA
100
AcDbEntity
  8
3_ALL_AXES
100
AcDbLine
 62
7
  6
CENTER
 10
457.2278137285
 20
1209.6754038064
 11
477.5479137284
 21
1209.6754038064
  0
LINE
  5
4AB
100
AcDbEntity
  8
3_ALL_AXES
100
AcDbLine
 62
7
  6
CENTER
 10
457.2278137285
 20
1197.0583686854
 11
457.2278137285
 21
1189.3553038064
  0
LINE
  5
4AC
100
AcDbEntity
  8
3_ALL_AXES
100
AcDbLine
 62
7
  6
CENTER
 10
457.2278137285
 20
1197.0583686854
 11
457.2278137285
 21
1223.2841822061
  0
LINE
  5
4AD
100
AcDbEntity
  8
3_ALL_AXES
100
AcDbLine
 62
7
  6
CENTER
 10
457.2278137285
 20
1223.2841822061
 11
457.2278137285
 21
1229.9955038064
  0
LINE
  5
4AE
100
AcDbEntity
  8
3_ALL_AXES
100
AcDbLine
 62
7
  6
CENTER
 10
463.2878137285
 20
1489.0554038064
 11
463.2878137285
 21
1468.7353038064
  0
LINE
  5
4AF
100
AcDbEntity
  8
3_ALL_AXES
100
AcDbLine
 62
7
  6
CENTER
 10
463.2878137285
 20
1438.2554038064
 11
463.2878137285
 21
1417.9353038064
  0
LINE
  5
4B0
100
AcDbEntity
  8
3_ALL_AXES
100
AcDbLine
 62
7
  6
CENTER
 10
463.2878137285
 20
1133.4554038064
 11
463.2878137285
 21
1113.1353038064
  0
LINE
  5
4B1
100
AcDbEntity
  8
3_ALL_AXES
100
AcDbLine
 62
7
  6
CENTER
 10
463.2878137285
 20
981.0554038064
 11
463.2878137285
 21
960.7353038064
  0
LINE
  5
4B2
100
AcDbEntity
  8
3_ALL_AXES
100
AcDbLine
 62
7
  6
CENTER
 10
463.2878137285
 20
981.0554038064
 11
463.2878137285
 21
1001.3755038064
  0
LINE
  5
4B3
100
AcDbEntity
  8
3_ALL_AXES
100
AcDbLine
 62
7
  6
CENTER
 10
463.2878137285
 20
1133.4554038064
 11
463.2878137285
 21
1153.7755038064
  0
LINE
  5
4B4
100
AcDbEntity
  8
3_ALL_AXES
100
AcDbLine
 62
7
  6
CENTER
 10
463.2878137285
 20
1438.2554038064
 11
463.2878137285
 21
1458.5755038064
  0
LINE
  5
4B5
100
AcDbEntity
  8
3_ALL_AXES
100
AcDbLine
 62
7
  6
CENTER
 10
463.2878137285
 20
1489.0554038064
 11
463.2878137285
 21
1509.3755038064
  0
LINE
  5
4B6
100
AcDbEntity
  8
0
100
AcDbLine
 62
7
  6
CONTINUOUS
 10
404.8025323542
 20
1151.0406851807
 11
408.8944154462
 21
1155.1325682727
  0
LINE
  5
4B7
100
AcDbEntity
  8
0
100
AcDbLine
 62
7
  6
CONTINUOUS
 10
498.2878137284
 20
1563.5554038064
 11
498.2878137284
 21
859.5554038064
  0
LINE
  5
4B8
100
AcDbEntity
  8
0
100
AcDbLine
 62
7
  6
CONTINUOUS
 10
408.8944154462
 20
1524.4782393402
 11
404.8025323542
 21
1528.5701224322
  0
LINE
  5
4B9
100
AcDbEntity
  8
3_ALL_AXES
100
AcDbLine
 62
7
  6
CENTER
 10
463.2878137285
 20
1438.2554038064
 11
442.9677137285
 21
1438.2554038064
  0
LINE
  5
4BA
100
AcDbEntity
  8
3_ALL_AXES
100
AcDbLine
 62
7
  6
CENTER
 10
463.2878137285
 20
1438.2554038064
 11
483.6079137284
 21
1438.2554038064
  0
LINE
  5
4BB
100
AcDbEntity
  8
3_ALL_AXES
100
AcDbLine
 62
7
  6
CENTER
 10
463.2878137285
 20
1489.0554038064
 11
442.9677137285
 21
1489.0554038064
  0
LINE
  5
4BC
100
AcDbEntity
  8
3_ALL_AXES
100
AcDbLine
 62
7
  6
CENTER
 10
463.2878137285
 20
1489.0554038064
 11
483.6079137284
 21
1489.0554038064
  0
LINE
  5
4BD
100
AcDbEntity
  8
0
100
AcDbLine
 62
7
  6
CONTINUOUS
 10
422.3943815487
 20
1560.5554038064
 11
427.2878137285
 21
1560.5554038064
  0
LINE
  5
4BE
100
AcDbEntity
  8
0
100
AcDbLine
 62
7
  6
CONTINUOUS
 10
413.2878137285
 20
1563.5554038064
 11
498.2878137284
 21
1563.5554038064
  0
LWPOLYLINE
  5
4BF
100
AcDbEntity
  8
0
100
AcDbPolyline
 62
7
  6
CONTINUOUS
 90
2
 70
1
 43
2.0
 10
1443.4478402067
 20
75.2374220958
 42
1.0
 10
1463.7678402067
 20
75.2374220958
 42
1.0
  0
LWPOLYLINE
  5
4C0
100
AcDbEntity
  8
0
100
AcDbPolyline
 62
7
  6
CONTINUOUS
 90
2
 70
1
 43
2.0
 10
1448.5278402067
 20
75.2374220958
 42
1.0
 10
1458.6878402067
 20
75.2374220958
 42
1.0
  0
ARC
  5
4C1
100
AcDbEntity
  8
0
100
AcDbCircle
 62
7
  6
CONTINUOUS
 10
2886.2215979667
 20
1853.9012436736
 40
18.7530082567
100
AcDbArc
 50
317.3314002084
 51
321.2529161497
  0
ARC
  5
4C2
100
AcDbEntity
  8
0
100
AcDbCircle
 62
7
  6
CONTINUOUS
 10
1858.5396770181
 20
1544.5554038064
 40
16.0
100
AcDbArc
 50
30.7063558001
 51
54.9993432038
  0
ARC
  5
4C3
100
AcDbEntity
  8
0
100
AcDbCircle
 62
7
  6
CONTINUOUS
 10
1882.6462448384
 20
1119.3716376224
 40
15.0
100
AcDbArc
 50
135.0
 51
180.0
  0
ARC
  5
4C4
100
AcDbEntity
  8
0
100
AcDbCircle
 62
7
  6
CONTINUOUS
 10
1882.6462448384
 20
1165.7391699905
 40
15.0
100
AcDbArc
 50
180.0
 51
225.0
  0
ARC
  5
4C5
100
AcDbEntity
  8
0
100
AcDbCircle
 62
7
  6
CONTINUOUS
 10
1882.6462448384
 20
1513.8716376224
 40
15.0
100
AcDbArc
 50
135.0
 51
180.0
  0
ARC
  5
4C6
100
AcDbEntity
  8
0
100
AcDbCircle
 62
7
  6
CONTINUOUS
 10
1867.6462448384
 20
1142.5554038064
 40
12.0
100
AcDbArc
 50
315.0
 51
45.0
  0
ARC
  5
4C7
100
AcDbEntity
  8
0
100
AcDbCircle
 62
7
  6
CONTINUOUS
 10
1867.6462448384
 20
1537.0554038064
 40
12.0
100
AcDbArc
 50
315.0
 51
30.7063558001
  0
CIRCLE
  5
4C8
100
AcDbEntity
  8
0
100
AcDbCircle
 62
7
  6
CONTINUOUS
 10
1817.6462448384
 20
930.2554038064
 40
10.0
  0
CIRCLE
  5
4C9
100
AcDbEntity
  8
0
100
AcDbCircle
 62
7
  6
CONTINUOUS
 10
1817.6462448384
 20
981.0554038064
 40
10.0
  0
CIRCLE
  5
4CA
100
AcDbEntity
  8
0
100
AcDbCircle
 62
7
  6
CONTINUOUS
 10
1817.6462448384
 20
1031.8554038064
 40
10.0
  0
CIRCLE
  5
4CB
100
AcDbEntity
  8
0
100
AcDbCircle
 62
7
  6
CONTINUOUS
 10
1817.6462448384
 20
1082.6554038064
 40
10.0
  0
CIRCLE
  5
4CC
100
AcDbEntity
  8
0
100
AcDbCircle
 62
7
  6
CONTINUOUS
 10
1817.6462448384
 20
1133.4554038064
 40
10.0
  0
CIRCLE
  5
4CD
100
AcDbEntity
  8
0
100
AcDbCircle
 62
7
  6
CONTINUOUS
 10
1817.6462448384
 20
1235.0554038064
 40
10.0
  0
CIRCLE
  5
4CE
100
AcDbEntity
  8
0
100
AcDbCircle
 62
7
  6
CONTINUOUS
 10
1817.6462448384
 20
1285.8554038064
 40
10.0
  0
CIRCLE
  5
4CF
100
AcDbEntity
  8
0
100
AcDbCircle
 62
7
  6
CONTINUOUS
 10
1817.6462448384
 20
1336.6554038064
 40
10.0
  0
CIRCLE
  5
4D0
100
AcDbEntity
  8
0
100
AcDbCircle
 62
7
  6
CONTINUOUS
 10
1817.6462448384
 20
1387.4554038064
 40
10.0
  0
CIRCLE
  5
4D1
100
AcDbEntity
  8
0
100
AcDbCircle
 62
7
  6
CONTINUOUS
 10
1817.6462448384
 20
1438.2554038064
 40
10.0
  0
CIRCLE
  5
4D2
100
AcDbEntity
  8
0
100
AcDbCircle
 62
7
  6
CONTINUOUS
 10
1817.6462448384
 20
1489.0554038064
 40
10.0
  0
ARC
  5
4D3
100
AcDbEntity
  8
0
100
AcDbCircle
 62
7
  6
CONTINUOUS
 10
1867.6462448384
 20
1537.0554038064
 40
4.25
100
AcDbArc
 50
270.0
 51
90.0
  0
ARC
  5
4D4
100
AcDbEntity
  8
0
100
AcDbCircle
 62
7
  6
CONTINUOUS
 10
1867.6462448384
 20
1142.5554038064
 40
4.25
100
AcDbArc
 50
224.383420906
 51
135.616579094
  0
ARC
  5
4D5
100
AcDbEntity
  8
0
100
AcDbCircle
 62
7
  6
CONTINUOUS
 10
422.3943815487
 20
1544.5554038064
 40
16.0
100
AcDbArc
 50
90.0
 51
149.2936441999
  0
ARC
  5
4D6
100
AcDbEntity
  8
0
100
AcDbCircle
 62
7
  6
CONTINUOUS
 10
398.2878137285
 20
1119.3716376224
 40
15.0
100
AcDbArc
 50
0.0
 51
45.0
  0
ARC
  5
4D7
100
AcDbEntity
  8
0
100
AcDbCircle
 62
7
  6
CONTINUOUS
 10
398.2878137285
 20
1165.7391699905
 40
15.0
100
AcDbArc
 50
315.0
 51
360.0
  0
ARC
  5
4D8
100
AcDbEntity
  8
0
100
AcDbCircle
 62
7
  6
CONTINUOUS
 10
398.2878137285
 20
1513.8716376224
 40
15.0
100
AcDbArc
 50
0.0
 51
45.0
  0
ARC
  5
4D9
100
AcDbEntity
  8
0
100
AcDbCircle
 62
7
  6
CONTINUOUS
 10
413.2878137285
 20
1537.0554038064
 40
12.0
100
AcDbArc
 50
149.2936441999
 51
225.0
  0
ARC
  5
4DA
100
AcDbEntity
  8
0
100
AcDbCircle
 62
7
  6
CONTINUOUS
 10
413.2878137285
 20
1142.5554038064
 40
12.0
100
AcDbArc
 50
135.0
 51
225.0
  0
CIRCLE
  5
4DB
100
AcDbEntity
  8
0
100
AcDbCircle
 62
7
  6
CONTINUOUS
 10
463.2878137285
 20
930.2554038064
 40
10.0
  0
CIRCLE
  5
4DC
100
AcDbEntity
  8
0
100
AcDbCircle
 62
7
  6
CONTINUOUS
 10
463.2878137285
 20
981.0554038064
 40
10.0
  0
CIRCLE
  5
4DD
100
AcDbEntity
  8
0
100
AcDbCircle
 62
7
  6
CONTINUOUS
 10
463.2878137285
 20
1031.8554038064
 40
10.0
  0
CIRCLE
  5
4DE
100
AcDbEntity
  8
0
100
AcDbCircle
 62
7
  6
CONTINUOUS
 10
463.2878137285
 20
1082.6554038064
 40
10.0
  0
CIRCLE
  5
4DF
100
AcDbEntity
  8
0
100
AcDbCircle
 62
7
  6
CONTINUOUS
 10
463.2878137285
 20
1133.4554038064
 40
10.0
  0
CIRCLE
  5
4E0
100
AcDbEntity
  8
0
100
AcDbCircle
 62
7
  6
CONTINUOUS
 10
463.2878137285
 20
1235.0554038064
 40
10.0
  0
CIRCLE
  5
4E1
100
AcDbEntity
  8
0
100
AcDbCircle
 62
7
  6
CONTINUOUS
 10
463.2878137285
 20
1285.8554038064
 40
10.0
  0
CIRCLE
  5
4E2
100
AcDbEntity
  8
0
100
AcDbCircle
 62
7
  6
CONTINUOUS
 10
463.2878137285
 20
1336.6554038064
 40
10.0
  0
CIRCLE
  5
4E3
100
AcDbEntity
  8
0
100
AcDbCircle
 62
7
  6
CONTINUOUS
 10
463.2878137285
 20
1387.4554038064
 40
10.0
  0
CIRCLE
  5
4E4
100
AcDbEntity
  8
0
100
AcDbCircle
 62
7
  6
CONTINUOUS
 10
463.2878137285
 20
1438.2554038064
 40
10.0
  0
CIRCLE
  5
4E5
100
AcDbEntity
  8
0
100
AcDbCircle
 62
7
  6
CONTINUOUS
 10
463.2878137285
 20
1489.0554038064
 40
10.0
  0
CIRCLE
  5
4E6
100
AcDbEntity
  8
0
100
AcDbCircle
 62
7
  6
CONTINUOUS
 10
441.0878137284
 20
1435.0554038064
 40
4.25
  0
CIRCLE
  5
4E7
100
AcDbEntity
  8
0
100
AcDbCircle
 62
7
  6
CONTINUOUS
 10
413.2878137285
 20
1142.5554038064
 40
4.25
  0
CIRCLE
  5
4E8
100
AcDbEntity
  8
0
100
AcDbCircle
 62
7
  6
CONTINUOUS
 10
413.2878137285
 20
1537.0554038064
 40
4.25
  0
CIRCLE
  5
4E9
100
AcDbEntity
  8
0
100
AcDbCircle
 62
7
  6
CONTINUOUS
 10
441.0878137285
 20
1244.5554038064
 40
4.25
  0
SPLINE
  5
4EA
100
AcDbEntity
  8
6_COPYGEOM
100
AcDbSpline
 62
7
  6
CONTINUOUS
 70
0
 71
3
 72
9
 73
5
 74
0
 42
0.0000001
 43
0.0000001
 44
0.0000000001
 40
0.0
 40
0.0
 40
0.0
 40
0.0
 40
0.5230545058
 40
1.0
 40
1.0
 40
1.0
 40
1.0
 10
3239.3106294794
 20
1659.2725616199
 30
0.0
 10
3241.0044264628
 20
1661.412159054
 30
0.0
 10
3243.6306572721
 20
1666.0035056017
 30
0.0
 10
3244.8471251279
 20
1671.2124214024
 30
0.0
 10
3244.8471251279
 20
1673.7007480377
 30
0.0
  0
SPLINE
  5
4EB
100
AcDbEntity
  8
6_COPYGEOM
100
AcDbSpline
 62
7
  6
CONTINUOUS
 70
0
 71
3
 72
11
 73
7
 74
0
 42
0.0000001
 43
0.0000001
 44
0.0000000001
 40
0.0
 40
0.0
 40
0.0
 40
0.0
 40
0.1933345903
 40
0.4202820721
 40
0.69195267
 40
1.0
 40
1.0
 40
1.0
 40
1.0
 10
3222.23011577
 20
1646.2775884506
 30
0.0
 10
3222.9053705779
 20
1645.8879341131
 30
0.0
 10
3224.6577445108
 20
1645.5066663585
 30
0.0
 10
3227.4109756904
 20
1646.2737655706
 30
0.0
 10
3230.1631443479
 20
1648.0699509654
 30
0.0
 10
3231.7920085997
 20
1649.7750704209
 30
0.0
 10
3232.5630254079
 20
1650.7490157052
 30
0.0
  0
SPLINE
  5
4EC
100
AcDbEntity
  8
6_COPYGEOM
100
AcDbSpline
 62
7
  6
CONTINUOUS
 70
0
 71
3
 72
11
 73
7
 74
0
 42
0.0000001
 43
0.0000001
 44
0.0000000001
 40
0.0
 40
0.0
 40
0.0
 40
0.0
 40
0.1864968746
 40
0.415116576
 40
0.6925667375
 40
1.0
 40
1.0
 40
1.0
 40
1.0
 10
2943.2764905919
 20
1485.1814620286
 30
0.0
 10
2944.0861714724
 20
1484.7142374145
 30
0.0
 10
2946.3033616274
 20
1484.3828541362
 30
0.0
 10
2949.5996098814
 20
1485.7397703861
 30
0.0
 10
2952.7569400395
 20
1488.3847499538
 30
0.0
 10
2954.5059851775
 20
1490.7769250724
 30
0.0
 10
2955.2764905919
 20
1492.1114795748
 30
0.0
  0
SPLINE
  5
4ED
100
AcDbEntity
  8
6_COPYGEOM
100
AcDbSpline
 62
7
  6
CONTINUOUS
 70
0
 71
3
 72
9
 73
5
 74
0
 42
0.0000001
 43
0.0000001
 44
0.0000000001
 40
0.0
 40
0.0
 40
0.0
 40
0.0
 40
0.2952450707
 40
1.0
 40
1.0
 40
1.0
 40
1.0
 10
3018.3961784529
 20
1558.1861197806
 30
0.0
 10
3018.3961784529
 20
1557.9709305279
 30
0.0
 10
3018.4440602043
 20
1557.2518198967
 30
0.0
 10
3018.832162177
 20
1556.4966154187
 30
0.0
 10
3019.2774611553
 20
1556.2405767969
 30
0.0
  0
SPLINE
  5
4EE
100
AcDbEntity
  8
6_COPYGEOM
100
AcDbSpline
 62
7
  6
CONTINUOUS
 70
0
 71
3
 72
9
 73
5
 74
0
 42
0.0000001
 43
0.0000001
 44
0.0000000001
 40
0.0
 40
0.0
 40
0.0
 40
0.0
 40
0.2952450707
 40
1.0
 40
1.0
 40
1.0
 40
1.0
 10
3225.2249119499
 20
1654.9343835176
 30
0.0
 10
3225.2249119499
 20
1654.7191942648
 30
0.0
 10
3225.2727937014
 20
1654.0000836336
 30
0.0
 10
3225.6608956741
 20
1653.2448791556
 30
0.0
 10
3226.1061946524
 20
1652.9888405339
 30
0.0
  0
SPLINE
  5
4EF
100
AcDbEntity
  8
6_COPYGEOM
100
AcDbSpline
 62
7
  6
CONTINUOUS
 70
0
 71
3
 72
9
 73
5
 74
0
 42
0.0000001
 43
0.0000001
 44
0.0000000001
 40
0.0
 40
0.0
 40
0.0
 40
0.0
 40
0.2952450707
 40
1.0
 40
1.0
 40
1.0
 40
1.0
 10
2946.2712867718
 20
1493.8382570956
 30
0.0
 10
2946.2712867718
 20
1493.6230678428
 30
0.0
 10
2946.3191685233
 20
1492.9039572116
 30
0.0
 10
2946.707270496
 20
1492.1487527336
 30
0.0
 10
2947.1525694743
 20
1491.8927141119
 30
0.0
  0
SPLINE
  5
4F0
100
AcDbEntity
  8
6_COPYGEOM
100
AcDbSpline
 62
7
  6
CONTINUOUS
 70
0
 71
3
 72
9
 73
5
 74
0
 42
0.0000001
 43
0.0000001
 44
0.0000000001
 40
0.0
 40
0.0
 40
0.0
 40
0.0
 40
0.2952450707
 40
1.0
 40
1.0
 40
1.0
 40
1.0
 10
3153.1000202689
 20
1635.9777853912
 30
0.0
 10
3153.1000202689
 20
1635.7625961385
 30
0.0
 10
3153.1479020204
 20
1635.0434855073
 30
0.0
 10
3153.536003993
 20
1634.2882810293
 30
0.0
 10
3153.9813029714
 20
1634.0322424075
 30
0.0
  0
SPLINE
  5
4F1
100
AcDbEntity
  8
6_COPYGEOM
100
AcDbSpline
 62
7
  6
CONTINUOUS
 70
0
 71
3
 72
9
 73
5
 74
0
 42
0.0000001
 43
0.0000001
 44
0.0000000001
 40
0.0
 40
0.0
 40
0.0
 40
0.0
 40
0.5507928343
 40
1.0
 40
1.0
 40
1.0
 40
1.0
 10
3187.2179224612
 20
1673.8047740314
 30
0.0
 10
3187.2179224612
 20
1672.850491362
 30
0.0
 10
3187.4492256722
 20
1671.0771616333
 30
0.0
 10
3188.6127009565
 20
1669.6197407186
 30
0.0
 10
3189.2862562707
 20
1669.2298153785
 30
0.0
  0
SPLINE
  5
4F2
100
AcDbEntity
  8
6_COPYGEOM
100
AcDbSpline
 62
7
  6
CONTINUOUS
 70
0
 71
3
 72
9
 73
5
 74
0
 42
0.0000001
 43
0.0000001
 44
0.0000000001
 40
0.0
 40
0.0
 40
0.0
 40
0.0
 40
0.5507928343
 40
1.0
 40
1.0
 40
1.0
 40
1.0
 10
3151.2968979769
 20
1653.0603298685
 30
0.0
 10
3151.2968979769
 20
1652.1060471992
 30
0.0
 10
3151.5282011879
 20
1650.3327174705
 30
0.0
 10
3152.6916764722
 20
1648.8752965557
 30
0.0
 10
3153.3652317864
 20
1648.4853712156
 30
0.0
  0
SPLINE
  5
4F3
100
AcDbEntity
  8
6_COPYGEOM
100
AcDbSpline
 62
7
  6
CONTINUOUS
 70
0
 71
3
 72
9
 73
5
 74
0
 42
0.0000001
 43
0.0000001
 44
0.0000000001
 40
0.0
 40
0.0
 40
0.0
 40
0.0
 40
0.5507928343
 40
1.0
 40
1.0
 40
1.0
 40
1.0
 10
3115.3758734926
 20
1632.3158857057
 30
0.0
 10
3115.3758734926
 20
1631.3616030363
 30
0.0
 10
3115.6071767036
 20
1629.5882733077
 30
0.0
 10
3116.770651988
 20
1628.1308523929
 30
0.0
 10
3117.4442073021
 20
1627.7409270528
 30
0.0
  0
SPLINE
  5
4F4
100
AcDbEntity
  8
6_COPYGEOM
100
AcDbSpline
 62
7
  6
CONTINUOUS
 70
0
 71
3
 72
9
 73
5
 74
0
 42
0.0000001
 43
0.0000001
 44
0.0000000001
 40
0.0
 40
0.0
 40
0.0
 40
0.0
 40
0.5507928343
 40
1.0
 40
1.0
 40
1.0
 40
1.0
 10
3079.4548490083
 20
1611.5714415429
 30
0.0
 10
3079.4548490083
 20
1610.6171588735
 30
0.0
 10
3079.6861522193
 20
1608.8438291448
 30
0.0
 10
3080.8496275037
 20
1607.3864082301
 30
0.0
 10
3081.5231828178
 20
1606.99648289
 30
0.0
  0
SPLINE
  5
4F5
100
AcDbEntity
  8
6_COPYGEOM
100
AcDbSpline
 62
7
  6
CONTINUOUS
 70
0
 71
3
 72
9
 73
5
 74
0
 42
0.0000001
 43
0.0000001
 44
0.0000000001
 40
0.0
 40
0.0
 40
0.0
 40
0.0
 40
0.5507928343
 40
1.0
 40
1.0
 40
1.0
 40
1.0
 10
3043.5338245241
 20
1590.82699738
 30
0.0
 10
3043.5338245241
 20
1589.8727147107
 30
0.0
 10
3043.7651277351
 20
1588.099384982
 30
0.0
 10
3044.9286030194
 20
1586.6419640672
 30
0.0
 10
3045.6021583335
 20
1586.2520387271
 30
0.0
  0
SPLINE
  5
4F6
100
AcDbEntity
  8
6_COPYGEOM
100
AcDbSpline
 62
7
  6
CONTINUOUS
 70
0
 71
3
 72
9
 73
5
 74
0
 42
0.0000001
 43
0.0000001
 44
0.0000000001
 40
0.0
 40
0.0
 40
0.0
 40
0.0
 40
0.5507928343
 40
1.0
 40
1.0
 40
1.0
 40
1.0
 10
3007.6128000398
 20
1570.0825532172
 30
0.0
 10
3007.6128000398
 20
1569.1282705478
 30
0.0
 10
3007.8441032508
 20
1567.3549408192
 30
0.0
 10
3009.0075785351
 20
1565.8975199044
 30
0.0
 10
3009.6811338493
 20
1565.5075945643
 30
0.0
  0
SPLINE
  5
4F7
100
AcDbEntity
  8
6_COPYGEOM
100
AcDbSpline
 62
7
  6
CONTINUOUS
 70
0
 71
3
 72
9
 73
5
 74
0
 42
0.0000001
 43
0.0000001
 44
0.0000000001
 40
0.0
 40
0.0
 40
0.0
 40
0.0
 40
0.5507928343
 40
1.0
 40
1.0
 40
1.0
 40
1.0
 10
2935.7707510712
 20
1528.5936648915
 30
0.0
 10
2935.7707510712
 20
1527.6393822222
 30
0.0
 10
2936.0020542822
 20
1525.8660524935
 30
0.0
 10
2937.1655295666
 20
1524.4086315787
 30
0.0
 10
2937.8390848807
 20
1524.0187062386
 30
0.0
  0
SPLINE
  5
4F8
100
AcDbEntity
  8
6_COPYGEOM
100
AcDbSpline
 62
7
  6
CONTINUOUS
 70
0
 71
3
 72
9
 73
5
 74
0
 42
0.0000001
 43
0.0000001
 44
0.0000000001
 40
0.0
 40
0.0
 40
0.0
 40
0.0
 40
0.5507928343
 40
1.0
 40
1.0
 40
1.0
 40
1.0
 10
2899.849726587
 20
1507.8492207287
 30
0.0
 10
2899.849726587
 20
1506.8949380593
 30
0.0
 10
2900.081029798
 20
1505.1216083307
 30
0.0
 10
2901.2445050823
 20
1503.6641874159
 30
0.0
 10
2901.9180603964
 20
1503.2742620758
 30
0.0
  0
SPLINE
  5
4F9
100
AcDbEntity
  8
6_COPYGEOM
100
AcDbSpline
 62
7
  6
CONTINUOUS
 70
0
 71
3
 72
9
 73
5
 74
0
 42
0.0000001
 43
0.0000001
 44
0.0000000001
 40
0.0
 40
0.0
 40
0.0
 40
0.0
 40
0.5507928343
 40
1.0
 40
1.0
 40
1.0
 40
1.0
 10
2863.9287021027
 20
1487.1047765659
 30
0.0
 10
2863.9287021027
 20
1486.1504938965
 30
0.0
 10
2864.1600053137
 20
1484.3771641678
 30
0.0
 10
2865.323480598
 20
1482.9197432531
 30
0.0
 10
2865.9970359122
 20
1482.529817913
 30
0.0
  0
SPLINE
  5
4FA
100
AcDbEntity
  8
6_COPYGEOM
100
AcDbSpline
 62
7
  6
CONTINUOUS
 70
0
 71
3
 72
9
 73
5
 74
0
 42
0.0000001
 43
0.0000001
 44
0.0000000001
 40
0.0
 40
0.0
 40
0.0
 40
0.0
 40
0.5507928343
 40
1.0
 40
1.0
 40
1.0
 40
1.0
 10
2828.0076776184
 20
1466.360332403
 30
0.0
 10
2828.0076776184
 20
1465.4060497337
 30
0.0
 10
2828.2389808294
 20
1463.632720005
 30
0.0
 10
2829.4024561138
 20
1462.1752990902
 30
0.0
 10
2830.0760114279
 20
1461.7853737501
 30
0.0
  0
SPLINE
  5
4FB
100
AcDbEntity
  8
6_COPYGEOM
100
AcDbSpline
 62
7
  6
CONTINUOUS
 70
0
 71
3
 72
9
 73
5
 74
0
 42
0.0000001
 43
0.0000001
 44
0.0000000001
 40
0.0
 40
0.0
 40
0.0
 40
0.0
 40
0.5507928343
 40
1.0
 40
1.0
 40
1.0
 40
1.0
 10
2792.0866531341
 20
1445.6158882402
 30
0.0
 10
2792.0866531341
 20
1444.6616055708
 30
0.0
 10
2792.3179563451
 20
1442.8882758422
 30
0.0
 10
2793.4814316295
 20
1441.4308549274
 30
0.0
 10
2794.1549869436
 20
1441.0409295873
 30
0.0
  0
SPLINE
  5
4FC
100
AcDbEntity
  8
0
100
AcDbSpline
 62
7
  6
CONTINUOUS
 70
0
 71
3
 72
9
 73
5
 74
0
 42
0.0000001
 43
0.0000001
 44
0.0000000001
 40
0.0
 40
0.0
 40
0.0
 40
0.0
 40
0.2679963495
 40
1.0
 40
1.0
 40
1.0
 40
1.0
 10
2801.9861480707
 20
1456.2331234417
 30
0.0
 10
2801.9861480707
 20
1456.4598325468
 30
0.0
 10
2801.9552981303
 20
1457.304696315
 30
0.0
 10
2801.7951888636
 20
1458.1507735168
 30
0.0
 10
2801.5781202018
 20
1458.7307126171
 30
0.0
  0
SPLINE
  5
4FD
100
AcDbEntity
  8
0
100
AcDbSpline
 62
7
  6
CONTINUOUS
 70
0
 71
3
 72
9
 73
5
 74
0
 42
0.0000001
 43
0.0000001
 44
0.0000000001
 40
0.0
 40
0.0
 40
0.0
 40
0.0
 40
0.2679963495
 40
1.0
 40
1.0
 40
1.0
 40
1.0
 10
2837.907172555
 20
1476.9775676045
 30
0.0
 10
2837.907172555
 20
1477.2042767097
 30
0.0
 10
2837.8763226146
 20
1478.0491404778
 30
0.0
 10
2837.7162133479
 20
1478.8952176796
 30
0.0
 10
2837.499144686
 20
1479.4751567799
 30
0.0
  0
SPLINE
  5
4FE
100
AcDbEntity
  8
0
100
AcDbSpline
 62
7
  6
CONTINUOUS
 70
0
 71
3
 72
9
 73
5
 74
0
 42
0.0000001
 43
0.0000001
 44
0.0000000001
 40
0.0
 40
0.0
 40
0.0
 40
0.0
 40
0.7578246443
 40
1.0
 40
1.0
 40
1.0
 40
1.0
 10
2468.3820418597
 20
1640.9587772986
 30
0.0
 10
2468.9339766163
 20
1641.9413535819
 30
0.0
 10
2469.5414709059
 20
1643.3144907261
 30
0.0
 10
2469.9406914832
 20
1644.7479004062
 30
0.0
 10
2470.0235978134
 20
1645.0983735373
 30
0.0
  0
SPLINE
  5
4FF
100
AcDbEntity
  8
0
100
AcDbSpline
 62
7
  6
CONTINUOUS
 70
0
 71
3
 72
9
 73
5
 74
0
 42
0.0000001
 43
0.0000001
 44
0.0000000001
 40
0.0
 40
0.0
 40
0.0
 40
0.0
 40
0.2679963495
 40
1.0
 40
1.0
 40
1.0
 40
1.0
 10
2873.8281970393
 20
1497.7220117673
 30
0.0
 10
2873.8281970393
 20
1497.9487208725
 30
0.0
 10
2873.7973470988
 20
1498.7935846406
 30
0.0
 10
2873.6372378322
 20
1499.6396618424
 30
0.0
 10
2873.4201691703
 20
1500.2196009427
 30
0.0
  0
SPLINE
  5
500
100
AcDbEntity
  8
0
100
AcDbSpline
 62
7
  6
CONTINUOUS
 70
0
 71
3
 72
9
 73
5
 74
0
 42
0.0000001
 43
0.0000001
 44
0.0000000001
 40
0.0
 40
0.0
 40
0.0
 40
0.0
 40
0.2679963495
 40
1.0
 40
1.0
 40
1.0
 40
1.0
 10
2909.7492215236
 20
1518.4664559302
 30
0.0
 10
2909.7492215236
 20
1518.6931650353
 30
0.0
 10
2909.7183715831
 20
1519.5380288035
 30
0.0
 10
2909.5582623165
 20
1520.3841060053
 30
0.0
 10
2909.3411936546
 20
1520.9640451056
 30
0.0
  0
SPLINE
  5
501
100
AcDbEntity
  8
0
100
AcDbSpline
 62
7
  6
CONTINUOUS
 70
0
 71
3
 72
9
 73
5
 74
0
 42
0.0000001
 43
0.0000001
 44
0.0000000001
 40
0.0
 40
0.0
 40
0.0
 40
0.0
 40
0.2679963495
 40
1.0
 40
1.0
 40
1.0
 40
1.0
 10
2945.6702460078
 20
1539.210900093
 30
0.0
 10
2945.6702460078
 20
1539.4376091982
 30
0.0
 10
2945.6393960674
 20
1540.2824729663
 30
0.0
 10
2945.4792868007
 20
1541.1285501681
 30
0.0
 10
2945.2622181389
 20
1541.7084892684
 30
0.0
  0
SPLINE
  5
502
100
AcDbEntity
  8
0
100
AcDbSpline
 62
7
  6
CONTINUOUS
 70
0
 71
3
 72
8
 73
4
 74
0
 42
0.0000001
 43
0.0000001
 44
0.0000000001
 40
0.0
 40
0.0
 40
0.0
 40
0.0
 40
1.0
 40
1.0
 40
1.0
 40
1.0
 10
2496.8053913981
 20
1655.3478206323
 30
0.0
 10
2497.2820281254
 20
1655.4248413788
 30
0.0
 10
2497.7502114747
 20
1655.5669239004
 30
0.0
 10
2498.1967064946
 20
1655.7506545792
 30
0.0
  0
SPLINE
  5
503
100
AcDbEntity
  8
0
100
AcDbSpline
 62
7
  6
CONTINUOUS
 70
0
 71
3
 72
9
 73
5
 74
0
 42
0.0000001
 43
0.0000001
 44
0.0000000001
 40
0.0
 40
0.0
 40
0.0
 40
0.0
 40
0.4738089677
 40
1.0
 40
1.0
 40
1.0
 40
1.0
 10
2498.1967064946
 20
1655.7506545792
 30
0.0
 10
2500.0992037917
 20
1656.5335236019
 30
0.0
 10
2503.4488110989
 20
1659.6352115093
 30
0.0
 10
2505.4186752427
 20
1663.6194614038
 30
0.0
 10
2505.9446222976
 20
1665.8428177001
 30
0.0
  0
SPLINE
  5
504
100
AcDbEntity
  8
0
100
AcDbSpline
 62
7
  6
CONTINUOUS
 70
0
 71
3
 72
9
 73
5
 74
0
 42
0.0000001
 43
0.0000001
 44
0.0000000001
 40
0.0
 40
0.0
 40
0.0
 40
0.0
 40
0.2679963495
 40
1.0
 40
1.0
 40
1.0
 40
1.0
 10
3017.5122949764
 20
1580.6997884187
 30
0.0
 10
3017.5122949764
 20
1580.9264975238
 30
0.0
 10
3017.4814450359
 20
1581.771361292
 30
0.0
 10
3017.3213357693
 20
1582.6174384938
 30
0.0
 10
3017.1042671074
 20
1583.1973775941
 30
0.0
  0
SPLINE
  5
505
100
AcDbEntity
  8
0
100
AcDbSpline
 62
7
  6
CONTINUOUS
 70
0
 71
3
 72
9
 73
5
 74
0
 42
0.0000001
 43
0.0000001
 44
0.0000000001
 40
0.0
 40
0.0
 40
0.0
 40
0.0
 40
0.2619301181
 40
1.0
 40
1.0
 40
1.0
 40
1.0
 10
2496.7005928915
 20
1660.5175368898
 30
0.0
 10
2496.6473423808
 20
1660.2913127059
 30
0.0
 10
2496.4663273779
 20
1659.4227778184
 30
0.0
 10
2496.3745972419
 20
1658.5338004157
 30
0.0
 10
2496.3745972419
 20
1657.8789212292
 30
0.0
  0
SPLINE
  5
506
100
AcDbEntity
  8
0
100
AcDbSpline
 62
7
  6
CONTINUOUS
 70
0
 71
3
 72
9
 73
5
 74
0
 42
0.0000001
 43
0.0000001
 44
0.0000000001
 40
0.0
 40
0.0
 40
0.0
 40
0.0
 40
0.2679963495
 40
1.0
 40
1.0
 40
1.0
 40
1.0
 10
3053.4333194607
 20
1601.4442325815
 30
0.0
 10
3053.4333194607
 20
1601.6709416867
 30
0.0
 10
3053.4024695202
 20
1602.5158054548
 30
0.0
 10
3053.2423602536
 20
1603.3618826566
 30
0.0
 10
3053.0252915917
 20
1603.9418217569
 30
0.0
  0
SPLINE
  5
507
100
AcDbEntity
  8
0
100
AcDbSpline
 62
7
  6
CONTINUOUS
 70
0
 71
3
 72
9
 73
5
 74
0
 42
0.0000001
 43
0.0000001
 44
0.0000000001
 40
0.0
 40
0.0
 40
0.0
 40
0.0
 40
0.2679963495
 40
1.0
 40
1.0
 40
1.0
 40
1.0
 10
3089.3543439449
 20
1622.1886767443
 30
0.0
 10
3089.3543439449
 20
1622.4153858495
 30
0.0
 10
3089.3234940045
 20
1623.2602496176
 30
0.0
 10
3089.1633847378
 20
1624.1063268194
 30
0.0
 10
3088.946316076
 20
1624.6862659197
 30
0.0
  0
SPLINE
  5
508
100
AcDbEntity
  8
0
100
AcDbSpline
 62
7
  6
CONTINUOUS
 70
0
 71
3
 72
8
 73
4
 74
0
 42
0.0000001
 43
0.0000001
 44
0.0000000001
 40
0.0
 40
0.0
 40
0.0
 40
0.0
 40
1.0
 40
1.0
 40
1.0
 40
1.0
 10
2532.7264158824
 20
1676.0922647952
 30
0.0
 10
2533.2030526096
 20
1676.1692855416
 30
0.0
 10
2533.6712359589
 20
1676.3113680632
 30
0.0
 10
2534.1177309789
 20
1676.4950987421
 30
0.0
  0
SPLINE
  5
509
100
AcDbEntity
  8
0
100
AcDbSpline
 62
7
  6
CONTINUOUS
 70
0
 71
3
 72
9
 73
5
 74
0
 42
0.0000001
 43
0.0000001
 44
0.0000000001
 40
0.0
 40
0.0
 40
0.0
 40
0.0
 40
0.4738089677
 40
1.0
 40
1.0
 40
1.0
 40
1.0
 10
2534.1177309789
 20
1676.4950987421
 30
0.0
 10
2536.020228276
 20
1677.2779677647
 30
0.0
 10
2539.3698355831
 20
1680.3796556722
 30
0.0
 10
2541.3396997269
 20
1684.3639055666
 30
0.0
 10
2541.8656467819
 20
1686.587261863
 30
0.0
  0
SPLINE
  5
50A
100
AcDbEntity
  8
0
100
AcDbSpline
 62
7
  6
CONTINUOUS
 70
0
 71
3
 72
9
 73
5
 74
0
 42
0.0000001
 43
0.0000001
 44
0.0000000001
 40
0.0
 40
0.0
 40
0.0
 40
0.0
 40
0.2679963495
 40
1.0
 40
1.0
 40
1.0
 40
1.0
 10
3125.2753684292
 20
1642.9331209071
 30
0.0
 10
3125.2753684292
 20
1643.1598300123
 30
0.0
 10
3125.2445184888
 20
1644.0046937805
 30
0.0
 10
3125.0844092221
 20
1644.8507709823
 30
0.0
 10
3124.8673405602
 20
1645.4307100826
 30
0.0
  0
SPLINE
  5
50B
100
AcDbEntity
  8
0
100
AcDbSpline
 62
7
  6
CONTINUOUS
 70
0
 71
3
 72
9
 73
5
 74
0
 42
0.0000001
 43
0.0000001
 44
0.0000000001
 40
0.0
 40
0.0
 40
0.0
 40
0.0
 40
0.2619301181
 40
1.0
 40
1.0
 40
1.0
 40
1.0
 10
2532.6216173758
 20
1681.2619810527
 30
0.0
 10
2532.568366865
 20
1681.0357568688
 30
0.0
 10
2532.3873518622
 20
1680.1672219812
 30
0.0
 10
2532.2956217262
 20
1679.2782445785
 30
0.0
 10
2532.2956217262
 20
1678.623365392
 30
0.0
  0
SPLINE
  5
50C
100
AcDbEntity
  8
0
100
AcDbSpline
 62
7
  6
CONTINUOUS
 70
0
 71
3
 72
9
 73
5
 74
0
 42
0.0000001
 43
0.0000001
 44
0.0000000001
 40
0.0
 40
0.0
 40
0.0
 40
0.0
 40
0.2679963495
 40
1.0
 40
1.0
 40
1.0
 40
1.0
 10
3161.1963929135
 20
1663.67756507
 30
0.0
 10
3161.1963929135
 20
1663.9042741752
 30
0.0
 10
3161.165542973
 20
1664.7491379433
 30
0.0
 10
3161.0054337064
 20
1665.5952151451
 30
0.0
 10
3160.7883650445
 20
1666.1751542454
 30
0.0
  0
SPLINE
  5
50D
100
AcDbEntity
  8
0
100
AcDbSpline
 62
7
  6
CONTINUOUS
 70
0
 71
3
 72
9
 73
5
 74
0
 42
0.0000001
 43
0.0000001
 44
0.0000000001
 40
0.0
 40
0.0
 40
0.0
 40
0.0
 40
0.2679963495
 40
1.0
 40
1.0
 40
1.0
 40
1.0
 10
3197.1174173978
 20
1684.4220092328
 30
0.0
 10
3197.1174173978
 20
1684.648718338
 30
0.0
 10
3197.0865674573
 20
1685.4935821061
 30
0.0
 10
3196.9264581907
 20
1686.3396593079
 30
0.0
 10
3196.7093895288
 20
1686.9195984082
 30
0.0
  0
SPLINE
  5
50E
100
AcDbEntity
  8
0
100
AcDbSpline
 62
7
  6
CONTINUOUS
 70
0
 71
3
 72
8
 73
4
 74
0
 42
0.0000001
 43
0.0000001
 44
0.0000000001
 40
0.0
 40
0.0
 40
0.0
 40
0.0
 40
1.0
 40
1.0
 40
1.0
 40
1.0
 10
2568.6474403667
 20
1696.836708958
 30
0.0
 10
2569.1240770939
 20
1696.9137297045
 30
0.0
 10
2569.5922604432
 20
1697.0558122261
 30
0.0
 10
2570.0387554631
 20
1697.2395429049
 30
0.0
  0
SPLINE
  5
50F
100
AcDbEntity
  8
0
100
AcDbSpline
 62
7
  6
CONTINUOUS
 70
0
 71
3
 72
9
 73
5
 74
0
 42
0.0000001
 43
0.0000001
 44
0.0000000001
 40
0.0
 40
0.0
 40
0.0
 40
0.0
 40
0.4738089677
 40
1.0
 40
1.0
 40
1.0
 40
1.0
 10
2570.0387554631
 20
1697.2395429049
 30
0.0
 10
2571.9412527603
 20
1698.0224119276
 30
0.0
 10
2575.2908600674
 20
1701.124099835
 30
0.0
 10
2577.2607242112
 20
1705.1083497294
 30
0.0
 10
2577.7866712662
 20
1707.3317060258
 30
0.0
  0
SPLINE
  5
510
100
AcDbEntity
  8
0
100
AcDbSpline
 62
7
  6
CONTINUOUS
 70
0
 71
3
 72
9
 73
5
 74
0
 42
0.0000001
 43
0.0000001
 44
0.0000000001
 40
0.0
 40
0.0
 40
0.0
 40
0.0
 40
0.2619301181
 40
1.0
 40
1.0
 40
1.0
 40
1.0
 10
2568.54264186
 20
1702.0064252155
 30
0.0
 10
2568.4893913493
 20
1701.7802010316
 30
0.0
 10
2568.3083763464
 20
1700.9116661441
 30
0.0
 10
2568.2166462105
 20
1700.0226887414
 30
0.0
 10
2568.2166462105
 20
1699.3678095549
 30
0.0
  0
SPLINE
  5
511
100
AcDbEntity
  8
0
100
AcDbSpline
 62
7
  6
CONTINUOUS
 70
0
 71
3
 72
8
 73
4
 74
0
 42
0.0000001
 43
0.0000001
 44
0.0000000001
 40
0.0
 40
0.0
 40
0.0
 40
0.0
 40
1.0
 40
1.0
 40
1.0
 40
1.0
 10
2604.5684648509
 20
1717.5811531208
 30
0.0
 10
2605.0451015782
 20
1717.6581738673
 30
0.0
 10
2605.5132849275
 20
1717.8002563889
 30
0.0
 10
2605.9597799474
 20
1717.9839870677
 30
0.0
  0
SPLINE
  5
512
100
AcDbEntity
  8
0
100
AcDbSpline
 62
7
  6
CONTINUOUS
 70
0
 71
3
 72
9
 73
5
 74
0
 42
0.0000001
 43
0.0000001
 44
0.0000000001
 40
0.0
 40
0.0
 40
0.0
 40
0.0
 40
0.4738089677
 40
1.0
 40
1.0
 40
1.0
 40
1.0
 10
2605.9597799474
 20
1717.9839870677
 30
0.0
 10
2607.8622772445
 20
1718.7668560904
 30
0.0
 10
2611.2118845517
 20
1721.8685439978
 30
0.0
 10
2613.1817486955
 20
1725.8527938922
 30
0.0
 10
2613.7076957505
 20
1728.0761501886
 30
0.0
  0
SPLINE
  5
513
100
AcDbEntity
  8
0
100
AcDbSpline
 62
7
  6
CONTINUOUS
 70
0
 71
3
 72
9
 73
5
 74
0
 42
0.0000001
 43
0.0000001
 44
0.0000000001
 40
0.0
 40
0.0
 40
0.0
 40
0.0
 40
0.2619301181
 40
1.0
 40
1.0
 40
1.0
 40
1.0
 10
2604.4636663443
 20
1722.7508693783
 30
0.0
 10
2604.4104158336
 20
1722.5246451944
 30
0.0
 10
2604.2294008307
 20
1721.6561103069
 30
0.0
 10
2604.1376706947
 20
1720.7671329042
 30
0.0
 10
2604.1376706947
 20
1720.1122537177
 30
0.0
  0
SPLINE
  5
514
100
AcDbEntity
  8
0
100
AcDbSpline
 62
7
  6
CONTINUOUS
 70
0
 71
3
 72
8
 73
4
 74
0
 42
0.0000001
 43
0.0000001
 44
0.0000000001
 40
0.0
 40
0.0
 40
0.0
 40
0.0
 40
1.0
 40
1.0
 40
1.0
 40
1.0
 10
2676.4105138195
 20
1759.0700414465
 30
0.0
 10
2676.8871505468
 20
1759.147062193
 30
0.0
 10
2677.355333896
 20
1759.2891447146
 30
0.0
 10
2677.801828916
 20
1759.4728753934
 30
0.0
  0
SPLINE
  5
515
100
AcDbEntity
  8
0
100
AcDbSpline
 62
7
  6
CONTINUOUS
 70
0
 71
3
 72
9
 73
5
 74
0
 42
0.0000001
 43
0.0000001
 44
0.0000000001
 40
0.0
 40
0.0
 40
0.0
 40
0.0
 40
0.4738089677
 40
1.0
 40
1.0
 40
1.0
 40
1.0
 10
2677.801828916
 20
1759.4728753934
 30
0.0
 10
2679.7043262131
 20
1760.2557444161
 30
0.0
 10
2683.0539335202
 20
1763.3574323235
 30
0.0
 10
2685.023797664
 20
1767.3416822179
 30
0.0
 10
2685.549744719
 20
1769.5650385143
 30
0.0
  0
SPLINE
  5
516
100
AcDbEntity
  8
0
100
AcDbSpline
 62
7
  6
CONTINUOUS
 70
0
 71
3
 72
9
 73
5
 74
0
 42
0.0000001
 43
0.0000001
 44
0.0000000001
 40
0.0
 40
0.0
 40
0.0
 40
0.0
 40
0.2619301181
 40
1.0
 40
1.0
 40
1.0
 40
1.0
 10
2676.3057153129
 20
1764.239757704
 30
0.0
 10
2676.2524648021
 20
1764.0135335201
 30
0.0
 10
2676.0714497993
 20
1763.1449986326
 30
0.0
 10
2675.9797196633
 20
1762.2560212299
 30
0.0
 10
2675.9797196633
 20
1761.6011420434
 30
0.0
  0
SPLINE
  5
517
100
AcDbEntity
  8
0
100
AcDbSpline
 62
7
  6
CONTINUOUS
 70
0
 71
3
 72
8
 73
4
 74
0
 42
0.0000001
 43
0.0000001
 44
0.0000000001
 40
0.0
 40
0.0
 40
0.0
 40
0.0
 40
1.0
 40
1.0
 40
1.0
 40
1.0
 10
2712.3315383038
 20
1779.8144856093
 30
0.0
 10
2712.808175031
 20
1779.8915063558
 30
0.0
 10
2713.2763583803
 20
1780.0335888774
 30
0.0
 10
2713.7228534002
 20
1780.2173195562
 30
0.0
  0
SPLINE
  5
518
100
AcDbEntity
  8
0
100
AcDbSpline
 62
7
  6
CONTINUOUS
 70
0
 71
3
 72
9
 73
5
 74
0
 42
0.0000001
 43
0.0000001
 44
0.0000000001
 40
0.0
 40
0.0
 40
0.0
 40
0.0
 40
0.4738089677
 40
1.0
 40
1.0
 40
1.0
 40
1.0
 10
2713.7228534002
 20
1780.2173195562
 30
0.0
 10
2715.6253506974
 20
1781.0001885789
 30
0.0
 10
2718.9749580045
 20
1784.1018764863
 30
0.0
 10
2720.9448221483
 20
1788.0861263807
 30
0.0
 10
2721.4707692033
 20
1790.3094826771
 30
0.0
  0
SPLINE
  5
519
100
AcDbEntity
  8
0
100
AcDbSpline
 62
7
  6
CONTINUOUS
 70
0
 71
3
 72
9
 73
5
 74
0
 42
0.0000001
 43
0.0000001
 44
0.0000000001
 40
0.0
 40
0.0
 40
0.0
 40
0.0
 40
0.2619301181
 40
1.0
 40
1.0
 40
1.0
 40
1.0
 10
2712.2267397971
 20
1784.9842018668
 30
0.0
 10
2712.1734892864
 20
1784.7579776829
 30
0.0
 10
2711.9924742835
 20
1783.8894427954
 30
0.0
 10
2711.9007441476
 20
1783.0004653927
 30
0.0
 10
2711.9007441476
 20
1782.3455862062
 30
0.0
  0
SPLINE
  5
51A
100
AcDbEntity
  8
0
100
AcDbSpline
 62
7
  6
CONTINUOUS
 70
0
 71
3
 72
8
 73
4
 74
0
 42
0.0000001
 43
0.0000001
 44
0.0000000001
 40
0.0
 40
0.0
 40
0.0
 40
0.0
 40
1.0
 40
1.0
 40
1.0
 40
1.0
 10
2748.252562788
 20
1800.5589297722
 30
0.0
 10
2748.7291995153
 20
1800.6359505186
 30
0.0
 10
2749.1973828646
 20
1800.7780330402
 30
0.0
 10
2749.6438778845
 20
1800.9617637191
 30
0.0
  0
SPLINE
  5
51B
100
AcDbEntity
  8
0
100
AcDbSpline
 62
7
  6
CONTINUOUS
 70
0
 71
3
 72
9
 73
5
 74
0
 42
0.0000001
 43
0.0000001
 44
0.0000000001
 40
0.0
 40
0.0
 40
0.0
 40
0.0
 40
0.4738089677
 40
1.0
 40
1.0
 40
1.0
 40
1.0
 10
2749.6438778845
 20
1800.9617637191
 30
0.0
 10
2751.5463751817
 20
1801.7446327417
 30
0.0
 10
2754.8959824888
 20
1804.8463206492
 30
0.0
 10
2756.8658466326
 20
1808.8305705436
 30
0.0
 10
2757.3917936876
 20
1811.05392684
 30
0.0
  0
SPLINE
  5
51C
100
AcDbEntity
  8
0
100
AcDbSpline
 62
7
  6
CONTINUOUS
 70
0
 71
3
 72
9
 73
5
 74
0
 42
0.0000001
 43
0.0000001
 44
0.0000000001
 40
0.0
 40
0.0
 40
0.0
 40
0.0
 40
0.2619301181
 40
1.0
 40
1.0
 40
1.0
 40
1.0
 10
2748.1477642814
 20
1805.7286460297
 30
0.0
 10
2748.0945137707
 20
1805.5024218458
 30
0.0
 10
2747.9134987678
 20
1804.6338869582
 30
0.0
 10
2747.8217686318
 20
1803.7449095555
 30
0.0
 10
2747.8217686318
 20
1803.090030369
 30
0.0
  0
SPLINE
  5
51D
100
AcDbEntity
  8
0
100
AcDbSpline
 62
7
  6
CONTINUOUS
 70
0
 71
3
 72
8
 73
4
 74
0
 42
0.0000001
 43
0.0000001
 44
0.0000000001
 40
0.0
 40
0.0
 40
0.0
 40
0.0
 40
1.0
 40
1.0
 40
1.0
 40
1.0
 10
2784.1735872723
 20
1821.303373935
 30
0.0
 10
2784.6502239996
 20
1821.3803946815
 30
0.0
 10
2785.1184073489
 20
1821.5224772031
 30
0.0
 10
2785.5649023688
 20
1821.7062078819
 30
0.0
  0
SPLINE
  5
51E
100
AcDbEntity
  8
0
100
AcDbSpline
 62
7
  6
CONTINUOUS
 70
0
 71
3
 72
9
 73
5
 74
0
 42
0.0000001
 43
0.0000001
 44
0.0000000001
 40
0.0
 40
0.0
 40
0.0
 40
0.0
 40
0.4738089677
 40
1.0
 40
1.0
 40
1.0
 40
1.0
 10
2785.5649023688
 20
1821.7062078819
 30
0.0
 10
2787.4673996659
 20
1822.4890769046
 30
0.0
 10
2790.8170069731
 20
1825.590764812
 30
0.0
 10
2792.7868711169
 20
1829.5750147064
 30
0.0
 10
2793.3128181719
 20
1831.7983710028
 30
0.0
  0
SPLINE
  5
51F
100
AcDbEntity
  8
0
100
AcDbSpline
 62
7
  6
CONTINUOUS
 70
0
 71
3
 72
9
 73
5
 74
0
 42
0.0000001
 43
0.0000001
 44
0.0000000001
 40
0.0
 40
0.0
 40
0.0
 40
0.0
 40
0.2619301181
 40
1.0
 40
1.0
 40
1.0
 40
1.0
 10
2784.0687887657
 20
1826.4730901925
 30
0.0
 10
2784.015538255
 20
1826.2468660086
 30
0.0
 10
2783.8345232521
 20
1825.3783311211
 30
0.0
 10
2783.7427931161
 20
1824.4893537184
 30
0.0
 10
2783.7427931161
 20
1823.8344745318
 30
0.0
  0
SPLINE
  5
520
100
AcDbEntity
  8
0
100
AcDbSpline
 62
7
  6
CONTINUOUS
 70
0
 71
3
 72
8
 73
4
 74
0
 42
0.0000001
 43
0.0000001
 44
0.0000000001
 40
0.0
 40
0.0
 40
0.0
 40
0.0
 40
1.0
 40
1.0
 40
1.0
 40
1.0
 10
2820.0946117566
 20
1842.0478180978
 30
0.0
 10
2820.5712484839
 20
1842.1248388443
 30
0.0
 10
2821.0394318332
 20
1842.2669213659
 30
0.0
 10
2821.4859268531
 20
1842.4506520447
 30
0.0
  0
SPLINE
  5
521
100
AcDbEntity
  8
0
100
AcDbSpline
 62
7
  6
CONTINUOUS
 70
0
 71
3
 72
9
 73
5
 74
0
 42
0.0000001
 43
0.0000001
 44
0.0000000001
 40
0.0
 40
0.0
 40
0.0
 40
0.0
 40
0.4738089677
 40
1.0
 40
1.0
 40
1.0
 40
1.0
 10
2821.4859268531
 20
1842.4506520447
 30
0.0
 10
2823.3884241502
 20
1843.2335210674
 30
0.0
 10
2826.7380314574
 20
1846.3352089748
 30
0.0
 10
2828.7078956011
 20
1850.3194588692
 30
0.0
 10
2829.2338426561
 20
1852.5428151656
 30
0.0
  0
SPLINE
  5
522
100
AcDbEntity
  8
0
100
AcDbSpline
 62
7
  6
CONTINUOUS
 70
0
 71
3
 72
9
 73
5
 74
0
 42
0.0000001
 43
0.0000001
 44
0.0000000001
 40
0.0
 40
0.0
 40
0.0
 40
0.0
 40
0.2619301181
 40
1.0
 40
1.0
 40
1.0
 40
1.0
 10
2819.98981325
 20
1847.2175343553
 30
0.0
 10
2819.9365627392
 20
1846.9913101714
 30
0.0
 10
2819.7555477364
 20
1846.1227752839
 30
0.0
 10
2819.6638176004
 20
1845.2337978812
 30
0.0
 10
2819.6638176004
 20
1844.5789186947
 30
0.0
  0
SPLINE
  5
523
100
AcDbEntity
  8
0
100
AcDbSpline
 62
7
  6
CONTINUOUS
 70
0
 71
3
 72
8
 73
4
 74
0
 42
0.0000001
 43
0.0000001
 44
0.0000000001
 40
0.0
 40
0.0
 40
0.0
 40
0.0
 40
1.0
 40
1.0
 40
1.0
 40
1.0
 10
2856.0156362409
 20
1862.7922622607
 30
0.0
 10
2856.4922729681
 20
1862.8692830071
 30
0.0
 10
2856.9604563174
 20
1863.0113655287
 30
0.0
 10
2857.4069513374
 20
1863.1950962076
 30
0.0
  0
SPLINE
  5
524
100
AcDbEntity
  8
0
100
AcDbSpline
 62
7
  6
CONTINUOUS
 70
0
 71
3
 72
9
 73
5
 74
0
 42
0.0000001
 43
0.0000001
 44
0.0000000001
 40
0.0
 40
0.0
 40
0.0
 40
0.0
 40
0.4738089677
 40
1.0
 40
1.0
 40
1.0
 40
1.0
 10
2857.4069513374
 20
1863.1950962076
 30
0.0
 10
2859.3094486345
 20
1863.9779652302
 30
0.0
 10
2862.6590559416
 20
1867.0796531377
 30
0.0
 10
2864.6289200854
 20
1871.0639030321
 30
0.0
 10
2865.1548671404
 20
1873.2872593285
 30
0.0
  0
SPLINE
  5
525
100
AcDbEntity
  8
0
100
AcDbSpline
 62
7
  6
CONTINUOUS
 70
0
 71
3
 72
9
 73
5
 74
0
 42
0.0000001
 43
0.0000001
 44
0.0000000001
 40
0.0
 40
0.0
 40
0.0
 40
0.0
 40
0.2619301181
 40
1.0
 40
1.0
 40
1.0
 40
1.0
 10
2855.9108377342
 20
1867.9619785182
 30
0.0
 10
2855.8575872235
 20
1867.7357543343
 30
0.0
 10
2855.6765722206
 20
1866.8672194467
 30
0.0
 10
2855.5848420847
 20
1865.978242044
 30
0.0
 10
2855.5848420847
 20
1865.3233628575
 30
0.0
  0
SPLINE
  5
526
100
AcDbEntity
  8
0
100
AcDbSpline
 62
7
  6
CONTINUOUS
 70
0
 71
3
 72
10
 73
6
 74
0
 42
0.0000001
 43
0.0000001
 44
0.0000000001
 40
0.0
 40
0.0
 40
0.0
 40
0.0
 40
0.4227036001
 40
0.7224444811
 40
1.0
 40
1.0
 40
1.0
 40
1.0
 10
2826.59606483
 20
1832.9129364016
 30
0.0
 10
2825.5940514052
 20
1833.4890754649
 30
0.0
 10
2823.2457044331
 20
1832.0839447061
 30
0.0
 10
2821.9175100417
 20
1829.8466375549
 30
0.0
 10
2821.4669398924
 20
1828.2553218421
 30
0.0
 10
2821.4669398924
 20
1827.4963742174
 30
0.0
  0
SPLINE
  5
527
100
AcDbEntity
  8
0
100
AcDbSpline
 62
7
  6
CONTINUOUS
 70
0
 71
3
 72
10
 73
6
 74
0
 42
0.0000001
 43
0.0000001
 44
0.0000000001
 40
0.0
 40
0.0
 40
0.0
 40
0.0
 40
0.4227036001
 40
0.7224444811
 40
1.0
 40
1.0
 40
1.0
 40
1.0
 10
2619.767331333
 20
1690.7734081059
 30
0.0
 10
2618.7653179081
 20
1691.3495471693
 30
0.0
 10
2616.416970936
 20
1689.9444164104
 30
0.0
 10
2615.0887765446
 20
1687.7071092592
 30
0.0
 10
2614.6382063954
 20
1686.1157935464
 30
0.0
 10
2614.6382063954
 20
1685.3568459217
 30
0.0
  0
SPLINE
  5
528
100
AcDbEntity
  8
0
100
AcDbSpline
 62
7
  6
CONTINUOUS
 70
0
 71
3
 72
10
 73
6
 74
0
 42
0.0000001
 43
0.0000001
 44
0.0000000001
 40
0.0
 40
0.0
 40
0.0
 40
0.0
 40
0.4227036001
 40
0.7224444811
 40
1.0
 40
1.0
 40
1.0
 40
1.0
 10
2898.7209565111
 20
1851.8695345279
 30
0.0
 10
2897.7189430862
 20
1852.4456735913
 30
0.0
 10
2895.3705961141
 20
1851.0405428324
 30
0.0
 10
2894.0424017227
 20
1848.8032356812
 30
0.0
 10
2893.5918315734
 20
1847.2119199684
 30
0.0
 10
2893.5918315734
 20
1846.4529723437
 30
0.0
  0
SPLINE
  5
529
100
AcDbEntity
  8
0
100
AcDbSpline
 62
7
  6
CONTINUOUS
 70
0
 71
3
 72
10
 73
6
 74
0
 42
0.0000001
 43
0.0000001
 44
0.0000000001
 40
0.0
 40
0.0
 40
0.0
 40
0.0
 40
0.4227036001
 40
0.7224444811
 40
1.0
 40
1.0
 40
1.0
 40
1.0
 10
2691.892223014
 20
1755.1212707909
 30
0.0
 10
2690.8902095891
 20
1755.6974098543
 30
0.0
 10
2688.541862617
 20
1754.2922790955
 30
0.0
 10
2687.2136682257
 20
1752.0549719442
 30
0.0
 10
2686.7630980764
 20
1750.4636562315
 30
0.0
 10
2686.7630980764
 20
1749.7047086068
 30
0.0
  0
SPLINE
  5
52A
100
AcDbEntity
  8
6_COPYGEOM
100
AcDbSpline
 62
7
  6
CONTINUOUS
 70
0
 71
3
 72
9
 73
5
 74
0
 42
0.0000001
 43
0.0000001
 44
0.0000000001
 40
0.0
 40
0.0
 40
0.0
 40
0.0
 40
0.5507823937
 40
1.0
 40
1.0
 40
1.0
 40
1.0
 10
3211.8367174878
 20
1647.2026816397
 30
0.0
 10
3213.0772513394
 20
1647.9190917529
 30
0.0
 10
3215.55601549
 20
1648.9496453283
 30
0.0
 10
3218.3247404976
 20
1648.5311768686
 30
0.0
 10
3219.3367174878
 20
1647.9472177187
 30
0.0
  0
SPLINE
  5
52B
100
AcDbEntity
  8
0
100
AcDbSpline
 62
7
  6
CONTINUOUS
 70
0
 71
3
 72
8
 73
4
 74
0
 42
0.0000001
 43
0.0000001
 44
0.0000000001
 40
0.0
 40
0.0
 40
0.0
 40
0.0
 40
1.0
 40
1.0
 40
1.0
 40
1.0
 10
2642.8950850738
 20
1551.1783300157
 30
0.0
 10
2643.2462403158
 20
1550.723866446
 30
0.0
 10
2643.4974470087
 20
1550.1855710578
 30
0.0
 10
2643.6613545451
 20
1549.6351335412
 30
0.0
  0
SPLINE
  5
52C
100
AcDbEntity
  8
0
100
AcDbSpline
 62
7
  6
CONTINUOUS
 70
0
 71
3
 72
9
 73
5
 74
0
 42
0.0000001
 43
0.0000001
 44
0.0000000001
 40
0.0
 40
0.0
 40
0.0
 40
0.0
 40
0.2357742758
 40
1.0
 40
1.0
 40
1.0
 40
1.0
 10
2643.6613545451
 20
1549.6351335412
 30
0.0
 10
2643.709759396
 20
1549.4725794175
 30
0.0
 10
2643.8849253656
 20
1548.7742077157
 30
0.0
 10
2643.9477824755
 20
1548.0502686546
 30
0.0
 10
2643.9477824755
 20
1547.5005106541
 30
0.0
  0
SPLINE
  5
52D
100
AcDbEntity
  8
6_COPYGEOM
100
AcDbSpline
 62
7
  6
CONTINUOUS
 70
0
 71
3
 72
9
 73
5
 74
0
 42
0.0000001
 43
0.0000001
 44
0.0000000001
 40
0.0
 40
0.0
 40
0.0
 40
0.0
 40
0.2671369294
 40
1.0
 40
1.0
 40
1.0
 40
1.0
 10
2958.1698888741
 20
1497.1229923202
 30
0.0
 10
2958.6582650841
 20
1497.9688847147
 30
0.0
 10
2960.6600448519
 20
1501.0218654156
 30
0.0
 10
2963.3494208095
 20
1503.7009044737
 30
0.0
 10
2965.6698888741
 20
1505.040978174
 30
0.0
  0
SPLINE
  5
52E
100
AcDbEntity
  8
0
100
AcDbSpline
 62
7
  6
CONTINUOUS
 70
0
 71
3
 72
9
 73
5
 74
0
 42
0.0000001
 43
0.0000001
 44
0.0000000001
 40
0.0
 40
0.0
 40
0.0
 40
0.0
 40
0.4492071657
 40
1.0
 40
1.0
 40
1.0
 40
1.0
 10
2669.9163254891
 20
1554.2778265628
 30
0.0
 10
2669.242770175
 20
1554.6677519029
 30
0.0
 10
2668.0792948906
 20
1556.1251728176
 30
0.0
 10
2667.8479916796
 20
1557.8985025463
 30
0.0
 10
2667.8479916796
 20
1558.8527852157
 30
0.0
  0
SPLINE
  5
52F
100
AcDbEntity
  8
0
100
AcDbSpline
 62
7
  6
CONTINUOUS
 70
0
 71
3
 72
8
 73
4
 74
0
 42
0.0000001
 43
0.0000001
 44
0.0000000001
 40
0.0
 40
0.0
 40
0.0
 40
0.0
 40
1.0
 40
1.0
 40
1.0
 40
1.0
 10
2678.8161095581
 20
1571.9227741785
 30
0.0
 10
2679.1672648
 20
1571.4683106088
 30
0.0
 10
2679.418471493
 20
1570.9300152206
 30
0.0
 10
2679.5823790294
 20
1570.379577704
 30
0.0
  0
SPLINE
  5
530
100
AcDbEntity
  8
0
100
AcDbSpline
 62
7
  6
CONTINUOUS
 70
0
 71
3
 72
9
 73
5
 74
0
 42
0.0000001
 43
0.0000001
 44
0.0000000001
 40
0.0
 40
0.0
 40
0.0
 40
0.0
 40
0.2357742758
 40
1.0
 40
1.0
 40
1.0
 40
1.0
 10
2679.5823790294
 20
1570.379577704
 30
0.0
 10
2679.6307838803
 20
1570.2170235804
 30
0.0
 10
2679.8059498499
 20
1569.5186518786
 30
0.0
 10
2679.8688069598
 20
1568.7947128174
 30
0.0
 10
2679.8688069598
 20
1568.244954817
 30
0.0
  0
SPLINE
  5
531
100
AcDbEntity
  8
6_COPYGEOM
100
AcDbSpline
 62
7
  6
CONTINUOUS
 70
0
 71
3
 72
9
 73
5
 74
0
 42
0.0000001
 43
0.0000001
 44
0.0000000001
 40
0.0
 40
0.0
 40
0.0
 40
0.0
 40
0.5507823937
 40
1.0
 40
1.0
 40
1.0
 40
1.0
 10
2932.8830923097
 20
1486.1065552177
 30
0.0
 10
2934.1236261613
 20
1486.8229653309
 30
0.0
 10
2936.6023903119
 20
1487.8535189063
 30
0.0
 10
2939.3711153195
 20
1487.4350504466
 30
0.0
 10
2940.3830923097
 20
1486.8510912967
 30
0.0
  0
SPLINE
  5
532
100
AcDbEntity
  8
0
100
AcDbSpline
 62
7
  6
CONTINUOUS
 70
0
 71
3
 72
9
 73
5
 74
0
 42
0.0000001
 43
0.0000001
 44
0.0000000001
 40
0.0
 40
0.0
 40
0.0
 40
0.0
 40
0.4492071657
 40
1.0
 40
1.0
 40
1.0
 40
1.0
 10
2705.8373499734
 20
1575.0222707256
 30
0.0
 10
2705.1637946593
 20
1575.4121960657
 30
0.0
 10
2704.0003193749
 20
1576.8696169805
 30
0.0
 10
2703.7690161639
 20
1578.6429467091
 30
0.0
 10
2703.7690161639
 20
1579.5972293785
 30
0.0
  0
SPLINE
  5
533
100
AcDbEntity
  8
0
100
AcDbSpline
 62
7
  6
CONTINUOUS
 70
0
 71
3
 72
8
 73
4
 74
0
 42
0.0000001
 43
0.0000001
 44
0.0000000001
 40
0.0
 40
0.0
 40
0.0
 40
0.0
 40
1.0
 40
1.0
 40
1.0
 40
1.0
 10
2714.7371340424
 20
1592.6672183414
 30
0.0
 10
2715.0882892843
 20
1592.2127547716
 30
0.0
 10
2715.3394959773
 20
1591.6744593835
 30
0.0
 10
2715.5034035137
 20
1591.1240218668
 30
0.0
  0
SPLINE
  5
534
100
AcDbEntity
  8
0
100
AcDbSpline
 62
7
  6
CONTINUOUS
 70
0
 71
3
 72
9
 73
5
 74
0
 42
0.0000001
 43
0.0000001
 44
0.0000000001
 40
0.0
 40
0.0
 40
0.0
 40
0.0
 40
0.2357742758
 40
1.0
 40
1.0
 40
1.0
 40
1.0
 10
2715.5034035137
 20
1591.1240218668
 30
0.0
 10
2715.5518083646
 20
1590.9614677432
 30
0.0
 10
2715.7269743342
 20
1590.2630960414
 30
0.0
 10
2715.7898314441
 20
1589.5391569803
 30
0.0
 10
2715.7898314441
 20
1588.9893989798
 30
0.0
  0
SPLINE
  5
535
100
AcDbEntity
  8
0
100
AcDbSpline
 62
7
  6
CONTINUOUS
 70
0
 71
3
 72
9
 73
5
 74
0
 42
0.0000001
 43
0.0000001
 44
0.0000000001
 40
0.0
 40
0.0
 40
0.0
 40
0.0
 40
0.4492071657
 40
1.0
 40
1.0
 40
1.0
 40
1.0
 10
2741.7583744577
 20
1595.7667148884
 30
0.0
 10
2741.0848191436
 20
1596.1566402285
 30
0.0
 10
2739.9213438592
 20
1597.6140611433
 30
0.0
 10
2739.6900406482
 20
1599.387390872
 30
0.0
 10
2739.6900406482
 20
1600.3416735413
 30
0.0
  0
SPLINE
  5
536
100
AcDbEntity
  8
0
100
AcDbSpline
 62
7
  6
CONTINUOUS
 70
0
 71
3
 72
8
 73
4
 74
0
 42
0.0000001
 43
0.0000001
 44
0.0000000001
 40
0.0
 40
0.0
 40
0.0
 40
0.0
 40
1.0
 40
1.0
 40
1.0
 40
1.0
 10
2750.6581585266
 20
1613.4116625042
 30
0.0
 10
2751.0093137686
 20
1612.9571989345
 30
0.0
 10
2751.2605204616
 20
1612.4189035463
 30
0.0
 10
2751.4244279979
 20
1611.8684660297
 30
0.0
  0
SPLINE
  5
537
100
AcDbEntity
  8
0
100
AcDbSpline
 62
7
  6
CONTINUOUS
 70
0
 71
3
 72
9
 73
5
 74
0
 42
0.0000001
 43
0.0000001
 44
0.0000000001
 40
0.0
 40
0.0
 40
0.0
 40
0.0
 40
0.2357742758
 40
1.0
 40
1.0
 40
1.0
 40
1.0
 10
2751.4244279979
 20
1611.8684660297
 30
0.0
 10
2751.4728328489
 20
1611.705911906
 30
0.0
 10
2751.6479988185
 20
1611.0075402042
 30
0.0
 10
2751.7108559284
 20
1610.2836011431
 30
0.0
 10
2751.7108559284
 20
1609.7338431426
 30
0.0
  0
SPLINE
  5
538
100
AcDbEntity
  8
0
100
AcDbSpline
 62
7
  6
CONTINUOUS
 70
0
 71
3
 72
9
 73
5
 74
0
 42
0.0000001
 43
0.0000001
 44
0.0000000001
 40
0.0
 40
0.0
 40
0.0
 40
0.0
 40
0.4492071657
 40
1.0
 40
1.0
 40
1.0
 40
1.0
 10
2777.679398942
 20
1616.5111590513
 30
0.0
 10
2777.0058436278
 20
1616.9010843914
 30
0.0
 10
2775.8423683435
 20
1618.3585053061
 30
0.0
 10
2775.6110651325
 20
1620.1318350348
 30
0.0
 10
2775.6110651325
 20
1621.0861177042
 30
0.0
  0
SPLINE
  5
539
100
AcDbEntity
  8
0
100
AcDbSpline
 62
7
  6
CONTINUOUS
 70
0
 71
3
 72
8
 73
4
 74
0
 42
0.0000001
 43
0.0000001
 44
0.0000000001
 40
0.0
 40
0.0
 40
0.0
 40
0.0
 40
1.0
 40
1.0
 40
1.0
 40
1.0
 10
2786.5791830109
 20
1634.156106667
 30
0.0
 10
2786.9303382529
 20
1633.7016430973
 30
0.0
 10
2787.1815449458
 20
1633.1633477091
 30
0.0
 10
2787.3454524822
 20
1632.6129101925
 30
0.0
  0
SPLINE
  5
53A
100
AcDbEntity
  8
0
100
AcDbSpline
 62
7
  6
CONTINUOUS
 70
0
 71
3
 72
9
 73
5
 74
0
 42
0.0000001
 43
0.0000001
 44
0.0000000001
 40
0.0
 40
0.0
 40
0.0
 40
0.0
 40
0.2357742758
 40
1.0
 40
1.0
 40
1.0
 40
1.0
 10
2787.3454524822
 20
1632.6129101925
 30
0.0
 10
2787.3938573331
 20
1632.4503560689
 30
0.0
 10
2787.5690233027
 20
1631.7519843671
 30
0.0
 10
2787.6318804126
 20
1631.0280453059
 30
0.0
 10
2787.6318804126
 20
1630.4782873054
 30
0.0
  0
SPLINE
  5
53B
100
AcDbEntity
  8
0
100
AcDbSpline
 62
7
  6
CONTINUOUS
 70
0
 71
3
 72
9
 73
5
 74
0
 42
0.0000001
 43
0.0000001
 44
0.0000000001
 40
0.0
 40
0.0
 40
0.0
 40
0.0
 40
0.4492071657
 40
1.0
 40
1.0
 40
1.0
 40
1.0
 10
2849.5214479105
 20
1658.0000473769
 30
0.0
 10
2848.8478925964
 20
1658.389972717
 30
0.0
 10
2847.684417312
 20
1659.8473936318
 30
0.0
 10
2847.453114101
 20
1661.6207233605
 30
0.0
 10
2847.453114101
 20
1662.5750060298
 30
0.0
  0
SPLINE
  5
53C
100
AcDbEntity
  8
0
100
AcDbSpline
 62
7
  6
CONTINUOUS
 70
0
 71
3
 72
8
 73
4
 74
0
 42
0.0000001
 43
0.0000001
 44
0.0000000001
 40
0.0
 40
0.0
 40
0.0
 40
0.0
 40
1.0
 40
1.0
 40
1.0
 40
1.0
 10
2858.4212319795
 20
1675.6449949927
 30
0.0
 10
2858.7723872214
 20
1675.190531423
 30
0.0
 10
2859.0235939144
 20
1674.6522360348
 30
0.0
 10
2859.1875014508
 20
1674.1017985182
 30
0.0
  0
SPLINE
  5
53D
100
AcDbEntity
  8
0
100
AcDbSpline
 62
7
  6
CONTINUOUS
 70
0
 71
3
 72
9
 73
5
 74
0
 42
0.0000001
 43
0.0000001
 44
0.0000000001
 40
0.0
 40
0.0
 40
0.0
 40
0.0
 40
0.2357742758
 40
1.0
 40
1.0
 40
1.0
 40
1.0
 10
2859.1875014508
 20
1674.1017985182
 30
0.0
 10
2859.2359063017
 20
1673.9392443945
 30
0.0
 10
2859.4110722713
 20
1673.2408726927
 30
0.0
 10
2859.4739293812
 20
1672.5169336316
 30
0.0
 10
2859.4739293812
 20
1671.9671756311
 30
0.0
  0
SPLINE
  5
53E
100
AcDbEntity
  8
0
100
AcDbSpline
 62
7
  6
CONTINUOUS
 70
0
 71
3
 72
9
 73
5
 74
0
 42
0.0000001
 43
0.0000001
 44
0.0000000001
 40
0.0
 40
0.0
 40
0.0
 40
0.0
 40
0.4492071657
 40
1.0
 40
1.0
 40
1.0
 40
1.0
 10
2885.4424723948
 20
1678.7444915398
 30
0.0
 10
2884.7689170807
 20
1679.1344168799
 30
0.0
 10
2883.6054417963
 20
1680.5918377946
 30
0.0
 10
2883.3741385853
 20
1682.3651675233
 30
0.0
 10
2883.3741385853
 20
1683.3194501927
 30
0.0
  0
SPLINE
  5
53F
100
AcDbEntity
  8
0
100
AcDbSpline
 62
7
  6
CONTINUOUS
 70
0
 71
3
 72
8
 73
4
 74
0
 42
0.0000001
 43
0.0000001
 44
0.0000000001
 40
0.0
 40
0.0
 40
0.0
 40
0.0
 40
1.0
 40
1.0
 40
1.0
 40
1.0
 10
2894.3422564637
 20
1696.3894391555
 30
0.0
 10
2894.6934117057
 20
1695.9349755858
 30
0.0
 10
2894.9446183987
 20
1695.3966801976
 30
0.0
 10
2895.108525935
 20
1694.846242681
 30
0.0
  0
SPLINE
  5
540
100
AcDbEntity
  8
0
100
AcDbSpline
 62
7
  6
CONTINUOUS
 70
0
 71
3
 72
9
 73
5
 74
0
 42
0.0000001
 43
0.0000001
 44
0.0000000001
 40
0.0
 40
0.0
 40
0.0
 40
0.0
 40
0.2357742758
 40
1.0
 40
1.0
 40
1.0
 40
1.0
 10
2895.108525935
 20
1694.846242681
 30
0.0
 10
2895.156930786
 20
1694.6836885574
 30
0.0
 10
2895.3320967556
 20
1693.9853168556
 30
0.0
 10
2895.3949538655
 20
1693.2613777944
 30
0.0
 10
2895.3949538655
 20
1692.7116197939
 30
0.0
  0
SPLINE
  5
541
100
AcDbEntity
  8
0
100
AcDbSpline
 62
7
  6
CONTINUOUS
 70
0
 71
3
 72
9
 73
5
 74
0
 42
0.0000001
 43
0.0000001
 44
0.0000000001
 40
0.0
 40
0.0
 40
0.0
 40
0.0
 40
0.4492071657
 40
1.0
 40
1.0
 40
1.0
 40
1.0
 10
2921.3634968791
 20
1699.4889357026
 30
0.0
 10
2920.6899415649
 20
1699.8788610427
 30
0.0
 10
2919.5264662806
 20
1701.3362819575
 30
0.0
 10
2919.2951630696
 20
1703.1096116861
 30
0.0
 10
2919.2951630696
 20
1704.0638943555
 30
0.0
  0
SPLINE
  5
542
100
AcDbEntity
  8
0
100
AcDbSpline
 62
7
  6
CONTINUOUS
 70
0
 71
3
 72
8
 73
4
 74
0
 42
0.0000001
 43
0.0000001
 44
0.0000000001
 40
0.0
 40
0.0
 40
0.0
 40
0.0
 40
1.0
 40
1.0
 40
1.0
 40
1.0
 10
2930.263280948
 20
1717.1338833184
 30
0.0
 10
2930.61443619
 20
1716.6794197486
 30
0.0
 10
2930.865642883
 20
1716.1411243605
 30
0.0
 10
2931.0295504193
 20
1715.5906868438
 30
0.0
  0
SPLINE
  5
543
100
AcDbEntity
  8
0
100
AcDbSpline
 62
7
  6
CONTINUOUS
 70
0
 71
3
 72
9
 73
5
 74
0
 42
0.0000001
 43
0.0000001
 44
0.0000000001
 40
0.0
 40
0.0
 40
0.0
 40
0.0
 40
0.2357742758
 40
1.0
 40
1.0
 40
1.0
 40
1.0
 10
2931.0295504193
 20
1715.5906868438
 30
0.0
 10
2931.0779552702
 20
1715.4281327202
 30
0.0
 10
2931.2531212399
 20
1714.7297610184
 30
0.0
 10
2931.3159783498
 20
1714.0058219573
 30
0.0
 10
2931.3159783498
 20
1713.4560639568
 30
0.0
  0
SPLINE
  5
544
100
AcDbEntity
  8
0
100
AcDbSpline
 62
7
  6
CONTINUOUS
 70
0
 71
3
 72
9
 73
5
 74
0
 42
0.0000001
 43
0.0000001
 44
0.0000000001
 40
0.0
 40
0.0
 40
0.0
 40
0.0
 40
0.4492071657
 40
1.0
 40
1.0
 40
1.0
 40
1.0
 10
2957.2845213633
 20
1720.2333798654
 30
0.0
 10
2956.6109660492
 20
1720.6233052055
 30
0.0
 10
2955.4474907649
 20
1722.0807261203
 30
0.0
 10
2955.2161875539
 20
1723.854055849
 30
0.0
 10
2955.2161875539
 20
1724.8083385183
 30
0.0
  0
SPLINE
  5
545
100
AcDbEntity
  8
0
100
AcDbSpline
 62
7
  6
CONTINUOUS
 70
0
 71
3
 72
8
 73
4
 74
0
 42
0.0000001
 43
0.0000001
 44
0.0000000001
 40
0.0
 40
0.0
 40
0.0
 40
0.0
 40
1.0
 40
1.0
 40
1.0
 40
1.0
 10
2966.1843054323
 20
1737.8783274812
 30
0.0
 10
2966.5354606743
 20
1737.4238639115
 30
0.0
 10
2966.7866673672
 20
1736.8855685233
 30
0.0
 10
2966.9505749036
 20
1736.3351310067
 30
0.0
  0
SPLINE
  5
546
100
AcDbEntity
  8
0
100
AcDbSpline
 62
7
  6
CONTINUOUS
 70
0
 71
3
 72
9
 73
5
 74
0
 42
0.0000001
 43
0.0000001
 44
0.0000000001
 40
0.0
 40
0.0
 40
0.0
 40
0.0
 40
0.2357742758
 40
1.0
 40
1.0
 40
1.0
 40
1.0
 10
2966.9505749036
 20
1736.3351310067
 30
0.0
 10
2966.9989797545
 20
1736.172576883
 30
0.0
 10
2967.1741457241
 20
1735.4742051812
 30
0.0
 10
2967.237002834
 20
1734.7502661201
 30
0.0
 10
2967.237002834
 20
1734.2005081196
 30
0.0
  0
SPLINE
  5
547
100
AcDbEntity
  8
0
100
AcDbSpline
 62
7
  6
CONTINUOUS
 70
0
 71
3
 72
9
 73
5
 74
0
 42
0.0000001
 43
0.0000001
 44
0.0000000001
 40
0.0
 40
0.0
 40
0.0
 40
0.0
 40
0.4492071657
 40
1.0
 40
1.0
 40
1.0
 40
1.0
 10
2993.2055458476
 20
1740.9778240283
 30
0.0
 10
2992.5319905335
 20
1741.3677493684
 30
0.0
 10
2991.3685152491
 20
1742.8251702831
 30
0.0
 10
2991.1372120381
 20
1744.5985000118
 30
0.0
 10
2991.1372120381
 20
1745.5527826812
 30
0.0
  0
SPLINE
  5
548
100
AcDbEntity
  8
0
100
AcDbSpline
 62
7
  6
CONTINUOUS
 70
0
 71
3
 72
8
 73
4
 74
0
 42
0.0000001
 43
0.0000001
 44
0.0000000001
 40
0.0
 40
0.0
 40
0.0
 40
0.0
 40
1.0
 40
1.0
 40
1.0
 40
1.0
 10
3002.1053299166
 20
1758.622771644
 30
0.0
 10
3002.4564851585
 20
1758.1683080743
 30
0.0
 10
3002.7076918515
 20
1757.6300126861
 30
0.0
 10
3002.8715993879
 20
1757.0795751695
 30
0.0
  0
SPLINE
  5
549
100
AcDbEntity
  8
0
100
AcDbSpline
 62
7
  6
CONTINUOUS
 70
0
 71
3
 72
9
 73
5
 74
0
 42
0.0000001
 43
0.0000001
 44
0.0000000001
 40
0.0
 40
0.0
 40
0.0
 40
0.0
 40
0.2357742758
 40
1.0
 40
1.0
 40
1.0
 40
1.0
 10
3002.8715993879
 20
1757.0795751695
 30
0.0
 10
3002.9200042388
 20
1756.9170210459
 30
0.0
 10
3003.0951702084
 20
1756.2186493441
 30
0.0
 10
3003.1580273183
 20
1755.4947102829
 30
0.0
 10
3003.1580273183
 20
1754.9449522824
 30
0.0
  0
SPLINE
  5
54A
100
AcDbEntity
  8
0
100
AcDbSpline
 62
7
  6
CONTINUOUS
 70
0
 71
3
 72
9
 73
5
 74
0
 42
0.0000001
 43
0.0000001
 44
0.0000000001
 40
0.0
 40
0.0
 40
0.0
 40
0.0
 40
0.4492071657
 40
1.0
 40
1.0
 40
1.0
 40
1.0
 10
3029.1265703319
 20
1761.7222681911
 30
0.0
 10
3028.4530150178
 20
1762.1121935312
 30
0.0
 10
3027.2895397334
 20
1763.569614446
 30
0.0
 10
3027.0582365224
 20
1765.3429441746
 30
0.0
 10
3027.0582365224
 20
1766.297226844
 30
0.0
  0
SPLINE
  5
54B
100
AcDbEntity
  8
0
100
AcDbSpline
 62
7
  6
CONTINUOUS
 70
0
 71
3
 72
8
 73
4
 74
0
 42
0.0000001
 43
0.0000001
 44
0.0000000001
 40
0.0
 40
0.0
 40
0.0
 40
0.0
 40
1.0
 40
1.0
 40
1.0
 40
1.0
 10
3038.0263544008
 20
1779.3672158069
 30
0.0
 10
3038.3775096428
 20
1778.9127522371
 30
0.0
 10
3038.6287163358
 20
1778.3744568489
 30
0.0
 10
3038.7926238722
 20
1777.8240193323
 30
0.0
  0
SPLINE
  5
54C
100
AcDbEntity
  8
0
100
AcDbSpline
 62
7
  6
CONTINUOUS
 70
0
 71
3
 72
9
 73
5
 74
0
 42
0.0000001
 43
0.0000001
 44
0.0000000001
 40
0.0
 40
0.0
 40
0.0
 40
0.0
 40
0.2357742758
 40
1.0
 40
1.0
 40
1.0
 40
1.0
 10
3038.7926238722
 20
1777.8240193323
 30
0.0
 10
3038.8410287231
 20
1777.6614652087
 30
0.0
 10
3039.0161946927
 20
1776.9630935069
 30
0.0
 10
3039.0790518026
 20
1776.2391544458
 30
0.0
 10
3039.0790518026
 20
1775.6893964453
 30
0.0
  0
SPLINE
  5
54D
100
AcDbEntity
  8
0
100
AcDbSpline
 62
7
  6
CONTINUOUS
 70
0
 71
3
 72
8
 73
4
 74
0
 42
0.0000001
 43
0.0000001
 44
0.0000000001
 40
0.0
 40
0.0
 40
0.0
 40
0.0
 40
1.0
 40
1.0
 40
1.0
 40
1.0
 10
2792.5174472903
 20
1443.0847876433
 30
0.0
 10
2792.9940840176
 20
1443.1618083898
 30
0.0
 10
2793.4622673669
 20
1443.3038909114
 30
0.0
 10
2793.9087623868
 20
1443.4876215902
 30
0.0
  0
SPLINE
  5
54E
100
AcDbEntity
  8
0
100
AcDbSpline
 62
7
  6
CONTINUOUS
 70
0
 71
3
 72
9
 73
5
 74
0
 42
0.0000001
 43
0.0000001
 44
0.0000000001
 40
0.0
 40
0.0
 40
0.0
 40
0.0
 40
0.4898686659
 40
1.0
 40
1.0
 40
1.0
 40
1.0
 10
2793.9087623868
 20
1443.4876215902
 30
0.0
 10
2796.265747103
 20
1444.4575101278
 30
0.0
 10
2800.0816452178
 20
1448.47410159
 30
0.0
 10
2801.9861480707
 20
1453.5789617453
 30
0.0
 10
2801.9861480707
 20
1456.2331234417
 30
0.0
  0
SPLINE
  5
54F
100
AcDbEntity
  8
6_COPYGEOM
100
AcDbSpline
 62
7
  6
CONTINUOUS
 70
0
 71
3
 72
12
 73
8
 74
0
 42
0.0000001
 43
0.0000001
 44
0.0000000001
 40
0.0
 40
0.0
 40
0.0
 40
0.0
 40
0.183254858
 40
0.3014455741
 40
0.4361829271
 40
0.7289416397
 40
1.0
 40
1.0
 40
1.0
 40
1.0
 10
2804.1604549484
 20
1458.3579508942
 30
0.0
 10
2803.1152035012
 20
1458.9630534262
 30
0.0
 10
2800.8240287329
 20
1458.8464605357
 30
0.0
 10
2798.3333425102
 20
1457.435742687
 30
0.0
 10
2795.6052600314
 20
1455.0401329123
 30
0.0
 10
2793.0719774362
 20
1451.1052598621
 30
0.0
 10
2792.0866531341
 20
1447.4023357145
 30
0.0
 10
2792.0866531341
 20
1445.6158882402
 30
0.0
  0
SPLINE
  5
550
100
AcDbEntity
  8
0
100
AcDbSpline
 62
7
  6
CONTINUOUS
 70
0
 71
3
 72
8
 73
4
 74
0
 42
0.0000001
 43
0.0000001
 44
0.0000000001
 40
0.0
 40
0.0
 40
0.0
 40
0.0
 40
1.0
 40
1.0
 40
1.0
 40
1.0
 10
2828.4384717746
 20
1463.8292318062
 30
0.0
 10
2828.9151085019
 20
1463.9062525527
 30
0.0
 10
2829.3832918512
 20
1464.0483350742
 30
0.0
 10
2829.8297868711
 20
1464.2320657531
 30
0.0
  0
SPLINE
  5
551
100
AcDbEntity
  8
0
100
AcDbSpline
 62
7
  6
CONTINUOUS
 70
0
 71
3
 72
9
 73
5
 74
0
 42
0.0000001
 43
0.0000001
 44
0.0000000001
 40
0.0
 40
0.0
 40
0.0
 40
0.0
 40
0.4898686659
 40
1.0
 40
1.0
 40
1.0
 40
1.0
 10
2829.8297868711
 20
1464.2320657531
 30
0.0
 10
2832.1867715873
 20
1465.2019542906
 30
0.0
 10
2836.0026697021
 20
1469.2185457528
 30
0.0
 10
2837.907172555
 20
1474.3234059082
 30
0.0
 10
2837.907172555
 20
1476.9775676045
 30
0.0
  0
SPLINE
  5
552
100
AcDbEntity
  8
6_COPYGEOM
100
AcDbSpline
 62
7
  6
CONTINUOUS
 70
0
 71
3
 72
12
 73
8
 74
0
 42
0.0000001
 43
0.0000001
 44
0.0000000001
 40
0.0
 40
0.0
 40
0.0
 40
0.0
 40
0.183254858
 40
0.3014455741
 40
0.4361829271
 40
0.7289416397
 40
1.0
 40
1.0
 40
1.0
 40
1.0
 10
2840.0814794326
 20
1479.102395057
 30
0.0
 10
2839.0362279855
 20
1479.7074975891
 30
0.0
 10
2836.7450532172
 20
1479.5909046985
 30
0.0
 10
2834.2543669945
 20
1478.1801868498
 30
0.0
 10
2831.5262845157
 20
1475.7845770751
 30
0.0
 10
2828.9930019204
 20
1471.849704025
 30
0.0
 10
2828.0076776184
 20
1468.1467798773
 30
0.0
 10
2828.0076776184
 20
1466.360332403
 30
0.0
  0
SPLINE
  5
553
100
AcDbEntity
  8
0
100
AcDbSpline
 62
7
  6
CONTINUOUS
 70
0
 71
3
 72
8
 73
4
 74
0
 42
0.0000001
 43
0.0000001
 44
0.0000000001
 40
0.0
 40
0.0
 40
0.0
 40
0.0
 40
1.0
 40
1.0
 40
1.0
 40
1.0
 10
2864.3594962589
 20
1484.573675969
 30
0.0
 10
2864.8361329861
 20
1484.6506967155
 30
0.0
 10
2865.3043163354
 20
1484.7927792371
 30
0.0
 10
2865.7508113554
 20
1484.9765099159
 30
0.0
  0
SPLINE
  5
554
100
AcDbEntity
  8
0
100
AcDbSpline
 62
7
  6
CONTINUOUS
 70
0
 71
3
 72
9
 73
5
 74
0
 42
0.0000001
 43
0.0000001
 44
0.0000000001
 40
0.0
 40
0.0
 40
0.0
 40
0.0
 40
0.4898686659
 40
1.0
 40
1.0
 40
1.0
 40
1.0
 10
2865.7508113554
 20
1484.9765099159
 30
0.0
 10
2868.1077960716
 20
1485.9463984535
 30
0.0
 10
2871.9236941863
 20
1489.9629899156
 30
0.0
 10
2873.8281970393
 20
1495.067850071
 30
0.0
 10
2873.8281970393
 20
1497.7220117673
 30
0.0
  0
SPLINE
  5
555
100
AcDbEntity
  8
6_COPYGEOM
100
AcDbSpline
 62
7
  6
CONTINUOUS
 70
0
 71
3
 72
12
 73
8
 74
0
 42
0.0000001
 43
0.0000001
 44
0.0000000001
 40
0.0
 40
0.0
 40
0.0
 40
0.0
 40
0.183254858
 40
0.3014455741
 40
0.4361829271
 40
0.7289416397
 40
1.0
 40
1.0
 40
1.0
 40
1.0
 10
2876.0025039169
 20
1499.8468392199
 30
0.0
 10
2874.9572524697
 20
1500.4519417519
 30
0.0
 10
2872.6660777015
 20
1500.3353488613
 30
0.0
 10
2870.1753914788
 20
1498.9246310126
 30
0.0
 10
2867.4473089999
 20
1496.5290212379
 30
0.0
 10
2864.9140264047
 20
1492.5941481878
 30
0.0
 10
2863.9287021027
 20
1488.8912240401
 30
0.0
 10
2863.9287021027
 20
1487.1047765659
 30
0.0
  0
SPLINE
  5
556
100
AcDbEntity
  8
0
100
AcDbSpline
 62
7
  6
CONTINUOUS
 70
0
 71
3
 72
8
 73
4
 74
0
 42
0.0000001
 43
0.0000001
 44
0.0000000001
 40
0.0
 40
0.0
 40
0.0
 40
0.0
 40
1.0
 40
1.0
 40
1.0
 40
1.0
 10
2900.2805207432
 20
1505.3181201318
 30
0.0
 10
2900.7571574704
 20
1505.3951408783
 30
0.0
 10
2901.2253408197
 20
1505.5372233999
 30
0.0
 10
2901.6718358396
 20
1505.7209540787
 30
0.0
  0
SPLINE
  5
557
100
AcDbEntity
  8
0
100
AcDbSpline
 62
7
  6
CONTINUOUS
 70
0
 71
3
 72
9
 73
5
 74
0
 42
0.0000001
 43
0.0000001
 44
0.0000000001
 40
0.0
 40
0.0
 40
0.0
 40
0.0
 40
0.4898686659
 40
1.0
 40
1.0
 40
1.0
 40
1.0
 10
2901.6718358396
 20
1505.7209540787
 30
0.0
 10
2904.0288205558
 20
1506.6908426163
 30
0.0
 10
2907.8447186706
 20
1510.7074340785
 30
0.0
 10
2909.7492215236
 20
1515.8122942338
 30
0.0
 10
2909.7492215236
 20
1518.4664559302
 30
0.0
  0
SPLINE
  5
558
100
AcDbEntity
  8
6_COPYGEOM
100
AcDbSpline
 62
7
  6
CONTINUOUS
 70
0
 71
3
 72
12
 73
8
 74
0
 42
0.0000001
 43
0.0000001
 44
0.0000000001
 40
0.0
 40
0.0
 40
0.0
 40
0.0
 40
0.183254858
 40
0.3014455741
 40
0.4361829271
 40
0.7289416397
 40
1.0
 40
1.0
 40
1.0
 40
1.0
 10
2911.9235284012
 20
1520.5912833827
 30
0.0
 10
2910.878276954
 20
1521.1963859147
 30
0.0
 10
2908.5871021858
 20
1521.0797930242
 30
0.0
 10
2906.0964159631
 20
1519.6690751755
 30
0.0
 10
2903.3683334842
 20
1517.2734654008
 30
0.0
 10
2900.835050889
 20
1513.3385923506
 30
0.0
 10
2899.849726587
 20
1509.635668203
 30
0.0
 10
2899.849726587
 20
1507.8492207287
 30
0.0
  0
SPLINE
  5
559
100
AcDbEntity
  8
0
100
AcDbSpline
 62
7
  6
CONTINUOUS
 70
0
 71
3
 72
8
 73
4
 74
0
 42
0.0000001
 43
0.0000001
 44
0.0000000001
 40
0.0
 40
0.0
 40
0.0
 40
0.0
 40
1.0
 40
1.0
 40
1.0
 40
1.0
 10
2936.2015452274
 20
1526.0625642947
 30
0.0
 10
2936.6781819547
 20
1526.1395850412
 30
0.0
 10
2937.146365304
 20
1526.2816675627
 30
0.0
 10
2937.5928603239
 20
1526.4653982416
 30
0.0
  0
SPLINE
  5
55A
100
AcDbEntity
  8
0
100
AcDbSpline
 62
7
  6
CONTINUOUS
 70
0
 71
3
 72
9
 73
5
 74
0
 42
0.0000001
 43
0.0000001
 44
0.0000000001
 40
0.0
 40
0.0
 40
0.0
 40
0.0
 40
0.4898686659
 40
1.0
 40
1.0
 40
1.0
 40
1.0
 10
2937.5928603239
 20
1526.4653982416
 30
0.0
 10
2939.9498450401
 20
1527.4352867791
 30
0.0
 10
2943.7657431549
 20
1531.4518782413
 30
0.0
 10
2945.6702460078
 20
1536.5567383967
 30
0.0
 10
2945.6702460078
 20
1539.210900093
 30
0.0
  0
SPLINE
  5
55B
100
AcDbEntity
  8
6_COPYGEOM
100
AcDbSpline
 62
7
  6
CONTINUOUS
 70
0
 71
3
 72
12
 73
8
 74
0
 42
0.0000001
 43
0.0000001
 44
0.0000000001
 40
0.0
 40
0.0
 40
0.0
 40
0.0
 40
0.183254858
 40
0.3014455741
 40
0.4361829271
 40
0.7289416397
 40
1.0
 40
1.0
 40
1.0
 40
1.0
 10
2947.8445528855
 20
1541.3357275455
 30
0.0
 10
2946.7993014383
 20
1541.9408300776
 30
0.0
 10
2944.50812667
 20
1541.824237187
 30
0.0
 10
2942.0174404473
 20
1540.4135193383
 30
0.0
 10
2939.2893579685
 20
1538.0179095636
 30
0.0
 10
2936.7560753733
 20
1534.0830365135
 30
0.0
 10
2935.7707510712
 20
1530.3801123658
 30
0.0
 10
2935.7707510712
 20
1528.5936648915
 30
0.0
  0
SPLINE
  5
55C
100
AcDbEntity
  8
0
100
AcDbSpline
 62
7
  6
CONTINUOUS
 70
0
 71
3
 72
8
 73
4
 74
0
 42
0.0000001
 43
0.0000001
 44
0.0000000001
 40
0.0
 40
0.0
 40
0.0
 40
0.0
 40
1.0
 40
1.0
 40
1.0
 40
1.0
 10
3008.043594196
 20
1567.5514526203
 30
0.0
 10
3008.5202309232
 20
1567.6284733668
 30
0.0
 10
3008.9884142725
 20
1567.7705558884
 30
0.0
 10
3009.4349092925
 20
1567.9542865672
 30
0.0
  0
SPLINE
  5
55D
100
AcDbEntity
  8
0
100
AcDbSpline
 62
7
  6
CONTINUOUS
 70
0
 71
3
 72
9
 73
5
 74
0
 42
0.0000001
 43
0.0000001
 44
0.0000000001
 40
0.0
 40
0.0
 40
0.0
 40
0.0
 40
0.4898686659
 40
1.0
 40
1.0
 40
1.0
 40
1.0
 10
3009.4349092925
 20
1567.9542865672
 30
0.0
 10
3011.7918940087
 20
1568.9241751048
 30
0.0
 10
3015.6077921234
 20
1572.940766567
 30
0.0
 10
3017.5122949764
 20
1578.0456267223
 30
0.0
 10
3017.5122949764
 20
1580.6997884187
 30
0.0
  0
SPLINE
  5
55E
100
AcDbEntity
  8
6_COPYGEOM
100
AcDbSpline
 62
7
  6
CONTINUOUS
 70
0
 71
3
 72
12
 73
8
 74
0
 42
0.0000001
 43
0.0000001
 44
0.0000000001
 40
0.0
 40
0.0
 40
0.0
 40
0.0
 40
0.183254858
 40
0.3014455741
 40
0.4361829271
 40
0.7289416397
 40
1.0
 40
1.0
 40
1.0
 40
1.0
 10
3019.686601854
 20
1582.8246158712
 30
0.0
 10
3018.6413504069
 20
1583.4297184032
 30
0.0
 10
3016.3501756386
 20
1583.3131255127
 30
0.0
 10
3013.8594894159
 20
1581.902407664
 30
0.0
 10
3011.131406937
 20
1579.5067978893
 30
0.0
 10
3008.5981243418
 20
1575.5719248391
 30
0.0
 10
3007.6128000398
 20
1571.8690006915
 30
0.0
 10
3007.6128000398
 20
1570.0825532172
 30
0.0
  0
SPLINE
  5
55F
100
AcDbEntity
  8
0
100
AcDbSpline
 62
7
  6
CONTINUOUS
 70
0
 71
3
 72
8
 73
4
 74
0
 42
0.0000001
 43
0.0000001
 44
0.0000000001
 40
0.0
 40
0.0
 40
0.0
 40
0.0
 40
1.0
 40
1.0
 40
1.0
 40
1.0
 10
3043.9646186803
 20
1588.2958967832
 30
0.0
 10
3044.4412554075
 20
1588.3729175297
 30
0.0
 10
3044.9094387568
 20
1588.5150000512
 30
0.0
 10
3045.3559337767
 20
1588.6987307301
 30
0.0
  0
SPLINE
  5
560
100
AcDbEntity
  8
0
100
AcDbSpline
 62
7
  6
CONTINUOUS
 70
0
 71
3
 72
9
 73
5
 74
0
 42
0.0000001
 43
0.0000001
 44
0.0000000001
 40
0.0
 40
0.0
 40
0.0
 40
0.0
 40
0.4898686659
 40
1.0
 40
1.0
 40
1.0
 40
1.0
 10
3045.3559337767
 20
1588.6987307301
 30
0.0
 10
3047.7129184929
 20
1589.6686192676
 30
0.0
 10
3051.5288166077
 20
1593.6852107298
 30
0.0
 10
3053.4333194607
 20
1598.7900708852
 30
0.0
 10
3053.4333194607
 20
1601.4442325815
 30
0.0
  0
SPLINE
  5
561
100
AcDbEntity
  8
6_COPYGEOM
100
AcDbSpline
 62
7
  6
CONTINUOUS
 70
0
 71
3
 72
12
 73
8
 74
0
 42
0.0000001
 43
0.0000001
 44
0.0000000001
 40
0.0
 40
0.0
 40
0.0
 40
0.0
 40
0.183254858
 40
0.3014455741
 40
0.4361829271
 40
0.7289416397
 40
1.0
 40
1.0
 40
1.0
 40
1.0
 10
3055.6076263383
 20
1603.569060034
 30
0.0
 10
3054.5623748911
 20
1604.1741625661
 30
0.0
 10
3052.2712001229
 20
1604.0575696755
 30
0.0
 10
3049.7805139002
 20
1602.6468518268
 30
0.0
 10
3047.0524314213
 20
1600.2512420521
 30
0.0
 10
3044.5191488261
 20
1596.316369002
 30
0.0
 10
3043.5338245241
 20
1592.6134448543
 30
0.0
 10
3043.5338245241
 20
1590.82699738
 30
0.0
  0
SPLINE
  5
562
100
AcDbEntity
  8
0
100
AcDbSpline
 62
7
  6
CONTINUOUS
 70
0
 71
3
 72
8
 73
4
 74
0
 42
0.0000001
 43
0.0000001
 44
0.0000000001
 40
0.0
 40
0.0
 40
0.0
 40
0.0
 40
1.0
 40
1.0
 40
1.0
 40
1.0
 10
3079.8856431645
 20
1609.040340946
 30
0.0
 10
3080.3622798918
 20
1609.1173616925
 30
0.0
 10
3080.8304632411
 20
1609.2594442141
 30
0.0
 10
3081.276958261
 20
1609.4431748929
 30
0.0
  0
SPLINE
  5
563
100
AcDbEntity
  8
0
100
AcDbSpline
 62
7
  6
CONTINUOUS
 70
0
 71
3
 72
9
 73
5
 74
0
 42
0.0000001
 43
0.0000001
 44
0.0000000001
 40
0.0
 40
0.0
 40
0.0
 40
0.0
 40
0.4898686659
 40
1.0
 40
1.0
 40
1.0
 40
1.0
 10
3081.276958261
 20
1609.4431748929
 30
0.0
 10
3083.6339429772
 20
1610.4130634305
 30
0.0
 10
3087.449841092
 20
1614.4296548926
 30
0.0
 10
3089.3543439449
 20
1619.534515048
 30
0.0
 10
3089.3543439449
 20
1622.1886767443
 30
0.0
  0
SPLINE
  5
564
100
AcDbEntity
  8
6_COPYGEOM
100
AcDbSpline
 62
7
  6
CONTINUOUS
 70
0
 71
3
 72
12
 73
8
 74
0
 42
0.0000001
 43
0.0000001
 44
0.0000000001
 40
0.0
 40
0.0
 40
0.0
 40
0.0
 40
0.183254858
 40
0.3014455741
 40
0.4361829271
 40
0.7289416397
 40
1.0
 40
1.0
 40
1.0
 40
1.0
 10
3091.5286508226
 20
1624.3135041969
 30
0.0
 10
3090.4833993754
 20
1624.9186067289
 30
0.0
 10
3088.1922246071
 20
1624.8020138383
 30
0.0
 10
3085.7015383844
 20
1623.3912959896
 30
0.0
 10
3082.9734559056
 20
1620.9956862149
 30
0.0
 10
3080.4401733104
 20
1617.0608131648
 30
0.0
 10
3079.4548490083
 20
1613.3578890171
 30
0.0
 10
3079.4548490083
 20
1611.5714415429
 30
0.0
  0
SPLINE
  5
565
100
AcDbEntity
  8
0
100
AcDbSpline
 62
7
  6
CONTINUOUS
 70
0
 71
3
 72
8
 73
4
 74
0
 42
0.0000001
 43
0.0000001
 44
0.0000000001
 40
0.0
 40
0.0
 40
0.0
 40
0.0
 40
1.0
 40
1.0
 40
1.0
 40
1.0
 10
3115.8066676488
 20
1629.7847851088
 30
0.0
 10
3116.2833043761
 20
1629.8618058553
 30
0.0
 10
3116.7514877254
 20
1630.0038883769
 30
0.0
 10
3117.1979827453
 20
1630.1876190557
 30
0.0
  0
SPLINE
  5
566
100
AcDbEntity
  8
0
100
AcDbSpline
 62
7
  6
CONTINUOUS
 70
0
 71
3
 72
9
 73
5
 74
0
 42
0.0000001
 43
0.0000001
 44
0.0000000001
 40
0.0
 40
0.0
 40
0.0
 40
0.0
 40
0.4898686659
 40
1.0
 40
1.0
 40
1.0
 40
1.0
 10
3117.1979827453
 20
1630.1876190557
 30
0.0
 10
3119.5549674615
 20
1631.1575075933
 30
0.0
 10
3123.3708655763
 20
1635.1740990555
 30
0.0
 10
3125.2753684292
 20
1640.2789592108
 30
0.0
 10
3125.2753684292
 20
1642.9331209071
 30
0.0
  0
SPLINE
  5
567
100
AcDbEntity
  8
6_COPYGEOM
100
AcDbSpline
 62
7
  6
CONTINUOUS
 70
0
 71
3
 72
12
 73
8
 74
0
 42
0.0000001
 43
0.0000001
 44
0.0000000001
 40
0.0
 40
0.0
 40
0.0
 40
0.0
 40
0.183254858
 40
0.3014455741
 40
0.4361829271
 40
0.7289416397
 40
1.0
 40
1.0
 40
1.0
 40
1.0
 10
3127.4496753068
 20
1645.0579483597
 30
0.0
 10
3126.4044238597
 20
1645.6630508917
 30
0.0
 10
3124.1132490914
 20
1645.5464580012
 30
0.0
 10
3121.6225628687
 20
1644.1357401525
 30
0.0
 10
3118.8944803899
 20
1641.7401303778
 30
0.0
 10
3116.3611977947
 20
1637.8052573276
 30
0.0
 10
3115.3758734926
 20
1634.10233318
 30
0.0
 10
3115.3758734926
 20
1632.3158857057
 30
0.0
  0
SPLINE
  5
568
100
AcDbEntity
  8
0
100
AcDbSpline
 62
7
  6
CONTINUOUS
 70
0
 71
3
 72
8
 73
4
 74
0
 42
0.0000001
 43
0.0000001
 44
0.0000000001
 40
0.0
 40
0.0
 40
0.0
 40
0.0
 40
1.0
 40
1.0
 40
1.0
 40
1.0
 10
3151.7276921331
 20
1650.5292292717
 30
0.0
 10
3152.2043288604
 20
1650.6062500182
 30
0.0
 10
3152.6725122096
 20
1650.7483325397
 30
0.0
 10
3153.1190072296
 20
1650.9320632186
 30
0.0
  0
SPLINE
  5
569
100
AcDbEntity
  8
0
100
AcDbSpline
 62
7
  6
CONTINUOUS
 70
0
 71
3
 72
9
 73
5
 74
0
 42
0.0000001
 43
0.0000001
 44
0.0000000001
 40
0.0
 40
0.0
 40
0.0
 40
0.0
 40
0.4898686659
 40
1.0
 40
1.0
 40
1.0
 40
1.0
 10
3153.1190072296
 20
1650.9320632186
 30
0.0
 10
3155.4759919458
 20
1651.9019517561
 30
0.0
 10
3159.2918900605
 20
1655.9185432183
 30
0.0
 10
3161.1963929135
 20
1661.0234033737
 30
0.0
 10
3161.1963929135
 20
1663.67756507
 30
0.0
  0
SPLINE
  5
56A
100
AcDbEntity
  8
6_COPYGEOM
100
AcDbSpline
 62
7
  6
CONTINUOUS
 70
0
 71
3
 72
12
 73
8
 74
0
 42
0.0000001
 43
0.0000001
 44
0.0000000001
 40
0.0
 40
0.0
 40
0.0
 40
0.0
 40
0.183254858
 40
0.3014455741
 40
0.4361829271
 40
0.7289416397
 40
1.0
 40
1.0
 40
1.0
 40
1.0
 10
3163.3706997911
 20
1665.8023925225
 30
0.0
 10
3162.325448344
 20
1666.4074950546
 30
0.0
 10
3160.0342735757
 20
1666.290902164
 30
0.0
 10
3157.543587353
 20
1664.8801843153
 30
0.0
 10
3154.8155048741
 20
1662.4845745406
 30
0.0
 10
3152.2822222789
 20
1658.5497014905
 30
0.0
 10
3151.2968979769
 20
1654.8467773428
 30
0.0
 10
3151.2968979769
 20
1653.0603298685
 30
0.0
  0
SPLINE
  5
56B
100
AcDbEntity
  8
0
100
AcDbSpline
 62
7
  6
CONTINUOUS
 70
0
 71
3
 72
8
 73
4
 74
0
 42
0.0000001
 43
0.0000001
 44
0.0000000001
 40
0.0
 40
0.0
 40
0.0
 40
0.0
 40
1.0
 40
1.0
 40
1.0
 40
1.0
 10
3187.6487166174
 20
1671.2736734345
 30
0.0
 10
3188.1253533446
 20
1671.350694181
 30
0.0
 10
3188.5935366939
 20
1671.4927767026
 30
0.0
 10
3189.0400317138
 20
1671.6765073814
 30
0.0
  0
SPLINE
  5
56C
100
AcDbEntity
  8
0
100
AcDbSpline
 62
7
  6
CONTINUOUS
 70
0
 71
3
 72
9
 73
5
 74
0
 42
0.0000001
 43
0.0000001
 44
0.0000000001
 40
0.0
 40
0.0
 40
0.0
 40
0.0
 40
0.4898686659
 40
1.0
 40
1.0
 40
1.0
 40
1.0
 10
3189.0400317138
 20
1671.6765073814
 30
0.0
 10
3191.39701643
 20
1672.646395919
 30
0.0
 10
3195.2129145448
 20
1676.6629873811
 30
0.0
 10
3197.1174173978
 20
1681.7678475365
 30
0.0
 10
3197.1174173978
 20
1684.4220092328
 30
0.0
  0
SPLINE
  5
56D
100
AcDbEntity
  8
6_COPYGEOM
100
AcDbSpline
 62
7
  6
CONTINUOUS
 70
0
 71
3
 72
12
 73
8
 74
0
 42
0.0000001
 43
0.0000001
 44
0.0000000001
 40
0.0
 40
0.0
 40
0.0
 40
0.0
 40
0.183254858
 40
0.3014455741
 40
0.4361829271
 40
0.7289416397
 40
1.0
 40
1.0
 40
1.0
 40
1.0
 10
3199.2917242754
 20
1686.5468366854
 30
0.0
 10
3198.2464728282
 20
1687.1519392174
 30
0.0
 10
3195.95529806
 20
1687.0353463268
 30
0.0
 10
3193.4646118373
 20
1685.6246284781
 30
0.0
 10
3190.7365293584
 20
1683.2290187034
 30
0.0
 10
3188.2032467632
 20
1679.2941456533
 30
0.0
 10
3187.2179224612
 20
1675.5912215056
 30
0.0
 10
3187.2179224612
 20
1673.8047740314
 30
0.0
  0
SPLINE
  5
56E
100
AcDbEntity
  8
0
100
AcDbSpline
 62
7
  6
CONTINUOUS
 70
0
 71
3
 72
9
 73
5
 74
0
 42
0.0000001
 43
0.0000001
 44
0.0000000001
 40
0.0
 40
0.0
 40
0.0
 40
0.0
 40
0.229177116
 40
1.0
 40
1.0
 40
1.0
 40
1.0
 10
2643.9477824755
 20
1547.5005106541
 30
0.0
 10
2643.9477824755
 20
1546.9568612674
 30
0.0
 10
2643.7423244337
 20
1544.5858848996
 30
0.0
 10
2642.8722720585
 20
1542.3018079743
 30
0.0
 10
2641.976756641
 20
1540.707575685
 30
0.0
  0
SPLINE
  5
56F
100
AcDbEntity
  8
0
100
AcDbSpline
 62
7
  6
CONTINUOUS
 70
0
 71
3
 72
11
 73
7
 74
0
 42
0.0000001
 43
0.0000001
 44
0.0000000001
 40
0.0
 40
0.0
 40
0.0
 40
0.0
 40
0.2615575693
 40
0.5472487091
 40
0.8043758445
 40
1.0
 40
1.0
 40
1.0
 40
1.0
 10
2679.8688069598
 20
1568.244954817
 30
0.0
 10
2679.8688069598
 20
1566.6182827782
 30
0.0
 10
2679.0445465138
 20
1563.2176224677
 30
0.0
 10
2676.4364990959
 20
1558.8750953504
 30
0.0
 10
2673.0148909739
 20
1555.723586872
 30
0.0
 10
2670.0711735572
 20
1554.8742201946
 30
0.0
 10
2668.8763429871
 20
1555.103448795
 30
0.0
  0
SPLINE
  5
570
100
AcDbEntity
  8
6_COPYGEOM
100
AcDbSpline
 62
7
  6
CONTINUOUS
 70
0
 71
3
 72
10
 73
6
 74
0
 42
0.0000001
 43
0.0000001
 44
0.0000000001
 40
0.0
 40
0.0
 40
0.0
 40
0.0
 40
0.4227036001
 40
0.7224444811
 40
1.0
 40
1.0
 40
1.0
 40
1.0
 10
3158.2291452065
 20
1641.3943475754
 30
0.0
 10
3157.2271317817
 20
1641.9704866387
 30
0.0
 10
3154.8787848096
 20
1640.5653558799
 30
0.0
 10
3153.5505904182
 20
1638.3280487287
 30
0.0
 10
3153.1000202689
 20
1636.7367330159
 30
0.0
 10
3153.1000202689
 20
1635.9777853912
 30
0.0
  0
SPLINE
  5
571
100
AcDbEntity
  8
0
100
AcDbSpline
 62
7
  6
CONTINUOUS
 70
0
 71
3
 72
11
 73
7
 74
0
 42
0.0000001
 43
0.0000001
 44
0.0000000001
 40
0.0
 40
0.0
 40
0.0
 40
0.0
 40
0.2615575693
 40
0.5472487091
 40
0.8043758445
 40
1.0
 40
1.0
 40
1.0
 40
1.0
 10
2715.7898314441
 20
1588.9893989798
 30
0.0
 10
2715.7898314441
 20
1587.362726941
 30
0.0
 10
2714.9655709981
 20
1583.9620666306
 30
0.0
 10
2712.3575235802
 20
1579.6195395132
 30
0.0
 10
2708.9359154582
 20
1576.4680310348
 30
0.0
 10
2705.9921980414
 20
1575.6186643574
 30
0.0
 10
2704.7973674714
 20
1575.8478929579
 30
0.0
  0
SPLINE
  5
572
100
AcDbEntity
  8
0
100
AcDbSpline
 62
7
  6
CONTINUOUS
 70
0
 71
3
 72
11
 73
7
 74
0
 42
0.0000001
 43
0.0000001
 44
0.0000000001
 40
0.0
 40
0.0
 40
0.0
 40
0.0
 40
0.2615575693
 40
0.5472487091
 40
0.8043758445
 40
1.0
 40
1.0
 40
1.0
 40
1.0
 10
2751.7108559284
 20
1609.7338431426
 30
0.0
 10
2751.7108559284
 20
1608.1071711038
 30
0.0
 10
2750.8865954823
 20
1604.7065107934
 30
0.0
 10
2748.2785480644
 20
1600.363983676
 30
0.0
 10
2744.8569399424
 20
1597.2124751977
 30
0.0
 10
2741.9132225257
 20
1596.3631085203
 30
0.0
 10
2740.7183919557
 20
1596.5923371207
 30
0.0
  0
SPLINE
  5
573
100
AcDbEntity
  8
0
100
AcDbSpline
 62
7
  6
CONTINUOUS
 70
0
 71
3
 72
11
 73
7
 74
0
 42
0.0000001
 43
0.0000001
 44
0.0000000001
 40
0.0
 40
0.0
 40
0.0
 40
0.0
 40
0.2615575693
 40
0.5472487091
 40
0.8043758445
 40
1.0
 40
1.0
 40
1.0
 40
1.0
 10
2787.6318804126
 20
1630.4782873054
 30
0.0
 10
2787.6318804126
 20
1628.8516152667
 30
0.0
 10
2786.8076199666
 20
1625.4509549562
 30
0.0
 10
2784.1995725487
 20
1621.1084278388
 30
0.0
 10
2780.7779644267
 20
1617.9569193605
 30
0.0
 10
2777.83424701
 20
1617.1075526831
 30
0.0
 10
2776.63941644
 20
1617.3367812835
 30
0.0
  0
SPLINE
  5
574
100
AcDbEntity
  8
6_COPYGEOM
100
AcDbSpline
 62
7
  6
CONTINUOUS
 70
0
 71
3
 72
10
 73
6
 74
0
 42
0.0000001
 43
0.0000001
 44
0.0000000001
 40
0.0
 40
0.0
 40
0.0
 40
0.0
 40
0.4227036001
 40
0.7224444811
 40
1.0
 40
1.0
 40
1.0
 40
1.0
 10
2951.4004117095
 20
1499.2548192798
 30
0.0
 10
2950.3983982846
 20
1499.8309583431
 30
0.0
 10
2948.0500513125
 20
1498.4258275843
 30
0.0
 10
2946.7218569211
 20
1496.1885204331
 30
0.0
 10
2946.2712867718
 20
1494.5972047203
 30
0.0
 10
2946.2712867718
 20
1493.8382570956
 30
0.0
  0
SPLINE
  5
575
100
AcDbEntity
  8
0
100
AcDbSpline
 62
7
  6
CONTINUOUS
 70
0
 71
3
 72
11
 73
7
 74
0
 42
0.0000001
 43
0.0000001
 44
0.0000000001
 40
0.0
 40
0.0
 40
0.0
 40
0.0
 40
0.2615575693
 40
0.5472487091
 40
0.8043758445
 40
1.0
 40
1.0
 40
1.0
 40
1.0
 10
2859.4739293812
 20
1671.9671756311
 30
0.0
 10
2859.4739293812
 20
1670.3405035923
 30
0.0
 10
2858.6496689352
 20
1666.9398432819
 30
0.0
 10
2856.0416215173
 20
1662.5973161645
 30
0.0
 10
2852.6200133953
 20
1659.4458076862
 30
0.0
 10
2849.6762959785
 20
1658.5964410088
 30
0.0
 10
2848.4814654085
 20
1658.8256696092
 30
0.0
  0
SPLINE
  5
576
100
AcDbEntity
  8
0
100
AcDbSpline
 62
7
  6
CONTINUOUS
 70
0
 71
3
 72
11
 73
7
 74
0
 42
0.0000001
 43
0.0000001
 44
0.0000000001
 40
0.0
 40
0.0
 40
0.0
 40
0.0
 40
0.2615575693
 40
0.5472487091
 40
0.8043758445
 40
1.0
 40
1.0
 40
1.0
 40
1.0
 10
2895.3949538655
 20
1692.7116197939
 30
0.0
 10
2895.3949538655
 20
1691.0849477552
 30
0.0
 10
2894.5706934194
 20
1687.6842874447
 30
0.0
 10
2891.9626460015
 20
1683.3417603273
 30
0.0
 10
2888.5410378795
 20
1680.190251849
 30
0.0
 10
2885.5973204628
 20
1679.3408851716
 30
0.0
 10
2884.4024898928
 20
1679.570113772
 30
0.0
  0
SPLINE
  5
577
100
AcDbEntity
  8
0
100
AcDbSpline
 62
7
  6
CONTINUOUS
 70
0
 71
3
 72
11
 73
7
 74
0
 42
0.0000001
 43
0.0000001
 44
0.0000000001
 40
0.0
 40
0.0
 40
0.0
 40
0.0
 40
0.2615575693
 40
0.5472487091
 40
0.8043758445
 40
1.0
 40
1.0
 40
1.0
 40
1.0
 10
2931.3159783498
 20
1713.4560639568
 30
0.0
 10
2931.3159783498
 20
1711.829391918
 30
0.0
 10
2930.4917179037
 20
1708.4287316076
 30
0.0
 10
2927.8836704858
 20
1704.0862044902
 30
0.0
 10
2924.4620623638
 20
1700.9346960118
 30
0.0
 10
2921.5183449471
 20
1700.0853293344
 30
0.0
 10
2920.3235143771
 20
1700.3145579349
 30
0.0
  0
SPLINE
  5
578
100
AcDbEntity
  8
6_COPYGEOM
100
AcDbSpline
 62
7
  6
CONTINUOUS
 70
0
 71
3
 72
10
 73
6
 74
0
 42
0.0000001
 43
0.0000001
 44
0.0000000001
 40
0.0
 40
0.0
 40
0.0
 40
0.0
 40
0.4227036001
 40
0.7224444811
 40
1.0
 40
1.0
 40
1.0
 40
1.0
 10
3230.3540368876
 20
1660.3509457018
 30
0.0
 10
3229.3520234627
 20
1660.9270847651
 30
0.0
 10
3227.0036764906
 20
1659.5219540063
 30
0.0
 10
3225.6754820992
 20
1657.2846468551
 30
0.0
 10
3225.2249119499
 20
1655.6933311423
 30
0.0
 10
3225.2249119499
 20
1654.9343835176
 30
0.0
  0
SPLINE
  5
579
100
AcDbEntity
  8
0
100
AcDbSpline
 62
7
  6
CONTINUOUS
 70
0
 71
3
 72
11
 73
7
 74
0
 42
0.0000001
 43
0.0000001
 44
0.0000000001
 40
0.0
 40
0.0
 40
0.0
 40
0.0
 40
0.2615575693
 40
0.5472487091
 40
0.8043758445
 40
1.0
 40
1.0
 40
1.0
 40
1.0
 10
2967.237002834
 20
1734.2005081196
 30
0.0
 10
2967.237002834
 20
1732.5738360808
 30
0.0
 10
2966.412742388
 20
1729.1731757704
 30
0.0
 10
2963.8046949701
 20
1724.830648653
 30
0.0
 10
2960.3830868481
 20
1721.6791401747
 30
0.0
 10
2957.4393694314
 20
1720.8297734973
 30
0.0
 10
2956.2445388614
 20
1721.0590020977
 30
0.0
  0
SPLINE
  5
57A
100
AcDbEntity
  8
0
100
AcDbSpline
 62
7
  6
CONTINUOUS
 70
0
 71
3
 72
11
 73
7
 74
0
 42
0.0000001
 43
0.0000001
 44
0.0000000001
 40
0.0
 40
0.0
 40
0.0
 40
0.0
 40
0.2615575693
 40
0.5472487091
 40
0.8043758445
 40
1.0
 40
1.0
 40
1.0
 40
1.0
 10
3003.1580273183
 20
1754.9449522824
 30
0.0
 10
3003.1580273183
 20
1753.3182802437
 30
0.0
 10
3002.3337668723
 20
1749.9176199332
 30
0.0
 10
2999.7257194544
 20
1745.5750928158
 30
0.0
 10
2996.3041113324
 20
1742.4235843375
 30
0.0
 10
2993.3603939156
 20
1741.5742176601
 30
0.0
 10
2992.1655633456
 20
1741.8034462605
 30
0.0
  0
SPLINE
  5
57B
100
AcDbEntity
  8
0
100
AcDbSpline
 62
7
  6
CONTINUOUS
 70
0
 71
3
 72
11
 73
7
 74
0
 42
0.0000001
 43
0.0000001
 44
0.0000000001
 40
0.0
 40
0.0
 40
0.0
 40
0.0
 40
0.2615575693
 40
0.5472487091
 40
0.8043758445
 40
1.0
 40
1.0
 40
1.0
 40
1.0
 10
3039.0790518026
 20
1775.6893964453
 30
0.0
 10
3039.0790518026
 20
1774.0627244065
 30
0.0
 10
3038.2547913565
 20
1770.6620640961
 30
0.0
 10
3035.6467439387
 20
1766.3195369787
 30
0.0
 10
3032.2251358166
 20
1763.1680285003
 30
0.0
 10
3029.2814183999
 20
1762.3186618229
 30
0.0
 10
3028.0865878299
 20
1762.5478904234
 30
0.0
  0
SPLINE
  5
57C
100
AcDbEntity
  8
6_COPYGEOM
100
AcDbSpline
 62
7
  6
CONTINUOUS
 70
0
 71
3
 72
10
 73
6
 74
0
 42
0.0000001
 43
0.0000001
 44
0.0000000001
 40
0.0
 40
0.0
 40
0.0
 40
0.0
 40
0.4227036001
 40
0.7224444811
 40
1.0
 40
1.0
 40
1.0
 40
1.0
 10
3023.5253033905
 20
1563.6026819648
 30
0.0
 10
3022.5232899656
 20
1564.1788210281
 30
0.0
 10
3020.1749429935
 20
1562.7736902693
 30
0.0
 10
3018.8467486022
 20
1560.5363831181
 30
0.0
 10
3018.3961784529
 20
1558.9450674053
 30
0.0
 10
3018.3961784529
 20
1558.1861197806
 30
0.0
  0
SPLINE
  5
57D
100
AcDbEntity
  8
0
100
AcDbSpline
 62
7
  6
CONTINUOUS
 70
0
 71
3
 72
12
 73
8
 74
0
 42
0.0000001
 43
0.0000001
 44
0.0000000001
 40
0.0
 40
0.0
 40
0.0
 40
0.0
 40
0.2710583603
 40
0.5638170729
 40
0.6985544259
 40
0.816745142
 40
1.0
 40
1.0
 40
1.0
 40
1.0
 10
3027.0582365224
 20
1766.297226844
 30
0.0
 10
3027.0582365224
 20
1768.0836743183
 30
0.0
 10
3028.0435608245
 20
1771.7865984659
 30
0.0
 10
3030.5768434197
 20
1775.7214715161
 30
0.0
 10
3033.3049258985
 20
1778.1170812908
 30
0.0
 10
3035.7956121212
 20
1779.5277991395
 30
0.0
 10
3038.0867868895
 20
1779.64439203
 30
0.0
 10
3039.1320383366
 20
1779.039289498
 30
0.0
  0
SPLINE
  5
57E
100
AcDbEntity
  8
0
100
AcDbSpline
 62
7
  6
CONTINUOUS
 70
0
 71
3
 72
12
 73
8
 74
0
 42
0.0000001
 43
0.0000001
 44
0.0000000001
 40
0.0
 40
0.0
 40
0.0
 40
0.0
 40
0.2710583603
 40
0.5638170729
 40
0.6985544259
 40
0.816745142
 40
1.0
 40
1.0
 40
1.0
 40
1.0
 10
2991.1372120381
 20
1745.5527826812
 30
0.0
 10
2991.1372120381
 20
1747.3392301554
 30
0.0
 10
2992.1225363402
 20
1751.0421543031
 30
0.0
 10
2994.6558189354
 20
1754.9770273532
 30
0.0
 10
2997.3839014142
 20
1757.3726371279
 30
0.0
 10
2999.8745876369
 20
1758.7833549766
 30
0.0
 10
3002.1657624052
 20
1758.8999478672
 30
0.0
 10
3003.2110138524
 20
1758.2948453352
 30
0.0
  0
SPLINE
  5
57F
100
AcDbEntity
  8
0
100
AcDbSpline
 62
7
  6
CONTINUOUS
 70
0
 71
3
 72
12
 73
8
 74
0
 42
0.0000001
 43
0.0000001
 44
0.0000000001
 40
0.0
 40
0.0
 40
0.0
 40
0.0
 40
0.2710583603
 40
0.5638170729
 40
0.6985544259
 40
0.816745142
 40
1.0
 40
1.0
 40
1.0
 40
1.0
 10
2955.2161875539
 20
1724.8083385183
 30
0.0
 10
2955.2161875539
 20
1726.5947859926
 30
0.0
 10
2956.2015118559
 20
1730.2977101403
 30
0.0
 10
2958.7347944511
 20
1734.2325831904
 30
0.0
 10
2961.46287693
 20
1736.6281929651
 30
0.0
 10
2963.9535631527
 20
1738.0389108138
 30
0.0
 10
2966.2447379209
 20
1738.1555037044
 30
0.0
 10
2967.2899893681
 20
1737.5504011723
 30
0.0
  0
SPLINE
  5
580
100
AcDbEntity
  8
0
100
AcDbSpline
 62
7
  6
CONTINUOUS
 70
0
 71
3
 72
12
 73
8
 74
0
 42
0.0000001
 43
0.0000001
 44
0.0000000001
 40
0.0
 40
0.0
 40
0.0
 40
0.0
 40
0.2710583603
 40
0.5638170729
 40
0.6985544259
 40
0.816745142
 40
1.0
 40
1.0
 40
1.0
 40
1.0
 10
2919.2951630696
 20
1704.0638943555
 30
0.0
 10
2919.2951630696
 20
1705.8503418298
 30
0.0
 10
2920.2804873716
 20
1709.5532659774
 30
0.0
 10
2922.8137699668
 20
1713.4881390276
 30
0.0
 10
2925.5418524457
 20
1715.8837488023
 30
0.0
 10
2928.0325386684
 20
1717.294466651
 30
0.0
 10
2930.3237134367
 20
1717.4110595415
 30
0.0
 10
2931.3689648838
 20
1716.8059570095
 30
0.0
  0
SPLINE
  5
581
100
AcDbEntity
  8
0
100
AcDbSpline
 62
7
  6
CONTINUOUS
 70
0
 71
3
 72
12
 73
8
 74
0
 42
0.0000001
 43
0.0000001
 44
0.0000000001
 40
0.0
 40
0.0
 40
0.0
 40
0.0
 40
0.2710583603
 40
0.5638170729
 40
0.6985544259
 40
0.816745142
 40
1.0
 40
1.0
 40
1.0
 40
1.0
 10
2883.3741385853
 20
1683.3194501927
 30
0.0
 10
2883.3741385853
 20
1685.1058976669
 30
0.0
 10
2884.3594628873
 20
1688.8088218146
 30
0.0
 10
2886.8927454826
 20
1692.7436948647
 30
0.0
 10
2889.6208279614
 20
1695.1393046394
 30
0.0
 10
2892.1115141841
 20
1696.5500224881
 30
0.0
 10
2894.4026889524
 20
1696.6666153787
 30
0.0
 10
2895.4479403995
 20
1696.0615128467
 30
0.0
  0
SPLINE
  5
582
100
AcDbEntity
  8
0
100
AcDbSpline
 62
7
  6
CONTINUOUS
 70
0
 71
3
 72
12
 73
8
 74
0
 42
0.0000001
 43
0.0000001
 44
0.0000000001
 40
0.0
 40
0.0
 40
0.0
 40
0.0
 40
0.2710583603
 40
0.5638170729
 40
0.6985544259
 40
0.816745142
 40
1.0
 40
1.0
 40
1.0
 40
1.0
 10
2847.453114101
 20
1662.5750060298
 30
0.0
 10
2847.453114101
 20
1664.3614535041
 30
0.0
 10
2848.4384384031
 20
1668.0643776518
 30
0.0
 10
2850.9717209983
 20
1671.9992507019
 30
0.0
 10
2853.6998034771
 20
1674.3948604766
 30
0.0
 10
2856.1904896998
 20
1675.8055783253
 30
0.0
 10
2858.4816644681
 20
1675.9221712159
 30
0.0
 10
2859.5269159153
 20
1675.3170686838
 30
0.0
  0
SPLINE
  5
583
100
AcDbEntity
  8
0
100
AcDbSpline
 62
7
  6
CONTINUOUS
 70
0
 71
3
 72
12
 73
8
 74
0
 42
0.0000001
 43
0.0000001
 44
0.0000000001
 40
0.0
 40
0.0
 40
0.0
 40
0.0
 40
0.2710583603
 40
0.5638170729
 40
0.6985544259
 40
0.816745142
 40
1.0
 40
1.0
 40
1.0
 40
1.0
 10
2775.6110651325
 20
1621.0861177042
 30
0.0
 10
2775.6110651325
 20
1622.8725651784
 30
0.0
 10
2776.5963894345
 20
1626.5754893261
 30
0.0
 10
2779.1296720297
 20
1630.5103623762
 30
0.0
 10
2781.8577545086
 20
1632.9059721509
 30
0.0
 10
2784.3484407313
 20
1634.3166899996
 30
0.0
 10
2786.6396154995
 20
1634.4332828902
 30
0.0
 10
2787.6848669467
 20
1633.8281803582
 30
0.0
  0
SPLINE
  5
584
100
AcDbEntity
  8
0
100
AcDbSpline
 62
7
  6
CONTINUOUS
 70
0
 71
3
 72
12
 73
8
 74
0
 42
0.0000001
 43
0.0000001
 44
0.0000000001
 40
0.0
 40
0.0
 40
0.0
 40
0.0
 40
0.2710583603
 40
0.5638170729
 40
0.6985544259
 40
0.816745142
 40
1.0
 40
1.0
 40
1.0
 40
1.0
 10
2739.6900406482
 20
1600.3416735413
 30
0.0
 10
2739.6900406482
 20
1602.1281210156
 30
0.0
 10
2740.6753649502
 20
1605.8310451633
 30
0.0
 10
2743.2086475455
 20
1609.7659182134
 30
0.0
 10
2745.9367300243
 20
1612.1615279881
 30
0.0
 10
2748.427416247
 20
1613.5722458368
 30
0.0
 10
2750.7185910153
 20
1613.6888387274
 30
0.0
 10
2751.7638424624
 20
1613.0837361953
 30
0.0
  0
SPLINE
  5
585
100
AcDbEntity
  8
0
100
AcDbSpline
 62
7
  6
CONTINUOUS
 70
0
 71
3
 72
12
 73
8
 74
0
 42
0.0000001
 43
0.0000001
 44
0.0000000001
 40
0.0
 40
0.0
 40
0.0
 40
0.0
 40
0.2710583603
 40
0.5638170729
 40
0.6985544259
 40
0.816745142
 40
1.0
 40
1.0
 40
1.0
 40
1.0
 10
2703.7690161639
 20
1579.5972293785
 30
0.0
 10
2703.7690161639
 20
1581.3836768528
 30
0.0
 10
2704.754340466
 20
1585.0866010004
 30
0.0
 10
2707.2876230612
 20
1589.0214740506
 30
0.0
 10
2710.01570554
 20
1591.4170838253
 30
0.0
 10
2712.5063917627
 20
1592.827801674
 30
0.0
 10
2714.797566531
 20
1592.9443945645
 30
0.0
 10
2715.8428179782
 20
1592.3392920325
 30
0.0
  0
SPLINE
  5
586
100
AcDbEntity
  8
0
100
AcDbSpline
 62
7
  6
CONTINUOUS
 70
0
 71
3
 72
12
 73
8
 74
0
 42
0.0000001
 43
0.0000001
 44
0.0000000001
 40
0.0
 40
0.0
 40
0.0
 40
0.0
 40
0.2710583603
 40
0.5638170729
 40
0.6985544259
 40
0.816745142
 40
1.0
 40
1.0
 40
1.0
 40
1.0
 10
2667.8479916796
 20
1558.8527852157
 30
0.0
 10
2667.8479916796
 20
1560.6392326899
 30
0.0
 10
2668.8333159817
 20
1564.3421568376
 30
0.0
 10
2671.3665985769
 20
1568.2770298877
 30
0.0
 10
2674.0946810558
 20
1570.6726396624
 30
0.0
 10
2676.5853672784
 20
1572.0833575111
 30
0.0
 10
2678.8765420467
 20
1572.1999504017
 30
0.0
 10
2679.9217934939
 20
1571.5948478697
 30
0.0
  0
SPLINE
  5
587
100
AcDbEntity
  8
0
100
AcDbSpline
 62
7
  6
CONTINUOUS
 70
0
 71
3
 72
11
 73
7
 74
0
 42
0.0000001
 43
0.0000001
 44
0.0000000001
 40
0.0
 40
0.0
 40
0.0
 40
0.0
 40
0.3076919329
 40
0.5847250101
 40
0.8130887355
 40
1.0
 40
1.0
 40
1.0
 40
1.0
 10
2634.1019450877
 20
1545.2545657881
 30
0.0
 10
2634.7471186088
 20
1546.342371158
 30
0.0
 10
2636.2012513219
 20
1548.287855114
 30
0.0
 10
2638.8086305001
 20
1550.432393681
 30
0.0
 10
2641.5211351036
 20
1551.5178238438
 30
0.0
 10
2643.3358653167
 20
1551.2353205699
 30
0.0
 10
2644.0007690096
 20
1550.8504037068
 30
0.0
  0
SPLINE
  5
588
100
AcDbEntity
  8
0
100
AcDbSpline
 62
7
  6
CONTINUOUS
 70
0
 71
3
 72
9
 73
5
 74
0
 42
0.0000001
 43
0.0000001
 44
0.0000000001
 40
0.0
 40
0.0
 40
0.0
 40
0.0
 40
0.4492176063
 40
1.0
 40
1.0
 40
1.0
 40
1.0
 10
2608.7500119332
 20
1678.3696801228
 30
0.0
 10
2607.7380349431
 20
1678.9536392728
 30
0.0
 10
2604.9693099354
 20
1679.3721077325
 30
0.0
 10
2602.4905457848
 20
1678.341554157
 30
0.0
 10
2601.2500119332
 20
1677.6251440438
 30
0.0
  0
SPLINE
  5
589
100
AcDbEntity
  8
0
100
AcDbSpline
 62
7
  6
CONTINUOUS
 70
0
 71
3
 72
9
 73
5
 74
0
 42
0.0000001
 43
0.0000001
 44
0.0000000001
 40
0.0
 40
0.0
 40
0.0
 40
0.0
 40
0.229119367
 40
1.0
 40
1.0
 40
1.0
 40
1.0
 10
2634.0368084976
 20
1696.5595670001
 30
0.0
 10
2633.3108867982
 20
1696.1403461573
 30
0.0
 10
2630.3069598334
 20
1694.0301135701
 30
0.0
 10
2627.9470156901
 20
1691.0841316112
 30
0.0
 10
2626.5368084976
 20
1688.6415811463
 30
0.0
  0
SPLINE
  5
58A
100
AcDbEntity
  8
0
100
AcDbSpline
 62
7
  6
CONTINUOUS
 70
0
 71
3
 72
9
 73
5
 74
0
 42
0.0000001
 43
0.0000001
 44
0.0000000001
 40
0.0
 40
0.0
 40
0.0
 40
0.0
 40
0.4492176063
 40
1.0
 40
1.0
 40
1.0
 40
1.0
 10
2887.7036371113
 20
1839.4658065448
 30
0.0
 10
2886.6916601211
 20
1840.0497656948
 30
0.0
 10
2883.9229351135
 20
1840.4682341545
 30
0.0
 10
2881.4441709629
 20
1839.437680579
 30
0.0
 10
2880.2036371113
 20
1838.7212704658
 30
0.0
  0
SPLINE
  5
58B
100
AcDbEntity
  8
0
100
AcDbSpline
 62
7
  6
CONTINUOUS
 70
0
 71
3
 72
11
 73
7
 74
0
 42
0.0000001
 43
0.0000001
 44
0.0000000001
 40
0.0
 40
0.0
 40
0.0
 40
0.0
 40
0.1864968746
 40
0.415116576
 40
0.6925667375
 40
1.0
 40
1.0
 40
1.0
 40
1.0
 10
2611.6434102154
 20
1676.7000508548
 30
0.0
 10
2612.4530910959
 20
1676.2328262406
 30
0.0
 10
2614.6702812509
 20
1675.9014429623
 30
0.0
 10
2617.9665295049
 20
1677.2583592123
 30
0.0
 10
2621.1238596631
 20
1679.90333878
 30
0.0
 10
2622.872904801
 20
1682.2955138986
 30
0.0
 10
2623.6434102154
 20
1683.630068401
 30
0.0
  0
SPLINE
  5
58C
100
AcDbEntity
  8
0
100
AcDbSpline
 62
7
  6
CONTINUOUS
 70
0
 71
3
 72
11
 73
7
 74
0
 42
0.0000001
 43
0.0000001
 44
0.0000000001
 40
0.0
 40
0.0
 40
0.0
 40
0.0
 40
0.197715411
 40
0.4248934375
 40
0.6934981064
 40
1.0
 40
1.0
 40
1.0
 40
1.0
 10
2890.5970353935
 20
1837.7961772768
 30
0.0
 10
2891.2075130944
 20
1837.4439024298
 30
0.0
 10
2892.7489520719
 20
1837.0572687185
 30
0.0
 10
2895.2216712102
 20
1837.5817120063
 30
0.0
 10
2897.7410927615
 20
1838.9970909651
 30
0.0
 10
2899.2696514379
 20
1840.3880804791
 30
0.0
 10
2900.0104250469
 20
1841.1912646639
 30
0.0
  0
SPLINE
  5
58D
100
AcDbEntity
  8
0
100
AcDbSpline
 62
7
  6
CONTINUOUS
 70
0
 71
3
 72
9
 73
5
 74
0
 42
0.0000001
 43
0.0000001
 44
0.0000000001
 40
0.0
 40
0.0
 40
0.0
 40
0.0
 40
0.2952450707
 40
1.0
 40
1.0
 40
1.0
 40
1.0
 10
2686.7630980764
 20
1749.7047086068
 30
0.0
 10
2686.7630980764
 20
1749.489519354
 30
0.0
 10
2686.8109798278
 20
1748.7704087228
 30
0.0
 10
2687.1990818005
 20
1748.0152042448
 30
0.0
 10
2687.6443807788
 20
1747.7591656231
 30
0.0
  0
SPLINE
  5
58E
100
AcDbEntity
  8
0
100
AcDbSpline
 62
7
  6
CONTINUOUS
 70
0
 71
3
 72
9
 73
5
 74
0
 42
0.0000001
 43
0.0000001
 44
0.0000000001
 40
0.0
 40
0.0
 40
0.0
 40
0.0
 40
0.2952450707
 40
1.0
 40
1.0
 40
1.0
 40
1.0
 10
2893.5918315734
 20
1846.4529723437
 30
0.0
 10
2893.5918315734
 20
1846.237783091
 30
0.0
 10
2893.6397133249
 20
1845.5186724598
 30
0.0
 10
2894.0278152976
 20
1844.7634679818
 30
0.0
 10
2894.4731142759
 20
1844.50742936
 30
0.0
  0
SPLINE
  5
58F
100
AcDbEntity
  8
0
100
AcDbSpline
 62
7
  6
CONTINUOUS
 70
0
 71
3
 72
9
 73
5
 74
0
 42
0.0000001
 43
0.0000001
 44
0.0000000001
 40
0.0
 40
0.0
 40
0.0
 40
0.0
 40
0.2952450707
 40
1.0
 40
1.0
 40
1.0
 40
1.0
 10
2614.6382063954
 20
1685.3568459217
 30
0.0
 10
2614.6382063954
 20
1685.141656669
 30
0.0
 10
2614.6860881468
 20
1684.4225460378
 30
0.0
 10
2615.0741901195
 20
1683.6673415598
 30
0.0
 10
2615.5194890978
 20
1683.411302938
 30
0.0
  0
SPLINE
  5
590
100
AcDbEntity
  8
0
100
AcDbSpline
 62
7
  6
CONTINUOUS
 70
0
 71
3
 72
9
 73
5
 74
0
 42
0.0000001
 43
0.0000001
 44
0.0000000001
 40
0.0
 40
0.0
 40
0.0
 40
0.0
 40
0.2952450707
 40
1.0
 40
1.0
 40
1.0
 40
1.0
 10
2821.4669398924
 20
1827.4963742174
 30
0.0
 10
2821.4669398924
 20
1827.2811849646
 30
0.0
 10
2821.5148216439
 20
1826.5620743334
 30
0.0
 10
2821.9029236165
 20
1825.8068698554
 30
0.0
 10
2822.3482225949
 20
1825.5508312337
 30
0.0
  0
SPLINE
  5
591
100
AcDbEntity
  8
0
100
AcDbSpline
 62
7
  6
CONTINUOUS
 70
0
 71
3
 72
9
 73
5
 74
0
 42
0.0000001
 43
0.0000001
 44
0.0000000001
 40
0.0
 40
0.0
 40
0.0
 40
0.0
 40
0.5507928343
 40
1.0
 40
1.0
 40
1.0
 40
1.0
 10
2855.5848420847
 20
1865.3233628575
 30
0.0
 10
2855.5848420847
 20
1864.3690801881
 30
0.0
 10
2855.8161452957
 20
1862.5957504595
 30
0.0
 10
2856.97962058
 20
1861.1383295447
 30
0.0
 10
2857.6531758942
 20
1860.7484042046
 30
0.0
  0
SPLINE
  5
592
100
AcDbEntity
  8
0
100
AcDbSpline
 62
7
  6
CONTINUOUS
 70
0
 71
3
 72
9
 73
5
 74
0
 42
0.0000001
 43
0.0000001
 44
0.0000000001
 40
0.0
 40
0.0
 40
0.0
 40
0.0
 40
0.5507928343
 40
1.0
 40
1.0
 40
1.0
 40
1.0
 10
2819.6638176004
 20
1844.5789186947
 30
0.0
 10
2819.6638176004
 20
1843.6246360253
 30
0.0
 10
2819.8951208114
 20
1841.8513062966
 30
0.0
 10
2821.0585960958
 20
1840.3938853819
 30
0.0
 10
2821.7321514099
 20
1840.0039600418
 30
0.0
  0
SPLINE
  5
593
100
AcDbEntity
  8
0
100
AcDbSpline
 62
7
  6
CONTINUOUS
 70
0
 71
3
 72
9
 73
5
 74
0
 42
0.0000001
 43
0.0000001
 44
0.0000000001
 40
0.0
 40
0.0
 40
0.0
 40
0.0
 40
0.5507928343
 40
1.0
 40
1.0
 40
1.0
 40
1.0
 10
2783.7427931161
 20
1823.8344745318
 30
0.0
 10
2783.7427931161
 20
1822.8801918625
 30
0.0
 10
2783.9740963271
 20
1821.1068621338
 30
0.0
 10
2785.1375716115
 20
1819.6494412191
 30
0.0
 10
2785.8111269256
 20
1819.259515879
 30
0.0
  0
SPLINE
  5
594
100
AcDbEntity
  8
0
100
AcDbSpline
 62
7
  6
CONTINUOUS
 70
0
 71
3
 72
9
 73
5
 74
0
 42
0.0000001
 43
0.0000001
 44
0.0000000001
 40
0.0
 40
0.0
 40
0.0
 40
0.0
 40
0.5507928343
 40
1.0
 40
1.0
 40
1.0
 40
1.0
 10
2747.8217686318
 20
1803.090030369
 30
0.0
 10
2747.8217686318
 20
1802.1357476996
 30
0.0
 10
2748.0530718428
 20
1800.362417971
 30
0.0
 10
2749.2165471272
 20
1798.9049970562
 30
0.0
 10
2749.8901024413
 20
1798.5150717161
 30
0.0
  0
SPLINE
  5
595
100
AcDbEntity
  8
0
100
AcDbSpline
 62
7
  6
CONTINUOUS
 70
0
 71
3
 72
9
 73
5
 74
0
 42
0.0000001
 43
0.0000001
 44
0.0000000001
 40
0.0
 40
0.0
 40
0.0
 40
0.0
 40
0.5507928343
 40
1.0
 40
1.0
 40
1.0
 40
1.0
 10
2711.9007441476
 20
1782.3455862062
 30
0.0
 10
2711.9007441476
 20
1781.3913035368
 30
0.0
 10
2712.1320473586
 20
1779.6179738081
 30
0.0
 10
2713.2955226429
 20
1778.1605528934
 30
0.0
 10
2713.9690779571
 20
1777.7706275533
 30
0.0
  0
SPLINE
  5
596
100
AcDbEntity
  8
0
100
AcDbSpline
 62
7
  6
CONTINUOUS
 70
0
 71
3
 72
9
 73
5
 74
0
 42
0.0000001
 43
0.0000001
 44
0.0000000001
 40
0.0
 40
0.0
 40
0.0
 40
0.0
 40
0.5507928343
 40
1.0
 40
1.0
 40
1.0
 40
1.0
 10
2675.9797196633
 20
1761.6011420434
 30
0.0
 10
2675.9797196633
 20
1760.646859374
 30
0.0
 10
2676.2110228743
 20
1758.8735296453
 30
0.0
 10
2677.3744981586
 20
1757.4161087306
 30
0.0
 10
2678.0480534728
 20
1757.0261833905
 30
0.0
  0
SPLINE
  5
597
100
AcDbEntity
  8
0
100
AcDbSpline
 62
7
  6
CONTINUOUS
 70
0
 71
3
 72
9
 73
5
 74
0
 42
0.0000001
 43
0.0000001
 44
0.0000000001
 40
0.0
 40
0.0
 40
0.0
 40
0.0
 40
0.5507928343
 40
1.0
 40
1.0
 40
1.0
 40
1.0
 10
2604.1376706947
 20
1720.1122537177
 30
0.0
 10
2604.1376706947
 20
1719.1579710483
 30
0.0
 10
2604.3689739057
 20
1717.3846413196
 30
0.0
 10
2605.5324491901
 20
1715.9272204049
 30
0.0
 10
2606.2060045042
 20
1715.5372950648
 30
0.0
  0
SPLINE
  5
598
100
AcDbEntity
  8
0
100
AcDbSpline
 62
7
  6
CONTINUOUS
 70
0
 71
3
 72
9
 73
5
 74
0
 42
0.0000001
 43
0.0000001
 44
0.0000000001
 40
0.0
 40
0.0
 40
0.0
 40
0.0
 40
0.5507928343
 40
1.0
 40
1.0
 40
1.0
 40
1.0
 10
2568.2166462105
 20
1699.3678095549
 30
0.0
 10
2568.2166462105
 20
1698.4135268855
 30
0.0
 10
2568.4479494215
 20
1696.6401971568
 30
0.0
 10
2569.6114247058
 20
1695.1827762421
 30
0.0
 10
2570.28498002
 20
1694.792850902
 30
0.0
  0
SPLINE
  5
599
100
AcDbEntity
  8
0
100
AcDbSpline
 62
7
  6
CONTINUOUS
 70
0
 71
3
 72
9
 73
5
 74
0
 42
0.0000001
 43
0.0000001
 44
0.0000000001
 40
0.0
 40
0.0
 40
0.0
 40
0.0
 40
0.5507928343
 40
1.0
 40
1.0
 40
1.0
 40
1.0
 10
2496.3745972419
 20
1657.8789212292
 30
0.0
 10
2496.3745972419
 20
1656.9246385598
 30
0.0
 10
2496.6059004529
 20
1655.1513088311
 30
0.0
 10
2497.7693757373
 20
1653.6938879164
 30
0.0
 10
2498.4429310514
 20
1653.3039625763
 30
0.0
  0
SPLINE
  5
59A
100
AcDbEntity
  8
0
100
AcDbSpline
 62
7
  6
CONTINUOUS
 70
0
 71
3
 72
9
 73
5
 74
0
 42
0.0000001
 43
0.0000001
 44
0.0000000001
 40
0.0
 40
0.0
 40
0.0
 40
0.0
 40
0.5507928343
 40
1.0
 40
1.0
 40
1.0
 40
1.0
 10
2532.2956217262
 20
1678.623365392
 30
0.0
 10
2532.2956217262
 20
1677.6690827226
 30
0.0
 10
2532.5269249372
 20
1675.895752994
 30
0.0
 10
2533.6904002215
 20
1674.4383320792
 30
0.0
 10
2534.3639555357
 20
1674.0484067391
 30
0.0
  0
SPLINE
  5
59B
100
AcDbEntity
  8
0
100
AcDbSpline
 62
7
  6
CONTINUOUS
 70
0
 71
3
 72
9
 73
5
 74
0
 42
0.0000001
 43
0.0000001
 44
0.0000000001
 40
0.0
 40
0.0
 40
0.0
 40
0.0
 40
0.4492071657
 40
1.0
 40
1.0
 40
1.0
 40
1.0
 10
2644.0007690096
 20
1550.8504037068
 30
0.0
 10
2644.6743243237
 20
1550.4604783667
 30
0.0
 10
2645.8377996081
 20
1549.003057452
 30
0.0
 10
2646.0691028191
 20
1547.2297277233
 30
0.0
 10
2646.0691028191
 20
1546.275445054
 30
0.0
  0
SPLINE
  5
59C
100
AcDbEntity
  8
0
100
AcDbSpline
 62
7
  6
CONTINUOUS
 70
0
 71
3
 72
12
 73
8
 74
0
 42
0.0000001
 43
0.0000001
 44
0.0000000001
 40
0.0
 40
0.0
 40
0.0
 40
0.0
 40
0.183254858
 40
0.3014455741
 40
0.4361829271
 40
0.7289416397
 40
1.0
 40
1.0
 40
1.0
 40
1.0
 10
2749.8901024413
 20
1798.5150717161
 30
0.0
 10
2750.9353538885
 20
1797.9099691841
 30
0.0
 10
2753.2265286568
 20
1798.0265620747
 30
0.0
 10
2755.7172148795
 20
1799.4372799234
 30
0.0
 10
2758.4452973583
 20
1801.8328896981
 30
0.0
 10
2760.9785799535
 20
1805.7677627482
 30
0.0
 10
2761.9639042556
 20
1809.4706868959
 30
0.0
 10
2761.9639042556
 20
1811.2571343701
 30
0.0
  0
SPLINE
  5
59D
100
AcDbEntity
  8
6_COPYGEOM
100
AcDbSpline
 62
7
  6
CONTINUOUS
 70
0
 71
3
 72
12
 73
8
 74
0
 42
0.0000001
 43
0.0000001
 44
0.0000000001
 40
0.0
 40
0.0
 40
0.0
 40
0.0
 40
0.183254858
 40
0.3014455741
 40
0.4361829271
 40
0.7289416397
 40
1.0
 40
1.0
 40
1.0
 40
1.0
 10
3117.4442073021
 20
1627.7409270528
 30
0.0
 10
3118.4894587493
 20
1627.1358245208
 30
0.0
 10
3120.7806335175
 20
1627.2524174113
 30
0.0
 10
3123.2713197402
 20
1628.66313526
 30
0.0
 10
3125.9994022191
 20
1631.0587450347
 30
0.0
 10
3128.5326848143
 20
1634.9936180849
 30
0.0
 10
3129.5180091163
 20
1638.6965422325
 30
0.0
 10
3129.5180091163
 20
1640.4829897068
 30
0.0
  0
SPLINE
  5
59E
100
AcDbEntity
  8
6_COPYGEOM
100
AcDbSpline
 62
7
  6
CONTINUOUS
 70
0
 71
3
 72
9
 73
5
 74
0
 42
0.0000001
 43
0.0000001
 44
0.0000000001
 40
0.0
 40
0.0
 40
0.0
 40
0.0
 40
0.2952450707
 40
1.0
 40
1.0
 40
1.0
 40
1.0
 10
3231.23531959
 20
1658.4054027181
 30
0.0
 10
3231.23531959
 20
1658.6205919708
 30
0.0
 10
3231.1874378386
 20
1659.339702602
 30
0.0
 10
3230.7993358659
 20
1660.09490708
 30
0.0
 10
3230.3540368876
 20
1660.3509457018
 30
0.0
  0
SPLINE
  5
59F
100
AcDbEntity
  8
6_COPYGEOM
100
AcDbSpline
 62
7
  6
CONTINUOUS
 70
0
 71
3
 72
12
 73
8
 74
0
 42
0.0000001
 43
0.0000001
 44
0.0000000001
 40
0.0
 40
0.0
 40
0.0
 40
0.0
 40
0.183254858
 40
0.3014455741
 40
0.4361829271
 40
0.7289416397
 40
1.0
 40
1.0
 40
1.0
 40
1.0
 10
3153.3652317864
 20
1648.4853712156
 30
0.0
 10
3154.4104832335
 20
1647.8802686836
 30
0.0
 10
3156.7016580018
 20
1647.9968615742
 30
0.0
 10
3159.1923442245
 20
1649.4075794229
 30
0.0
 10
3161.9204267034
 20
1651.8031891976
 30
0.0
 10
3164.4537092986
 20
1655.7380622477
 30
0.0
 10
3165.4390336006
 20
1659.4409863954
 30
0.0
 10
3165.4390336006
 20
1661.2274338696
 30
0.0
  0
SPLINE
  5
5A0
100
AcDbEntity
  8
0
100
AcDbSpline
 62
7
  6
CONTINUOUS
 70
0
 71
3
 72
12
 73
8
 74
0
 42
0.0000001
 43
0.0000001
 44
0.0000000001
 40
0.0
 40
0.0
 40
0.0
 40
0.0
 40
0.183254858
 40
0.3014455741
 40
0.4361829271
 40
0.7289416397
 40
1.0
 40
1.0
 40
1.0
 40
1.0
 10
2534.3639555357
 20
1674.0484067391
 30
0.0
 10
2535.4092069828
 20
1673.4433042071
 30
0.0
 10
2537.7003817511
 20
1673.5598970977
 30
0.0
 10
2540.1910679738
 20
1674.9706149464
 30
0.0
 10
2542.9191504527
 20
1677.3662247211
 30
0.0
 10
2545.4524330479
 20
1681.3010977712
 30
0.0
 10
2546.4377573499
 20
1685.0040219189
 30
0.0
 10
2546.4377573499
 20
1686.7904693931
 30
0.0
  0
SPLINE
  5
5A1
100
AcDbEntity
  8
0
100
AcDbSpline
 62
7
  6
CONTINUOUS
 70
0
 71
3
 72
12
 73
8
 74
0
 42
0.0000001
 43
0.0000001
 44
0.0000000001
 40
0.0
 40
0.0
 40
0.0
 40
0.0
 40
0.183254858
 40
0.3014455741
 40
0.4361829271
 40
0.7289416397
 40
1.0
 40
1.0
 40
1.0
 40
1.0
 10
2785.8111269256
 20
1819.259515879
 30
0.0
 10
2786.8563783728
 20
1818.6544133469
 30
0.0
 10
2789.147553141
 20
1818.7710062375
 30
0.0
 10
2791.6382393637
 20
1820.1817240862
 30
0.0
 10
2794.3663218426
 20
1822.5773338609
 30
0.0
 10
2796.8996044378
 20
1826.512206911
 30
0.0
 10
2797.8849287398
 20
1830.2151310587
 30
0.0
 10
2797.8849287398
 20
1832.001578533
 30
0.0
  0
SPLINE
  5
5A2
100
AcDbEntity
  8
6_COPYGEOM
100
AcDbSpline
 62
7
  6
CONTINUOUS
 70
0
 71
3
 72
12
 73
8
 74
0
 42
0.0000001
 43
0.0000001
 44
0.0000000001
 40
0.0
 40
0.0
 40
0.0
 40
0.0
 40
0.183254858
 40
0.3014455741
 40
0.4361829271
 40
0.7289416397
 40
1.0
 40
1.0
 40
1.0
 40
1.0
 10
3189.2862562707
 20
1669.2298153785
 30
0.0
 10
3190.3315077178
 20
1668.6247128465
 30
0.0
 10
3192.6226824861
 20
1668.741305737
 30
0.0
 10
3195.1133687088
 20
1670.1520235857
 30
0.0
 10
3197.8414511876
 20
1672.5476333604
 30
0.0
 10
3200.3747337828
 20
1676.4825064106
 30
0.0
 10
3201.3600580849
 20
1680.1854305582
 30
0.0
 10
3201.3600580849
 20
1681.9718780325
 30
0.0
  0
SPLINE
  5
5A3
100
AcDbEntity
  8
6_COPYGEOM
100
AcDbSpline
 62
7
  6
CONTINUOUS
 70
0
 71
3
 72
10
 73
6
 74
0
 42
0.0000001
 43
0.0000001
 44
0.0000000001
 40
0.0
 40
0.0
 40
0.0
 40
0.0
 40
0.4227036001
 40
0.7224444811
 40
1.0
 40
1.0
 40
1.0
 40
1.0
 10
3153.9813029714
 20
1634.0322424075
 30
0.0
 10
3154.9833163962
 20
1633.4561033442
 30
0.0
 10
3157.3316633683
 20
1634.861234103
 30
0.0
 10
3158.6598577597
 20
1637.0985412542
 30
0.0
 10
3159.110427909
 20
1638.689856967
 30
0.0
 10
3159.110427909
 20
1639.4488045917
 30
0.0
  0
SPLINE
  5
5A4
100
AcDbEntity
  8
6_COPYGEOM
100
AcDbSpline
 62
7
  6
CONTINUOUS
 70
0
 71
3
 72
10
 73
6
 74
0
 42
0.0000001
 43
0.0000001
 44
0.0000000001
 40
0.0
 40
0.0
 40
0.0
 40
0.0
 40
0.4227036001
 40
0.7224444811
 40
1.0
 40
1.0
 40
1.0
 40
1.0
 10
2947.1525694743
 20
1491.8927141119
 30
0.0
 10
2948.1545828992
 20
1491.3165750486
 30
0.0
 10
2950.5029298713
 20
1492.7217058074
 30
0.0
 10
2951.8311242627
 20
1494.9590129586
 30
0.0
 10
2952.2816944119
 20
1496.5503286714
 30
0.0
 10
2952.2816944119
 20
1497.3092762961
 30
0.0
  0
SPLINE
  5
5A5
100
AcDbEntity
  8
6_COPYGEOM
100
AcDbSpline
 62
7
  6
CONTINUOUS
 70
0
 71
3
 72
10
 73
6
 74
0
 42
0.0000001
 43
0.0000001
 44
0.0000000001
 40
0.0
 40
0.0
 40
0.0
 40
0.0
 40
0.4227036001
 40
0.7224444811
 40
1.0
 40
1.0
 40
1.0
 40
1.0
 10
3226.1061946524
 20
1652.9888405339
 30
0.0
 10
3227.1082080773
 20
1652.4127014706
 30
0.0
 10
3229.4565550494
 20
1653.8178322294
 30
0.0
 10
3230.7847494408
 20
1656.0551393806
 30
0.0
 10
3231.23531959
 20
1657.6464550934
 30
0.0
 10
3231.23531959
 20
1658.4054027181
 30
0.0
  0
SPLINE
  5
5A6
100
AcDbEntity
  8
6_COPYGEOM
100
AcDbSpline
 62
7
  6
CONTINUOUS
 70
0
 71
3
 72
10
 73
6
 74
0
 42
0.0000001
 43
0.0000001
 44
0.0000000001
 40
0.0
 40
0.0
 40
0.0
 40
0.0
 40
0.4227036001
 40
0.7224444811
 40
1.0
 40
1.0
 40
1.0
 40
1.0
 10
3019.2774611553
 20
1556.2405767969
 30
0.0
 10
3020.2794745802
 20
1555.6644377336
 30
0.0
 10
3022.6278215523
 20
1557.0695684924
 30
0.0
 10
3023.9560159437
 20
1559.3068756436
 30
0.0
 10
3024.406586093
 20
1560.8981913564
 30
0.0
 10
3024.406586093
 20
1561.6571389811
 30
0.0
  0
SPLINE
  5
5A7
100
AcDbEntity
  8
0
100
AcDbSpline
 62
7
  6
CONTINUOUS
 70
0
 71
3
 72
9
 73
5
 74
0
 42
0.0000001
 43
0.0000001
 44
0.0000000001
 40
0.0
 40
0.0
 40
0.0
 40
0.0
 40
0.4492071657
 40
1.0
 40
1.0
 40
1.0
 40
1.0
 10
2679.9217934939
 20
1571.5948478697
 30
0.0
 10
2680.595348808
 20
1571.2049225296
 30
0.0
 10
2681.7588240924
 20
1569.7475016148
 30
0.0
 10
2681.9901273034
 20
1567.9741718862
 30
0.0
 10
2681.9901273034
 20
1567.0198892168
 30
0.0
  0
SPLINE
  5
5A8
100
AcDbEntity
  8
6_COPYGEOM
100
AcDbSpline
 62
7
  6
CONTINUOUS
 70
0
 71
3
 72
9
 73
5
 74
0
 42
0.0000001
 43
0.0000001
 44
0.0000000001
 40
0.0
 40
0.0
 40
0.0
 40
0.0
 40
0.5507928343
 40
1.0
 40
1.0
 40
1.0
 40
1.0
 10
2878.0708377264
 20
1495.271880567
 30
0.0
 10
2878.0708377264
 20
1496.2261632364
 30
0.0
 10
2877.8395345154
 20
1497.999492965
 30
0.0
 10
2876.676059231
 20
1499.4569138798
 30
0.0
 10
2876.0025039169
 20
1499.8468392199
 30
0.0
  0
SPLINE
  5
5A9
100
AcDbEntity
  8
6_COPYGEOM
100
AcDbSpline
 62
7
  6
CONTINUOUS
 70
0
 71
3
 72
9
 73
5
 74
0
 42
0.0000001
 43
0.0000001
 44
0.0000000001
 40
0.0
 40
0.0
 40
0.0
 40
0.0
 40
0.5507928343
 40
1.0
 40
1.0
 40
1.0
 40
1.0
 10
3165.4390336006
 20
1661.2274338696
 30
0.0
 10
3165.4390336006
 20
1662.181716539
 30
0.0
 10
3165.2077303896
 20
1663.9550462677
 30
0.0
 10
3164.0442551053
 20
1665.4124671824
 30
0.0
 10
3163.3706997911
 20
1665.8023925225
 30
0.0
  0
SPLINE
  5
5AA
100
AcDbEntity
  8
0
100
AcDbSpline
 62
7
  6
CONTINUOUS
 70
0
 71
3
 72
12
 73
8
 74
0
 42
0.0000001
 43
0.0000001
 44
0.0000000001
 40
0.0
 40
0.0
 40
0.0
 40
0.0
 40
0.2710583603
 40
0.5638170729
 40
0.6985544259
 40
0.816745142
 40
1.0
 40
1.0
 40
1.0
 40
1.0
 10
3041.2003721461
 20
1774.4643308451
 30
0.0
 10
3041.2003721461
 20
1772.6778833708
 30
0.0
 10
3040.2150478441
 20
1768.9749592232
 30
0.0
 10
3037.6817652489
 20
1765.040086173
 30
0.0
 10
3034.95368277
 20
1762.6444763983
 30
0.0
 10
3032.4629965473
 20
1761.2337585496
 30
0.0
 10
3030.1718217791
 20
1761.1171656591
 30
0.0
 10
3029.1265703319
 20
1761.7222681911
 30
0.0
  0
SPLINE
  5
5AB
100
AcDbEntity
  8
0
100
AcDbSpline
 62
7
  6
CONTINUOUS
 70
0
 71
3
 72
9
 73
5
 74
0
 42
0.0000001
 43
0.0000001
 44
0.0000000001
 40
0.0
 40
0.0
 40
0.0
 40
0.0
 40
0.4492071657
 40
1.0
 40
1.0
 40
1.0
 40
1.0
 10
2715.8428179782
 20
1592.3392920325
 30
0.0
 10
2716.5163732923
 20
1591.9493666924
 30
0.0
 10
2717.6798485766
 20
1590.4919457777
 30
0.0
 10
2717.9111517877
 20
1588.718616049
 30
0.0
 10
2717.9111517877
 20
1587.7643333796
 30
0.0
  0
SPLINE
  5
5AC
100
AcDbEntity
  8
0
100
AcDbSpline
 62
7
  6
CONTINUOUS
 70
0
 71
3
 72
12
 73
8
 74
0
 42
0.0000001
 43
0.0000001
 44
0.0000000001
 40
0.0
 40
0.0
 40
0.0
 40
0.0
 40
0.2710583603
 40
0.5638170729
 40
0.6985544259
 40
0.816745142
 40
1.0
 40
1.0
 40
1.0
 40
1.0
 10
3005.2793476619
 20
1753.7198866823
 30
0.0
 10
3005.2793476619
 20
1751.933439208
 30
0.0
 10
3004.2940233598
 20
1748.2305150603
 30
0.0
 10
3001.7607407646
 20
1744.2956420102
 30
0.0
 10
2999.0326582858
 20
1741.9000322355
 30
0.0
 10
2996.5419720631
 20
1740.4893143868
 30
0.0
 10
2994.2507972948
 20
1740.3727214963
 30
0.0
 10
2993.2055458476
 20
1740.9778240283
 30
0.0
  0
SPLINE
  5
5AD
100
AcDbEntity
  8
0
100
AcDbSpline
 62
7
  6
CONTINUOUS
 70
0
 71
3
 72
12
 73
8
 74
0
 42
0.0000001
 43
0.0000001
 44
0.0000000001
 40
0.0
 40
0.0
 40
0.0
 40
0.0
 40
0.183254858
 40
0.3014455741
 40
0.4361829271
 40
0.7289416397
 40
1.0
 40
1.0
 40
1.0
 40
1.0
 10
2821.7321514099
 20
1840.0039600418
 30
0.0
 10
2822.7774028571
 20
1839.3988575098
 30
0.0
 10
2825.0685776253
 20
1839.5154504003
 30
0.0
 10
2827.559263848
 20
1840.926168249
 30
0.0
 10
2830.2873463269
 20
1843.3217780237
 30
0.0
 10
2832.8206289221
 20
1847.2566510739
 30
0.0
 10
2833.8059532241
 20
1850.9595752215
 30
0.0
 10
2833.8059532241
 20
1852.7460226958
 30
0.0
  0
SPLINE
  5
5AE
100
AcDbEntity
  8
0
100
AcDbSpline
 62
7
  6
CONTINUOUS
 70
0
 71
3
 72
12
 73
8
 74
0
 42
0.0000001
 43
0.0000001
 44
0.0000000001
 40
0.0
 40
0.0
 40
0.0
 40
0.0
 40
0.2710583603
 40
0.5638170729
 40
0.6985544259
 40
0.816745142
 40
1.0
 40
1.0
 40
1.0
 40
1.0
 10
2969.3583231776
 20
1732.9754425194
 30
0.0
 10
2969.3583231776
 20
1731.1889950452
 30
0.0
 10
2968.3729988755
 20
1727.4860708975
 30
0.0
 10
2965.8397162803
 20
1723.5511978474
 30
0.0
 10
2963.1116338015
 20
1721.1555880727
 30
0.0
 10
2960.6209475788
 20
1719.744870224
 30
0.0
 10
2958.3297728105
 20
1719.6282773334
 30
0.0
 10
2957.2845213633
 20
1720.2333798654
 30
0.0
  0
SPLINE
  5
5AF
100
AcDbEntity
  8
6_COPYGEOM
100
AcDbSpline
 62
7
  6
CONTINUOUS
 70
0
 71
3
 72
9
 73
5
 74
0
 42
0.0000001
 43
0.0000001
 44
0.0000000001
 40
0.0
 40
0.0
 40
0.0
 40
0.0
 40
0.5507928343
 40
1.0
 40
1.0
 40
1.0
 40
1.0
 10
2842.1498132421
 20
1474.5274364042
 30
0.0
 10
2842.1498132421
 20
1475.4817190735
 30
0.0
 10
2841.9185100311
 20
1477.2550488022
 30
0.0
 10
2840.7550347468
 20
1478.7124697169
 30
0.0
 10
2840.0814794326
 20
1479.102395057
 30
0.0
  0
SPLINE
  5
5B0
100
AcDbEntity
  8
0
100
AcDbSpline
 62
7
  6
CONTINUOUS
 70
0
 71
3
 72
12
 73
8
 74
0
 42
0.0000001
 43
0.0000001
 44
0.0000000001
 40
0.0
 40
0.0
 40
0.0
 40
0.0
 40
0.2710583603
 40
0.5638170729
 40
0.6985544259
 40
0.816745142
 40
1.0
 40
1.0
 40
1.0
 40
1.0
 10
2933.4372986933
 20
1712.2309983566
 30
0.0
 10
2933.4372986933
 20
1710.4445508823
 30
0.0
 10
2932.4519743913
 20
1706.7416267347
 30
0.0
 10
2929.9186917961
 20
1702.8067536845
 30
0.0
 10
2927.1906093172
 20
1700.4111439098
 30
0.0
 10
2924.6999230945
 20
1699.0004260611
 30
0.0
 10
2922.4087483262
 20
1698.8838331706
 30
0.0
 10
2921.3634968791
 20
1699.4889357026
 30
0.0
  0
SPLINE
  5
5B1
100
AcDbEntity
  8
0
100
AcDbSpline
 62
7
  6
CONTINUOUS
 70
0
 71
3
 72
12
 73
8
 74
0
 42
0.0000001
 43
0.0000001
 44
0.0000000001
 40
0.0
 40
0.0
 40
0.0
 40
0.0
 40
0.2710583603
 40
0.5638170729
 40
0.6985544259
 40
0.816745142
 40
1.0
 40
1.0
 40
1.0
 40
1.0
 10
2897.516274209
 20
1691.4865541938
 30
0.0
 10
2897.516274209
 20
1689.7001067195
 30
0.0
 10
2896.530949907
 20
1685.9971825719
 30
0.0
 10
2893.9976673118
 20
1682.0623095217
 30
0.0
 10
2891.2695848329
 20
1679.666699747
 30
0.0
 10
2888.7788986102
 20
1678.2559818983
 30
0.0
 10
2886.487723842
 20
1678.1393890078
 30
0.0
 10
2885.4424723948
 20
1678.7444915398
 30
0.0
  0
SPLINE
  5
5B2
100
AcDbEntity
  8
0
100
AcDbSpline
 62
7
  6
CONTINUOUS
 70
0
 71
3
 72
9
 73
5
 74
0
 42
0.0000001
 43
0.0000001
 44
0.0000000001
 40
0.0
 40
0.0
 40
0.0
 40
0.0
 40
0.4492071657
 40
1.0
 40
1.0
 40
1.0
 40
1.0
 10
2751.7638424624
 20
1613.0837361953
 30
0.0
 10
2752.4373977766
 20
1612.6938108552
 30
0.0
 10
2753.6008730609
 20
1611.2363899405
 30
0.0
 10
2753.8321762719
 20
1609.4630602118
 30
0.0
 10
2753.8321762719
 20
1608.5087775424
 30
0.0
  0
SPLINE
  5
5B3
100
AcDbEntity
  8
0
100
AcDbSpline
 62
7
  6
CONTINUOUS
 70
0
 71
3
 72
12
 73
8
 74
0
 42
0.0000001
 43
0.0000001
 44
0.0000000001
 40
0.0
 40
0.0
 40
0.0
 40
0.0
 40
0.2710583603
 40
0.5638170729
 40
0.6985544259
 40
0.816745142
 40
1.0
 40
1.0
 40
1.0
 40
1.0
 10
2861.5952497248
 20
1670.7421100309
 30
0.0
 10
2861.5952497248
 20
1668.9556625567
 30
0.0
 10
2860.6099254227
 20
1665.252738409
 30
0.0
 10
2858.0766428275
 20
1661.3178653589
 30
0.0
 10
2855.3485603487
 20
1658.9222555842
 30
0.0
 10
2852.857874126
 20
1657.5115377355
 30
0.0
 10
2850.5666993577
 20
1657.3949448449
 30
0.0
 10
2849.5214479105
 20
1658.0000473769
 30
0.0
  0
SPLINE
  5
5B4
100
AcDbEntity
  8
0
100
AcDbSpline
 62
7
  6
CONTINUOUS
 70
0
 71
3
 72
12
 73
8
 74
0
 42
0.0000001
 43
0.0000001
 44
0.0000000001
 40
0.0
 40
0.0
 40
0.0
 40
0.0
 40
0.183254858
 40
0.3014455741
 40
0.4361829271
 40
0.7289416397
 40
1.0
 40
1.0
 40
1.0
 40
1.0
 10
2857.6531758942
 20
1860.7484042046
 30
0.0
 10
2858.6984273413
 20
1860.1433016726
 30
0.0
 10
2860.9896021096
 20
1860.2598945632
 30
0.0
 10
2863.4802883323
 20
1861.6706124119
 30
0.0
 10
2866.2083708111
 20
1864.0662221866
 30
0.0
 10
2868.7416534064
 20
1868.0010952367
 30
0.0
 10
2869.7269777084
 20
1871.7040193844
 30
0.0
 10
2869.7269777084
 20
1873.4904668586
 30
0.0
  0
SPLINE
  5
5B5
100
AcDbEntity
  8
0
100
AcDbSpline
 62
7
  6
CONTINUOUS
 70
0
 71
3
 72
12
 73
8
 74
0
 42
0.0000001
 43
0.0000001
 44
0.0000000001
 40
0.0
 40
0.0
 40
0.0
 40
0.0
 40
0.2710583603
 40
0.5638170729
 40
0.6985544259
 40
0.816745142
 40
1.0
 40
1.0
 40
1.0
 40
1.0
 10
2789.7532007562
 20
1629.2532217053
 30
0.0
 10
2789.7532007562
 20
1627.466774231
 30
0.0
 10
2788.7678764542
 20
1623.7638500834
 30
0.0
 10
2786.2345938589
 20
1619.8289770332
 30
0.0
 10
2783.5065113801
 20
1617.4333672585
 30
0.0
 10
2781.0158251574
 20
1616.0226494098
 30
0.0
 10
2778.7246503891
 20
1615.9060565193
 30
0.0
 10
2777.679398942
 20
1616.5111590513
 30
0.0
  0
SPLINE
  5
5B6
100
AcDbEntity
  8
6_COPYGEOM
100
AcDbSpline
 62
7
  6
CONTINUOUS
 70
0
 71
3
 72
9
 73
5
 74
0
 42
0.0000001
 43
0.0000001
 44
0.0000000001
 40
0.0
 40
0.0
 40
0.0
 40
0.0
 40
0.5507928343
 40
1.0
 40
1.0
 40
1.0
 40
1.0
 10
2806.2287887579
 20
1453.7829922413
 30
0.0
 10
2806.2287887579
 20
1454.7372749107
 30
0.0
 10
2805.9974855468
 20
1456.5106046394
 30
0.0
 10
2804.8340102625
 20
1457.9680255541
 30
0.0
 10
2804.1604549484
 20
1458.3579508942
 30
0.0
  0
SPLINE
  5
5B7
100
AcDbEntity
  8
0
100
AcDbSpline
 62
7
  6
CONTINUOUS
 70
0
 71
3
 72
12
 73
8
 74
0
 42
0.0000001
 43
0.0000001
 44
0.0000000001
 40
0.0
 40
0.0
 40
0.0
 40
0.0
 40
0.2710583603
 40
0.5638170729
 40
0.6985544259
 40
0.816745142
 40
1.0
 40
1.0
 40
1.0
 40
1.0
 10
2753.8321762719
 20
1608.5087775424
 30
0.0
 10
2753.8321762719
 20
1606.7223300682
 30
0.0
 10
2752.8468519699
 20
1603.0194059205
 30
0.0
 10
2750.3135693747
 20
1599.0845328704
 30
0.0
 10
2747.5854868958
 20
1596.6889230957
 30
0.0
 10
2745.0948006731
 20
1595.278205247
 30
0.0
 10
2742.8036259049
 20
1595.1616123564
 30
0.0
 10
2741.7583744577
 20
1595.7667148884
 30
0.0
  0
SPLINE
  5
5B8
100
AcDbEntity
  8
0
100
AcDbSpline
 62
7
  6
CONTINUOUS
 70
0
 71
3
 72
9
 73
5
 74
0
 42
0.0000001
 43
0.0000001
 44
0.0000000001
 40
0.0
 40
0.0
 40
0.0
 40
0.0
 40
0.4492071657
 40
1.0
 40
1.0
 40
1.0
 40
1.0
 10
2787.6848669467
 20
1633.8281803582
 30
0.0
 10
2788.3584222608
 20
1633.4382550181
 30
0.0
 10
2789.5218975452
 20
1631.9808341033
 30
0.0
 10
2789.7532007562
 20
1630.2075043747
 30
0.0
 10
2789.7532007562
 20
1629.2532217053
 30
0.0
  0
SPLINE
  5
5B9
100
AcDbEntity
  8
0
100
AcDbSpline
 62
7
  6
CONTINUOUS
 70
0
 71
3
 72
12
 73
8
 74
0
 42
0.0000001
 43
0.0000001
 44
0.0000000001
 40
0.0
 40
0.0
 40
0.0
 40
0.0
 40
0.2710583603
 40
0.5638170729
 40
0.6985544259
 40
0.816745142
 40
1.0
 40
1.0
 40
1.0
 40
1.0
 10
2717.9111517877
 20
1587.7643333796
 30
0.0
 10
2717.9111517877
 20
1585.9778859053
 30
0.0
 10
2716.9258274856
 20
1582.2749617577
 30
0.0
 10
2714.3925448904
 20
1578.3400887075
 30
0.0
 10
2711.6644624115
 20
1575.9444789328
 30
0.0
 10
2709.1737761888
 20
1574.5337610841
 30
0.0
 10
2706.8826014206
 20
1574.4171681936
 30
0.0
 10
2705.8373499734
 20
1575.0222707256
 30
0.0
  0
SPLINE
  5
5BA
100
AcDbEntity
  8
0
100
AcDbSpline
 62
7
  6
CONTINUOUS
 70
0
 71
3
 72
12
 73
8
 74
0
 42
0.0000001
 43
0.0000001
 44
0.0000000001
 40
0.0
 40
0.0
 40
0.0
 40
0.0
 40
0.2710583603
 40
0.5638170729
 40
0.6985544259
 40
0.816745142
 40
1.0
 40
1.0
 40
1.0
 40
1.0
 10
2681.9901273034
 20
1567.0198892168
 30
0.0
 10
2681.9901273034
 20
1565.2334417425
 30
0.0
 10
2681.0048030013
 20
1561.5305175949
 30
0.0
 10
2678.4715204061
 20
1557.5956445447
 30
0.0
 10
2675.7434379273
 20
1555.20003477
 30
0.0
 10
2673.2527517046
 20
1553.7893169213
 30
0.0
 10
2670.9615769363
 20
1553.6727240308
 30
0.0
 10
2669.9163254891
 20
1554.2778265628
 30
0.0
  0
SPLINE
  5
5BB
100
AcDbEntity
  8
0
100
AcDbSpline
 62
7
  6
CONTINUOUS
 70
0
 71
3
 72
12
 73
8
 74
0
 42
0.0000001
 43
0.0000001
 44
0.0000000001
 40
0.0
 40
0.0
 40
0.0
 40
0.0
 40
0.183254858
 40
0.3014455741
 40
0.4361829271
 40
0.7289416397
 40
1.0
 40
1.0
 40
1.0
 40
1.0
 10
2570.28498002
 20
1694.792850902
 30
0.0
 10
2571.3302314671
 20
1694.1877483699
 30
0.0
 10
2573.6214062354
 20
1694.3043412605
 30
0.0
 10
2576.1120924581
 20
1695.7150591092
 30
0.0
 10
2578.8401749369
 20
1698.1106688839
 30
0.0
 10
2581.3734575321
 20
1702.045541934
 30
0.0
 10
2582.3587818342
 20
1705.7484660817
 30
0.0
 10
2582.3587818342
 20
1707.534913556
 30
0.0
  0
SPLINE
  5
5BC
100
AcDbEntity
  8
0
100
AcDbSpline
 62
7
  6
CONTINUOUS
 70
0
 71
3
 72
9
 73
5
 74
0
 42
0.0000001
 43
0.0000001
 44
0.0000000001
 40
0.0
 40
0.0
 40
0.0
 40
0.0
 40
0.229177116
 40
1.0
 40
1.0
 40
1.0
 40
1.0
 10
2646.0691028191
 20
1546.275445054
 30
0.0
 10
2646.0691028191
 20
1545.7317956672
 30
0.0
 10
2645.8636447773
 20
1543.3608192994
 30
0.0
 10
2644.9935924021
 20
1541.0767423741
 30
0.0
 10
2644.0980769846
 20
1539.4825100848
 30
0.0
  0
SPLINE
  5
5BD
100
AcDbEntity
  8
0
100
AcDbSpline
 62
7
  6
CONTINUOUS
 70
0
 71
3
 72
9
 73
5
 74
0
 42
0.0000001
 43
0.0000001
 44
0.0000000001
 40
0.0
 40
0.0
 40
0.0
 40
0.0
 40
0.4492071657
 40
1.0
 40
1.0
 40
1.0
 40
1.0
 10
2859.5269159153
 20
1675.3170686838
 30
0.0
 10
2860.2004712294
 20
1674.9271433437
 30
0.0
 10
2861.3639465138
 20
1673.469722429
 30
0.0
 10
2861.5952497248
 20
1671.6963927003
 30
0.0
 10
2861.5952497248
 20
1670.7421100309
 30
0.0
  0
SPLINE
  5
5BE
100
AcDbEntity
  8
0
100
AcDbSpline
 62
7
  6
CONTINUOUS
 70
0
 71
3
 72
10
 73
6
 74
0
 42
0.0000001
 43
0.0000001
 44
0.0000000001
 40
0.0
 40
0.0
 40
0.0
 40
0.0
 40
0.4227036001
 40
0.7224444811
 40
1.0
 40
1.0
 40
1.0
 40
1.0
 10
2822.3482225949
 20
1825.5508312337
 30
0.0
 10
2823.3502360198
 20
1824.9746921703
 30
0.0
 10
2825.6985829918
 20
1826.3798229291
 30
0.0
 10
2827.0267773832
 20
1828.6171300804
 30
0.0
 10
2827.4773475325
 20
1830.2084457931
 30
0.0
 10
2827.4773475325
 20
1830.9673934179
 30
0.0
  0
SPLINE
  5
5BF
100
AcDbEntity
  8
6_COPYGEOM
100
AcDbSpline
 62
7
  6
CONTINUOUS
 70
0
 71
3
 72
9
 73
5
 74
0
 42
0.0000001
 43
0.0000001
 44
0.0000000001
 40
0.0
 40
0.0
 40
0.0
 40
0.0
 40
0.5507928343
 40
1.0
 40
1.0
 40
1.0
 40
1.0
 10
3129.5180091163
 20
1640.4829897068
 30
0.0
 10
3129.5180091163
 20
1641.4372723762
 30
0.0
 10
3129.2867059053
 20
1643.2106021049
 30
0.0
 10
3128.123230621
 20
1644.6680230196
 30
0.0
 10
3127.4496753068
 20
1645.0579483597
 30
0.0
  0
SPLINE
  5
5C0
100
AcDbEntity
  8
6_COPYGEOM
100
AcDbSpline
 62
7
  6
CONTINUOUS
 70
0
 71
3
 72
9
 73
5
 74
0
 42
0.0000001
 43
0.0000001
 44
0.0000000001
 40
0.0
 40
0.0
 40
0.0
 40
0.0
 40
0.2952450707
 40
1.0
 40
1.0
 40
1.0
 40
1.0
 10
2952.2816944119
 20
1497.3092762961
 30
0.0
 10
2952.2816944119
 20
1497.5244655488
 30
0.0
 10
2952.2338126605
 20
1498.24357618
 30
0.0
 10
2951.8457106878
 20
1498.998780658
 30
0.0
 10
2951.4004117095
 20
1499.2548192798
 30
0.0
  0
SPLINE
  5
5C1
100
AcDbEntity
  8
0
100
AcDbSpline
 62
7
  6
CONTINUOUS
 70
0
 71
3
 72
9
 73
5
 74
0
 42
0.0000001
 43
0.0000001
 44
0.0000000001
 40
0.0
 40
0.0
 40
0.0
 40
0.0
 40
0.4492071657
 40
1.0
 40
1.0
 40
1.0
 40
1.0
 10
2895.4479403995
 20
1696.0615128467
 30
0.0
 10
2896.1214957137
 20
1695.6715875066
 30
0.0
 10
2897.284970998
 20
1694.2141665918
 30
0.0
 10
2897.516274209
 20
1692.4408368632
 30
0.0
 10
2897.516274209
 20
1691.4865541938
 30
0.0
  0
SPLINE
  5
5C2
100
AcDbEntity
  8
0
100
AcDbSpline
 62
7
  6
CONTINUOUS
 70
0
 71
3
 72
10
 73
6
 74
0
 42
0.0000001
 43
0.0000001
 44
0.0000000001
 40
0.0
 40
0.0
 40
0.0
 40
0.0
 40
0.4227036001
 40
0.7224444811
 40
1.0
 40
1.0
 40
1.0
 40
1.0
 10
2615.5194890978
 20
1683.411302938
 30
0.0
 10
2616.5215025227
 20
1682.8351638747
 30
0.0
 10
2618.8698494948
 20
1684.2402946335
 30
0.0
 10
2620.1980438862
 20
1686.4776017847
 30
0.0
 10
2620.6486140354
 20
1688.0689174975
 30
0.0
 10
2620.6486140354
 20
1688.8278651222
 30
0.0
  0
SPLINE
  5
5C3
100
AcDbEntity
  8
0
100
AcDbSpline
 62
7
  6
CONTINUOUS
 70
0
 71
3
 72
9
 73
5
 74
0
 42
0.0000001
 43
0.0000001
 44
0.0000000001
 40
0.0
 40
0.0
 40
0.0
 40
0.0
 40
0.2673408821
 40
1.0
 40
1.0
 40
1.0
 40
1.0
 10
2472.6246825469
 20
1638.5086460983
 30
0.0
 10
2472.9350849146
 20
1639.0612367827
 30
0.0
 10
2473.9795835891
 20
1641.1856166829
 30
0.0
 10
2474.5957083814
 20
1643.5646171678
 30
0.0
 10
2474.5957083814
 20
1645.3015810675
 30
0.0
  0
SPLINE
  5
5C4
100
AcDbEntity
  8
0
100
AcDbSpline
 62
7
  6
CONTINUOUS
 70
0
 71
3
 72
9
 73
5
 74
0
 42
0.0000001
 43
0.0000001
 44
0.0000000001
 40
0.0
 40
0.0
 40
0.0
 40
0.0
 40
0.4492071657
 40
1.0
 40
1.0
 40
1.0
 40
1.0
 10
2931.3689648838
 20
1716.8059570095
 30
0.0
 10
2932.042520198
 20
1716.4160316694
 30
0.0
 10
2933.2059954823
 20
1714.9586107547
 30
0.0
 10
2933.4372986933
 20
1713.185281026
 30
0.0
 10
2933.4372986933
 20
1712.2309983566
 30
0.0
  0
SPLINE
  5
5C5
100
AcDbEntity
  8
6_COPYGEOM
100
AcDbSpline
 62
7
  6
CONTINUOUS
 70
0
 71
3
 72
9
 73
5
 74
0
 42
0.0000001
 43
0.0000001
 44
0.0000000001
 40
0.0
 40
0.0
 40
0.0
 40
0.0
 40
0.5507928343
 40
1.0
 40
1.0
 40
1.0
 40
1.0
 10
3093.5969846321
 20
1619.738545544
 30
0.0
 10
3093.5969846321
 20
1620.6928282134
 30
0.0
 10
3093.3656814211
 20
1622.466157942
 30
0.0
 10
3092.2022061367
 20
1623.9235788568
 30
0.0
 10
3091.5286508226
 20
1624.3135041969
 30
0.0
  0
SPLINE
  5
5C6
100
AcDbEntity
  8
0
100
AcDbSpline
 62
7
  6
CONTINUOUS
 70
0
 71
3
 72
10
 73
6
 74
0
 42
0.0000001
 43
0.0000001
 44
0.0000000001
 40
0.0
 40
0.0
 40
0.0
 40
0.0
 40
0.4227036001
 40
0.7224444811
 40
1.0
 40
1.0
 40
1.0
 40
1.0
 10
2894.4731142759
 20
1844.50742936
 30
0.0
 10
2895.4751277008
 20
1843.9312902967
 30
0.0
 10
2897.8234746729
 20
1845.3364210555
 30
0.0
 10
2899.1516690643
 20
1847.5737282067
 30
0.0
 10
2899.6022392135
 20
1849.1650439195
 30
0.0
 10
2899.6022392135
 20
1849.9239915442
 30
0.0
  0
SPLINE
  5
5C7
100
AcDbEntity
  8
6_COPYGEOM
100
AcDbSpline
 62
7
  6
CONTINUOUS
 70
0
 71
3
 72
9
 73
5
 74
0
 42
0.0000001
 43
0.0000001
 44
0.0000000001
 40
0.0
 40
0.0
 40
0.0
 40
0.0
 40
0.2952450707
 40
1.0
 40
1.0
 40
1.0
 40
1.0
 10
3024.406586093
 20
1561.6571389811
 30
0.0
 10
3024.406586093
 20
1561.8723282338
 30
0.0
 10
3024.3587043415
 20
1562.591438865
 30
0.0
 10
3023.9706023688
 20
1563.346643343
 30
0.0
 10
3023.5253033905
 20
1563.6026819648
 30
0.0
  0
SPLINE
  5
5C8
100
AcDbEntity
  8
0
100
AcDbSpline
 62
7
  6
CONTINUOUS
 70
0
 71
3
 72
9
 73
5
 74
0
 42
0.0000001
 43
0.0000001
 44
0.0000000001
 40
0.0
 40
0.0
 40
0.0
 40
0.0
 40
0.4492071657
 40
1.0
 40
1.0
 40
1.0
 40
1.0
 10
2967.2899893681
 20
1737.5504011723
 30
0.0
 10
2967.9635446822
 20
1737.1604758322
 30
0.0
 10
2969.1270199666
 20
1735.7030549175
 30
0.0
 10
2969.3583231776
 20
1733.9297251888
 30
0.0
 10
2969.3583231776
 20
1732.9754425194
 30
0.0
  0
SPLINE
  5
5C9
100
AcDbEntity
  8
0
100
AcDbSpline
 62
7
  6
CONTINUOUS
 70
0
 71
3
 72
12
 73
8
 74
0
 42
0.0000001
 43
0.0000001
 44
0.0000000001
 40
0.0
 40
0.0
 40
0.0
 40
0.0
 40
0.183254858
 40
0.3014455741
 40
0.4361829271
 40
0.7289416397
 40
1.0
 40
1.0
 40
1.0
 40
1.0
 10
2606.2060045042
 20
1715.5372950648
 30
0.0
 10
2607.2512559514
 20
1714.9321925328
 30
0.0
 10
2609.5424307197
 20
1715.0487854233
 30
0.0
 10
2612.0331169424
 20
1716.459503272
 30
0.0
 10
2614.7611994212
 20
1718.8551130467
 30
0.0
 10
2617.2944820164
 20
1722.7899860969
 30
0.0
 10
2618.2798063185
 20
1726.4929102445
 30
0.0
 10
2618.2798063185
 20
1728.2793577188
 30
0.0
  0
SPLINE
  5
5CA
100
AcDbEntity
  8
0
100
AcDbSpline
 62
7
  6
CONTINUOUS
 70
0
 71
3
 72
10
 73
6
 74
0
 42
0.0000001
 43
0.0000001
 44
0.0000000001
 40
0.0
 40
0.0
 40
0.0
 40
0.0
 40
0.4227036001
 40
0.7224444811
 40
1.0
 40
1.0
 40
1.0
 40
1.0
 10
2687.6443807788
 20
1747.7591656231
 30
0.0
 10
2688.6463942037
 20
1747.1830265597
 30
0.0
 10
2690.9947411758
 20
1748.5881573185
 30
0.0
 10
2692.3229355672
 20
1750.8254644697
 30
0.0
 10
2692.7735057165
 20
1752.4167801825
 30
0.0
 10
2692.7735057165
 20
1753.1757278072
 30
0.0
  0
SPLINE
  5
5CB
100
AcDbEntity
  8
0
100
AcDbSpline
 62
7
  6
CONTINUOUS
 70
0
 71
3
 72
9
 73
5
 74
0
 42
0.0000001
 43
0.0000001
 44
0.0000000001
 40
0.0
 40
0.0
 40
0.0
 40
0.0
 40
0.4492071657
 40
1.0
 40
1.0
 40
1.0
 40
1.0
 10
3003.2110138524
 20
1758.2948453352
 30
0.0
 10
3003.8845691665
 20
1757.9049199951
 30
0.0
 10
3005.0480444509
 20
1756.4474990803
 30
0.0
 10
3005.2793476619
 20
1754.6741693517
 30
0.0
 10
3005.2793476619
 20
1753.7198866823
 30
0.0
  0
SPLINE
  5
5CC
100
AcDbEntity
  8
6_COPYGEOM
100
AcDbSpline
 62
7
  6
CONTINUOUS
 70
0
 71
3
 72
9
 73
5
 74
0
 42
0.0000001
 43
0.0000001
 44
0.0000000001
 40
0.0
 40
0.0
 40
0.0
 40
0.0
 40
0.5507928343
 40
1.0
 40
1.0
 40
1.0
 40
1.0
 10
3057.6759601478
 20
1598.9941013811
 30
0.0
 10
3057.6759601478
 20
1599.9483840505
 30
0.0
 10
3057.4446569368
 20
1601.7217137792
 30
0.0
 10
3056.2811816524
 20
1603.1791346939
 30
0.0
 10
3055.6076263383
 20
1603.569060034
 30
0.0
  0
SPLINE
  5
5CD
100
AcDbEntity
  8
6_COPYGEOM
100
AcDbSpline
 62
7
  6
CONTINUOUS
 70
0
 71
3
 72
9
 73
5
 74
0
 42
0.0000001
 43
0.0000001
 44
0.0000000001
 40
0.0
 40
0.0
 40
0.0
 40
0.0
 40
0.2952450707
 40
1.0
 40
1.0
 40
1.0
 40
1.0
 10
3159.110427909
 20
1639.4488045917
 30
0.0
 10
3159.110427909
 20
1639.6639938445
 30
0.0
 10
3159.0625461575
 20
1640.3831044756
 30
0.0
 10
3158.6744441849
 20
1641.1383089536
 30
0.0
 10
3158.2291452065
 20
1641.3943475754
 30
0.0
  0
SPLINE
  5
5CE
100
AcDbEntity
  8
6_COPYGEOM
100
AcDbSpline
 62
7
  6
CONTINUOUS
 70
0
 71
3
 72
9
 73
5
 74
0
 42
0.0000001
 43
0.0000001
 44
0.0000000001
 40
0.0
 40
0.0
 40
0.0
 40
0.0
 40
0.5507928343
 40
1.0
 40
1.0
 40
1.0
 40
1.0
 10
3021.7549356635
 20
1578.2496572183
 30
0.0
 10
3021.7549356635
 20
1579.2039398877
 30
0.0
 10
3021.5236324525
 20
1580.9772696164
 30
0.0
 10
3020.3601571682
 20
1582.4346905311
 30
0.0
 10
3019.686601854
 20
1582.8246158712
 30
0.0
  0
SPLINE
  5
5CF
100
AcDbEntity
  8
0
100
AcDbSpline
 62
7
  6
CONTINUOUS
 70
0
 71
3
 72
9
 73
5
 74
0
 42
0.0000001
 43
0.0000001
 44
0.0000000001
 40
0.0
 40
0.0
 40
0.0
 40
0.0
 40
0.4492071657
 40
1.0
 40
1.0
 40
1.0
 40
1.0
 10
3039.1320383366
 20
1779.039289498
 30
0.0
 10
3039.8055936508
 20
1778.6493641579
 30
0.0
 10
3040.9690689351
 20
1777.1919432431
 30
0.0
 10
3041.2003721461
 20
1775.4186135145
 30
0.0
 10
3041.2003721461
 20
1774.4643308451
 30
0.0
  0
SPLINE
  5
5D0
100
AcDbEntity
  8
0
100
AcDbSpline
 62
7
  6
CONTINUOUS
 70
0
 71
3
 72
12
 73
8
 74
0
 42
0.0000001
 43
0.0000001
 44
0.0000000001
 40
0.0
 40
0.0
 40
0.0
 40
0.0
 40
0.183254858
 40
0.3014455741
 40
0.4361829271
 40
0.7289416397
 40
1.0
 40
1.0
 40
1.0
 40
1.0
 10
2498.4429310514
 20
1653.3039625763
 30
0.0
 10
2499.4881824986
 20
1652.6988600443
 30
0.0
 10
2501.7793572668
 20
1652.8154529348
 30
0.0
 10
2504.2700434895
 20
1654.2261707835
 30
0.0
 10
2506.9981259684
 20
1656.6217805582
 30
0.0
 10
2509.5314085636
 20
1660.5566536084
 30
0.0
 10
2510.5167328656
 20
1664.259577756
 30
0.0
 10
2510.5167328656
 20
1666.0460252303
 30
0.0
  0
SPLINE
  5
5D1
100
AcDbEntity
  8
6_COPYGEOM
100
AcDbSpline
 62
7
  6
CONTINUOUS
 70
0
 71
3
 72
12
 73
8
 74
0
 42
0.0000001
 43
0.0000001
 44
0.0000000001
 40
0.0
 40
0.0
 40
0.0
 40
0.0
 40
0.183254858
 40
0.3014455741
 40
0.4361829271
 40
0.7289416397
 40
1.0
 40
1.0
 40
1.0
 40
1.0
 10
2794.1549869436
 20
1441.0409295873
 30
0.0
 10
2795.2002383908
 20
1440.4358270553
 30
0.0
 10
2797.491413159
 20
1440.5524199459
 30
0.0
 10
2799.9820993817
 20
1441.9631377945
 30
0.0
 10
2802.7101818606
 20
1444.3587475693
 30
0.0
 10
2805.2434644558
 20
1448.2936206194
 30
0.0
 10
2806.2287887579
 20
1451.9965447671
 30
0.0
 10
2806.2287887579
 20
1453.7829922413
 30
0.0
  0
SPLINE
  5
5D2
100
AcDbEntity
  8
0
100
AcDbSpline
 62
7
  6
CONTINUOUS
 70
0
 71
3
 72
12
 73
8
 74
0
 42
0.0000001
 43
0.0000001
 44
0.0000000001
 40
0.0
 40
0.0
 40
0.0
 40
0.0
 40
0.183254858
 40
0.3014455741
 40
0.4361829271
 40
0.7289416397
 40
1.0
 40
1.0
 40
1.0
 40
1.0
 10
2678.0480534728
 20
1757.0261833905
 30
0.0
 10
2679.0933049199
 20
1756.4210808584
 30
0.0
 10
2681.3844796882
 20
1756.537673749
 30
0.0
 10
2683.8751659109
 20
1757.9483915977
 30
0.0
 10
2686.6032483898
 20
1760.3440013724
 30
0.0
 10
2689.136530985
 20
1764.2788744225
 30
0.0
 10
2690.121855287
 20
1767.9817985702
 30
0.0
 10
2690.121855287
 20
1769.7682460445
 30
0.0
  0
SPLINE
  5
5D3
100
AcDbEntity
  8
0
100
AcDbSpline
 62
7
  6
CONTINUOUS
 70
0
 71
3
 72
9
 73
5
 74
0
 42
0.0000001
 43
0.0000001
 44
0.0000000001
 40
0.0
 40
0.0
 40
0.0
 40
0.0
 40
0.2952450707
 40
1.0
 40
1.0
 40
1.0
 40
1.0
 10
2692.7735057165
 20
1753.1757278072
 30
0.0
 10
2692.7735057165
 20
1753.39091706
 30
0.0
 10
2692.725623965
 20
1754.1100276912
 30
0.0
 10
2692.3375219924
 20
1754.8652321692
 30
0.0
 10
2691.892223014
 20
1755.1212707909
 30
0.0
  0
SPLINE
  5
5D4
100
AcDbEntity
  8
0
100
AcDbSpline
 62
7
  6
CONTINUOUS
 70
0
 71
3
 72
9
 73
5
 74
0
 42
0.0000001
 43
0.0000001
 44
0.0000000001
 40
0.0
 40
0.0
 40
0.0
 40
0.0
 40
0.2952450707
 40
1.0
 40
1.0
 40
1.0
 40
1.0
 10
2899.6022392135
 20
1849.9239915442
 30
0.0
 10
2899.6022392135
 20
1850.139180797
 30
0.0
 10
2899.5543574621
 20
1850.8582914282
 30
0.0
 10
2899.1662554894
 20
1851.6134959062
 30
0.0
 10
2898.7209565111
 20
1851.8695345279
 30
0.0
  0
SPLINE
  5
5D5
100
AcDbEntity
  8
6_COPYGEOM
100
AcDbSpline
 62
7
  6
CONTINUOUS
 70
0
 71
3
 72
12
 73
8
 74
0
 42
0.0000001
 43
0.0000001
 44
0.0000000001
 40
0.0
 40
0.0
 40
0.0
 40
0.0
 40
0.183254858
 40
0.3014455741
 40
0.4361829271
 40
0.7289416397
 40
1.0
 40
1.0
 40
1.0
 40
1.0
 10
2830.0760114279
 20
1461.7853737501
 30
0.0
 10
2831.1212628751
 20
1461.1802712181
 30
0.0
 10
2833.4124376433
 20
1461.2968641087
 30
0.0
 10
2835.903123866
 20
1462.7075819574
 30
0.0
 10
2838.6312063449
 20
1465.1031917321
 30
0.0
 10
2841.1644889401
 20
1469.0380647822
 30
0.0
 10
2842.1498132421
 20
1472.7409889299
 30
0.0
 10
2842.1498132421
 20
1474.5274364042
 30
0.0
  0
SPLINE
  5
5D6
100
AcDbEntity
  8
0
100
AcDbSpline
 62
7
  6
CONTINUOUS
 70
0
 71
3
 72
9
 73
5
 74
0
 42
0.0000001
 43
0.0000001
 44
0.0000000001
 40
0.0
 40
0.0
 40
0.0
 40
0.0
 40
0.2952450707
 40
1.0
 40
1.0
 40
1.0
 40
1.0
 10
2620.6486140354
 20
1688.8278651222
 30
0.0
 10
2620.6486140354
 20
1689.043054375
 30
0.0
 10
2620.600732284
 20
1689.7621650062
 30
0.0
 10
2620.2126303113
 20
1690.5173694842
 30
0.0
 10
2619.767331333
 20
1690.7734081059
 30
0.0
  0
SPLINE
  5
5D7
100
AcDbEntity
  8
0
100
AcDbSpline
 62
7
  6
CONTINUOUS
 70
0
 71
3
 72
9
 73
5
 74
0
 42
0.0000001
 43
0.0000001
 44
0.0000000001
 40
0.0
 40
0.0
 40
0.0
 40
0.0
 40
0.2952450707
 40
1.0
 40
1.0
 40
1.0
 40
1.0
 10
2827.4773475325
 20
1830.9673934179
 30
0.0
 10
2827.4773475325
 20
1831.1825826706
 30
0.0
 10
2827.4294657811
 20
1831.9016933018
 30
0.0
 10
2827.0413638084
 20
1832.6568977798
 30
0.0
 10
2826.59606483
 20
1832.9129364016
 30
0.0
  0
SPLINE
  5
5D8
100
AcDbEntity
  8
6_COPYGEOM
100
AcDbSpline
 62
7
  6
CONTINUOUS
 70
0
 71
3
 72
9
 73
5
 74
0
 42
0.0000001
 43
0.0000001
 44
0.0000000001
 40
0.0
 40
0.0
 40
0.0
 40
0.0
 40
0.5507928343
 40
1.0
 40
1.0
 40
1.0
 40
1.0
 10
2949.912886695
 20
1536.7607688927
 30
0.0
 10
2949.912886695
 20
1537.715051562
 30
0.0
 10
2949.681583484
 20
1539.4883812907
 30
0.0
 10
2948.5181081996
 20
1540.9458022054
 30
0.0
 10
2947.8445528855
 20
1541.3357275455
 30
0.0
  0
SPLINE
  5
5D9
100
AcDbEntity
  8
6_COPYGEOM
100
AcDbSpline
 62
7
  6
CONTINUOUS
 70
0
 71
3
 72
12
 73
8
 74
0
 42
0.0000001
 43
0.0000001
 44
0.0000000001
 40
0.0
 40
0.0
 40
0.0
 40
0.0
 40
0.183254858
 40
0.3014455741
 40
0.4361829271
 40
0.7289416397
 40
1.0
 40
1.0
 40
1.0
 40
1.0
 10
2865.9970359122
 20
1482.529817913
 30
0.0
 10
2867.0422873593
 20
1481.924715381
 30
0.0
 10
2869.3334621276
 20
1482.0413082715
 30
0.0
 10
2871.8241483503
 20
1483.4520261202
 30
0.0
 10
2874.5522308291
 20
1485.8476358949
 30
0.0
 10
2877.0855134244
 20
1489.7825089451
 30
0.0
 10
2878.0708377264
 20
1493.4854330927
 30
0.0
 10
2878.0708377264
 20
1495.271880567
 30
0.0
  0
SPLINE
  5
5DA
100
AcDbEntity
  8
0
100
AcDbSpline
 62
7
  6
CONTINUOUS
 70
0
 71
3
 72
9
 73
5
 74
0
 42
0.0000001
 43
0.0000001
 44
0.0000000001
 40
0.0
 40
0.0
 40
0.0
 40
0.0
 40
0.2657824641
 40
1.0
 40
1.0
 40
1.0
 40
1.0
 10
2869.7269777084
 20
1873.4904668586
 30
0.0
 10
2869.7269777084
 20
1873.6933830636
 30
0.0
 10
2869.7019952197
 20
1874.4561622297
 30
0.0
 10
2869.573410405
 20
1875.219184365
 30
0.0
 10
2869.4009820588
 20
1875.7525565907
 30
0.0
  0
SPLINE
  5
5DB
100
AcDbEntity
  8
0
100
AcDbSpline
 62
7
  6
CONTINUOUS
 70
0
 71
3
 72
9
 73
5
 74
0
 42
0.0000001
 43
0.0000001
 44
0.0000000001
 40
0.0
 40
0.0
 40
0.0
 40
0.0
 40
0.2657824641
 40
1.0
 40
1.0
 40
1.0
 40
1.0
 10
2833.8059532241
 20
1852.7460226958
 30
0.0
 10
2833.8059532241
 20
1852.9489389008
 30
0.0
 10
2833.7809707354
 20
1853.7117180668
 30
0.0
 10
2833.6523859207
 20
1854.4747402021
 30
0.0
 10
2833.4799575746
 20
1855.0081124279
 30
0.0
  0
SPLINE
  5
5DC
100
AcDbEntity
  8
6_COPYGEOM
100
AcDbSpline
 62
7
  6
CONTINUOUS
 70
0
 71
3
 72
12
 73
8
 74
0
 42
0.0000001
 43
0.0000001
 44
0.0000000001
 40
0.0
 40
0.0
 40
0.0
 40
0.0
 40
0.183254858
 40
0.3014455741
 40
0.4361829271
 40
0.7289416397
 40
1.0
 40
1.0
 40
1.0
 40
1.0
 10
2901.9180603964
 20
1503.2742620758
 30
0.0
 10
2902.9633118436
 20
1502.6691595438
 30
0.0
 10
2905.2544866119
 20
1502.7857524344
 30
0.0
 10
2907.7451728346
 20
1504.196470283
 30
0.0
 10
2910.4732553134
 20
1506.5920800578
 30
0.0
 10
2913.0065379086
 20
1510.5269531079
 30
0.0
 10
2913.9918622107
 20
1514.2298772555
 30
0.0
 10
2913.9918622107
 20
1516.0163247298
 30
0.0
  0
SPLINE
  5
5DD
100
AcDbEntity
  8
0
100
AcDbSpline
 62
7
  6
CONTINUOUS
 70
0
 71
3
 72
9
 73
5
 74
0
 42
0.0000001
 43
0.0000001
 44
0.0000000001
 40
0.0
 40
0.0
 40
0.0
 40
0.0
 40
0.2657824641
 40
1.0
 40
1.0
 40
1.0
 40
1.0
 10
2797.8849287398
 20
1832.001578533
 30
0.0
 10
2797.8849287398
 20
1832.204494738
 30
0.0
 10
2797.8599462511
 20
1832.967273904
 30
0.0
 10
2797.7313614364
 20
1833.7302960393
 30
0.0
 10
2797.5589330903
 20
1834.263668265
 30
0.0
  0
SPLINE
  5
5DE
100
AcDbEntity
  8
6_COPYGEOM
100
AcDbSpline
 62
7
  6
CONTINUOUS
 70
0
 71
3
 72
12
 73
8
 74
0
 42
0.0000001
 43
0.0000001
 44
0.0000000001
 40
0.0
 40
0.0
 40
0.0
 40
0.0
 40
0.183254858
 40
0.3014455741
 40
0.4361829271
 40
0.7289416397
 40
1.0
 40
1.0
 40
1.0
 40
1.0
 10
2937.8390848807
 20
1524.0187062386
 30
0.0
 10
2938.8843363279
 20
1523.4136037066
 30
0.0
 10
2941.1755110962
 20
1523.5301965972
 30
0.0
 10
2943.6661973189
 20
1524.9409144459
 30
0.0
 10
2946.3942797977
 20
1527.3365242206
 30
0.0
 10
2948.9275623929
 20
1531.2713972707
 30
0.0
 10
2949.912886695
 20
1534.9743214184
 30
0.0
 10
2949.912886695
 20
1536.7607688927
 30
0.0
  0
SPLINE
  5
5DF
100
AcDbEntity
  8
0
100
AcDbSpline
 62
7
  6
CONTINUOUS
 70
0
 71
3
 72
9
 73
5
 74
0
 42
0.0000001
 43
0.0000001
 44
0.0000000001
 40
0.0
 40
0.0
 40
0.0
 40
0.0
 40
0.2657824641
 40
1.0
 40
1.0
 40
1.0
 40
1.0
 10
2761.9639042556
 20
1811.2571343701
 30
0.0
 10
2761.9639042556
 20
1811.4600505751
 30
0.0
 10
2761.9389217669
 20
1812.2228297412
 30
0.0
 10
2761.8103369521
 20
1812.9858518765
 30
0.0
 10
2761.637908606
 20
1813.5192241022
 30
0.0
  0
SPLINE
  5
5E0
100
AcDbEntity
  8
0
100
AcDbSpline
 62
7
  6
CONTINUOUS
 70
0
 71
3
 72
9
 73
5
 74
0
 42
0.0000001
 43
0.0000001
 44
0.0000000001
 40
0.0
 40
0.0
 40
0.0
 40
0.0
 40
0.2657824641
 40
1.0
 40
1.0
 40
1.0
 40
1.0
 10
2726.0428797713
 20
1790.5126902073
 30
0.0
 10
2726.0428797713
 20
1790.7156064123
 30
0.0
 10
2726.0178972826
 20
1791.4783855783
 30
0.0
 10
2725.8893124679
 20
1792.2414077136
 30
0.0
 10
2725.7168841217
 20
1792.7747799394
 30
0.0
  0
SPLINE
  5
5E1
100
AcDbEntity
  8
6_COPYGEOM
100
AcDbSpline
 62
7
  6
CONTINUOUS
 70
0
 71
3
 72
12
 73
8
 74
0
 42
0.0000001
 43
0.0000001
 44
0.0000000001
 40
0.0
 40
0.0
 40
0.0
 40
0.0
 40
0.183254858
 40
0.3014455741
 40
0.4361829271
 40
0.7289416397
 40
1.0
 40
1.0
 40
1.0
 40
1.0
 10
3009.6811338493
 20
1565.5075945643
 30
0.0
 10
3010.7263852964
 20
1564.9024920323
 30
0.0
 10
3013.0175600647
 20
1565.0190849228
 30
0.0
 10
3015.5082462874
 20
1566.4298027715
 30
0.0
 10
3018.2363287663
 20
1568.8254125463
 30
0.0
 10
3020.7696113615
 20
1572.7602855964
 30
0.0
 10
3021.7549356635
 20
1576.463209744
 30
0.0
 10
3021.7549356635
 20
1578.2496572183
 30
0.0
  0
SPLINE
  5
5E2
100
AcDbEntity
  8
0
100
AcDbSpline
 62
7
  6
CONTINUOUS
 70
0
 71
3
 72
9
 73
5
 74
0
 42
0.0000001
 43
0.0000001
 44
0.0000000001
 40
0.0
 40
0.0
 40
0.0
 40
0.0
 40
0.2657824641
 40
1.0
 40
1.0
 40
1.0
 40
1.0
 10
2690.121855287
 20
1769.7682460445
 30
0.0
 10
2690.121855287
 20
1769.9711622495
 30
0.0
 10
2690.0968727983
 20
1770.7339414155
 30
0.0
 10
2689.9682879836
 20
1771.4969635508
 30
0.0
 10
2689.7958596374
 20
1772.0303357765
 30
0.0
  0
SPLINE
  5
5E3
100
AcDbEntity
  8
0
100
AcDbSpline
 62
7
  6
CONTINUOUS
 70
0
 71
3
 72
12
 73
8
 74
0
 42
0.0000001
 43
0.0000001
 44
0.0000000001
 40
0.0
 40
0.0
 40
0.0
 40
0.0
 40
0.183254858
 40
0.3014455741
 40
0.4361829271
 40
0.7289416397
 40
1.0
 40
1.0
 40
1.0
 40
1.0
 10
2713.9690779571
 20
1777.7706275533
 30
0.0
 10
2715.0143294042
 20
1777.1655250213
 30
0.0
 10
2717.3055041725
 20
1777.2821179118
 30
0.0
 10
2719.7961903952
 20
1778.6928357605
 30
0.0
 10
2722.524272874
 20
1781.0884455352
 30
0.0
 10
2725.0575554693
 20
1785.0233185854
 30
0.0
 10
2726.0428797713
 20
1788.726242733
 30
0.0
 10
2726.0428797713
 20
1790.5126902073
 30
0.0
  0
SPLINE
  5
5E4
100
AcDbEntity
  8
0
100
AcDbSpline
 62
7
  6
CONTINUOUS
 70
0
 71
3
 72
9
 73
5
 74
0
 42
0.0000001
 43
0.0000001
 44
0.0000000001
 40
0.0
 40
0.0
 40
0.0
 40
0.0
 40
0.2657824641
 40
1.0
 40
1.0
 40
1.0
 40
1.0
 10
2618.2798063185
 20
1728.2793577188
 30
0.0
 10
2618.2798063185
 20
1728.4822739238
 30
0.0
 10
2618.2548238298
 20
1729.2450530898
 30
0.0
 10
2618.126239015
 20
1730.0080752251
 30
0.0
 10
2617.9538106689
 20
1730.5414474509
 30
0.0
  0
SPLINE
  5
5E5
100
AcDbEntity
  8
6_COPYGEOM
100
AcDbSpline
 62
7
  6
CONTINUOUS
 70
0
 71
3
 72
12
 73
8
 74
0
 42
0.0000001
 43
0.0000001
 44
0.0000000001
 40
0.0
 40
0.0
 40
0.0
 40
0.0
 40
0.183254858
 40
0.3014455741
 40
0.4361829271
 40
0.7289416397
 40
1.0
 40
1.0
 40
1.0
 40
1.0
 10
3045.6021583335
 20
1586.2520387271
 30
0.0
 10
3046.6474097807
 20
1585.6469361951
 30
0.0
 10
3048.938584549
 20
1585.7635290857
 30
0.0
 10
3051.4292707717
 20
1587.1742469344
 30
0.0
 10
3054.1573532505
 20
1589.5698567091
 30
0.0
 10
3056.6906358457
 20
1593.5047297592
 30
0.0
 10
3057.6759601478
 20
1597.2076539069
 30
0.0
 10
3057.6759601478
 20
1598.9941013811
 30
0.0
  0
SPLINE
  5
5E6
100
AcDbEntity
  8
6_COPYGEOM
100
AcDbSpline
 62
7
  6
CONTINUOUS
 70
0
 71
3
 72
9
 73
5
 74
0
 42
0.0000001
 43
0.0000001
 44
0.0000000001
 40
0.0
 40
0.0
 40
0.0
 40
0.0
 40
0.5507928343
 40
1.0
 40
1.0
 40
1.0
 40
1.0
 10
3201.3600580849
 20
1681.9718780325
 30
0.0
 10
3201.3600580849
 20
1682.9261607019
 30
0.0
 10
3201.1287548739
 20
1684.6994904305
 30
0.0
 10
3199.9652795895
 20
1686.1569113453
 30
0.0
 10
3199.2917242754
 20
1686.5468366854
 30
0.0
  0
SPLINE
  5
5E7
100
AcDbEntity
  8
0
100
AcDbSpline
 62
7
  6
CONTINUOUS
 70
0
 71
3
 72
9
 73
5
 74
0
 42
0.0000001
 43
0.0000001
 44
0.0000000001
 40
0.0
 40
0.0
 40
0.0
 40
0.0
 40
0.2657824641
 40
1.0
 40
1.0
 40
1.0
 40
1.0
 10
2474.5957083814
 20
1645.3015810675
 30
0.0
 10
2474.5957083814
 20
1645.5044972725
 30
0.0
 10
2474.5707258927
 20
1646.2672764385
 30
0.0
 10
2474.4421410779
 20
1647.0302985738
 30
0.0
 10
2474.2697127318
 20
1647.5636707995
 30
0.0
  0
SPLINE
  5
5E8
100
AcDbEntity
  8
0
100
AcDbSpline
 62
7
  6
CONTINUOUS
 70
0
 71
3
 72
9
 73
5
 74
0
 42
0.0000001
 43
0.0000001
 44
0.0000000001
 40
0.0
 40
0.0
 40
0.0
 40
0.0
 40
0.2657824641
 40
1.0
 40
1.0
 40
1.0
 40
1.0
 10
2510.5167328656
 20
1666.0460252303
 30
0.0
 10
2510.5167328656
 20
1666.2489414353
 30
0.0
 10
2510.4917503769
 20
1667.0117206013
 30
0.0
 10
2510.3631655622
 20
1667.7747427366
 30
0.0
 10
2510.1907372161
 20
1668.3081149624
 30
0.0
  0
SPLINE
  5
5E9
100
AcDbEntity
  8
6_COPYGEOM
100
AcDbSpline
 62
7
  6
CONTINUOUS
 70
0
 71
3
 72
9
 73
5
 74
0
 42
0.0000001
 43
0.0000001
 44
0.0000000001
 40
0.0
 40
0.0
 40
0.0
 40
0.0
 40
0.5507928343
 40
1.0
 40
1.0
 40
1.0
 40
1.0
 10
2913.9918622107
 20
1516.0163247298
 30
0.0
 10
2913.9918622107
 20
1516.9706073992
 30
0.0
 10
2913.7605589997
 20
1518.7439371279
 30
0.0
 10
2912.5970837153
 20
1520.2013580426
 30
0.0
 10
2911.9235284012
 20
1520.5912833827
 30
0.0
  0
SPLINE
  5
5EA
100
AcDbEntity
  8
0
100
AcDbSpline
 62
7
  6
CONTINUOUS
 70
0
 71
3
 72
9
 73
5
 74
0
 42
0.0000001
 43
0.0000001
 44
0.0000000001
 40
0.0
 40
0.0
 40
0.0
 40
0.0
 40
0.2657824641
 40
1.0
 40
1.0
 40
1.0
 40
1.0
 10
2546.4377573499
 20
1686.7904693931
 30
0.0
 10
2546.4377573499
 20
1686.9933855981
 30
0.0
 10
2546.4127748612
 20
1687.7561647642
 30
0.0
 10
2546.2841900465
 20
1688.5191868995
 30
0.0
 10
2546.1117617003
 20
1689.0525591252
 30
0.0
  0
SPLINE
  5
5EB
100
AcDbEntity
  8
6_COPYGEOM
100
AcDbSpline
 62
7
  6
CONTINUOUS
 70
0
 71
3
 72
12
 73
8
 74
0
 42
0.0000001
 43
0.0000001
 44
0.0000000001
 40
0.0
 40
0.0
 40
0.0
 40
0.0
 40
0.183254858
 40
0.3014455741
 40
0.4361829271
 40
0.7289416397
 40
1.0
 40
1.0
 40
1.0
 40
1.0
 10
3081.5231828178
 20
1606.99648289
 30
0.0
 10
3082.568434265
 20
1606.391380358
 30
0.0
 10
3084.8596090333
 20
1606.5079732485
 30
0.0
 10
3087.350295256
 20
1607.9186910972
 30
0.0
 10
3090.0783777348
 20
1610.3143008719
 30
0.0
 10
3092.61166033
 20
1614.2491739221
 30
0.0
 10
3093.5969846321
 20
1617.9520980697
 30
0.0
 10
3093.5969846321
 20
1619.738545544
 30
0.0
  0
SPLINE
  5
5EC
100
AcDbEntity
  8
0
100
AcDbSpline
 62
7
  6
CONTINUOUS
 70
0
 71
3
 72
9
 73
5
 74
0
 42
0.0000001
 43
0.0000001
 44
0.0000000001
 40
0.0
 40
0.0
 40
0.0
 40
0.0
 40
0.2657824641
 40
1.0
 40
1.0
 40
1.0
 40
1.0
 10
2582.3587818342
 20
1707.534913556
 30
0.0
 10
2582.3587818342
 20
1707.737829761
 30
0.0
 10
2582.3337993455
 20
1708.500608927
 30
0.0
 10
2582.2052145307
 20
1709.2636310623
 30
0.0
 10
2582.0327861846
 20
1709.797003288
 30
0.0
  0
ENDSEC
  0
SECTION
  2
OBJECTS
  0
DICTIONARY
  5
C
100
AcDbDictionary
280
0
281
1
  3
ACAD_GROUP
350
D
  3
ACAD_MLINESTYLE
350
17
  3
ACAD_LAYOUT
350
1A
  3
ACAD_PLOTSETTINGS
350
19
  3
ACAD_PLOTSTYLENAME
350
E
  0
DICTIONARY
  5
D
102
{ACAD_REACTORS
330
C
102
}
100
AcDbDictionary
280
0
281
1
  0
ACDBDICTIONARYWDFLT
  5
E
102
{ACAD_REACTORS
330
C
102
}
100
AcDbDictionary
281
1
  3
Normal
350
F
100
AcDbDictionaryWithDefault
340
F
  0
DICTIONARY
  5
17
102
{ACAD_REACTORS
330
C
102
}
100
AcDbDictionary
280
0
281
1
  3
Standard
350
18
  0
DICTIONARY
  5
19
102
{ACAD_REACTORS
330
C
102
}
100
AcDbDictionary
281
1
  0
DICTIONARY
  5
1A
102
{ACAD_REACTORS
330
C
102
}
100
AcDbDictionary
281
1
  3
Model
350
5ED
  3
Layout1
350
5EE
  0
ACDBPLACEHOLDER
  5
F
102
{ACAD_REACTORS
330
E
102
}
  0
MLINESTYLE
  5
18
102
{ACAD_REACTORS
330
17
102
}
100
AcDbMlineStyle
  2
STANDARD
 70
0
  3

 62
256
 51
90.0
 52
90.0
 71
2
 49
0.5
 62
256
  6
BYLAYER
 49
-0.5
 62
256
  6
BYLAYER
  0
LAYOUT
  5
5ED
102
{ACAD_REACTORS
330
1A
102
}
100
AcDbPlotSettings
  1

  2
none_device
  4

  6

 40
0.0
 41
0.0
 42
0.0
 43
0.0
 44
431.8
 45
279.4
 46
0.0
 47
0.0
 48
0.0
 49
0.0
140
0.0
141
0.0
142
1.0
143
1.0
 70
1024
 72
1
 73
0
 74
0
  7

 75
0
147
1.0
148
0.0
149
0.0
100
AcDbLayout
  1
Model
 70
0
 71
0
 10
0.0
 20
0.0
 11
431.8
 21
279.4
 12
0.0
 22
0.0
 32
0.0
 14
0.0
 24
0.0
 34
0.0
 15
0.0
 25
0.0
 35
0.0
146
0.0
 13
0.0
 23
0.0
 33
0.0
 16
1.0
 26
0.0
 36
0.0
 17
0.0
 27
1.0
 37
0.0
 76
0
330
213
345
0
346
0
  0
LAYOUT
  5
5EE
102
{ACAD_REACTORS
330
1A
102
}
100
AcDbPlotSettings
  1

  2
none_device
  4

  6

 40
0.0
 41
0.0
 42
0.0
 43
0.0
 44
431.8
 45
279.4
 46
0.0
 47
0.0
 48
0.0
 49
0.0
140
0.0
141
0.0
142
1.0
143
1.0
 70
0
 72
1
 73
0
 74
0
  7

 75
0
147
1.0
148
0.0
149
0.0
100
AcDbLayout
  1
Layout1
 70
0
 71
1
 10
0.0
 20
0.0
 11
431.8
 21
279.4
 12
0.0
 22
0.0
 32
0.0
 14
0.0
 24
0.0
 34
0.0
 15
0.0
 25
0.0
 35
0.0
146
0.0
 13
0.0
 23
0.0
 33
0.0
 16
1.0
 26
0.0
 36
0.0
 17
0.0
 27
1.0
 37
0.0
 76
0
330
214
345
0
346
0
  0
ENDSEC
  0
EOF
