999
DXF file: D:\Agile attachment\ECO-113244\FG-901551-2D-A.dxf
999
Pro/ENGINEER 2022014 by Parametric Technology Corporation
  0
SECTION
  2
HEADER
  9
$ACADVER
  1
AC1015
  9
$DWGCODEPAGE
  3
ANSI_1252
  9
$EXTMAX
 10
3454.4
 20
2235.2
 30
0.0
  9
$EXTMIN
 10
0.0
 20
0.0
 30
0.0
  9
$LIMMIN
 10
0.0
 20
0.0
  9
$LIMMAX
 10
3454.4
 20
2235.2
  9
$VIEWCTR
 10
1727.2
 20
1117.6
  9
$VIEWSIZE
 40
2235.2
  9
$CLAYER
  8
0
  9
$LTSCALE
 40
189.992
  9
$CELTYPE
  6
BYLAYER
  9
$DIMSCALE
 40
1.0
  9
$DIMASZ
 40
16.0
  9
$DIMEXO
 40
1.5875
  9
$DIMDLI
 40
131.2672
  9
$DIMEXE
 40
3.175
  9
$DIMCEN
 40
31.0896
  9
$DIMLFAC
 40
1.0
  9
$DIMBLK
  1
_FILLED
  9
$DIMALT
 70
1
  9
$DIMALTD
 70
1
  9
$DIMALTTD
 70
2
  9
$DIMALTF
 40
0.0393700787
  9
$DIMTXT
 40
18.288
  9
$DIMTOL
 70
1
  9
$DIMLIM
 70
0
  9
$DIMTFAC
 40
1.0
  9
$DIMTP
 40
0.02
  9
$DIMTM
 40
0.02
  9
$DIMGAP
 40
0.625
  9
$DIMDSEP
 70
46
  9
$AUNITS
 70
0
  9
$PDMODE
 70
3
  9
$PDSIZE
 40
7.9375
  9
$HANDSEED
  5
618
  9
$TILEMODE
 70
1
  9
$MEASUREMENT
 70
1
  9
$INSUNITS
 70
4
  0
ENDSEC
  0
SECTION
  2
CLASSES
  0
CLASS
  1
ACDBDICTIONARYWDFLT
  2
AcDbDictionaryWithDefault
  3
AutoCAD 2000
 90
0
280
0
281
0
  0
CLASS
  1
ACDBPLACEHOLDER
  2
AcDbPlaceHolder
  3
AutoCAD 2000
 90
0
280
0
281
0
  0
CLASS
  1
LAYOUT
  2
AcDbLayout
  3
AutoCAD 2000
 90
0
280
0
281
0
  0
ENDSEC
  0
SECTION
  2
TABLES
  0
TABLE
  2
VPORT
  5
8
100
AcDbSymbolTable
 70
2
  0
VPORT
  5
1F4
100
AcDbSymbolTableRecord
100
AcDbViewportTableRecord
  2
*ACTIVE
 70
0
 10
0.0
 20
0.0
 11
1.0
 21
1.0
 12
1727.2
 22
1117.6
 13
0.0
 23
0.0
 14
1.0
 24
1.0
 15
0.0
 25
0.0
 16
0.0
 26
0.0
 36
1.0
 17
0.0
 27
0.0
 37
0.0
 40
2235.2
 41
1.5454545455
 42
50.0
 43
0.0
 44
0.0
 50
0.0
 51
0.0
 71
0
 72
100
 73
1
 74
1
 75
0
 76
0
 77
0
 78
0
  0
ENDTAB
  0
TABLE
  2
LTYPE
  5
5
100
AcDbSymbolTable
 70
6
  0
LTYPE
  5
14
100
AcDbSymbolTableRecord
100
AcDbLinetypeTableRecord
  2
BYBLOCK
 70
0
  3

 72
65
 73
0
 40
0.0
  0
LTYPE
  5
15
100
AcDbSymbolTableRecord
100
AcDbLinetypeTableRecord
  2
BYLAYER
 70
0
  3

 72
65
 73
0
 40
0.0
  0
LTYPE
  5
16
100
AcDbSymbolTableRecord
100
AcDbLinetypeTableRecord
  2
CONTINUOUS
 70
64
  3
Solid line
 72
65
 73
0
 40
0.0
  0
LTYPE
  5
1F5
100
AcDbSymbolTableRecord
100
AcDbLinetypeTableRecord
  2
CENTER
 70
64
  3
____ _ ____ _ ____ _ ____ _ ____ _ ____ _ ____
 72
65
 73
4
 40
0.6
 49
0.375
 74
0
 49
-0.075
 74
0
 49
0.075
 74
0
 49
-0.075
 74
0
  0
LTYPE
  5
1F6
100
AcDbSymbolTableRecord
100
AcDbLinetypeTableRecord
  2
HIDDEN
 70
64
  3
- - - - - - - - - - - - - - - - - - - -
 72
65
 73
2
 40
0.2
 49
0.1
 74
0
 49
-0.1
 74
0
  0
LTYPE
  5
1F7
100
AcDbSymbolTableRecord
100
AcDbLinetypeTableRecord
  2
PHANTOM
 70
64
  3
_____ _ _ _____ _ _ _____ _ _ _____
 72
65
 73
6
 40
0.8
 49
0.45
 74
0
 49
-0.05
 74
0
 49
0.1
 74
0
 49
-0.05
 74
0
 49
0.1
 74
0
 49
-0.05
 74
0
  0
LTYPE
  5
1F8
100
AcDbSymbolTableRecord
100
AcDbLinetypeTableRecord
  2
DOT
 70
64
  3
. . . . . . . . . . . . . . . . . . . .
 72
65
 73
2
 40
0.2
 49
0.1
 74
0
 49
-0.1
 74
0
  0
LTYPE
  5
1F9
100
AcDbSymbolTableRecord
100
AcDbLinetypeTableRecord
  2
DASHED
 70
64
  3
- - - - - - - - - - - - - - - - - - - -
 72
65
 73
2
 40
0.2
 49
0.1
 74
0
 49
-0.1
 74
0
  0
ENDTAB
  0
TABLE
  2
LAYER
  5
2
100
AcDbSymbolTable
 70
36
  0
LAYER
  5
10
100
AcDbSymbolTableRecord
100
AcDbLayerTableRecord
  2
0
 70
0
 62
7
  6
CONTINUOUS
370
-3
390
F
  0
LAYER
  5
1FA
100
AcDbSymbolTableRecord
100
AcDbLayerTableRecord
  2
DEFAULT_1
 70
0
 62
7
  6
CENTER
370
-3
390
F
  0
LAYER
  5
1FB
100
AcDbSymbolTableRecord
100
AcDbLayerTableRecord
  2
DEFAULT_2
 70
0
 62
8
  6
HIDDEN
370
-3
390
F
  0
LAYER
  5
1FC
100
AcDbSymbolTableRecord
100
AcDbLayerTableRecord
  2
DEFAULT_3
 70
0
 62
7
  6
PHANTOM
370
-3
390
F
  0
LAYER
  5
1FD
100
AcDbSymbolTableRecord
100
AcDbLayerTableRecord
  2
1_ALL_PLANES
 70
0
 62
7
  6
CONTINUOUS
370
-3
390
F
  0
LAYER
  5
1FE
100
AcDbSymbolTableRecord
100
AcDbLayerTableRecord
  2
1_DEF_PLANES
 70
0
 62
7
  6
CONTINUOUS
370
-3
390
F
  0
LAYER
  5
1FF
100
AcDbSymbolTableRecord
100
AcDbLayerTableRecord
  2
2_ALL_CSYS
 70
0
 62
7
  6
CONTINUOUS
370
-3
390
F
  0
LAYER
  5
200
100
AcDbSymbolTableRecord
100
AcDbLayerTableRecord
  2
2_DEF_CSYS
 70
0
 62
7
  6
CONTINUOUS
370
-3
390
F
  0
LAYER
  5
201
100
AcDbSymbolTableRecord
100
AcDbLayerTableRecord
  2
3_ALL_AXES
 70
0
 62
7
  6
CONTINUOUS
370
-3
390
F
  0
LAYER
  5
202
100
AcDbSymbolTableRecord
100
AcDbLayerTableRecord
  2
3_AXES_OTHER
 70
0
 62
7
  6
CONTINUOUS
370
-3
390
F
  0
LAYER
  5
203
100
AcDbSymbolTableRecord
100
AcDbLayerTableRecord
  2
3_HOLES
 70
0
 62
7
  6
CONTINUOUS
370
-3
390
F
  0
LAYER
  5
204
100
AcDbSymbolTableRecord
100
AcDbLayerTableRecord
  2
4_ALL_POINTS
 70
0
 62
7
  6
CONTINUOUS
370
-3
390
F
  0
LAYER
  5
205
100
AcDbSymbolTableRecord
100
AcDbLayerTableRecord
  2
5_ALL_CURVES
 70
0
 62
7
  6
CONTINUOUS
370
-3
390
F
  0
LAYER
  5
206
100
AcDbSymbolTableRecord
100
AcDbLayerTableRecord
  2
6_ALL_SURFS
 70
0
 62
7
  6
CONTINUOUS
370
-3
390
F
  0
LAYER
  5
207
100
AcDbSymbolTableRecord
100
AcDbLayerTableRecord
  2
6_COPYGEOM
 70
0
 62
7
  6
CONTINUOUS
370
-3
390
F
  0
LAYER
  5
208
100
AcDbSymbolTableRecord
100
AcDbLayerTableRecord
  2
7_ALL_ROUNDS
 70
0
 62
7
  6
CONTINUOUS
370
-3
390
F
  0
LAYER
  5
209
100
AcDbSymbolTableRecord
100
AcDbLayerTableRecord
  2
7_MERGES
 70
0
 62
7
  6
CONTINUOUS
370
-3
390
F
  0
LAYER
  5
20A
100
AcDbSymbolTableRecord
100
AcDbLayerTableRecord
  2
8_GDT
 70
0
 62
7
  6
CONTINUOUS
370
-3
390
F
  0
LAYER
  5
20B
100
AcDbSymbolTableRecord
100
AcDbLayerTableRecord
  2
8_SET_DATUMS
 70
0
 62
7
  6
CONTINUOUS
370
-3
390
F
  0
LAYER
  5
20C
100
AcDbSymbolTableRecord
100
AcDbLayerTableRecord
  2
9_COSMETICS
 70
0
 62
7
  6
CONTINUOUS
370
-3
390
F
  0
LAYER
  5
20D
100
AcDbSymbolTableRecord
100
AcDbLayerTableRecord
  2
9_THREADS
 70
0
 62
7
  6
CONTINUOUS
370
-3
390
F
  0
ENDTAB
  0
TABLE
  2
STYLE
  5
3
100
AcDbSymbolTable
 70
1
  0
STYLE
  5
11
100
AcDbSymbolTableRecord
100
AcDbTextStyleTableRecord
  2
STANDARD
 70
0
 40
0.0
 41
1.0
 50
0.0
 71
0
 42
0.2
  3
gothic.ttf
  4

1001
ACAD
1000
Century Gothic
1071
34
  0
STYLE
  5
20E
100
AcDbSymbolTableRecord
100
AcDbTextStyleTableRecord
  2
TEXTSTYLE_1
 70
0
 40
0.0
 41
0.8
 50
0.0
 71
0
 42
0.2
  3
gdt
  4

  0
STYLE
  5
20F
100
AcDbSymbolTableRecord
100
AcDbTextStyleTableRecord
  2
TEXTSTYLE_2
 70
0
 40
0.0
 41
1.0
 50
0.0
 71
0
 42
0.2
  3
gothic.ttf
  4

1001
ACAD
1000
Century Gothic
1071
34
  0
STYLE
  5
210
100
AcDbSymbolTableRecord
100
AcDbTextStyleTableRecord
  2
TEXTSTYLE_3
 70
0
 40
0.0
 41
1.0
 50
0.0
 71
0
 42
0.2
  3
ar_wgl_b.ttf
  4

1001
ACAD
1000
Arial WGL
1071
33554466
  0
STYLE
  5
211
100
AcDbSymbolTableRecord
100
AcDbTextStyleTableRecord
  2
TEXTSTYLE_4
 70
0
 40
0.0
 41
1.0
 50
0.0
 71
0
 42
0.2
  3
gdt
  4

  0
ENDTAB
  0
TABLE
  2
VIEW
  5
6
100
AcDbSymbolTable
 70
0
  0
ENDTAB
  0
TABLE
  2
UCS
  5
7
100
AcDbSymbolTable
 70
0
  0
ENDTAB
  0
TABLE
  2
APPID
  5
9
100
AcDbSymbolTable
 70
1
  0
APPID
  5
212
100
AcDbSymbolTableRecord
100
AcDbRegAppTableRecord
  2
ACAD
 70
0
  0
ENDTAB
  0
TABLE
  2
BLOCK_RECORD
  5
1
100
AcDbSymbolTable
 70
0
  0
BLOCK_RECORD
  5
213
100
AcDbSymbolTableRecord
100
AcDbBlockTableRecord
  2
*Model_Space
  0
BLOCK_RECORD
  5
214
100
AcDbSymbolTableRecord
100
AcDbBlockTableRecord
  2
*Paper_Space
  0
BLOCK_RECORD
  5
215
100
AcDbSymbolTableRecord
100
AcDbBlockTableRecord
  2
_FILLED
  0
BLOCK_RECORD
  5
216
100
AcDbSymbolTableRecord
100
AcDbBlockTableRecord
  2
XSEC_FILLED
  0
BLOCK_RECORD
  5
217
100
AcDbSymbolTableRecord
100
AcDbBlockTableRecord
  2
*D0
  0
BLOCK_RECORD
  5
218
100
AcDbSymbolTableRecord
100
AcDbBlockTableRecord
  2
*D1
  0
BLOCK_RECORD
  5
219
100
AcDbSymbolTableRecord
100
AcDbBlockTableRecord
  2
*D2
  0
BLOCK_RECORD
  5
21A
100
AcDbSymbolTableRecord
100
AcDbBlockTableRecord
  2
*D3
  0
BLOCK_RECORD
  5
21B
100
AcDbSymbolTableRecord
100
AcDbBlockTableRecord
  2
*D4
  0
BLOCK_RECORD
  5
21C
100
AcDbSymbolTableRecord
100
AcDbBlockTableRecord
  2
*D5
  0
BLOCK_RECORD
  5
21D
100
AcDbSymbolTableRecord
100
AcDbBlockTableRecord
  2
*D6
  0
BLOCK_RECORD
  5
21E
100
AcDbSymbolTableRecord
100
AcDbBlockTableRecord
  2
*D7
  0
BLOCK_RECORD
  5
21F
100
AcDbSymbolTableRecord
100
AcDbBlockTableRecord
  2
*D8
  0
BLOCK_RECORD
  5
220
100
AcDbSymbolTableRecord
100
AcDbBlockTableRecord
  2
*D9
  0
BLOCK_RECORD
  5
221
100
AcDbSymbolTableRecord
100
AcDbBlockTableRecord
  2
*D10
  0
BLOCK_RECORD
  5
222
100
AcDbSymbolTableRecord
100
AcDbBlockTableRecord
  2
*D11
  0
BLOCK_RECORD
  5
223
100
AcDbSymbolTableRecord
100
AcDbBlockTableRecord
  2
*D12
  0
BLOCK_RECORD
  5
224
100
AcDbSymbolTableRecord
100
AcDbBlockTableRecord
  2
*D13
  0
BLOCK_RECORD
  5
225
100
AcDbSymbolTableRecord
100
AcDbBlockTableRecord
  2
*D14
  0
BLOCK_RECORD
  5
226
100
AcDbSymbolTableRecord
100
AcDbBlockTableRecord
  2
CG_3D_BL2
  0
BLOCK_RECORD
  5
227
100
AcDbSymbolTableRecord
100
AcDbBlockTableRecord
  2
CG_3D_BL1
  0
BLOCK_RECORD
  5
228
100
AcDbSymbolTableRecord
100
AcDbBlockTableRecord
  2
CG_3D_BL0
  0
ENDTAB
  0
TABLE
  2
DIMSTYLE
  5
A
100
AcDbSymbolTable
 70
1
100
AcDbDimStyleTable
 71
0
  0
DIMSTYLE
105
229
100
AcDbSymbolTableRecord
100
AcDbDimStyleTableRecord
  2
STANDARD
 70
0
  3

  4

 40
1.0
 41
16.0
 42
1.5875
 43
0.38
 44
3.175
 45
0.0
 46
0.0
 47
0.02
 48
0.02
140
18.288
141
0.09
142
0.0
143
0.0393700787
144
1.0
145
0.0
146
1.0
147
0.625
 71
1
 72
0
 73
1
 74
1
 75
0
 76
0
 77
0
 78
4
 79
1
170
1
171
1
172
0
173
0
174
0
175
0
176
0
177
0
178
0
270
2
179
2
271
2
272
2
273
2
274
2
275
0
280
0
281
0
282
0
283
1
284
4
285
0
286
0
287
3
288
0
340
11
278
46
341
215
342
215
343
215
344
215
  0
DIMSTYLE
105
22A
100
AcDbSymbolTableRecord
100
AcDbDimStyleTableRecord
  2
DIMSTYLE_1
 70
0
  3

  4

 40
1.0
 41
16.0
 42
1.5875
 43
0.38
 44
3.175
 45
0.0
 46
0.0
 47
0.02
 48
0.02
140
18.288
141
0.09
142
0.0
143
0.0393700787
144
1.0
145
0.0
146
1.0
147
1.143
 71
0
 72
0
 73
1
 74
1
 75
0
 76
0
 77
0
 78
4
 79
1
170
1
171
2
172
0
173
0
174
0
175
0
176
0
177
0
178
0
270
2
179
2
271
1
272
1
273
2
274
2
275
0
280
0
281
0
282
0
283
1
284
4
285
0
286
0
287
3
288
0
340
11
278
46
341
215
342
215
343
215
344
215
  0
DIMSTYLE
105
22B
100
AcDbSymbolTableRecord
100
AcDbDimStyleTableRecord
  2
DIMSTYLE_2
 70
0
  3
<>
  4

 40
1.0
 41
16.0
 42
1.5875
 43
0.38
 44
3.175
 45
0.0
 46
0.0
 47
0.02
 48
0.02
140
18.288
141
0.09
142
0.0
143
0.0393700787
144
1.0
145
0.0
146
1.0
147
0.625
 71
0
 72
0
 73
1
 74
1
 75
0
 76
0
 77
0
 78
4
 79
1
170
1
171
2
172
0
173
0
174
0
175
0
176
0
177
0
178
0
270
2
179
2
271
1
272
1
273
2
274
2
275
0
280
0
281
0
282
0
283
1
284
4
285
0
286
0
287
3
288
1
340
11
278
46
289
1
341
215
342
215
343
215
344
215
  0
ENDTAB
  0
ENDSEC
  0
SECTION
  2
BLOCKS
  0
BLOCK
  5
20
100
AcDbEntity
  8
0
100
AcDbBlockBegin
  2
*Model_Space
 70
0
 10
0.0
 20
0.0
 30
0.0
  3
*Model_Space
  1

  0
ENDBLK
  5
21
100
AcDbEntity
  8
0
100
AcDbBlockEnd
  0
BLOCK
  5
1C
100
AcDbEntity
  8
0
100
AcDbBlockBegin
  2
*Paper_Space
 70
0
 10
0.0
 20
0.0
 30
0.0
  3
*Paper_Space
  1

  0
ENDBLK
  5
1D
100
AcDbEntity
  8
0
100
AcDbBlockEnd
  0
BLOCK
  5
22C
100
AcDbEntity
  8
0
100
AcDbBlockBegin
 62
2
  6
CONTINUOUS
  2
CG_3D_BL2
 70
64
 10
331.3369847956
 20
1208.5561877168
  3
CG_3D_BL2
  1

  0
ARC
  5
22D
100
AcDbEntity
  8
0
100
AcDbCircle
 62
7
  6
CONTINUOUS
 10
331.3369847956
 20
1208.5561877168
 40
16.0
100
AcDbArc
 50
90.0
 51
180.0
  0
ARC
  5
22E
100
AcDbEntity
  8
0
100
AcDbCircle
 62
7
  6
CONTINUOUS
 10
331.3369847956
 20
1208.5561877168
 40
16.0
100
AcDbArc
 50
180.0
 51
270.0
  0
ARC
  5
22F
100
AcDbEntity
  8
0
100
AcDbCircle
 62
7
  6
CONTINUOUS
 10
331.3369847956
 20
1208.5561877168
 40
16.0
100
AcDbArc
 50
270.0
 51
360.0
  0
ARC
  5
230
100
AcDbEntity
  8
0
100
AcDbCircle
 62
7
  6
CONTINUOUS
 10
331.3369847956
 20
1208.5561877168
 40
16.0
100
AcDbArc
 50
0.0
 51
90.0
  0
LINE
  5
231
100
AcDbEntity
  8
0
100
AcDbLine
 62
7
  6
CONTINUOUS
 10
331.3369847956
 20
1208.5561877168
 11
347.3369847956
 21
1208.5561877168
  0
LINE
  5
232
100
AcDbEntity
  8
0
100
AcDbLine
 62
7
  6
CONTINUOUS
 10
331.3369847956
 20
1208.5561877168
 11
331.3369847956
 21
1192.5561877168
  0
LINE
  5
233
100
AcDbEntity
  8
0
100
AcDbLine
 62
7
  6
CONTINUOUS
 10
315.3369847956
 20
1208.5561877168
 11
331.3369847956
 21
1208.5561877168
  0
LINE
  5
234
100
AcDbEntity
  8
0
100
AcDbLine
 62
7
  6
CONTINUOUS
 10
331.3369847956
 20
1224.5561877168
 11
331.3369847956
 21
1208.5561877168
  0
LINE
  5
235
100
AcDbEntity
  8
0
100
AcDbLine
 62
2
  6
CONTINUOUS
 10
331.3369847956
 20
1208.450737167
 11
331.4424353454
 21
1208.5561877168
  0
LWPOLYLINE
  5
236
100
AcDbEntity
  8
0
100
AcDbPolyline
 62
7
  6
CONTINUOUS
 90
8
 70
0
 10
331.3369847956
 20
1208.5561877168
 10
331.3369847956
 20
1192.5561877168
 10
336.2812567056
 20
1193.3392834561
 10
340.7415488322
 20
1195.6119158068
 10
344.2812567056
 20
1199.1516236801
 10
346.5538890563
 20
1203.6119158068
 10
347.3369847956
 20
1208.5561877168
 10
331.3369847956
 20
1208.5561877168
  0
HATCH
  5
237
100
AcDbEntity
  8
0
100
AcDbHatch
 62
7
  6
CONTINUOUS
 10
0.0
 20
0.0
 30
0.0
210
0.0
220
0.0
230
1.0
  2
SOLID
 70
1
 71
1
 91
1
 92
1
 93
7
 72
1
 10
331.3369847956
 20
1208.5561877168
 11
331.3369847956
 21
1192.5561877168
 72
1
 10
331.3369847956
 20
1192.5561877168
 11
336.2812567056
 21
1193.3392834561
 72
1
 10
336.2812567056
 20
1193.3392834561
 11
340.7415488322
 21
1195.6119158068
 72
1
 10
340.7415488322
 20
1195.6119158068
 11
344.2812567056
 21
1199.1516236801
 72
1
 10
344.2812567056
 20
1199.1516236801
 11
346.5538890563
 21
1203.6119158068
 72
1
 10
346.5538890563
 20
1203.6119158068
 11
347.3369847956
 21
1208.5561877168
 72
1
 10
347.3369847956
 20
1208.5561877168
 11
331.3369847956
 21
1208.5561877168
 97
1
330
236
 75
0
 76
1
 98
1
 10
0.0
 20
0.0
  0
LWPOLYLINE
  5
238
100
AcDbEntity
  8
0
100
AcDbPolyline
 62
7
  6
CONTINUOUS
 90
8
 70
0
 10
331.3369847956
 20
1208.5561877168
 10
315.3369847956
 20
1208.5561877168
 10
316.1200805348
 20
1213.5004596268
 10
318.3927128856
 20
1217.9607517535
 10
321.9324207589
 20
1221.5004596268
 10
326.3927128856
 20
1223.7730919775
 10
331.3369847956
 20
1224.5561877168
 10
331.3369847956
 20
1208.5561877168
  0
HATCH
  5
239
100
AcDbEntity
  8
0
100
AcDbHatch
 62
7
  6
CONTINUOUS
 10
0.0
 20
0.0
 30
0.0
210
0.0
220
0.0
230
1.0
  2
SOLID
 70
1
 71
1
 91
1
 92
1
 93
7
 72
1
 10
331.3369847956
 20
1208.5561877168
 11
315.3369847956
 21
1208.5561877168
 72
1
 10
315.3369847956
 20
1208.5561877168
 11
316.1200805348
 21
1213.5004596268
 72
1
 10
316.1200805348
 20
1213.5004596268
 11
318.3927128856
 21
1217.9607517535
 72
1
 10
318.3927128856
 20
1217.9607517535
 11
321.9324207589
 21
1221.5004596268
 72
1
 10
321.9324207589
 20
1221.5004596268
 11
326.3927128856
 21
1223.7730919775
 72
1
 10
326.3927128856
 20
1223.7730919775
 11
331.3369847956
 21
1224.5561877168
 72
1
 10
331.3369847956
 20
1224.5561877168
 11
331.3369847956
 21
1208.5561877168
 97
1
330
238
 75
0
 76
1
 98
1
 10
0.0
 20
0.0
  0
ENDBLK
  5
23A
100
AcDbEntity
  8
0
  6
BYBLOCK
 62
0
100
AcDbBlockEnd
  0
BLOCK
  5
23B
100
AcDbEntity
  8
0
100
AcDbBlockBegin
 62
2
  6
CONTINUOUS
  2
CG_3D_BL1
 70
64
 10
1151.4442815681
 20
1208.4963600194
  3
CG_3D_BL1
  1

  0
ARC
  5
23C
100
AcDbEntity
  8
0
100
AcDbCircle
 62
7
  6
CONTINUOUS
 10
1151.4442815681
 20
1208.4963600194
 40
16.0
100
AcDbArc
 50
90.0
 51
180.0
  0
ARC
  5
23D
100
AcDbEntity
  8
0
100
AcDbCircle
 62
7
  6
CONTINUOUS
 10
1151.4442815681
 20
1208.4963600194
 40
16.0
100
AcDbArc
 50
180.0
 51
270.0
  0
ARC
  5
23E
100
AcDbEntity
  8
0
100
AcDbCircle
 62
7
  6
CONTINUOUS
 10
1151.4442815681
 20
1208.4963600194
 40
16.0
100
AcDbArc
 50
270.0
 51
360.0
  0
ARC
  5
23F
100
AcDbEntity
  8
0
100
AcDbCircle
 62
7
  6
CONTINUOUS
 10
1151.4442815681
 20
1208.4963600194
 40
16.0
100
AcDbArc
 50
0.0
 51
90.0
  0
LINE
  5
240
100
AcDbEntity
  8
0
100
AcDbLine
 62
7
  6
CONTINUOUS
 10
1151.4442815681
 20
1208.4963600194
 11
1167.4442815681
 21
1208.4963600194
  0
LINE
  5
241
100
AcDbEntity
  8
0
100
AcDbLine
 62
7
  6
CONTINUOUS
 10
1151.4442815681
 20
1208.4963600194
 11
1151.4442815681
 21
1192.4963600194
  0
LINE
  5
242
100
AcDbEntity
  8
0
100
AcDbLine
 62
7
  6
CONTINUOUS
 10
1135.4442815681
 20
1208.4963600194
 11
1151.4442815681
 21
1208.4963600194
  0
LINE
  5
243
100
AcDbEntity
  8
0
100
AcDbLine
 62
7
  6
CONTINUOUS
 10
1151.4442815681
 20
1224.4963600194
 11
1151.4442815681
 21
1208.4963600194
  0
LINE
  5
244
100
AcDbEntity
  8
0
100
AcDbLine
 62
2
  6
CONTINUOUS
 10
1151.4442815681
 20
1208.3909094696
 11
1151.549732118
 21
1208.4963600194
  0
LWPOLYLINE
  5
245
100
AcDbEntity
  8
0
100
AcDbPolyline
 62
7
  6
CONTINUOUS
 90
8
 70
0
 10
1151.4442815681
 20
1208.4963600194
 10
1151.4442815681
 20
1192.4963600194
 10
1156.3885534781
 20
1193.2794557587
 10
1160.8488456048
 20
1195.5520881094
 10
1164.3885534781
 20
1199.0917959827
 10
1166.6611858289
 20
1203.5520881094
 10
1167.4442815681
 20
1208.4963600194
 10
1151.4442815681
 20
1208.4963600194
  0
HATCH
  5
246
100
AcDbEntity
  8
0
100
AcDbHatch
 62
7
  6
CONTINUOUS
 10
0.0
 20
0.0
 30
0.0
210
0.0
220
0.0
230
1.0
  2
SOLID
 70
1
 71
1
 91
1
 92
1
 93
7
 72
1
 10
1151.4442815681
 20
1208.4963600194
 11
1151.4442815681
 21
1192.4963600194
 72
1
 10
1151.4442815681
 20
1192.4963600194
 11
1156.3885534781
 21
1193.2794557587
 72
1
 10
1156.3885534781
 20
1193.2794557587
 11
1160.8488456048
 21
1195.5520881094
 72
1
 10
1160.8488456048
 20
1195.5520881094
 11
1164.3885534781
 21
1199.0917959827
 72
1
 10
1164.3885534781
 20
1199.0917959827
 11
1166.6611858289
 21
1203.5520881094
 72
1
 10
1166.6611858289
 20
1203.5520881094
 11
1167.4442815681
 21
1208.4963600194
 72
1
 10
1167.4442815681
 20
1208.4963600194
 11
1151.4442815681
 21
1208.4963600194
 97
1
330
245
 75
0
 76
1
 98
1
 10
0.0
 20
0.0
  0
LWPOLYLINE
  5
247
100
AcDbEntity
  8
0
100
AcDbPolyline
 62
7
  6
CONTINUOUS
 90
8
 70
0
 10
1151.4442815681
 20
1208.4963600194
 10
1135.4442815681
 20
1208.4963600194
 10
1136.2273773074
 20
1213.4406319294
 10
1138.5000096581
 20
1217.9009240561
 10
1142.0397175315
 20
1221.4406319294
 10
1146.5000096581
 20
1223.7132642801
 10
1151.4442815681
 20
1224.4963600194
 10
1151.4442815681
 20
1208.4963600194
  0
HATCH
  5
248
100
AcDbEntity
  8
0
100
AcDbHatch
 62
7
  6
CONTINUOUS
 10
0.0
 20
0.0
 30
0.0
210
0.0
220
0.0
230
1.0
  2
SOLID
 70
1
 71
1
 91
1
 92
1
 93
7
 72
1
 10
1151.4442815681
 20
1208.4963600194
 11
1135.4442815681
 21
1208.4963600194
 72
1
 10
1135.4442815681
 20
1208.4963600194
 11
1136.2273773074
 21
1213.4406319294
 72
1
 10
1136.2273773074
 20
1213.4406319294
 11
1138.5000096581
 21
1217.9009240561
 72
1
 10
1138.5000096581
 20
1217.9009240561
 11
1142.0397175315
 21
1221.4406319294
 72
1
 10
1142.0397175315
 20
1221.4406319294
 11
1146.5000096581
 21
1223.7132642801
 72
1
 10
1146.5000096581
 20
1223.7132642801
 11
1151.4442815681
 21
1224.4963600194
 72
1
 10
1151.4442815681
 20
1224.4963600194
 11
1151.4442815681
 21
1208.4963600194
 97
1
330
247
 75
0
 76
1
 98
1
 10
0.0
 20
0.0
  0
ENDBLK
  5
249
100
AcDbEntity
  8
0
  6
BYBLOCK
 62
0
100
AcDbBlockEnd
  0
BLOCK
  5
24A
100
AcDbEntity
  8
0
100
AcDbBlockBegin
 62
2
  6
CONTINUOUS
  2
CG_3D_BL0
 70
64
 10
272.6906793393
 20
2020.87859589
  3
CG_3D_BL0
  1

  0
ARC
  5
24B
100
AcDbEntity
  8
0
100
AcDbCircle
 62
7
  6
CONTINUOUS
 10
272.6906793393
 20
2020.87859589
 40
13.0
100
AcDbArc
 50
90.0
 51
180.0
  0
ARC
  5
24C
100
AcDbEntity
  8
0
100
AcDbCircle
 62
7
  6
CONTINUOUS
 10
272.6906793393
 20
2020.87859589
 40
13.0
100
AcDbArc
 50
180.0
 51
270.0
  0
ARC
  5
24D
100
AcDbEntity
  8
0
100
AcDbCircle
 62
7
  6
CONTINUOUS
 10
272.6906793393
 20
2020.87859589
 40
13.0
100
AcDbArc
 50
270.0
 51
360.0
  0
ARC
  5
24E
100
AcDbEntity
  8
0
100
AcDbCircle
 62
7
  6
CONTINUOUS
 10
272.6906793393
 20
2020.87859589
 40
13.0
100
AcDbArc
 50
0.0
 51
90.0
  0
LINE
  5
24F
100
AcDbEntity
  8
0
100
AcDbLine
 62
7
  6
CONTINUOUS
 10
272.6906793393
 20
2020.87859589
 11
285.6906793393
 21
2020.87859589
  0
LINE
  5
250
100
AcDbEntity
  8
0
100
AcDbLine
 62
7
  6
CONTINUOUS
 10
272.6906793393
 20
2020.87859589
 11
272.6906793393
 21
2007.87859589
  0
LINE
  5
251
100
AcDbEntity
  8
0
100
AcDbLine
 62
7
  6
CONTINUOUS
 10
259.6906793393
 20
2020.87859589
 11
272.6906793393
 21
2020.87859589
  0
LINE
  5
252
100
AcDbEntity
  8
0
100
AcDbLine
 62
7
  6
CONTINUOUS
 10
272.6906793393
 20
2033.87859589
 11
272.6906793393
 21
2020.87859589
  0
LINE
  5
253
100
AcDbEntity
  8
0
100
AcDbLine
 62
2
  6
CONTINUOUS
 10
272.6906793393
 20
2020.7929173183
 11
272.7763579111
 21
2020.87859589
  0
LWPOLYLINE
  5
254
100
AcDbEntity
  8
0
100
AcDbPolyline
 62
7
  6
CONTINUOUS
 90
8
 70
0
 10
272.6906793393
 20
2020.87859589
 10
272.6906793393
 20
2007.87859589
 10
276.7079002662
 20
2008.5148611782
 10
280.3318876191
 20
2010.3613749632
 10
283.2079002662
 20
2013.2373876102
 10
285.0544140512
 20
2016.8613749632
 10
285.6906793393
 20
2020.87859589
 10
272.6906793393
 20
2020.87859589
  0
HATCH
  5
255
100
AcDbEntity
  8
0
100
AcDbHatch
 62
7
  6
CONTINUOUS
 10
0.0
 20
0.0
 30
0.0
210
0.0
220
0.0
230
1.0
  2
SOLID
 70
1
 71
1
 91
1
 92
1
 93
7
 72
1
 10
272.6906793393
 20
2020.87859589
 11
272.6906793393
 21
2007.87859589
 72
1
 10
272.6906793393
 20
2007.87859589
 11
276.7079002662
 21
2008.5148611782
 72
1
 10
276.7079002662
 20
2008.5148611782
 11
280.3318876191
 21
2010.3613749632
 72
1
 10
280.3318876191
 20
2010.3613749632
 11
283.2079002662
 21
2013.2373876102
 72
1
 10
283.2079002662
 20
2013.2373876102
 11
285.0544140512
 21
2016.8613749632
 72
1
 10
285.0544140512
 20
2016.8613749632
 11
285.6906793393
 21
2020.87859589
 72
1
 10
285.6906793393
 20
2020.87859589
 11
272.6906793393
 21
2020.87859589
 97
1
330
254
 75
0
 76
1
 98
1
 10
0.0
 20
0.0
  0
LWPOLYLINE
  5
256
100
AcDbEntity
  8
0
100
AcDbPolyline
 62
7
  6
CONTINUOUS
 90
8
 70
0
 10
272.6906793393
 20
2020.87859589
 10
259.6906793393
 20
2020.87859589
 10
260.3269446275
 20
2024.8958168169
 10
262.1734584125
 20
2028.5198041698
 10
265.0494710595
 20
2031.3958168169
 10
268.6734584125
 20
2033.2423306019
 10
272.6906793393
 20
2033.87859589
 10
272.6906793393
 20
2020.87859589
  0
HATCH
  5
257
100
AcDbEntity
  8
0
100
AcDbHatch
 62
7
  6
CONTINUOUS
 10
0.0
 20
0.0
 30
0.0
210
0.0
220
0.0
230
1.0
  2
SOLID
 70
1
 71
1
 91
1
 92
1
 93
7
 72
1
 10
272.6906793393
 20
2020.87859589
 11
259.6906793393
 21
2020.87859589
 72
1
 10
259.6906793393
 20
2020.87859589
 11
260.3269446275
 21
2024.8958168169
 72
1
 10
260.3269446275
 20
2024.8958168169
 11
262.1734584125
 21
2028.5198041698
 72
1
 10
262.1734584125
 20
2028.5198041698
 11
265.0494710595
 21
2031.3958168169
 72
1
 10
265.0494710595
 20
2031.3958168169
 11
268.6734584125
 21
2033.2423306019
 72
1
 10
268.6734584125
 20
2033.2423306019
 11
272.6906793393
 21
2033.87859589
 72
1
 10
272.6906793393
 20
2033.87859589
 11
272.6906793393
 21
2020.87859589
 97
1
330
256
 75
0
 76
1
 98
1
 10
0.0
 20
0.0
  0
ENDBLK
  5
258
100
AcDbEntity
  8
0
  6
BYBLOCK
 62
0
100
AcDbBlockEnd
  0
BLOCK
  5
259
100
AcDbEntity
  8
0
100
AcDbBlockBegin
  2
_FILLED
 70
64
 10
0.0
 20
0.0
  3
_FILLED
  1

  0
SOLID
  5
25A
100
AcDbEntity
  8
0
  6
BYBLOCK
 62
0
100
AcDbTrace
 10
0.0
 20
0.0
 11
-1.0
 21
0.1275
 12
-1.0
 22
-0.1275
 13
-1.0
 23
-0.1275
  0
ENDBLK
  5
25B
100
AcDbEntity
  8
0
  6
BYBLOCK
 62
0
100
AcDbBlockEnd
  0
BLOCK
  5
25C
100
AcDbEntity
  8
0
100
AcDbBlockBegin
  2
XSEC_FILLED
 70
64
 10
0.0
 20
0.0
  3
XSEC_FILLED
  1

  0
SOLID
  5
25D
100
AcDbEntity
  8
0
  6
BYBLOCK
 62
0
100
AcDbTrace
 10
0.0
 20
0.0
 11
-1.0
 21
0.166
 12
-1.0
 22
-0.166
 13
-1.0
 23
-0.166
  0
ENDBLK
  5
25E
100
AcDbEntity
  8
0
  6
BYBLOCK
 62
0
100
AcDbBlockEnd
  0
BLOCK
  5
25F
100
AcDbEntity
  8
0
100
AcDbBlockBegin
 62
2
  6
CONTINUOUS
  2
*D0
 70
65
 10
0.0
 20
0.0
  3
*D0
  1

  0
MTEXT
  5
260
100
AcDbEntity
  8
0
100
AcDbMText
 62
2
  6
CONTINUOUS
  7
STANDARD
 71
2
 72
1
 10
1552.0203223999
 20
1233.6041834277
 30
0.0
 11
1.0
 21
0.0
 31
0.0
 73
2
 44
0.9
  1
704,0\P[27.72]
 40
18.288
 41
81.5821561338
  0
LINE
  5
261
100
AcDbEntity
  8
0
100
AcDbLine
 62
2
  6
CONTINUOUS
 10
1455.5516304348
 20
1562.7793478261
 11
1586.3943595747
 21
1562.7793478261
  0
LINE
  5
262
100
AcDbEntity
  8
0
100
AcDbLine
 62
2
  6
CONTINUOUS
 10
1455.5516304348
 20
858.7793478261
 11
1586.3943595747
 21
858.7793478261
  0
LINE
  5
263
100
AcDbEntity
  8
0
100
AcDbLine
 62
2
  6
CONTINUOUS
 10
1560.9943595747
 20
1562.7793478261
 11
1560.9943595747
 21
1242.7481834277
  0
LINE
  5
264
100
AcDbEntity
  8
0
100
AcDbLine
 62
2
  6
CONTINUOUS
 10
1560.9943595747
 20
858.7793478261
 11
1560.9943595747
 21
1173.7772407715
  0
INSERT
  5
265
100
AcDbEntity
  8
0
100
AcDbBlockReference
 62
2
  6
CONTINUOUS
  2
_FILLED
 10
1560.9943595747
 20
1562.7793478261
 41
16.0
 42
16.0
 43
16.0
 50
90.0
  0
INSERT
  5
266
100
AcDbEntity
  8
0
100
AcDbBlockReference
 62
2
  6
CONTINUOUS
  2
_FILLED
 10
1560.9943595747
 20
858.7793478261
 41
16.0
 42
16.0
 43
16.0
 50
270.0
  0
ENDBLK
  5
267
100
AcDbEntity
  8
0
  6
BYBLOCK
 62
0
100
AcDbBlockEnd
  0
BLOCK
  5
268
100
AcDbEntity
  8
0
100
AcDbBlockBegin
 62
2
  6
CONTINUOUS
  2
*D1
 70
65
 10
0.0
 20
0.0
  3
*D1
  1

  0
MTEXT
  5
269
100
AcDbEntity
  8
0
100
AcDbMText
 62
2
  6
CONTINUOUS
  7
STANDARD
 71
2
 72
1
 10
1144.9211752062
 20
578.5696528951
 30
0.0
 11
1.0
 21
0.0
 31
0.0
 73
2
 44
0.9
  1
583,0\P[22.95]
 40
18.288
 41
81.5821561338
  0
LINE
  5
26A
100
AcDbEntity
  8
0
100
AcDbLine
 62
2
  6
CONTINUOUS
 10
859.8516304348
 20
504.1349053358
 11
859.8516304348
 21
594.8256528951
  0
LINE
  5
26B
100
AcDbEntity
  8
0
100
AcDbLine
 62
2
  6
CONTINUOUS
 10
1442.8516304348
 20
504.1349053358
 11
1442.8516304348
 21
594.8256528951
  0
LINE
  5
26C
100
AcDbEntity
  8
0
100
AcDbLine
 62
2
  6
CONTINUOUS
 10
859.8516304348
 20
569.4256528951
 11
1103.960134314
 21
569.4256528951
  0
LINE
  5
26D
100
AcDbEntity
  8
0
100
AcDbLine
 62
2
  6
CONTINUOUS
 10
1442.8516304348
 20
569.4256528951
 11
1203.8302904478
 21
569.4256528951
  0
INSERT
  5
26E
100
AcDbEntity
  8
0
100
AcDbBlockReference
 62
2
  6
CONTINUOUS
  2
_FILLED
 10
859.8516304348
 20
569.4256528951
 41
16.0
 42
16.0
 43
16.0
 50
180.0
  0
INSERT
  5
26F
100
AcDbEntity
  8
0
100
AcDbBlockReference
 62
2
  6
CONTINUOUS
  2
_FILLED
 10
1442.8516304348
 20
569.4256528951
 41
16.0
 42
16.0
 43
16.0
  0
ENDBLK
  5
270
100
AcDbEntity
  8
0
  6
BYBLOCK
 62
0
100
AcDbBlockEnd
  0
BLOCK
  5
271
100
AcDbEntity
  8
0
100
AcDbBlockBegin
 62
2
  6
CONTINUOUS
  2
*D2
 70
65
 10
0.0
 20
0.0
  3
*D2
  1

  0
MTEXT
  5
272
100
AcDbEntity
  8
0
100
AcDbMText
 62
2
  6
CONTINUOUS
  7
STANDARD
 71
1
 72
1
 10
415.4197630816
 20
1612.9199326474
 30
0.0
 11
1.0
 21
0.0
 31
0.0
 73
2
 44
0.9
  1
41,0\P[1.62]
 40
18.288
 41
67.4412490706
  0
LINE
  5
273
100
AcDbEntity
  8
0
100
AcDbLine
 62
2
  6
CONTINUOUS
 10
372.3724053358
 20
1575.4793478261
 11
372.3724053358
 21
1629.1759326474
  0
LINE
  5
274
100
AcDbEntity
  8
0
100
AcDbLine
 62
2
  6
CONTINUOUS
 10
331.3524053358
 20
1233.5276770495
 11
331.3524053358
 21
1629.1759326474
  0
LINE
  5
275
100
AcDbEntity
  8
0
100
AcDbLine
 62
2
  6
CONTINUOUS
 10
372.3724053358
 20
1603.7759326474
 11
406.2757630816
 21
1603.7759326474
  0
LINE
  5
276
100
AcDbEntity
  8
0
100
AcDbLine
 62
2
  6
CONTINUOUS
 10
331.3524053358
 20
1603.7759326474
 11
299.3524053358
 21
1603.7759326474
  0
INSERT
  5
277
100
AcDbEntity
  8
0
100
AcDbBlockReference
 62
2
  6
CONTINUOUS
  2
_FILLED
 10
372.3724053358
 20
1603.7759326474
 41
16.0
 42
16.0
 43
16.0
 50
180.0
  0
INSERT
  5
278
100
AcDbEntity
  8
0
100
AcDbBlockReference
 62
2
  6
CONTINUOUS
  2
_FILLED
 10
331.3524053358
 20
1603.7759326474
 41
16.0
 42
16.0
 43
16.0
  0
ENDBLK
  5
279
100
AcDbEntity
  8
0
  6
BYBLOCK
 62
0
100
AcDbBlockEnd
  0
BLOCK
  5
27A
100
AcDbEntity
  8
0
100
AcDbBlockBegin
 62
2
  6
CONTINUOUS
  2
*D3
 70
65
 10
0.0
 20
0.0
  3
*D3
  1

  0
MTEXT
  5
27B
100
AcDbEntity
  8
0
100
AcDbMText
 62
2
  6
CONTINUOUS
  7
STANDARD
 71
3
 72
1
 10
244.8335533475
 20
1697.4626582928
 30
0.0
 11
1.0
 21
0.0
 31
0.0
 73
2
 44
0.9
  1
97,0{\ftxt;\W0.0001;\H0.0001;\~}{\ftxt;\W0.9814126394;\H18.288; } 2X\P[3.82]
 40
18.288
 41
104.1532193309
  0
LINE
  5
27C
100
AcDbEntity
  8
0
100
AcDbLine
 62
2
  6
CONTINUOUS
 10
372.3724053358
 20
1575.4793478261
 11
372.3724053358
 21
1713.7186582928
  0
LINE
  5
27D
100
AcDbEntity
  8
0
100
AcDbLine
 62
2
  6
CONTINUOUS
 10
275.3724053358
 20
1548.9793478261
 11
275.3724053358
 21
1713.7186582928
  0
LINE
  5
27E
100
AcDbEntity
  8
0
100
AcDbLine
 62
2
  6
CONTINUOUS
 10
372.3724053358
 20
1688.3186582928
 11
323.8724053358
 21
1688.3186582928
  0
LINE
  5
27F
100
AcDbEntity
  8
0
100
AcDbLine
 62
2
  6
CONTINUOUS
 10
275.3724053358
 20
1688.3186582928
 11
323.8724053358
 21
1688.3186582928
  0
LINE
  5
280
100
AcDbEntity
  8
0
100
AcDbLine
 62
2
  6
CONTINUOUS
 10
323.8724053358
 20
1688.3186582928
 11
253.9775533475
 21
1688.3186582928
  0
INSERT
  5
281
100
AcDbEntity
  8
0
100
AcDbBlockReference
 62
2
  6
CONTINUOUS
  2
_FILLED
 10
372.3724053358
 20
1688.3186582928
 41
16.0
 42
16.0
 43
16.0
  0
INSERT
  5
282
100
AcDbEntity
  8
0
100
AcDbBlockReference
 62
2
  6
CONTINUOUS
  2
_FILLED
 10
275.3724053358
 20
1688.3186582928
 41
16.0
 42
16.0
 43
16.0
 50
180.0
  0
ENDBLK
  5
283
100
AcDbEntity
  8
0
  6
BYBLOCK
 62
0
100
AcDbBlockEnd
  0
BLOCK
  5
284
100
AcDbEntity
  8
0
100
AcDbBlockBegin
 62
2
  6
CONTINUOUS
  2
*D4
 70
65
 10
0.0
 20
0.0
  3
*D4
  1

  0
MTEXT
  5
285
100
AcDbEntity
  8
0
100
AcDbMText
 62
2
  6
CONTINUOUS
  7
TEXTSTYLE_4
 71
1
 72
1
 10
450.2936534968
 20
1031.674361204
 30
0.0
 11
1.0
 21
0.0
 31
0.0
 73
2
 44
0.9
  1
{\fgdt;n}\fCentury Gothic;{\W0.8;20,0}{\W0.8;{\ftxt;\W0.0001;\H0.0001;\~}{\ftxt;\W0.2081784387;\H18.288; } TYP}\P{\W0.8;[}{\W0.8;.79}{\W0.8;]}
 40
18.288
 41
125.8178141264
  0
LINE
  5
286
100
AcDbEntity
  8
0
100
AcDbLine
 62
2
  6
CONTINUOUS
 10
345.6411402291
 20
985.9032275603
 11
399.4936534968
 21
1022.530361204
  0
LINE
  5
287
100
AcDbEntity
  8
0
100
AcDbLine
 62
2
  6
CONTINUOUS
 10
399.4936534968
 20
1022.530361204
 11
441.1496534968
 21
1022.530361204
  0
INSERT
  5
288
100
AcDbEntity
  8
0
100
AcDbBlockReference
 62
2
  6
CONTINUOUS
  2
_FILLED
 10
345.6411402291
 20
985.9032275603
 41
16.0
 42
16.0
 43
16.0
 50
214.2211034159
  0
ENDBLK
  5
289
100
AcDbEntity
  8
0
  6
BYBLOCK
 62
0
100
AcDbBlockEnd
  0
BLOCK
  5
28A
100
AcDbEntity
  8
0
100
AcDbBlockBegin
 62
2
  6
CONTINUOUS
  2
*D5
 70
65
 10
0.0
 20
0.0
  3
*D5
  1

  0
MTEXT
  5
28B
100
AcDbEntity
  8
0
100
AcDbMText
 62
2
  6
CONTINUOUS
  7
STANDARD
 71
3
 72
1
 10
1758.4604874159
 20
1044.4310343337
 30
0.0
 11
1.0
 21
0.0
 31
0.0
 73
2
 44
0.9
  1
(\fgdt;{\W1.0;{\fgdt;n}}\fCentury Gothic;20,0{\ftxt;\W0.0001;\H0.0001;\~}{\ftxt;\W0.2081784387;\H18.288; } TYP)\P[.79]
 40
18.288
 41
144.5817100372
  0
LINE
  5
28C
100
AcDbEntity
  8
0
100
AcDbLine
 62
2
  6
CONTINUOUS
 10
1871.7283489424
 20
986.4392901881
 11
1809.2604874159
 21
1035.2870343337
  0
LINE
  5
28D
100
AcDbEntity
  8
0
100
AcDbLine
 62
2
  6
CONTINUOUS
 10
1809.2604874159
 20
1035.2870343337
 11
1767.6044874159
 21
1035.2870343337
  0
INSERT
  5
28E
100
AcDbEntity
  8
0
100
AcDbBlockReference
 62
2
  6
CONTINUOUS
  2
_FILLED
 10
1871.7283489424
 20
986.4392901881
 41
16.0
 42
16.0
 43
16.0
 50
321.9758011673
  0
ENDBLK
  5
28F
100
AcDbEntity
  8
0
  6
BYBLOCK
 62
0
100
AcDbBlockEnd
  0
BLOCK
  5
290
100
AcDbEntity
  8
0
100
AcDbBlockBegin
 62
2
  6
CONTINUOUS
  2
*D6
 70
65
 10
0.0
 20
0.0
  3
*D6
  1

  0
MTEXT
  5
291
100
AcDbEntity
  8
0
100
AcDbMText
 62
2
  6
CONTINUOUS
  7
STANDARD
 71
2
 72
1
 10
777.9602978949
 20
1413.7573368726
 30
0.0
 11
1.0
 21
0.0
 31
0.0
 73
2
 44
0.9
  1
354,3\P[13.95]
 40
18.288
 41
81.5821561338
  0
LINE
  5
292
100
AcDbEntity
  8
0
100
AcDbLine
 62
2
  6
CONTINUOUS
 10
847.1516304348
 20
1562.7793478261
 11
761.5343350696
 21
1562.7793478261
  0
LINE
  5
293
100
AcDbEntity
  8
0
100
AcDbLine
 62
2
  6
CONTINUOUS
 10
826.8316304348
 20
1208.5293478261
 11
761.5343350696
 21
1208.5293478261
  0
LINE
  5
294
100
AcDbEntity
  8
0
100
AcDbLine
 62
2
  6
CONTINUOUS
 10
786.9343350696
 20
1562.7793478261
 11
786.9343350696
 21
1422.9013368726
  0
LINE
  5
295
100
AcDbEntity
  8
0
100
AcDbLine
 62
2
  6
CONTINUOUS
 10
786.9343350696
 20
1208.5293478261
 11
786.9343350696
 21
1353.9303994629
  0
INSERT
  5
296
100
AcDbEntity
  8
0
100
AcDbBlockReference
 62
2
  6
CONTINUOUS
  2
_FILLED
 10
786.9343350696
 20
1562.7793478261
 41
16.0
 42
16.0
 43
16.0
 50
90.0
  0
INSERT
  5
297
100
AcDbEntity
  8
0
100
AcDbBlockReference
 62
2
  6
CONTINUOUS
  2
_FILLED
 10
786.9343350696
 20
1208.5293478261
 41
16.0
 42
16.0
 43
16.0
 50
270.0
  0
ENDBLK
  5
298
100
AcDbEntity
  8
0
  6
BYBLOCK
 62
0
100
AcDbBlockEnd
  0
BLOCK
  5
299
100
AcDbEntity
  8
0
100
AcDbBlockBegin
 62
2
  6
CONTINUOUS
  2
*D7
 70
65
 10
0.0
 20
0.0
  3
*D7
  1

  0
MTEXT
  5
29A
100
AcDbEntity
  8
0
100
AcDbMText
 62
2
  6
CONTINUOUS
  7
STANDARD
 71
1
 72
1
 10
416.9579667618
 20
826.0265255079
 30
0.0
 11
1.0
 21
0.0
 31
0.0
 73
2
 44
0.9
  1
35,0{\ftxt;\W0.0001;\H0.0001;\~}{\ftxt;\W0.9814126394;\H18.288; }TYP\P[1.38]
 40
18.288
 41
108.504267658
  0
LINE
  5
29B
100
AcDbEntity
  8
0
100
AcDbLine
 62
2
  6
CONTINUOUS
 10
372.3724053358
 20
846.0793478261
 11
372.3724053358
 21
791.4825255079
  0
LINE
  5
29C
100
AcDbEntity
  8
0
100
AcDbLine
 62
2
  6
CONTINUOUS
 10
337.3724053358
 20
947.2592478261
 11
337.3724053358
 21
791.4825255079
  0
LINE
  5
29D
100
AcDbEntity
  8
0
100
AcDbLine
 62
2
  6
CONTINUOUS
 10
372.3724053358
 20
816.8825255079
 11
407.8139667618
 21
816.8825255079
  0
LINE
  5
29E
100
AcDbEntity
  8
0
100
AcDbLine
 62
2
  6
CONTINUOUS
 10
337.3724053358
 20
816.8825255079
 11
305.3724053358
 21
816.8825255079
  0
INSERT
  5
29F
100
AcDbEntity
  8
0
100
AcDbBlockReference
 62
2
  6
CONTINUOUS
  2
_FILLED
 10
372.3724053358
 20
816.8825255079
 41
16.0
 42
16.0
 43
16.0
 50
180.0
  0
INSERT
  5
2A0
100
AcDbEntity
  8
0
100
AcDbBlockReference
 62
2
  6
CONTINUOUS
  2
_FILLED
 10
337.3724053358
 20
816.8825255079
 41
16.0
 42
16.0
 43
16.0
  0
ENDBLK
  5
2A1
100
AcDbEntity
  8
0
  6
BYBLOCK
 62
0
100
AcDbBlockEnd
  0
BLOCK
  5
2A2
100
AcDbEntity
  8
0
100
AcDbBlockBegin
 62
2
  6
CONTINUOUS
  2
*D8
 70
65
 10
0.0
 20
0.0
  3
*D8
  1

  0
MTEXT
  5
2A3
100
AcDbEntity
  8
0
100
AcDbMText
 62
2
  6
CONTINUOUS
  7
STANDARD
 71
2
 72
1
 10
445.2252819218
 20
1407.2761712404
 30
0.0
 11
1.0
 21
0.0
 31
0.0
 73
2
 44
0.9
  1
50,8{\ftxt;\W0.0001;\H0.0001;\~}{\ftxt;\W0.9814126394;\H18.288; }TYP\P[2.00]
 40
18.288
 41
108.504267658
  0
LINE
  5
2A4
100
AcDbEntity
  8
0
100
AcDbLine
 62
2
  6
CONTINUOUS
 10
370.3925053358
 20
1488.2793478261
 11
470.6252819218
 21
1488.2793478261
  0
LINE
  5
2A5
100
AcDbEntity
  8
0
100
AcDbLine
 62
2
  6
CONTINUOUS
 10
370.3925053358
 20
1437.4793478261
 11
470.6252819218
 21
1437.4793478261
  0
LINE
  5
2A6
100
AcDbEntity
  8
0
100
AcDbLine
 62
2
  6
CONTINUOUS
 10
445.2252819218
 20
1488.2793478261
 11
445.2252819218
 21
1462.8793478261
  0
LINE
  5
2A7
100
AcDbEntity
  8
0
100
AcDbLine
 62
2
  6
CONTINUOUS
 10
445.2252819218
 20
1437.4793478261
 11
445.2252819218
 21
1462.8793478261
  0
LINE
  5
2A8
100
AcDbEntity
  8
0
100
AcDbLine
 62
2
  6
CONTINUOUS
 10
445.2252819218
 20
1462.8793478261
 11
445.2252819218
 21
1416.4201712404
  0
INSERT
  5
2A9
100
AcDbEntity
  8
0
100
AcDbBlockReference
 62
2
  6
CONTINUOUS
  2
_FILLED
 10
445.2252819218
 20
1488.2793478261
 41
16.0
 42
16.0
 43
16.0
 50
90.0
  0
INSERT
  5
2AA
100
AcDbEntity
  8
0
100
AcDbBlockReference
 62
2
  6
CONTINUOUS
  2
_FILLED
 10
445.2252819218
 20
1437.4793478261
 41
16.0
 42
16.0
 43
16.0
 50
270.0
  0
ENDBLK
  5
2AB
100
AcDbEntity
  8
0
  6
BYBLOCK
 62
0
100
AcDbBlockEnd
  0
BLOCK
  5
2AC
100
AcDbEntity
  8
0
100
AcDbBlockBegin
 62
2
  6
CONTINUOUS
  2
*D9
 70
65
 10
0.0
 20
0.0
  3
*D9
  1

  0
MTEXT
  5
2AD
100
AcDbEntity
  8
0
100
AcDbMText
 62
2
  6
CONTINUOUS
  7
STANDARD
 71
2
 72
1
 10
212.5683133418
 20
1466.9001195984
 30
0.0
 11
1.0
 21
0.0
 31
0.0
 73
2
 44
0.9
  1
74,5\P[2.93]
 40
18.288
 41
67.4412490706
  0
LINE
  5
2AE
100
AcDbEntity
  8
0
100
AcDbLine
 62
2
  6
CONTINUOUS
 10
304.3523053358
 20
1488.2793478261
 11
196.1423505165
 21
1488.2793478261
  0
LINE
  5
2AF
100
AcDbEntity
  8
0
100
AcDbLine
 62
2
  6
CONTINUOUS
 10
274.6724053358
 20
1562.7793478261
 11
196.1423505165
 21
1562.7793478261
  0
LINE
  5
2B0
100
AcDbEntity
  8
0
100
AcDbLine
 62
2
  6
CONTINUOUS
 10
221.5423505165
 20
1488.2793478261
 11
221.5423505165
 21
1525.5293478261
  0
LINE
  5
2B1
100
AcDbEntity
  8
0
100
AcDbLine
 62
2
  6
CONTINUOUS
 10
221.5423505165
 20
1525.5293478261
 11
221.5423505165
 21
1476.0441195984
  0
LINE
  5
2B2
100
AcDbEntity
  8
0
100
AcDbLine
 62
2
  6
CONTINUOUS
 10
221.5423505165
 20
1562.7793478261
 11
221.5423505165
 21
1525.5293478261
  0
INSERT
  5
2B3
100
AcDbEntity
  8
0
100
AcDbBlockReference
 62
2
  6
CONTINUOUS
  2
_FILLED
 10
221.5423505165
 20
1488.2793478261
 41
16.0
 42
16.0
 43
16.0
 50
270.0
  0
INSERT
  5
2B4
100
AcDbEntity
  8
0
100
AcDbBlockReference
 62
2
  6
CONTINUOUS
  2
_FILLED
 10
221.5423505165
 20
1562.7793478261
 41
16.0
 42
16.0
 43
16.0
 50
90.0
  0
ENDBLK
  5
2B5
100
AcDbEntity
  8
0
  6
BYBLOCK
 62
0
100
AcDbBlockEnd
  0
BLOCK
  5
2B6
100
AcDbEntity
  8
0
100
AcDbBlockBegin
 62
2
  6
CONTINUOUS
  2
*D10
 70
65
 10
0.0
 20
0.0
  3
*D10
  1

  0
MTEXT
  5
2B7
100
AcDbEntity
  8
0
100
AcDbMText
 62
2
  6
CONTINUOUS
  7
STANDARD
 71
2
 72
1
 10
136.601756474
 20
1379.7850190463
 30
0.0
 11
1.0
 21
0.0
 31
0.0
 73
2
 44
0.9
  1
430,1\P[16.93]
 40
18.288
 41
81.5821561338
  0
LINE
  5
2B8
100
AcDbEntity
  8
0
100
AcDbLine
 62
2
  6
CONTINUOUS
 10
274.6724053358
 20
1562.7793478261
 11
120.1757936487
 21
1562.7793478261
  0
LINE
  5
2B9
100
AcDbEntity
  8
0
100
AcDbLine
 62
2
  6
CONTINUOUS
 10
304.3523053358
 20
1132.6793478261
 11
120.1757936487
 21
1132.6793478261
  0
LINE
  5
2BA
100
AcDbEntity
  8
0
100
AcDbLine
 62
2
  6
CONTINUOUS
 10
145.5757936487
 20
1562.7793478261
 11
145.5757936487
 21
1388.9290190463
  0
LINE
  5
2BB
100
AcDbEntity
  8
0
100
AcDbLine
 62
2
  6
CONTINUOUS
 10
145.5757936487
 20
1132.6793478261
 11
145.5757936487
 21
1319.9580916992
  0
INSERT
  5
2BC
100
AcDbEntity
  8
0
100
AcDbBlockReference
 62
2
  6
CONTINUOUS
  2
_FILLED
 10
145.5757936487
 20
1562.7793478261
 41
16.0
 42
16.0
 43
16.0
 50
90.0
  0
INSERT
  5
2BD
100
AcDbEntity
  8
0
100
AcDbBlockReference
 62
2
  6
CONTINUOUS
  2
_FILLED
 10
145.5757936487
 20
1132.6793478261
 41
16.0
 42
16.0
 43
16.0
 50
270.0
  0
ENDBLK
  5
2BE
100
AcDbEntity
  8
0
  6
BYBLOCK
 62
0
100
AcDbBlockEnd
  0
BLOCK
  5
2BF
100
AcDbEntity
  8
0
100
AcDbBlockBegin
 62
2
  6
CONTINUOUS
  2
*D11
 70
65
 10
0.0
 20
0.0
  3
*D11
  1

  0
MTEXT
  5
2C0
100
AcDbEntity
  8
0
100
AcDbMText
 62
2
  6
CONTINUOUS
  7
STANDARD
 71
1
 72
1
 10
1945.8905479059
 20
830.5401587373
 30
0.0
 11
1.0
 21
0.0
 31
0.0
 73
2
 44
0.9
  1
(35,0{\ftxt;\W0.0001;\H0.0001;\~}{\ftxt;\W0.9814126394;\H18.288; }TYP)\P[1.38]
 40
18.288
 41
127.2681635688
  0
LINE
  5
2C1
100
AcDbEntity
  8
0
100
AcDbLine
 62
2
  6
CONTINUOUS
 10
1844.6058555338
 20
846.0793478261
 11
1844.6058555338
 21
795.9961587373
  0
LINE
  5
2C2
100
AcDbEntity
  8
0
100
AcDbLine
 62
2
  6
CONTINUOUS
 10
1879.6058555338
 20
947.2592478261
 11
1879.6058555338
 21
795.9961587373
  0
LINE
  5
2C3
100
AcDbEntity
  8
0
100
AcDbLine
 62
2
  6
CONTINUOUS
 10
1844.6058555338
 20
821.3961587373
 11
1812.6058555338
 21
821.3961587373
  0
LINE
  5
2C4
100
AcDbEntity
  8
0
100
AcDbLine
 62
2
  6
CONTINUOUS
 10
1879.6058555338
 20
821.3961587373
 11
1936.7465479059
 21
821.3961587373
  0
INSERT
  5
2C5
100
AcDbEntity
  8
0
100
AcDbBlockReference
 62
2
  6
CONTINUOUS
  2
_FILLED
 10
1844.6058555338
 20
821.3961587373
 41
16.0
 42
16.0
 43
16.0
  0
INSERT
  5
2C6
100
AcDbEntity
  8
0
100
AcDbBlockReference
 62
2
  6
CONTINUOUS
  2
_FILLED
 10
1879.6058555338
 20
821.3961587373
 41
16.0
 42
16.0
 43
16.0
 50
180.0
  0
ENDBLK
  5
2C7
100
AcDbEntity
  8
0
  6
BYBLOCK
 62
0
100
AcDbBlockEnd
  0
BLOCK
  5
2C8
100
AcDbEntity
  8
0
100
AcDbBlockBegin
 62
2
  6
CONTINUOUS
  2
*D12
 70
65
 10
0.0
 20
0.0
  3
*D12
  1

  0
MTEXT
  5
2C9
100
AcDbEntity
  8
0
100
AcDbMText
 62
2
  6
CONTINUOUS
  7
STANDARD
 71
2
 72
1
 10
2016.2387839497
 20
1455.9260468325
 30
0.0
 11
1.0
 21
0.0
 31
0.0
 73
2
 44
0.9
  1
(74,5{\ftxt;\W0.0001;\H0.0001;\~}{\ftxt;\W0.9814126394;\H18.288; })\P[2.93]
 40
18.288
 41
86.2051449814
  0
LINE
  5
2CA
100
AcDbEntity
  8
0
100
AcDbLine
 62
2
  6
CONTINUOUS
 10
1942.3058555338
 20
1562.7793478261
 11
2041.6387839497
 21
1562.7793478261
  0
LINE
  5
2CB
100
AcDbEntity
  8
0
100
AcDbLine
 62
2
  6
CONTINUOUS
 10
1912.6259555338
 20
1488.2793478261
 11
2041.6387839497
 21
1488.2793478261
  0
LINE
  5
2CC
100
AcDbEntity
  8
0
100
AcDbLine
 62
2
  6
CONTINUOUS
 10
2016.2387839497
 20
1562.7793478261
 11
2016.2387839497
 21
1525.5293478261
  0
LINE
  5
2CD
100
AcDbEntity
  8
0
100
AcDbLine
 62
2
  6
CONTINUOUS
 10
2016.2387839497
 20
1488.2793478261
 11
2016.2387839497
 21
1525.5293478261
  0
LINE
  5
2CE
100
AcDbEntity
  8
0
100
AcDbLine
 62
2
  6
CONTINUOUS
 10
2016.2387839497
 20
1525.5293478261
 11
2016.2387839497
 21
1465.0700468325
  0
INSERT
  5
2CF
100
AcDbEntity
  8
0
100
AcDbBlockReference
 62
2
  6
CONTINUOUS
  2
_FILLED
 10
2016.2387839497
 20
1562.7793478261
 41
16.0
 42
16.0
 43
16.0
 50
90.0
  0
INSERT
  5
2D0
100
AcDbEntity
  8
0
100
AcDbBlockReference
 62
2
  6
CONTINUOUS
  2
_FILLED
 10
2016.2387839497
 20
1488.2793478261
 41
16.0
 42
16.0
 43
16.0
 50
270.0
  0
ENDBLK
  5
2D1
100
AcDbEntity
  8
0
  6
BYBLOCK
 62
0
100
AcDbBlockEnd
  0
BLOCK
  5
2D2
100
AcDbEntity
  8
0
100
AcDbBlockBegin
 62
2
  6
CONTINUOUS
  2
*D13
 70
65
 10
0.0
 20
0.0
  3
*D13
  1

  0
MTEXT
  5
2D3
100
AcDbEntity
  8
0
100
AcDbMText
 62
2
  6
CONTINUOUS
  7
STANDARD
 71
2
 72
1
 10
1755.7656975831
 20
1403.8826495362
 30
0.0
 11
1.0
 21
0.0
 31
0.0
 73
2
 44
0.9
  1
(50,8{\ftxt;\W0.0001;\H0.0001;\~}{\ftxt;\W0.9814126394;\H18.288; }TYP)\P[2.00]
 40
18.288
 41
127.2681635688
  0
LINE
  5
2D4
100
AcDbEntity
  8
0
100
AcDbLine
 62
2
  6
CONTINUOUS
 10
1846.5857555338
 20
1488.2793478261
 11
1730.3656975831
 21
1488.2793478261
  0
LINE
  5
2D5
100
AcDbEntity
  8
0
100
AcDbLine
 62
2
  6
CONTINUOUS
 10
1846.5857555338
 20
1437.4793478261
 11
1730.3656975831
 21
1437.4793478261
  0
LINE
  5
2D6
100
AcDbEntity
  8
0
100
AcDbLine
 62
2
  6
CONTINUOUS
 10
1755.7656975831
 20
1488.2793478261
 11
1755.7656975831
 21
1462.8793478261
  0
LINE
  5
2D7
100
AcDbEntity
  8
0
100
AcDbLine
 62
2
  6
CONTINUOUS
 10
1755.7656975831
 20
1437.4793478261
 11
1755.7656975831
 21
1462.8793478261
  0
LINE
  5
2D8
100
AcDbEntity
  8
0
100
AcDbLine
 62
2
  6
CONTINUOUS
 10
1755.7656975831
 20
1462.8793478261
 11
1755.7656975831
 21
1413.0266495362
  0
INSERT
  5
2D9
100
AcDbEntity
  8
0
100
AcDbBlockReference
 62
2
  6
CONTINUOUS
  2
_FILLED
 10
1755.7656975831
 20
1488.2793478261
 41
16.0
 42
16.0
 43
16.0
 50
90.0
  0
INSERT
  5
2DA
100
AcDbEntity
  8
0
100
AcDbBlockReference
 62
2
  6
CONTINUOUS
  2
_FILLED
 10
1755.7656975831
 20
1437.4793478261
 41
16.0
 42
16.0
 43
16.0
 50
270.0
  0
ENDBLK
  5
2DB
100
AcDbEntity
  8
0
  6
BYBLOCK
 62
0
100
AcDbBlockEnd
  0
BLOCK
  5
2DC
100
AcDbEntity
  8
0
100
AcDbBlockBegin
 62
2
  6
CONTINUOUS
  2
*D14
 70
65
 10
0.0
 20
0.0
  3
*D14
  1

  0
MTEXT
  5
2DD
100
AcDbEntity
  8
0
100
AcDbMText
 62
2
  6
CONTINUOUS
  7
STANDARD
 71
2
 72
1
 10
2073.1054545545
 20
1354.014164264
 30
0.0
 11
1.0
 21
0.0
 31
0.0
 73
2
 44
0.9
  1
(430,1{\ftxt;\W0.0001;\H0.0001;\~}{\ftxt;\W0.9814126394;\H18.288; })\P[16.93]
 40
18.288
 41
100.3460520446
  0
LINE
  5
2DE
100
AcDbEntity
  8
0
100
AcDbLine
 62
2
  6
CONTINUOUS
 10
1942.3058555338
 20
1562.7793478261
 11
2098.5054545545
 21
1562.7793478261
  0
LINE
  5
2DF
100
AcDbEntity
  8
0
100
AcDbLine
 62
2
  6
CONTINUOUS
 10
1912.6259555338
 20
1132.6793478261
 11
2098.5054545545
 21
1132.6793478261
  0
LINE
  5
2E0
100
AcDbEntity
  8
0
100
AcDbLine
 62
2
  6
CONTINUOUS
 10
2073.1054545545
 20
1562.7793478261
 11
2073.1054545545
 21
1363.158164264
  0
LINE
  5
2E1
100
AcDbEntity
  8
0
100
AcDbLine
 62
2
  6
CONTINUOUS
 10
2073.1054545545
 20
1132.6793478261
 11
2073.1054545545
 21
1294.1872430176
  0
INSERT
  5
2E2
100
AcDbEntity
  8
0
100
AcDbBlockReference
 62
2
  6
CONTINUOUS
  2
_FILLED
 10
2073.1054545545
 20
1562.7793478261
 41
16.0
 42
16.0
 43
16.0
 50
90.0
  0
INSERT
  5
2E3
100
AcDbEntity
  8
0
100
AcDbBlockReference
 62
2
  6
CONTINUOUS
  2
_FILLED
 10
2073.1054545545
 20
1132.6793478261
 41
16.0
 42
16.0
 43
16.0
 50
270.0
  0
ENDBLK
  5
2E4
100
AcDbEntity
  8
0
  6
BYBLOCK
 62
0
100
AcDbBlockEnd
  0
ENDSEC
  0
SECTION
  2
ENTITIES
  0
MTEXT
  5
2E5
100
AcDbEntity
  8
0
100
AcDbMText
 62
2
  6
CONTINUOUS
  7
TEXTSTYLE_2
 71
1
 72
1
 10
1817.9232372745
 20
127.7847448532
 30
0.0
 11
1.0
 21
0.0
 31
0.0
 73
2
 44
1.0000002
  1
DRAWN BY
 40
8.0
 41
58.3494423792
  0
MTEXT
  5
2E6
100
AcDbEntity
  8
0
100
AcDbMText
 62
2
  6
CONTINUOUS
  7
TEXTSTYLE_2
 71
1
 72
1
 10
1818.0373073019
 20
91.8048390021
 30
0.0
 11
1.0
 21
0.0
 31
0.0
 73
2
 44
1.0000002
  1
MECH ENGINEER
 40
8.0
 41
89.4572490706
  0
MTEXT
  5
2E7
100
AcDbEntity
  8
0
100
AcDbMText
 62
2
  6
CONTINUOUS
  7
TEXTSTYLE_2
 71
1
 72
1
 10
1577.6248492928
 20
112.6858379092
 30
0.0
 11
1.0
 21
0.0
 31
0.0
 73
2
 44
1.0000002
  1
DECIMALS          ANGLES
 40
11.84
 41
190.7604460967
  0
MTEXT
  5
2E8
100
AcDbEntity
  8
0
100
AcDbMText
 62
2
  6
CONTINUOUS
  7
TEXTSTYLE_2
 71
1
 72
1
 10
1302.6418118122
 20
80.9402889928
 30
0.0
 11
1.0
 21
0.0
 31
0.0
 73
2
 44
1.0000002
  1
PROJECTION
 40
12.56
 41
107.9039405204
  0
MTEXT
  5
2E9
100
AcDbEntity
  8
0
100
AcDbMText
 62
2
  6
CONTINUOUS
  7
TEXTSTYLE_2
 71
2
 72
1
 10
1411.7396111494
 20
129.0753787456
 30
0.0
 11
1.0
 21
0.0
 31
0.0
 73
2
 44
0.81
  1
UNLESS  OTHERWISE  SPECIFIED\PDIMENSIONS ARE IN MM [IN]
 40
11.84
 41
239.3528624535
  0
MTEXT
  5
2EA
100
AcDbEntity
  8
0
100
AcDbMText
 62
2
  6
CONTINUOUS
  7
TEXTSTYLE_2
 71
1
 72
1
 10
1137.8298422599
 20
133.1416080849
 30
0.0
 11
1.0
 21
0.0
 31
0.0
 73
2
 44
1.0000002
  1
CAGE CODE
 40
10.583336
 41
91.4730713755
  0
MTEXT
  5
2EB
100
AcDbEntity
  8
0
100
AcDbMText
 62
2
  6
CONTINUOUS
  7
TEXTSTYLE_2
 71
1
 72
1
 10
1152.7216643994
 20
115.2863588317
 30
0.0
 11
1.0
 21
0.0
 31
0.0
 73
2
 44
1.0000002
  1
00PW4
 40
14.816664
 41
66.4271255911
  0
MTEXT
  5
2EC
100
AcDbEntity
  8
0
100
AcDbMText
 62
2
  6
CONTINUOUS
  7
TEXTSTYLE_2
 71
1
 72
1
 10
392.3150357717
 20
93.1880139879
 30
0.0
 11
1.0
 21
0.0
 31
0.0
 73
2
 44
1.0000002
  1
1675 MACARTHUR BOULEVARD\PCOSTA MESA, CA 92626 USA
 40
12.192
 41
252.4514498141
  0
MTEXT
  5
2ED
100
AcDbEntity
  8
0
100
AcDbMText
 62
2
  6
CONTINUOUS
  7
TEXTSTYLE_2
 71
1
 72
1
 10
391.1839041279
 20
121.3496660343
 30
0.0
 11
1.0
 21
0.0
 31
0.0
 73
2
 44
1.0000002
  1
QSC, LLC
 40
20.32
 41
126.7544981413
  0
MTEXT
  5
2EE
100
AcDbEntity
  8
0
100
AcDbMText
 62
2
  6
CONTINUOUS
  7
TEXTSTYLE_2
 71
2
 72
1
 10
1186.5366448827
 20
87.9682901636
 30
0.0
 11
1.0
 21
0.0
 31
0.0
 73
2
 44
1.0000002
  1
FORM
 40
10.4
 41
41.7933085502
  0
MTEXT
  5
2EF
100
AcDbEntity
  8
0
100
AcDbMText
 62
2
  6
CONTINUOUS
  7
TEXTSTYLE_2
 71
1
 72
1
 10
674.8261113027
 20
119.218629865
 30
0.0
 11
1.0
 21
0.0
 31
0.0
 73
2
 44
1.0000002
  3
THIS DOCUMENT CONTAINS CONFIDENTIAL OR PROPRIETARY INFORMATION WHICH \PIS THE PROPERTY OF QSC, LLC, THAT MAY NOT BE DISCLOSED, REPRODUCED OR\P USED WITHOUT EXPRESS WRITTEN CONSENT FROM QSC, LLC. NO PORTION OF THIS \PDOCUMENT MAY BE REPRODUCED,REDISTR
  1
UBUTED, OR OTHERWISE DISCLOSED TO \P                        ANY THIRD PARTY WITHOUT QSC'S WRITTEN PERMISSION.
 40
7.2
 41
400.4966542751
  0
MTEXT
  5
2F0
100
AcDbEntity
  8
0
100
AcDbMText
 62
2
  6
CONTINUOUS
  7
TEXTSTYLE_2
 71
2
 72
1
 10
1184.3209520234
 20
73.1231066257
 30
0.0
 11
1.0
 21
0.0
 31
0.0
 73
2
 44
1.0000002
  1
QOS40169 B
 40
13.6
 41
111.1762081784
  0
MTEXT
  5
2F1
100
AcDbEntity
  8
0
100
AcDbMText
 62
2
  6
CONTINUOUS
  7
TEXTSTYLE_2
 71
1
 72
1
 10
1578.3468115628
 20
128.3571960694
 30
0.0
 11
1.0
 21
0.0
 31
0.0
 73
2
 44
1.2
  1
TOLERANCES ARE:
 40
11.84
 41
143.0043122677
  0
MTEXT
  5
2F2
100
AcDbEntity
  8
0
100
AcDbMText
 62
2
  6
CONTINUOUS
  7
TEXTSTYLE_2
 71
1
 72
1
 10
2030.2292606181
 20
127.7394651588
 30
0.0
 11
1.0
 21
0.0
 31
0.0
 73
2
 44
1.0000002
  1
TECH DIRECTOR
 40
8.0
 41
84.4014869888
  0
MTEXT
  5
2F3
100
AcDbEntity
  8
0
100
AcDbMText
 62
2
  6
CONTINUOUS
  7
TEXTSTYLE_2
 71
1
 72
1
 10
2029.3260938449
 20
91.746288281
 30
0.0
 11
1.0
 21
0.0
 31
0.0
 73
2
 44
1.0000002
  1
MFG ENGINEER
 40
8.0
 41
81.9330855019
  0
MTEXT
  5
2F4
100
AcDbEntity
  8
0
100
AcDbMText
 62
2
  6
CONTINUOUS
  7
TEXTSTYLE_2
 71
1
 72
1
 10
2243.3103306919
 20
127.7112215106
 30
0.0
 11
1.0
 21
0.0
 31
0.0
 73
2
 44
1.0000002
  1
REV BY
 40
8.0
 41
36.6691449814
  0
MTEXT
  5
2F5
100
AcDbEntity
  8
0
100
AcDbMText
 62
2
  6
CONTINUOUS
  7
TEXTSTYLE_2
 71
1
 72
1
 10
2243.3131731236
 20
91.7227627286
 30
0.0
 11
1.0
 21
0.0
 31
0.0
 73
2
 44
1.0000002
  1
REV DATE
 40
8.0
 41
50.9442379182
  0
MTEXT
  5
2F6
100
AcDbEntity
  8
0
100
AcDbMText
 62
2
  6
CONTINUOUS
  7
TEXTSTYLE_2
 71
1
 72
1
 10
3062.5217553947
 20
132.4462269278
 30
0.0
 11
1.0
 21
0.0
 31
0.0
 73
2
 44
1.0000002
  1
DRAWING NUMBER
 40
8.0
 41
102.5724907063
  0
MTEXT
  5
2F7
100
AcDbEntity
  8
0
100
AcDbMText
 62
2
  6
CONTINUOUS
  7
TEXTSTYLE_2
 71
1
 72
1
 10
3323.5531540454
 20
130.4736201424
 30
0.0
 11
1.0
 21
0.0
 31
0.0
 73
2
 44
1.0000002
  1
REV
 40
8.0
 41
20.5799256506
  0
MTEXT
  5
2F8
100
AcDbEntity
  8
0
100
AcDbMText
 62
2
  6
CONTINUOUS
  7
TEXTSTYLE_2
 71
1
 72
1
 10
3064.4099239781
 20
76.494665566
 30
0.0
 11
1.0
 21
0.0
 31
0.0
 73
2
 44
1.0000002
  1
SCALE:  
 40
10.583336
 41
57.2444382156
  0
MTEXT
  5
2F9
100
AcDbEntity
  8
0
100
AcDbMText
 62
2
  6
CONTINUOUS
  7
TEXTSTYLE_2
 71
1
 72
1
 10
3270.0106658695
 20
76.7654721767
 30
0.0
 11
1.0
 21
0.0
 31
0.0
 73
2
 44
1.0000002
  1
SHEET:
 40
10.583336
 41
43.6316714647
  0
MTEXT
  5
2FA
100
AcDbEntity
  8
0
100
AcDbMText
 62
2
  6
CONTINUOUS
  7
TEXTSTYLE_3
 71
1
 72
1
 10
342.5578808194
 20
107.869555772
 30
0.0
 11
1.0
 21
0.0
 31
0.0
 73
2
 44
1.0000002
  1
TM
 40
4.56
 41
9.1708550186
  0
HATCH
  5
2FB
100
AcDbEntity
  8
0
100
AcDbHatch
 62
2
  6
CONTINUOUS
 10
0.0
 20
0.0
 30
0.0
210
0.0
220
0.0
230
1.0
  2
A
 70
0
 71
0
 91
3
 92
1
 93
10
 72
1
 10
1929.6058555338
 20
858.7793478261
 11
1929.6058555338
 21
891.7793478261
 72
1
 10
1929.6058555338
 20
858.7793478261
 11
1844.6058555338
 21
858.7793478261
 72
1
 10
1844.6058555338
 20
894.7793478261
 11
1844.6058555338
 21
858.7793478261
 72
1
 10
1860.6058555338
 20
894.7793478261
 11
1844.6058555338
 21
894.7793478261
 72
1
 10
1860.6058555338
 20
894.7793478261
 11
1860.6058555338
 21
891.7793478261
 72
1
 10
1847.6058555338
 20
891.7793478261
 11
1860.6058555338
 21
891.7793478261
 72
1
 10
1847.6058555338
 20
891.7793478261
 11
1847.6058555338
 21
861.7793478261
 72
1
 10
1847.6058555338
 20
861.7793478261
 11
1926.6058555338
 21
861.7793478261
 72
1
 10
1926.6058555338
 20
861.7793478261
 11
1926.6058555338
 21
891.7793478261
 72
1
 10
1926.6058555338
 20
891.7793478261
 11
1929.6058555338
 21
891.7793478261
 97
0
 92
1
 93
10
 72
1
 10
1844.6058555338
 20
1562.7793478261
 11
1844.6058555338
 21
1526.7793478261
 72
1
 10
1844.6058555338
 20
1562.7793478261
 11
1929.6058555338
 21
1562.7793478261
 72
1
 10
1929.6058555338
 20
1529.7793478261
 11
1929.6058555338
 21
1562.7793478261
 72
1
 10
1926.6058555338
 20
1529.7793478261
 11
1929.6058555338
 21
1529.7793478261
 72
1
 10
1926.6058555338
 20
1559.7793478261
 11
1926.6058555338
 21
1529.7793478261
 72
1
 10
1926.6058555338
 20
1559.7793478261
 11
1847.6058555338
 21
1559.7793478261
 72
1
 10
1847.6058555338
 20
1559.7793478261
 11
1847.6058555338
 21
1529.7793478261
 72
1
 10
1860.6058555338
 20
1529.7793478261
 11
1847.6058555338
 21
1529.7793478261
 72
1
 10
1860.6058555338
 20
1529.7793478261
 11
1860.6058555338
 21
1526.7793478261
 72
1
 10
1844.6058555338
 20
1526.7793478261
 11
1860.6058555338
 21
1526.7793478261
 97
0
 92
1
 93
10
 72
1
 10
1923.6058555338
 20
1167.7793478261
 11
1923.6058555338
 21
1189.7793478261
 72
1
 10
1920.6058555338
 20
1167.7793478261
 11
1923.6058555338
 21
1167.7793478261
 72
1
 10
1920.6058555338
 20
1186.7793478261
 11
1920.6058555338
 21
1167.7793478261
 72
1
 10
1863.6058555338
 20
1186.7793478261
 11
1920.6058555338
 21
1186.7793478261
 72
1
 10
1863.6058555338
 20
1170.7793478261
 11
1863.6058555338
 21
1186.7793478261
 72
1
 10
1872.6058555338
 20
1170.7793478261
 11
1863.6058555338
 21
1170.7793478261
 72
1
 10
1872.6058555338
 20
1167.7793478261
 11
1872.6058555338
 21
1170.7793478261
 72
1
 10
1860.6058555338
 20
1167.7793478261
 11
1872.6058555338
 21
1167.7793478261
 72
1
 10
1860.6058555338
 20
1189.7793478261
 11
1860.6058555338
 21
1167.7793478261
 72
1
 10
1923.6058555338
 20
1189.7793478261
 11
1860.6058555338
 21
1189.7793478261
 97
0
 75
0
 76
0
 52
285.0
 41
54.0008769647
 77
0
 78
1
 53
285.0
 43
0.0
 44
0.0
 45
52.1608417025
 46
13.9764554107
 79
0
 98
1
 10
0.0
 20
0.0
  0
MTEXT
  5
2FC
100
AcDbEntity
  8
0
100
AcDbMText
 62
7
  6
CONTINUOUS
  7
STANDARD
 71
1
 72
1
 10
1022.8842359379
 20
768.443472
 30
0.0
 11
1.0
 21
0.0
 31
0.0
 73
2
 44
0.9
  1
A
 40
50.8
 41
52.3107806691
  0
LEADER
  5
2FD
100
AcDbEntity
  8
0
100
AcDbLeader
 62
7
  6
CONTINUOUS
  3
STANDARD
 71
1
 72
0
 73
3
 75
0
 76
2
 10
1085.0150909565
 20
743.043472
 30
0.0
 10
1171.3516304348
 20
743.043472
 30
0.0
1001
ACAD
1000
DSTYLE
1002
{
1070
77
1070
0
1070
341
1005
216
1070
41
1040
50.8
1002
}
  0
MTEXT
  5
2FE
100
AcDbEntity
  8
0
100
AcDbMText
 62
7
  6
CONTINUOUS
  7
STANDARD
 71
1
 72
1
 10
1003.0377802858
 20
1679.8537815652
 30
0.0
 11
1.0
 21
0.0
 31
0.0
 73
2
 44
0.9
  1
A
 40
50.8
 41
52.3107806691
  0
LEADER
  5
2FF
100
AcDbEntity
  8
0
100
AcDbLeader
 62
7
  6
CONTINUOUS
  3
STANDARD
 71
1
 72
0
 73
3
 75
0
 76
2
 10
1065.1686353043
 20
1654.4537815652
 30
0.0
 10
1171.3516304348
 20
1654.4537815652
 30
0.0
1001
ACAD
1000
DSTYLE
1002
{
1070
77
1070
0
1070
341
1005
216
1070
41
1040
50.8
1002
}
  0
DIMENSION
  5
300
100
AcDbEntity
  8
0
100
AcDbDimension
 62
2
  6
CONTINUOUS
  2
*D0
 10
1560.9943595747
 20
858.7793478261
 11
1560.9943595747
 21
1210.7441834277
 70
160
 71
2
 72
2
 41
0.9
 42
704.0
  1
<>\P[]
  3
DIMSTYLE_1
100
AcDbAlignedDimension
 13
1453.9641304348
 23
1562.7793478261
 14
1453.9641304348
 24
858.7793478261
 50
270.0
100
AcDbRotatedDimension
  0
DIMENSION
  5
301
100
AcDbEntity
  8
0
100
AcDbDimension
 62
2
  6
CONTINUOUS
  2
*D1
 10
1442.8516304348
 20
569.4256528951
 11
1153.8952123809
 21
555.7096528951
 70
160
 71
2
 72
2
 41
0.9
 42
583.0
  1
<>\P[]
  3
DIMSTYLE_1
100
AcDbAlignedDimension
 13
859.8516304348
 23
502.5474053358
 14
1442.8516304348
 24
502.5474053358
100
AcDbRotatedDimension
  0
DIMENSION
  5
302
100
AcDbEntity
  8
0
100
AcDbDimension
 62
2
  6
CONTINUOUS
  2
*D2
 10
331.3524053358
 20
1603.7759326474
 11
449.1403876169
 21
1590.0599326474
 70
160
 71
1
 72
2
 41
0.9
 42
41.02
  1
<>\P[]
  3
DIMSTYLE_1
100
AcDbAlignedDimension
 13
372.3724053358
 23
1573.8918478261
 14
331.3524053358
 24
1231.9401770495
 50
180.0
100
AcDbRotatedDimension
  0
DIMENSION
  5
303
100
AcDbEntity
  8
0
100
AcDbDimension
 62
2
  6
CONTINUOUS
  2
*D3
 10
275.3724053358
 20
1688.3186582928
 11
192.756943682
 21
1674.6026582928
 70
160
 71
3
 72
2
 41
0.9
 42
97.0
  1
<> 2X\P[]
  3
DIMSTYLE_1
100
AcDbAlignedDimension
 13
372.3724053358
 23
1573.8918478261
 14
275.3724053358
 24
1547.3918478261
 50
180.0
100
AcDbRotatedDimension
  0
DIMENSION
  5
304
100
AcDbEntity
  8
0
100
AcDbDimension
 62
2
  6
CONTINUOUS
  2
*D4
 10
345.6411402291
 20
985.9032275603
 11
513.20256056
 21
1008.814361204
 70
163
 71
1
 72
2
 41
0.9
 42
20.0
  1
%%c<> TYP\P[]
  3
DIMSTYLE_2
100
AcDbDiametricDimension
 15
329.1036704425
 25
974.6554680919
  0
DIMENSION
  5
305
100
AcDbEntity
  8
0
100
AcDbDimension
 62
2
  6
CONTINUOUS
  2
*D5
 10
1871.7283489424
 20
986.4392901881
 11
1686.1696323973
 21
1021.5710343337
 70
163
 71
3
 72
2
 41
0.9
 42
20.0
  1
(%%c<> TYP)\P[]
  3
DIMSTYLE_2
100
AcDbDiametricDimension
 15
1887.4833621251
 25
974.1194054641
  0
DIMENSION
  5
306
100
AcDbEntity
  8
0
100
AcDbDimension
 62
2
  6
CONTINUOUS
  2
*D6
 10
786.9343350696
 20
1208.5293478261
 11
786.9343350696
 21
1390.8973368726
 70
160
 71
2
 72
2
 41
0.9
 42
354.25
  1
<>\P[]
  3
DIMSTYLE_1
100
AcDbAlignedDimension
 13
848.7391304348
 23
1562.7793478261
 14
828.4191304348
 24
1208.5293478261
 50
270.0
100
AcDbRotatedDimension
  0
DIMENSION
  5
307
100
AcDbEntity
  8
0
100
AcDbDimension
 62
2
  6
CONTINUOUS
  2
*D7
 10
337.3724053358
 20
816.8825255079
 11
471.2101005908
 21
803.1665255079
 70
160
 71
1
 72
2
 41
0.9
 42
35.0
  1
<>TYP\P[]
  3
DIMSTYLE_1
100
AcDbAlignedDimension
 13
372.3724053358
 23
847.6668478261
 14
337.3724053358
 24
948.8467478261
 50
180.0
100
AcDbRotatedDimension
  0
DIMENSION
  5
308
100
AcDbEntity
  8
0
100
AcDbDimension
 62
2
  6
CONTINUOUS
  2
*D8
 10
445.2252819218
 20
1437.4793478261
 11
445.2252819218
 21
1384.4161712404
 70
160
 71
2
 72
2
 41
0.9
 42
50.8
  1
<>TYP\P[]
  3
DIMSTYLE_1
100
AcDbAlignedDimension
 13
368.8050053358
 23
1488.2793478261
 14
368.8050053358
 24
1437.4793478261
 50
270.0
100
AcDbRotatedDimension
  0
DIMENSION
  5
309
100
AcDbEntity
  8
0
100
AcDbDimension
 62
2
  6
CONTINUOUS
  2
*D9
 10
221.5423505165
 20
1562.7793478261
 11
221.5423505165
 21
1444.0401195984
 70
160
 71
2
 72
2
 41
0.9
 42
74.5
  1
<>\P[]
  3
DIMSTYLE_1
100
AcDbAlignedDimension
 13
305.9398053358
 23
1488.2793478261
 14
276.2599053358
 24
1562.7793478261
 50
90.0
100
AcDbRotatedDimension
  0
DIMENSION
  5
30A
100
AcDbEntity
  8
0
100
AcDbDimension
 62
2
  6
CONTINUOUS
  2
*D10
 10
145.5757936487
 20
1132.6793478261
 11
145.5757936487
 21
1356.9250190463
 70
160
 71
2
 72
2
 41
0.9
 42
430.1
  1
<>\P[]
  3
DIMSTYLE_1
100
AcDbAlignedDimension
 13
276.2599053358
 23
1562.7793478261
 14
305.9398053358
 24
1132.6793478261
 50
270.0
100
AcDbRotatedDimension
  0
DIMENSION
  5
30B
100
AcDbEntity
  8
0
100
AcDbDimension
 62
2
  6
CONTINUOUS
  2
*D11
 10
1879.6058555338
 20
821.3961587373
 11
2009.5246296903
 21
807.6801587373
 70
160
 71
1
 72
2
 41
0.9
 42
35.0
  1
(<>TYP)\P[]
  3
DIMSTYLE_1
100
AcDbAlignedDimension
 13
1844.6058555338
 23
794.4086587373
 14
1879.6058555338
 24
948.8467478261
100
AcDbRotatedDimension
  0
DIMENSION
  5
30C
100
AcDbEntity
  8
0
100
AcDbDimension
 62
2
  6
CONTINUOUS
  2
*D12
 10
2016.2387839497
 20
1488.2793478261
 11
2016.2387839497
 21
1433.0660468325
 70
160
 71
2
 72
2
 41
0.9
 42
74.5
  1
(<>)\P[]
  3
DIMSTYLE_1
100
AcDbAlignedDimension
 13
1940.7183555338
 23
1562.7793478261
 14
1911.0384555338
 24
1488.2793478261
 50
270.0
100
AcDbRotatedDimension
  0
DIMENSION
  5
30D
100
AcDbEntity
  8
0
100
AcDbDimension
 62
2
  6
CONTINUOUS
  2
*D13
 10
1755.7656975831
 20
1437.4793478261
 11
1755.7656975831
 21
1381.0226495362
 70
160
 71
2
 72
2
 41
0.9
 42
50.8
  1
(<>TYP)\P[]
  3
DIMSTYLE_1
100
AcDbAlignedDimension
 13
1848.1732555338
 23
1488.2793478261
 14
1848.1732555338
 24
1437.4793478261
 50
270.0
100
AcDbRotatedDimension
  0
DIMENSION
  5
30E
100
AcDbEntity
  8
0
100
AcDbDimension
 62
2
  6
CONTINUOUS
  2
*D14
 10
2073.1054545545
 20
1132.6793478261
 11
2073.1054545545
 21
1331.154164264
 70
160
 71
2
 72
2
 41
0.9
 42
430.1
  1
(<>)\P[]
  3
DIMSTYLE_1
100
AcDbAlignedDimension
 13
1940.7183555338
 23
1562.7793478261
 14
1911.0384555338
 24
1132.6793478261
 50
270.0
100
AcDbRotatedDimension
  0
LINE
  5
30F
100
AcDbEntity
  8
0
100
AcDbLine
 62
2
  6
CONTINUOUS
 10
2514.6579504924
 20
144.157493838
 11
2985.8579504924
 21
144.157493838
  0
LINE
  5
310
100
AcDbEntity
  8
0
100
AcDbLine
 62
2
  6
CONTINUOUS
 10
2514.6579504924
 20
144.157493838
 11
2514.6579504924
 21
-8.717506162
  0
LINE
  5
311
100
AcDbEntity
  8
0
100
AcDbLine
 62
2
  6
CONTINUOUS
 10
2514.6579504924
 20
-8.717506162
 11
2985.8579504924
 21
-8.717506162
  0
LINE
  5
312
100
AcDbEntity
  8
0
100
AcDbLine
 62
2
  6
CONTINUOUS
 10
2985.8579504924
 20
144.157493838
 11
2985.8579504924
 21
-8.717506162
  0
MTEXT
  5
313
100
AcDbEntity
  8
0
100
AcDbMText
 62
2
  6
CONTINUOUS
  7
TEXTSTYLE_2
 71
2
 72
1
 10
2750.2579504924
 20
101.586659658
 30
0.0
 11
1.0
 21
0.0
 31
0.0
 73
2
 44
0.99999996
  1
ACCESSORY, PL-LA12-AF, \PARRAY FRAME
 40
25.4
 41
436.6156133829
  0
LINE
  5
314
100
AcDbEntity
  8
0
100
AcDbLine
 62
2
  6
CONTINUOUS
 10
3318.730757675
 20
134.3741641579
 11
3402.430757675
 21
134.3741641579
  0
LINE
  5
315
100
AcDbEntity
  8
0
100
AcDbLine
 62
2
  6
CONTINUOUS
 10
3318.730757675
 20
134.3741641579
 11
3318.730757675
 21
85.5741641579
  0
LINE
  5
316
100
AcDbEntity
  8
0
100
AcDbLine
 62
2
  6
CONTINUOUS
 10
3318.730757675
 20
85.5741641579
 11
3402.430757675
 21
85.5741641579
  0
LINE
  5
317
100
AcDbEntity
  8
0
100
AcDbLine
 62
2
  6
CONTINUOUS
 10
3402.430757675
 20
134.3741641579
 11
3402.430757675
 21
85.5741641579
  0
MTEXT
  5
318
100
AcDbEntity
  8
0
100
AcDbMText
 62
2
  6
CONTINUOUS
  7
TEXTSTYLE_2
 71
2
 72
1
 10
3360.580757675
 20
121.3591641579
 30
0.0
 11
1.0
 21
0.0
 31
0.0
 73
2
 44
0.9
  1
A
 40
25.4
 41
26.1553903346
  0
LINE
  5
319
100
AcDbEntity
  8
0
100
AcDbLine
 62
2
  6
CONTINUOUS
 10
3060.9948521843
 20
135.2824443361
 11
3312.9948521843
 21
135.2824443361
  0
LINE
  5
31A
100
AcDbEntity
  8
0
100
AcDbLine
 62
2
  6
CONTINUOUS
 10
3060.9948521843
 20
135.2824443361
 11
3060.9948521843
 21
85.4074443361
  0
LINE
  5
31B
100
AcDbEntity
  8
0
100
AcDbLine
 62
2
  6
CONTINUOUS
 10
3060.9948521843
 20
85.4074443361
 11
3312.9948521843
 21
85.4074443361
  0
LINE
  5
31C
100
AcDbEntity
  8
0
100
AcDbLine
 62
2
  6
CONTINUOUS
 10
3312.9948521843
 20
135.2824443361
 11
3312.9948521843
 21
85.4074443361
  0
MTEXT
  5
31D
100
AcDbEntity
  8
0
100
AcDbMText
 62
2
  6
CONTINUOUS
  7
TEXTSTYLE_2
 71
2
 72
1
 10
3186.9948521843
 20
118.0324443361
 30
0.0
 11
1.0
 21
0.0
 31
0.0
 73
2
 44
0.9
  1
FG-901551-2D
 40
25.4
 41
235.492936803
  0
LINE
  5
31E
100
AcDbEntity
  8
0
100
AcDbLine
 62
2
  6
CONTINUOUS
 10
3061.4577041156
 20
83.0355956296
 11
3185.4577041156
 21
83.0355956296
  0
LINE
  5
31F
100
AcDbEntity
  8
0
100
AcDbLine
 62
2
  6
CONTINUOUS
 10
3061.4577041156
 20
83.0355956296
 11
3061.4577041156
 21
58.2230956296
  0
LINE
  5
320
100
AcDbEntity
  8
0
100
AcDbLine
 62
2
  6
CONTINUOUS
 10
3061.4577041156
 20
58.2230956296
 11
3185.4577041156
 21
58.2230956296
  0
LINE
  5
321
100
AcDbEntity
  8
0
100
AcDbLine
 62
2
  6
CONTINUOUS
 10
3185.4577041156
 20
83.0355956296
 11
3185.4577041156
 21
58.2230956296
  0
MTEXT
  5
322
100
AcDbEntity
  8
0
100
AcDbMText
 62
2
  6
CONTINUOUS
  7
TEXTSTYLE_2
 71
1
 72
1
 10
3129.9577041156
 20
77.7413456296
 30
0.0
 11
1.0
 21
0.0
 31
0.0
 73
2
 44
0.9
  1
1:8
 40
14.224
 41
27.4962081784
  0
LINE
  5
323
100
AcDbEntity
  8
0
100
AcDbLine
 62
2
  6
CONTINUOUS
 10
1548.5299446192
 20
144.1134944517
 11
1788.8299446192
 21
144.1134944517
  0
LINE
  5
324
100
AcDbEntity
  8
0
100
AcDbLine
 62
2
  6
CONTINUOUS
 10
1548.5299446192
 20
144.1134944517
 11
1548.5299446192
 21
46.3009944517
  0
MTEXT
  5
325
100
AcDbEntity
  8
0
100
AcDbMText
 62
2
  6
CONTINUOUS
  7
TEXTSTYLE_2
 71
1
 72
1
 10
1575.7299446192
 20
81.7384944517
 30
0.0
 11
1.0
 21
0.0
 31
0.0
 73
2
 44
0.9
  1
.X \fgdt;{\W1.0;{\fgdt;`}}\fCentury Gothic; 3.0 [.12]       \fgdt;{\W1.0;{\fgdt;`}}\fCentury Gothic;1\fgdt;{\W1.0;{\fgdt;~}}\P\fCentury Gothic;.XX \fgdt;{\W1.0;{\fgdt;`}}\fCentury Gothic; 
 40
12.7
 41
174.2591078067
  0
LINE
  5
326
100
AcDbEntity
  8
0
100
AcDbLine
 62
2
  6
CONTINUOUS
 10
3264.4776580575
 20
82.0255690237
 11
3402.4776580575
 21
82.0255690237
  0
LINE
  5
327
100
AcDbEntity
  8
0
100
AcDbLine
 62
2
  6
CONTINUOUS
 10
3264.4776580575
 20
82.0255690237
 11
3264.4776580575
 21
57.9630690237
  0
LINE
  5
328
100
AcDbEntity
  8
0
100
AcDbLine
 62
2
  6
CONTINUOUS
 10
3264.4776580575
 20
57.9630690237
 11
3402.4776580575
 21
57.9630690237
  0
LINE
  5
329
100
AcDbEntity
  8
0
100
AcDbLine
 62
2
  6
CONTINUOUS
 10
3402.4776580575
 20
82.0255690237
 11
3402.4776580575
 21
57.9630690237
  0
MTEXT
  5
32A
100
AcDbEntity
  8
0
100
AcDbMText
 62
2
  6
CONTINUOUS
  7
TEXTSTYLE_2
 71
2
 72
1
 10
3361.0776580575
 20
77.4026510237
 30
0.0
 11
1.0
 21
0.0
 31
0.0
 73
2
 44
0.9
  1
1 OF 1
 40
14.816664
 41
62.3511659777
  0
LINE
  5
32B
100
AcDbEntity
  8
0
100
AcDbLine
 62
2
  6
CONTINUOUS
 10
1814.3111337256
 20
129.3033224144
 11
2018.3111337256
 21
129.3033224144
  0
LINE
  5
32C
100
AcDbEntity
  8
0
100
AcDbLine
 62
2
  6
CONTINUOUS
 10
1814.3111337256
 20
129.3033224144
 11
1814.3111337256
 21
97.1158224144
  0
LINE
  5
32D
100
AcDbEntity
  8
0
100
AcDbLine
 62
2
  6
CONTINUOUS
 10
1814.3111337256
 20
97.1158224144
 11
2018.3111337256
 21
97.1158224144
  0
LINE
  5
32E
100
AcDbEntity
  8
0
100
AcDbLine
 62
2
  6
CONTINUOUS
 10
2018.3111337256
 20
129.3033224144
 11
2018.3111337256
 21
97.1158224144
  0
MTEXT
  5
32F
100
AcDbEntity
  8
0
100
AcDbMText
 62
2
  6
CONTINUOUS
  7
TEXTSTYLE_2
 71
1
 72
1
 10
1814.8111337256
 20
113.1220724144
 30
0.0
 11
1.0
 21
0.0
 31
0.0
 73
2
 44
0.9
  1
 M. DAVILA
 40
12.7
 41
94.9431226766
  0
LINE
  5
330
100
AcDbEntity
  8
0
100
AcDbLine
 62
2
  6
CONTINUOUS
 10
1814.5252680072
 20
93.1148921059
 11
2018.5252680072
 21
93.1148921059
  0
LINE
  5
331
100
AcDbEntity
  8
0
100
AcDbLine
 62
2
  6
CONTINUOUS
 10
1814.5252680072
 20
93.1148921059
 11
1814.5252680072
 21
60.9273921059
  0
LINE
  5
332
100
AcDbEntity
  8
0
100
AcDbLine
 62
2
  6
CONTINUOUS
 10
1814.5252680072
 20
60.9273921059
 11
2018.5252680072
 21
60.9273921059
  0
LINE
  5
333
100
AcDbEntity
  8
0
100
AcDbLine
 62
2
  6
CONTINUOUS
 10
2018.5252680072
 20
93.1148921059
 11
2018.5252680072
 21
60.9273921059
  0
MTEXT
  5
334
100
AcDbEntity
  8
0
100
AcDbMText
 62
2
  6
CONTINUOUS
  7
TEXTSTYLE_2
 71
1
 72
1
 10
1815.0252680072
 20
76.9336421059
 30
0.0
 11
1.0
 21
0.0
 31
0.0
 73
2
 44
0.9
  1
 B. HAWKINS
 40
12.7
 41
103.4412639405
  0
LINE
  5
335
100
AcDbEntity
  8
0
100
AcDbLine
 62
2
  6
CONTINUOUS
 10
2025.7090458259
 20
129.1396829257
 11
2229.7090458259
 21
129.1396829257
  0
LINE
  5
336
100
AcDbEntity
  8
0
100
AcDbLine
 62
2
  6
CONTINUOUS
 10
2025.7090458259
 20
129.1396829257
 11
2025.7090458259
 21
96.9521829257
  0
LINE
  5
337
100
AcDbEntity
  8
0
100
AcDbLine
 62
2
  6
CONTINUOUS
 10
2025.7090458259
 20
96.9521829257
 11
2229.7090458259
 21
96.9521829257
  0
LINE
  5
338
100
AcDbEntity
  8
0
100
AcDbLine
 62
2
  6
CONTINUOUS
 10
2229.7090458259
 20
129.1396829257
 11
2229.7090458259
 21
96.9521829257
  0
MTEXT
  5
339
100
AcDbEntity
  8
0
100
AcDbMText
 62
2
  6
CONTINUOUS
  7
TEXTSTYLE_2
 71
1
 72
1
 10
2026.2090458259
 20
112.9584329257
 30
0.0
 11
1.0
 21
0.0
 31
0.0
 73
2
 44
0.9
  1
 R. VAUCHER
 40
12.7
 41
109.3427509294
  0
LINE
  5
33A
100
AcDbEntity
  8
0
100
AcDbLine
 62
2
  6
CONTINUOUS
 10
2025.6275072005
 20
93.0068976227
 11
2229.6275072005
 21
93.0068976227
  0
LINE
  5
33B
100
AcDbEntity
  8
0
100
AcDbLine
 62
2
  6
CONTINUOUS
 10
2025.6275072005
 20
93.0068976227
 11
2025.6275072005
 21
60.8193976227
  0
LINE
  5
33C
100
AcDbEntity
  8
0
100
AcDbLine
 62
2
  6
CONTINUOUS
 10
2025.6275072005
 20
60.8193976227
 11
2229.6275072005
 21
60.8193976227
  0
LINE
  5
33D
100
AcDbEntity
  8
0
100
AcDbLine
 62
2
  6
CONTINUOUS
 10
2229.6275072005
 20
93.0068976227
 11
2229.6275072005
 21
60.8193976227
  0
MTEXT
  5
33E
100
AcDbEntity
  8
0
100
AcDbMText
 62
2
  6
CONTINUOUS
  7
TEXTSTYLE_2
 71
1
 72
1
 10
2026.1275072005
 20
76.8256476227
 30
0.0
 11
1.0
 21
0.0
 31
0.0
 73
2
 44
0.9
  1
 A. TRAN
 40
12.7
 41
72.2814126394
  0
LINE
  5
33F
100
AcDbEntity
  8
0
100
AcDbLine
 62
2
  6
CONTINUOUS
 10
2240.4306361842
 20
129.3183185676
 11
2444.4306361842
 21
129.3183185676
  0
LINE
  5
340
100
AcDbEntity
  8
0
100
AcDbLine
 62
2
  6
CONTINUOUS
 10
2240.4306361842
 20
129.3183185676
 11
2240.4306361842
 21
97.1308185676
  0
LINE
  5
341
100
AcDbEntity
  8
0
100
AcDbLine
 62
2
  6
CONTINUOUS
 10
2240.4306361842
 20
97.1308185676
 11
2444.4306361842
 21
97.1308185676
  0
LINE
  5
342
100
AcDbEntity
  8
0
100
AcDbLine
 62
2
  6
CONTINUOUS
 10
2444.4306361842
 20
129.3183185676
 11
2444.4306361842
 21
97.1308185676
  0
MTEXT
  5
343
100
AcDbEntity
  8
0
100
AcDbMText
 62
2
  6
CONTINUOUS
  7
TEXTSTYLE_2
 71
1
 72
1
 10
2240.9306361842
 20
113.1370685676
 30
0.0
 11
1.0
 21
0.0
 31
0.0
 73
2
 44
0.9
  1
 MD
 40
12.7
 41
34.370260223
  0
LINE
  5
344
100
AcDbEntity
  8
0
100
AcDbLine
 62
2
  6
CONTINUOUS
 10
2239.7861270465
 20
93.1675793812
 11
2443.7861270465
 21
93.1675793812
  0
LINE
  5
345
100
AcDbEntity
  8
0
100
AcDbLine
 62
2
  6
CONTINUOUS
 10
2239.7861270465
 20
93.1675793812
 11
2239.7861270465
 21
60.9800793812
  0
LINE
  5
346
100
AcDbEntity
  8
0
100
AcDbLine
 62
2
  6
CONTINUOUS
 10
2239.7861270465
 20
60.9800793812
 11
2443.7861270465
 21
60.9800793812
  0
LINE
  5
347
100
AcDbEntity
  8
0
100
AcDbLine
 62
2
  6
CONTINUOUS
 10
2443.7861270465
 20
93.1675793812
 11
2443.7861270465
 21
60.9800793812
  0
MTEXT
  5
348
100
AcDbEntity
  8
0
100
AcDbMText
 62
2
  6
CONTINUOUS
  7
TEXTSTYLE_2
 71
1
 72
1
 10
2240.2861270465
 20
76.9863293812
 30
0.0
 11
1.0
 21
0.0
 31
0.0
 73
2
 44
0.9
  1
 19-JAN-2024
 40
12.7
 41
110.3342007435
  0
MTEXT
  5
349
100
AcDbEntity
  8
0
100
AcDbMText
 62
2
  6
CONTINUOUS
  7
TEXTSTYLE_2
 71
1
 72
1
 10
3330.185909043
 20
77.5433083017
 30
0.0
 11
1.0
 21
0.0
 31
0.0
 73
2
 44
0.9
  1
1 OF 1
 40
14.816664
 41
62.3511659777
  0
TEXT
  5
34A
100
AcDbEntity
  8
0
100
AcDbText
 62
2
  6
CONTINUOUS
 10
85.8800213317
 20
2121.0181749331
  7
STANDARD
 40
18.288
  1
NOTES: UNLESS OTHERWISE SPECIFIED
 41
1.0
 72
0
100
AcDbText
  0
TEXT
  5
34B
100
AcDbEntity
  8
0
100
AcDbText
 62
2
  6
CONTINUOUS
 10
85.8800213317
 20
2093.5861749331
  7
STANDARD
 40
18.288
  1
 
 41
1.0
 72
0
100
AcDbText
  0
TEXT
  5
34C
100
AcDbEntity
  8
0
100
AcDbText
 62
2
  6
CONTINUOUS
 10
85.8800213317
 20
2066.1541749331
  7
STANDARD
 40
18.288
  1
1.      NET WEIGHT APPROX. 14.3 KG [32 LBS]. 
 41
1.0
 72
0
100
AcDbText
  0
TEXT
  5
34D
100
AcDbEntity
  8
0
100
AcDbText
 62
2
  6
CONTINUOUS
 10
85.8800213317
 20
2038.7221749331
  7
STANDARD
 40
18.288
  1
 
 41
1.0
 72
0
100
AcDbText
  0
TEXT
  5
34E
100
AcDbEntity
  8
0
100
AcDbText
 62
2
  6
CONTINUOUS
 10
85.8800213317
 20
2011.2901749331
  7
STANDARD
 40
18.288
  1
2.      SYMBOL      INDICATES CENTER OF GRAVITY.
 41
1.0
 72
0
100
AcDbText
  0
TEXT
  5
34F
100
AcDbEntity
  8
0
100
AcDbText
 62
2
  6
CONTINUOUS
 10
85.8800213317
 20
1983.8581749331
  7
STANDARD
 40
18.288
  1
 
 41
1.0
 72
0
100
AcDbText
  0
TEXT
  5
350
100
AcDbEntity
  8
0
100
AcDbText
 62
2
  6
CONTINUOUS
 10
85.8800213317
 20
1956.4261749331
  7
STANDARD
 40
18.288
  1
3.      PARTS ARE SYMMETRICAL ABOUT CENTER LINES
 41
1.0
 72
0
100
AcDbText
  0
TEXT
  5
351
100
AcDbEntity
  8
0
100
AcDbText
 62
2
  6
CONTINUOUS
 10
85.8800213317
 20
1928.9941749331
  7
STANDARD
 40
18.288
  1
         UNLESS OTHERWISE NOTED. 
 41
1.0
 72
0
100
AcDbText
  0
TEXT
  5
352
100
AcDbEntity
  8
0
100
AcDbText
 62
2
  6
CONTINUOUS
 10
85.8800213317
 20
1901.5621749331
  7
STANDARD
 40
18.288
  1
 
 41
1.0
 72
0
100
AcDbText
  0
TEXT
  5
353
100
AcDbEntity
  8
0
100
AcDbText
 62
2
  6
CONTINUOUS
 10
95.0240213317
 20
1869.5581749331
  7
STANDARD
 40
18.288
  1
4
 41
1.0
 72
0
100
AcDbText
  0
TEXT
  5
354
100
AcDbEntity
  8
0
100
AcDbText
 62
2
  6
CONTINUOUS
 10
118.3089283949
 20
1869.5581749331
  7
STANDARD
 40
18.288
  1
    SUSPENSION POINTS 1 THRU 11.
 41
1.0
 72
0
100
AcDbText
  0
MTEXT
  5
355
100
AcDbEntity
  8
0
100
AcDbMText
 62
2
  6
CONTINUOUS
  7
TEXTSTYLE_4
 71
1
 72
1
 10
1142.9416767553
 20
362.4684410893
 30
0.0
 11
1.0
 21
0.0
 31
0.0
 73
2
 44
0.9
  1
{\fgdt;q}
 40
18.288
 41
28.956
  0
MTEXT
  5
356
100
AcDbEntity
  8
0
100
AcDbMText
 62
2
  6
CONTINUOUS
  7
TEXTSTYLE_4
 71
1
 72
1
 10
1138.4540233531
 20
827.3363799472
 30
0.0
 11
1.0
 21
0.0
 31
0.0
 73
2
 44
0.9
  1
{\fgdt;q}
 40
18.288
 41
28.956
  0
MTEXT
  5
357
100
AcDbEntity
  8
0
100
AcDbMText
 62
2
  6
CONTINUOUS
  7
STANDARD
 71
3
 72
1
 10
1998.0164565217
 20
710.2313130435
 30
0.0
 11
1.0
 21
0.0
 31
0.0
 73
2
 44
0.9
  1
SECTION \H50.8;A-A
 40
18.288
 41
240.0630483271
  0
MTEXT
  5
358
100
AcDbEntity
  8
0
100
AcDbMText
 62
2
  6
CONTINUOUS
  7
STANDARD
 71
1
 72
1
 10
1888.8776716691
 20
1515.4077400148
 30
0.0
 11
1.0
 21
0.0
 31
0.0
 73
2
 44
0.9
  1
1
 40
18.288
 41
14.1409070632
  0
TEXT
  5
359
100
AcDbEntity
  8
0
100
AcDbText
 62
2
  6
CONTINUOUS
 10
1997.4933090203
 20
1587.3208452547
  7
STANDARD
 40
18.288
  1
4
 41
1.0
 72
0
100
AcDbText
  0
LEADER
  5
35A
100
AcDbEntity
  8
0
100
AcDbLeader
 62
2
  6
CONTINUOUS
  3
STANDARD
 71
1
 72
0
 73
3
 75
0
 76
3
 10
1896.5685984589
 20
1519.0113022938
 30
0.0
 10
1937.5493090203
 20
1596.4648452547
 30
0.0
 10
1988.3493090203
 20
1596.4648452547
 30
0.0
1001
ACAD
1000
DSTYLE
1002
{
1070
77
1070
0
1002
}
  0
MTEXT
  5
35B
100
AcDbEntity
  8
0
100
AcDbMText
 62
2
  6
CONTINUOUS
  7
STANDARD
 71
1
 72
1
 10
1888.7486458724
 20
1465.1328601185
 30
0.0
 11
1.0
 21
0.0
 31
0.0
 73
2
 44
0.9
  1
2
 40
18.288
 41
14.1409070632
  0
MTEXT
  5
35C
100
AcDbEntity
  8
0
100
AcDbMText
 62
2
  6
CONTINUOUS
  7
STANDARD
 71
1
 72
1
 10
1888.8151114623
 20
1414.67487259
 30
0.0
 11
1.0
 21
0.0
 31
0.0
 73
2
 44
0.9
  1
3
 40
18.288
 41
14.1409070632
  0
MTEXT
  5
35D
100
AcDbEntity
  8
0
100
AcDbMText
 62
2
  6
CONTINUOUS
  7
STANDARD
 71
1
 72
1
 10
1888.3971082146
 20
1363.1959605168
 30
0.0
 11
1.0
 21
0.0
 31
0.0
 73
2
 44
0.9
  1
4
 40
18.288
 41
14.1409070632
  0
MTEXT
  5
35E
100
AcDbEntity
  8
0
100
AcDbMText
 62
2
  6
CONTINUOUS
  7
STANDARD
 71
1
 72
1
 10
1888.6719991372
 20
1312.4081176916
 30
0.0
 11
1.0
 21
0.0
 31
0.0
 73
2
 44
0.9
  1
5
 40
18.288
 41
14.1409070632
  0
MTEXT
  5
35F
100
AcDbEntity
  8
0
100
AcDbMText
 62
2
  6
CONTINUOUS
  7
STANDARD
 71
1
 72
1
 10
1888.5142986395
 20
1261.7766675031
 30
0.0
 11
1.0
 21
0.0
 31
0.0
 73
2
 44
0.9
  1
6
 40
18.288
 41
14.1409070632
  0
MTEXT
  5
360
100
AcDbEntity
  8
0
100
AcDbMText
 62
2
  6
CONTINUOUS
  7
STANDARD
 71
1
 72
1
 10
1889.0636130484
 20
1160.270821948
 30
0.0
 11
1.0
 21
0.0
 31
0.0
 73
2
 44
0.9
  1
7
 40
18.288
 41
14.1409070632
  0
MTEXT
  5
361
100
AcDbEntity
  8
0
100
AcDbMText
 62
2
  6
CONTINUOUS
  7
STANDARD
 71
1
 72
1
 10
1888.6538059428
 20
1109.2498372991
 30
0.0
 11
1.0
 21
0.0
 31
0.0
 73
2
 44
0.9
  1
8
 40
18.288
 41
14.1409070632
  0
MTEXT
  5
362
100
AcDbEntity
  8
0
100
AcDbMText
 62
2
  6
CONTINUOUS
  7
STANDARD
 71
1
 72
1
 10
1888.7025180606
 20
1058.4761526291
 30
0.0
 11
1.0
 21
0.0
 31
0.0
 73
2
 44
0.9
  1
9
 40
18.288
 41
14.1409070632
  0
MTEXT
  5
363
100
AcDbEntity
  8
0
100
AcDbMText
 62
2
  6
CONTINUOUS
  7
STANDARD
 71
1
 72
1
 10
1889.1123251663
 20
1007.8649750858
 30
0.0
 11
1.0
 21
0.0
 31
0.0
 73
2
 44
0.9
  1
10
 40
18.288
 41
28.2818141264
  0
MTEXT
  5
364
100
AcDbEntity
  8
0
100
AcDbMText
 62
2
  6
CONTINUOUS
  7
STANDARD
 71
1
 72
1
 10
1888.9203001219
 20
956.9453296511
 30
0.0
 11
1.0
 21
0.0
 31
0.0
 73
2
 44
0.9
  1
11
 40
18.288
 41
28.2818141264
  0
INSERT
  5
365
100
AcDbEntity
  8
0
100
AcDbBlockReference
 62
2
  6
CONTINUOUS
  2
CG_3D_BL0
 10
272.6906793393
 20
2020.87859589
  0
INSERT
  5
366
100
AcDbEntity
  8
0
100
AcDbBlockReference
 62
2
  6
CONTINUOUS
  2
CG_3D_BL1
 10
1151.4442815681
 20
1208.4963600194
  0
INSERT
  5
367
100
AcDbEntity
  8
0
100
AcDbBlockReference
 62
2
  6
CONTINUOUS
  2
CG_3D_BL2
 10
331.3369847956
 20
1208.5561877168
  0
LINE
  5
368
100
AcDbEntity
  8
0
100
AcDbLine
 62
7
  6
CONTINUOUS
 10
100.3810027179
 20
79.6859098728
 11
109.9693333499
 21
74.3671757884
  0
LINE
  5
369
100
AcDbEntity
  8
0
100
AcDbLine
 62
7
  6
CONTINUOUS
 10
105.1751680339
 20
84.5227389783
 11
114.575492183
 21
79.3082937976
  0
LINE
  5
36A
100
AcDbEntity
  8
0
100
AcDbLine
 62
7
  6
CONTINUOUS
 10
60.1006137389
 20
74.9913129514
 11
82.0503706271
 21
62.3186149033
  0
LINE
  5
36B
100
AcDbEntity
  8
0
100
AcDbLine
 62
7
  6
CONTINUOUS
 10
68.0908892657
 20
81.232684581
 11
83.4604192495
 21
72.3590823076
  0
LINE
  5
36C
100
AcDbEntity
  8
0
100
AcDbLine
 62
7
  6
CONTINUOUS
 10
76.1751680339
 20
86.9856010397
 11
84.4004516644
 21
82.2367313214
  0
LINE
  5
36D
100
AcDbEntity
  8
0
100
AcDbLine
 62
7
  6
CONTINUOUS
 10
94.9758163321
 20
100.5538002345
 11
86.7505327017
 21
105.3026699528
  0
LINE
  5
36E
100
AcDbEntity
  8
0
100
AcDbLine
 62
7
  6
CONTINUOUS
 10
103.0600951004
 20
106.3067166932
 11
87.6905651166
 21
115.1803189666
  0
LINE
  5
36F
100
AcDbEntity
  8
0
100
AcDbLine
 62
7
  6
CONTINUOUS
 10
111.0503706271
 20
112.5480883228
 11
89.1006137389
 21
125.2207863709
  0
LINE
  5
370
100
AcDbEntity
  8
0
100
AcDbLine
 62
7
  6
CONTINUOUS
 10
56.575492183
 20
106.4423986851
 11
56.575492183
 21
81.0970025891
  0
LINE
  5
371
100
AcDbEntity
  8
0
100
AcDbLine
 62
7
  6
CONTINUOUS
 10
65.9758163321
 20
102.6433029106
 11
65.9758163321
 21
84.8960983636
  0
LINE
  5
372
100
AcDbEntity
  8
0
100
AcDbLine
 62
7
  6
CONTINUOUS
 10
75.0001275153
 20
98.5185703553
 11
75.0001275153
 21
89.0208309189
  0
LINE
  5
373
100
AcDbEntity
  8
0
100
AcDbLine
 62
7
  6
CONTINUOUS
 10
96.1508568508
 20
89.0208309189
 11
96.1508568508
 21
98.5185703553
  0
LINE
  5
374
100
AcDbEntity
  8
0
100
AcDbLine
 62
7
  6
CONTINUOUS
 10
105.1751680339
 20
84.5227389783
 11
105.1751680339
 21
102.6433029106
  0
LINE
  5
375
100
AcDbEntity
  8
0
100
AcDbLine
 62
7
  6
CONTINUOUS
 10
114.575492183
 20
79.3082937976
 11
114.575492183
 21
106.4423986851
  0
LINE
  5
376
100
AcDbEntity
  8
0
100
AcDbLine
 62
7
  6
CONTINUOUS
 10
82.0503706271
 20
125.2207863709
 11
60.1006137389
 21
112.5480883228
  0
LINE
  5
377
100
AcDbEntity
  8
0
100
AcDbLine
 62
7
  6
CONTINUOUS
 10
83.4604192495
 20
115.1803189666
 11
68.0908892657
 21
106.3067166932
  0
LINE
  5
378
100
AcDbEntity
  8
0
100
AcDbLine
 62
7
  6
CONTINUOUS
 10
84.4004516644
 20
105.3026699528
 11
76.1751680339
 21
100.5538002345
  0
LINE
  5
379
100
AcDbEntity
  8
0
100
AcDbLine
 62
7
  6
CONTINUOUS
 10
86.7505327017
 20
82.2367313214
 11
94.9758163321
 21
86.9856010397
  0
LINE
  5
37A
100
AcDbEntity
  8
0
100
AcDbLine
 62
7
  6
CONTINUOUS
 10
87.6905651166
 20
72.3590823076
 11
100.3810027179
 21
79.6859098728
  0
LINE
  5
37B
100
AcDbEntity
  8
0
100
AcDbLine
 62
7
  6
CONTINUOUS
 10
89.1006137389
 20
62.3186149033
 11
109.9693333499
 21
74.3671757884
  0
ARC
  5
37C
100
AcDbEntity
  8
0
100
AcDbCircle
 62
7
  6
CONTINUOUS
 10
107.5252490712
 20
106.4423986851
 40
7.0502431118
100
AcDbArc
 50
0.0
 51
60.0
  0
ARC
  5
37D
100
AcDbEntity
  8
0
100
AcDbCircle
 62
7
  6
CONTINUOUS
 10
85.575492183
 20
119.1150967332
 40
7.0502431118
100
AcDbArc
 50
60.0
 51
120.0
  0
ARC
  5
37E
100
AcDbEntity
  8
0
100
AcDbCircle
 62
7
  6
CONTINUOUS
 10
63.6257352948
 20
106.4423986851
 40
7.0502431118
100
AcDbArc
 50
120.0
 51
180.0
  0
ARC
  5
37F
100
AcDbEntity
  8
0
100
AcDbCircle
 62
7
  6
CONTINUOUS
 10
63.6257352948
 20
81.0970025891
 40
7.0502431118
100
AcDbArc
 50
180.0
 51
240.0
  0
ARC
  5
380
100
AcDbEntity
  8
0
100
AcDbCircle
 62
7
  6
CONTINUOUS
 10
85.575492183
 20
68.424304541
 40
7.0502431118
100
AcDbArc
 50
240.0
 51
300.0
  0
ARC
  5
381
100
AcDbEntity
  8
0
100
AcDbCircle
 62
7
  6
CONTINUOUS
 10
100.9450221668
 20
102.6433029106
 40
4.2301458671
100
AcDbArc
 50
0.0
 51
60.0
  0
ARC
  5
382
100
AcDbEntity
  8
0
100
AcDbCircle
 62
7
  6
CONTINUOUS
 10
85.575492183
 20
111.516905184
 40
4.2301458671
100
AcDbArc
 50
60.0
 51
120.0
  0
ARC
  5
383
100
AcDbEntity
  8
0
100
AcDbCircle
 62
7
  6
CONTINUOUS
 10
70.2059621992
 20
102.6433029106
 40
4.2301458671
100
AcDbArc
 50
120.0
 51
180.0
  0
ARC
  5
384
100
AcDbEntity
  8
0
100
AcDbCircle
 62
7
  6
CONTINUOUS
 10
70.2059621992
 20
84.8960983636
 40
4.2301458671
100
AcDbArc
 50
180.0
 51
240.0
  0
ARC
  5
385
100
AcDbEntity
  8
0
100
AcDbCircle
 62
7
  6
CONTINUOUS
 10
85.575492183
 20
76.0224960902
 40
4.2301458671
100
AcDbArc
 50
240.0
 51
300.0
  0
ARC
  5
386
100
AcDbEntity
  8
0
100
AcDbCircle
 62
7
  6
CONTINUOUS
 10
85.575492183
 20
84.2719612007
 40
2.3500810373
100
AcDbArc
 50
240.0
 51
300.0
  0
ARC
  5
387
100
AcDbEntity
  8
0
100
AcDbCircle
 62
7
  6
CONTINUOUS
 10
93.8007758135
 20
89.0208309189
 40
2.3500810373
100
AcDbArc
 50
300.0
 51
360.0
  0
ARC
  5
388
100
AcDbEntity
  8
0
100
AcDbCircle
 62
7
  6
CONTINUOUS
 10
93.8007758135
 20
98.5185703553
 40
2.3500810373
100
AcDbArc
 50
0.0
 51
60.0
  0
ARC
  5
389
100
AcDbEntity
  8
0
100
AcDbCircle
 62
7
  6
CONTINUOUS
 10
85.575492183
 20
103.2674400735
 40
2.3500810373
100
AcDbArc
 50
60.0
 51
120.0
  0
ARC
  5
38A
100
AcDbEntity
  8
0
100
AcDbCircle
 62
7
  6
CONTINUOUS
 10
77.3502085525
 20
98.5185703553
 40
2.3500810373
100
AcDbArc
 50
120.0
 51
180.0
  0
ARC
  5
38B
100
AcDbEntity
  8
0
100
AcDbCircle
 62
7
  6
CONTINUOUS
 10
77.3502085525
 20
89.0208309189
 40
2.3500810373
100
AcDbArc
 50
180.0
 51
240.0
  0
HATCH
  5
38C
100
AcDbEntity
  8
0
100
AcDbHatch
 62
7
  6
CONTINUOUS
 10
0.0
 20
0.0
 30
0.0
210
0.0
220
0.0
230
1.0
  2
XSEC0001
 70
1
 71
1
 91
2
 92
1
 93
24
 72
1
 10
109.9693333499
 20
74.3671757884
 11
89.1006137389
 21
62.3186149033
 72
2
 10
85.575492183
 20
68.424304541
 40
7.0502431118
 50
-300.0
 51
-240.0
 73
0
 72
1
 10
82.0503706271
 20
62.3186149033
 11
60.1006137389
 21
74.9913129514
 72
2
 10
63.6257352948
 20
81.0970025891
 40
7.0502431118
 50
-240.0
 51
-180.0
 73
0
 72
1
 10
56.575492183
 20
81.0970025891
 11
56.575492183
 21
106.4423986851
 72
2
 10
63.6257352948
 20
106.4423986851
 40
7.0502431118
 50
-180.0
 51
-120.0
 73
0
 72
1
 10
60.1006137389
 20
112.5480883228
 11
82.0503706271
 21
125.2207863709
 72
2
 10
85.575492183
 20
119.1150967332
 40
7.0502431118
 50
-120.0
 51
-60.0
 73
0
 72
1
 10
89.1006137389
 20
125.2207863709
 11
111.0503706271
 21
112.5480883228
 72
2
 10
107.5252490712
 20
106.4423986851
 40
7.0502431118
 50
-60.0
 51
0.0
 73
0
 72
1
 10
114.575492183
 20
106.4423986851
 11
114.575492183
 21
79.3082937976
 72
1
 10
114.575492183
 20
79.3082937976
 11
105.1751680339
 21
84.5227389783
 72
1
 10
105.1751680339
 20
84.5227389783
 11
105.1751680339
 21
102.6433029106
 72
2
 10
100.9450221668
 20
102.6433029106
 40
4.2301458671
 50
0.0
 51
60.0
 73
1
 72
1
 10
103.0600951004
 20
106.3067166932
 11
87.6905651166
 21
115.1803189666
 72
2
 10
85.575492183
 20
111.516905184
 40
4.2301458671
 50
60.0
 51
120.0
 73
1
 72
1
 10
83.4604192495
 20
115.1803189666
 11
68.0908892657
 21
106.3067166932
 72
2
 10
70.2059621992
 20
102.6433029106
 40
4.2301458671
 50
120.0
 51
180.0
 73
1
 72
1
 10
65.9758163321
 20
102.6433029106
 11
65.9758163321
 21
84.8960983636
 72
2
 10
70.2059621992
 20
84.8960983636
 40
4.2301458671
 50
180.0
 51
240.0
 73
1
 72
1
 10
68.0908892657
 20
81.232684581
 11
83.4604192495
 21
72.3590823076
 72
2
 10
85.575492183
 20
76.0224960902
 40
4.2301458671
 50
240.0
 51
300.0
 73
1
 72
1
 10
87.6905651166
 20
72.3590823076
 11
100.3810027179
 21
79.6859098728
 72
1
 10
100.3810027179
 20
79.6859098728
 11
109.9693333499
 21
74.3671757884
 97
36
330
368
330
369
330
36A
330
36B
330
36C
330
36D
330
36E
330
36F
330
370
330
371
330
372
330
373
330
374
330
375
330
376
330
377
330
378
330
379
330
37A
330
37B
330
37C
330
37D
330
37E
330
37F
330
380
330
381
330
382
330
383
330
384
330
385
330
386
330
387
330
388
330
389
330
38A
330
38B
 92
1
 93
12
 72
2
 10
85.575492183
 20
84.2719612007
 40
2.3500810373
 50
240.0
 51
300.0
 73
1
 72
1
 10
86.7505327017
 20
82.2367313214
 11
94.9758163321
 21
86.9856010397
 72
2
 10
93.8007758135
 20
89.0208309189
 40
2.3500810373
 50
-60.0
 51
0.0
 73
1
 72
1
 10
96.1508568508
 20
89.0208309189
 11
96.1508568508
 21
98.5185703553
 72
2
 10
93.8007758135
 20
98.5185703553
 40
2.3500810373
 50
0.0
 51
60.0
 73
1
 72
1
 10
94.9758163321
 20
100.5538002345
 11
86.7505327017
 21
105.3026699528
 72
2
 10
85.575492183
 20
103.2674400735
 40
2.3500810373
 50
60.0
 51
120.0
 73
1
 72
1
 10
84.4004516644
 20
105.3026699528
 11
76.1751680339
 21
100.5538002345
 72
2
 10
77.3502085525
 20
98.5185703553
 40
2.3500810373
 50
120.0
 51
180.0
 73
1
 72
1
 10
75.0001275153
 20
98.5185703553
 11
75.0001275153
 21
89.0208309189
 72
2
 10
77.3502085525
 20
89.0208309189
 40
2.3500810373
 50
180.0
 51
240.0
 73
1
 72
1
 10
76.1751680339
 20
86.9856010397
 11
84.4004516644
 21
82.2367313214
 97
36
330
368
330
369
330
36A
330
36B
330
36C
330
36D
330
36E
330
36F
330
370
330
371
330
372
330
373
330
374
330
375
330
376
330
377
330
378
330
379
330
37A
330
37B
330
37C
330
37D
330
37E
330
37F
330
380
330
381
330
382
330
383
330
384
330
385
330
386
330
387
330
388
330
389
330
38A
330
38B
 75
0
 76
1
 98
1
 10
0.0
 20
0.0
  0
LINE
  5
38D
100
AcDbEntity
  8
0
100
AcDbLine
 62
7
  6
CONTINUOUS
 10
272.876950854
 20
90.4195070033
 11
253.6062863483
 21
107.8490252186
  0
LINE
  5
38E
100
AcDbEntity
  8
0
100
AcDbLine
 62
7
  6
CONTINUOUS
 10
275.8850545817
 20
94.5005649269
 11
261.1265456676
 21
107.8490252186
  0
LINE
  5
38F
100
AcDbEntity
  8
0
100
AcDbLine
 62
7
  6
CONTINUOUS
 10
272.876950854
 20
90.4195070033
 11
272.876950854
 21
79.0840333223
  0
LINE
  5
390
100
AcDbEntity
  8
0
100
AcDbLine
 62
7
  6
CONTINUOUS
 10
278.8931583094
 20
90.4195070033
 11
278.8931583094
 21
79.0840333223
  0
LINE
  5
391
100
AcDbEntity
  8
0
100
AcDbLine
 62
7
  6
CONTINUOUS
 10
278.8931583094
 20
79.0840333223
 11
272.876950854
 21
79.0840333223
  0
LINE
  5
392
100
AcDbEntity
  8
0
100
AcDbLine
 62
7
  6
CONTINUOUS
 10
261.1265456676
 20
107.8490252186
 11
253.6062863483
 21
107.8490252186
  0
LINE
  5
393
100
AcDbEntity
  8
0
100
AcDbLine
 62
7
  6
CONTINUOUS
 10
290.6435634958
 20
107.8490252186
 11
298.1638228151
 21
107.8490252186
  0
LINE
  5
394
100
AcDbEntity
  8
0
100
AcDbLine
 62
7
  6
CONTINUOUS
 10
275.8850545817
 20
94.5005649269
 11
290.6435634958
 21
107.8490252186
  0
LINE
  5
395
100
AcDbEntity
  8
0
100
AcDbLine
 62
7
  6
CONTINUOUS
 10
278.8931583094
 20
90.4195070033
 11
298.1638228151
 21
107.8490252186
  0
HATCH
  5
396
100
AcDbEntity
  8
0
100
AcDbHatch
 62
7
  6
CONTINUOUS
 10
0.0
 20
0.0
 30
0.0
210
0.0
220
0.0
230
1.0
  2
XSEC0005
 70
1
 71
1
 91
1
 92
1
 93
9
 72
1
 10
253.6062863483
 20
107.8490252186
 11
261.1265456676
 21
107.8490252186
 72
1
 10
261.1265456676
 20
107.8490252186
 11
275.8850545817
 21
94.5005649269
 72
1
 10
275.8850545817
 20
94.5005649269
 11
290.6435634958
 21
107.8490252186
 72
1
 10
290.6435634958
 20
107.8490252186
 11
298.1638228151
 21
107.8490252186
 72
1
 10
298.1638228151
 20
107.8490252186
 11
278.8931583094
 21
90.4195070033
 72
1
 10
278.8931583094
 20
90.4195070033
 11
278.8931583094
 21
79.0840333223
 72
1
 10
278.8931583094
 20
79.0840333223
 11
272.876950854
 21
79.0840333223
 72
1
 10
272.876950854
 20
79.0840333223
 11
272.876950854
 21
90.4195070033
 72
1
 10
272.876950854
 20
90.4195070033
 11
253.6062863483
 21
107.8490252186
 97
9
330
38D
330
38E
330
38F
330
390
330
391
330
392
330
393
330
394
330
395
 75
0
 76
1
 98
1
 10
0.0
 20
0.0
  0
LINE
  5
397
100
AcDbEntity
  8
0
100
AcDbLine
 62
7
  6
CONTINUOUS
 10
141.2724127665
 20
86.6042926416
 11
141.2724127665
 21
100.3287658993
  0
LINE
  5
398
100
AcDbEntity
  8
0
100
AcDbLine
 62
7
  6
CONTINUOUS
 10
146.4425910485
 20
86.6512942624
 11
146.4425910485
 21
100.2817642786
  0
LINE
  5
399
100
AcDbEntity
  8
0
100
AcDbLine
 62
7
  6
CONTINUOUS
 10
163.6451842414
 20
79.0840333223
 11
163.6451842414
 21
83.4081824309
  0
LINE
  5
39A
100
AcDbEntity
  8
0
100
AcDbLine
 62
7
  6
CONTINUOUS
 10
165.9952652786
 20
75.5119101457
 11
165.9952652786
 21
86.2282796756
  0
LINE
  5
39B
100
AcDbEntity
  8
0
100
AcDbLine
 62
7
  6
CONTINUOUS
 10
171.4474532851
 20
75.5119101457
 11
171.4474532851
 21
86.2282796756
  0
LINE
  5
39C
100
AcDbEntity
  8
0
100
AcDbLine
 62
7
  6
CONTINUOUS
 10
173.9855408054
 20
79.0840333223
 11
173.9855408054
 21
83.4081824309
  0
LINE
  5
39D
100
AcDbEntity
  8
0
100
AcDbLine
 62
7
  6
CONTINUOUS
 10
179.3437255704
 20
86.6512942624
 11
179.3437255704
 21
100.2817642786
  0
LINE
  5
39E
100
AcDbEntity
  8
0
100
AcDbLine
 62
7
  6
CONTINUOUS
 10
184.5139038524
 20
86.6042926416
 11
184.5139038524
 21
100.3287658993
  0
LINE
  5
39F
100
AcDbEntity
  8
0
100
AcDbLine
 62
7
  6
CONTINUOUS
 10
165.9952652786
 20
75.5119101457
 11
171.4474532851
 21
75.5119101457
  0
LINE
  5
3A0
100
AcDbEntity
  8
0
100
AcDbLine
 62
7
  6
CONTINUOUS
 10
174.6185136674
 20
79.0840333223
 11
173.9855408054
 21
79.0840333223
  0
LINE
  5
3A1
100
AcDbEntity
  8
0
100
AcDbLine
 62
7
  6
CONTINUOUS
 10
151.1678029515
 20
79.0840333223
 11
163.6451842414
 21
79.0840333223
  0
LINE
  5
3A2
100
AcDbEntity
  8
0
100
AcDbLine
 62
7
  6
CONTINUOUS
 10
174.1152770042
 20
83.4081824309
 11
173.9855408054
 21
83.4081824309
  0
LINE
  5
3A3
100
AcDbEntity
  8
0
100
AcDbLine
 62
7
  6
CONTINUOUS
 10
151.6710396147
 20
83.4081824309
 11
163.6451842414
 21
83.4081824309
  0
LINE
  5
3A4
100
AcDbEntity
  8
0
100
AcDbLine
 62
7
  6
CONTINUOUS
 10
165.9952652786
 20
86.2282796756
 11
171.4474532851
 21
86.2282796756
  0
LINE
  5
3A5
100
AcDbEntity
  8
0
100
AcDbLine
 62
7
  6
CONTINUOUS
 10
151.6710396147
 20
103.52487611
 11
174.1152770042
 21
103.52487611
  0
LINE
  5
3A6
100
AcDbEntity
  8
0
100
AcDbLine
 62
7
  6
CONTINUOUS
 10
151.1678029515
 20
107.8490252186
 11
174.6185136674
 21
107.8490252186
  0
ELLIPSE
  5
3A7
100
AcDbEntity
  8
0
100
AcDbEllipse
 62
7
  6
CONTINUOUS
 10
174.1152770042
 20
86.6512942624
 30
0.0
 11
5.2284485662
 21
0.0
 31
0.0
 40
0.6202818657
 41
-1.5707963268
 42
0.0
  0
ELLIPSE
  5
3A8
100
AcDbEntity
  8
0
100
AcDbEllipse
 62
7
  6
CONTINUOUS
 10
174.6185136674
 20
86.6042926416
 30
0.0
 11
9.895390185
 21
0.0
 31
0.0
 40
0.7599760271
 41
4.7123889804
 42
6.2831853072
  0
ELLIPSE
  5
3A9
100
AcDbEntity
  8
0
100
AcDbEllipse
 62
7
  6
CONTINUOUS
 10
151.6710396147
 20
86.6512942624
 30
0.0
 11
5.2284485662
 21
0.0
 31
0.0
 40
0.6202818657
 41
9.4247779608
 42
10.9955742876
  0
ELLIPSE
  5
3AA
100
AcDbEntity
  8
0
100
AcDbEllipse
 62
7
  6
CONTINUOUS
 10
151.6710396147
 20
100.2817642786
 30
0.0
 11
5.2284485662
 21
0.0
 31
0.0
 40
0.6202818657
 41
1.5707963268
 42
3.1415926536
  0
ELLIPSE
  5
3AB
100
AcDbEntity
  8
0
100
AcDbEllipse
 62
7
  6
CONTINUOUS
 10
151.1678029515
 20
86.6042926416
 30
0.0
 11
9.895390185
 21
0.0
 31
0.0
 40
0.7599760271
 41
3.1415926536
 42
4.7123889804
  0
ELLIPSE
  5
3AC
100
AcDbEntity
  8
0
100
AcDbEllipse
 62
7
  6
CONTINUOUS
 10
151.1678029515
 20
100.3287658993
 30
0.0
 11
9.895390185
 21
0.0
 31
0.0
 40
0.7599760271
 41
7.853981634
 42
9.4247779608
  0
ELLIPSE
  5
3AD
100
AcDbEntity
  8
0
100
AcDbEllipse
 62
7
  6
CONTINUOUS
 10
174.1152770042
 20
100.2817642786
 30
0.0
 11
-5.2284485662
 21
0.0
 31
0.0
 40
0.6202818657
 41
3.1415926536
 42
4.7123889804
  0
ELLIPSE
  5
3AE
100
AcDbEntity
  8
0
100
AcDbEllipse
 62
7
  6
CONTINUOUS
 10
174.6185136674
 20
100.3287658993
 30
0.0
 11
9.895390185
 21
0.0
 31
0.0
 40
0.7599760271
 41
0.0
 42
1.5707963268
  0
HATCH
  5
3AF
100
AcDbEntity
  8
0
100
AcDbHatch
 62
7
  6
CONTINUOUS
 10
0.0
 20
0.0
 30
0.0
210
0.0
220
0.0
230
1.0
  2
XSEC0002
 70
1
 71
1
 91
2
 92
1
 93
20
 72
3
 10
151.1678029515
 20
100.3287658993
 11
9.895390185
 21
0.0
 40
0.7599760271
 50
-180.0
 51
-90.0
 73
0
 72
1
 10
151.1678029515
 20
107.8490252186
 11
174.6185136674
 21
107.8490252186
 72
3
 10
174.6185136674
 20
100.3287658993
 11
9.895390185
 21
0.0
 40
0.7599760271
 50
-90.0
 51
0.0
 73
0
 72
1
 10
184.5139038524
 20
100.3287658993
 11
184.5139038524
 21
86.6042926416
 72
3
 10
174.6185136674
 20
86.6042926416
 11
9.895390185
 21
0.0
 40
0.7599760271
 50
0.0
 51
90.0
 73
0
 72
1
 10
174.6185136674
 20
79.0840333223
 11
173.9855408054
 21
79.0840333223
 72
1
 10
173.9855408054
 20
79.0840333223
 11
173.9855408054
 21
83.4081824309
 72
1
 10
173.9855408054
 20
83.4081824309
 11
174.1152770042
 21
83.4081824309
 72
3
 10
174.1152770042
 20
86.6512942624
 11
5.2284485662
 21
0.0
 40
0.6202818657
 50
-90.0
 51
0.0
 73
1
 72
1
 10
179.3437255704
 20
86.6512942624
 11
179.3437255704
 21
100.2817642786
 72
3
 10
174.1152770042
 20
100.2817642786
 11
-5.2284485662
 21
0.0
 40
0.6202818657
 50
180.0
 51
-90.0
 73
1
 72
1
 10
174.1152770042
 20
103.52487611
 11
151.6710396147
 21
103.52487611
 72
3
 10
151.6710396147
 20
100.2817642786
 11
5.2284485662
 21
0.0
 40
0.6202818657
 50
90.0
 51
180.0
 73
1
 72
1
 10
146.4425910485
 20
100.2817642786
 11
146.4425910485
 21
86.6512942624
 72
3
 10
151.6710396147
 20
86.6512942624
 11
5.2284485662
 21
0.0
 40
0.6202818657
 50
180.0
 51
-90.0
 73
1
 72
1
 10
151.6710396147
 20
83.4081824309
 11
163.6451842414
 21
83.4081824309
 72
1
 10
163.6451842414
 20
83.4081824309
 11
163.6451842414
 21
79.0840333223
 72
1
 10
163.6451842414
 20
79.0840333223
 11
151.1678029515
 21
79.0840333223
 72
3
 10
151.1678029515
 20
86.6042926416
 11
9.895390185
 21
0.0
 40
0.7599760271
 50
-270.0
 51
-180.0
 73
0
 72
1
 10
141.2724127665
 20
86.6042926416
 11
141.2724127665
 21
100.3287658993
 97
24
330
397
330
398
330
399
330
39A
330
39B
330
39C
330
39D
330
39E
330
39F
330
3A0
330
3A1
330
3A2
330
3A3
330
3A4
330
3A5
330
3A6
330
3A7
330
3A8
330
3A9
330
3AA
330
3AB
330
3AC
330
3AD
330
3AE
 92
1
 93
4
 72
1
 10
165.9952652786
 20
86.2282796756
 11
171.4474532851
 21
86.2282796756
 72
1
 10
171.4474532851
 20
86.2282796756
 11
171.4474532851
 21
75.5119101457
 72
1
 10
171.4474532851
 20
75.5119101457
 11
165.9952652786
 21
75.5119101457
 72
1
 10
165.9952652786
 20
75.5119101457
 11
165.9952652786
 21
86.2282796756
 97
24
330
397
330
398
330
399
330
39A
330
39B
330
39C
330
39D
330
39E
330
39F
330
3A0
330
3A1
330
3A2
330
3A3
330
3A4
330
3A5
330
3A6
330
3A7
330
3A8
330
3A9
330
3AA
330
3AB
330
3AC
330
3AD
330
3AE
 75
0
 76
1
 98
1
 10
0.0
 20
0.0
  0
LINE
  5
3B0
100
AcDbEntity
  8
0
100
AcDbLine
 62
7
  6
CONTINUOUS
 10
192.6921858621
 20
87.9203380225
 11
192.6921858621
 21
91.4924611991
  0
LINE
  5
3B1
100
AcDbEntity
  8
0
100
AcDbLine
 62
7
  6
CONTINUOUS
 10
204.4425910485
 20
87.9203380225
 11
204.4425910485
 21
91.4924611991
  0
LINE
  5
3B2
100
AcDbEntity
  8
0
100
AcDbLine
 62
7
  6
CONTINUOUS
 10
192.6921858621
 20
87.9203380225
 11
204.4425910485
 21
87.9203380225
  0
LINE
  5
3B3
100
AcDbEntity
  8
0
100
AcDbLine
 62
7
  6
CONTINUOUS
 10
192.6921858621
 20
91.4924611991
 11
204.4425910485
 21
91.4924611991
  0
HATCH
  5
3B4
100
AcDbEntity
  8
0
100
AcDbHatch
 62
7
  6
CONTINUOUS
 10
0.0
 20
0.0
 30
0.0
210
0.0
220
0.0
230
1.0
  2
XSEC0003
 70
1
 71
1
 91
1
 92
1
 93
4
 72
1
 10
192.6921858621
 20
91.4924611991
 11
204.4425910485
 21
91.4924611991
 72
1
 10
204.4425910485
 20
91.4924611991
 11
204.4425910485
 21
87.9203380225
 72
1
 10
204.4425910485
 20
87.9203380225
 11
192.6921858621
 21
87.9203380225
 72
1
 10
192.6921858621
 20
87.9203380225
 11
192.6921858621
 21
91.4924611991
 97
4
330
3B0
330
3B1
330
3B2
330
3B3
 75
0
 76
1
 98
1
 10
0.0
 20
0.0
  0
LINE
  5
3B5
100
AcDbEntity
  8
0
100
AcDbLine
 62
7
  6
CONTINUOUS
 10
210.5528017454
 20
86.6042926416
 11
210.5528017454
 21
88.4843574714
  0
LINE
  5
3B6
100
AcDbEntity
  8
0
100
AcDbLine
 62
7
  6
CONTINUOUS
 10
210.5528017454
 20
98.8247140354
 11
210.5528017454
 21
100.3287658993
  0
LINE
  5
3B7
100
AcDbEntity
  8
0
100
AcDbLine
 62
7
  6
CONTINUOUS
 10
215.7229800274
 20
86.6512942624
 11
215.7229800274
 21
88.4843574714
  0
LINE
  5
3B8
100
AcDbEntity
  8
0
100
AcDbLine
 62
7
  6
CONTINUOUS
 10
215.7229800274
 20
98.8717156562
 11
215.7229800274
 21
100.2817642786
  0
LINE
  5
3B9
100
AcDbEntity
  8
0
100
AcDbLine
 62
7
  6
CONTINUOUS
 10
244.8639848897
 20
88.0613428847
 11
244.8639848897
 21
86.6512942624
  0
LINE
  5
3BA
100
AcDbEntity
  8
0
100
AcDbLine
 62
7
  6
CONTINUOUS
 10
244.8639848897
 20
98.4487010695
 11
244.8639848897
 21
100.2817642786
  0
LINE
  5
3BB
100
AcDbEntity
  8
0
100
AcDbLine
 62
7
  6
CONTINUOUS
 10
250.0341631717
 20
86.6042926416
 11
250.0341631717
 21
88.1083445055
  0
LINE
  5
3BC
100
AcDbEntity
  8
0
100
AcDbLine
 62
7
  6
CONTINUOUS
 10
250.0341631717
 20
98.4487010695
 11
250.0341631717
 21
100.3287658993
  0
LINE
  5
3BD
100
AcDbEntity
  8
0
100
AcDbLine
 62
7
  6
CONTINUOUS
 10
220.4481919304
 20
79.0840333223
 11
240.1387729867
 21
79.0840333223
  0
LINE
  5
3BE
100
AcDbEntity
  8
0
100
AcDbLine
 62
7
  6
CONTINUOUS
 10
220.9514285936
 20
83.4081824309
 11
239.6355363234
 21
83.4081824309
  0
LINE
  5
3BF
100
AcDbEntity
  8
0
100
AcDbLine
 62
7
  6
CONTINUOUS
 10
210.5528017454
 20
88.4843574714
 11
215.7229800274
 21
88.4843574714
  0
LINE
  5
3C0
100
AcDbEntity
  8
0
100
AcDbLine
 62
7
  6
CONTINUOUS
 10
220.4481919304
 20
91.3044547162
 11
239.6355363234
 21
91.3044547162
  0
LINE
  5
3C1
100
AcDbEntity
  8
0
100
AcDbLine
 62
7
  6
CONTINUOUS
 10
220.9514285936
 20
95.6286038248
 11
240.1387729867
 21
95.6286038248
  0
LINE
  5
3C2
100
AcDbEntity
  8
0
100
AcDbLine
 62
7
  6
CONTINUOUS
 10
244.8639848897
 20
98.4487010695
 11
250.0341631717
 21
98.4487010695
  0
LINE
  5
3C3
100
AcDbEntity
  8
0
100
AcDbLine
 62
7
  6
CONTINUOUS
 10
220.9514285936
 20
103.52487611
 11
239.6355363234
 21
103.52487611
  0
LINE
  5
3C4
100
AcDbEntity
  8
0
100
AcDbLine
 62
7
  6
CONTINUOUS
 10
220.4481919304
 20
107.8490252186
 11
240.1387729867
 21
107.8490252186
  0
ELLIPSE
  5
3C5
100
AcDbEntity
  8
0
100
AcDbEllipse
 62
7
  6
CONTINUOUS
 10
220.9514285936
 20
86.6512942624
 30
0.0
 11
5.2284485662
 21
0.0
 31
0.0
 40
0.6202818657
 41
9.4247779608
 42
10.9955742876
  0
ELLIPSE
  5
3C6
100
AcDbEntity
  8
0
100
AcDbEllipse
 62
7
  6
CONTINUOUS
 10
220.9514285936
 20
100.2817642786
 30
0.0
 11
5.2284485662
 21
0.0
 31
0.0
 40
0.6202818657
 41
1.5707963268
 42
3.1415926536
  0
ELLIPSE
  5
3C7
100
AcDbEntity
  8
0
100
AcDbEllipse
 62
7
  6
CONTINUOUS
 10
239.6355363234
 20
86.6512942624
 30
0.0
 11
5.2284485662
 21
-0.0
 31
0.0
 40
0.6202818657
 41
-1.5707963268
 42
0.0
  0
ELLIPSE
  5
3C8
100
AcDbEntity
  8
0
100
AcDbEllipse
 62
7
  6
CONTINUOUS
 10
239.6355363234
 20
100.2817642786
 30
0.0
 11
-5.2284485662
 21
0.0
 31
0.0
 40
0.6202818657
 41
3.1415926536
 42
4.7123889804
  0
ELLIPSE
  5
3C9
100
AcDbEntity
  8
0
100
AcDbEllipse
 62
7
  6
CONTINUOUS
 10
239.6355363234
 20
88.0613428847
 30
0.0
 11
5.2284485662
 21
0.0
 31
0.0
 40
0.6202818657
 41
0.0
 42
1.5707963268
  0
ELLIPSE
  5
3CA
100
AcDbEntity
  8
0
100
AcDbEllipse
 62
7
  6
CONTINUOUS
 10
220.9514285936
 20
98.8717156562
 30
0.0
 11
5.2284485662
 21
0.0
 31
0.0
 40
0.6202818657
 41
3.1415926536
 42
4.7123889804
  0
ELLIPSE
  5
3CB
100
AcDbEntity
  8
0
100
AcDbEllipse
 62
7
  6
CONTINUOUS
 10
240.1387729867
 20
86.6042926416
 30
0.0
 11
9.895390185
 21
0.0
 31
0.0
 40
0.7599760271
 41
4.7123889804
 42
6.2831853072
  0
ELLIPSE
  5
3CC
100
AcDbEntity
  8
0
100
AcDbEllipse
 62
7
  6
CONTINUOUS
 10
220.4481919304
 20
86.6042926416
 30
0.0
 11
9.895390185
 21
0.0
 31
0.0
 40
0.7599760271
 41
3.1415926536
 42
4.7123889804
  0
ELLIPSE
  5
3CD
100
AcDbEntity
  8
0
100
AcDbEllipse
 62
7
  6
CONTINUOUS
 10
240.1387729867
 20
100.3287658993
 30
0.0
 11
9.895390185
 21
0.0
 31
0.0
 40
0.7599760271
 41
0.0
 42
1.5707963268
  0
ELLIPSE
  5
3CE
100
AcDbEntity
  8
0
100
AcDbEllipse
 62
7
  6
CONTINUOUS
 10
220.4481919304
 20
98.8247140354
 30
0.0
 11
9.895390185
 21
0.0
 31
0.0
 40
0.7599760271
 41
9.4247779608
 42
10.9955742876
  0
ELLIPSE
  5
3CF
100
AcDbEntity
  8
0
100
AcDbEllipse
 62
7
  6
CONTINUOUS
 10
240.1387729867
 20
88.1083445055
 30
0.0
 11
9.895390185
 21
0.0
 31
0.0
 40
0.7599760271
 41
6.2831853072
 42
7.853981634
  0
ELLIPSE
  5
3D0
100
AcDbEntity
  8
0
100
AcDbEllipse
 62
7
  6
CONTINUOUS
 10
220.4481919304
 20
100.3287658993
 30
0.0
 11
9.895390185
 21
0.0
 31
0.0
 40
0.7599760271
 41
7.853981634
 42
9.4247779608
  0
HATCH
  5
3D1
100
AcDbEntity
  8
0
100
AcDbHatch
 62
7
  6
CONTINUOUS
 10
0.0
 20
0.0
 30
0.0
210
0.0
220
0.0
230
1.0
  2
XSEC0004
 70
1
 71
1
 91
1
 92
1
 93
28
 72
1
 10
210.5528017454
 20
88.4843574714
 11
215.7229800274
 21
88.4843574714
 72
1
 10
215.7229800274
 20
88.4843574714
 11
215.7229800274
 21
86.6512942624
 72
3
 10
220.9514285936
 20
86.6512942624
 11
5.2284485662
 21
0.0
 40
0.6202818657
 50
180.0
 51
-90.0
 73
1
 72
1
 10
220.9514285936
 20
83.4081824309
 11
239.6355363234
 21
83.4081824309
 72
3
 10
239.6355363234
 20
86.6512942624
 11
5.2284485662
 21
-0.0
 40
0.6202818657
 50
-90.0
 51
0.0
 73
1
 72
1
 10
244.8639848897
 20
86.6512942624
 11
244.8639848897
 21
88.0613428847
 72
3
 10
239.6355363234
 20
88.0613428847
 11
5.2284485662
 21
0.0
 40
0.6202818657
 50
0.0
 51
90.0
 73
1
 72
1
 10
239.6355363234
 20
91.3044547162
 11
220.4481919304
 21
91.3044547162
 72
3
 10
220.4481919304
 20
98.8247140354
 11
9.895390185
 21
0.0
 40
0.7599760271
 50
-270.0
 51
-180.0
 73
0
 72
1
 10
210.5528017454
 20
98.8247140354
 11
210.5528017454
 21
100.3287658993
 72
3
 10
220.4481919304
 20
100.3287658993
 11
9.895390185
 21
0.0
 40
0.7599760271
 50
-180.0
 51
-90.0
 73
0
 72
1
 10
220.4481919304
 20
107.8490252186
 11
240.1387729867
 21
107.8490252186
 72
3
 10
240.1387729867
 20
100.3287658993
 11
9.895390185
 21
0.0
 40
0.7599760271
 50
-90.0
 51
0.0
 73
0
 72
1
 10
250.0341631717
 20
100.3287658993
 11
250.0341631717
 21
98.4487010695
 72
1
 10
250.0341631717
 20
98.4487010695
 11
244.8639848897
 21
98.4487010695
 72
1
 10
244.8639848897
 20
98.4487010695
 11
244.8639848897
 21
100.2817642786
 72
3
 10
239.6355363234
 20
100.2817642786
 11
-5.2284485662
 21
0.0
 40
0.6202818657
 50
180.0
 51
-90.0
 73
1
 72
1
 10
239.6355363234
 20
103.52487611
 11
220.9514285936
 21
103.52487611
 72
3
 10
220.9514285936
 20
100.2817642786
 11
5.2284485662
 21
0.0
 40
0.6202818657
 50
90.0
 51
180.0
 73
1
 72
1
 10
215.7229800274
 20
100.2817642786
 11
215.7229800274
 21
98.8717156562
 72
3
 10
220.9514285936
 20
98.8717156562
 11
5.2284485662
 21
0.0
 40
0.6202818657
 50
180.0
 51
-90.0
 73
1
 72
1
 10
220.9514285936
 20
95.6286038248
 11
240.1387729867
 21
95.6286038248
 72
3
 10
240.1387729867
 20
88.1083445055
 11
9.895390185
 21
0.0
 40
0.7599760271
 50
-90.0
 51
0.0
 73
0
 72
1
 10
250.0341631717
 20
88.1083445055
 11
250.0341631717
 21
86.6042926416
 72
3
 10
240.1387729867
 20
86.6042926416
 11
9.895390185
 21
0.0
 40
0.7599760271
 50
0.0
 51
90.0
 73
0
 72
1
 10
240.1387729867
 20
79.0840333223
 11
220.4481919304
 21
79.0840333223
 72
3
 10
220.4481919304
 20
86.6042926416
 11
9.895390185
 21
0.0
 40
0.7599760271
 50
-270.0
 51
-180.0
 73
0
 72
1
 10
210.5528017454
 20
86.6042926416
 11
210.5528017454
 21
88.4843574714
 97
28
330
3B5
330
3B6
330
3B7
330
3B8
330
3B9
330
3BA
330
3BB
330
3BC
330
3BD
330
3BE
330
3BF
330
3C0
330
3C1
330
3C2
330
3C3
330
3C4
330
3C5
330
3C6
330
3C7
330
3C8
330
3C9
330
3CA
330
3CB
330
3CC
330
3CD
330
3CE
330
3CF
330
3D0
 75
0
 76
1
 98
1
 10
0.0
 20
0.0
  0
LINE
  5
3D2
100
AcDbEntity
  8
0
100
AcDbLine
 62
7
  6
CONTINUOUS
 10
300.6079070939
 20
86.6042926416
 11
300.6079070939
 21
88.4843574714
  0
LINE
  5
3D3
100
AcDbEntity
  8
0
100
AcDbLine
 62
7
  6
CONTINUOUS
 10
300.6079070939
 20
98.8247140354
 11
300.6079070939
 21
100.3287658993
  0
LINE
  5
3D4
100
AcDbEntity
  8
0
100
AcDbLine
 62
7
  6
CONTINUOUS
 10
305.7780853759
 20
86.6512942624
 11
305.7780853759
 21
88.4843574714
  0
LINE
  5
3D5
100
AcDbEntity
  8
0
100
AcDbLine
 62
7
  6
CONTINUOUS
 10
305.7780853759
 20
98.8717156562
 11
305.7780853759
 21
100.2817642786
  0
LINE
  5
3D6
100
AcDbEntity
  8
0
100
AcDbLine
 62
7
  6
CONTINUOUS
 10
334.9190902381
 20
88.0613428847
 11
334.9190902381
 21
86.6512942624
  0
LINE
  5
3D7
100
AcDbEntity
  8
0
100
AcDbLine
 62
7
  6
CONTINUOUS
 10
334.9190902381
 20
98.4487010695
 11
334.9190902381
 21
100.2817642786
  0
LINE
  5
3D8
100
AcDbEntity
  8
0
100
AcDbLine
 62
7
  6
CONTINUOUS
 10
340.0892685201
 20
86.6042926416
 11
340.0892685201
 21
88.1083445055
  0
LINE
  5
3D9
100
AcDbEntity
  8
0
100
AcDbLine
 62
7
  6
CONTINUOUS
 10
340.0892685201
 20
98.4487010695
 11
340.0892685201
 21
100.3287658993
  0
LINE
  5
3DA
100
AcDbEntity
  8
0
100
AcDbLine
 62
7
  6
CONTINUOUS
 10
310.5032972788
 20
79.0840333223
 11
330.1938783352
 21
79.0840333223
  0
LINE
  5
3DB
100
AcDbEntity
  8
0
100
AcDbLine
 62
7
  6
CONTINUOUS
 10
311.0065339421
 20
83.4081824309
 11
329.6906416719
 21
83.4081824309
  0
LINE
  5
3DC
100
AcDbEntity
  8
0
100
AcDbLine
 62
7
  6
CONTINUOUS
 10
300.6079070939
 20
88.4843574714
 11
305.7780853759
 21
88.4843574714
  0
LINE
  5
3DD
100
AcDbEntity
  8
0
100
AcDbLine
 62
7
  6
CONTINUOUS
 10
310.5032972788
 20
91.3044547162
 11
329.6906416719
 21
91.3044547162
  0
LINE
  5
3DE
100
AcDbEntity
  8
0
100
AcDbLine
 62
7
  6
CONTINUOUS
 10
311.0065339421
 20
95.6286038248
 11
330.1938783352
 21
95.6286038248
  0
LINE
  5
3DF
100
AcDbEntity
  8
0
100
AcDbLine
 62
7
  6
CONTINUOUS
 10
334.9190902381
 20
98.4487010695
 11
340.0892685201
 21
98.4487010695
  0
LINE
  5
3E0
100
AcDbEntity
  8
0
100
AcDbLine
 62
7
  6
CONTINUOUS
 10
311.0065339421
 20
103.52487611
 11
329.6906416719
 21
103.52487611
  0
LINE
  5
3E1
100
AcDbEntity
  8
0
100
AcDbLine
 62
7
  6
CONTINUOUS
 10
310.5032972788
 20
107.8490252186
 11
330.1938783352
 21
107.8490252186
  0
ELLIPSE
  5
3E2
100
AcDbEntity
  8
0
100
AcDbEllipse
 62
7
  6
CONTINUOUS
 10
311.0065339421
 20
86.6512942624
 30
0.0
 11
5.2284485662
 21
0.0
 31
0.0
 40
0.6202818657
 41
9.4247779608
 42
10.9955742876
  0
ELLIPSE
  5
3E3
100
AcDbEntity
  8
0
100
AcDbEllipse
 62
7
  6
CONTINUOUS
 10
311.0065339421
 20
100.2817642786
 30
0.0
 11
5.2284485662
 21
0.0
 31
0.0
 40
0.6202818657
 41
1.5707963268
 42
3.1415926536
  0
ELLIPSE
  5
3E4
100
AcDbEntity
  8
0
100
AcDbEllipse
 62
7
  6
CONTINUOUS
 10
329.6906416719
 20
86.6512942624
 30
0.0
 11
5.2284485662
 21
-0.0
 31
0.0
 40
0.6202818657
 41
-1.5707963268
 42
0.0
  0
ELLIPSE
  5
3E5
100
AcDbEntity
  8
0
100
AcDbEllipse
 62
7
  6
CONTINUOUS
 10
329.6906416719
 20
100.2817642786
 30
0.0
 11
-5.2284485662
 21
0.0
 31
0.0
 40
0.6202818657
 41
3.1415926536
 42
4.7123889804
  0
ELLIPSE
  5
3E6
100
AcDbEntity
  8
0
100
AcDbEllipse
 62
7
  6
CONTINUOUS
 10
329.6906416719
 20
88.0613428847
 30
0.0
 11
5.2284485662
 21
0.0
 31
0.0
 40
0.6202818657
 41
0.0
 42
1.5707963268
  0
ELLIPSE
  5
3E7
100
AcDbEntity
  8
0
100
AcDbEllipse
 62
7
  6
CONTINUOUS
 10
311.0065339421
 20
98.8717156562
 30
0.0
 11
5.2284485662
 21
0.0
 31
0.0
 40
0.6202818657
 41
3.1415926536
 42
4.7123889804
  0
ELLIPSE
  5
3E8
100
AcDbEntity
  8
0
100
AcDbEllipse
 62
7
  6
CONTINUOUS
 10
330.1938783352
 20
86.6042926416
 30
0.0
 11
9.895390185
 21
0.0
 31
0.0
 40
0.7599760271
 41
4.7123889804
 42
6.2831853072
  0
ELLIPSE
  5
3E9
100
AcDbEntity
  8
0
100
AcDbEllipse
 62
7
  6
CONTINUOUS
 10
310.5032972788
 20
86.6042926416
 30
0.0
 11
9.895390185
 21
0.0
 31
0.0
 40
0.7599760271
 41
3.1415926536
 42
4.7123889804
  0
ELLIPSE
  5
3EA
100
AcDbEntity
  8
0
100
AcDbEllipse
 62
7
  6
CONTINUOUS
 10
330.1938783352
 20
100.3287658993
 30
0.0
 11
9.895390185
 21
0.0
 31
0.0
 40
0.7599760271
 41
0.0
 42
1.5707963268
  0
ELLIPSE
  5
3EB
100
AcDbEntity
  8
0
100
AcDbEllipse
 62
7
  6
CONTINUOUS
 10
310.5032972788
 20
100.3287658993
 30
0.0
 11
9.895390185
 21
0.0
 31
0.0
 40
0.7599760271
 41
7.853981634
 42
9.4247779608
  0
ELLIPSE
  5
3EC
100
AcDbEntity
  8
0
100
AcDbEllipse
 62
7
  6
CONTINUOUS
 10
310.5032972788
 20
98.8247140354
 30
0.0
 11
9.895390185
 21
0.0
 31
0.0
 40
0.7599760271
 41
9.4247779608
 42
10.9955742876
  0
ELLIPSE
  5
3ED
100
AcDbEntity
  8
0
100
AcDbEllipse
 62
7
  6
CONTINUOUS
 10
330.1938783352
 20
88.1083445055
 30
0.0
 11
9.895390185
 21
0.0
 31
0.0
 40
0.7599760271
 41
6.2831853072
 42
7.853981634
  0
HATCH
  5
3EE
100
AcDbEntity
  8
0
100
AcDbHatch
 62
7
  6
CONTINUOUS
 10
0.0
 20
0.0
 30
0.0
210
0.0
220
0.0
230
1.0
  2
XSEC0006
 70
1
 71
1
 91
1
 92
1
 93
28
 72
1
 10
300.6079070939
 20
88.4843574714
 11
305.7780853759
 21
88.4843574714
 72
1
 10
305.7780853759
 20
88.4843574714
 11
305.7780853759
 21
86.6512942624
 72
3
 10
311.0065339421
 20
86.6512942624
 11
5.2284485662
 21
0.0
 40
0.6202818657
 50
180.0
 51
-90.0
 73
1
 72
1
 10
311.0065339421
 20
83.4081824309
 11
329.6906416719
 21
83.4081824309
 72
3
 10
329.6906416719
 20
86.6512942624
 11
5.2284485662
 21
-0.0
 40
0.6202818657
 50
-90.0
 51
0.0
 73
1
 72
1
 10
334.9190902381
 20
86.6512942624
 11
334.9190902381
 21
88.0613428847
 72
3
 10
329.6906416719
 20
88.0613428847
 11
5.2284485662
 21
0.0
 40
0.6202818657
 50
0.0
 51
90.0
 73
1
 72
1
 10
329.6906416719
 20
91.3044547162
 11
310.5032972788
 21
91.3044547162
 72
3
 10
310.5032972788
 20
98.8247140354
 11
9.895390185
 21
0.0
 40
0.7599760271
 50
-270.0
 51
-180.0
 73
0
 72
1
 10
300.6079070939
 20
98.8247140354
 11
300.6079070939
 21
100.3287658993
 72
3
 10
310.5032972788
 20
100.3287658993
 11
9.895390185
 21
0.0
 40
0.7599760271
 50
-180.0
 51
-90.0
 73
0
 72
1
 10
310.5032972788
 20
107.8490252186
 11
330.1938783352
 21
107.8490252186
 72
3
 10
330.1938783352
 20
100.3287658993
 11
9.895390185
 21
0.0
 40
0.7599760271
 50
-90.0
 51
0.0
 73
0
 72
1
 10
340.0892685201
 20
100.3287658993
 11
340.0892685201
 21
98.4487010695
 72
1
 10
340.0892685201
 20
98.4487010695
 11
334.9190902381
 21
98.4487010695
 72
1
 10
334.9190902381
 20
98.4487010695
 11
334.9190902381
 21
100.2817642786
 72
3
 10
329.6906416719
 20
100.2817642786
 11
-5.2284485662
 21
0.0
 40
0.6202818657
 50
180.0
 51
-90.0
 73
1
 72
1
 10
329.6906416719
 20
103.52487611
 11
311.0065339421
 21
103.52487611
 72
3
 10
311.0065339421
 20
100.2817642786
 11
5.2284485662
 21
0.0
 40
0.6202818657
 50
90.0
 51
180.0
 73
1
 72
1
 10
305.7780853759
 20
100.2817642786
 11
305.7780853759
 21
98.8717156562
 72
3
 10
311.0065339421
 20
98.8717156562
 11
5.2284485662
 21
0.0
 40
0.6202818657
 50
180.0
 51
-90.0
 73
1
 72
1
 10
311.0065339421
 20
95.6286038248
 11
330.1938783352
 21
95.6286038248
 72
3
 10
330.1938783352
 20
88.1083445055
 11
9.895390185
 21
0.0
 40
0.7599760271
 50
-90.0
 51
0.0
 73
0
 72
1
 10
340.0892685201
 20
88.1083445055
 11
340.0892685201
 21
86.6042926416
 72
3
 10
330.1938783352
 20
86.6042926416
 11
9.895390185
 21
0.0
 40
0.7599760271
 50
0.0
 51
90.0
 73
0
 72
1
 10
330.1938783352
 20
79.0840333223
 11
310.5032972788
 21
79.0840333223
 72
3
 10
310.5032972788
 20
86.6042926416
 11
9.895390185
 21
0.0
 40
0.7599760271
 50
-270.0
 51
-180.0
 73
0
 72
1
 10
300.6079070939
 20
86.6042926416
 11
300.6079070939
 21
88.4843574714
 97
28
330
3D2
330
3D3
330
3D4
330
3D5
330
3D6
330
3D7
330
3D8
330
3D9
330
3DA
330
3DB
330
3DC
330
3DD
330
3DE
330
3DF
330
3E0
330
3E1
330
3E2
330
3E3
330
3E4
330
3E5
330
3E6
330
3E7
330
3E8
330
3E9
330
3EA
330
3EB
330
3EC
330
3ED
 75
0
 76
1
 98
1
 10
0.0
 20
0.0
  0
LWPOLYLINE
  5
3EF
100
AcDbEntity
  8
0
100
AcDbPolyline
 62
7
  6
CONTINUOUS
 90
2
 70
0
 43
1.999999991
 10
1473.9278402067
 20
70.1574220958
 10
1504.4078402075
 20
65.0774220958
  0
LWPOLYLINE
  5
3F0
100
AcDbEntity
  8
0
100
AcDbPolyline
 62
7
  6
CONTINUOUS
 90
2
 70
0
 43
1.999999991
 10
1473.9278402067
 20
80.3174220958
 10
1504.4078402075
 20
85.3974220958
  0
LWPOLYLINE
  5
3F1
100
AcDbEntity
  8
0
100
AcDbPolyline
 62
7
  6
CONTINUOUS
 90
2
 70
0
 43
0.7999999758
 10
1440.4404802067
 20
75.2374220958
 10
1466.7752002075
 20
75.2374220958
  0
LWPOLYLINE
  5
3F2
100
AcDbEntity
  8
0
100
AcDbPolyline
 62
7
  6
CONTINUOUS
 90
2
 70
0
 43
0.7999999758
 10
1470.1447482723
 20
75.2374220958
 10
1507.5168682675
 20
75.2374220958
  0
LWPOLYLINE
  5
3F3
100
AcDbEntity
  8
0
100
AcDbPolyline
 62
7
  6
CONTINUOUS
 90
2
 70
0
 43
1.999999991
 10
3402.4
 20
144.0
 10
52.0
 20
144.0
  0
LWPOLYLINE
  5
3F4
100
AcDbEntity
  8
0
100
AcDbPolyline
 62
7
  6
CONTINUOUS
 90
2
 70
0
 43
0.7999999758
 10
1453.6078402067
 20
62.0700620958
 10
1453.6078402067
 20
88.4047820958
  0
LWPOLYLINE
  5
3F5
100
AcDbEntity
  8
0
100
AcDbPolyline
 62
7
  6
CONTINUOUS
 90
2
 70
0
 43
1.999999991
 10
1473.9278402067
 20
80.3174220958
 10
1473.9278402067
 20
70.1574220958
  0
LWPOLYLINE
  5
3F6
100
AcDbEntity
  8
0
100
AcDbPolyline
 62
7
  6
CONTINUOUS
 90
2
 70
0
 43
1.999999991
 10
1504.4078402075
 20
85.3974220958
 10
1504.4078402075
 20
65.0774220958
  0
LWPOLYLINE
  5
3F7
100
AcDbEntity
  8
0
100
AcDbPolyline
 62
2
  6
CONTINUOUS
 90
5
 70
0
 10
85.8800213317
 20
1860.4141749331
 10
118.3089283949
 20
1860.4141749331
 10
118.3089283949
 20
1896.9901749331
 10
85.8800213317
 20
1896.9901749331
 10
85.8800213317
 20
1860.4141749331
  0
LWPOLYLINE
  5
3F8
100
AcDbEntity
  8
0
100
AcDbPolyline
 62
7
  6
CONTINUOUS
 90
2
 70
0
 43
1.999999991
 10
52.0
 20
2183.2
 10
3402.4
 20
2183.2
  0
LINE
  5
3F9
100
AcDbEntity
  8
0
100
AcDbLine
 62
7
  6
CONTINUOUS
 10
859.8516304348
 20
394.4349053358
 11
859.8516304348
 21
491.4349053358
  0
LINE
  5
3FA
100
AcDbEntity
  8
0
100
AcDbLine
 62
7
  6
CONTINUOUS
 10
865.8516304348
 20
394.4349053358
 11
865.8516304348
 21
406.4349053358
  0
LINE
  5
3FB
100
AcDbEntity
  8
0
100
AcDbLine
 62
7
  6
CONTINUOUS
 10
859.8516304348
 20
394.4349053358
 11
865.8516304348
 21
394.4349053358
  0
LINE
  5
3FC
100
AcDbEntity
  8
0
100
AcDbLine
 62
7
  6
CONTINUOUS
 10
1436.8516304348
 20
394.4349053358
 11
1442.8516304348
 21
394.4349053358
  0
LINE
  5
3FD
100
AcDbEntity
  8
0
100
AcDbLine
 62
9
  6
CONTINUOUS
 10
1442.8516304348
 20
397.9496239616
 11
1436.8516304348
 21
397.9496239616
  0
LINE
  5
3FE
100
AcDbEntity
  8
0
100
AcDbLine
 62
9
  6
CONTINUOUS
 10
859.8516304348
 20
397.9496239616
 11
865.8516304348
 21
397.9496239616
  0
LINE
  5
3FF
100
AcDbEntity
  8
0
100
AcDbLine
 62
9
  6
CONTINUOUS
 10
865.8516304348
 20
402.0415070536
 11
859.8516304348
 21
402.0415070536
  0
LINE
  5
400
100
AcDbEntity
  8
0
100
AcDbLine
 62
9
  6
CONTINUOUS
 10
1436.8516304348
 20
402.0415070536
 11
1442.8516304348
 21
402.0415070536
  0
LINE
  5
401
100
AcDbEntity
  8
0
100
AcDbLine
 62
7
  6
CONTINUOUS
 10
1442.8516304348
 20
406.4349053358
 11
859.8516304348
 21
406.4349053358
  0
LINE
  5
402
100
AcDbEntity
  8
3_ALL_AXES
100
AcDbLine
 62
7
  6
CENTER
 10
1151.3516304348
 20
511.7549053358
 11
1151.3516304348
 21
374.0741157067
  0
LINE
  5
403
100
AcDbEntity
  8
0
100
AcDbLine
 62
7
  6
CONTINUOUS
 10
859.8516304348
 20
491.4349053358
 11
1442.8516304348
 21
491.4349053358
  0
LINE
  5
404
100
AcDbEntity
  8
0
100
AcDbLine
 62
7
  6
CONTINUOUS
 10
1436.8516304348
 20
394.4349053358
 11
1436.8516304348
 21
406.4349053358
  0
LINE
  5
405
100
AcDbEntity
  8
0
100
AcDbLine
 62
7
  6
CONTINUOUS
 10
1442.8516304348
 20
394.4349053358
 11
1442.8516304348
 21
491.4349053358
  0
LINE
  5
406
100
AcDbEntity
  8
0
100
AcDbLine
 62
7
  6
CONTINUOUS
 10
859.8516304348
 20
858.7793478261
 11
1442.8516304348
 21
858.7793478261
  0
LINE
  5
407
100
AcDbEntity
  8
0
100
AcDbLine
 62
7
  6
CONTINUOUS
 10
1420.8516304348
 20
894.7793478261
 11
881.8516304348
 21
894.7793478261
  0
LINE
  5
408
100
AcDbEntity
  8
0
100
AcDbLine
 62
7
  6
CONTINUOUS
 10
859.8516304348
 20
1562.7793478261
 11
859.8516304348
 21
858.7793478261
  0
LINE
  5
409
100
AcDbEntity
  8
0
100
AcDbLine
 62
7
  6
CONTINUOUS
 10
881.8516304348
 20
1526.7793478261
 11
881.8516304348
 21
894.7793478261
  0
LINE
  5
40A
100
AcDbEntity
  8
0
100
AcDbLine
 62
7
  6
CONTINUOUS
 10
1140.3516304348
 20
1167.7793478261
 11
881.8516304348
 21
1167.7793478261
  0
LINE
  5
40B
100
AcDbEntity
  8
0
100
AcDbLine
 62
7
  6
CONTINUOUS
 10
1162.3516304348
 20
1167.7793478261
 11
1420.8516304348
 21
1167.7793478261
  0
LINE
  5
40C
100
AcDbEntity
  8
0
100
AcDbLine
 62
7
  6
CONTINUOUS
 10
1140.3516304348
 20
894.7793478261
 11
1140.3516304348
 21
1526.7793478261
  0
LINE
  5
40D
100
AcDbEntity
  8
3_ALL_AXES
100
AcDbLine
 62
7
  6
CENTER
 10
1151.3516304348
 20
838.4593478261
 11
1151.3516304348
 21
1583.0993478261
  0
LINE
  5
40E
100
AcDbEntity
  8
0
100
AcDbLine
 62
7
  6
CONTINUOUS
 10
1140.3516304348
 20
1189.7793478261
 11
881.8516304348
 21
1189.7793478261
  0
LINE
  5
40F
100
AcDbEntity
  8
0
100
AcDbLine
 62
7
  6
CONTINUOUS
 10
1162.3516304348
 20
1189.7793478261
 11
1420.8516304348
 21
1189.7793478261
  0
LINE
  5
410
100
AcDbEntity
  8
3_ALL_AXES
100
AcDbLine
 62
7
  6
CENTER
 10
1463.1716304348
 20
1208.5293478261
 11
839.5316304348
 21
1208.5293478261
  0
LINE
  5
411
100
AcDbEntity
  8
0
100
AcDbLine
 62
7
  6
CONTINUOUS
 10
1162.3516304348
 20
894.7793478261
 11
1162.3516304348
 21
1526.7793478261
  0
LINE
  5
412
100
AcDbEntity
  8
DEFAULT_3
100
AcDbLine
 62
7
  6
PHANTOM
 10
1171.3516304348
 20
743.043472
 11
1171.3516304348
 21
1654.4537815652
  0
LINE
  5
413
100
AcDbEntity
  8
0
100
AcDbLine
 62
7
  6
CONTINUOUS
 10
1420.8516304348
 20
1526.7793478261
 11
1420.8516304348
 21
894.7793478261
  0
LINE
  5
414
100
AcDbEntity
  8
0
100
AcDbLine
 62
7
  6
CONTINUOUS
 10
1442.8516304348
 20
1562.7793478261
 11
1442.8516304348
 21
858.7793478261
  0
LINE
  5
415
100
AcDbEntity
  8
0
100
AcDbLine
 62
7
  6
CONTINUOUS
 10
881.8516304348
 20
1526.7793478261
 11
1420.8516304348
 21
1526.7793478261
  0
LINE
  5
416
100
AcDbEntity
  8
0
100
AcDbLine
 62
7
  6
CONTINUOUS
 10
1442.8516304348
 20
1562.7793478261
 11
859.8516304348
 21
1562.7793478261
  0
LINE
  5
417
100
AcDbEntity
  8
0
100
AcDbLine
 62
7
  6
CONTINUOUS
 10
2361.3035933717
 20
1657.0616187356
 11
2361.3035933717
 21
1726.4547390141
  0
LINE
  5
418
100
AcDbEntity
  8
0
100
AcDbLine
 62
7
  6
CONTINUOUS
 10
2773.5468468034
 20
1418.9905371031
 11
2361.3035933717
 21
1657.0616187356
  0
LINE
  5
419
100
AcDbEntity
  8
0
100
AcDbLine
 62
7
  6
CONTINUOUS
 10
2584.0422294454
 20
1788.1407512055
 11
2584.0422294454
 21
1785.6915822545
  0
LINE
  5
41A
100
AcDbEntity
  8
0
100
AcDbLine
 62
7
  6
CONTINUOUS
 10
2597.477258288
 20
1819.5687056206
 11
2597.477258288
 21
1795.8995000066
  0
LINE
  5
41B
100
AcDbEntity
  8
0
100
AcDbLine
 62
7
  6
CONTINUOUS
 10
2571.6574531346
 20
1766.7137220301
 11
2574.5508514168
 21
1771.7252347754
  0
LINE
  5
41C
100
AcDbEntity
  8
0
100
AcDbLine
 62
7
  6
CONTINUOUS
 10
2859.106767327
 20
2013.9367998534
 11
2361.3035933717
 21
1726.4547390141
  0
LINE
  5
41D
100
AcDbEntity
  8
0
100
AcDbLine
 62
7
  6
CONTINUOUS
 10
2849.2072723904
 20
1990.2521982502
 11
2402.3157866805
 21
1732.1717118149
  0
LINE
  5
41E
100
AcDbEntity
  8
0
100
AcDbLine
 62
7
  6
CONTINUOUS
 10
2361.3035933717
 20
1726.4547390141
 11
2773.5468468034
 21
1488.3836573816
  0
LINE
  5
41F
100
AcDbEntity
  8
0
100
AcDbLine
 62
7
  6
CONTINUOUS
 10
2413.6250519038
 20
1725.6405946122
 11
2849.2072723904
 21
1977.1899638448
  0
LINE
  5
420
100
AcDbEntity
  8
0
100
AcDbLine
 62
7
  6
CONTINUOUS
 10
2861.2280876706
 20
1954.7471068301
 11
2840.014884235
 21
1942.4964508284
  0
LINE
  5
421
100
AcDbEntity
  8
0
100
AcDbLine
 62
7
  6
CONTINUOUS
 10
2597.477258288
 20
1795.8995000066
 11
2584.0422294454
 21
1788.1407512055
  0
LINE
  5
422
100
AcDbEntity
  8
0
100
AcDbLine
 62
7
  6
CONTINUOUS
 10
2783.44634174
 20
1512.0682589849
 11
2402.3157866805
 21
1732.1717118149
  0
LINE
  5
423
100
AcDbEntity
  8
0
100
AcDbLine
 62
7
  6
CONTINUOUS
 10
2872.188242779
 20
1948.4176012292
 11
2850.9750393434
 21
1936.1669452275
  0
LINE
  5
424
100
AcDbEntity
  8
0
100
AcDbLine
 62
7
  6
CONTINUOUS
 10
2451.0825496803
 20
1704.0088348766
 11
2549.2640548524
 21
1760.7087976729
  0
LINE
  5
425
100
AcDbEntity
  8
0
100
AcDbLine
 62
7
  6
CONTINUOUS
 10
2582.0508514168
 20
1779.6432206292
 11
2588.2832039042
 21
1783.2424133035
  0
LINE
  5
426
100
AcDbEntity
  8
0
100
AcDbLine
 62
7
  6
CONTINUOUS
 10
2648.369784907
 20
1817.9425016903
 11
2828.2176800305
 21
1921.8049240949
  0
LINE
  5
427
100
AcDbEntity
  8
0
100
AcDbLine
 62
7
  6
CONTINUOUS
 10
2872.188242779
 20
1936.9881461245
 11
2850.9750393434
 21
1924.7374901229
  0
LINE
  5
428
100
AcDbEntity
  8
0
100
AcDbLine
 62
7
  6
CONTINUOUS
 10
2964.764667597
 20
1525.8323833198
 11
2967.6580658792
 21
1524.1627540517
  0
LINE
  5
429
100
AcDbEntity
  8
0
100
AcDbLine
 62
7
  6
CONTINUOUS
 10
2556.7640548524
 20
1761.4533337519
 11
2559.6574531346
 21
1759.7837044839
  0
LINE
  5
42A
100
AcDbEntity
  8
0
100
AcDbLine
 62
7
  6
CONTINUOUS
 10
2773.5468468034
 20
1418.9905371031
 11
2773.5468468034
 21
1488.3836573816
  0
LINE
  5
42B
100
AcDbEntity
  8
0
100
AcDbLine
 62
7
  6
CONTINUOUS
 10
2587.2233768466
 20
1625.387308125
 11
3031.9943753271
 21
1882.2432100847
  0
LINE
  5
42C
100
AcDbEntity
  8
0
100
AcDbLine
 62
7
  6
CONTINUOUS
 10
2724.4240310705
 20
1704.620886552
 11
2584.0422294454
 21
1785.6915822545
  0
LINE
  5
42D
100
AcDbEntity
  8
0
100
AcDbLine
 62
7
  6
CONTINUOUS
 10
2793.6993900672
 20
1664.614265438
 11
2920.646995964
 21
1591.3018374118
  0
LINE
  5
42E
100
AcDbEntity
  8
0
100
AcDbLine
 62
7
  6
CONTINUOUS
 10
2960.2603836814
 20
1568.4250480829
 11
2963.6604084141
 21
1566.4615288283
  0
LINE
  5
42F
100
AcDbEntity
  8
0
100
AcDbLine
 62
7
  6
CONTINUOUS
 10
2726.5445182999
 20
1705.8454710275
 11
2584.0422294454
 21
1788.1407512055
  0
LINE
  5
430
100
AcDbEntity
  8
0
100
AcDbLine
 62
7
  6
CONTINUOUS
 10
2793.6993900672
 20
1667.063434389
 11
2922.7674831933
 21
1592.5264218873
  0
LINE
  5
431
100
AcDbEntity
  8
0
100
AcDbLine
 62
7
  6
CONTINUOUS
 10
2960.6267816411
 20
1570.6626216765
 11
2965.4154284033
 21
1567.8971711694
  0
LINE
  5
432
100
AcDbEntity
  8
0
100
AcDbLine
 62
7
  6
CONTINUOUS
 10
2739.9795471424
 20
1713.6042198285
 11
2597.477258288
 21
1795.8995000066
  0
LINE
  5
433
100
AcDbEntity
  8
0
100
AcDbLine
 62
7
  6
CONTINUOUS
 10
2807.1344189098
 20
1674.8221831901
 11
2936.2025120359
 21
1600.2851706884
  0
LINE
  5
434
100
AcDbEntity
  8
0
100
AcDbLine
 62
7
  6
CONTINUOUS
 10
2793.6993900672
 20
1716.0468134091
 11
2793.6993900672
 21
1706.2501376051
  0
LINE
  5
435
100
AcDbEntity
  8
0
100
AcDbLine
 62
7
  6
CONTINUOUS
 10
2793.6993900672
 20
1664.614265438
 11
2793.6993900672
 21
1667.063434389
  0
LINE
  5
436
100
AcDbEntity
  8
0
100
AcDbLine
 62
7
  6
CONTINUOUS
 10
2807.1344189098
 20
1698.4913888041
 11
2807.1344189098
 21
1674.8221831901
  0
LINE
  5
437
100
AcDbEntity
  8
0
100
AcDbLine
 62
7
  6
CONTINUOUS
 10
2602.7797260327
 20
1616.4034937238
 11
3047.5507245132
 21
1873.2593956835
  0
LINE
  5
438
100
AcDbEntity
  8
0
100
AcDbLine
 62
7
  6
CONTINUOUS
 10
2809.2557392534
 20
1725.0306278104
 11
2793.6993900672
 21
1716.0468134091
  0
LINE
  5
439
100
AcDbEntity
  8
0
100
AcDbLine
 62
7
  6
CONTINUOUS
 10
2760.4723139697
 20
1725.4388226355
 11
2586.873989027
 21
1825.6921091228
  0
LINE
  5
43A
100
AcDbEntity
  8
0
100
AcDbLine
 62
7
  6
CONTINUOUS
 10
2793.6993900672
 20
1706.2501376051
 11
2956.6952788632
 21
1612.1197734954
  0
LINE
  5
43B
100
AcDbEntity
  8
0
100
AcDbLine
 62
7
  6
CONTINUOUS
 10
2768.9542628872
 20
1730.3371605375
 11
2595.3559379444
 21
1830.5904470248
  0
LINE
  5
43C
100
AcDbEntity
  8
0
100
AcDbLine
 62
7
  6
CONTINUOUS
 10
2793.6993900672
 20
1716.0468134091
 11
2965.1772277807
 21
1617.0181113974
  0
LINE
  5
43D
100
AcDbEntity
  8
0
100
AcDbLine
 62
7
  6
CONTINUOUS
 10
2784.5106120733
 20
1739.3209749388
 11
2610.9122871305
 21
1839.574261426
  0
LINE
  5
43E
100
AcDbEntity
  8
0
100
AcDbLine
 62
7
  6
CONTINUOUS
 10
2809.2557392534
 20
1725.0306278104
 11
2980.7335769668
 21
1626.0019257986
  0
LINE
  5
43F
100
AcDbEntity
  8
0
100
AcDbLine
 62
7
  6
CONTINUOUS
 10
2840.014884235
 20
1942.4964508284
 11
2840.014884235
 21
1940.0472818774
  0
LINE
  5
440
100
AcDbEntity
  8
0
100
AcDbLine
 62
7
  6
CONTINUOUS
 10
2848.8537189998
 20
1934.9428418767
 11
2848.8537189998
 21
1923.513386772
  0
LINE
  5
441
100
AcDbEntity
  8
0
100
AcDbLine
 62
7
  6
CONTINUOUS
 10
2849.2072723904
 20
1990.2521982502
 11
2849.2072723904
 21
1977.1899638448
  0
LINE
  5
442
100
AcDbEntity
  8
0
100
AcDbLine
 62
7
  6
CONTINUOUS
 10
2850.9750393434
 20
1924.7374901229
 11
2850.9750393434
 21
1936.1669452275
  0
LINE
  5
443
100
AcDbEntity
  8
0
100
AcDbLine
 62
7
  6
CONTINUOUS
 10
2807.1344189098
 20
1674.8221831901
 11
2793.6993900672
 21
1667.063434389
  0
LINE
  5
444
100
AcDbEntity
  8
0
100
AcDbLine
 62
7
  6
CONTINUOUS
 10
2658.6192230727
 20
1584.1561025355
 11
2795.8198772966
 21
1663.3896809625
  0
LINE
  5
445
100
AcDbEntity
  8
0
100
AcDbLine
 62
7
  6
CONTINUOUS
 10
2855.9064582994
 20
1698.0897693493
 11
3070.8852482924
 21
1822.2403349089
  0
LINE
  5
446
100
AcDbEntity
  8
0
100
AcDbLine
 62
7
  6
CONTINUOUS
 10
2861.2280876706
 20
1970.2479254438
 11
2861.2280876706
 21
1954.7471068301
  0
LINE
  5
447
100
AcDbEntity
  8
0
100
AcDbLine
 62
7
  6
CONTINUOUS
 10
2872.188242779
 20
1936.9881461245
 11
2872.188242779
 21
1948.4176012292
  0
LINE
  5
448
100
AcDbEntity
  8
0
100
AcDbLine
 62
7
  6
CONTINUOUS
 10
3230.3378274499
 20
1770.1487454201
 11
2783.44634174
 21
1512.0682589849
  0
LINE
  5
449
100
AcDbEntity
  8
0
100
AcDbLine
 62
7
  6
CONTINUOUS
 10
3271.3500207588
 20
1775.8657182209
 11
2773.5468468034
 21
1488.3836573816
  0
LINE
  5
44A
100
AcDbEntity
  8
0
100
AcDbLine
 62
7
  6
CONTINUOUS
 10
3243.7182927751
 20
1686.9285097417
 11
3246.6116910573
 21
1685.2588804737
  0
LINE
  5
44B
100
AcDbEntity
  8
0
100
AcDbLine
 62
7
  6
CONTINUOUS
 10
2835.7176800305
 20
1922.5494601739
 11
2838.6110783127
 21
1920.8798309059
  0
LINE
  5
44C
100
AcDbEntity
  8
0
100
AcDbLine
 62
7
  6
CONTINUOUS
 10
3215.3532013865
 20
1711.8593998039
 11
3211.7464688124
 21
1713.9422931391
  0
LINE
  5
44D
100
AcDbEntity
  8
0
100
AcDbLine
 62
7
  6
CONTINUOUS
 10
3172.3786762948
 20
1736.677250881
 11
3047.5515576274
 21
1808.7650944317
  0
LINE
  5
44E
100
AcDbEntity
  8
0
100
AcDbLine
 62
7
  6
CONTINUOUS
 10
2976.1557114013
 20
1849.9963000212
 11
2848.8537189998
 21
1923.513386772
  0
LINE
  5
44F
100
AcDbEntity
  8
0
100
AcDbLine
 62
7
  6
CONTINUOUS
 10
2978.2761986307
 20
1851.2208844967
 11
2850.9750393434
 21
1924.7374901229
  0
LINE
  5
450
100
AcDbEntity
  8
0
100
AcDbLine
 62
7
  6
CONTINUOUS
 10
3049.6720448568
 20
1809.9896789072
 11
3174.4991635241
 21
1737.9018353565
  0
LINE
  5
451
100
AcDbEntity
  8
0
100
AcDbLine
 62
7
  6
CONTINUOUS
 10
3212.1700112136
 20
1716.1468657341
 11
3217.0511005313
 21
1713.3280295161
  0
LINE
  5
452
100
AcDbEntity
  8
0
100
AcDbLine
 62
7
  6
CONTINUOUS
 10
2840.014884235
 20
1940.0472818774
 11
2848.8537189998
 21
1934.9428418767
  0
LINE
  5
453
100
AcDbEntity
  8
0
100
AcDbLine
 62
7
  6
CONTINUOUS
 10
2850.9750393434
 20
1936.1669452275
 11
2840.014884235
 21
1942.4964508284
  0
LINE
  5
454
100
AcDbEntity
  8
0
100
AcDbLine
 62
7
  6
CONTINUOUS
 10
3195.7123669597
 20
1750.1524913582
 11
3070.8852482924
 21
1822.2403349089
  0
LINE
  5
455
100
AcDbEntity
  8
0
100
AcDbLine
 62
7
  6
CONTINUOUS
 10
2872.188242779
 20
1936.9881461245
 11
2999.4894020663
 21
1863.4715404983
  0
LINE
  5
456
100
AcDbEntity
  8
0
100
AcDbLine
 62
7
  6
CONTINUOUS
 10
3047.5507245132
 20
1873.2593956835
 11
3047.5507245132
 21
1862.6463302292
  0
LINE
  5
457
100
AcDbEntity
  8
0
100
AcDbLine
 62
7
  6
CONTINUOUS
 10
3070.8852482924
 20
1822.2403349089
 11
3070.8852482924
 21
1849.1706086273
  0
LINE
  5
458
100
AcDbEntity
  8
0
100
AcDbLine
 62
7
  6
CONTINUOUS
 10
2979.6580658792
 20
1531.0927715979
 11
2982.5514641614
 21
1536.1042843433
  0
LINE
  5
459
100
AcDbEntity
  8
0
100
AcDbLine
 62
7
  6
CONTINUOUS
 10
3271.3500207588
 20
1717.9020530471
 11
3269.2287004152
 21
1716.6769874469
  0
LINE
  5
45A
100
AcDbEntity
  8
0
100
AcDbLine
 62
7
  6
CONTINUOUS
 10
2773.5468468034
 20
1418.9905371031
 11
2957.264667597
 21
1525.0878472408
  0
LINE
  5
45B
100
AcDbEntity
  8
0
100
AcDbLine
 62
7
  6
CONTINUOUS
 10
2990.0514641614
 20
1544.022270197
 11
3236.2182927751
 21
1686.1839736628
  0
LINE
  5
45C
100
AcDbEntity
  8
0
100
AcDbLine
 62
7
  6
CONTINUOUS
 10
2861.2280876706
 20
1954.7471068301
 11
2872.188242779
 21
1948.4176012292
  0
LINE
  5
45D
100
AcDbEntity
  8
0
100
AcDbLine
 62
7
  6
CONTINUOUS
 10
3219.0285622267
 20
1763.6176282174
 11
3047.5507245132
 21
1862.6463302292
  0
LINE
  5
45E
100
AcDbEntity
  8
0
100
AcDbLine
 62
7
  6
CONTINUOUS
 10
2849.2072723904
 20
1977.1899638448
 11
3022.8055973332
 21
1876.9366773576
  0
LINE
  5
45F
100
AcDbEntity
  8
0
100
AcDbLine
 62
7
  6
CONTINUOUS
 10
3047.5507245132
 20
1873.2593956835
 11
3031.9943753271
 21
1882.2432100847
  0
LINE
  5
460
100
AcDbEntity
  8
0
100
AcDbLine
 62
7
  6
CONTINUOUS
 10
2849.2072723904
 20
1990.2521982502
 11
3230.3378274499
 21
1770.1487454201
  0
LINE
  5
461
100
AcDbEntity
  8
0
100
AcDbLine
 62
7
  6
CONTINUOUS
 10
3271.3500207588
 20
1775.8657182209
 11
2859.106767327
 21
2013.9367998534
  0
LINE
  5
462
100
AcDbEntity
  8
0
100
AcDbLine
 62
7
  6
CONTINUOUS
 10
3256.9446006952
 20
1689.7303077282
 11
3263.6922047668
 21
1698.2538536429
  0
LINE
  5
463
100
AcDbEntity
  8
0
100
AcDbLine
 62
7
  6
CONTINUOUS
 10
3269.2287004152
 20
1712.6820400607
 11
3269.2287004152
 21
1716.6769874469
  0
LINE
  5
464
100
AcDbEntity
  8
0
100
AcDbLine
 62
7
  6
CONTINUOUS
 10
3271.3500207588
 20
1775.8657182209
 11
3271.3500207588
 21
1717.9020530471
  0
LINE
  5
465
100
AcDbEntity
  8
0
100
AcDbLine
 62
7
  6
CONTINUOUS
 10
1929.6058555338
 20
858.7793478261
 11
1844.6058555338
 21
858.7793478261
  0
LINE
  5
466
100
AcDbEntity
  8
0
100
AcDbLine
 62
7
  6
CONTINUOUS
 10
1847.6058555338
 20
861.7793478261
 11
1926.6058555338
 21
861.7793478261
  0
LINE
  5
467
100
AcDbEntity
  8
0
100
AcDbLine
 62
7
  6
CONTINUOUS
 10
1847.6058555338
 20
891.7793478261
 11
1860.6058555338
 21
891.7793478261
  0
LINE
  5
468
100
AcDbEntity
  8
0
100
AcDbLine
 62
7
  6
CONTINUOUS
 10
1926.6058555338
 20
891.7793478261
 11
1929.6058555338
 21
891.7793478261
  0
LINE
  5
469
100
AcDbEntity
  8
0
100
AcDbLine
 62
7
  6
CONTINUOUS
 10
1860.6058555338
 20
894.7793478261
 11
1844.6058555338
 21
894.7793478261
  0
LINE
  5
46A
100
AcDbEntity
  8
3_ALL_AXES
100
AcDbLine
 62
7
  6
CENTER
 10
1879.6058555338
 20
980.2793478261
 11
1859.2857555338
 21
980.2793478261
  0
LINE
  5
46B
100
AcDbEntity
  8
3_ALL_AXES
100
AcDbLine
 62
7
  6
CENTER
 10
1879.6058555338
 20
980.2793478261
 11
1899.9259555338
 21
980.2793478261
  0
LINE
  5
46C
100
AcDbEntity
  8
0
100
AcDbLine
 62
7
  6
CONTINUOUS
 10
1933.999253816
 20
1523.7021833598
 11
1938.091136908
 21
1527.7940664518
  0
LINE
  5
46D
100
AcDbEntity
  8
3_ALL_AXES
100
AcDbLine
 62
7
  6
CENTER
 10
1879.6058555338
 20
1132.6793478261
 11
1859.2857555338
 21
1132.6793478261
  0
LINE
  5
46E
100
AcDbEntity
  8
3_ALL_AXES
100
AcDbLine
 62
7
  6
CENTER
 10
1879.6058555338
 20
1132.6793478261
 11
1899.9259555338
 21
1132.6793478261
  0
LINE
  5
46F
100
AcDbEntity
  8
0
100
AcDbLine
 62
7
  6
CONTINUOUS
 10
1844.6058555338
 20
1562.7793478261
 11
1844.6058555338
 21
858.7793478261
  0
LINE
  5
470
100
AcDbEntity
  8
0
100
AcDbLine
 62
7
  6
CONTINUOUS
 10
1847.6058555338
 20
1559.7793478261
 11
1847.6058555338
 21
1529.7793478261
  0
LINE
  5
471
100
AcDbEntity
  8
0
100
AcDbLine
 62
7
  6
CONTINUOUS
 10
1847.6058555338
 20
891.7793478261
 11
1847.6058555338
 21
861.7793478261
  0
LINE
  5
472
100
AcDbEntity
  8
0
100
AcDbLine
 62
7
  6
CONTINUOUS
 10
1847.6058555338
 20
894.7793478261
 11
1847.6058555338
 21
1526.7793478261
  0
LINE
  5
473
100
AcDbEntity
  8
0
100
AcDbLine
 62
7
  6
CONTINUOUS
 10
1860.6058555338
 20
1559.7793478261
 11
1860.6058555338
 21
1526.7793478261
  0
LINE
  5
474
100
AcDbEntity
  8
0
100
AcDbLine
 62
7
  6
CONTINUOUS
 10
1860.6058555338
 20
1189.7793478261
 11
1860.6058555338
 21
1167.7793478261
  0
LINE
  5
475
100
AcDbEntity
  8
0
100
AcDbLine
 62
7
  6
CONTINUOUS
 10
1860.6058555338
 20
894.7793478261
 11
1860.6058555338
 21
861.7793478261
  0
LINE
  5
476
100
AcDbEntity
  8
0
100
AcDbLine
 62
7
  6
CONTINUOUS
 10
1863.6058555338
 20
1170.7793478261
 11
1863.6058555338
 21
1186.7793478261
  0
LINE
  5
477
100
AcDbEntity
  8
0
100
AcDbLine
 62
7
  6
CONTINUOUS
 10
1860.6058555338
 20
1167.7793478261
 11
1872.6058555338
 21
1167.7793478261
  0
LINE
  5
478
100
AcDbEntity
  8
0
100
AcDbLine
 62
7
  6
CONTINUOUS
 10
1920.6058555338
 20
1167.7793478261
 11
1923.6058555338
 21
1167.7793478261
  0
LINE
  5
479
100
AcDbEntity
  8
0
100
AcDbLine
 62
7
  6
CONTINUOUS
 10
1872.6058555338
 20
1170.7793478261
 11
1863.6058555338
 21
1170.7793478261
  0
LINE
  5
47A
100
AcDbEntity
  8
0
100
AcDbLine
 62
7
  6
CONTINUOUS
 10
1863.6058555338
 20
1186.7793478261
 11
1920.6058555338
 21
1186.7793478261
  0
LINE
  5
47B
100
AcDbEntity
  8
0
100
AcDbLine
 62
7
  6
CONTINUOUS
 10
1923.6058555338
 20
1189.7793478261
 11
1860.6058555338
 21
1189.7793478261
  0
LINE
  5
47C
100
AcDbEntity
  8
0
100
AcDbLine
 62
7
  6
CONTINUOUS
 10
1872.6058555338
 20
1167.7793478261
 11
1872.6058555338
 21
1170.7793478261
  0
LINE
  5
47D
100
AcDbEntity
  8
3_ALL_AXES
100
AcDbLine
 62
7
  6
CENTER
 10
1879.6058555338
 20
1488.2793478261
 11
1879.6058555338
 21
1467.9592478261
  0
LINE
  5
47E
100
AcDbEntity
  8
3_ALL_AXES
100
AcDbLine
 62
7
  6
CENTER
 10
1879.6058555338
 20
1437.4793478261
 11
1879.6058555338
 21
1417.1592478261
  0
LINE
  5
47F
100
AcDbEntity
  8
3_ALL_AXES
100
AcDbLine
 62
7
  6
CENTER
 10
1879.6058555338
 20
1132.6793478261
 11
1879.6058555338
 21
1112.3592478261
  0
LINE
  5
480
100
AcDbEntity
  8
3_ALL_AXES
100
AcDbLine
 62
7
  6
CENTER
 10
1879.6058555338
 20
980.2793478261
 11
1879.6058555338
 21
959.9592478261
  0
LINE
  5
481
100
AcDbEntity
  8
3_ALL_AXES
100
AcDbLine
 62
7
  6
CENTER
 10
1879.6058555338
 20
980.2793478261
 11
1879.6058555338
 21
1000.5994478261
  0
LINE
  5
482
100
AcDbEntity
  8
3_ALL_AXES
100
AcDbLine
 62
7
  6
CENTER
 10
1879.6058555338
 20
1132.6793478261
 11
1879.6058555338
 21
1152.9994478261
  0
LINE
  5
483
100
AcDbEntity
  8
3_ALL_AXES
100
AcDbLine
 62
7
  6
CENTER
 10
1879.6058555338
 20
1437.4793478261
 11
1879.6058555338
 21
1457.7994478261
  0
LINE
  5
484
100
AcDbEntity
  8
3_ALL_AXES
100
AcDbLine
 62
7
  6
CENTER
 10
1879.6058555338
 20
1488.2793478261
 11
1879.6058555338
 21
1509.0154617052
  0
LINE
  5
485
100
AcDbEntity
  8
0
100
AcDbLine
 62
7
  6
CONTINUOUS
 10
1938.091136908
 20
1150.2646292003
 11
1933.999253816
 21
1154.3565122924
  0
LINE
  5
486
100
AcDbEntity
  8
0
100
AcDbLine
 62
7
  6
CONTINUOUS
 10
1920.6058555338
 20
1186.7793478261
 11
1920.6058555338
 21
1167.7793478261
  0
LINE
  5
487
100
AcDbEntity
  8
0
100
AcDbLine
 62
7
  6
CONTINUOUS
 10
1923.6058555338
 20
1167.7793478261
 11
1923.6058555338
 21
1189.7793478261
  0
LINE
  5
488
100
AcDbEntity
  8
0
100
AcDbLine
 62
7
  6
CONTINUOUS
 10
1926.6058555338
 20
861.7793478261
 11
1926.6058555338
 21
1559.7793478261
  0
LINE
  5
489
100
AcDbEntity
  8
0
100
AcDbLine
 62
7
  6
CONTINUOUS
 10
1929.6058555338
 20
858.7793478261
 11
1929.6058555338
 21
1118.595581642
  0
LINE
  5
48A
100
AcDbEntity
  8
0
100
AcDbLine
 62
7
  6
CONTINUOUS
 10
1929.6058555338
 20
1164.9631140102
 11
1929.6058555338
 21
1513.095581642
  0
LINE
  5
48B
100
AcDbEntity
  8
0
100
AcDbLine
 62
7
  6
CONTINUOUS
 10
1929.6058555338
 20
1529.7793478261
 11
1929.6058555338
 21
1562.7793478261
  0
LINE
  5
48C
100
AcDbEntity
  8
0
100
AcDbLine
 62
7
  6
CONTINUOUS
 10
1933.999253816
 20
1129.2021833598
 11
1938.091136908
 21
1133.2940664518
  0
LINE
  5
48D
100
AcDbEntity
  8
0
100
AcDbLine
 62
7
  6
CONTINUOUS
 10
1939.9234031173
 20
1542.4070074006
 11
1934.2560178249
 21
1551.949560592
  0
LINE
  5
48E
100
AcDbEntity
  8
3_ALL_AXES
100
AcDbLine
 62
7
  6
CENTER
 10
1879.6058555338
 20
1437.4793478261
 11
1859.2857555338
 21
1437.4793478261
  0
LINE
  5
48F
100
AcDbEntity
  8
3_ALL_AXES
100
AcDbLine
 62
7
  6
CENTER
 10
1879.6058555338
 20
1437.4793478261
 11
1899.9259555338
 21
1437.4793478261
  0
LINE
  5
490
100
AcDbEntity
  8
3_ALL_AXES
100
AcDbLine
 62
7
  6
CENTER
 10
1879.6058555338
 20
1488.2793478261
 11
1859.2857555338
 21
1488.2793478261
  0
LINE
  5
491
100
AcDbEntity
  8
3_ALL_AXES
100
AcDbLine
 62
7
  6
CENTER
 10
1879.6058555338
 20
1488.2793478261
 11
1899.9259555338
 21
1488.2793478261
  0
LINE
  5
492
100
AcDbEntity
  8
0
100
AcDbLine
 62
7
  6
CONTINUOUS
 10
1844.6058555338
 20
1526.7793478261
 11
1860.6058555338
 21
1526.7793478261
  0
LINE
  5
493
100
AcDbEntity
  8
0
100
AcDbLine
 62
7
  6
CONTINUOUS
 10
1860.6058555338
 20
1529.7793478261
 11
1847.6058555338
 21
1529.7793478261
  0
LINE
  5
494
100
AcDbEntity
  8
0
100
AcDbLine
 62
7
  6
CONTINUOUS
 10
1926.6058555338
 20
1529.7793478261
 11
1929.6058555338
 21
1529.7793478261
  0
LINE
  5
495
100
AcDbEntity
  8
0
100
AcDbLine
 62
7
  6
CONTINUOUS
 10
1926.6058555338
 20
1559.7793478261
 11
1847.6058555338
 21
1559.7793478261
  0
LINE
  5
496
100
AcDbEntity
  8
0
100
AcDbLine
 62
7
  6
CONTINUOUS
 10
1844.6058555338
 20
1562.7793478261
 11
1929.6058555338
 21
1562.7793478261
  0
LWPOLYLINE
  5
497
100
AcDbEntity
  8
0
100
AcDbPolyline
 62
2
  6
CONTINUOUS
 90
5
 70
0
 10
1988.3493090203
 20
1578.1768452547
 10
2020.7782160835
 20
1578.1768452547
 10
2020.7782160835
 20
1614.7528452547
 10
1988.3493090203
 20
1614.7528452547
 10
1988.3493090203
 20
1578.1768452547
  0
LINE
  5
498
100
AcDbEntity
  8
0
100
AcDbLine
 62
7
  6
CONTINUOUS
 10
287.3724053358
 20
858.7793478261
 11
372.3724053358
 21
858.7793478261
  0
LINE
  5
499
100
AcDbEntity
  8
3_ALL_AXES
100
AcDbLine
 62
7
  6
CENTER
 10
337.3724053358
 20
980.2793478261
 11
317.0523053358
 21
980.2793478261
  0
LINE
  5
49A
100
AcDbEntity
  8
3_ALL_AXES
100
AcDbLine
 62
7
  6
CENTER
 10
337.3724053358
 20
980.2793478261
 11
357.6925053358
 21
980.2793478261
  0
LINE
  5
49B
100
AcDbEntity
  8
0
100
AcDbLine
 62
7
  6
CONTINUOUS
 10
277.0548577522
 20
1542.4070074006
 11
282.7222430446
 21
1551.949560592
  0
LINE
  5
49C
100
AcDbEntity
  8
3_ALL_AXES
100
AcDbLine
 62
7
  6
CENTER
 10
337.3724053358
 20
1132.6793478261
 11
317.0523053358
 21
1132.6793478261
  0
LINE
  5
49D
100
AcDbEntity
  8
3_ALL_AXES
100
AcDbLine
 62
7
  6
CENTER
 10
337.3724053358
 20
1132.6793478261
 11
357.6925053358
 21
1132.6793478261
  0
LINE
  5
49E
100
AcDbEntity
  8
0
100
AcDbLine
 62
7
  6
CONTINUOUS
 10
282.9790070536
 20
1129.2021833598
 11
278.8871239616
 21
1133.2940664518
  0
LINE
  5
49F
100
AcDbEntity
  8
0
100
AcDbLine
 62
7
  6
CONTINUOUS
 10
287.3724053358
 20
1562.7793478261
 11
287.3724053358
 21
1556.7845572047
  0
LINE
  5
4A0
100
AcDbEntity
  8
0
100
AcDbLine
 62
7
  6
CONTINUOUS
 10
287.3724053358
 20
1540.5293478261
 11
287.3724053358
 21
1532.0293478261
  0
LINE
  5
4A1
100
AcDbEntity
  8
0
100
AcDbLine
 62
7
  6
CONTINUOUS
 10
287.3724053358
 20
858.7793478261
 11
287.3724053358
 21
1118.595581642
  0
LINE
  5
4A2
100
AcDbEntity
  8
0
100
AcDbLine
 62
7
  6
CONTINUOUS
 10
287.3724053358
 20
1164.9631140102
 11
287.3724053358
 21
1513.095581642
  0
LINE
  5
4A3
100
AcDbEntity
  8
0
100
AcDbLine
 62
7
  6
CONTINUOUS
 10
290.3724053358
 20
1138.8432308374
 11
290.3724053358
 21
1144.7154648148
  0
LINE
  5
4A4
100
AcDbEntity
  8
0
100
AcDbLine
 62
7
  6
CONTINUOUS
 10
301.3724053358
 20
1562.7793478261
 11
301.3724053358
 21
1559.7793478261
  0
LINE
  5
4A5
100
AcDbEntity
  8
3_ALL_AXES
100
AcDbLine
 62
7
  6
CENTER
 10
343.0828762125
 20
1208.5293478261
 11
319.6419097714
 21
1208.5293478261
  0
LINE
  5
4A6
100
AcDbEntity
  8
3_ALL_AXES
100
AcDbLine
 62
7
  6
CENTER
 10
331.3524053358
 20
1194.6341722147
 11
331.3524053358
 21
1220.8276770495
  0
LINE
  5
4A7
100
AcDbEntity
  8
3_ALL_AXES
100
AcDbLine
 62
7
  6
CENTER
 10
337.3724053358
 20
1488.2793478261
 11
337.3724053358
 21
1467.9592478261
  0
LINE
  5
4A8
100
AcDbEntity
  8
3_ALL_AXES
100
AcDbLine
 62
7
  6
CENTER
 10
337.3724053358
 20
1437.4793478261
 11
337.3724053358
 21
1417.1592478261
  0
LINE
  5
4A9
100
AcDbEntity
  8
3_ALL_AXES
100
AcDbLine
 62
7
  6
CENTER
 10
337.3724053358
 20
1132.6793478261
 11
337.3724053358
 21
1112.3592478261
  0
LINE
  5
4AA
100
AcDbEntity
  8
3_ALL_AXES
100
AcDbLine
 62
7
  6
CENTER
 10
337.3724053358
 20
980.2793478261
 11
337.3724053358
 21
959.9592478261
  0
LINE
  5
4AB
100
AcDbEntity
  8
3_ALL_AXES
100
AcDbLine
 62
7
  6
CENTER
 10
337.3724053358
 20
980.2793478261
 11
337.3724053358
 21
1000.5994478261
  0
LINE
  5
4AC
100
AcDbEntity
  8
3_ALL_AXES
100
AcDbLine
 62
7
  6
CENTER
 10
337.3724053358
 20
1132.6793478261
 11
337.3724053358
 21
1152.9994478261
  0
LINE
  5
4AD
100
AcDbEntity
  8
3_ALL_AXES
100
AcDbLine
 62
7
  6
CENTER
 10
337.3724053358
 20
1437.4793478261
 11
337.3724053358
 21
1457.7994478261
  0
LINE
  5
4AE
100
AcDbEntity
  8
3_ALL_AXES
100
AcDbLine
 62
7
  6
CENTER
 10
337.3724053358
 20
1488.2793478261
 11
337.3724053358
 21
1507.9149325286
  0
LINE
  5
4AF
100
AcDbEntity
  8
0
100
AcDbLine
 62
7
  6
CONTINUOUS
 10
278.8871239616
 20
1150.2646292003
 11
282.9790070536
 21
1154.3565122924
  0
LINE
  5
4B0
100
AcDbEntity
  8
0
100
AcDbLine
 62
7
  6
CONTINUOUS
 10
372.3724053358
 20
1562.7793478261
 11
372.3724053358
 21
858.7793478261
  0
LINE
  5
4B1
100
AcDbEntity
  8
0
100
AcDbLine
 62
7
  6
CONTINUOUS
 10
282.9790070536
 20
1523.7021833598
 11
278.8871239616
 21
1527.7940664518
  0
LINE
  5
4B2
100
AcDbEntity
  8
3_ALL_AXES
100
AcDbLine
 62
7
  6
CENTER
 10
337.3724053358
 20
1437.4793478261
 11
317.0523053358
 21
1437.4793478261
  0
LINE
  5
4B3
100
AcDbEntity
  8
3_ALL_AXES
100
AcDbLine
 62
7
  6
CENTER
 10
337.3724053358
 20
1437.4793478261
 11
357.6925053358
 21
1437.4793478261
  0
LINE
  5
4B4
100
AcDbEntity
  8
3_ALL_AXES
100
AcDbLine
 62
7
  6
CENTER
 10
337.3724053358
 20
1488.2793478261
 11
317.0523053358
 21
1488.2793478261
  0
LINE
  5
4B5
100
AcDbEntity
  8
3_ALL_AXES
100
AcDbLine
 62
7
  6
CENTER
 10
337.3724053358
 20
1488.2793478261
 11
357.6925053358
 21
1488.2793478261
  0
LINE
  5
4B6
100
AcDbEntity
  8
0
100
AcDbLine
 62
7
  6
CONTINUOUS
 10
296.4789731561
 20
1559.7793478261
 11
301.3724053358
 21
1559.7793478261
  0
LINE
  5
4B7
100
AcDbEntity
  8
0
100
AcDbLine
 62
7
  6
CONTINUOUS
 10
287.3724053358
 20
1562.7793478261
 11
372.3724053358
 21
1562.7793478261
  0
LWPOLYLINE
  5
4B8
100
AcDbEntity
  8
0
100
AcDbPolyline
 62
7
  6
CONTINUOUS
 90
2
 70
1
 43
2.0
 10
1443.4478402067
 20
75.2374220958
 42
1.0
 10
1463.7678402067
 20
75.2374220958
 42
1.0
  0
LWPOLYLINE
  5
4B9
100
AcDbEntity
  8
0
100
AcDbPolyline
 62
7
  6
CONTINUOUS
 90
2
 70
1
 43
2.0
 10
1448.5278402067
 20
75.2374220958
 42
1.0
 10
1458.6878402067
 20
75.2374220958
 42
1.0
  0
ARC
  5
4BA
100
AcDbEntity
  8
0
100
AcDbCircle
 62
7
  6
CONTINUOUS
 10
2834.2356408856
 20
1936.9848973029
 40
18.753008257
100
AcDbArc
 50
317.3314002085
 51
321.2529161497
  0
ARC
  5
4BB
100
AcDbEntity
  8
0
100
AcDbCircle
 62
7
  6
CONTINUOUS
 10
2815.9993532799
 20
1487.6125666575
 40
5.6190680703
100
AcDbArc
 50
279.2532456569
 51
284.3831652672
  0
ARC
  5
4BC
100
AcDbEntity
  8
0
100
AcDbCircle
 62
7
  6
CONTINUOUS
 10
2851.9203777641
 20
1508.3570108205
 40
5.6190680705
100
AcDbArc
 50
279.253245657
 51
284.3831652672
  0
ARC
  5
4BD
100
AcDbEntity
  8
0
100
AcDbCircle
 62
7
  6
CONTINUOUS
 10
2887.8414022483
 20
1529.1014549835
 40
5.6190680706
100
AcDbArc
 50
279.253245657
 51
284.383165267
  0
ARC
  5
4BE
100
AcDbEntity
  8
0
100
AcDbCircle
 62
7
  6
CONTINUOUS
 10
2923.7624267326
 20
1549.8458991462
 40
5.6190680705
100
AcDbArc
 50
279.253245657
 51
284.3831652672
  0
ARC
  5
4BF
100
AcDbEntity
  8
0
100
AcDbCircle
 62
7
  6
CONTINUOUS
 10
2959.6834512169
 20
1570.5903433093
 40
5.6190680707
100
AcDbArc
 50
279.2532456571
 51
284.383165267
  0
ARC
  5
4C0
100
AcDbEntity
  8
0
100
AcDbCircle
 62
7
  6
CONTINUOUS
 10
3031.5255001854
 20
1612.0792316349
 40
5.6190680707
100
AcDbArc
 50
279.2532456571
 51
284.383165267
  0
ARC
  5
4C1
100
AcDbEntity
  8
0
100
AcDbCircle
 62
7
  6
CONTINUOUS
 10
3067.4465246697
 20
1632.8236757978
 40
5.6190680707
100
AcDbArc
 50
279.2532456571
 51
284.383165267
  0
ARC
  5
4C2
100
AcDbEntity
  8
0
100
AcDbCircle
 62
7
  6
CONTINUOUS
 10
3103.367549154
 20
1653.5681199604
 40
5.6190680705
100
AcDbArc
 50
279.253245657
 51
284.3831652672
  0
ARC
  5
4C3
100
AcDbEntity
  8
0
100
AcDbCircle
 62
7
  6
CONTINUOUS
 10
3139.2885736383
 20
1674.312564123
 40
5.6190680703
100
AcDbArc
 50
279.2532456569
 51
284.3831652672
  0
ARC
  5
4C4
100
AcDbEntity
  8
0
100
AcDbCircle
 62
7
  6
CONTINUOUS
 10
3175.2095981226
 20
1695.0570082859
 40
5.6190680704
100
AcDbArc
 50
279.2532456569
 51
284.3831652672
  0
ARC
  5
4C5
100
AcDbEntity
  8
0
100
AcDbCircle
 62
7
  6
CONTINUOUS
 10
3211.1306226069
 20
1715.8014524486
 40
5.6190680702
100
AcDbArc
 50
279.2532456567
 51
284.3831652671
  0
ARC
  5
4C6
100
AcDbEntity
  8
0
100
AcDbCircle
 62
7
  6
CONTINUOUS
 10
2443.9197650194
 20
1743.9779612528
 40
5.6190680705
100
AcDbArc
 50
279.253245657
 51
284.3831652671
  0
ARC
  5
4C7
100
AcDbEntity
  8
0
100
AcDbCircle
 62
7
  6
CONTINUOUS
 10
2479.8407895037
 20
1764.7224054158
 40
5.6190680707
100
AcDbArc
 50
279.2532456571
 51
284.383165267
  0
ARC
  5
4C8
100
AcDbEntity
  8
0
100
AcDbCircle
 62
7
  6
CONTINUOUS
 10
2515.761813988
 20
1785.4668495785
 40
5.6190680706
100
AcDbArc
 50
279.253245657
 51
284.383165267
  0
ARC
  5
4C9
100
AcDbEntity
  8
0
100
AcDbCircle
 62
7
  6
CONTINUOUS
 10
2551.6828384723
 20
1806.2112937412
 40
5.6190680704
100
AcDbArc
 50
279.253245657
 51
284.3831652672
  0
ARC
  5
4CA
100
AcDbEntity
  8
0
100
AcDbCircle
 62
7
  6
CONTINUOUS
 10
2623.5248874409
 20
1847.7001820668
 40
5.6190680704
100
AcDbArc
 50
279.2532456569
 51
284.3831652672
  0
ARC
  5
4CB
100
AcDbEntity
  8
0
100
AcDbCircle
 62
7
  6
CONTINUOUS
 10
2659.4459119251
 20
1868.4446262297
 40
5.6190680704
100
AcDbArc
 50
279.253245657
 51
284.3831652672
  0
ARC
  5
4CC
100
AcDbEntity
  8
0
100
AcDbCircle
 62
7
  6
CONTINUOUS
 10
2695.3669364094
 20
1889.1890703926
 40
5.6190680705
100
AcDbArc
 50
279.253245657
 51
284.3831652672
  0
ARC
  5
4CD
100
AcDbEntity
  8
0
100
AcDbCircle
 62
7
  6
CONTINUOUS
 10
2731.2879608937
 20
1909.9335145553
 40
5.6190680704
100
AcDbArc
 50
279.2532456569
 51
284.3831652671
  0
ARC
  5
4CE
100
AcDbEntity
  8
0
100
AcDbCircle
 62
7
  6
CONTINUOUS
 10
2767.208985378
 20
1930.677958718
 40
5.6190680703
100
AcDbArc
 50
279.2532456569
 51
284.3831652673
  0
ARC
  5
4CF
100
AcDbEntity
  8
0
100
AcDbCircle
 62
7
  6
CONTINUOUS
 10
2803.1300098623
 20
1951.4224028808
 40
5.6190680702
100
AcDbArc
 50
279.2532456568
 51
284.3831652672
  0
ARC
  5
4D0
100
AcDbEntity
  8
0
100
AcDbCircle
 62
7
  6
CONTINUOUS
 10
1920.4992877135
 20
1543.7793478261
 40
16.0
100
AcDbArc
 50
30.7063558001
 51
54.9993432038
  0
ARC
  5
4D1
100
AcDbEntity
  8
0
100
AcDbCircle
 62
7
  6
CONTINUOUS
 10
1944.6058555338
 20
1118.595581642
 40
15.0
100
AcDbArc
 50
135.0
 51
180.0
  0
ARC
  5
4D2
100
AcDbEntity
  8
0
100
AcDbCircle
 62
7
  6
CONTINUOUS
 10
1944.6058555338
 20
1164.9631140102
 40
15.0
100
AcDbArc
 50
180.0
 51
225.0
  0
ARC
  5
4D3
100
AcDbEntity
  8
0
100
AcDbCircle
 62
7
  6
CONTINUOUS
 10
1944.6058555338
 20
1513.095581642
 40
15.0
100
AcDbArc
 50
135.0
 51
180.0
  0
ARC
  5
4D4
100
AcDbEntity
  8
0
100
AcDbCircle
 62
7
  6
CONTINUOUS
 10
1929.6058555338
 20
1141.7793478261
 40
12.0
100
AcDbArc
 50
315.0
 51
45.0
  0
ARC
  5
4D5
100
AcDbEntity
  8
0
100
AcDbCircle
 62
7
  6
CONTINUOUS
 10
1929.6058555338
 20
1536.2793478261
 40
12.0
100
AcDbArc
 50
315.0
 51
30.7063558001
  0
CIRCLE
  5
4D6
100
AcDbEntity
  8
0
100
AcDbCircle
 62
7
  6
CONTINUOUS
 10
1879.6058555338
 20
929.4793478261
 40
10.0
  0
CIRCLE
  5
4D7
100
AcDbEntity
  8
0
100
AcDbCircle
 62
7
  6
CONTINUOUS
 10
1879.6058555338
 20
980.2793478261
 40
10.0
  0
CIRCLE
  5
4D8
100
AcDbEntity
  8
0
100
AcDbCircle
 62
7
  6
CONTINUOUS
 10
1879.6058555338
 20
1031.0793478261
 40
10.0
  0
CIRCLE
  5
4D9
100
AcDbEntity
  8
0
100
AcDbCircle
 62
7
  6
CONTINUOUS
 10
1879.6058555338
 20
1081.8793478261
 40
10.0
  0
CIRCLE
  5
4DA
100
AcDbEntity
  8
0
100
AcDbCircle
 62
7
  6
CONTINUOUS
 10
1879.6058555338
 20
1132.6793478261
 40
10.0
  0
CIRCLE
  5
4DB
100
AcDbEntity
  8
0
100
AcDbCircle
 62
7
  6
CONTINUOUS
 10
1879.6058555338
 20
1234.2793478261
 40
10.0
  0
CIRCLE
  5
4DC
100
AcDbEntity
  8
0
100
AcDbCircle
 62
7
  6
CONTINUOUS
 10
1879.6058555338
 20
1285.0793478261
 40
10.0
  0
CIRCLE
  5
4DD
100
AcDbEntity
  8
0
100
AcDbCircle
 62
7
  6
CONTINUOUS
 10
1879.6058555338
 20
1335.8793478261
 40
10.0
  0
CIRCLE
  5
4DE
100
AcDbEntity
  8
0
100
AcDbCircle
 62
7
  6
CONTINUOUS
 10
1879.6058555338
 20
1386.6793478261
 40
10.0
  0
CIRCLE
  5
4DF
100
AcDbEntity
  8
0
100
AcDbCircle
 62
7
  6
CONTINUOUS
 10
1879.6058555338
 20
1437.4793478261
 40
10.0
  0
CIRCLE
  5
4E0
100
AcDbEntity
  8
0
100
AcDbCircle
 62
7
  6
CONTINUOUS
 10
1879.6058555338
 20
1488.2793478261
 40
10.0
  0
ARC
  5
4E1
100
AcDbEntity
  8
0
100
AcDbCircle
 62
7
  6
CONTINUOUS
 10
1929.6058555338
 20
1141.7793478261
 40
4.25
100
AcDbArc
 50
224.383420906
 51
135.616579094
  0
ARC
  5
4E2
100
AcDbEntity
  8
0
100
AcDbCircle
 62
7
  6
CONTINUOUS
 10
1929.6058555338
 20
1536.2793478261
 40
4.25
100
AcDbArc
 50
270.0
 51
90.0
  0
ARC
  5
4E3
100
AcDbEntity
  8
0
100
AcDbCircle
 62
7
  6
CONTINUOUS
 10
272.3724053358
 20
1118.595581642
 40
15.0
100
AcDbArc
 50
0.0
 51
45.0
  0
ARC
  5
4E4
100
AcDbEntity
  8
0
100
AcDbCircle
 62
7
  6
CONTINUOUS
 10
272.3724053358
 20
1164.9631140102
 40
15.0
100
AcDbArc
 50
315.0
 51
360.0
  0
ARC
  5
4E5
100
AcDbEntity
  8
0
100
AcDbCircle
 62
7
  6
CONTINUOUS
 10
287.3724053358
 20
1141.7793478261
 40
12.0
100
AcDbArc
 50
135.0
 51
225.0
  0
CIRCLE
  5
4E6
100
AcDbEntity
  8
0
100
AcDbCircle
 62
7
  6
CONTINUOUS
 10
303.3724053358
 20
907.7793478261
 40
4.25
  0
CIRCLE
  5
4E7
100
AcDbEntity
  8
0
100
AcDbCircle
 62
7
  6
CONTINUOUS
 10
287.3724053358
 20
1141.7793478261
 40
4.25
  0
ARC
  5
4E8
100
AcDbEntity
  8
0
100
AcDbCircle
 62
7
  6
CONTINUOUS
 10
296.4789731561
 20
1543.7793478261
 40
16.0
100
AcDbArc
 50
90.0
 51
149.2936441999
  0
ARC
  5
4E9
100
AcDbEntity
  8
0
100
AcDbCircle
 62
7
  6
CONTINUOUS
 10
272.3724053358
 20
1513.095581642
 40
15.0
100
AcDbArc
 50
0.0
 51
45.0
  0
ARC
  5
4EA
100
AcDbEntity
  8
0
100
AcDbCircle
 62
7
  6
CONTINUOUS
 10
287.3724053358
 20
1536.2793478261
 40
12.0
100
AcDbArc
 50
149.2936441999
 51
225.0
  0
CIRCLE
  5
4EB
100
AcDbEntity
  8
0
100
AcDbCircle
 62
7
  6
CONTINUOUS
 10
303.3724053358
 20
1235.7793478261
 40
4.25
  0
CIRCLE
  5
4EC
100
AcDbEntity
  8
0
100
AcDbCircle
 62
7
  6
CONTINUOUS
 10
287.3724053358
 20
1536.2793478261
 40
4.25
  0
CIRCLE
  5
4ED
100
AcDbEntity
  8
0
100
AcDbCircle
 62
7
  6
CONTINUOUS
 10
337.3724053358
 20
929.4793478261
 40
10.0
  0
CIRCLE
  5
4EE
100
AcDbEntity
  8
0
100
AcDbCircle
 62
7
  6
CONTINUOUS
 10
337.3724053358
 20
980.2793478261
 40
10.0
  0
CIRCLE
  5
4EF
100
AcDbEntity
  8
0
100
AcDbCircle
 62
7
  6
CONTINUOUS
 10
337.3724053358
 20
1031.0793478261
 40
10.0
  0
CIRCLE
  5
4F0
100
AcDbEntity
  8
0
100
AcDbCircle
 62
7
  6
CONTINUOUS
 10
337.3724053358
 20
1081.8793478261
 40
10.0
  0
CIRCLE
  5
4F1
100
AcDbEntity
  8
0
100
AcDbCircle
 62
7
  6
CONTINUOUS
 10
337.3724053358
 20
1132.6793478261
 40
10.0
  0
CIRCLE
  5
4F2
100
AcDbEntity
  8
0
100
AcDbCircle
 62
7
  6
CONTINUOUS
 10
310.8024053358
 20
1208.7793478261
 40
4.25
  0
CIRCLE
  5
4F3
100
AcDbEntity
  8
0
100
AcDbCircle
 62
7
  6
CONTINUOUS
 10
337.3724053358
 20
1234.2793478261
 40
10.0
  0
CIRCLE
  5
4F4
100
AcDbEntity
  8
0
100
AcDbCircle
 62
7
  6
CONTINUOUS
 10
337.3724053358
 20
1285.0793478261
 40
10.0
  0
CIRCLE
  5
4F5
100
AcDbEntity
  8
0
100
AcDbCircle
 62
7
  6
CONTINUOUS
 10
337.3724053358
 20
1335.8793478261
 40
10.0
  0
CIRCLE
  5
4F6
100
AcDbEntity
  8
0
100
AcDbCircle
 62
7
  6
CONTINUOUS
 10
337.3724053358
 20
1386.6793478261
 40
10.0
  0
CIRCLE
  5
4F7
100
AcDbEntity
  8
0
100
AcDbCircle
 62
7
  6
CONTINUOUS
 10
337.3724053358
 20
1437.4793478261
 40
10.0
  0
CIRCLE
  5
4F8
100
AcDbEntity
  8
0
100
AcDbCircle
 62
7
  6
CONTINUOUS
 10
337.3724053358
 20
1488.2793478261
 40
10.0
  0
CIRCLE
  5
4F9
100
AcDbEntity
  8
0
100
AcDbCircle
 62
7
  6
CONTINUOUS
 10
310.8024053358
 20
1469.2793478261
 40
4.25
  0
SPLINE
  5
4FA
100
AcDbEntity
  8
0
100
AcDbSpline
 62
7
  6
CONTINUOUS
 70
0
 71
3
 72
10
 73
6
 74
0
 42
0.0000001
 43
0.0000001
 44
0.0000000001
 40
0.0
 40
0.0
 40
0.0
 40
0.0
 40
0.219864123
 40
0.4829001352
 40
1.0
 40
1.0
 40
1.0
 40
1.0
 10
2817.3951594901
 20
1482.1696215906
 30
0.0
 10
2818.5741018627
 20
1482.4707755594
 30
0.0
 10
2820.9632847057
 20
1483.8800370538
 30
0.0
 10
2824.6319323052
 20
1488.026386022
 30
0.0
 10
2826.3677233581
 20
1492.3526189041
 30
0.0
 10
2826.3677233581
 20
1495.2144154647
 30
0.0
  0
SPLINE
  5
4FB
100
AcDbEntity
  8
0
100
AcDbSpline
 62
7
  6
CONTINUOUS
 70
0
 71
3
 72
12
 73
8
 74
0
 42
0.0000001
 43
0.0000001
 44
0.0000000001
 40
0.0
 40
0.0
 40
0.0
 40
0.0
 40
0.1832718055
 40
0.3014702264
 40
0.4362080395
 40
0.7289494925
 40
1.0
 40
1.0
 40
1.0
 40
1.0
 10
2828.5400888788
 20
1497.3401102126
 30
0.0
 10
2827.4942453495
 20
1497.9441465493
 30
0.0
 10
2825.2037133199
 20
1497.8270045508
 30
0.0
 10
2822.7133591544
 20
1496.4157598251
 30
0.0
 10
2819.9859625373
 20
1494.0201660394
 30
0.0
 10
2817.4532045302
 20
1490.0857600532
 30
0.0
 10
2816.4682284215
 20
1486.3833795179
 30
0.0
 10
2816.4682284215
 20
1484.5971802633
 30
0.0
  0
SPLINE
  5
4FC
100
AcDbEntity
  8
0
100
AcDbSpline
 62
7
  6
CONTINUOUS
 70
0
 71
3
 72
10
 73
6
 74
0
 42
0.0000001
 43
0.0000001
 44
0.0000000001
 40
0.0
 40
0.0
 40
0.0
 40
0.0
 40
0.219864123
 40
0.4829001352
 40
1.0
 40
1.0
 40
1.0
 40
1.0
 10
2853.3161839744
 20
1502.9140657534
 30
0.0
 10
2854.4951263469
 20
1503.2152197223
 30
0.0
 10
2856.88430919
 20
1504.6244812166
 30
0.0
 10
2860.5529567894
 20
1508.7708301849
 30
0.0
 10
2862.2887478423
 20
1513.0970630669
 30
0.0
 10
2862.2887478423
 20
1515.9588596276
 30
0.0
  0
SPLINE
  5
4FD
100
AcDbEntity
  8
0
100
AcDbSpline
 62
7
  6
CONTINUOUS
 70
0
 71
3
 72
12
 73
8
 74
0
 42
0.0000001
 43
0.0000001
 44
0.0000000001
 40
0.0
 40
0.0
 40
0.0
 40
0.0
 40
0.1832718055
 40
0.3014702264
 40
0.4362080395
 40
0.7289494925
 40
1.0
 40
1.0
 40
1.0
 40
1.0
 10
2864.4611133631
 20
1518.0845543754
 30
0.0
 10
2863.4152698338
 20
1518.6885907121
 30
0.0
 10
2861.1247378041
 20
1518.5714487137
 30
0.0
 10
2858.6343836387
 20
1517.1602039879
 30
0.0
 10
2855.9069870216
 20
1514.7646102022
 30
0.0
 10
2853.3742290144
 20
1510.830204216
 30
0.0
 10
2852.3892529057
 20
1507.1278236807
 30
0.0
 10
2852.3892529057
 20
1505.3416244261
 30
0.0
  0
SPLINE
  5
4FE
100
AcDbEntity
  8
0
100
AcDbSpline
 62
7
  6
CONTINUOUS
 70
0
 71
3
 72
10
 73
6
 74
0
 42
0.0000001
 43
0.0000001
 44
0.0000000001
 40
0.0
 40
0.0
 40
0.0
 40
0.0
 40
0.219864123
 40
0.4829001352
 40
1.0
 40
1.0
 40
1.0
 40
1.0
 10
2889.2372084587
 20
1523.6585099162
 30
0.0
 10
2890.4161508312
 20
1523.9596638851
 30
0.0
 10
2892.8053336742
 20
1525.3689253794
 30
0.0
 10
2896.4739812737
 20
1529.5152743477
 30
0.0
 10
2898.2097723266
 20
1533.8415072298
 30
0.0
 10
2898.2097723266
 20
1536.7033037904
 30
0.0
  0
SPLINE
  5
4FF
100
AcDbEntity
  8
0
100
AcDbSpline
 62
7
  6
CONTINUOUS
 70
0
 71
3
 72
12
 73
8
 74
0
 42
0.0000001
 43
0.0000001
 44
0.0000000001
 40
0.0
 40
0.0
 40
0.0
 40
0.0
 40
0.1832718055
 40
0.3014702264
 40
0.4362080395
 40
0.7289494925
 40
1.0
 40
1.0
 40
1.0
 40
1.0
 10
2900.3821378474
 20
1538.8289985383
 30
0.0
 10
2899.3362943181
 20
1539.4330348749
 30
0.0
 10
2897.0457622884
 20
1539.3158928765
 30
0.0
 10
2894.555408123
 20
1537.9046481508
 30
0.0
 10
2891.8280115059
 20
1535.5090543651
 30
0.0
 10
2889.2952534987
 20
1531.5746483788
 30
0.0
 10
2888.31027739
 20
1527.8722678436
 30
0.0
 10
2888.31027739
 20
1526.0860685889
 30
0.0
  0
SPLINE
  5
500
100
AcDbEntity
  8
0
100
AcDbSpline
 62
7
  6
CONTINUOUS
 70
0
 71
3
 72
10
 73
6
 74
0
 42
0.0000001
 43
0.0000001
 44
0.0000000001
 40
0.0
 40
0.0
 40
0.0
 40
0.0
 40
0.219864123
 40
0.4829001352
 40
1.0
 40
1.0
 40
1.0
 40
1.0
 10
2925.158232943
 20
1544.4029540791
 30
0.0
 10
2926.3371753155
 20
1544.7041080479
 30
0.0
 10
2928.7263581585
 20
1546.1133695422
 30
0.0
 10
2932.395005758
 20
1550.2597185105
 30
0.0
 10
2934.1307968109
 20
1554.5859513926
 30
0.0
 10
2934.1307968109
 20
1557.4477479532
 30
0.0
  0
SPLINE
  5
501
100
AcDbEntity
  8
0
100
AcDbSpline
 62
7
  6
CONTINUOUS
 70
0
 71
3
 72
12
 73
8
 74
0
 42
0.0000001
 43
0.0000001
 44
0.0000000001
 40
0.0
 40
0.0
 40
0.0
 40
0.0
 40
0.1832718055
 40
0.3014702264
 40
0.4362080395
 40
0.7289494925
 40
1.0
 40
1.0
 40
1.0
 40
1.0
 10
2936.3031623317
 20
1559.5734427011
 30
0.0
 10
2935.2573188024
 20
1560.1774790378
 30
0.0
 10
2932.9667867727
 20
1560.0603370393
 30
0.0
 10
2930.4764326072
 20
1558.6490923136
 30
0.0
 10
2927.7490359902
 20
1556.2534985279
 30
0.0
 10
2925.216277983
 20
1552.3190925417
 30
0.0
 10
2924.2313018743
 20
1548.6167120064
 30
0.0
 10
2924.2313018743
 20
1546.8305127518
 30
0.0
  0
SPLINE
  5
502
100
AcDbEntity
  8
0
100
AcDbSpline
 62
7
  6
CONTINUOUS
 70
0
 71
3
 72
10
 73
6
 74
0
 42
0.0000001
 43
0.0000001
 44
0.0000000001
 40
0.0
 40
0.0
 40
0.0
 40
0.0
 40
0.219864123
 40
0.4829001352
 40
1.0
 40
1.0
 40
1.0
 40
1.0
 10
2961.0792574272
 20
1565.1473982419
 30
0.0
 10
2962.2581997998
 20
1565.4485522108
 30
0.0
 10
2964.6473826428
 20
1566.8578137051
 30
0.0
 10
2968.3160302423
 20
1571.0041626734
 30
0.0
 10
2970.0518212952
 20
1575.3303955554
 30
0.0
 10
2970.0518212952
 20
1578.1921921161
 30
0.0
  0
SPLINE
  5
503
100
AcDbEntity
  8
0
100
AcDbSpline
 62
7
  6
CONTINUOUS
 70
0
 71
3
 72
12
 73
8
 74
0
 42
0.0000001
 43
0.0000001
 44
0.0000000001
 40
0.0
 40
0.0
 40
0.0
 40
0.0
 40
0.1832718055
 40
0.3014702264
 40
0.4362080395
 40
0.7289494925
 40
1.0
 40
1.0
 40
1.0
 40
1.0
 10
2972.2241868159
 20
1580.3178868639
 30
0.0
 10
2971.1783432866
 20
1580.9219232006
 30
0.0
 10
2968.887811257
 20
1580.8047812022
 30
0.0
 10
2966.3974570915
 20
1579.3935364764
 30
0.0
 10
2963.6700604744
 20
1576.9979426907
 30
0.0
 10
2961.1373024673
 20
1573.0635367045
 30
0.0
 10
2960.1523263586
 20
1569.3611561692
 30
0.0
 10
2960.1523263586
 20
1567.5749569146
 30
0.0
  0
SPLINE
  5
504
100
AcDbEntity
  8
0
100
AcDbSpline
 62
7
  6
CONTINUOUS
 70
0
 71
3
 72
10
 73
6
 74
0
 42
0.0000001
 43
0.0000001
 44
0.0000000001
 40
0.0
 40
0.0
 40
0.0
 40
0.0
 40
0.219864123
 40
0.4829001352
 40
1.0
 40
1.0
 40
1.0
 40
1.0
 10
3032.9213063958
 20
1606.6362865676
 30
0.0
 10
3034.1002487683
 20
1606.9374405364
 30
0.0
 10
3036.4894316114
 20
1608.3467020307
 30
0.0
 10
3040.1580792108
 20
1612.493050999
 30
0.0
 10
3041.8938702637
 20
1616.8192838811
 30
0.0
 10
3041.8938702637
 20
1619.6810804417
 30
0.0
  0
SPLINE
  5
505
100
AcDbEntity
  8
0
100
AcDbSpline
 62
7
  6
CONTINUOUS
 70
0
 71
3
 72
12
 73
8
 74
0
 42
0.0000001
 43
0.0000001
 44
0.0000000001
 40
0.0
 40
0.0
 40
0.0
 40
0.0
 40
0.1832718055
 40
0.3014702264
 40
0.4362080395
 40
0.7289494925
 40
1.0
 40
1.0
 40
1.0
 40
1.0
 10
3044.0662357845
 20
1621.8067751896
 30
0.0
 10
3043.0203922552
 20
1622.4108115263
 30
0.0
 10
3040.7298602255
 20
1622.2936695278
 30
0.0
 10
3038.2395060601
 20
1620.8824248021
 30
0.0
 10
3035.512109443
 20
1618.4868310164
 30
0.0
 10
3032.9793514358
 20
1614.5524250302
 30
0.0
 10
3031.9943753271
 20
1610.8500444949
 30
0.0
 10
3031.9943753271
 20
1609.0638452403
 30
0.0
  0
SPLINE
  5
506
100
AcDbEntity
  8
0
100
AcDbSpline
 62
7
  6
CONTINUOUS
 70
0
 71
3
 72
10
 73
6
 74
0
 42
0.0000001
 43
0.0000001
 44
0.0000000001
 40
0.0
 40
0.0
 40
0.0
 40
0.0
 40
0.219864123
 40
0.4829001352
 40
1.0
 40
1.0
 40
1.0
 40
1.0
 10
3068.8423308801
 20
1627.3807307304
 30
0.0
 10
3070.0212732526
 20
1627.6818846993
 30
0.0
 10
3072.4104560956
 20
1629.0911461936
 30
0.0
 10
3076.0791036951
 20
1633.2374951619
 30
0.0
 10
3077.814894748
 20
1637.5637280439
 30
0.0
 10
3077.814894748
 20
1640.4255246046
 30
0.0
  0
SPLINE
  5
507
100
AcDbEntity
  8
0
100
AcDbSpline
 62
7
  6
CONTINUOUS
 70
0
 71
3
 72
12
 73
8
 74
0
 42
0.0000001
 43
0.0000001
 44
0.0000000001
 40
0.0
 40
0.0
 40
0.0
 40
0.0
 40
0.1832718055
 40
0.3014702264
 40
0.4362080395
 40
0.7289494925
 40
1.0
 40
1.0
 40
1.0
 40
1.0
 10
3079.9872602688
 20
1642.5512193524
 30
0.0
 10
3078.9414167395
 20
1643.1552556891
 30
0.0
 10
3076.6508847098
 20
1643.0381136907
 30
0.0
 10
3074.1605305444
 20
1641.6268689649
 30
0.0
 10
3071.4331339273
 20
1639.2312751792
 30
0.0
 10
3068.9003759201
 20
1635.296869193
 30
0.0
 10
3067.9153998114
 20
1631.5944886577
 30
0.0
 10
3067.9153998114
 20
1629.8082894031
 30
0.0
  0
SPLINE
  5
508
100
AcDbEntity
  8
0
100
AcDbSpline
 62
7
  6
CONTINUOUS
 70
0
 71
3
 72
10
 73
6
 74
0
 42
0.0000001
 43
0.0000001
 44
0.0000000001
 40
0.0
 40
0.0
 40
0.0
 40
0.0
 40
0.219864123
 40
0.4829001352
 40
1.0
 40
1.0
 40
1.0
 40
1.0
 10
3104.7633553643
 20
1648.1251748932
 30
0.0
 10
3105.9422977369
 20
1648.4263288621
 30
0.0
 10
3108.3314805799
 20
1649.8355903564
 30
0.0
 10
3112.0001281794
 20
1653.9819393247
 30
0.0
 10
3113.7359192323
 20
1658.3081722067
 30
0.0
 10
3113.7359192323
 20
1661.1699687674
 30
0.0
  0
SPLINE
  5
509
100
AcDbEntity
  8
0
100
AcDbSpline
 62
7
  6
CONTINUOUS
 70
0
 71
3
 72
12
 73
8
 74
0
 42
0.0000001
 43
0.0000001
 44
0.0000000001
 40
0.0
 40
0.0
 40
0.0
 40
0.0
 40
0.1832718055
 40
0.3014702264
 40
0.4362080395
 40
0.7289494925
 40
1.0
 40
1.0
 40
1.0
 40
1.0
 10
3115.908284753
 20
1663.2956635153
 30
0.0
 10
3114.8624412237
 20
1663.8996998519
 30
0.0
 10
3112.5719091941
 20
1663.7825578535
 30
0.0
 10
3110.0815550286
 20
1662.3713131278
 30
0.0
 10
3107.3541584115
 20
1659.975719342
 30
0.0
 10
3104.8214004044
 20
1656.0413133558
 30
0.0
 10
3103.8364242957
 20
1652.3389328206
 30
0.0
 10
3103.8364242957
 20
1650.5527335659
 30
0.0
  0
SPLINE
  5
50A
100
AcDbEntity
  8
0
100
AcDbSpline
 62
7
  6
CONTINUOUS
 70
0
 71
3
 72
10
 73
6
 74
0
 42
0.0000001
 43
0.0000001
 44
0.0000000001
 40
0.0
 40
0.0
 40
0.0
 40
0.0
 40
0.219864123
 40
0.4829001352
 40
1.0
 40
1.0
 40
1.0
 40
1.0
 10
3140.6843798486
 20
1668.8696190561
 30
0.0
 10
3141.8633222211
 20
1669.1707730249
 30
0.0
 10
3144.2525050642
 20
1670.5800345192
 30
0.0
 10
3147.9211526637
 20
1674.7263834875
 30
0.0
 10
3149.6569437166
 20
1679.0526163696
 30
0.0
 10
3149.6569437166
 20
1681.9144129302
 30
0.0
  0
SPLINE
  5
50B
100
AcDbEntity
  8
0
100
AcDbSpline
 62
7
  6
CONTINUOUS
 70
0
 71
3
 72
12
 73
8
 74
0
 42
0.0000001
 43
0.0000001
 44
0.0000000001
 40
0.0
 40
0.0
 40
0.0
 40
0.0
 40
0.1832718055
 40
0.3014702264
 40
0.4362080395
 40
0.7289494925
 40
1.0
 40
1.0
 40
1.0
 40
1.0
 10
3151.8293092373
 20
1684.0401076781
 30
0.0
 10
3150.783465708
 20
1684.6441440147
 30
0.0
 10
3148.4929336783
 20
1684.5270020163
 30
0.0
 10
3146.0025795129
 20
1683.1157572906
 30
0.0
 10
3143.2751828958
 20
1680.7201635049
 30
0.0
 10
3140.7424248887
 20
1676.7857575187
 30
0.0
 10
3139.7574487799
 20
1673.0833769834
 30
0.0
 10
3139.7574487799
 20
1671.2971777288
 30
0.0
  0
SPLINE
  5
50C
100
AcDbEntity
  8
0
100
AcDbSpline
 62
7
  6
CONTINUOUS
 70
0
 71
3
 72
10
 73
6
 74
0
 42
0.0000001
 43
0.0000001
 44
0.0000000001
 40
0.0
 40
0.0
 40
0.0
 40
0.0
 40
0.219864123
 40
0.4829001352
 40
1.0
 40
1.0
 40
1.0
 40
1.0
 10
3176.6054043329
 20
1689.6140632189
 30
0.0
 10
3177.7843467054
 20
1689.9152171878
 30
0.0
 10
3180.1735295485
 20
1691.3244786821
 30
0.0
 10
3183.8421771479
 20
1695.4708276504
 30
0.0
 10
3185.5779682008
 20
1699.7970605324
 30
0.0
 10
3185.5779682008
 20
1702.6588570931
 30
0.0
  0
SPLINE
  5
50D
100
AcDbEntity
  8
0
100
AcDbSpline
 62
7
  6
CONTINUOUS
 70
0
 71
3
 72
12
 73
8
 74
0
 42
0.0000001
 43
0.0000001
 44
0.0000000001
 40
0.0
 40
0.0
 40
0.0
 40
0.0
 40
0.1832718055
 40
0.3014702264
 40
0.4362080395
 40
0.7289494925
 40
1.0
 40
1.0
 40
1.0
 40
1.0
 10
3187.7503337216
 20
1704.7845518409
 30
0.0
 10
3186.7044901923
 20
1705.3885881776
 30
0.0
 10
3184.4139581626
 20
1705.2714461792
 30
0.0
 10
3181.9236039972
 20
1703.8602014534
 30
0.0
 10
3179.1962073801
 20
1701.4646076677
 30
0.0
 10
3176.6634493729
 20
1697.5302016815
 30
0.0
 10
3175.6784732642
 20
1693.8278211462
 30
0.0
 10
3175.6784732642
 20
1692.0416218916
 30
0.0
  0
SPLINE
  5
50E
100
AcDbEntity
  8
0
100
AcDbSpline
 62
7
  6
CONTINUOUS
 70
0
 71
3
 72
10
 73
6
 74
0
 42
0.0000001
 43
0.0000001
 44
0.0000000001
 40
0.0
 40
0.0
 40
0.0
 40
0.0
 40
0.219864123
 40
0.4829001352
 40
1.0
 40
1.0
 40
1.0
 40
1.0
 10
3212.5264288172
 20
1710.3585073817
 30
0.0
 10
3213.7053711897
 20
1710.6596613506
 30
0.0
 10
3216.0945540327
 20
1712.0689228449
 30
0.0
 10
3219.7632016322
 20
1716.2152718132
 30
0.0
 10
3221.4989926851
 20
1720.5415046952
 30
0.0
 10
3221.4989926851
 20
1723.4033012559
 30
0.0
  0
SPLINE
  5
50F
100
AcDbEntity
  8
0
100
AcDbSpline
 62
7
  6
CONTINUOUS
 70
0
 71
3
 72
12
 73
8
 74
0
 42
0.0000001
 43
0.0000001
 44
0.0000000001
 40
0.0
 40
0.0
 40
0.0
 40
0.0
 40
0.1832718055
 40
0.3014702264
 40
0.4362080395
 40
0.7289494925
 40
1.0
 40
1.0
 40
1.0
 40
1.0
 10
3223.6713582059
 20
1725.5289960038
 30
0.0
 10
3222.6255146766
 20
1726.1330323404
 30
0.0
 10
3220.3349826469
 20
1726.015890342
 30
0.0
 10
3217.8446284815
 20
1724.6046456163
 30
0.0
 10
3215.1172318644
 20
1722.2090518305
 30
0.0
 10
3212.5844738572
 20
1718.2746458443
 30
0.0
 10
3211.5994977485
 20
1714.5722653091
 30
0.0
 10
3211.5994977485
 20
1712.7860660544
 30
0.0
  0
SPLINE
  5
510
100
AcDbEntity
  8
0
100
AcDbSpline
 62
7
  6
CONTINUOUS
 70
0
 71
3
 72
10
 73
6
 74
0
 42
0.0000001
 43
0.0000001
 44
0.0000000001
 40
0.0
 40
0.0
 40
0.0
 40
0.0
 40
0.4227036001
 40
0.7224444811
 40
1.0
 40
1.0
 40
1.0
 40
1.0
 10
2810.3190001992
 20
1455.7432288952
 30
0.0
 10
2809.3169867743
 20
1456.3193679585
 30
0.0
 10
2806.9686398022
 20
1454.9142371997
 30
0.0
 10
2805.6404454108
 20
1452.6769300485
 30
0.0
 10
2805.1898752615
 20
1451.0856143357
 30
0.0
 10
2805.1898752615
 20
1450.326666711
 30
0.0
  0
SPLINE
  5
511
100
AcDbEntity
  8
0
100
AcDbSpline
 62
7
  6
CONTINUOUS
 70
0
 71
3
 72
10
 73
6
 74
0
 42
0.0000001
 43
0.0000001
 44
0.0000000001
 40
0.0
 40
0.0
 40
0.0
 40
0.0
 40
0.4227036001
 40
0.7224444811
 40
1.0
 40
1.0
 40
1.0
 40
1.0
 10
3042.2500244283
 20
1589.6837345135
 30
0.0
 10
3041.2480110035
 20
1590.2598735768
 30
0.0
 10
3038.8996640314
 20
1588.854742818
 30
0.0
 10
3037.57146964
 20
1586.6174356668
 30
0.0
 10
3037.1208994907
 20
1585.026119954
 30
0.0
 10
3037.1208994907
 20
1584.2671723293
 30
0.0
  0
SPLINE
  5
512
100
AcDbEntity
  8
0
100
AcDbSpline
 62
7
  6
CONTINUOUS
 70
0
 71
3
 72
10
 73
6
 74
0
 42
0.0000001
 43
0.0000001
 44
0.0000000001
 40
0.0
 40
0.0
 40
0.0
 40
0.0
 40
0.4227036001
 40
0.7224444811
 40
1.0
 40
1.0
 40
1.0
 40
1.0
 10
3207.3594578354
 20
1691.1004488285
 30
0.0
 10
3206.3574444105
 20
1691.6765878918
 30
0.0
 10
3204.0090974384
 20
1690.271457133
 30
0.0
 10
3202.6809030471
 20
1688.0341499818
 30
0.0
 10
3202.2303328978
 20
1686.442834269
 30
0.0
 10
3202.2303328978
 20
1685.6838866443
 30
0.0
  0
SPLINE
  5
513
100
AcDbEntity
  8
0
100
AcDbSpline
 62
7
  6
CONTINUOUS
 70
0
 71
3
 72
10
 73
6
 74
0
 42
0.0000001
 43
0.0000001
 44
0.0000000001
 40
0.0
 40
0.0
 40
0.0
 40
0.0
 40
0.4227036001
 40
0.7224444811
 40
1.0
 40
1.0
 40
1.0
 40
1.0
 10
2975.7819869968
 20
1538.2361113028
 30
0.0
 10
2974.7799735719
 20
1538.8122503662
 30
0.0
 10
2972.4316265998
 20
1537.4071196074
 30
0.0
 10
2971.1034322085
 20
1535.1698124561
 30
0.0
 10
2970.6528620592
 20
1533.5784967434
 30
0.0
 10
2970.6528620592
 20
1532.8195491187
 30
0.0
  0
SPLINE
  5
514
100
AcDbEntity
  8
0
100
AcDbSpline
 62
7
  6
CONTINUOUS
 70
0
 71
3
 72
10
 73
6
 74
0
 42
0.0000001
 43
0.0000001
 44
0.0000000001
 40
0.0
 40
0.0
 40
0.0
 40
0.0
 40
0.4227036001
 40
0.7224444811
 40
1.0
 40
1.0
 40
1.0
 40
1.0
 10
3254.7356121749
 20
1699.3322377248
 30
0.0
 10
3253.73359875
 20
1699.9083767882
 30
0.0
 10
3251.3852517779
 20
1698.5032460294
 30
0.0
 10
3250.0570573866
 20
1696.2659388781
 30
0.0
 10
3249.6064872373
 20
1694.6746231654
 30
0.0
 10
3249.6064872373
 20
1693.9156755407
 30
0.0
  0
SPLINE
  5
515
100
AcDbEntity
  8
0
100
AcDbSpline
 62
7
  6
CONTINUOUS
 70
0
 71
3
 72
10
 73
6
 74
0
 42
0.0000001
 43
0.0000001
 44
0.0000000001
 40
0.0
 40
0.0
 40
0.0
 40
0.0
 40
0.4227036001
 40
0.7224444811
 40
1.0
 40
1.0
 40
1.0
 40
1.0
 10
3023.1581413363
 20
1584.7239192139
 30
0.0
 10
3022.1561279114
 20
1585.3000582773
 30
0.0
 10
3019.8077809393
 20
1583.8949275185
 30
0.0
 10
3018.479586548
 20
1581.6576203672
 30
0.0
 10
3018.0290163987
 20
1580.0663046545
 30
0.0
 10
3018.0290163987
 20
1579.3073570298
 30
0.0
  0
SPLINE
  5
516
100
AcDbEntity
  8
0
100
AcDbSpline
 62
7
  6
CONTINUOUS
 70
0
 71
3
 72
8
 73
4
 74
0
 42
0.0000001
 43
0.0000001
 44
0.0000000001
 40
0.0
 40
0.0
 40
0.0
 40
0.0
 40
1.0
 40
1.0
 40
1.0
 40
1.0
 10
2629.0283313722
 20
1612.2920859864
 30
0.0
 10
2629.3720078664
 20
1611.8711987497
 30
0.0
 10
2629.6266352562
 20
1611.3710479168
 30
0.0
 10
2629.7995088866
 20
1610.8559029793
 30
0.0
  0
SPLINE
  5
517
100
AcDbEntity
  8
0
100
AcDbSpline
 62
7
  6
CONTINUOUS
 70
0
 71
3
 72
9
 73
5
 74
0
 42
0.0000001
 43
0.0000001
 44
0.0000000001
 40
0.0
 40
0.0
 40
0.0
 40
0.0
 40
0.2343686937
 40
1.0
 40
1.0
 40
1.0
 40
1.0
 10
2629.7995088866
 20
1610.8559029793
 30
0.0
 10
2629.8580287822
 20
1610.6815199461
 30
0.0
 10
2630.0706031021
 20
1609.9250596411
 30
0.0
 10
2630.1455915788
 20
1609.1338761242
 30
0.0
 10
2630.1455915788
 20
1608.5329834802
 30
0.0
  0
SPLINE
  5
518
100
AcDbEntity
  8
0
100
AcDbSpline
 62
7
  6
CONTINUOUS
 70
0
 71
3
 72
9
 73
5
 74
0
 42
0.0000001
 43
0.0000001
 44
0.0000000001
 40
0.0
 40
0.0
 40
0.0
 40
0.0
 40
0.2371460391
 40
1.0
 40
1.0
 40
1.0
 40
1.0
 10
2656.1160759493
 20
1615.3094320935
 30
0.0
 10
2655.91929362
 20
1615.4230854977
 30
0.0
 10
2655.1365157523
 20
1615.9867677565
 30
0.0
 10
2654.6244498859
 20
1616.869315501
 30
0.0
 10
2654.3918834751
 20
1617.5623385427
 30
0.0
  0
SPLINE
  5
519
100
AcDbEntity
  8
0
100
AcDbSpline
 62
7
  6
CONTINUOUS
 70
0
 71
3
 72
9
 73
5
 74
0
 42
0.0000001
 43
0.0000001
 44
0.0000000001
 40
0.0
 40
0.0
 40
0.0
 40
0.0
 40
0.2343686937
 40
1.0
 40
1.0
 40
1.0
 40
1.0
 10
2654.3918834751
 20
1617.5623385427
 30
0.0
 10
2654.3333635795
 20
1617.7367215758
 30
0.0
 10
2654.1207892596
 20
1618.4931818809
 30
0.0
 10
2654.0458007829
 20
1619.2843653978
 30
0.0
 10
2654.0458007829
 20
1619.8852580418
 30
0.0
  0
SPLINE
  5
51A
100
AcDbEntity
  8
0
100
AcDbSpline
 62
7
  6
CONTINUOUS
 70
0
 71
3
 72
10
 73
6
 74
0
 42
0.0000001
 43
0.0000001
 44
0.0000000001
 40
0.0
 40
0.0
 40
0.0
 40
0.0
 40
0.4189630333
 40
0.6903375094
 40
1.0
 40
1.0
 40
1.0
 40
1.0
 10
2838.6110783127
 20
1920.8798309059
 30
0.0
 10
2839.8914897585
 20
1920.1409722295
 30
0.0
 10
2842.7086592615
 20
1920.3160603432
 30
0.0
 10
2845.7386060743
 20
1922.0856956311
 30
0.0
 10
2847.2836943571
 20
1923.4717341082
 30
0.0
 10
2848.0244679661
 20
1924.274918293
 30
0.0
  0
SPLINE
  5
51B
100
AcDbEntity
  8
0
100
AcDbSpline
 62
7
  6
CONTINUOUS
 70
0
 71
3
 72
11
 73
7
 74
0
 42
0.0000001
 43
0.0000001
 44
0.0000000001
 40
0.0
 40
0.0
 40
0.0
 40
0.0
 40
0.1864968746
 40
0.415116576
 40
0.6925667375
 40
1.0
 40
1.0
 40
1.0
 40
1.0
 10
2559.6574531346
 20
1759.7837044839
 30
0.0
 10
2560.4671340151
 20
1759.3164798697
 30
0.0
 10
2562.6843241701
 20
1758.9850965914
 30
0.0
 10
2565.9805724241
 20
1760.3420128414
 30
0.0
 10
2569.1379025822
 20
1762.9869924091
 30
0.0
 10
2570.8869477202
 20
1765.3791675277
 30
0.0
 10
2571.6574531346
 20
1766.7137220301
 30
0.0
  0
SPLINE
  5
51C
100
AcDbEntity
  8
0
100
AcDbSpline
 62
7
  6
CONTINUOUS
 70
0
 71
3
 72
8
 73
4
 74
0
 42
0.0000001
 43
0.0000001
 44
0.0000000001
 40
0.0
 40
0.0
 40
0.0
 40
0.0
 40
1.0
 40
1.0
 40
1.0
 40
1.0
 10
2664.9493558564
 20
1633.0365301492
 30
0.0
 10
2665.2930323507
 20
1632.6156429125
 30
0.0
 10
2665.5476597405
 20
1632.1154920796
 30
0.0
 10
2665.7205333709
 20
1631.6003471421
 30
0.0
  0
SPLINE
  5
51D
100
AcDbEntity
  8
0
100
AcDbSpline
 62
7
  6
CONTINUOUS
 70
0
 71
3
 72
9
 73
5
 74
0
 42
0.0000001
 43
0.0000001
 44
0.0000000001
 40
0.0
 40
0.0
 40
0.0
 40
0.0
 40
0.2343686937
 40
1.0
 40
1.0
 40
1.0
 40
1.0
 10
2665.7205333709
 20
1631.6003471421
 30
0.0
 10
2665.7790532665
 20
1631.425964109
 30
0.0
 10
2665.9916275864
 20
1630.6695038039
 30
0.0
 10
2666.0666160631
 20
1629.878320287
 30
0.0
 10
2666.0666160631
 20
1629.277427643
 30
0.0
  0
SPLINE
  5
51E
100
AcDbEntity
  8
0
100
AcDbSpline
 62
7
  6
CONTINUOUS
 70
0
 71
3
 72
9
 73
5
 74
0
 42
0.0000001
 43
0.0000001
 44
0.0000000001
 40
0.0
 40
0.0
 40
0.0
 40
0.0
 40
0.2952450707
 40
1.0
 40
1.0
 40
1.0
 40
1.0
 10
2841.6058744926
 20
1929.5366259728
 30
0.0
 10
2841.6058744926
 20
1929.3214367201
 30
0.0
 10
2841.6537562441
 20
1928.6023260889
 30
0.0
 10
2842.0418582168
 20
1927.8471216109
 30
0.0
 10
2842.4871571951
 20
1927.5910829891
 30
0.0
  0
SPLINE
  5
51F
100
AcDbEntity
  8
0
100
AcDbSpline
 62
7
  6
CONTINUOUS
 70
0
 71
3
 72
9
 73
5
 74
0
 42
0.0000001
 43
0.0000001
 44
0.0000000001
 40
0.0
 40
0.0
 40
0.0
 40
0.0
 40
0.2952450707
 40
1.0
 40
1.0
 40
1.0
 40
1.0
 10
2562.6522493145
 20
1768.4404995508
 30
0.0
 10
2562.6522493145
 20
1768.2253102981
 30
0.0
 10
2562.700131066
 20
1767.5061996669
 30
0.0
 10
2563.0882330387
 20
1766.7509951889
 30
0.0
 10
2563.533532017
 20
1766.4949565671
 30
0.0
  0
SPLINE
  5
520
100
AcDbEntity
  8
0
100
AcDbSpline
 62
7
  6
CONTINUOUS
 70
0
 71
3
 72
9
 73
5
 74
0
 42
0.0000001
 43
0.0000001
 44
0.0000000001
 40
0.0
 40
0.0
 40
0.0
 40
0.0
 40
0.2952450707
 40
1.0
 40
1.0
 40
1.0
 40
1.0
 10
2794.2297201531
 20
1921.3048370765
 30
0.0
 10
2794.2297201531
 20
1921.0896478237
 30
0.0
 10
2794.2776019046
 20
1920.3705371925
 30
0.0
 10
2794.6657038773
 20
1919.6153327145
 30
0.0
 10
2795.1110028556
 20
1919.3592940928
 30
0.0
  0
SPLINE
  5
521
100
AcDbEntity
  8
0
100
AcDbSpline
 62
7
  6
CONTINUOUS
 70
0
 71
3
 72
9
 73
5
 74
0
 42
0.0000001
 43
0.0000001
 44
0.0000000001
 40
0.0
 40
0.0
 40
0.0
 40
0.0
 40
0.5508265653
 40
1.0
 40
1.0
 40
1.0
 40
1.0
 10
2803.5988850039
 20
1948.4070164866
 30
0.0
 10
2803.5988850039
 20
1947.4523145075
 30
0.0
 10
2803.8302646767
 20
1945.6782730646
 30
0.0
 10
2804.9950073043
 20
1944.2205535894
 30
0.0
 10
2805.6691601702
 20
1943.8311905384
 30
0.0
  0
SPLINE
  5
522
100
AcDbEntity
  8
0
100
AcDbSpline
 62
7
  6
CONTINUOUS
 70
0
 71
3
 72
9
 73
5
 74
0
 42
0.0000001
 43
0.0000001
 44
0.0000000001
 40
0.0
 40
0.0
 40
0.0
 40
0.0
 40
0.5508265653
 40
1.0
 40
1.0
 40
1.0
 40
1.0
 10
2767.6778605196
 20
1927.6625723238
 30
0.0
 10
2767.6778605196
 20
1926.7078703447
 30
0.0
 10
2767.9092401924
 20
1924.9338289018
 30
0.0
 10
2769.0739828201
 20
1923.4761094266
 30
0.0
 10
2769.7481356859
 20
1923.0867463756
 30
0.0
  0
SPLINE
  5
523
100
AcDbEntity
  8
0
100
AcDbSpline
 62
7
  6
CONTINUOUS
 70
0
 71
3
 72
9
 73
5
 74
0
 42
0.0000001
 43
0.0000001
 44
0.0000000001
 40
0.0
 40
0.0
 40
0.0
 40
0.0
 40
0.5508265653
 40
1.0
 40
1.0
 40
1.0
 40
1.0
 10
2731.7568360353
 20
1906.9181281609
 30
0.0
 10
2731.7568360353
 20
1905.9634261818
 30
0.0
 10
2731.9882157082
 20
1904.1893847389
 30
0.0
 10
2733.1529583358
 20
1902.7316652638
 30
0.0
 10
2733.8271112017
 20
1902.3423022127
 30
0.0
  0
SPLINE
  5
524
100
AcDbEntity
  8
0
100
AcDbSpline
 62
7
  6
CONTINUOUS
 70
0
 71
3
 72
9
 73
5
 74
0
 42
0.0000001
 43
0.0000001
 44
0.0000000001
 40
0.0
 40
0.0
 40
0.0
 40
0.0
 40
0.5508265653
 40
1.0
 40
1.0
 40
1.0
 40
1.0
 10
2695.835811551
 20
1886.1736839981
 30
0.0
 10
2695.835811551
 20
1885.218982019
 30
0.0
 10
2696.0671912239
 20
1883.4449405761
 30
0.0
 10
2697.2319338515
 20
1881.9872211009
 30
0.0
 10
2697.9060867174
 20
1881.5978580499
 30
0.0
  0
SPLINE
  5
525
100
AcDbEntity
  8
0
100
AcDbSpline
 62
7
  6
CONTINUOUS
 70
0
 71
3
 72
9
 73
5
 74
0
 42
0.0000001
 43
0.0000001
 44
0.0000000001
 40
0.0
 40
0.0
 40
0.0
 40
0.0
 40
0.5508265653
 40
1.0
 40
1.0
 40
1.0
 40
1.0
 10
2659.9147870668
 20
1865.4292398353
 30
0.0
 10
2659.9147870668
 20
1864.4745378562
 30
0.0
 10
2660.1461667396
 20
1862.7004964133
 30
0.0
 10
2661.3109093672
 20
1861.2427769381
 30
0.0
 10
2661.9850622331
 20
1860.8534138871
 30
0.0
  0
SPLINE
  5
526
100
AcDbEntity
  8
0
100
AcDbSpline
 62
7
  6
CONTINUOUS
 70
0
 71
3
 72
9
 73
5
 74
0
 42
0.0000001
 43
0.0000001
 44
0.0000000001
 40
0.0
 40
0.0
 40
0.0
 40
0.0
 40
0.5508265653
 40
1.0
 40
1.0
 40
1.0
 40
1.0
 10
2623.9937625825
 20
1844.6847956724
 30
0.0
 10
2623.9937625825
 20
1843.7300936933
 30
0.0
 10
2624.2251422553
 20
1841.9560522504
 30
0.0
 10
2625.3898848829
 20
1840.4983327753
 30
0.0
 10
2626.0640377488
 20
1840.1089697242
 30
0.0
  0
SPLINE
  5
527
100
AcDbEntity
  8
0
100
AcDbSpline
 62
7
  6
CONTINUOUS
 70
0
 71
3
 72
9
 73
5
 74
0
 42
0.0000001
 43
0.0000001
 44
0.0000000001
 40
0.0
 40
0.0
 40
0.0
 40
0.0
 40
0.5508265653
 40
1.0
 40
1.0
 40
1.0
 40
1.0
 10
2552.1517136139
 20
1803.1959073468
 30
0.0
 10
2552.1517136139
 20
1802.2412053677
 30
0.0
 10
2552.3830932868
 20
1800.4671639248
 30
0.0
 10
2553.5478359144
 20
1799.0094444496
 30
0.0
 10
2554.2219887803
 20
1798.6200813986
 30
0.0
  0
SPLINE
  5
528
100
AcDbEntity
  8
0
100
AcDbSpline
 62
7
  6
CONTINUOUS
 70
0
 71
3
 72
9
 73
5
 74
0
 42
0.0000001
 43
0.0000001
 44
0.0000000001
 40
0.0
 40
0.0
 40
0.0
 40
0.0
 40
0.5508265653
 40
1.0
 40
1.0
 40
1.0
 40
1.0
 10
2516.2306891296
 20
1782.451463184
 30
0.0
 10
2516.2306891296
 20
1781.4967612048
 30
0.0
 10
2516.4620688025
 20
1779.7227197619
 30
0.0
 10
2517.6268114301
 20
1778.2650002868
 30
0.0
 10
2518.300964296
 20
1777.8756372357
 30
0.0
  0
SPLINE
  5
529
100
AcDbEntity
  8
0
100
AcDbSpline
 62
7
  6
CONTINUOUS
 70
0
 71
3
 72
9
 73
5
 74
0
 42
0.0000001
 43
0.0000001
 44
0.0000000001
 40
0.0
 40
0.0
 40
0.0
 40
0.0
 40
0.5508265653
 40
1.0
 40
1.0
 40
1.0
 40
1.0
 10
2480.3096646454
 20
1761.7070190211
 30
0.0
 10
2480.3096646454
 20
1760.752317042
 30
0.0
 10
2480.5410443182
 20
1758.9782755991
 30
0.0
 10
2481.7057869458
 20
1757.5205561239
 30
0.0
 10
2482.3799398117
 20
1757.1311930729
 30
0.0
  0
SPLINE
  5
52A
100
AcDbEntity
  8
0
100
AcDbSpline
 62
7
  6
CONTINUOUS
 70
0
 71
3
 72
9
 73
5
 74
0
 42
0.0000001
 43
0.0000001
 44
0.0000000001
 40
0.0
 40
0.0
 40
0.0
 40
0.0
 40
0.5508265653
 40
1.0
 40
1.0
 40
1.0
 40
1.0
 10
2444.3886401611
 20
1740.9625748583
 30
0.0
 10
2444.3886401611
 20
1740.0078728792
 30
0.0
 10
2444.620019834
 20
1738.2338314363
 30
0.0
 10
2445.7847624616
 20
1736.7761119611
 30
0.0
 10
2446.4589153275
 20
1736.3867489101
 30
0.0
  0
SPLINE
  5
52B
100
AcDbEntity
  8
0
100
AcDbSpline
 62
7
  6
CONTINUOUS
 70
0
 71
3
 72
9
 73
5
 74
0
 42
0.0000001
 43
0.0000001
 44
0.0000000001
 40
0.0
 40
0.0
 40
0.0
 40
0.0
 40
0.2371460391
 40
1.0
 40
1.0
 40
1.0
 40
1.0
 10
2692.0371004335
 20
1636.0538762564
 30
0.0
 10
2691.8403181043
 20
1636.1675296605
 30
0.0
 10
2691.0575402366
 20
1636.7312119194
 30
0.0
 10
2690.5454743701
 20
1637.6137596638
 30
0.0
 10
2690.3129079594
 20
1638.3067827055
 30
0.0
  0
SPLINE
  5
52C
100
AcDbEntity
  8
0
100
AcDbSpline
 62
7
  6
CONTINUOUS
 70
0
 71
3
 72
9
 73
5
 74
0
 42
0.0000001
 43
0.0000001
 44
0.0000000001
 40
0.0
 40
0.0
 40
0.0
 40
0.0
 40
0.2343686937
 40
1.0
 40
1.0
 40
1.0
 40
1.0
 10
2690.3129079594
 20
1638.3067827055
 30
0.0
 10
2690.2543880637
 20
1638.4811657386
 30
0.0
 10
2690.0418137439
 20
1639.2376260437
 30
0.0
 10
2689.9668252672
 20
1640.0288095606
 30
0.0
 10
2689.9668252672
 20
1640.6297022046
 30
0.0
  0
SPLINE
  5
52D
100
AcDbEntity
  8
0
100
AcDbSpline
 62
7
  6
CONTINUOUS
 70
0
 71
3
 72
8
 73
4
 74
0
 42
0.0000001
 43
0.0000001
 44
0.0000000001
 40
0.0
 40
0.0
 40
0.0
 40
0.0
 40
1.0
 40
1.0
 40
1.0
 40
1.0
 10
2700.8703803407
 20
1653.7809743121
 30
0.0
 10
2701.214056835
 20
1653.3600870754
 30
0.0
 10
2701.4686842248
 20
1652.8599362425
 30
0.0
 10
2701.6415578551
 20
1652.3447913049
 30
0.0
  0
SPLINE
  5
52E
100
AcDbEntity
  8
0
100
AcDbSpline
 62
7
  6
CONTINUOUS
 70
0
 71
3
 72
9
 73
5
 74
0
 42
0.0000001
 43
0.0000001
 44
0.0000000001
 40
0.0
 40
0.0
 40
0.0
 40
0.0
 40
0.2343686937
 40
1.0
 40
1.0
 40
1.0
 40
1.0
 10
2701.6415578551
 20
1652.3447913049
 30
0.0
 10
2701.7000777508
 20
1652.1704082718
 30
0.0
 10
2701.9126520706
 20
1651.4139479667
 30
0.0
 10
2701.9876405474
 20
1650.6227644498
 30
0.0
 10
2701.9876405474
 20
1650.0218718059
 30
0.0
  0
SPLINE
  5
52F
100
AcDbEntity
  8
0
100
AcDbSpline
 62
7
  6
CONTINUOUS
 70
0
 71
3
 72
9
 73
5
 74
0
 42
0.0000001
 43
0.0000001
 44
0.0000000001
 40
0.0
 40
0.0
 40
0.0
 40
0.0
 40
0.2371460391
 40
1.0
 40
1.0
 40
1.0
 40
1.0
 10
2727.9581249178
 20
1656.7983204192
 30
0.0
 10
2727.7613425886
 20
1656.9119738233
 30
0.0
 10
2726.9785647209
 20
1657.4756560822
 30
0.0
 10
2726.4664988544
 20
1658.3582038266
 30
0.0
 10
2726.2339324437
 20
1659.0512268684
 30
0.0
  0
SPLINE
  5
530
100
AcDbEntity
  8
0
100
AcDbSpline
 62
7
  6
CONTINUOUS
 70
0
 71
3
 72
9
 73
5
 74
0
 42
0.0000001
 43
0.0000001
 44
0.0000000001
 40
0.0
 40
0.0
 40
0.0
 40
0.0
 40
0.2343686937
 40
1.0
 40
1.0
 40
1.0
 40
1.0
 10
2726.2339324437
 20
1659.0512268684
 30
0.0
 10
2726.175412548
 20
1659.2256099015
 30
0.0
 10
2725.9628382282
 20
1659.9820702066
 30
0.0
 10
2725.8878497515
 20
1660.7732537234
 30
0.0
 10
2725.8878497515
 20
1661.3741463674
 30
0.0
  0
SPLINE
  5
531
100
AcDbEntity
  8
0
100
AcDbSpline
 62
7
  6
CONTINUOUS
 70
0
 71
3
 72
8
 73
4
 74
0
 42
0.0000001
 43
0.0000001
 44
0.0000000001
 40
0.0
 40
0.0
 40
0.0
 40
0.0
 40
1.0
 40
1.0
 40
1.0
 40
1.0
 10
2736.791404825
 20
1674.5254184749
 30
0.0
 10
2737.1350813193
 20
1674.1045312382
 30
0.0
 10
2737.3897087091
 20
1673.6043804053
 30
0.0
 10
2737.5625823394
 20
1673.0892354678
 30
0.0
  0
SPLINE
  5
532
100
AcDbEntity
  8
0
100
AcDbSpline
 62
7
  6
CONTINUOUS
 70
0
 71
3
 72
9
 73
5
 74
0
 42
0.0000001
 43
0.0000001
 44
0.0000000001
 40
0.0
 40
0.0
 40
0.0
 40
0.0
 40
0.2343686937
 40
1.0
 40
1.0
 40
1.0
 40
1.0
 10
2737.5625823394
 20
1673.0892354678
 30
0.0
 10
2737.6211022351
 20
1672.9148524346
 30
0.0
 10
2737.8336765549
 20
1672.1583921296
 30
0.0
 10
2737.9086650316
 20
1671.3672086127
 30
0.0
 10
2737.9086650316
 20
1670.7663159687
 30
0.0
  0
SPLINE
  5
533
100
AcDbEntity
  8
0
100
AcDbSpline
 62
7
  6
CONTINUOUS
 70
0
 71
3
 72
9
 73
5
 74
0
 42
0.0000001
 43
0.0000001
 44
0.0000000001
 40
0.0
 40
0.0
 40
0.0
 40
0.0
 40
0.2371460391
 40
1.0
 40
1.0
 40
1.0
 40
1.0
 10
2763.8791494021
 20
1677.542764582
 30
0.0
 10
2763.6823670728
 20
1677.6564179862
 30
0.0
 10
2762.8995892051
 20
1678.220100245
 30
0.0
 10
2762.3875233387
 20
1679.1026479895
 30
0.0
 10
2762.154956928
 20
1679.7956710312
 30
0.0
  0
SPLINE
  5
534
100
AcDbEntity
  8
0
100
AcDbSpline
 62
7
  6
CONTINUOUS
 70
0
 71
3
 72
9
 73
5
 74
0
 42
0.0000001
 43
0.0000001
 44
0.0000000001
 40
0.0
 40
0.0
 40
0.0
 40
0.0
 40
0.2343686937
 40
1.0
 40
1.0
 40
1.0
 40
1.0
 10
2762.154956928
 20
1679.7956710312
 30
0.0
 10
2762.0964370323
 20
1679.9700540643
 30
0.0
 10
2761.8838627124
 20
1680.7265143694
 30
0.0
 10
2761.8088742357
 20
1681.5176978863
 30
0.0
 10
2761.8088742357
 20
1682.1185905303
 30
0.0
  0
SPLINE
  5
535
100
AcDbEntity
  8
0
100
AcDbSpline
 62
7
  6
CONTINUOUS
 70
0
 71
3
 72
9
 73
5
 74
0
 42
0.0000001
 43
0.0000001
 44
0.0000000001
 40
0.0
 40
0.0
 40
0.0
 40
0.0
 40
0.4492176063
 40
1.0
 40
1.0
 40
1.0
 40
1.0
 10
2835.7176800305
 20
1922.5494601739
 30
0.0
 10
2834.7057030403
 20
1923.1334193239
 30
0.0
 10
2831.9369780327
 20
1923.5518877836
 30
0.0
 10
2829.4582138821
 20
1922.5213342081
 30
0.0
 10
2828.2176800305
 20
1921.8049240949
 30
0.0
  0
SPLINE
  5
536
100
AcDbEntity
  8
0
100
AcDbSpline
 62
7
  6
CONTINUOUS
 70
0
 71
3
 72
8
 73
4
 74
0
 42
0.0000001
 43
0.0000001
 44
0.0000000001
 40
0.0
 40
0.0
 40
0.0
 40
0.0
 40
1.0
 40
1.0
 40
1.0
 40
1.0
 10
2772.7124293093
 20
1695.2698626377
 30
0.0
 10
2773.0561058035
 20
1694.848975401
 30
0.0
 10
2773.3107331933
 20
1694.3488245681
 30
0.0
 10
2773.4836068237
 20
1693.8336796306
 30
0.0
  0
SPLINE
  5
537
100
AcDbEntity
  8
0
100
AcDbSpline
 62
7
  6
CONTINUOUS
 70
0
 71
3
 72
9
 73
5
 74
0
 42
0.0000001
 43
0.0000001
 44
0.0000000001
 40
0.0
 40
0.0
 40
0.0
 40
0.0
 40
0.2343686937
 40
1.0
 40
1.0
 40
1.0
 40
1.0
 10
2773.4836068237
 20
1693.8336796306
 30
0.0
 10
2773.5421267194
 20
1693.6592965975
 30
0.0
 10
2773.7547010392
 20
1692.9028362924
 30
0.0
 10
2773.8296895159
 20
1692.1116527755
 30
0.0
 10
2773.8296895159
 20
1691.5107601315
 30
0.0
  0
SPLINE
  5
538
100
AcDbEntity
  8
0
100
AcDbSpline
 62
7
  6
CONTINUOUS
 70
0
 71
3
 72
9
 73
5
 74
0
 42
0.0000001
 43
0.0000001
 44
0.0000000001
 40
0.0
 40
0.0
 40
0.0
 40
0.0
 40
0.2371460391
 40
1.0
 40
1.0
 40
1.0
 40
1.0
 10
2835.7211983707
 20
1719.0316529077
 30
0.0
 10
2835.5244160414
 20
1719.1453063118
 30
0.0
 10
2834.7416381737
 20
1719.7089885707
 30
0.0
 10
2834.2295723072
 20
1720.5915363151
 30
0.0
 10
2833.9970058965
 20
1721.2845593569
 30
0.0
  0
SPLINE
  5
539
100
AcDbEntity
  8
0
100
AcDbSpline
 62
7
  6
CONTINUOUS
 70
0
 71
3
 72
9
 73
5
 74
0
 42
0.0000001
 43
0.0000001
 44
0.0000000001
 40
0.0
 40
0.0
 40
0.0
 40
0.0
 40
0.2343686937
 40
1.0
 40
1.0
 40
1.0
 40
1.0
 10
2833.9970058965
 20
1721.2845593569
 30
0.0
 10
2833.9384860008
 20
1721.45894239
 30
0.0
 10
2833.725911681
 20
1722.2154026951
 30
0.0
 10
2833.6509232043
 20
1723.0065862119
 30
0.0
 10
2833.6509232043
 20
1723.6074788559
 30
0.0
  0
SPLINE
  5
53A
100
AcDbEntity
  8
0
100
AcDbSpline
 62
7
  6
CONTINUOUS
 70
0
 71
3
 72
9
 73
5
 74
0
 42
0.0000001
 43
0.0000001
 44
0.0000000001
 40
0.0
 40
0.0
 40
0.0
 40
0.0
 40
0.229119367
 40
1.0
 40
1.0
 40
1.0
 40
1.0
 10
2582.0508514168
 20
1779.6432206292
 30
0.0
 10
2581.3249297174
 20
1779.2239997864
 30
0.0
 10
2578.3210027526
 20
1777.1137671992
 30
0.0
 10
2575.9610586093
 20
1774.1677852403
 30
0.0
 10
2574.5508514168
 20
1771.7252347754
 30
0.0
  0
SPLINE
  5
53B
100
AcDbEntity
  8
0
100
AcDbSpline
 62
7
  6
CONTINUOUS
 70
0
 71
3
 72
8
 73
4
 74
0
 42
0.0000001
 43
0.0000001
 44
0.0000000001
 40
0.0
 40
0.0
 40
0.0
 40
0.0
 40
1.0
 40
1.0
 40
1.0
 40
1.0
 10
2844.5544782778
 20
1736.7587509634
 30
0.0
 10
2844.8981547721
 20
1736.3378637267
 30
0.0
 10
2845.1527821619
 20
1735.8377128938
 30
0.0
 10
2845.3256557922
 20
1735.3225679563
 30
0.0
  0
SPLINE
  5
53C
100
AcDbEntity
  8
0
100
AcDbSpline
 62
7
  6
CONTINUOUS
 70
0
 71
3
 72
9
 73
5
 74
0
 42
0.0000001
 43
0.0000001
 44
0.0000000001
 40
0.0
 40
0.0
 40
0.0
 40
0.0
 40
0.2343686937
 40
1.0
 40
1.0
 40
1.0
 40
1.0
 10
2845.3256557922
 20
1735.3225679563
 30
0.0
 10
2845.3841756879
 20
1735.1481849231
 30
0.0
 10
2845.5967500078
 20
1734.3917246181
 30
0.0
 10
2845.6717384845
 20
1733.6005411012
 30
0.0
 10
2845.6717384845
 20
1732.9996484572
 30
0.0
  0
SPLINE
  5
53D
100
AcDbEntity
  8
0
100
AcDbSpline
 62
7
  6
CONTINUOUS
 70
0
 71
3
 72
9
 73
5
 74
0
 42
0.0000001
 43
0.0000001
 44
0.0000000001
 40
0.0
 40
0.0
 40
0.0
 40
0.0
 40
0.4492176063
 40
1.0
 40
1.0
 40
1.0
 40
1.0
 10
2556.7640548524
 20
1761.4533337519
 30
0.0
 10
2555.7520778622
 20
1762.0372929019
 30
0.0
 10
2552.9833528546
 20
1762.4557613616
 30
0.0
 10
2550.504588704
 20
1761.4252077861
 30
0.0
 10
2549.2640548524
 20
1760.7087976729
 30
0.0
  0
SPLINE
  5
53E
100
AcDbEntity
  8
0
100
AcDbSpline
 62
7
  6
CONTINUOUS
 70
0
 71
3
 72
9
 73
5
 74
0
 42
0.0000001
 43
0.0000001
 44
0.0000000001
 40
0.0
 40
0.0
 40
0.0
 40
0.0
 40
0.2371460391
 40
1.0
 40
1.0
 40
1.0
 40
1.0
 10
2871.6422228549
 20
1739.7760970705
 30
0.0
 10
2871.4454405257
 20
1739.8897504747
 30
0.0
 10
2870.662662658
 20
1740.4534327335
 30
0.0
 10
2870.1505967915
 20
1741.3359804779
 30
0.0
 10
2869.9180303808
 20
1742.0290035197
 30
0.0
  0
SPLINE
  5
53F
100
AcDbEntity
  8
0
100
AcDbSpline
 62
7
  6
CONTINUOUS
 70
0
 71
3
 72
9
 73
5
 74
0
 42
0.0000001
 43
0.0000001
 44
0.0000000001
 40
0.0
 40
0.0
 40
0.0
 40
0.0
 40
0.2343686937
 40
1.0
 40
1.0
 40
1.0
 40
1.0
 10
2869.9180303808
 20
1742.0290035197
 30
0.0
 10
2869.8595104851
 20
1742.2033865528
 30
0.0
 10
2869.6469361653
 20
1742.9598468579
 30
0.0
 10
2869.5719476886
 20
1743.7510303748
 30
0.0
 10
2869.5719476886
 20
1744.3519230187
 30
0.0
  0
SPLINE
  5
540
100
AcDbEntity
  8
0
100
AcDbSpline
 62
7
  6
CONTINUOUS
 70
0
 71
3
 72
8
 73
4
 74
0
 42
0.0000001
 43
0.0000001
 44
0.0000000001
 40
0.0
 40
0.0
 40
0.0
 40
0.0
 40
1.0
 40
1.0
 40
1.0
 40
1.0
 10
2880.4755027621
 20
1757.5031951262
 30
0.0
 10
2880.8191792564
 20
1757.0823078895
 30
0.0
 10
2881.0738066462
 20
1756.5821570566
 30
0.0
 10
2881.2466802765
 20
1756.0670121191
 30
0.0
  0
SPLINE
  5
541
100
AcDbEntity
  8
0
100
AcDbSpline
 62
7
  6
CONTINUOUS
 70
0
 71
3
 72
9
 73
5
 74
0
 42
0.0000001
 43
0.0000001
 44
0.0000000001
 40
0.0
 40
0.0
 40
0.0
 40
0.0
 40
0.2343686937
 40
1.0
 40
1.0
 40
1.0
 40
1.0
 10
2881.2466802765
 20
1756.0670121191
 30
0.0
 10
2881.3052001722
 20
1755.892629086
 30
0.0
 10
2881.517774492
 20
1755.1361687809
 30
0.0
 10
2881.5927629687
 20
1754.344985264
 30
0.0
 10
2881.5927629687
 20
1753.74409262
 30
0.0
  0
SPLINE
  5
542
100
AcDbEntity
  8
0
100
AcDbSpline
 62
7
  6
CONTINUOUS
 70
0
 71
3
 72
9
 73
5
 74
0
 42
0.0000001
 43
0.0000001
 44
0.0000000001
 40
0.0
 40
0.0
 40
0.0
 40
0.0
 40
0.2371460391
 40
1.0
 40
1.0
 40
1.0
 40
1.0
 10
2907.5632473392
 20
1760.5205412334
 30
0.0
 10
2907.36646501
 20
1760.6341946375
 30
0.0
 10
2906.5836871422
 20
1761.1978768964
 30
0.0
 10
2906.0716212758
 20
1762.0804246408
 30
0.0
 10
2905.8390548651
 20
1762.7734476825
 30
0.0
  0
SPLINE
  5
543
100
AcDbEntity
  8
0
100
AcDbSpline
 62
7
  6
CONTINUOUS
 70
0
 71
3
 72
9
 73
5
 74
0
 42
0.0000001
 43
0.0000001
 44
0.0000000001
 40
0.0
 40
0.0
 40
0.0
 40
0.0
 40
0.2343686937
 40
1.0
 40
1.0
 40
1.0
 40
1.0
 10
2905.8390548651
 20
1762.7734476825
 30
0.0
 10
2905.7805349694
 20
1762.9478307156
 30
0.0
 10
2905.5679606495
 20
1763.7042910207
 30
0.0
 10
2905.4929721728
 20
1764.4954745376
 30
0.0
 10
2905.4929721728
 20
1765.0963671816
 30
0.0
  0
SPLINE
  5
544
100
AcDbEntity
  8
0
100
AcDbSpline
 62
7
  6
CONTINUOUS
 70
0
 71
3
 72
8
 73
4
 74
0
 42
0.0000001
 43
0.0000001
 44
0.0000000001
 40
0.0
 40
0.0
 40
0.0
 40
0.0
 40
1.0
 40
1.0
 40
1.0
 40
1.0
 10
2916.3965272464
 20
1778.2476392891
 30
0.0
 10
2916.7402037406
 20
1777.8267520523
 30
0.0
 10
2916.9948311305
 20
1777.3266012195
 30
0.0
 10
2917.1677047608
 20
1776.8114562819
 30
0.0
  0
SPLINE
  5
545
100
AcDbEntity
  8
0
100
AcDbSpline
 62
7
  6
CONTINUOUS
 70
0
 71
3
 72
9
 73
5
 74
0
 42
0.0000001
 43
0.0000001
 44
0.0000000001
 40
0.0
 40
0.0
 40
0.0
 40
0.0
 40
0.2343686937
 40
1.0
 40
1.0
 40
1.0
 40
1.0
 10
2917.1677047608
 20
1776.8114562819
 30
0.0
 10
2917.2262246565
 20
1776.6370732488
 30
0.0
 10
2917.4387989763
 20
1775.8806129437
 30
0.0
 10
2917.513787453
 20
1775.0894294268
 30
0.0
 10
2917.513787453
 20
1774.4885367829
 30
0.0
  0
SPLINE
  5
546
100
AcDbEntity
  8
0
100
AcDbSpline
 62
7
  6
CONTINUOUS
 70
0
 71
3
 72
9
 73
5
 74
0
 42
0.0000001
 43
0.0000001
 44
0.0000000001
 40
0.0
 40
0.0
 40
0.0
 40
0.0
 40
0.2371460391
 40
1.0
 40
1.0
 40
1.0
 40
1.0
 10
2943.4842718235
 20
1781.2649853962
 30
0.0
 10
2943.2874894942
 20
1781.3786388003
 30
0.0
 10
2942.5047116265
 20
1781.9423210592
 30
0.0
 10
2941.9926457601
 20
1782.8248688036
 30
0.0
 10
2941.7600793493
 20
1783.5178918454
 30
0.0
  0
SPLINE
  5
547
100
AcDbEntity
  8
0
100
AcDbSpline
 62
7
  6
CONTINUOUS
 70
0
 71
3
 72
9
 73
5
 74
0
 42
0.0000001
 43
0.0000001
 44
0.0000000001
 40
0.0
 40
0.0
 40
0.0
 40
0.0
 40
0.2343686937
 40
1.0
 40
1.0
 40
1.0
 40
1.0
 10
2941.7600793493
 20
1783.5178918454
 30
0.0
 10
2941.7015594537
 20
1783.6922748785
 30
0.0
 10
2941.4889851338
 20
1784.4487351836
 30
0.0
 10
2941.4139966571
 20
1785.2399187004
 30
0.0
 10
2941.4139966571
 20
1785.8408113444
 30
0.0
  0
SPLINE
  5
548
100
AcDbEntity
  8
0
100
AcDbSpline
 62
7
  6
CONTINUOUS
 70
0
 71
3
 72
8
 73
4
 74
0
 42
0.0000001
 43
0.0000001
 44
0.0000000001
 40
0.0
 40
0.0
 40
0.0
 40
0.0
 40
1.0
 40
1.0
 40
1.0
 40
1.0
 10
2952.3175517306
 20
1798.9920834519
 30
0.0
 10
2952.6612282249
 20
1798.5711962152
 30
0.0
 10
2952.9158556147
 20
1798.0710453823
 30
0.0
 10
2953.0887292451
 20
1797.5559004448
 30
0.0
  0
SPLINE
  5
549
100
AcDbEntity
  8
0
100
AcDbSpline
 62
7
  6
CONTINUOUS
 70
0
 71
3
 72
9
 73
5
 74
0
 42
0.0000001
 43
0.0000001
 44
0.0000000001
 40
0.0
 40
0.0
 40
0.0
 40
0.0
 40
0.2343686937
 40
1.0
 40
1.0
 40
1.0
 40
1.0
 10
2953.0887292451
 20
1797.5559004448
 30
0.0
 10
2953.1472491407
 20
1797.3815174116
 30
0.0
 10
2953.3598234606
 20
1796.6250571065
 30
0.0
 10
2953.4348119373
 20
1795.8338735897
 30
0.0
 10
2953.4348119373
 20
1795.2329809457
 30
0.0
  0
SPLINE
  5
54A
100
AcDbEntity
  8
0
100
AcDbSpline
 62
7
  6
CONTINUOUS
 70
0
 71
3
 72
9
 73
5
 74
0
 42
0.0000001
 43
0.0000001
 44
0.0000000001
 40
0.0
 40
0.0
 40
0.0
 40
0.0
 40
0.2371460391
 40
1.0
 40
1.0
 40
1.0
 40
1.0
 10
2979.4052963078
 20
1802.009429559
 30
0.0
 10
2979.2085139785
 20
1802.1230829632
 30
0.0
 10
2978.4257361108
 20
1802.686765222
 30
0.0
 10
2977.9136702443
 20
1803.5693129664
 30
0.0
 10
2977.6811038336
 20
1804.2623360082
 30
0.0
  0
SPLINE
  5
54B
100
AcDbEntity
  8
0
100
AcDbSpline
 62
7
  6
CONTINUOUS
 70
0
 71
3
 72
9
 73
5
 74
0
 42
0.0000001
 43
0.0000001
 44
0.0000000001
 40
0.0
 40
0.0
 40
0.0
 40
0.0
 40
0.2343686937
 40
1.0
 40
1.0
 40
1.0
 40
1.0
 10
2977.6811038336
 20
1804.2623360082
 30
0.0
 10
2977.6225839379
 20
1804.4367190413
 30
0.0
 10
2977.4100096181
 20
1805.1931793464
 30
0.0
 10
2977.3350211414
 20
1805.9843628633
 30
0.0
 10
2977.3350211414
 20
1806.5852555072
 30
0.0
  0
SPLINE
  5
54C
100
AcDbEntity
  8
0
100
AcDbSpline
 62
7
  6
CONTINUOUS
 70
0
 71
3
 72
8
 73
4
 74
0
 42
0.0000001
 43
0.0000001
 44
0.0000000001
 40
0.0
 40
0.0
 40
0.0
 40
0.0
 40
1.0
 40
1.0
 40
1.0
 40
1.0
 10
2988.2385762149
 20
1819.7365276147
 30
0.0
 10
2988.5822527092
 20
1819.315640378
 30
0.0
 10
2988.836880099
 20
1818.8154895451
 30
0.0
 10
2989.0097537293
 20
1818.3003446076
 30
0.0
  0
SPLINE
  5
54D
100
AcDbEntity
  8
0
100
AcDbSpline
 62
7
  6
CONTINUOUS
 70
0
 71
3
 72
9
 73
5
 74
0
 42
0.0000001
 43
0.0000001
 44
0.0000000001
 40
0.0
 40
0.0
 40
0.0
 40
0.0
 40
0.2343686937
 40
1.0
 40
1.0
 40
1.0
 40
1.0
 10
2989.0097537293
 20
1818.3003446076
 30
0.0
 10
2989.068273625
 20
1818.1259615745
 30
0.0
 10
2989.2808479449
 20
1817.3695012694
 30
0.0
 10
2989.3558364216
 20
1816.5783177525
 30
0.0
 10
2989.3558364216
 20
1815.9774251085
 30
0.0
  0
SPLINE
  5
54E
100
AcDbEntity
  8
0
100
AcDbSpline
 62
7
  6
CONTINUOUS
 70
0
 71
3
 72
9
 73
5
 74
0
 42
0.0000001
 43
0.0000001
 44
0.0000000001
 40
0.0
 40
0.0
 40
0.0
 40
0.0
 40
0.2371460391
 40
1.0
 40
1.0
 40
1.0
 40
1.0
 10
3015.326320792
 20
1822.7538737219
 30
0.0
 10
3015.1295384628
 20
1822.867527126
 30
0.0
 10
3014.3467605951
 20
1823.4312093849
 30
0.0
 10
3013.8346947286
 20
1824.3137571293
 30
0.0
 10
3013.6021283179
 20
1825.006780171
 30
0.0
  0
SPLINE
  5
54F
100
AcDbEntity
  8
0
100
AcDbSpline
 62
7
  6
CONTINUOUS
 70
0
 71
3
 72
9
 73
5
 74
0
 42
0.0000001
 43
0.0000001
 44
0.0000000001
 40
0.0
 40
0.0
 40
0.0
 40
0.0
 40
0.2343686937
 40
1.0
 40
1.0
 40
1.0
 40
1.0
 10
3013.6021283179
 20
1825.006780171
 30
0.0
 10
3013.5436084222
 20
1825.1811632041
 30
0.0
 10
3013.3310341024
 20
1825.9376235092
 30
0.0
 10
3013.2560456257
 20
1826.7288070261
 30
0.0
 10
3013.2560456257
 20
1827.3296996701
 30
0.0
  0
SPLINE
  5
550
100
AcDbEntity
  8
0
100
AcDbSpline
 62
7
  6
CONTINUOUS
 70
0
 71
3
 72
8
 73
4
 74
0
 42
0.0000001
 43
0.0000001
 44
0.0000000001
 40
0.0
 40
0.0
 40
0.0
 40
0.0
 40
1.0
 40
1.0
 40
1.0
 40
1.0
 10
3024.1596006992
 20
1840.4809717776
 30
0.0
 10
3024.5032771935
 20
1840.0600845408
 30
0.0
 10
3024.7579045833
 20
1839.559933708
 30
0.0
 10
3024.9307782136
 20
1839.0447887704
 30
0.0
  0
SPLINE
  5
551
100
AcDbEntity
  8
0
100
AcDbSpline
 62
7
  6
CONTINUOUS
 70
0
 71
3
 72
9
 73
5
 74
0
 42
0.0000001
 43
0.0000001
 44
0.0000000001
 40
0.0
 40
0.0
 40
0.0
 40
0.0
 40
0.2343686937
 40
1.0
 40
1.0
 40
1.0
 40
1.0
 10
3024.9307782136
 20
1839.0447887704
 30
0.0
 10
3024.9892981093
 20
1838.8704057373
 30
0.0
 10
3025.2018724291
 20
1838.1139454322
 30
0.0
 10
3025.2768609058
 20
1837.3227619153
 30
0.0
 10
3025.2768609058
 20
1836.7218692714
 30
0.0
  0
SPLINE
  5
552
100
AcDbEntity
  8
0
100
AcDbSpline
 62
7
  6
CONTINUOUS
 70
0
 71
3
 72
9
 73
5
 74
0
 42
0.0000001
 43
0.0000001
 44
0.0000000001
 40
0.0
 40
0.0
 40
0.0
 40
0.0
 40
0.7577766394
 40
1.0
 40
1.0
 40
1.0
 40
1.0
 10
2416.3963108874
 20
1724.0430346271
 30
0.0
 10
2416.9488021536
 20
1725.0263102086
 30
0.0
 10
2417.5565888031
 20
1726.4007500107
 30
0.0
 10
2417.9558127205
 20
1727.8354720854
 30
0.0
 10
2418.0386210262
 20
1728.1863549573
 30
0.0
  0
SPLINE
  5
553
100
AcDbEntity
  8
0
100
AcDbSpline
 62
7
  6
CONTINUOUS
 70
0
 71
3
 72
9
 73
5
 74
0
 42
0.0000001
 43
0.0000001
 44
0.0000000001
 40
0.0
 40
0.0
 40
0.0
 40
0.0
 40
0.4633198874
 40
1.0
 40
1.0
 40
1.0
 40
1.0
 10
2445.3155712298
 20
1738.5350161856
 30
0.0
 10
2447.3996831407
 20
1739.0673904459
 30
0.0
 10
2451.2178555102
 20
1742.279678826
 30
0.0
 10
2453.3873451411
 20
1746.505796031
 30
0.0
 10
2453.9596455105
 20
1748.9307991201
 30
0.0
  0
SPLINE
  5
554
100
AcDbEntity
  8
0
100
AcDbSpline
 62
7
  6
CONTINUOUS
 70
0
 71
3
 72
9
 73
5
 74
0
 42
0.0000001
 43
0.0000001
 44
0.0000000001
 40
0.0
 40
0.0
 40
0.0
 40
0.0
 40
0.7624893768
 40
1.0
 40
1.0
 40
1.0
 40
1.0
 10
2444.7139523423
 20
1743.5980915517
 30
0.0
 10
2444.5593981922
 20
1742.940211663
 30
0.0
 10
2444.4188565668
 20
1742.0592987024
 30
0.0
 10
2444.3886401611
 20
1741.1730793599
 30
0.0
 10
2444.3886401611
 20
1740.9625748583
 30
0.0
  0
SPLINE
  5
555
100
AcDbEntity
  8
0
100
AcDbSpline
 62
7
  6
CONTINUOUS
 70
0
 71
3
 72
9
 73
5
 74
0
 42
0.0000001
 43
0.0000001
 44
0.0000000001
 40
0.0
 40
0.0
 40
0.0
 40
0.0
 40
0.4633198874
 40
1.0
 40
1.0
 40
1.0
 40
1.0
 10
2481.236595714
 20
1759.2794603484
 30
0.0
 10
2483.320707625
 20
1759.8118346087
 30
0.0
 10
2487.1388799945
 20
1763.0241229888
 30
0.0
 10
2489.3083696254
 20
1767.2502401939
 30
0.0
 10
2489.8806699948
 20
1769.675243283
 30
0.0
  0
SPLINE
  5
556
100
AcDbEntity
  8
0
100
AcDbSpline
 62
7
  6
CONTINUOUS
 70
0
 71
3
 72
9
 73
5
 74
0
 42
0.0000001
 43
0.0000001
 44
0.0000000001
 40
0.0
 40
0.0
 40
0.0
 40
0.0
 40
0.7624893768
 40
1.0
 40
1.0
 40
1.0
 40
1.0
 10
2480.6349768265
 20
1764.3425357145
 30
0.0
 10
2480.4804226765
 20
1763.6846558259
 30
0.0
 10
2480.339881051
 20
1762.8037428653
 30
0.0
 10
2480.3096646454
 20
1761.9175235228
 30
0.0
 10
2480.3096646454
 20
1761.7070190211
 30
0.0
  0
SPLINE
  5
557
100
AcDbEntity
  8
0
100
AcDbSpline
 62
7
  6
CONTINUOUS
 70
0
 71
3
 72
9
 73
5
 74
0
 42
0.0000001
 43
0.0000001
 44
0.0000000001
 40
0.0
 40
0.0
 40
0.0
 40
0.0
 40
0.4633198874
 40
1.0
 40
1.0
 40
1.0
 40
1.0
 10
2517.1576201983
 20
1780.0239045112
 30
0.0
 10
2519.2417321093
 20
1780.5562787716
 30
0.0
 10
2523.0599044788
 20
1783.7685671517
 30
0.0
 10
2525.2293941097
 20
1787.9946843567
 30
0.0
 10
2525.8016944791
 20
1790.4196874458
 30
0.0
  0
SPLINE
  5
558
100
AcDbEntity
  8
0
100
AcDbSpline
 62
7
  6
CONTINUOUS
 70
0
 71
3
 72
9
 73
5
 74
0
 42
0.0000001
 43
0.0000001
 44
0.0000000001
 40
0.0
 40
0.0
 40
0.0
 40
0.0
 40
0.7624893768
 40
1.0
 40
1.0
 40
1.0
 40
1.0
 10
2516.5560013108
 20
1785.0869798774
 30
0.0
 10
2516.4014471608
 20
1784.4290999887
 30
0.0
 10
2516.2609055353
 20
1783.5481870281
 30
0.0
 10
2516.2306891296
 20
1782.6619676856
 30
0.0
 10
2516.2306891296
 20
1782.451463184
 30
0.0
  0
SPLINE
  5
559
100
AcDbEntity
  8
0
100
AcDbSpline
 62
7
  6
CONTINUOUS
 70
0
 71
3
 72
9
 73
5
 74
0
 42
0.0000001
 43
0.0000001
 44
0.0000000001
 40
0.0
 40
0.0
 40
0.0
 40
0.0
 40
0.4633198874
 40
1.0
 40
1.0
 40
1.0
 40
1.0
 10
2553.0786446826
 20
1800.7683486741
 30
0.0
 10
2555.1627565936
 20
1801.3007229344
 30
0.0
 10
2558.980928963
 20
1804.5130113145
 30
0.0
 10
2561.1504185939
 20
1808.7391285195
 30
0.0
 10
2561.7227189633
 20
1811.1641316086
 30
0.0
  0
SPLINE
  5
55A
100
AcDbEntity
  8
0
100
AcDbSpline
 62
7
  6
CONTINUOUS
 70
0
 71
3
 72
9
 73
5
 74
0
 42
0.0000001
 43
0.0000001
 44
0.0000000001
 40
0.0
 40
0.0
 40
0.0
 40
0.0
 40
0.7624893768
 40
1.0
 40
1.0
 40
1.0
 40
1.0
 10
2552.4770257951
 20
1805.8314240402
 30
0.0
 10
2552.322471645
 20
1805.1735441515
 30
0.0
 10
2552.1819300196
 20
1804.2926311909
 30
0.0
 10
2552.1517136139
 20
1803.4064118484
 30
0.0
 10
2552.1517136139
 20
1803.1959073468
 30
0.0
  0
SPLINE
  5
55B
100
AcDbEntity
  8
0
100
AcDbSpline
 62
7
  6
CONTINUOUS
 70
0
 71
3
 72
9
 73
5
 74
0
 42
0.0000001
 43
0.0000001
 44
0.0000000001
 40
0.0
 40
0.0
 40
0.0
 40
0.0
 40
0.4633198874
 40
1.0
 40
1.0
 40
1.0
 40
1.0
 10
2624.9206936512
 20
1842.2572369997
 30
0.0
 10
2627.0048055621
 20
1842.7896112601
 30
0.0
 10
2630.8229779316
 20
1846.0018996402
 30
0.0
 10
2632.9924675625
 20
1850.2280168452
 30
0.0
 10
2633.5647679319
 20
1852.6530199343
 30
0.0
  0
SPLINE
  5
55C
100
AcDbEntity
  8
0
100
AcDbSpline
 62
7
  6
CONTINUOUS
 70
0
 71
3
 72
9
 73
5
 74
0
 42
0.0000001
 43
0.0000001
 44
0.0000000001
 40
0.0
 40
0.0
 40
0.0
 40
0.0
 40
0.7624893768
 40
1.0
 40
1.0
 40
1.0
 40
1.0
 10
2624.3190747637
 20
1847.3203123659
 30
0.0
 10
2624.1645206136
 20
1846.6624324772
 30
0.0
 10
2624.0239789881
 20
1845.7815195166
 30
0.0
 10
2623.9937625825
 20
1844.8953001741
 30
0.0
 10
2623.9937625825
 20
1844.6847956724
 30
0.0
  0
SPLINE
  5
55D
100
AcDbEntity
  8
0
100
AcDbSpline
 62
7
  6
CONTINUOUS
 70
0
 71
3
 72
9
 73
5
 74
0
 42
0.0000001
 43
0.0000001
 44
0.0000000001
 40
0.0
 40
0.0
 40
0.0
 40
0.0
 40
0.4633198874
 40
1.0
 40
1.0
 40
1.0
 40
1.0
 10
2660.8417181354
 20
1863.0016811626
 30
0.0
 10
2662.9258300464
 20
1863.5340554229
 30
0.0
 10
2666.7440024159
 20
1866.746343803
 30
0.0
 10
2668.9134920468
 20
1870.972461008
 30
0.0
 10
2669.4857924162
 20
1873.3974640971
 30
0.0
  0
SPLINE
  5
55E
100
AcDbEntity
  8
0
100
AcDbSpline
 62
7
  6
CONTINUOUS
 70
0
 71
3
 72
9
 73
5
 74
0
 42
0.0000001
 43
0.0000001
 44
0.0000000001
 40
0.0
 40
0.0
 40
0.0
 40
0.0
 40
0.7624893768
 40
1.0
 40
1.0
 40
1.0
 40
1.0
 10
2660.2400992479
 20
1868.0647565287
 30
0.0
 10
2660.0855450979
 20
1867.40687664
 30
0.0
 10
2659.9450034724
 20
1866.5259636794
 30
0.0
 10
2659.9147870668
 20
1865.6397443369
 30
0.0
 10
2659.9147870668
 20
1865.4292398353
 30
0.0
  0
SPLINE
  5
55F
100
AcDbEntity
  8
0
100
AcDbSpline
 62
7
  6
CONTINUOUS
 70
0
 71
3
 72
9
 73
5
 74
0
 42
0.0000001
 43
0.0000001
 44
0.0000000001
 40
0.0
 40
0.0
 40
0.0
 40
0.0
 40
0.4633198874
 40
1.0
 40
1.0
 40
1.0
 40
1.0
 10
2696.7627426197
 20
1883.7461253254
 30
0.0
 10
2698.8468545307
 20
1884.2784995857
 30
0.0
 10
2702.6650269002
 20
1887.4907879658
 30
0.0
 10
2704.834516531
 20
1891.7169051709
 30
0.0
 10
2705.4068169004
 20
1894.14190826
 30
0.0
  0
SPLINE
  5
560
100
AcDbEntity
  8
0
100
AcDbSpline
 62
7
  6
CONTINUOUS
 70
0
 71
3
 72
9
 73
5
 74
0
 42
0.0000001
 43
0.0000001
 44
0.0000000001
 40
0.0
 40
0.0
 40
0.0
 40
0.0
 40
0.7624893768
 40
1.0
 40
1.0
 40
1.0
 40
1.0
 10
2696.1611237322
 20
1888.8092006915
 30
0.0
 10
2696.0065695822
 20
1888.1513208029
 30
0.0
 10
2695.8660279567
 20
1887.2704078423
 30
0.0
 10
2695.835811551
 20
1886.3841884998
 30
0.0
 10
2695.835811551
 20
1886.1736839981
 30
0.0
  0
SPLINE
  5
561
100
AcDbEntity
  8
0
100
AcDbSpline
 62
7
  6
CONTINUOUS
 70
0
 71
3
 72
9
 73
5
 74
0
 42
0.0000001
 43
0.0000001
 44
0.0000000001
 40
0.0
 40
0.0
 40
0.0
 40
0.0
 40
0.4633198874
 40
1.0
 40
1.0
 40
1.0
 40
1.0
 10
2732.683767104
 20
1904.4905694882
 30
0.0
 10
2734.767879015
 20
1905.0229437485
 30
0.0
 10
2738.5860513844
 20
1908.2352321287
 30
0.0
 10
2740.7555410153
 20
1912.4613493337
 30
0.0
 10
2741.3278413847
 20
1914.8863524228
 30
0.0
  0
SPLINE
  5
562
100
AcDbEntity
  8
0
100
AcDbSpline
 62
7
  6
CONTINUOUS
 70
0
 71
3
 72
9
 73
5
 74
0
 42
0.0000001
 43
0.0000001
 44
0.0000000001
 40
0.0
 40
0.0
 40
0.0
 40
0.0
 40
0.7624893768
 40
1.0
 40
1.0
 40
1.0
 40
1.0
 10
2732.0821482165
 20
1909.5536448544
 30
0.0
 10
2731.9275940664
 20
1908.8957649657
 30
0.0
 10
2731.787052441
 20
1908.0148520051
 30
0.0
 10
2731.7568360353
 20
1907.1286326626
 30
0.0
 10
2731.7568360353
 20
1906.9181281609
 30
0.0
  0
SPLINE
  5
563
100
AcDbEntity
  8
0
100
AcDbSpline
 62
7
  6
CONTINUOUS
 70
0
 71
3
 72
9
 73
5
 74
0
 42
0.0000001
 43
0.0000001
 44
0.0000000001
 40
0.0
 40
0.0
 40
0.0
 40
0.0
 40
0.4633198874
 40
1.0
 40
1.0
 40
1.0
 40
1.0
 10
2768.6047915883
 20
1925.2350136511
 30
0.0
 10
2770.6889034992
 20
1925.7673879114
 30
0.0
 10
2774.5070758687
 20
1928.9796762915
 30
0.0
 10
2776.6765654996
 20
1933.2057934965
 30
0.0
 10
2777.248865869
 20
1935.6307965856
 30
0.0
  0
SPLINE
  5
564
100
AcDbEntity
  8
0
100
AcDbSpline
 62
7
  6
CONTINUOUS
 70
0
 71
3
 72
9
 73
5
 74
0
 42
0.0000001
 43
0.0000001
 44
0.0000000001
 40
0.0
 40
0.0
 40
0.0
 40
0.0
 40
0.7624893768
 40
1.0
 40
1.0
 40
1.0
 40
1.0
 10
2768.0031727008
 20
1930.2980890172
 30
0.0
 10
2767.8486185507
 20
1929.6402091285
 30
0.0
 10
2767.7080769253
 20
1928.7592961679
 30
0.0
 10
2767.6778605196
 20
1927.8730768254
 30
0.0
 10
2767.6778605196
 20
1927.6625723238
 30
0.0
  0
SPLINE
  5
565
100
AcDbEntity
  8
0
100
AcDbSpline
 62
7
  6
CONTINUOUS
 70
0
 71
3
 72
9
 73
5
 74
0
 42
0.0000001
 43
0.0000001
 44
0.0000000001
 40
0.0
 40
0.0
 40
0.0
 40
0.0
 40
0.4633198874
 40
1.0
 40
1.0
 40
1.0
 40
1.0
 10
2804.5258160725
 20
1945.9794578139
 30
0.0
 10
2806.6099279835
 20
1946.5118320742
 30
0.0
 10
2810.428100353
 20
1949.7241204543
 30
0.0
 10
2812.5975899839
 20
1953.9502376594
 30
0.0
 10
2813.1698903533
 20
1956.3752407485
 30
0.0
  0
SPLINE
  5
566
100
AcDbEntity
  8
0
100
AcDbSpline
 62
7
  6
CONTINUOUS
 70
0
 71
3
 72
9
 73
5
 74
0
 42
0.0000001
 43
0.0000001
 44
0.0000000001
 40
0.0
 40
0.0
 40
0.0
 40
0.0
 40
0.7624893768
 40
1.0
 40
1.0
 40
1.0
 40
1.0
 10
2803.924197185
 20
1951.04253318
 30
0.0
 10
2803.769643035
 20
1950.3846532914
 30
0.0
 10
2803.6291014095
 20
1949.5037403308
 30
0.0
 10
2803.5988850039
 20
1948.6175209883
 30
0.0
 10
2803.5988850039
 20
1948.4070164866
 30
0.0
  0
SPLINE
  5
567
100
AcDbEntity
  8
0
100
AcDbSpline
 62
7
  6
CONTINUOUS
 70
0
 71
3
 72
10
 73
6
 74
0
 42
0.0000001
 43
0.0000001
 44
0.0000000001
 40
0.0
 40
0.0
 40
0.0
 40
0.0
 40
0.4227036001
 40
0.7224444811
 40
1.0
 40
1.0
 40
1.0
 40
1.0
 10
2799.3588450908
 20
1926.7213992606
 30
0.0
 10
2798.3568316659
 20
1927.297538324
 30
0.0
 10
2796.0084846938
 20
1925.8924075652
 30
0.0
 10
2794.6802903024
 20
1923.6551004139
 30
0.0
 10
2794.2297201531
 20
1922.0637847012
 30
0.0
 10
2794.2297201531
 20
1921.3048370765
 30
0.0
  0
SPLINE
  5
568
100
AcDbEntity
  8
0
100
AcDbSpline
 62
7
  6
CONTINUOUS
 70
0
 71
3
 72
10
 73
6
 74
0
 42
0.0000001
 43
0.0000001
 44
0.0000000001
 40
0.0
 40
0.0
 40
0.0
 40
0.0
 40
0.4227036001
 40
0.7224444811
 40
1.0
 40
1.0
 40
1.0
 40
1.0
 10
2567.7813742522
 20
1773.857061735
 30
0.0
 10
2566.7793608273
 20
1774.4332007983
 30
0.0
 10
2564.4310138552
 20
1773.0280700395
 30
0.0
 10
2563.1028194638
 20
1770.7907628883
 30
0.0
 10
2562.6522493145
 20
1769.1994471755
 30
0.0
 10
2562.6522493145
 20
1768.4404995508
 30
0.0
  0
SPLINE
  5
569
100
AcDbEntity
  8
0
100
AcDbSpline
 62
7
  6
CONTINUOUS
 70
0
 71
3
 72
10
 73
6
 74
0
 42
0.0000001
 43
0.0000001
 44
0.0000000001
 40
0.0
 40
0.0
 40
0.0
 40
0.0
 40
0.4227036001
 40
0.7224444811
 40
1.0
 40
1.0
 40
1.0
 40
1.0
 10
2846.7349994303
 20
1934.953188157
 30
0.0
 10
2845.7329860054
 20
1935.5293272203
 30
0.0
 10
2843.3846390333
 20
1934.1241964615
 30
0.0
 10
2842.0564446419
 20
1931.8868893103
 30
0.0
 10
2841.6058744926
 20
1930.2955735975
 30
0.0
 10
2841.6058744926
 20
1929.5366259728
 30
0.0
  0
SPLINE
  5
56A
100
AcDbEntity
  8
0
100
AcDbSpline
 62
7
  6
CONTINUOUS
 70
0
 71
3
 72
10
 73
6
 74
0
 42
0.0000001
 43
0.0000001
 44
0.0000000001
 40
0.0
 40
0.0
 40
0.0
 40
0.0
 40
0.5204402689
 40
0.7831714723
 40
1.0
 40
1.0
 40
1.0
 40
1.0
 10
3025.2768609058
 20
1836.7218692714
 30
0.0
 10
3025.2768609058
 20
1833.7933217761
 30
0.0
 10
3023.4692132667
 20
1829.3761765762
 30
0.0
 10
3019.6797284331
 20
1825.2140926564
 30
0.0
 10
3017.216573388
 20
1823.8541325575
 30
0.0
 10
3016.0207129717
 20
1823.6121033373
 30
0.0
  0
SPLINE
  5
56B
100
AcDbEntity
  8
0
100
AcDbSpline
 62
7
  6
CONTINUOUS
 70
0
 71
3
 72
8
 73
4
 74
0
 42
0.0000001
 43
0.0000001
 44
0.0000000001
 40
0.0
 40
0.0
 40
0.0
 40
0.0
 40
1.0
 40
1.0
 40
1.0
 40
1.0
 10
3016.0207129717
 20
1823.6121033373
 30
0.0
 10
3015.4875157528
 20
1823.5041899845
 30
0.0
 10
3014.9264483299
 20
1823.4744994894
 30
0.0
 10
3014.3894689646
 20
1823.5616644321
 30
0.0
  0
SPLINE
  5
56C
100
AcDbEntity
  8
0
100
AcDbSpline
 62
7
  6
CONTINUOUS
 70
0
 71
3
 72
10
 73
6
 74
0
 42
0.0000001
 43
0.0000001
 44
0.0000000001
 40
0.0
 40
0.0
 40
0.0
 40
0.0
 40
0.5204402689
 40
0.7831714723
 40
1.0
 40
1.0
 40
1.0
 40
1.0
 10
2989.3558364216
 20
1815.9774251085
 30
0.0
 10
2989.3558364216
 20
1813.0488776133
 30
0.0
 10
2987.5481887824
 20
1808.6317324134
 30
0.0
 10
2983.7587039488
 20
1804.4696484935
 30
0.0
 10
2981.2955489037
 20
1803.1096883947
 30
0.0
 10
2980.0996884875
 20
1802.8676591745
 30
0.0
  0
SPLINE
  5
56D
100
AcDbEntity
  8
0
100
AcDbSpline
 62
7
  6
CONTINUOUS
 70
0
 71
3
 72
8
 73
4
 74
0
 42
0.0000001
 43
0.0000001
 44
0.0000000001
 40
0.0
 40
0.0
 40
0.0
 40
0.0
 40
1.0
 40
1.0
 40
1.0
 40
1.0
 10
2980.0996884875
 20
1802.8676591745
 30
0.0
 10
2979.5664912685
 20
1802.7597458216
 30
0.0
 10
2979.0054238456
 20
1802.7300553266
 30
0.0
 10
2978.4684444803
 20
1802.8172202693
 30
0.0
  0
SPLINE
  5
56E
100
AcDbEntity
  8
0
100
AcDbSpline
 62
7
  6
CONTINUOUS
 70
0
 71
3
 72
10
 73
6
 74
0
 42
0.0000001
 43
0.0000001
 44
0.0000000001
 40
0.0
 40
0.0
 40
0.0
 40
0.0
 40
0.5204402689
 40
0.7831714723
 40
1.0
 40
1.0
 40
1.0
 40
1.0
 10
2953.4348119373
 20
1795.2329809457
 30
0.0
 10
2953.4348119373
 20
1792.3044334504
 30
0.0
 10
2951.6271642982
 20
1787.8872882505
 30
0.0
 10
2947.8376794646
 20
1783.7252043307
 30
0.0
 10
2945.3745244195
 20
1782.3652442319
 30
0.0
 10
2944.1786640032
 20
1782.1232150117
 30
0.0
  0
SPLINE
  5
56F
100
AcDbEntity
  8
0
100
AcDbSpline
 62
7
  6
CONTINUOUS
 70
0
 71
3
 72
8
 73
4
 74
0
 42
0.0000001
 43
0.0000001
 44
0.0000000001
 40
0.0
 40
0.0
 40
0.0
 40
0.0
 40
1.0
 40
1.0
 40
1.0
 40
1.0
 10
2944.1786640032
 20
1782.1232150117
 30
0.0
 10
2943.6454667842
 20
1782.0153016588
 30
0.0
 10
2943.0843993613
 20
1781.9856111638
 30
0.0
 10
2942.547419996
 20
1782.0727761065
 30
0.0
  0
SPLINE
  5
570
100
AcDbEntity
  8
0
100
AcDbSpline
 62
7
  6
CONTINUOUS
 70
0
 71
3
 72
10
 73
6
 74
0
 42
0.0000001
 43
0.0000001
 44
0.0000000001
 40
0.0
 40
0.0
 40
0.0
 40
0.0
 40
0.5204402689
 40
0.7831714723
 40
1.0
 40
1.0
 40
1.0
 40
1.0
 10
2917.513787453
 20
1774.4885367829
 30
0.0
 10
2917.513787453
 20
1771.5599892876
 30
0.0
 10
2915.7061398139
 20
1767.1428440877
 30
0.0
 10
2911.9166549803
 20
1762.9807601679
 30
0.0
 10
2909.4534999352
 20
1761.620800069
 30
0.0
 10
2908.2576395189
 20
1761.3787708488
 30
0.0
  0
SPLINE
  5
571
100
AcDbEntity
  8
0
100
AcDbSpline
 62
7
  6
CONTINUOUS
 70
0
 71
3
 72
8
 73
4
 74
0
 42
0.0000001
 43
0.0000001
 44
0.0000000001
 40
0.0
 40
0.0
 40
0.0
 40
0.0
 40
1.0
 40
1.0
 40
1.0
 40
1.0
 10
2908.2576395189
 20
1761.3787708488
 30
0.0
 10
2907.7244423
 20
1761.270857496
 30
0.0
 10
2907.163374877
 20
1761.2411670009
 30
0.0
 10
2906.6263955117
 20
1761.3283319436
 30
0.0
  0
SPLINE
  5
572
100
AcDbEntity
  8
0
100
AcDbSpline
 62
7
  6
CONTINUOUS
 70
0
 71
3
 72
10
 73
6
 74
0
 42
0.0000001
 43
0.0000001
 44
0.0000000001
 40
0.0
 40
0.0
 40
0.0
 40
0.0
 40
0.5204402689
 40
0.7831714723
 40
1.0
 40
1.0
 40
1.0
 40
1.0
 10
2881.5927629687
 20
1753.74409262
 30
0.0
 10
2881.5927629687
 20
1750.8155451248
 30
0.0
 10
2879.7851153296
 20
1746.3983999249
 30
0.0
 10
2875.995630496
 20
1742.236316005
 30
0.0
 10
2873.5324754509
 20
1740.8763559062
 30
0.0
 10
2872.3366150346
 20
1740.634326686
 30
0.0
  0
SPLINE
  5
573
100
AcDbEntity
  8
0
100
AcDbSpline
 62
7
  6
CONTINUOUS
 70
0
 71
3
 72
8
 73
4
 74
0
 42
0.0000001
 43
0.0000001
 44
0.0000000001
 40
0.0
 40
0.0
 40
0.0
 40
0.0
 40
1.0
 40
1.0
 40
1.0
 40
1.0
 10
2872.3366150346
 20
1740.634326686
 30
0.0
 10
2871.8034178157
 20
1740.5264133331
 30
0.0
 10
2871.2423503928
 20
1740.4967228381
 30
0.0
 10
2870.7053710274
 20
1740.5838877808
 30
0.0
  0
SPLINE
  5
574
100
AcDbEntity
  8
0
100
AcDbSpline
 62
7
  6
CONTINUOUS
 70
0
 71
3
 72
10
 73
6
 74
0
 42
0.0000001
 43
0.0000001
 44
0.0000000001
 40
0.0
 40
0.0
 40
0.0
 40
0.0
 40
0.5204402689
 40
0.7831714723
 40
1.0
 40
1.0
 40
1.0
 40
1.0
 10
2845.6717384845
 20
1732.9996484572
 30
0.0
 10
2845.6717384845
 20
1730.0711009619
 30
0.0
 10
2843.8640908453
 20
1725.653955762
 30
0.0
 10
2840.0746060117
 20
1721.4918718422
 30
0.0
 10
2837.6114509666
 20
1720.1319117434
 30
0.0
 10
2836.4155905503
 20
1719.8898825232
 30
0.0
  0
SPLINE
  5
575
100
AcDbEntity
  8
0
100
AcDbSpline
 62
7
  6
CONTINUOUS
 70
0
 71
3
 72
8
 73
4
 74
0
 42
0.0000001
 43
0.0000001
 44
0.0000000001
 40
0.0
 40
0.0
 40
0.0
 40
0.0
 40
1.0
 40
1.0
 40
1.0
 40
1.0
 10
2836.4155905503
 20
1719.8898825232
 30
0.0
 10
2835.8823933314
 20
1719.7819691703
 30
0.0
 10
2835.3213259085
 20
1719.7522786753
 30
0.0
 10
2834.7843465432
 20
1719.839443618
 30
0.0
  0
SPLINE
  5
576
100
AcDbEntity
  8
0
100
AcDbSpline
 62
7
  6
CONTINUOUS
 70
0
 71
3
 72
10
 73
6
 74
0
 42
0.0000001
 43
0.0000001
 44
0.0000000001
 40
0.0
 40
0.0
 40
0.0
 40
0.0
 40
0.5204402689
 40
0.7831714723
 40
1.0
 40
1.0
 40
1.0
 40
1.0
 10
2773.8296895159
 20
1691.5107601315
 30
0.0
 10
2773.8296895159
 20
1688.5822126363
 30
0.0
 10
2772.0220418768
 20
1684.1650674364
 30
0.0
 10
2768.2325570432
 20
1680.0029835165
 30
0.0
 10
2765.7694019981
 20
1678.6430234177
 30
0.0
 10
2764.5735415818
 20
1678.4009941975
 30
0.0
  0
SPLINE
  5
577
100
AcDbEntity
  8
0
100
AcDbSpline
 62
7
  6
CONTINUOUS
 70
0
 71
3
 72
8
 73
4
 74
0
 42
0.0000001
 43
0.0000001
 44
0.0000000001
 40
0.0
 40
0.0
 40
0.0
 40
0.0
 40
1.0
 40
1.0
 40
1.0
 40
1.0
 10
2764.5735415818
 20
1678.4009941975
 30
0.0
 10
2764.0403443629
 20
1678.2930808446
 30
0.0
 10
2763.4792769399
 20
1678.2633903496
 30
0.0
 10
2762.9422975746
 20
1678.3505552923
 30
0.0
  0
SPLINE
  5
578
100
AcDbEntity
  8
0
100
AcDbSpline
 62
7
  6
CONTINUOUS
 70
0
 71
3
 72
10
 73
6
 74
0
 42
0.0000001
 43
0.0000001
 44
0.0000000001
 40
0.0
 40
0.0
 40
0.0
 40
0.0
 40
0.5204402689
 40
0.7831714723
 40
1.0
 40
1.0
 40
1.0
 40
1.0
 10
2737.9086650316
 20
1670.7663159687
 30
0.0
 10
2737.9086650316
 20
1667.8377684734
 30
0.0
 10
2736.1010173925
 20
1663.4206232735
 30
0.0
 10
2732.3115325589
 20
1659.2585393537
 30
0.0
 10
2729.8483775138
 20
1657.8985792549
 30
0.0
 10
2728.6525170975
 20
1657.6565500347
 30
0.0
  0
SPLINE
  5
579
100
AcDbEntity
  8
0
100
AcDbSpline
 62
7
  6
CONTINUOUS
 70
0
 71
3
 72
8
 73
4
 74
0
 42
0.0000001
 43
0.0000001
 44
0.0000000001
 40
0.0
 40
0.0
 40
0.0
 40
0.0
 40
1.0
 40
1.0
 40
1.0
 40
1.0
 10
2728.6525170975
 20
1657.6565500347
 30
0.0
 10
2728.1193198786
 20
1657.5486366818
 30
0.0
 10
2727.5582524557
 20
1657.5189461868
 30
0.0
 10
2727.0212730903
 20
1657.6061111295
 30
0.0
  0
SPLINE
  5
57A
100
AcDbEntity
  8
0
100
AcDbSpline
 62
7
  6
CONTINUOUS
 70
0
 71
3
 72
10
 73
6
 74
0
 42
0.0000001
 43
0.0000001
 44
0.0000000001
 40
0.0
 40
0.0
 40
0.0
 40
0.0
 40
0.5204402689
 40
0.7831714723
 40
1.0
 40
1.0
 40
1.0
 40
1.0
 10
2701.9876405474
 20
1650.0218718059
 30
0.0
 10
2701.9876405474
 20
1647.0933243106
 30
0.0
 10
2700.1799929082
 20
1642.6761791107
 30
0.0
 10
2696.3905080746
 20
1638.5140951909
 30
0.0
 10
2693.9273530295
 20
1637.154135092
 30
0.0
 10
2692.7314926132
 20
1636.9121058718
 30
0.0
  0
SPLINE
  5
57B
100
AcDbEntity
  8
0
100
AcDbSpline
 62
7
  6
CONTINUOUS
 70
0
 71
3
 72
8
 73
4
 74
0
 42
0.0000001
 43
0.0000001
 44
0.0000000001
 40
0.0
 40
0.0
 40
0.0
 40
0.0
 40
1.0
 40
1.0
 40
1.0
 40
1.0
 10
2692.7314926132
 20
1636.9121058718
 30
0.0
 10
2692.1982953943
 20
1636.804192519
 30
0.0
 10
2691.6372279714
 20
1636.7745020239
 30
0.0
 10
2691.1002486061
 20
1636.8616669666
 30
0.0
  0
SPLINE
  5
57C
100
AcDbEntity
  8
0
100
AcDbSpline
 62
7
  6
CONTINUOUS
 70
0
 71
3
 72
10
 73
6
 74
0
 42
0.0000001
 43
0.0000001
 44
0.0000000001
 40
0.0
 40
0.0
 40
0.0
 40
0.0
 40
0.5204402689
 40
0.7831714723
 40
1.0
 40
1.0
 40
1.0
 40
1.0
 10
2666.0666160631
 20
1629.277427643
 30
0.0
 10
2666.0666160631
 20
1626.3488801478
 30
0.0
 10
2664.2589684239
 20
1621.9317349479
 30
0.0
 10
2660.4694835903
 20
1617.769651028
 30
0.0
 10
2658.0063285452
 20
1616.4096909292
 30
0.0
 10
2656.810468129
 20
1616.167661709
 30
0.0
  0
SPLINE
  5
57D
100
AcDbEntity
  8
0
100
AcDbSpline
 62
7
  6
CONTINUOUS
 70
0
 71
3
 72
8
 73
4
 74
0
 42
0.0000001
 43
0.0000001
 44
0.0000000001
 40
0.0
 40
0.0
 40
0.0
 40
0.0
 40
1.0
 40
1.0
 40
1.0
 40
1.0
 10
2656.810468129
 20
1616.167661709
 30
0.0
 10
2656.27727091
 20
1616.0597483561
 30
0.0
 10
2655.7162034871
 20
1616.0300578611
 30
0.0
 10
2655.1792241218
 20
1616.1172228038
 30
0.0
  0
SPLINE
  5
57E
100
AcDbEntity
  8
0
100
AcDbSpline
 62
7
  6
CONTINUOUS
 70
0
 71
3
 72
9
 73
5
 74
0
 42
0.0000001
 43
0.0000001
 44
0.0000000001
 40
0.0
 40
0.0
 40
0.0
 40
0.0
 40
0.2291176475
 40
1.0
 40
1.0
 40
1.0
 40
1.0
 10
2630.1455915788
 20
1608.5329834802
 30
0.0
 10
2630.1455915788
 20
1607.9895278153
 30
0.0
 10
2629.9398129911
 20
1605.6188334844
 30
0.0
 10
2629.0704913267
 20
1603.3347397099
 30
0.0
 10
2628.1747918528
 20
1601.7406522104
 30
0.0
  0
SPLINE
  5
57F
100
AcDbEntity
  8
0
100
AcDbSpline
 62
7
  6
CONTINUOUS
 70
0
 71
3
 72
10
 73
6
 74
0
 42
0.0000001
 43
0.0000001
 44
0.0000000001
 40
0.0
 40
0.0
 40
0.0
 40
0.0
 40
0.5204402689
 40
0.7831714723
 40
1.0
 40
1.0
 40
1.0
 40
1.0
 10
3013.2560456257
 20
1827.3296996701
 30
0.0
 10
3013.2560456257
 20
1830.2582471653
 30
0.0
 10
3015.0636932648
 20
1834.6753923652
 30
0.0
 10
3018.8531780984
 20
1838.8374762851
 30
0.0
 10
3021.3163331435
 20
1840.1974363839
 30
0.0
 10
3022.5121935598
 20
1840.4394656041
 30
0.0
  0
SPLINE
  5
580
100
AcDbEntity
  8
0
100
AcDbSpline
 62
7
  6
CONTINUOUS
 70
0
 71
3
 72
9
 73
5
 74
0
 42
0.0000001
 43
0.0000001
 44
0.0000000001
 40
0.0
 40
0.0
 40
0.0
 40
0.0
 40
0.2719582665
 40
1.0
 40
1.0
 40
1.0
 40
1.0
 10
3022.5121935598
 20
1840.4394656041
 30
0.0
 10
3022.7675426908
 20
1840.4911455077
 30
0.0
 10
3023.7156896752
 20
1840.6191685919
 30
0.0
 10
3024.7239615131
 20
1840.4214432377
 30
0.0
 10
3025.327906083
 20
1840.0726296194
 30
0.0
  0
SPLINE
  5
581
100
AcDbEntity
  8
0
100
AcDbSpline
 62
7
  6
CONTINUOUS
 70
0
 71
3
 72
10
 73
6
 74
0
 42
0.0000001
 43
0.0000001
 44
0.0000000001
 40
0.0
 40
0.0
 40
0.0
 40
0.0
 40
0.5204402689
 40
0.7831714723
 40
1.0
 40
1.0
 40
1.0
 40
1.0
 10
2977.3350211414
 20
1806.5852555072
 30
0.0
 10
2977.3350211414
 20
1809.5138030025
 30
0.0
 10
2979.1426687805
 20
1813.9309482024
 30
0.0
 10
2982.9321536141
 20
1818.0930321222
 30
0.0
 10
2985.3953086592
 20
1819.4529922211
 30
0.0
 10
2986.5911690755
 20
1819.6950214413
 30
0.0
  0
SPLINE
  5
582
100
AcDbEntity
  8
0
100
AcDbSpline
 62
7
  6
CONTINUOUS
 70
0
 71
3
 72
9
 73
5
 74
0
 42
0.0000001
 43
0.0000001
 44
0.0000000001
 40
0.0
 40
0.0
 40
0.0
 40
0.0
 40
0.2719582665
 40
1.0
 40
1.0
 40
1.0
 40
1.0
 10
2986.5911690755
 20
1819.6950214413
 30
0.0
 10
2986.8465182066
 20
1819.7467013449
 30
0.0
 10
2987.794665191
 20
1819.8747244291
 30
0.0
 10
2988.8029370288
 20
1819.6769990748
 30
0.0
 10
2989.4068815988
 20
1819.3281854566
 30
0.0
  0
SPLINE
  5
583
100
AcDbEntity
  8
0
100
AcDbSpline
 62
7
  6
CONTINUOUS
 70
0
 71
3
 72
10
 73
6
 74
0
 42
0.0000001
 43
0.0000001
 44
0.0000000001
 40
0.0
 40
0.0
 40
0.0
 40
0.0
 40
0.5204402689
 40
0.7831714723
 40
1.0
 40
1.0
 40
1.0
 40
1.0
 10
2941.4139966571
 20
1785.8408113444
 30
0.0
 10
2941.4139966571
 20
1788.7693588397
 30
0.0
 10
2943.2216442963
 20
1793.1865040396
 30
0.0
 10
2947.0111291299
 20
1797.3485879594
 30
0.0
 10
2949.4742841749
 20
1798.7085480583
 30
0.0
 10
2950.6701445912
 20
1798.9505772784
 30
0.0
  0
SPLINE
  5
584
100
AcDbEntity
  8
0
100
AcDbSpline
 62
7
  6
CONTINUOUS
 70
0
 71
3
 72
9
 73
5
 74
0
 42
0.0000001
 43
0.0000001
 44
0.0000000001
 40
0.0
 40
0.0
 40
0.0
 40
0.0
 40
0.2719582665
 40
1.0
 40
1.0
 40
1.0
 40
1.0
 10
2950.6701445912
 20
1798.9505772784
 30
0.0
 10
2950.9254937223
 20
1799.0022571821
 30
0.0
 10
2951.8736407067
 20
1799.1302802663
 30
0.0
 10
2952.8819125445
 20
1798.932554912
 30
0.0
 10
2953.4858571145
 20
1798.5837412937
 30
0.0
  0
SPLINE
  5
585
100
AcDbEntity
  8
0
100
AcDbSpline
 62
7
  6
CONTINUOUS
 70
0
 71
3
 72
10
 73
6
 74
0
 42
0.0000001
 43
0.0000001
 44
0.0000000001
 40
0.0
 40
0.0
 40
0.0
 40
0.0
 40
0.5204402689
 40
0.7831714723
 40
1.0
 40
1.0
 40
1.0
 40
1.0
 10
2905.4929721728
 20
1765.0963671816
 30
0.0
 10
2905.4929721728
 20
1768.0249146768
 30
0.0
 10
2907.300619812
 20
1772.4420598767
 30
0.0
 10
2911.0901046456
 20
1776.6041437966
 30
0.0
 10
2913.5532596907
 20
1777.9641038954
 30
0.0
 10
2914.749120107
 20
1778.2061331156
 30
0.0
  0
SPLINE
  5
586
100
AcDbEntity
  8
0
100
AcDbSpline
 62
7
  6
CONTINUOUS
 70
0
 71
3
 72
9
 73
5
 74
0
 42
0.0000001
 43
0.0000001
 44
0.0000000001
 40
0.0
 40
0.0
 40
0.0
 40
0.0
 40
0.2719582665
 40
1.0
 40
1.0
 40
1.0
 40
1.0
 10
2914.749120107
 20
1778.2061331156
 30
0.0
 10
2915.004469238
 20
1778.2578130192
 30
0.0
 10
2915.9526162224
 20
1778.3858361034
 30
0.0
 10
2916.9608880602
 20
1778.1881107492
 30
0.0
 10
2917.5648326302
 20
1777.8392971309
 30
0.0
  0
SPLINE
  5
587
100
AcDbEntity
  8
0
100
AcDbSpline
 62
7
  6
CONTINUOUS
 70
0
 71
3
 72
10
 73
6
 74
0
 42
0.0000001
 43
0.0000001
 44
0.0000000001
 40
0.0
 40
0.0
 40
0.0
 40
0.0
 40
0.5204402689
 40
0.7831714723
 40
1.0
 40
1.0
 40
1.0
 40
1.0
 10
2869.5719476886
 20
1744.3519230187
 30
0.0
 10
2869.5719476886
 20
1747.280470514
 30
0.0
 10
2871.3795953277
 20
1751.6976157139
 30
0.0
 10
2875.1690801613
 20
1755.8596996337
 30
0.0
 10
2877.6322352064
 20
1757.2196597326
 30
0.0
 10
2878.8280956227
 20
1757.4616889528
 30
0.0
  0
SPLINE
  5
588
100
AcDbEntity
  8
0
100
AcDbSpline
 62
7
  6
CONTINUOUS
 70
0
 71
3
 72
9
 73
5
 74
0
 42
0.0000001
 43
0.0000001
 44
0.0000000001
 40
0.0
 40
0.0
 40
0.0
 40
0.0
 40
0.2719582665
 40
1.0
 40
1.0
 40
1.0
 40
1.0
 10
2878.8280956227
 20
1757.4616889528
 30
0.0
 10
2879.0834447537
 20
1757.5133688564
 30
0.0
 10
2880.0315917381
 20
1757.6413919406
 30
0.0
 10
2881.039863576
 20
1757.4436665863
 30
0.0
 10
2881.6438081459
 20
1757.0948529681
 30
0.0
  0
SPLINE
  5
589
100
AcDbEntity
  8
0
100
AcDbSpline
 62
7
  6
CONTINUOUS
 70
0
 71
3
 72
10
 73
6
 74
0
 42
0.0000001
 43
0.0000001
 44
0.0000000001
 40
0.0
 40
0.0
 40
0.0
 40
0.0
 40
0.5204402689
 40
0.7831714723
 40
1.0
 40
1.0
 40
1.0
 40
1.0
 10
2833.6509232043
 20
1723.6074788559
 30
0.0
 10
2833.6509232043
 20
1726.5360263512
 30
0.0
 10
2835.4585708434
 20
1730.9531715511
 30
0.0
 10
2839.248055677
 20
1735.1152554709
 30
0.0
 10
2841.7112107221
 20
1736.4752155698
 30
0.0
 10
2842.9070711384
 20
1736.7172447899
 30
0.0
  0
SPLINE
  5
58A
100
AcDbEntity
  8
0
100
AcDbSpline
 62
7
  6
CONTINUOUS
 70
0
 71
3
 72
9
 73
5
 74
0
 42
0.0000001
 43
0.0000001
 44
0.0000000001
 40
0.0
 40
0.0
 40
0.0
 40
0.0
 40
0.2719582665
 40
1.0
 40
1.0
 40
1.0
 40
1.0
 10
2842.9070711384
 20
1736.7172447899
 30
0.0
 10
2843.1624202694
 20
1736.7689246936
 30
0.0
 10
2844.1105672539
 20
1736.8969477778
 30
0.0
 10
2845.1188390917
 20
1736.6992224235
 30
0.0
 10
2845.7227836617
 20
1736.3504088052
 30
0.0
  0
SPLINE
  5
58B
100
AcDbEntity
  8
0
100
AcDbSpline
 62
7
  6
CONTINUOUS
 70
0
 71
3
 72
10
 73
6
 74
0
 42
0.0000001
 43
0.0000001
 44
0.0000000001
 40
0.0
 40
0.0
 40
0.0
 40
0.0
 40
0.5204402689
 40
0.7831714723
 40
1.0
 40
1.0
 40
1.0
 40
1.0
 10
2761.8088742357
 20
1682.1185905303
 30
0.0
 10
2761.8088742357
 20
1685.0471380255
 30
0.0
 10
2763.6165218749
 20
1689.4642832254
 30
0.0
 10
2767.4060067085
 20
1693.6263671452
 30
0.0
 10
2769.8691617536
 20
1694.9863272441
 30
0.0
 10
2771.0650221698
 20
1695.2283564643
 30
0.0
  0
SPLINE
  5
58C
100
AcDbEntity
  8
0
100
AcDbSpline
 62
7
  6
CONTINUOUS
 70
0
 71
3
 72
9
 73
5
 74
0
 42
0.0000001
 43
0.0000001
 44
0.0000000001
 40
0.0
 40
0.0
 40
0.0
 40
0.0
 40
0.2719582665
 40
1.0
 40
1.0
 40
1.0
 40
1.0
 10
2771.0650221698
 20
1695.2283564643
 30
0.0
 10
2771.3203713009
 20
1695.2800363679
 30
0.0
 10
2772.2685182853
 20
1695.4080594521
 30
0.0
 10
2773.2767901231
 20
1695.2103340978
 30
0.0
 10
2773.8807346931
 20
1694.8615204796
 30
0.0
  0
SPLINE
  5
58D
100
AcDbEntity
  8
0
100
AcDbSpline
 62
7
  6
CONTINUOUS
 70
0
 71
3
 72
10
 73
6
 74
0
 42
0.0000001
 43
0.0000001
 44
0.0000000001
 40
0.0
 40
0.0
 40
0.0
 40
0.0
 40
0.5204402689
 40
0.7831714723
 40
1.0
 40
1.0
 40
1.0
 40
1.0
 10
2725.8878497515
 20
1661.3741463674
 30
0.0
 10
2725.8878497515
 20
1664.3026938627
 30
0.0
 10
2727.6954973906
 20
1668.7198390626
 30
0.0
 10
2731.4849822242
 20
1672.8819229824
 30
0.0
 10
2733.9481372693
 20
1674.2418830813
 30
0.0
 10
2735.1439976856
 20
1674.4839123014
 30
0.0
  0
SPLINE
  5
58E
100
AcDbEntity
  8
0
100
AcDbSpline
 62
7
  6
CONTINUOUS
 70
0
 71
3
 72
9
 73
5
 74
0
 42
0.0000001
 43
0.0000001
 44
0.0000000001
 40
0.0
 40
0.0
 40
0.0
 40
0.0
 40
0.2719582665
 40
1.0
 40
1.0
 40
1.0
 40
1.0
 10
2735.1439976856
 20
1674.4839123014
 30
0.0
 10
2735.3993468166
 20
1674.5355922051
 30
0.0
 10
2736.347493801
 20
1674.6636152893
 30
0.0
 10
2737.3557656389
 20
1674.465889935
 30
0.0
 10
2737.9597102088
 20
1674.1170763167
 30
0.0
  0
SPLINE
  5
58F
100
AcDbEntity
  8
0
100
AcDbSpline
 62
7
  6
CONTINUOUS
 70
0
 71
3
 72
10
 73
6
 74
0
 42
0.0000001
 43
0.0000001
 44
0.0000000001
 40
0.0
 40
0.0
 40
0.0
 40
0.0
 40
0.5204402689
 40
0.7831714723
 40
1.0
 40
1.0
 40
1.0
 40
1.0
 10
2689.9668252672
 20
1640.6297022046
 30
0.0
 10
2689.9668252672
 20
1643.5582496998
 30
0.0
 10
2691.7744729063
 20
1647.9753948997
 30
0.0
 10
2695.5639577399
 20
1652.1374788196
 30
0.0
 10
2698.027112785
 20
1653.4974389184
 30
0.0
 10
2699.2229732013
 20
1653.7394681386
 30
0.0
  0
SPLINE
  5
590
100
AcDbEntity
  8
0
100
AcDbSpline
 62
7
  6
CONTINUOUS
 70
0
 71
3
 72
9
 73
5
 74
0
 42
0.0000001
 43
0.0000001
 44
0.0000000001
 40
0.0
 40
0.0
 40
0.0
 40
0.0
 40
0.2719582665
 40
1.0
 40
1.0
 40
1.0
 40
1.0
 10
2699.2229732013
 20
1653.7394681386
 30
0.0
 10
2699.4783223323
 20
1653.7911480422
 30
0.0
 10
2700.4264693168
 20
1653.9191711264
 30
0.0
 10
2701.4347411546
 20
1653.7214457722
 30
0.0
 10
2702.0386857245
 20
1653.3726321539
 30
0.0
  0
SPLINE
  5
591
100
AcDbEntity
  8
0
100
AcDbSpline
 62
7
  6
CONTINUOUS
 70
0
 71
3
 72
10
 73
6
 74
0
 42
0.0000001
 43
0.0000001
 44
0.0000000001
 40
0.0
 40
0.0
 40
0.0
 40
0.0
 40
0.5204402689
 40
0.7831714723
 40
1.0
 40
1.0
 40
1.0
 40
1.0
 10
2654.0458007829
 20
1619.8852580418
 30
0.0
 10
2654.0458007829
 20
1622.813805537
 30
0.0
 10
2655.853448422
 20
1627.2309507369
 30
0.0
 10
2659.6429332556
 20
1631.3930346567
 30
0.0
 10
2662.1060883007
 20
1632.7529947556
 30
0.0
 10
2663.301948717
 20
1632.9950239758
 30
0.0
  0
SPLINE
  5
592
100
AcDbEntity
  8
0
100
AcDbSpline
 62
7
  6
CONTINUOUS
 70
0
 71
3
 72
9
 73
5
 74
0
 42
0.0000001
 43
0.0000001
 44
0.0000000001
 40
0.0
 40
0.0
 40
0.0
 40
0.0
 40
0.2719582665
 40
1.0
 40
1.0
 40
1.0
 40
1.0
 10
2663.301948717
 20
1632.9950239758
 30
0.0
 10
2663.5572978481
 20
1633.0467038794
 30
0.0
 10
2664.5054448325
 20
1633.1747269636
 30
0.0
 10
2665.5137166703
 20
1632.9770016093
 30
0.0
 10
2666.1176612403
 20
1632.6281879911
 30
0.0
  0
SPLINE
  5
593
100
AcDbEntity
  8
0
100
AcDbSpline
 62
7
  6
CONTINUOUS
 70
0
 71
3
 72
9
 73
5
 74
0
 42
0.0000001
 43
0.0000001
 44
0.0000000001
 40
0.0
 40
0.0
 40
0.0
 40
0.0
 40
0.5491587428
 40
1.0
 40
1.0
 40
1.0
 40
1.0
 10
2620.3005232087
 20
1606.2880446083
 30
0.0
 10
2621.1818090785
 20
1607.7734775485
 30
0.0
 10
2623.1694306336
 20
1610.2592465101
 30
0.0
 10
2625.9911384505
 20
1611.9693021952
 30
0.0
 10
2627.3809242327
 20
1612.2505798129
 30
0.0
  0
SPLINE
  5
594
100
AcDbEntity
  8
0
100
AcDbSpline
 62
7
  6
CONTINUOUS
 70
0
 71
3
 72
9
 73
5
 74
0
 42
0.0000001
 43
0.0000001
 44
0.0000000001
 40
0.0
 40
0.0
 40
0.0
 40
0.0
 40
0.2719582665
 40
1.0
 40
1.0
 40
1.0
 40
1.0
 10
2627.3809242327
 20
1612.2505798129
 30
0.0
 10
2627.6362733638
 20
1612.3022597166
 30
0.0
 10
2628.5844203482
 20
1612.4302828008
 30
0.0
 10
2629.592692186
 20
1612.2325574465
 30
0.0
 10
2630.196636756
 20
1611.8837438282
 30
0.0
  0
SPLINE
  5
595
100
AcDbEntity
  8
0
100
AcDbSpline
 62
7
  6
CONTINUOUS
 70
0
 71
3
 72
9
 73
5
 74
0
 42
0.0000001
 43
0.0000001
 44
0.0000000001
 40
0.0
 40
0.0
 40
0.0
 40
0.0
 40
0.5508265653
 40
1.0
 40
1.0
 40
1.0
 40
1.0
 10
2816.4682284215
 20
1484.5971802633
 30
0.0
 10
2816.4682284215
 20
1483.6424782842
 30
0.0
 10
2816.6996080943
 20
1481.8684368413
 30
0.0
 10
2817.8643507219
 20
1480.4107173661
 30
0.0
 10
2818.5385035878
 20
1480.0213543151
 30
0.0
  0
SPLINE
  5
596
100
AcDbEntity
  8
0
100
AcDbSpline
 62
7
  6
CONTINUOUS
 70
0
 71
3
 72
9
 73
5
 74
0
 42
0.0000001
 43
0.0000001
 44
0.0000000001
 40
0.0
 40
0.0
 40
0.0
 40
0.0
 40
0.5508265653
 40
1.0
 40
1.0
 40
1.0
 40
1.0
 10
2852.3892529057
 20
1505.3416244261
 30
0.0
 10
2852.3892529057
 20
1504.386922447
 30
0.0
 10
2852.6206325786
 20
1502.6128810041
 30
0.0
 10
2853.7853752062
 20
1501.1551615289
 30
0.0
 10
2854.4595280721
 20
1500.7657984779
 30
0.0
  0
SPLINE
  5
597
100
AcDbEntity
  8
0
100
AcDbSpline
 62
7
  6
CONTINUOUS
 70
0
 71
3
 72
9
 73
5
 74
0
 42
0.0000001
 43
0.0000001
 44
0.0000000001
 40
0.0
 40
0.0
 40
0.0
 40
0.0
 40
0.5508265653
 40
1.0
 40
1.0
 40
1.0
 40
1.0
 10
2888.31027739
 20
1526.0860685889
 30
0.0
 10
2888.31027739
 20
1525.1313666098
 30
0.0
 10
2888.5416570629
 20
1523.3573251669
 30
0.0
 10
2889.7063996905
 20
1521.8996056918
 30
0.0
 10
2890.3805525564
 20
1521.5102426407
 30
0.0
  0
SPLINE
  5
598
100
AcDbEntity
  8
0
100
AcDbSpline
 62
7
  6
CONTINUOUS
 70
0
 71
3
 72
9
 73
5
 74
0
 42
0.0000001
 43
0.0000001
 44
0.0000000001
 40
0.0
 40
0.0
 40
0.0
 40
0.0
 40
0.5508265653
 40
1.0
 40
1.0
 40
1.0
 40
1.0
 10
2924.2313018743
 20
1546.8305127518
 30
0.0
 10
2924.2313018743
 20
1545.8758107727
 30
0.0
 10
2924.4626815471
 20
1544.1017693298
 30
0.0
 10
2925.6274241748
 20
1542.6440498546
 30
0.0
 10
2926.3015770407
 20
1542.2546868036
 30
0.0
  0
SPLINE
  5
599
100
AcDbEntity
  8
0
100
AcDbSpline
 62
7
  6
CONTINUOUS
 70
0
 71
3
 72
9
 73
5
 74
0
 42
0.0000001
 43
0.0000001
 44
0.0000000001
 40
0.0
 40
0.0
 40
0.0
 40
0.0
 40
0.5508265653
 40
1.0
 40
1.0
 40
1.0
 40
1.0
 10
2960.1523263586
 20
1567.5749569146
 30
0.0
 10
2960.1523263586
 20
1566.6202549355
 30
0.0
 10
2960.3837060314
 20
1564.8462134926
 30
0.0
 10
2961.548448659
 20
1563.3884940174
 30
0.0
 10
2962.2226015249
 20
1562.9991309664
 30
0.0
  0
SPLINE
  5
59A
100
AcDbEntity
  8
0
100
AcDbSpline
 62
7
  6
CONTINUOUS
 70
0
 71
3
 72
9
 73
5
 74
0
 42
0.0000001
 43
0.0000001
 44
0.0000000001
 40
0.0
 40
0.0
 40
0.0
 40
0.0
 40
0.5508265653
 40
1.0
 40
1.0
 40
1.0
 40
1.0
 10
3031.9943753271
 20
1609.0638452403
 30
0.0
 10
3031.9943753271
 20
1608.1091432612
 30
0.0
 10
3032.225755
 20
1606.3351018183
 30
0.0
 10
3033.3904976276
 20
1604.8773823431
 30
0.0
 10
3034.0646504935
 20
1604.4880192921
 30
0.0
  0
SPLINE
  5
59B
100
AcDbEntity
  8
0
100
AcDbSpline
 62
7
  6
CONTINUOUS
 70
0
 71
3
 72
9
 73
5
 74
0
 42
0.0000001
 43
0.0000001
 44
0.0000000001
 40
0.0
 40
0.0
 40
0.0
 40
0.0
 40
0.5508265653
 40
1.0
 40
1.0
 40
1.0
 40
1.0
 10
3067.9153998114
 20
1629.8082894031
 30
0.0
 10
3067.9153998114
 20
1628.853587424
 30
0.0
 10
3068.1467794843
 20
1627.0795459811
 30
0.0
 10
3069.3115221119
 20
1625.6218265059
 30
0.0
 10
3069.9856749778
 20
1625.2324634549
 30
0.0
  0
SPLINE
  5
59C
100
AcDbEntity
  8
0
100
AcDbSpline
 62
7
  6
CONTINUOUS
 70
0
 71
3
 72
9
 73
5
 74
0
 42
0.0000001
 43
0.0000001
 44
0.0000000001
 40
0.0
 40
0.0
 40
0.0
 40
0.0
 40
0.5508265653
 40
1.0
 40
1.0
 40
1.0
 40
1.0
 10
3103.8364242957
 20
1650.5527335659
 30
0.0
 10
3103.8364242957
 20
1649.5980315868
 30
0.0
 10
3104.0678039685
 20
1647.8239901439
 30
0.0
 10
3105.2325465961
 20
1646.3662706688
 30
0.0
 10
3105.906699462
 20
1645.9769076177
 30
0.0
  0
SPLINE
  5
59D
100
AcDbEntity
  8
0
100
AcDbSpline
 62
7
  6
CONTINUOUS
 70
0
 71
3
 72
9
 73
5
 74
0
 42
0.0000001
 43
0.0000001
 44
0.0000000001
 40
0.0
 40
0.0
 40
0.0
 40
0.0
 40
0.5508265653
 40
1.0
 40
1.0
 40
1.0
 40
1.0
 10
3139.7574487799
 20
1671.2971777288
 30
0.0
 10
3139.7574487799
 20
1670.3424757497
 30
0.0
 10
3139.9888284528
 20
1668.5684343068
 30
0.0
 10
3141.1535710804
 20
1667.1107148316
 30
0.0
 10
3141.8277239463
 20
1666.7213517806
 30
0.0
  0
SPLINE
  5
59E
100
AcDbEntity
  8
0
100
AcDbSpline
 62
7
  6
CONTINUOUS
 70
0
 71
3
 72
9
 73
5
 74
0
 42
0.0000001
 43
0.0000001
 44
0.0000000001
 40
0.0
 40
0.0
 40
0.0
 40
0.0
 40
0.5508265653
 40
1.0
 40
1.0
 40
1.0
 40
1.0
 10
3175.6784732642
 20
1692.0416218916
 30
0.0
 10
3175.6784732642
 20
1691.0869199125
 30
0.0
 10
3175.9098529371
 20
1689.3128784696
 30
0.0
 10
3177.0745955647
 20
1687.8551589944
 30
0.0
 10
3177.7487484306
 20
1687.4657959434
 30
0.0
  0
SPLINE
  5
59F
100
AcDbEntity
  8
0
100
AcDbSpline
 62
7
  6
CONTINUOUS
 70
0
 71
3
 72
9
 73
5
 74
0
 42
0.0000001
 43
0.0000001
 44
0.0000000001
 40
0.0
 40
0.0
 40
0.0
 40
0.0
 40
0.5508265653
 40
1.0
 40
1.0
 40
1.0
 40
1.0
 10
3211.5994977485
 20
1712.7860660544
 30
0.0
 10
3211.5994977485
 20
1711.8313640753
 30
0.0
 10
3211.8308774214
 20
1710.0573226324
 30
0.0
 10
3212.995620049
 20
1708.5996031573
 30
0.0
 10
3213.6697729149
 20
1708.2102401062
 30
0.0
  0
SPLINE
  5
5A0
100
AcDbEntity
  8
0
100
AcDbSpline
 62
7
  6
CONTINUOUS
 70
0
 71
3
 72
9
 73
5
 74
0
 42
0.0000001
 43
0.0000001
 44
0.0000000001
 40
0.0
 40
0.0
 40
0.0
 40
0.0
 40
0.2952450707
 40
1.0
 40
1.0
 40
1.0
 40
1.0
 10
2805.1898752615
 20
1450.326666711
 30
0.0
 10
2805.1898752615
 20
1450.1114774582
 30
0.0
 10
2805.237757013
 20
1449.392366827
 30
0.0
 10
2805.6258589856
 20
1448.637162349
 30
0.0
 10
2806.071157964
 20
1448.3811237273
 30
0.0
  0
SPLINE
  5
5A1
100
AcDbEntity
  8
0
100
AcDbSpline
 62
7
  6
CONTINUOUS
 70
0
 71
3
 72
9
 73
5
 74
0
 42
0.0000001
 43
0.0000001
 44
0.0000000001
 40
0.0
 40
0.0
 40
0.0
 40
0.0
 40
0.2680590918
 40
1.0
 40
1.0
 40
1.0
 40
1.0
 10
3221.4989926851
 20
1723.4033012559
 30
0.0
 10
3221.4989926851
 20
1723.6321122399
 30
0.0
 10
3221.4674540126
 20
1724.4845742376
 30
0.0
 10
3221.3042766773
 20
1725.3383581483
 30
0.0
 10
3221.0828146064
 20
1725.9225636113
 30
0.0
  0
SPLINE
  5
5A2
100
AcDbEntity
  8
0
100
AcDbSpline
 62
7
  6
CONTINUOUS
 70
0
 71
3
 72
9
 73
5
 74
0
 42
0.0000001
 43
0.0000001
 44
0.0000000001
 40
0.0
 40
0.0
 40
0.0
 40
0.0
 40
0.2952450707
 40
1.0
 40
1.0
 40
1.0
 40
1.0
 10
3037.1208994907
 20
1584.2671723293
 30
0.0
 10
3037.1208994907
 20
1584.0519830765
 30
0.0
 10
3037.1687812422
 20
1583.3328724453
 30
0.0
 10
3037.5568832148
 20
1582.5776679673
 30
0.0
 10
3038.0021821932
 20
1582.3216293456
 30
0.0
  0
SPLINE
  5
5A3
100
AcDbEntity
  8
0
100
AcDbSpline
 62
7
  6
CONTINUOUS
 70
0
 71
3
 72
9
 73
5
 74
0
 42
0.0000001
 43
0.0000001
 44
0.0000000001
 40
0.0
 40
0.0
 40
0.0
 40
0.0
 40
0.2680590918
 40
1.0
 40
1.0
 40
1.0
 40
1.0
 10
3185.5779682008
 20
1702.6588570931
 30
0.0
 10
3185.5779682008
 20
1702.8876680771
 30
0.0
 10
3185.5464295284
 20
1703.7401300747
 30
0.0
 10
3185.383252193
 20
1704.5939139855
 30
0.0
 10
3185.1617901221
 20
1705.1781194485
 30
0.0
  0
SPLINE
  5
5A4
100
AcDbEntity
  8
0
100
AcDbSpline
 62
7
  6
CONTINUOUS
 70
0
 71
3
 72
9
 73
5
 74
0
 42
0.0000001
 43
0.0000001
 44
0.0000000001
 40
0.0
 40
0.0
 40
0.0
 40
0.0
 40
0.2680590918
 40
1.0
 40
1.0
 40
1.0
 40
1.0
 10
3149.6569437166
 20
1681.9144129302
 30
0.0
 10
3149.6569437166
 20
1682.1432239143
 30
0.0
 10
3149.6254050441
 20
1682.9956859119
 30
0.0
 10
3149.4622277087
 20
1683.8494698226
 30
0.0
 10
3149.2407656378
 20
1684.4336752856
 30
0.0
  0
SPLINE
  5
5A5
100
AcDbEntity
  8
0
100
AcDbSpline
 62
7
  6
CONTINUOUS
 70
0
 71
3
 72
9
 73
5
 74
0
 42
0.0000001
 43
0.0000001
 44
0.0000000001
 40
0.0
 40
0.0
 40
0.0
 40
0.0
 40
0.2952450707
 40
1.0
 40
1.0
 40
1.0
 40
1.0
 10
3202.2303328978
 20
1685.6838866443
 30
0.0
 10
3202.2303328978
 20
1685.4686973915
 30
0.0
 10
3202.2782146492
 20
1684.7495867603
 30
0.0
 10
3202.6663166219
 20
1683.9943822823
 30
0.0
 10
3203.1116156002
 20
1683.7383436606
 30
0.0
  0
SPLINE
  5
5A6
100
AcDbEntity
  8
0
100
AcDbSpline
 62
7
  6
CONTINUOUS
 70
0
 71
3
 72
9
 73
5
 74
0
 42
0.0000001
 43
0.0000001
 44
0.0000000001
 40
0.0
 40
0.0
 40
0.0
 40
0.0
 40
0.2680590918
 40
1.0
 40
1.0
 40
1.0
 40
1.0
 10
3113.7359192323
 20
1661.1699687674
 30
0.0
 10
3113.7359192323
 20
1661.3987797514
 30
0.0
 10
3113.7043805598
 20
1662.2512417491
 30
0.0
 10
3113.5412032245
 20
1663.1050256598
 30
0.0
 10
3113.3197411535
 20
1663.6892311228
 30
0.0
  0
SPLINE
  5
5A7
100
AcDbEntity
  8
0
100
AcDbSpline
 62
7
  6
CONTINUOUS
 70
0
 71
3
 72
9
 73
5
 74
0
 42
0.0000001
 43
0.0000001
 44
0.0000000001
 40
0.0
 40
0.0
 40
0.0
 40
0.0
 40
0.2680590918
 40
1.0
 40
1.0
 40
1.0
 40
1.0
 10
3077.814894748
 20
1640.4255246046
 30
0.0
 10
3077.814894748
 20
1640.6543355886
 30
0.0
 10
3077.7833560755
 20
1641.5067975862
 30
0.0
 10
3077.6201787402
 20
1642.360581497
 30
0.0
 10
3077.3987166693
 20
1642.94478696
 30
0.0
  0
SPLINE
  5
5A8
100
AcDbEntity
  8
0
100
AcDbSpline
 62
7
  6
CONTINUOUS
 70
0
 71
3
 72
9
 73
5
 74
0
 42
0.0000001
 43
0.0000001
 44
0.0000000001
 40
0.0
 40
0.0
 40
0.0
 40
0.0
 40
0.2952450707
 40
1.0
 40
1.0
 40
1.0
 40
1.0
 10
2970.6528620592
 20
1532.8195491187
 30
0.0
 10
2970.6528620592
 20
1532.6043598659
 30
0.0
 10
2970.7007438106
 20
1531.8852492347
 30
0.0
 10
2971.0888457833
 20
1531.1300447567
 30
0.0
 10
2971.5341447616
 20
1530.874006135
 30
0.0
  0
SPLINE
  5
5A9
100
AcDbEntity
  8
0
100
AcDbSpline
 62
7
  6
CONTINUOUS
 70
0
 71
3
 72
9
 73
5
 74
0
 42
0.0000001
 43
0.0000001
 44
0.0000000001
 40
0.0
 40
0.0
 40
0.0
 40
0.0
 40
0.2680590918
 40
1.0
 40
1.0
 40
1.0
 40
1.0
 10
3041.8938702637
 20
1619.6810804417
 30
0.0
 10
3041.8938702637
 20
1619.9098914258
 30
0.0
 10
3041.8623315913
 20
1620.7623534234
 30
0.0
 10
3041.6991542559
 20
1621.6161373341
 30
0.0
 10
3041.477692185
 20
1622.2003427971
 30
0.0
  0
SPLINE
  5
5AA
100
AcDbEntity
  8
0
100
AcDbSpline
 62
7
  6
CONTINUOUS
 70
0
 71
3
 72
9
 73
5
 74
0
 42
0.0000001
 43
0.0000001
 44
0.0000000001
 40
0.0
 40
0.0
 40
0.0
 40
0.0
 40
0.2680590918
 40
1.0
 40
1.0
 40
1.0
 40
1.0
 10
2970.0518212952
 20
1578.1921921161
 30
0.0
 10
2970.0518212952
 20
1578.4210031001
 30
0.0
 10
2970.0202826227
 20
1579.2734650977
 30
0.0
 10
2969.8571052874
 20
1580.1272490085
 30
0.0
 10
2969.6356432164
 20
1580.7114544715
 30
0.0
  0
SPLINE
  5
5AB
100
AcDbEntity
  8
0
100
AcDbSpline
 62
7
  6
CONTINUOUS
 70
0
 71
3
 72
9
 73
5
 74
0
 42
0.0000001
 43
0.0000001
 44
0.0000000001
 40
0.0
 40
0.0
 40
0.0
 40
0.0
 40
0.2952450707
 40
1.0
 40
1.0
 40
1.0
 40
1.0
 10
3249.6064872373
 20
1693.9156755407
 30
0.0
 10
3249.6064872373
 20
1693.7004862879
 30
0.0
 10
3249.6543689887
 20
1692.9813756567
 30
0.0
 10
3250.0424709614
 20
1692.2261711787
 30
0.0
 10
3250.4877699397
 20
1691.970132557
 30
0.0
  0
SPLINE
  5
5AC
100
AcDbEntity
  8
0
100
AcDbSpline
 62
7
  6
CONTINUOUS
 70
0
 71
3
 72
9
 73
5
 74
0
 42
0.0000001
 43
0.0000001
 44
0.0000000001
 40
0.0
 40
0.0
 40
0.0
 40
0.0
 40
0.2680590918
 40
1.0
 40
1.0
 40
1.0
 40
1.0
 10
2934.1307968109
 20
1557.4477479532
 30
0.0
 10
2934.1307968109
 20
1557.6765589373
 30
0.0
 10
2934.0992581384
 20
1558.5290209349
 30
0.0
 10
2933.9360808031
 20
1559.3828048456
 30
0.0
 10
2933.7146187322
 20
1559.9670103086
 30
0.0
  0
SPLINE
  5
5AD
100
AcDbEntity
  8
0
100
AcDbSpline
 62
7
  6
CONTINUOUS
 70
0
 71
3
 72
9
 73
5
 74
0
 42
0.0000001
 43
0.0000001
 44
0.0000000001
 40
0.0
 40
0.0
 40
0.0
 40
0.0
 40
0.2680590918
 40
1.0
 40
1.0
 40
1.0
 40
1.0
 10
2898.2097723266
 20
1536.7033037904
 30
0.0
 10
2898.2097723266
 20
1536.9321147744
 30
0.0
 10
2898.1782336542
 20
1537.7845767721
 30
0.0
 10
2898.0150563188
 20
1538.6383606828
 30
0.0
 10
2897.7935942479
 20
1539.2225661458
 30
0.0
  0
SPLINE
  5
5AE
100
AcDbEntity
  8
0
100
AcDbSpline
 62
7
  6
CONTINUOUS
 70
0
 71
3
 72
9
 73
5
 74
0
 42
0.0000001
 43
0.0000001
 44
0.0000000001
 40
0.0
 40
0.0
 40
0.0
 40
0.0
 40
0.2952450707
 40
1.0
 40
1.0
 40
1.0
 40
1.0
 10
3018.0290163987
 20
1579.3073570298
 30
0.0
 10
3018.0290163987
 20
1579.092167777
 30
0.0
 10
3018.0768981501
 20
1578.3730571458
 30
0.0
 10
3018.4650001228
 20
1577.6178526678
 30
0.0
 10
3018.9102991011
 20
1577.3618140461
 30
0.0
  0
SPLINE
  5
5AF
100
AcDbEntity
  8
0
100
AcDbSpline
 62
7
  6
CONTINUOUS
 70
0
 71
3
 72
9
 73
5
 74
0
 42
0.0000001
 43
0.0000001
 44
0.0000000001
 40
0.0
 40
0.0
 40
0.0
 40
0.0
 40
0.2680590918
 40
1.0
 40
1.0
 40
1.0
 40
1.0
 10
2862.2887478423
 20
1515.9588596276
 30
0.0
 10
2862.2887478423
 20
1516.1876706116
 30
0.0
 10
2862.2572091699
 20
1517.0401326092
 30
0.0
 10
2862.0940318345
 20
1517.89391652
 30
0.0
 10
2861.8725697636
 20
1518.478121983
 30
0.0
  0
SPLINE
  5
5B0
100
AcDbEntity
  8
0
100
AcDbSpline
 62
7
  6
CONTINUOUS
 70
0
 71
3
 72
9
 73
5
 74
0
 42
0.0000001
 43
0.0000001
 44
0.0000000001
 40
0.0
 40
0.0
 40
0.0
 40
0.0
 40
0.2680590918
 40
1.0
 40
1.0
 40
1.0
 40
1.0
 10
2826.3677233581
 20
1495.2144154647
 30
0.0
 10
2826.3677233581
 20
1495.4432264488
 30
0.0
 10
2826.3361846856
 20
1496.2956884464
 30
0.0
 10
2826.1730073503
 20
1497.1494723571
 30
0.0
 10
2825.9515452793
 20
1497.7336778201
 30
0.0
  0
SPLINE
  5
5B1
100
AcDbEntity
  8
0
100
AcDbSpline
 62
7
  6
CONTINUOUS
 70
0
 71
3
 72
11
 73
7
 74
0
 42
0.0000001
 43
0.0000001
 44
0.0000000001
 40
0.0
 40
0.0
 40
0.0
 40
0.0
 40
0.1864968746
 40
0.415116576
 40
0.6925667375
 40
1.0
 40
1.0
 40
1.0
 40
1.0
 10
2967.6580658792
 20
1524.1627540517
 30
0.0
 10
2968.4677467598
 20
1523.6955294375
 30
0.0
 10
2970.6849369148
 20
1523.3641461593
 30
0.0
 10
2973.9811851687
 20
1524.7210624092
 30
0.0
 10
2977.1385153269
 20
1527.3660419769
 30
0.0
 10
2978.8875604648
 20
1529.7582170955
 30
0.0
 10
2979.6580658792
 20
1531.0927715979
 30
0.0
  0
SPLINE
  5
5B2
100
AcDbEntity
  8
0
100
AcDbSpline
 62
7
  6
CONTINUOUS
 70
0
 71
3
 72
11
 73
7
 74
0
 42
0.0000001
 43
0.0000001
 44
0.0000000001
 40
0.0
 40
0.0
 40
0.0
 40
0.0
 40
0.1933345903
 40
0.4202820721
 40
0.69195267
 40
1.0
 40
1.0
 40
1.0
 40
1.0
 10
3246.6116910573
 20
1685.2588804737
 30
0.0
 10
3247.2869458653
 20
1684.8692261362
 30
0.0
 10
3249.0393197981
 20
1684.4879583816
 30
0.0
 10
3251.7925509777
 20
1685.2550575937
 30
0.0
 10
3254.5447196352
 20
1687.0512429885
 30
0.0
 10
3256.173583887
 20
1688.7563624439
 30
0.0
 10
3256.9446006952
 20
1689.7303077282
 30
0.0
  0
SPLINE
  5
5B3
100
AcDbEntity
  8
0
100
AcDbSpline
 62
7
  6
CONTINUOUS
 70
0
 71
3
 72
9
 73
5
 74
0
 42
0.0000001
 43
0.0000001
 44
0.0000000001
 40
0.0
 40
0.0
 40
0.0
 40
0.0
 40
0.5230545058
 40
1.0
 40
1.0
 40
1.0
 40
1.0
 10
3263.6922047668
 20
1698.2538536429
 30
0.0
 10
3265.3860017502
 20
1700.3934510771
 30
0.0
 10
3268.0122325594
 20
1704.9847976248
 30
0.0
 10
3269.2287004152
 20
1710.1937134255
 30
0.0
 10
3269.2287004152
 20
1712.6820400607
 30
0.0
  0
SPLINE
  5
5B4
100
AcDbEntity
  8
0
100
AcDbSpline
 62
7
  6
CONTINUOUS
 70
0
 71
3
 72
9
 73
5
 74
0
 42
0.0000001
 43
0.0000001
 44
0.0000000001
 40
0.0
 40
0.0
 40
0.0
 40
0.0
 40
0.5507823937
 40
1.0
 40
1.0
 40
1.0
 40
1.0
 10
3236.2182927751
 20
1686.1839736628
 30
0.0
 10
3237.4588266268
 20
1686.900383776
 30
0.0
 10
3239.9375907773
 20
1687.9309373514
 30
0.0
 10
3242.706315785
 20
1687.5124688917
 30
0.0
 10
3243.7182927751
 20
1686.9285097417
 30
0.0
  0
SPLINE
  5
5B5
100
AcDbEntity
  8
0
100
AcDbSpline
 62
7
  6
CONTINUOUS
 70
0
 71
3
 72
9
 73
5
 74
0
 42
0.0000001
 43
0.0000001
 44
0.0000000001
 40
0.0
 40
0.0
 40
0.0
 40
0.0
 40
0.2671369294
 40
1.0
 40
1.0
 40
1.0
 40
1.0
 10
2982.5514641614
 20
1536.1042843433
 30
0.0
 10
2983.0398403715
 20
1536.9501767378
 30
0.0
 10
2985.0416201393
 20
1540.0031574386
 30
0.0
 10
2987.7309960968
 20
1542.6821964968
 30
0.0
 10
2990.0514641614
 20
1544.022270197
 30
0.0
  0
SPLINE
  5
5B6
100
AcDbEntity
  8
0
100
AcDbSpline
 62
7
  6
CONTINUOUS
 70
0
 71
3
 72
9
 73
5
 74
0
 42
0.0000001
 43
0.0000001
 44
0.0000000001
 40
0.0
 40
0.0
 40
0.0
 40
0.0
 40
0.5507823937
 40
1.0
 40
1.0
 40
1.0
 40
1.0
 10
2957.264667597
 20
1525.0878472408
 30
0.0
 10
2958.5052014487
 20
1525.804257354
 30
0.0
 10
2960.9839655992
 20
1526.8348109294
 30
0.0
 10
2963.7526906069
 20
1526.4163424697
 30
0.0
 10
2964.764667597
 20
1525.8323833198
 30
0.0
  0
SPLINE
  5
5B7
100
AcDbEntity
  8
0
100
AcDbSpline
 62
7
  6
CONTINUOUS
 70
0
 71
3
 72
12
 73
8
 74
0
 42
0.0000001
 43
0.0000001
 44
0.0000000001
 40
0.0
 40
0.0
 40
0.0
 40
0.0
 40
0.1832718055
 40
0.3014702264
 40
0.4362080395
 40
0.7289494925
 40
1.0
 40
1.0
 40
1.0
 40
1.0
 10
2661.9850622331
 20
1860.8534138871
 30
0.0
 10
2663.0309057624
 20
1860.2493775504
 30
0.0
 10
2665.3214377921
 20
1860.3665195488
 30
0.0
 10
2667.8117919575
 20
1861.7777642746
 30
0.0
 10
2670.5391885746
 20
1864.1733580603
 30
0.0
 10
2673.0719465818
 20
1868.1077640465
 30
0.0
 10
2674.0569226905
 20
1871.8101445818
 30
0.0
 10
2674.0569226905
 20
1873.5963438364
 30
0.0
  0
SPLINE
  5
5B8
100
AcDbEntity
  8
0
100
AcDbSpline
 62
7
  6
CONTINUOUS
 70
0
 71
3
 72
12
 73
8
 74
0
 42
0.0000001
 43
0.0000001
 44
0.0000000001
 40
0.0
 40
0.0
 40
0.0
 40
0.0
 40
0.1832718055
 40
0.3014702264
 40
0.4362080395
 40
0.7289494925
 40
1.0
 40
1.0
 40
1.0
 40
1.0
 10
3213.6697729149
 20
1708.2102401062
 30
0.0
 10
3214.7156164442
 20
1707.6062037696
 30
0.0
 10
3217.0061484738
 20
1707.723345768
 30
0.0
 10
3219.4965026393
 20
1709.1345904937
 30
0.0
 10
3222.2238992564
 20
1711.5301842794
 30
0.0
 10
3224.7566572635
 20
1715.4645902657
 30
0.0
 10
3225.7416333722
 20
1719.1669708009
 30
0.0
 10
3225.7416333722
 20
1720.9531700556
 30
0.0
  0
SPLINE
  5
5B9
100
AcDbEntity
  8
0
100
AcDbSpline
 62
7
  6
CONTINUOUS
 70
0
 71
3
 72
12
 73
8
 74
0
 42
0.0000001
 43
0.0000001
 44
0.0000000001
 40
0.0
 40
0.0
 40
0.0
 40
0.0
 40
0.1832718055
 40
0.3014702264
 40
0.4362080395
 40
0.7289494925
 40
1.0
 40
1.0
 40
1.0
 40
1.0
 10
2697.9060867174
 20
1881.5978580499
 30
0.0
 10
2698.9519302467
 20
1880.9938217133
 30
0.0
 10
2701.2424622764
 20
1881.1109637117
 30
0.0
 10
2703.7328164418
 20
1882.5222084374
 30
0.0
 10
2706.4602130589
 20
1884.9178022231
 30
0.0
 10
2708.9929710661
 20
1888.8522082093
 30
0.0
 10
2709.9779471748
 20
1892.5545887446
 30
0.0
 10
2709.9779471748
 20
1894.3407879992
 30
0.0
  0
SPLINE
  5
5BA
100
AcDbEntity
  8
0
100
AcDbSpline
 62
7
  6
CONTINUOUS
 70
0
 71
3
 72
12
 73
8
 74
0
 42
0.0000001
 43
0.0000001
 44
0.0000000001
 40
0.0
 40
0.0
 40
0.0
 40
0.0
 40
0.1832718055
 40
0.3014702264
 40
0.4362080395
 40
0.7289494925
 40
1.0
 40
1.0
 40
1.0
 40
1.0
 10
2733.8271112017
 20
1902.3423022127
 30
0.0
 10
2734.872954731
 20
1901.7382658761
 30
0.0
 10
2737.1634867606
 20
1901.8554078745
 30
0.0
 10
2739.6538409261
 20
1903.2666526002
 30
0.0
 10
2742.3812375432
 20
1905.662246386
 30
0.0
 10
2744.9139955503
 20
1909.5966523722
 30
0.0
 10
2745.898971659
 20
1913.2990329074
 30
0.0
 10
2745.898971659
 20
1915.0852321621
 30
0.0
  0
SPLINE
  5
5BB
100
AcDbEntity
  8
0
100
AcDbSpline
 62
7
  6
CONTINUOUS
 70
0
 71
3
 72
10
 73
6
 74
0
 42
0.0000001
 43
0.0000001
 44
0.0000000001
 40
0.0
 40
0.0
 40
0.0
 40
0.0
 40
0.4227036001
 40
0.7224444811
 40
1.0
 40
1.0
 40
1.0
 40
1.0
 10
2806.071157964
 20
1448.3811237273
 30
0.0
 10
2807.0731713889
 20
1447.8049846639
 30
0.0
 10
2809.421518361
 20
1449.2101154228
 30
0.0
 10
2810.7497127523
 20
1451.447422574
 30
0.0
 10
2811.2002829016
 20
1453.0387382868
 30
0.0
 10
2811.2002829016
 20
1453.7976859115
 30
0.0
  0
SPLINE
  5
5BC
100
AcDbEntity
  8
0
100
AcDbSpline
 62
7
  6
CONTINUOUS
 70
0
 71
3
 72
9
 73
5
 74
0
 42
0.0000001
 43
0.0000001
 44
0.0000000001
 40
0.0
 40
0.0
 40
0.0
 40
0.0
 40
0.2952450707
 40
1.0
 40
1.0
 40
1.0
 40
1.0
 10
2847.6162821327
 20
1933.0076451733
 30
0.0
 10
2847.6162821327
 20
1933.2228344261
 30
0.0
 10
2847.5684003813
 20
1933.9419450573
 30
0.0
 10
2847.1802984086
 20
1934.6971495353
 30
0.0
 10
2846.7349994303
 20
1934.953188157
 30
0.0
  0
SPLINE
  5
5BD
100
AcDbEntity
  8
0
100
AcDbSpline
 62
7
  6
CONTINUOUS
 70
0
 71
3
 72
12
 73
8
 74
0
 42
0.0000001
 43
0.0000001
 44
0.0000000001
 40
0.0
 40
0.0
 40
0.0
 40
0.0
 40
0.1832718055
 40
0.3014702264
 40
0.4362080395
 40
0.7289494925
 40
1.0
 40
1.0
 40
1.0
 40
1.0
 10
2769.7481356859
 20
1923.0867463756
 30
0.0
 10
2770.7939792152
 20
1922.4827100389
 30
0.0
 10
2773.0845112449
 20
1922.5998520373
 30
0.0
 10
2775.5748654104
 20
1924.0110967631
 30
0.0
 10
2778.3022620274
 20
1926.4066905488
 30
0.0
 10
2780.8350200346
 20
1930.341096535
 30
0.0
 10
2781.8199961433
 20
1934.0434770703
 30
0.0
 10
2781.8199961433
 20
1935.8296763249
 30
0.0
  0
SPLINE
  5
5BE
100
AcDbEntity
  8
0
100
AcDbSpline
 62
7
  6
CONTINUOUS
 70
0
 71
3
 72
12
 73
8
 74
0
 42
0.0000001
 43
0.0000001
 44
0.0000000001
 40
0.0
 40
0.0
 40
0.0
 40
0.0
 40
0.1832718055
 40
0.3014702264
 40
0.4362080395
 40
0.7289494925
 40
1.0
 40
1.0
 40
1.0
 40
1.0
 10
3141.8277239463
 20
1666.7213517806
 30
0.0
 10
3142.8735674756
 20
1666.1173154439
 30
0.0
 10
3145.1640995053
 20
1666.2344574423
 30
0.0
 10
3147.6544536707
 20
1667.6457021681
 30
0.0
 10
3150.3818502878
 20
1670.0412959538
 30
0.0
 10
3152.914608295
 20
1673.97570194
 30
0.0
 10
3153.8995844037
 20
1677.6780824753
 30
0.0
 10
3153.8995844037
 20
1679.4642817299
 30
0.0
  0
SPLINE
  5
5BF
100
AcDbEntity
  8
0
100
AcDbSpline
 62
7
  6
CONTINUOUS
 70
0
 71
3
 72
9
 73
5
 74
0
 42
0.0000001
 43
0.0000001
 44
0.0000000001
 40
0.0
 40
0.0
 40
0.0
 40
0.0
 40
0.2952450707
 40
1.0
 40
1.0
 40
1.0
 40
1.0
 10
2568.6626569546
 20
1771.9115187513
 30
0.0
 10
2568.6626569546
 20
1772.1267080041
 30
0.0
 10
2568.6147752032
 20
1772.8458186353
 30
0.0
 10
2568.2266732305
 20
1773.6010231133
 30
0.0
 10
2567.7813742522
 20
1773.857061735
 30
0.0
  0
SPLINE
  5
5C0
100
AcDbEntity
  8
0
100
AcDbSpline
 62
7
  6
CONTINUOUS
 70
0
 71
3
 72
12
 73
8
 74
0
 42
0.0000001
 43
0.0000001
 44
0.0000000001
 40
0.0
 40
0.0
 40
0.0
 40
0.0
 40
0.1832718055
 40
0.3014702264
 40
0.4362080395
 40
0.7289494925
 40
1.0
 40
1.0
 40
1.0
 40
1.0
 10
2805.6691601702
 20
1943.8311905384
 30
0.0
 10
2806.7150036995
 20
1943.2271542017
 30
0.0
 10
2809.0055357292
 20
1943.3442962002
 30
0.0
 10
2811.4958898946
 20
1944.7555409259
 30
0.0
 10
2814.2232865117
 20
1947.1511347116
 30
0.0
 10
2816.7560445189
 20
1951.0855406978
 30
0.0
 10
2817.7410206276
 20
1954.7879212331
 30
0.0
 10
2817.7410206276
 20
1956.5741204877
 30
0.0
  0
SPLINE
  5
5C1
100
AcDbEntity
  8
0
100
AcDbSpline
 62
7
  6
CONTINUOUS
 70
0
 71
3
 72
10
 73
6
 74
0
 42
0.0000001
 43
0.0000001
 44
0.0000000001
 40
0.0
 40
0.0
 40
0.0
 40
0.0
 40
0.4227036001
 40
0.7224444811
 40
1.0
 40
1.0
 40
1.0
 40
1.0
 10
3038.0021821932
 20
1582.3216293456
 30
0.0
 10
3039.004195618
 20
1581.7454902822
 30
0.0
 10
3041.3525425901
 20
1583.150621041
 30
0.0
 10
3042.6807369815
 20
1585.3879281923
 30
0.0
 10
3043.1313071308
 20
1586.979243905
 30
0.0
 10
3043.1313071308
 20
1587.7381915297
 30
0.0
  0
SPLINE
  5
5C2
100
AcDbEntity
  8
0
100
AcDbSpline
 62
7
  6
CONTINUOUS
 70
0
 71
3
 72
9
 73
5
 74
0
 42
0.0000001
 43
0.0000001
 44
0.0000000001
 40
0.0
 40
0.0
 40
0.0
 40
0.0
 40
0.2952450707
 40
1.0
 40
1.0
 40
1.0
 40
1.0
 10
2800.2401277932
 20
1924.7758562769
 30
0.0
 10
2800.2401277932
 20
1924.9910455297
 30
0.0
 10
2800.1922460418
 20
1925.7101561609
 30
0.0
 10
2799.8041440691
 20
1926.4653606389
 30
0.0
 10
2799.3588450908
 20
1926.7213992606
 30
0.0
  0
SPLINE
  5
5C3
100
AcDbEntity
  8
0
100
AcDbSpline
 62
7
  6
CONTINUOUS
 70
0
 71
3
 72
12
 73
8
 74
0
 42
0.0000001
 43
0.0000001
 44
0.0000000001
 40
0.0
 40
0.0
 40
0.0
 40
0.0
 40
0.1832718055
 40
0.3014702264
 40
0.4362080395
 40
0.7289494925
 40
1.0
 40
1.0
 40
1.0
 40
1.0
 10
2962.2226015249
 20
1562.9991309664
 30
0.0
 10
2963.2684450542
 20
1562.3950946297
 30
0.0
 10
2965.5589770839
 20
1562.5122366282
 30
0.0
 10
2968.0493312493
 20
1563.9234813539
 30
0.0
 10
2970.7767278664
 20
1566.3190751396
 30
0.0
 10
2973.3094858736
 20
1570.2534811258
 30
0.0
 10
2974.2944619823
 20
1573.9558616611
 30
0.0
 10
2974.2944619823
 20
1575.7420609157
 30
0.0
  0
SPLINE
  5
5C4
100
AcDbEntity
  8
0
100
AcDbSpline
 62
7
  6
CONTINUOUS
 70
0
 71
3
 72
9
 73
5
 74
0
 42
0.0000001
 43
0.0000001
 44
0.0000000001
 40
0.0
 40
0.0
 40
0.0
 40
0.0
 40
0.2656301348
 40
1.0
 40
1.0
 40
1.0
 40
1.0
 10
2817.7410206276
 20
1956.5741204877
 30
0.0
 10
2817.7410206276
 20
1956.7767071864
 30
0.0
 10
2817.7160302128
 20
1957.5386944346
 30
0.0
 10
2817.5875721934
 20
1958.3008433463
 30
0.0
 10
2817.4157084464
 20
1958.8339006605
 30
0.0
  0
SPLINE
  5
5C5
100
AcDbEntity
  8
0
100
AcDbSpline
 62
7
  6
CONTINUOUS
 70
0
 71
3
 72
12
 73
8
 74
0
 42
0.0000001
 43
0.0000001
 44
0.0000000001
 40
0.0
 40
0.0
 40
0.0
 40
0.0
 40
0.1832718055
 40
0.3014702264
 40
0.4362080395
 40
0.7289494925
 40
1.0
 40
1.0
 40
1.0
 40
1.0
 10
2926.3015770407
 20
1542.2546868036
 30
0.0
 10
2927.3474205699
 20
1541.6506504669
 30
0.0
 10
2929.6379525996
 20
1541.7677924653
 30
0.0
 10
2932.1283067651
 20
1543.1790371911
 30
0.0
 10
2934.8557033821
 20
1545.5746309768
 30
0.0
 10
2937.3884613893
 20
1549.509036963
 30
0.0
 10
2938.373437498
 20
1553.2114174983
 30
0.0
 10
2938.373437498
 20
1554.9976167529
 30
0.0
  0
SPLINE
  5
5C6
100
AcDbEntity
  8
0
100
AcDbSpline
 62
7
  6
CONTINUOUS
 70
0
 71
3
 72
10
 73
6
 74
0
 42
0.0000001
 43
0.0000001
 44
0.0000000001
 40
0.0
 40
0.0
 40
0.0
 40
0.0
 40
0.4227036001
 40
0.7224444811
 40
1.0
 40
1.0
 40
1.0
 40
1.0
 10
2795.1110028556
 20
1919.3592940928
 30
0.0
 10
2796.1130162805
 20
1918.7831550294
 30
0.0
 10
2798.4613632526
 20
1920.1882857882
 30
0.0
 10
2799.7895576439
 20
1922.4255929395
 30
0.0
 10
2800.2401277932
 20
1924.0169086522
 30
0.0
 10
2800.2401277932
 20
1924.7758562769
 30
0.0
  0
SPLINE
  5
5C7
100
AcDbEntity
  8
0
100
AcDbSpline
 62
7
  6
CONTINUOUS
 70
0
 71
3
 72
9
 73
5
 74
0
 42
0.0000001
 43
0.0000001
 44
0.0000000001
 40
0.0
 40
0.0
 40
0.0
 40
0.0
 40
0.2656301348
 40
1.0
 40
1.0
 40
1.0
 40
1.0
 10
2781.8199961433
 20
1935.8296763249
 30
0.0
 10
2781.8199961433
 20
1936.0322630235
 30
0.0
 10
2781.7950057285
 20
1936.7942502718
 30
0.0
 10
2781.6665477091
 20
1937.5563991834
 30
0.0
 10
2781.4946839621
 20
1938.0894564977
 30
0.0
  0
SPLINE
  5
5C8
100
AcDbEntity
  8
0
100
AcDbSpline
 62
7
  6
CONTINUOUS
 70
0
 71
3
 72
12
 73
8
 74
0
 42
0.0000001
 43
0.0000001
 44
0.0000000001
 40
0.0
 40
0.0
 40
0.0
 40
0.0
 40
0.1832718055
 40
0.3014702264
 40
0.4362080395
 40
0.7289494925
 40
1.0
 40
1.0
 40
1.0
 40
1.0
 10
3177.7487484306
 20
1687.4657959434
 30
0.0
 10
3178.7945919599
 20
1686.8617596067
 30
0.0
 10
3181.0851239896
 20
1686.9789016052
 30
0.0
 10
3183.575478155
 20
1688.3901463309
 30
0.0
 10
3186.3028747721
 20
1690.7857401166
 30
0.0
 10
3188.8356327792
 20
1694.7201461028
 30
0.0
 10
3189.820608888
 20
1698.4225266381
 30
0.0
 10
3189.820608888
 20
1700.2087258927
 30
0.0
  0
SPLINE
  5
5C9
100
AcDbEntity
  8
0
100
AcDbSpline
 62
7
  6
CONTINUOUS
 70
0
 71
3
 72
9
 73
5
 74
0
 42
0.0000001
 43
0.0000001
 44
0.0000000001
 40
0.0
 40
0.0
 40
0.0
 40
0.0
 40
0.2656301348
 40
1.0
 40
1.0
 40
1.0
 40
1.0
 10
2745.898971659
 20
1915.0852321621
 30
0.0
 10
2745.898971659
 20
1915.2878188607
 30
0.0
 10
2745.8739812443
 20
1916.0498061089
 30
0.0
 10
2745.7455232249
 20
1916.8119550206
 30
0.0
 10
2745.5736594779
 20
1917.3450123349
 30
0.0
  0
SPLINE
  5
5CA
100
AcDbEntity
  8
0
100
AcDbSpline
 62
7
  6
CONTINUOUS
 70
0
 71
3
 72
10
 73
6
 74
0
 42
0.0000001
 43
0.0000001
 44
0.0000000001
 40
0.0
 40
0.0
 40
0.0
 40
0.0
 40
0.4227036001
 40
0.7224444811
 40
1.0
 40
1.0
 40
1.0
 40
1.0
 10
2563.533532017
 20
1766.4949565671
 30
0.0
 10
2564.5355454419
 20
1765.9188175038
 30
0.0
 10
2566.883892414
 20
1767.3239482626
 30
0.0
 10
2568.2120868054
 20
1769.5612554138
 30
0.0
 10
2568.6626569546
 20
1771.1525711266
 30
0.0
 10
2568.6626569546
 20
1771.9115187513
 30
0.0
  0
SPLINE
  5
5CB
100
AcDbEntity
  8
0
100
AcDbSpline
 62
7
  6
CONTINUOUS
 70
0
 71
3
 72
10
 73
6
 74
0
 42
0.0000001
 43
0.0000001
 44
0.0000000001
 40
0.0
 40
0.0
 40
0.0
 40
0.0
 40
0.4227036001
 40
0.7224444811
 40
1.0
 40
1.0
 40
1.0
 40
1.0
 10
3203.1116156002
 20
1683.7383436606
 30
0.0
 10
3204.1136290251
 20
1683.1622045972
 30
0.0
 10
3206.4619759972
 20
1684.5673353561
 30
0.0
 10
3207.7901703886
 20
1686.8046425073
 30
0.0
 10
3208.2407405379
 20
1688.3959582201
 30
0.0
 10
3208.2407405379
 20
1689.1549058448
 30
0.0
  0
SPLINE
  5
5CC
100
AcDbEntity
  8
0
100
AcDbSpline
 62
7
  6
CONTINUOUS
 70
0
 71
3
 72
9
 73
5
 74
0
 42
0.0000001
 43
0.0000001
 44
0.0000000001
 40
0.0
 40
0.0
 40
0.0
 40
0.0
 40
0.2656301348
 40
1.0
 40
1.0
 40
1.0
 40
1.0
 10
2709.9779471748
 20
1894.3407879992
 30
0.0
 10
2709.9779471748
 20
1894.5433746979
 30
0.0
 10
2709.95295676
 20
1895.3053619461
 30
0.0
 10
2709.8244987406
 20
1896.0675108578
 30
0.0
 10
2709.6526349936
 20
1896.600568172
 30
0.0
  0
SPLINE
  5
5CD
100
AcDbEntity
  8
0
100
AcDbSpline
 62
7
  6
CONTINUOUS
 70
0
 71
3
 72
9
 73
5
 74
0
 42
0.0000001
 43
0.0000001
 44
0.0000000001
 40
0.0
 40
0.0
 40
0.0
 40
0.0
 40
0.2656301348
 40
1.0
 40
1.0
 40
1.0
 40
1.0
 10
2674.0569226905
 20
1873.5963438364
 30
0.0
 10
2674.0569226905
 20
1873.798930535
 30
0.0
 10
2674.0319322757
 20
1874.5609177833
 30
0.0
 10
2673.9034742563
 20
1875.3230666949
 30
0.0
 10
2673.7316105093
 20
1875.8561240092
 30
0.0
  0
SPLINE
  5
5CE
100
AcDbEntity
  8
0
100
AcDbSpline
 62
7
  6
CONTINUOUS
 70
0
 71
3
 72
10
 73
6
 74
0
 42
0.0000001
 43
0.0000001
 44
0.0000000001
 40
0.0
 40
0.0
 40
0.0
 40
0.0
 40
0.4227036001
 40
0.7224444811
 40
1.0
 40
1.0
 40
1.0
 40
1.0
 10
2842.4871571951
 20
1927.5910829891
 30
0.0
 10
2843.48917062
 20
1927.0149439258
 30
0.0
 10
2845.8375175921
 20
1928.4200746846
 30
0.0
 10
2847.1657119834
 20
1930.6573818358
 30
0.0
 10
2847.6162821327
 20
1932.2486975486
 30
0.0
 10
2847.6162821327
 20
1933.0076451733
 30
0.0
  0
SPLINE
  5
5CF
100
AcDbEntity
  8
0
100
AcDbSpline
 62
7
  6
CONTINUOUS
 70
0
 71
3
 72
9
 73
5
 74
0
 42
0.0000001
 43
0.0000001
 44
0.0000000001
 40
0.0
 40
0.0
 40
0.0
 40
0.0
 40
0.2656301348
 40
1.0
 40
1.0
 40
1.0
 40
1.0
 10
2638.1358982062
 20
1852.8518996736
 30
0.0
 10
2638.1358982062
 20
1853.0544863722
 30
0.0
 10
2638.1109077914
 20
1853.8164736204
 30
0.0
 10
2637.982449772
 20
1854.5786225321
 30
0.0
 10
2637.810586025
 20
1855.1116798464
 30
0.0
  0
SPLINE
  5
5D0
100
AcDbEntity
  8
0
100
AcDbSpline
 62
7
  6
CONTINUOUS
 70
0
 71
3
 72
12
 73
8
 74
0
 42
0.0000001
 43
0.0000001
 44
0.0000000001
 40
0.0
 40
0.0
 40
0.0
 40
0.0
 40
0.1832718055
 40
0.3014702264
 40
0.4362080395
 40
0.7289494925
 40
1.0
 40
1.0
 40
1.0
 40
1.0
 10
3034.0646504935
 20
1604.4880192921
 30
0.0
 10
3035.1104940228
 20
1603.8839829554
 30
0.0
 10
3037.4010260524
 20
1604.0011249538
 30
0.0
 10
3039.8913802179
 20
1605.4123696796
 30
0.0
 10
3042.618776835
 20
1607.8079634653
 30
0.0
 10
3045.1515348421
 20
1611.7423694515
 30
0.0
 10
3046.1365109508
 20
1615.4447499868
 30
0.0
 10
3046.1365109508
 20
1617.2309492414
 30
0.0
  0
SPLINE
  5
5D1
100
AcDbEntity
  8
0
100
AcDbSpline
 62
7
  6
CONTINUOUS
 70
0
 71
3
 72
9
 73
5
 74
0
 42
0.0000001
 43
0.0000001
 44
0.0000000001
 40
0.0
 40
0.0
 40
0.0
 40
0.0
 40
0.2656301348
 40
1.0
 40
1.0
 40
1.0
 40
1.0
 10
2566.2938492377
 20
1811.3630113479
 30
0.0
 10
2566.2938492377
 20
1811.5655980465
 30
0.0
 10
2566.2688588229
 20
1812.3275852948
 30
0.0
 10
2566.1404008035
 20
1813.0897342064
 30
0.0
 10
2565.9685370565
 20
1813.6227915207
 30
0.0
  0
SPLINE
  5
5D2
100
AcDbEntity
  8
0
100
AcDbSpline
 62
7
  6
CONTINUOUS
 70
0
 71
3
 72
12
 73
8
 74
0
 42
0.0000001
 43
0.0000001
 44
0.0000000001
 40
0.0
 40
0.0
 40
0.0
 40
0.0
 40
0.1832718055
 40
0.3014702264
 40
0.4362080395
 40
0.7289494925
 40
1.0
 40
1.0
 40
1.0
 40
1.0
 10
2890.3805525564
 20
1521.5102426407
 30
0.0
 10
2891.4263960857
 20
1520.9062063041
 30
0.0
 10
2893.7169281153
 20
1521.0233483025
 30
0.0
 10
2896.2072822808
 20
1522.4345930282
 30
0.0
 10
2898.9346788979
 20
1524.830186814
 30
0.0
 10
2901.467436905
 20
1528.7645928002
 30
0.0
 10
2902.4524130137
 20
1532.4669733354
 30
0.0
 10
2902.4524130137
 20
1534.2531725901
 30
0.0
  0
SPLINE
  5
5D3
100
AcDbEntity
  8
0
100
AcDbSpline
 62
7
  6
CONTINUOUS
 70
0
 71
3
 72
9
 73
5
 74
0
 42
0.0000001
 43
0.0000001
 44
0.0000000001
 40
0.0
 40
0.0
 40
0.0
 40
0.0
 40
0.2656301348
 40
1.0
 40
1.0
 40
1.0
 40
1.0
 10
2530.3728247534
 20
1790.6185671851
 30
0.0
 10
2530.3728247534
 20
1790.8211538837
 30
0.0
 10
2530.3478343386
 20
1791.5831411319
 30
0.0
 10
2530.2193763192
 20
1792.3452900436
 30
0.0
 10
2530.0475125722
 20
1792.8783473579
 30
0.0
  0
SPLINE
  5
5D4
100
AcDbEntity
  8
0
100
AcDbSpline
 62
7
  6
CONTINUOUS
 70
0
 71
3
 72
9
 73
5
 74
0
 42
0.0000001
 43
0.0000001
 44
0.0000000001
 40
0.0
 40
0.0
 40
0.0
 40
0.0
 40
0.2656301348
 40
1.0
 40
1.0
 40
1.0
 40
1.0
 10
2494.4518002691
 20
1769.8741230222
 30
0.0
 10
2494.4518002691
 20
1770.0767097209
 30
0.0
 10
2494.4268098543
 20
1770.8386969691
 30
0.0
 10
2494.2983518349
 20
1771.6008458808
 30
0.0
 10
2494.1264880879
 20
1772.1339031951
 30
0.0
  0
SPLINE
  5
5D5
100
AcDbEntity
  8
0
100
AcDbSpline
 62
7
  6
CONTINUOUS
 70
0
 71
3
 72
10
 73
6
 74
0
 42
0.0000001
 43
0.0000001
 44
0.0000000001
 40
0.0
 40
0.0
 40
0.0
 40
0.0
 40
0.4227036001
 40
0.7224444811
 40
1.0
 40
1.0
 40
1.0
 40
1.0
 10
2971.5341447616
 20
1530.874006135
 30
0.0
 10
2972.5361581865
 20
1530.2978670716
 30
0.0
 10
2974.8845051586
 20
1531.7029978304
 30
0.0
 10
2976.21269955
 20
1533.9403049817
 30
0.0
 10
2976.6632696993
 20
1535.5316206944
 30
0.0
 10
2976.6632696993
 20
1536.2905683191
 30
0.0
  0
SPLINE
  5
5D6
100
AcDbEntity
  8
0
100
AcDbSpline
 62
7
  6
CONTINUOUS
 70
0
 71
3
 72
9
 73
5
 74
0
 42
0.0000001
 43
0.0000001
 44
0.0000000001
 40
0.0
 40
0.0
 40
0.0
 40
0.0
 40
0.2656301348
 40
1.0
 40
1.0
 40
1.0
 40
1.0
 10
2458.5307757848
 20
1749.1296788594
 30
0.0
 10
2458.5307757848
 20
1749.332265558
 30
0.0
 10
2458.5057853701
 20
1750.0942528063
 30
0.0
 10
2458.3773273506
 20
1750.8564017179
 30
0.0
 10
2458.2054636036
 20
1751.3894590322
 30
0.0
  0
SPLINE
  5
5D7
100
AcDbEntity
  8
0
100
AcDbSpline
 62
7
  6
CONTINUOUS
 70
0
 71
3
 72
12
 73
8
 74
0
 42
0.0000001
 43
0.0000001
 44
0.0000000001
 40
0.0
 40
0.0
 40
0.0
 40
0.0
 40
0.1832718055
 40
0.3014702264
 40
0.4362080395
 40
0.7289494925
 40
1.0
 40
1.0
 40
1.0
 40
1.0
 10
2854.4595280721
 20
1500.7657984779
 30
0.0
 10
2855.5053716014
 20
1500.1617621413
 30
0.0
 10
2857.7959036311
 20
1500.2789041397
 30
0.0
 10
2860.2862577965
 20
1501.6901488654
 30
0.0
 10
2863.0136544136
 20
1504.0857426511
 30
0.0
 10
2865.5464124208
 20
1508.0201486373
 30
0.0
 10
2866.5313885295
 20
1511.7225291726
 30
0.0
 10
2866.5313885295
 20
1513.5087284272
 30
0.0
  0
SPLINE
  5
5D8
100
AcDbEntity
  8
0
100
AcDbSpline
 62
7
  6
CONTINUOUS
 70
0
 71
3
 72
9
 73
5
 74
0
 42
0.0000001
 43
0.0000001
 44
0.0000000001
 40
0.0
 40
0.0
 40
0.0
 40
0.0
 40
0.2656301348
 40
1.0
 40
1.0
 40
1.0
 40
1.0
 10
2422.6097513005
 20
1728.3852346966
 30
0.0
 10
2422.6097513005
 20
1728.5878213952
 30
0.0
 10
2422.5847608858
 20
1729.3498086434
 30
0.0
 10
2422.4563028664
 20
1730.1119575551
 30
0.0
 10
2422.2844391194
 20
1730.6450148694
 30
0.0
  0
SPLINE
  5
5D9
100
AcDbEntity
  8
0
100
AcDbSpline
 62
7
  6
CONTINUOUS
 70
0
 71
3
 72
9
 73
5
 74
0
 42
0.0000001
 43
0.0000001
 44
0.0000000001
 40
0.0
 40
0.0
 40
0.0
 40
0.0
 40
0.2371460391
 40
1.0
 40
1.0
 40
1.0
 40
1.0
 10
2666.1176612403
 20
1632.6281879911
 30
0.0
 10
2666.3144435695
 20
1632.514534587
 30
0.0
 10
2667.0972214372
 20
1631.9508523281
 30
0.0
 10
2667.6092873037
 20
1631.0683045837
 30
0.0
 10
2667.8418537144
 20
1630.3752815419
 30
0.0
  0
SPLINE
  5
5DA
100
AcDbEntity
  8
0
100
AcDbSpline
 62
7
  6
CONTINUOUS
 70
0
 71
3
 72
9
 73
5
 74
0
 42
0.0000001
 43
0.0000001
 44
0.0000000001
 40
0.0
 40
0.0
 40
0.0
 40
0.0
 40
0.2343686937
 40
1.0
 40
1.0
 40
1.0
 40
1.0
 10
2667.8418537144
 20
1630.3752815419
 30
0.0
 10
2667.9003736101
 20
1630.2008985088
 30
0.0
 10
2668.1129479299
 20
1629.4444382037
 30
0.0
 10
2668.1879364066
 20
1628.6532546868
 30
0.0
 10
2668.1879364066
 20
1628.0523620429
 30
0.0
  0
SPLINE
  5
5DB
100
AcDbEntity
  8
0
100
AcDbSpline
 62
7
  6
CONTINUOUS
 70
0
 71
3
 72
12
 73
8
 74
0
 42
0.0000001
 43
0.0000001
 44
0.0000000001
 40
0.0
 40
0.0
 40
0.0
 40
0.0
 40
0.1832718055
 40
0.3014702264
 40
0.4362080395
 40
0.7289494925
 40
1.0
 40
1.0
 40
1.0
 40
1.0
 10
3069.9856749778
 20
1625.2324634549
 30
0.0
 10
3071.031518507
 20
1624.6284271182
 30
0.0
 10
3073.3220505367
 20
1624.7455691167
 30
0.0
 10
3075.8124047022
 20
1626.1568138424
 30
0.0
 10
3078.5398013192
 20
1628.5524076281
 30
0.0
 10
3081.0725593264
 20
1632.4868136143
 30
0.0
 10
3082.0575354351
 20
1636.1891941496
 30
0.0
 10
3082.0575354351
 20
1637.9753934042
 30
0.0
  0
SPLINE
  5
5DC
100
AcDbEntity
  8
0
100
AcDbSpline
 62
7
  6
CONTINUOUS
 70
0
 71
3
 72
10
 73
6
 74
0
 42
0.0000001
 43
0.0000001
 44
0.0000000001
 40
0.0
 40
0.0
 40
0.0
 40
0.0
 40
0.4227036001
 40
0.7224444811
 40
1.0
 40
1.0
 40
1.0
 40
1.0
 10
3250.4877699397
 20
1691.970132557
 30
0.0
 10
3251.4897833646
 20
1691.3939934936
 30
0.0
 10
3253.8381303367
 20
1692.7991242524
 30
0.0
 10
3255.1663247281
 20
1695.0364314037
 30
0.0
 10
3255.6168948774
 20
1696.6277471164
 30
0.0
 10
3255.6168948774
 20
1697.3866947411
 30
0.0
  0
SPLINE
  5
5DD
100
AcDbEntity
  8
0
100
AcDbSpline
 62
7
  6
CONTINUOUS
 70
0
 71
3
 72
9
 73
5
 74
0
 42
0.0000001
 43
0.0000001
 44
0.0000000001
 40
0.0
 40
0.0
 40
0.0
 40
0.0
 40
0.2371460391
 40
1.0
 40
1.0
 40
1.0
 40
1.0
 10
2702.0386857245
 20
1653.3726321539
 30
0.0
 10
2702.2354680538
 20
1653.2589787498
 30
0.0
 10
2703.0182459215
 20
1652.6952964909
 30
0.0
 10
2703.530311788
 20
1651.8127487465
 30
0.0
 10
2703.7628781987
 20
1651.1197257048
 30
0.0
  0
SPLINE
  5
5DE
100
AcDbEntity
  8
0
100
AcDbSpline
 62
7
  6
CONTINUOUS
 70
0
 71
3
 72
9
 73
5
 74
0
 42
0.0000001
 43
0.0000001
 44
0.0000000001
 40
0.0
 40
0.0
 40
0.0
 40
0.0
 40
0.2343686937
 40
1.0
 40
1.0
 40
1.0
 40
1.0
 10
2703.7628781987
 20
1651.1197257048
 30
0.0
 10
2703.8213980944
 20
1650.9453426716
 30
0.0
 10
2704.0339724142
 20
1650.1888823666
 30
0.0
 10
2704.1089608909
 20
1649.3976988497
 30
0.0
 10
2704.1089608909
 20
1648.7968062057
 30
0.0
  0
SPLINE
  5
5DF
100
AcDbEntity
  8
0
100
AcDbSpline
 62
7
  6
CONTINUOUS
 70
0
 71
3
 72
12
 73
8
 74
0
 42
0.0000001
 43
0.0000001
 44
0.0000000001
 40
0.0
 40
0.0
 40
0.0
 40
0.0
 40
0.1832718055
 40
0.3014702264
 40
0.4362080395
 40
0.7289494925
 40
1.0
 40
1.0
 40
1.0
 40
1.0
 10
2818.5385035878
 20
1480.0213543151
 30
0.0
 10
2819.5843471171
 20
1479.4173179784
 30
0.0
 10
2821.8748791468
 20
1479.5344599768
 30
0.0
 10
2824.3652333122
 20
1480.9457047026
 30
0.0
 10
2827.0926299293
 20
1483.3412984883
 30
0.0
 10
2829.6253879365
 20
1487.2757044745
 30
0.0
 10
2830.6103640452
 20
1490.9780850098
 30
0.0
 10
2830.6103640452
 20
1492.7642842644
 30
0.0
  0
SPLINE
  5
5E0
100
AcDbEntity
  8
0
100
AcDbSpline
 62
7
  6
CONTINUOUS
 70
0
 71
3
 72
9
 73
5
 74
0
 42
0.0000001
 43
0.0000001
 44
0.0000000001
 40
0.0
 40
0.0
 40
0.0
 40
0.0
 40
0.2371460391
 40
1.0
 40
1.0
 40
1.0
 40
1.0
 10
2737.9597102088
 20
1674.1170763167
 30
0.0
 10
2738.1564925381
 20
1674.0034229126
 30
0.0
 10
2738.9392704058
 20
1673.4397406537
 30
0.0
 10
2739.4513362722
 20
1672.5571929093
 30
0.0
 10
2739.683902683
 20
1671.8641698676
 30
0.0
  0
SPLINE
  5
5E1
100
AcDbEntity
  8
0
100
AcDbSpline
 62
7
  6
CONTINUOUS
 70
0
 71
3
 72
9
 73
5
 74
0
 42
0.0000001
 43
0.0000001
 44
0.0000000001
 40
0.0
 40
0.0
 40
0.0
 40
0.0
 40
0.2343686937
 40
1.0
 40
1.0
 40
1.0
 40
1.0
 10
2739.683902683
 20
1671.8641698676
 30
0.0
 10
2739.7424225786
 20
1671.6897868345
 30
0.0
 10
2739.9549968985
 20
1670.9333265294
 30
0.0
 10
2740.0299853752
 20
1670.1421430125
 30
0.0
 10
2740.0299853752
 20
1669.5412503685
 30
0.0
  0
SPLINE
  5
5E2
100
AcDbEntity
  8
0
100
AcDbSpline
 62
7
  6
CONTINUOUS
 70
0
 71
3
 72
9
 73
5
 74
0
 42
0.0000001
 43
0.0000001
 44
0.0000000001
 40
0.0
 40
0.0
 40
0.0
 40
0.0
 40
0.2371460391
 40
1.0
 40
1.0
 40
1.0
 40
1.0
 10
2773.8807346931
 20
1694.8615204796
 30
0.0
 10
2774.0775170224
 20
1694.7478670755
 30
0.0
 10
2774.8602948901
 20
1694.1841848166
 30
0.0
 10
2775.3723607565
 20
1693.3016370722
 30
0.0
 10
2775.6049271672
 20
1692.6086140304
 30
0.0
  0
SPLINE
  5
5E3
100
AcDbEntity
  8
0
100
AcDbSpline
 62
7
  6
CONTINUOUS
 70
0
 71
3
 72
9
 73
5
 74
0
 42
0.0000001
 43
0.0000001
 44
0.0000000001
 40
0.0
 40
0.0
 40
0.0
 40
0.0
 40
0.2343686937
 40
1.0
 40
1.0
 40
1.0
 40
1.0
 10
2775.6049271672
 20
1692.6086140304
 30
0.0
 10
2775.6634470629
 20
1692.4342309973
 30
0.0
 10
2775.8760213828
 20
1691.6777706922
 30
0.0
 10
2775.9510098595
 20
1690.8865871753
 30
0.0
 10
2775.9510098595
 20
1690.2856945314
 30
0.0
  0
SPLINE
  5
5E4
100
AcDbEntity
  8
0
100
AcDbSpline
 62
7
  6
CONTINUOUS
 70
0
 71
3
 72
9
 73
5
 74
0
 42
0.0000001
 43
0.0000001
 44
0.0000000001
 40
0.0
 40
0.0
 40
0.0
 40
0.0
 40
0.2371460391
 40
1.0
 40
1.0
 40
1.0
 40
1.0
 10
2845.7227836617
 20
1736.3504088052
 30
0.0
 10
2845.9195659909
 20
1736.2367554011
 30
0.0
 10
2846.7023438586
 20
1735.6730731422
 30
0.0
 10
2847.2144097251
 20
1734.7905253978
 30
0.0
 10
2847.4469761358
 20
1734.0975023561
 30
0.0
  0
SPLINE
  5
5E5
100
AcDbEntity
  8
0
100
AcDbSpline
 62
7
  6
CONTINUOUS
 70
0
 71
3
 72
9
 73
5
 74
0
 42
0.0000001
 43
0.0000001
 44
0.0000000001
 40
0.0
 40
0.0
 40
0.0
 40
0.0
 40
0.2343686937
 40
1.0
 40
1.0
 40
1.0
 40
1.0
 10
2847.4469761358
 20
1734.0975023561
 30
0.0
 10
2847.5054960315
 20
1733.923119323
 30
0.0
 10
2847.7180703513
 20
1733.1666590179
 30
0.0
 10
2847.793058828
 20
1732.375475501
 30
0.0
 10
2847.793058828
 20
1731.774582857
 30
0.0
  0
SPLINE
  5
5E6
100
AcDbEntity
  8
0
100
AcDbSpline
 62
7
  6
CONTINUOUS
 70
0
 71
3
 72
12
 73
8
 74
0
 42
0.0000001
 43
0.0000001
 44
0.0000000001
 40
0.0
 40
0.0
 40
0.0
 40
0.0
 40
0.2710505075
 40
0.5637919605
 40
0.6985297736
 40
0.8167281945
 40
1.0
 40
1.0
 40
1.0
 40
1.0
 10
3027.3981812494
 20
1835.4968036712
 30
0.0
 10
3027.3981812494
 20
1833.7106044166
 30
0.0
 10
3026.4132051407
 20
1830.0082238813
 30
0.0
 10
3023.8804471335
 20
1826.0738178951
 30
0.0
 10
3021.1530505164
 20
1823.6782241094
 30
0.0
 10
3018.662696351
 20
1822.2669793836
 30
0.0
 10
3016.3721643213
 20
1822.1498373852
 30
0.0
 10
3015.326320792
 20
1822.7538737219
 30
0.0
  0
SPLINE
  5
5E7
100
AcDbEntity
  8
0
100
AcDbSpline
 62
7
  6
CONTINUOUS
 70
0
 71
3
 72
12
 73
8
 74
0
 42
0.0000001
 43
0.0000001
 44
0.0000000001
 40
0.0
 40
0.0
 40
0.0
 40
0.0
 40
0.2710505075
 40
0.5637919605
 40
0.6985297736
 40
0.8167281945
 40
1.0
 40
1.0
 40
1.0
 40
1.0
 10
2991.4771567651
 20
1814.7523595084
 30
0.0
 10
2991.4771567651
 20
1812.9661602537
 30
0.0
 10
2990.4921806564
 20
1809.2637797185
 30
0.0
 10
2987.9594226493
 20
1805.3293737323
 30
0.0
 10
2985.2320260322
 20
1802.9337799465
 30
0.0
 10
2982.7416718667
 20
1801.5225352208
 30
0.0
 10
2980.451139837
 20
1801.4053932224
 30
0.0
 10
2979.4052963078
 20
1802.009429559
 30
0.0
  0
SPLINE
  5
5E8
100
AcDbEntity
  8
0
100
AcDbSpline
 62
7
  6
CONTINUOUS
 70
0
 71
3
 72
12
 73
8
 74
0
 42
0.0000001
 43
0.0000001
 44
0.0000000001
 40
0.0
 40
0.0
 40
0.0
 40
0.0
 40
0.2710505075
 40
0.5637919605
 40
0.6985297736
 40
0.8167281945
 40
1.0
 40
1.0
 40
1.0
 40
1.0
 10
2955.5561322808
 20
1794.0079153455
 30
0.0
 10
2955.5561322808
 20
1792.2217160909
 30
0.0
 10
2954.5711561721
 20
1788.5193355556
 30
0.0
 10
2952.038398165
 20
1784.5849295694
 30
0.0
 10
2949.3110015479
 20
1782.1893357837
 30
0.0
 10
2946.8206473825
 20
1780.778091058
 30
0.0
 10
2944.5301153528
 20
1780.6609490596
 30
0.0
 10
2943.4842718235
 20
1781.2649853962
 30
0.0
  0
SPLINE
  5
5E9
100
AcDbEntity
  8
0
100
AcDbSpline
 62
7
  6
CONTINUOUS
 70
0
 71
3
 72
12
 73
8
 74
0
 42
0.0000001
 43
0.0000001
 44
0.0000000001
 40
0.0
 40
0.0
 40
0.0
 40
0.0
 40
0.2710505075
 40
0.5637919605
 40
0.6985297736
 40
0.8167281945
 40
1.0
 40
1.0
 40
1.0
 40
1.0
 10
2919.6351077966
 20
1773.2634711827
 30
0.0
 10
2919.6351077966
 20
1771.4772719281
 30
0.0
 10
2918.6501316879
 20
1767.7748913928
 30
0.0
 10
2916.1173736807
 20
1763.8404854066
 30
0.0
 10
2913.3899770636
 20
1761.4448916209
 30
0.0
 10
2910.8996228982
 20
1760.0336468951
 30
0.0
 10
2908.6090908685
 20
1759.9165048967
 30
0.0
 10
2907.5632473392
 20
1760.5205412334
 30
0.0
  0
SPLINE
  5
5EA
100
AcDbEntity
  8
0
100
AcDbSpline
 62
7
  6
CONTINUOUS
 70
0
 71
3
 72
12
 73
8
 74
0
 42
0.0000001
 43
0.0000001
 44
0.0000000001
 40
0.0
 40
0.0
 40
0.0
 40
0.0
 40
0.2710505075
 40
0.5637919605
 40
0.6985297736
 40
0.8167281945
 40
1.0
 40
1.0
 40
1.0
 40
1.0
 10
2883.7140833123
 20
1752.5190270199
 30
0.0
 10
2883.7140833123
 20
1750.7328277652
 30
0.0
 10
2882.7291072036
 20
1747.03044723
 30
0.0
 10
2880.1963491964
 20
1743.0960412438
 30
0.0
 10
2877.4689525793
 20
1740.700447458
 30
0.0
 10
2874.9785984139
 20
1739.2892027323
 30
0.0
 10
2872.6880663842
 20
1739.1720607339
 30
0.0
 10
2871.6422228549
 20
1739.7760970705
 30
0.0
  0
SPLINE
  5
5EB
100
AcDbEntity
  8
0
100
AcDbSpline
 62
7
  6
CONTINUOUS
 70
0
 71
3
 72
12
 73
8
 74
0
 42
0.0000001
 43
0.0000001
 44
0.0000000001
 40
0.0
 40
0.0
 40
0.0
 40
0.0
 40
0.2710505075
 40
0.5637919605
 40
0.6985297736
 40
0.8167281945
 40
1.0
 40
1.0
 40
1.0
 40
1.0
 10
2847.793058828
 20
1731.774582857
 30
0.0
 10
2847.793058828
 20
1729.9883836024
 30
0.0
 10
2846.8080827193
 20
1726.2860030671
 30
0.0
 10
2844.2753247121
 20
1722.3515970809
 30
0.0
 10
2841.5479280951
 20
1719.9560032952
 30
0.0
 10
2839.0575739296
 20
1718.5447585695
 30
0.0
 10
2836.7670418999
 20
1718.4276165711
 30
0.0
 10
2835.7211983707
 20
1719.0316529077
 30
0.0
  0
SPLINE
  5
5EC
100
AcDbEntity
  8
0
100
AcDbSpline
 62
7
  6
CONTINUOUS
 70
0
 71
3
 72
12
 73
8
 74
0
 42
0.0000001
 43
0.0000001
 44
0.0000000001
 40
0.0
 40
0.0
 40
0.0
 40
0.0
 40
0.2710505075
 40
0.5637919605
 40
0.6985297736
 40
0.8167281945
 40
1.0
 40
1.0
 40
1.0
 40
1.0
 10
2775.9510098595
 20
1690.2856945314
 30
0.0
 10
2775.9510098595
 20
1688.4994952767
 30
0.0
 10
2774.9660337508
 20
1684.7971147415
 30
0.0
 10
2772.4332757436
 20
1680.8627087553
 30
0.0
 10
2769.7058791265
 20
1678.4671149695
 30
0.0
 10
2767.2155249611
 20
1677.0558702438
 30
0.0
 10
2764.9249929314
 20
1676.9387282454
 30
0.0
 10
2763.8791494021
 20
1677.542764582
 30
0.0
  0
SPLINE
  5
5ED
100
AcDbEntity
  8
0
100
AcDbSpline
 62
7
  6
CONTINUOUS
 70
0
 71
3
 72
12
 73
8
 74
0
 42
0.0000001
 43
0.0000001
 44
0.0000000001
 40
0.0
 40
0.0
 40
0.0
 40
0.0
 40
0.2710505075
 40
0.5637919605
 40
0.6985297736
 40
0.8167281945
 40
1.0
 40
1.0
 40
1.0
 40
1.0
 10
2740.0299853752
 20
1669.5412503685
 30
0.0
 10
2740.0299853752
 20
1667.7550511139
 30
0.0
 10
2739.0450092665
 20
1664.0526705786
 30
0.0
 10
2736.5122512593
 20
1660.1182645924
 30
0.0
 10
2733.7848546422
 20
1657.7226708067
 30
0.0
 10
2731.2945004768
 20
1656.311426081
 30
0.0
 10
2729.0039684471
 20
1656.1942840826
 30
0.0
 10
2727.9581249178
 20
1656.7983204192
 30
0.0
  0
SPLINE
  5
5EE
100
AcDbEntity
  8
0
100
AcDbSpline
 62
7
  6
CONTINUOUS
 70
0
 71
3
 72
12
 73
8
 74
0
 42
0.0000001
 43
0.0000001
 44
0.0000000001
 40
0.0
 40
0.0
 40
0.0
 40
0.0
 40
0.2710505075
 40
0.5637919605
 40
0.6985297736
 40
0.8167281945
 40
1.0
 40
1.0
 40
1.0
 40
1.0
 10
2704.1089608909
 20
1648.7968062057
 30
0.0
 10
2704.1089608909
 20
1647.0106069511
 30
0.0
 10
2703.1239847822
 20
1643.3082264158
 30
0.0
 10
2700.591226775
 20
1639.3738204296
 30
0.0
 10
2697.863830158
 20
1636.9782266439
 30
0.0
 10
2695.3734759925
 20
1635.5669819181
 30
0.0
 10
2693.0829439628
 20
1635.4498399197
 30
0.0
 10
2692.0371004335
 20
1636.0538762564
 30
0.0
  0
SPLINE
  5
5EF
100
AcDbEntity
  8
0
100
AcDbSpline
 62
7
  6
CONTINUOUS
 70
0
 71
3
 72
12
 73
8
 74
0
 42
0.0000001
 43
0.0000001
 44
0.0000000001
 40
0.0
 40
0.0
 40
0.0
 40
0.0
 40
0.2710505075
 40
0.5637919605
 40
0.6985297736
 40
0.8167281945
 40
1.0
 40
1.0
 40
1.0
 40
1.0
 10
2668.1879364066
 20
1628.0523620429
 30
0.0
 10
2668.1879364066
 20
1626.2661627882
 30
0.0
 10
2667.2029602979
 20
1622.563782253
 30
0.0
 10
2664.6702022908
 20
1618.6293762668
 30
0.0
 10
2661.9428056737
 20
1616.233782481
 30
0.0
 10
2659.4524515082
 20
1614.8225377553
 30
0.0
 10
2657.1619194786
 20
1614.7053957569
 30
0.0
 10
2656.1160759493
 20
1615.3094320935
 30
0.0
  0
SPLINE
  5
5F0
100
AcDbEntity
  8
0
100
AcDbSpline
 62
7
  6
CONTINUOUS
 70
0
 71
3
 72
9
 73
5
 74
0
 42
0.0000001
 43
0.0000001
 44
0.0000000001
 40
0.0
 40
0.0
 40
0.0
 40
0.0
 40
0.2291176475
 40
1.0
 40
1.0
 40
1.0
 40
1.0
 10
2632.2669119224
 20
1607.30791788
 30
0.0
 10
2632.2669119224
 20
1606.7644622152
 30
0.0
 10
2632.0611333347
 20
1604.3937678843
 30
0.0
 10
2631.1918116702
 20
1602.1096741097
 30
0.0
 10
2630.2961121963
 20
1600.5155866102
 30
0.0
  0
SPLINE
  5
5F1
100
AcDbEntity
  8
0
100
AcDbSpline
 62
7
  6
CONTINUOUS
 70
0
 71
3
 72
9
 73
5
 74
0
 42
0.0000001
 43
0.0000001
 44
0.0000000001
 40
0.0
 40
0.0
 40
0.0
 40
0.0
 40
0.5508265653
 40
1.0
 40
1.0
 40
1.0
 40
1.0
 10
2830.6103640452
 20
1492.7642842644
 30
0.0
 10
2830.6103640452
 20
1493.7189862435
 30
0.0
 10
2830.3789843723
 20
1495.4930276864
 30
0.0
 10
2829.2142417447
 20
1496.9507471616
 30
0.0
 10
2828.5400888788
 20
1497.3401102126
 30
0.0
  0
SPLINE
  5
5F2
100
AcDbEntity
  8
0
100
AcDbSpline
 62
7
  6
CONTINUOUS
 70
0
 71
3
 72
9
 73
5
 74
0
 42
0.0000001
 43
0.0000001
 44
0.0000000001
 40
0.0
 40
0.0
 40
0.0
 40
0.0
 40
0.5508265653
 40
1.0
 40
1.0
 40
1.0
 40
1.0
 10
2866.5313885295
 20
1513.5087284272
 30
0.0
 10
2866.5313885295
 20
1514.4634304063
 30
0.0
 10
2866.3000088566
 20
1516.2374718492
 30
0.0
 10
2865.135266229
 20
1517.6951913244
 30
0.0
 10
2864.4611133631
 20
1518.0845543754
 30
0.0
  0
SPLINE
  5
5F3
100
AcDbEntity
  8
0
100
AcDbSpline
 62
7
  6
CONTINUOUS
 70
0
 71
3
 72
9
 73
5
 74
0
 42
0.0000001
 43
0.0000001
 44
0.0000000001
 40
0.0
 40
0.0
 40
0.0
 40
0.0
 40
0.5508265653
 40
1.0
 40
1.0
 40
1.0
 40
1.0
 10
2902.4524130137
 20
1534.2531725901
 30
0.0
 10
2902.4524130137
 20
1535.2078745692
 30
0.0
 10
2902.2210333409
 20
1536.9819160121
 30
0.0
 10
2901.0562907133
 20
1538.4396354872
 30
0.0
 10
2900.3821378474
 20
1538.8289985383
 30
0.0
  0
SPLINE
  5
5F4
100
AcDbEntity
  8
0
100
AcDbSpline
 62
7
  6
CONTINUOUS
 70
0
 71
3
 72
9
 73
5
 74
0
 42
0.0000001
 43
0.0000001
 44
0.0000000001
 40
0.0
 40
0.0
 40
0.0
 40
0.0
 40
0.2371460391
 40
1.0
 40
1.0
 40
1.0
 40
1.0
 10
2881.6438081459
 20
1757.0948529681
 30
0.0
 10
2881.8405904752
 20
1756.981199564
 30
0.0
 10
2882.6233683429
 20
1756.4175173051
 30
0.0
 10
2883.1354342093
 20
1755.5349695607
 30
0.0
 10
2883.3680006201
 20
1754.8419465189
 30
0.0
  0
SPLINE
  5
5F5
100
AcDbEntity
  8
0
100
AcDbSpline
 62
7
  6
CONTINUOUS
 70
0
 71
3
 72
9
 73
5
 74
0
 42
0.0000001
 43
0.0000001
 44
0.0000000001
 40
0.0
 40
0.0
 40
0.0
 40
0.0
 40
0.2343686937
 40
1.0
 40
1.0
 40
1.0
 40
1.0
 10
2883.3680006201
 20
1754.8419465189
 30
0.0
 10
2883.4265205157
 20
1754.6675634858
 30
0.0
 10
2883.6390948356
 20
1753.9111031807
 30
0.0
 10
2883.7140833123
 20
1753.1199196638
 30
0.0
 10
2883.7140833123
 20
1752.5190270199
 30
0.0
  0
SPLINE
  5
5F6
100
AcDbEntity
  8
0
100
AcDbSpline
 62
7
  6
CONTINUOUS
 70
0
 71
3
 72
9
 73
5
 74
0
 42
0.0000001
 43
0.0000001
 44
0.0000000001
 40
0.0
 40
0.0
 40
0.0
 40
0.0
 40
0.5508265653
 40
1.0
 40
1.0
 40
1.0
 40
1.0
 10
2938.373437498
 20
1554.9976167529
 30
0.0
 10
2938.373437498
 20
1555.952318732
 30
0.0
 10
2938.1420578252
 20
1557.7263601749
 30
0.0
 10
2936.9773151975
 20
1559.1840796501
 30
0.0
 10
2936.3031623317
 20
1559.5734427011
 30
0.0
  0
SPLINE
  5
5F7
100
AcDbEntity
  8
0
100
AcDbSpline
 62
7
  6
CONTINUOUS
 70
0
 71
3
 72
9
 73
5
 74
0
 42
0.0000001
 43
0.0000001
 44
0.0000000001
 40
0.0
 40
0.0
 40
0.0
 40
0.0
 40
0.5508265653
 40
1.0
 40
1.0
 40
1.0
 40
1.0
 10
2974.2944619823
 20
1575.7420609157
 30
0.0
 10
2974.2944619823
 20
1576.6967628948
 30
0.0
 10
2974.0630823094
 20
1578.4708043377
 30
0.0
 10
2972.8983396818
 20
1579.9285238129
 30
0.0
 10
2972.2241868159
 20
1580.3178868639
 30
0.0
  0
SPLINE
  5
5F8
100
AcDbEntity
  8
0
100
AcDbSpline
 62
7
  6
CONTINUOUS
 70
0
 71
3
 72
9
 73
5
 74
0
 42
0.0000001
 43
0.0000001
 44
0.0000000001
 40
0.0
 40
0.0
 40
0.0
 40
0.0
 40
0.5508265653
 40
1.0
 40
1.0
 40
1.0
 40
1.0
 10
3046.1365109508
 20
1617.2309492414
 30
0.0
 10
3046.1365109508
 20
1618.1856512205
 30
0.0
 10
3045.905131278
 20
1619.9596926634
 30
0.0
 10
3044.7403886504
 20
1621.4174121386
 30
0.0
 10
3044.0662357845
 20
1621.8067751896
 30
0.0
  0
SPLINE
  5
5F9
100
AcDbEntity
  8
0
100
AcDbSpline
 62
7
  6
CONTINUOUS
 70
0
 71
3
 72
9
 73
5
 74
0
 42
0.0000001
 43
0.0000001
 44
0.0000000001
 40
0.0
 40
0.0
 40
0.0
 40
0.0
 40
0.2371460391
 40
1.0
 40
1.0
 40
1.0
 40
1.0
 10
2917.5648326302
 20
1777.8392971309
 30
0.0
 10
2917.7616149595
 20
1777.7256437268
 30
0.0
 10
2918.5443928272
 20
1777.1619614679
 30
0.0
 10
2919.0564586936
 20
1776.2794137235
 30
0.0
 10
2919.2890251043
 20
1775.5863906818
 30
0.0
  0
SPLINE
  5
5FA
100
AcDbEntity
  8
0
100
AcDbSpline
 62
7
  6
CONTINUOUS
 70
0
 71
3
 72
9
 73
5
 74
0
 42
0.0000001
 43
0.0000001
 44
0.0000000001
 40
0.0
 40
0.0
 40
0.0
 40
0.0
 40
0.2343686937
 40
1.0
 40
1.0
 40
1.0
 40
1.0
 10
2919.2890251043
 20
1775.5863906818
 30
0.0
 10
2919.347545
 20
1775.4120076486
 30
0.0
 10
2919.5601193199
 20
1774.6555473435
 30
0.0
 10
2919.6351077966
 20
1773.8643638267
 30
0.0
 10
2919.6351077966
 20
1773.2634711827
 30
0.0
  0
SPLINE
  5
5FB
100
AcDbEntity
  8
0
100
AcDbSpline
 62
7
  6
CONTINUOUS
 70
0
 71
3
 72
9
 73
5
 74
0
 42
0.0000001
 43
0.0000001
 44
0.0000000001
 40
0.0
 40
0.0
 40
0.0
 40
0.0
 40
0.5508265653
 40
1.0
 40
1.0
 40
1.0
 40
1.0
 10
3082.0575354351
 20
1637.9753934042
 30
0.0
 10
3082.0575354351
 20
1638.9300953833
 30
0.0
 10
3081.8261557623
 20
1640.7041368262
 30
0.0
 10
3080.6614131347
 20
1642.1618563014
 30
0.0
 10
3079.9872602688
 20
1642.5512193524
 30
0.0
  0
SPLINE
  5
5FC
100
AcDbEntity
  8
0
100
AcDbSpline
 62
7
  6
CONTINUOUS
 70
0
 71
3
 72
9
 73
5
 74
0
 42
0.0000001
 43
0.0000001
 44
0.0000000001
 40
0.0
 40
0.0
 40
0.0
 40
0.0
 40
0.2371460391
 40
1.0
 40
1.0
 40
1.0
 40
1.0
 10
2953.4858571145
 20
1798.5837412937
 30
0.0
 10
2953.6826394437
 20
1798.4700878896
 30
0.0
 10
2954.4654173114
 20
1797.9064056307
 30
0.0
 10
2954.9774831779
 20
1797.0238578863
 30
0.0
 10
2955.2100495886
 20
1796.3308348446
 30
0.0
  0
SPLINE
  5
5FD
100
AcDbEntity
  8
0
100
AcDbSpline
 62
7
  6
CONTINUOUS
 70
0
 71
3
 72
9
 73
5
 74
0
 42
0.0000001
 43
0.0000001
 44
0.0000000001
 40
0.0
 40
0.0
 40
0.0
 40
0.0
 40
0.2343686937
 40
1.0
 40
1.0
 40
1.0
 40
1.0
 10
2955.2100495886
 20
1796.3308348446
 30
0.0
 10
2955.2685694843
 20
1796.1564518115
 30
0.0
 10
2955.4811438041
 20
1795.3999915064
 30
0.0
 10
2955.5561322808
 20
1794.6088079895
 30
0.0
 10
2955.5561322808
 20
1794.0079153455
 30
0.0
  0
SPLINE
  5
5FE
100
AcDbEntity
  8
0
100
AcDbSpline
 62
7
  6
CONTINUOUS
 70
0
 71
3
 72
9
 73
5
 74
0
 42
0.0000001
 43
0.0000001
 44
0.0000000001
 40
0.0
 40
0.0
 40
0.0
 40
0.0
 40
0.5508265653
 40
1.0
 40
1.0
 40
1.0
 40
1.0
 10
3117.9785599194
 20
1658.7198375671
 30
0.0
 10
3117.9785599194
 20
1659.6745395462
 30
0.0
 10
3117.7471802465
 20
1661.4485809891
 30
0.0
 10
3116.5824376189
 20
1662.9063004642
 30
0.0
 10
3115.908284753
 20
1663.2956635153
 30
0.0
  0
SPLINE
  5
5FF
100
AcDbEntity
  8
0
100
AcDbSpline
 62
7
  6
CONTINUOUS
 70
0
 71
3
 72
9
 73
5
 74
0
 42
0.0000001
 43
0.0000001
 44
0.0000000001
 40
0.0
 40
0.0
 40
0.0
 40
0.0
 40
0.5508265653
 40
1.0
 40
1.0
 40
1.0
 40
1.0
 10
3153.8995844037
 20
1679.4642817299
 30
0.0
 10
3153.8995844037
 20
1680.418983709
 30
0.0
 10
3153.6682047308
 20
1682.1930251519
 30
0.0
 10
3152.5034621032
 20
1683.6507446271
 30
0.0
 10
3151.8293092373
 20
1684.0401076781
 30
0.0
  0
SPLINE
  5
600
100
AcDbEntity
  8
0
100
AcDbSpline
 62
7
  6
CONTINUOUS
 70
0
 71
3
 72
9
 73
5
 74
0
 42
0.0000001
 43
0.0000001
 44
0.0000000001
 40
0.0
 40
0.0
 40
0.0
 40
0.0
 40
0.2371460391
 40
1.0
 40
1.0
 40
1.0
 40
1.0
 10
2989.4068815988
 20
1819.3281854566
 30
0.0
 10
2989.603663928
 20
1819.2145320524
 30
0.0
 10
2990.3864417957
 20
1818.6508497936
 30
0.0
 10
2990.8985076622
 20
1817.7683020492
 30
0.0
 10
2991.1310740729
 20
1817.0752790074
 30
0.0
  0
SPLINE
  5
601
100
AcDbEntity
  8
0
100
AcDbSpline
 62
7
  6
CONTINUOUS
 70
0
 71
3
 72
9
 73
5
 74
0
 42
0.0000001
 43
0.0000001
 44
0.0000000001
 40
0.0
 40
0.0
 40
0.0
 40
0.0
 40
0.2343686937
 40
1.0
 40
1.0
 40
1.0
 40
1.0
 10
2991.1310740729
 20
1817.0752790074
 30
0.0
 10
2991.1895939686
 20
1816.9008959743
 30
0.0
 10
2991.4021682884
 20
1816.1444356692
 30
0.0
 10
2991.4771567651
 20
1815.3532521523
 30
0.0
 10
2991.4771567651
 20
1814.7523595084
 30
0.0
  0
SPLINE
  5
602
100
AcDbEntity
  8
0
100
AcDbSpline
 62
7
  6
CONTINUOUS
 70
0
 71
3
 72
9
 73
5
 74
0
 42
0.0000001
 43
0.0000001
 44
0.0000000001
 40
0.0
 40
0.0
 40
0.0
 40
0.0
 40
0.5508265653
 40
1.0
 40
1.0
 40
1.0
 40
1.0
 10
3189.820608888
 20
1700.2087258927
 30
0.0
 10
3189.820608888
 20
1701.1634278718
 30
0.0
 10
3189.5892292151
 20
1702.9374693147
 30
0.0
 10
3188.4244865875
 20
1704.3951887899
 30
0.0
 10
3187.7503337216
 20
1704.7845518409
 30
0.0
  0
SPLINE
  5
603
100
AcDbEntity
  8
0
100
AcDbSpline
 62
7
  6
CONTINUOUS
 70
0
 71
3
 72
9
 73
5
 74
0
 42
0.0000001
 43
0.0000001
 44
0.0000000001
 40
0.0
 40
0.0
 40
0.0
 40
0.0
 40
0.5508265653
 40
1.0
 40
1.0
 40
1.0
 40
1.0
 10
3225.7416333722
 20
1720.9531700556
 30
0.0
 10
3225.7416333722
 20
1721.9078720347
 30
0.0
 10
3225.5102536994
 20
1723.6819134776
 30
0.0
 10
3224.3455110718
 20
1725.1396329527
 30
0.0
 10
3223.6713582059
 20
1725.5289960038
 30
0.0
  0
SPLINE
  5
604
100
AcDbEntity
  8
0
100
AcDbSpline
 62
7
  6
CONTINUOUS
 70
0
 71
3
 72
9
 73
5
 74
0
 42
0.0000001
 43
0.0000001
 44
0.0000000001
 40
0.0
 40
0.0
 40
0.0
 40
0.0
 40
0.2371460391
 40
1.0
 40
1.0
 40
1.0
 40
1.0
 10
3025.327906083
 20
1840.0726296194
 30
0.0
 10
3025.5246884123
 20
1839.9589762153
 30
0.0
 10
3026.30746628
 20
1839.3952939564
 30
0.0
 10
3026.8195321465
 20
1838.512746212
 30
0.0
 10
3027.0520985572
 20
1837.8197231703
 30
0.0
  0
SPLINE
  5
605
100
AcDbEntity
  8
0
100
AcDbSpline
 62
7
  6
CONTINUOUS
 70
0
 71
3
 72
9
 73
5
 74
0
 42
0.0000001
 43
0.0000001
 44
0.0000000001
 40
0.0
 40
0.0
 40
0.0
 40
0.0
 40
0.2343686937
 40
1.0
 40
1.0
 40
1.0
 40
1.0
 10
3027.0520985572
 20
1837.8197231703
 30
0.0
 10
3027.1106184529
 20
1837.6453401371
 30
0.0
 10
3027.3231927727
 20
1836.888879832
 30
0.0
 10
3027.3981812494
 20
1836.0976963152
 30
0.0
 10
3027.3981812494
 20
1835.4968036712
 30
0.0
  0
SPLINE
  5
606
100
AcDbEntity
  8
0
100
AcDbSpline
 62
7
  6
CONTINUOUS
 70
0
 71
3
 72
9
 73
5
 74
0
 42
0.0000001
 43
0.0000001
 44
0.0000000001
 40
0.0
 40
0.0
 40
0.0
 40
0.0
 40
0.2952450707
 40
1.0
 40
1.0
 40
1.0
 40
1.0
 10
2811.2002829016
 20
1453.7976859115
 30
0.0
 10
2811.2002829016
 20
1454.0128751642
 30
0.0
 10
2811.1524011502
 20
1454.7319857954
 30
0.0
 10
2810.7642991775
 20
1455.4871902734
 30
0.0
 10
2810.3190001992
 20
1455.7432288952
 30
0.0
  0
SPLINE
  5
607
100
AcDbEntity
  8
0
100
AcDbSpline
 62
7
  6
CONTINUOUS
 70
0
 71
3
 72
9
 73
5
 74
0
 42
0.0000001
 43
0.0000001
 44
0.0000000001
 40
0.0
 40
0.0
 40
0.0
 40
0.0
 40
0.2673067431
 40
1.0
 40
1.0
 40
1.0
 40
1.0
 10
2420.6389515745
 20
1721.5929034267
 30
0.0
 10
2420.949356506
 20
1722.1453349459
 30
0.0
 10
2421.993734757
 20
1724.2695536128
 30
0.0
 10
2422.6097513005
 20
1726.6483449331
 30
0.0
 10
2422.6097513005
 20
1728.3852346966
 30
0.0
  0
SPLINE
  5
608
100
AcDbEntity
  8
0
100
AcDbSpline
 62
7
  6
CONTINUOUS
 70
0
 71
3
 72
9
 73
5
 74
0
 42
0.0000001
 43
0.0000001
 44
0.0000000001
 40
0.0
 40
0.0
 40
0.0
 40
0.0
 40
0.2952450707
 40
1.0
 40
1.0
 40
1.0
 40
1.0
 10
3043.1313071308
 20
1587.7381915297
 30
0.0
 10
3043.1313071308
 20
1587.9533807825
 30
0.0
 10
3043.0834253794
 20
1588.6724914137
 30
0.0
 10
3042.6953234067
 20
1589.4276958917
 30
0.0
 10
3042.2500244283
 20
1589.6837345135
 30
0.0
  0
SPLINE
  5
609
100
AcDbEntity
  8
0
100
AcDbSpline
 62
7
  6
CONTINUOUS
 70
0
 71
3
 72
10
 73
6
 74
0
 42
0.0000001
 43
0.0000001
 44
0.0000000001
 40
0.0
 40
0.0
 40
0.0
 40
0.0
 40
0.4227036001
 40
0.7224444811
 40
1.0
 40
1.0
 40
1.0
 40
1.0
 10
3018.9102991011
 20
1577.3618140461
 30
0.0
 10
3019.912312526
 20
1576.7856749827
 30
0.0
 10
3022.2606594981
 20
1578.1908057415
 30
0.0
 10
3023.5888538895
 20
1580.4281128928
 30
0.0
 10
3024.0394240388
 20
1582.0194286055
 30
0.0
 10
3024.0394240388
 20
1582.7783762302
 30
0.0
  0
SPLINE
  5
60A
100
AcDbEntity
  8
0
100
AcDbSpline
 62
7
  6
CONTINUOUS
 70
0
 71
3
 72
9
 73
5
 74
0
 42
0.0000001
 43
0.0000001
 44
0.0000000001
 40
0.0
 40
0.0
 40
0.0
 40
0.0
 40
0.2952450707
 40
1.0
 40
1.0
 40
1.0
 40
1.0
 10
3208.2407405379
 20
1689.1549058448
 30
0.0
 10
3208.2407405379
 20
1689.3700950975
 30
0.0
 10
3208.1928587864
 20
1690.0892057287
 30
0.0
 10
3207.8047568137
 20
1690.8444102067
 30
0.0
 10
3207.3594578354
 20
1691.1004488285
 30
0.0
  0
SPLINE
  5
60B
100
AcDbEntity
  8
0
100
AcDbSpline
 62
7
  6
CONTINUOUS
 70
0
 71
3
 72
12
 73
8
 74
0
 42
0.0000001
 43
0.0000001
 44
0.0000000001
 40
0.0
 40
0.0
 40
0.0
 40
0.0
 40
0.1832718055
 40
0.3014702264
 40
0.4362080395
 40
0.7289494925
 40
1.0
 40
1.0
 40
1.0
 40
1.0
 10
2446.4589153275
 20
1736.3867489101
 30
0.0
 10
2447.5047588567
 20
1735.7827125734
 30
0.0
 10
2449.7952908864
 20
1735.8998545718
 30
0.0
 10
2452.2856450519
 20
1737.3110992976
 30
0.0
 10
2455.013041669
 20
1739.7066930833
 30
0.0
 10
2457.5457996761
 20
1743.6410990695
 30
0.0
 10
2458.5307757848
 20
1747.3434796048
 30
0.0
 10
2458.5307757848
 20
1749.1296788594
 30
0.0
  0
SPLINE
  5
60C
100
AcDbEntity
  8
0
100
AcDbSpline
 62
7
  6
CONTINUOUS
 70
0
 71
3
 72
9
 73
5
 74
0
 42
0.0000001
 43
0.0000001
 44
0.0000000001
 40
0.0
 40
0.0
 40
0.0
 40
0.0
 40
0.2952450707
 40
1.0
 40
1.0
 40
1.0
 40
1.0
 10
2976.6632696993
 20
1536.2905683191
 30
0.0
 10
2976.6632696993
 20
1536.5057575719
 30
0.0
 10
2976.6153879478
 20
1537.2248682031
 30
0.0
 10
2976.2272859752
 20
1537.9800726811
 30
0.0
 10
2975.7819869968
 20
1538.2361113028
 30
0.0
  0
SPLINE
  5
60D
100
AcDbEntity
  8
0
100
AcDbSpline
 62
7
  6
CONTINUOUS
 70
0
 71
3
 72
12
 73
8
 74
0
 42
0.0000001
 43
0.0000001
 44
0.0000000001
 40
0.0
 40
0.0
 40
0.0
 40
0.0
 40
0.1832718055
 40
0.3014702264
 40
0.4362080395
 40
0.7289494925
 40
1.0
 40
1.0
 40
1.0
 40
1.0
 10
3105.906699462
 20
1645.9769076177
 30
0.0
 10
3106.9525429913
 20
1645.3728712811
 30
0.0
 10
3109.243075021
 20
1645.4900132795
 30
0.0
 10
3111.7334291864
 20
1646.9012580052
 30
0.0
 10
3114.4608258035
 20
1649.2968517909
 30
0.0
 10
3116.9935838107
 20
1653.2312577772
 30
0.0
 10
3117.9785599194
 20
1656.9336383124
 30
0.0
 10
3117.9785599194
 20
1658.7198375671
 30
0.0
  0
SPLINE
  5
60E
100
AcDbEntity
  8
0
100
AcDbSpline
 62
7
  6
CONTINUOUS
 70
0
 71
3
 72
9
 73
5
 74
0
 42
0.0000001
 43
0.0000001
 44
0.0000000001
 40
0.0
 40
0.0
 40
0.0
 40
0.0
 40
0.2952450707
 40
1.0
 40
1.0
 40
1.0
 40
1.0
 10
3255.6168948774
 20
1697.3866947411
 30
0.0
 10
3255.6168948774
 20
1697.6018839939
 30
0.0
 10
3255.5690131259
 20
1698.3209946251
 30
0.0
 10
3255.1809111532
 20
1699.0761991031
 30
0.0
 10
3254.7356121749
 20
1699.3322377248
 30
0.0
  0
SPLINE
  5
60F
100
AcDbEntity
  8
0
100
AcDbSpline
 62
7
  6
CONTINUOUS
 70
0
 71
3
 72
12
 73
8
 74
0
 42
0.0000001
 43
0.0000001
 44
0.0000000001
 40
0.0
 40
0.0
 40
0.0
 40
0.0
 40
0.1832718055
 40
0.3014702264
 40
0.4362080395
 40
0.7289494925
 40
1.0
 40
1.0
 40
1.0
 40
1.0
 10
2482.3799398117
 20
1757.1311930729
 30
0.0
 10
2483.425783341
 20
1756.5271567363
 30
0.0
 10
2485.7163153707
 20
1756.6442987347
 30
0.0
 10
2488.2066695361
 20
1758.0555434604
 30
0.0
 10
2490.9340661532
 20
1760.4511372461
 30
0.0
 10
2493.4668241604
 20
1764.3855432323
 30
0.0
 10
2494.4518002691
 20
1768.0879237676
 30
0.0
 10
2494.4518002691
 20
1769.8741230222
 30
0.0
  0
SPLINE
  5
610
100
AcDbEntity
  8
0
100
AcDbSpline
 62
7
  6
CONTINUOUS
 70
0
 71
3
 72
9
 73
5
 74
0
 42
0.0000001
 43
0.0000001
 44
0.0000000001
 40
0.0
 40
0.0
 40
0.0
 40
0.0
 40
0.2952450707
 40
1.0
 40
1.0
 40
1.0
 40
1.0
 10
3024.0394240388
 20
1582.7783762302
 30
0.0
 10
3024.0394240388
 20
1582.993565483
 30
0.0
 10
3023.9915422873
 20
1583.7126761142
 30
0.0
 10
3023.6034403147
 20
1584.4678805922
 30
0.0
 10
3023.1581413363
 20
1584.7239192139
 30
0.0
  0
SPLINE
  5
611
100
AcDbEntity
  8
0
100
AcDbSpline
 62
7
  6
CONTINUOUS
 70
0
 71
3
 72
9
 73
5
 74
0
 42
0.0000001
 43
0.0000001
 44
0.0000000001
 40
0.0
 40
0.0
 40
0.0
 40
0.0
 40
0.2371460391
 40
1.0
 40
1.0
 40
1.0
 40
1.0
 10
2630.196636756
 20
1611.8837438282
 30
0.0
 10
2630.3934190852
 20
1611.7700904241
 30
0.0
 10
2631.176196953
 20
1611.2064081652
 30
0.0
 10
2631.6882628194
 20
1610.3238604208
 30
0.0
 10
2631.9208292301
 20
1609.6308373791
 30
0.0
  0
SPLINE
  5
612
100
AcDbEntity
  8
0
100
AcDbSpline
 62
7
  6
CONTINUOUS
 70
0
 71
3
 72
9
 73
5
 74
0
 42
0.0000001
 43
0.0000001
 44
0.0000000001
 40
0.0
 40
0.0
 40
0.0
 40
0.0
 40
0.2343686937
 40
1.0
 40
1.0
 40
1.0
 40
1.0
 10
2631.9208292301
 20
1609.6308373791
 30
0.0
 10
2631.9793491258
 20
1609.456454346
 30
0.0
 10
2632.1919234457
 20
1608.6999940409
 30
0.0
 10
2632.2669119224
 20
1607.908810524
 30
0.0
 10
2632.2669119224
 20
1607.30791788
 30
0.0
  0
SPLINE
  5
613
100
AcDbEntity
  8
0
100
AcDbSpline
 62
7
  6
CONTINUOUS
 70
0
 71
3
 72
12
 73
8
 74
0
 42
0.0000001
 43
0.0000001
 44
0.0000000001
 40
0.0
 40
0.0
 40
0.0
 40
0.0
 40
0.1832718055
 40
0.3014702264
 40
0.4362080395
 40
0.7289494925
 40
1.0
 40
1.0
 40
1.0
 40
1.0
 10
2518.300964296
 20
1777.8756372357
 30
0.0
 10
2519.3468078253
 20
1777.2716008991
 30
0.0
 10
2521.637339855
 20
1777.3887428975
 30
0.0
 10
2524.1276940204
 20
1778.7999876232
 30
0.0
 10
2526.8550906375
 20
1781.195581409
 30
0.0
 10
2529.3878486447
 20
1785.1299873952
 30
0.0
 10
2530.3728247534
 20
1788.8323679304
 30
0.0
 10
2530.3728247534
 20
1790.6185671851
 30
0.0
  0
SPLINE
  5
614
100
AcDbEntity
  8
0
100
AcDbSpline
 62
7
  6
CONTINUOUS
 70
0
 71
3
 72
12
 73
8
 74
0
 42
0.0000001
 43
0.0000001
 44
0.0000000001
 40
0.0
 40
0.0
 40
0.0
 40
0.0
 40
0.1832718055
 40
0.3014702264
 40
0.4362080395
 40
0.7289494925
 40
1.0
 40
1.0
 40
1.0
 40
1.0
 10
2554.2219887803
 20
1798.6200813986
 30
0.0
 10
2555.2678323096
 20
1798.0160450619
 30
0.0
 10
2557.5583643393
 20
1798.1331870603
 30
0.0
 10
2560.0487185047
 20
1799.5444317861
 30
0.0
 10
2562.7761151218
 20
1801.9400255718
 30
0.0
 10
2565.3088731289
 20
1805.874431558
 30
0.0
 10
2566.2938492377
 20
1809.5768120933
 30
0.0
 10
2566.2938492377
 20
1811.3630113479
 30
0.0
  0
SPLINE
  5
615
100
AcDbEntity
  8
0
100
AcDbSpline
 62
7
  6
CONTINUOUS
 70
0
 71
3
 72
12
 73
8
 74
0
 42
0.0000001
 43
0.0000001
 44
0.0000000001
 40
0.0
 40
0.0
 40
0.0
 40
0.0
 40
0.1832718055
 40
0.3014702264
 40
0.4362080395
 40
0.7289494925
 40
1.0
 40
1.0
 40
1.0
 40
1.0
 10
2626.0640377488
 20
1840.1089697242
 30
0.0
 10
2627.1098812781
 20
1839.5049333876
 30
0.0
 10
2629.4004133078
 20
1839.622075386
 30
0.0
 10
2631.8907674732
 20
1841.0333201117
 30
0.0
 10
2634.6181640903
 20
1843.4289138975
 30
0.0
 10
2637.1509220975
 20
1847.3633198837
 30
0.0
 10
2638.1358982062
 20
1851.0657004189
 30
0.0
 10
2638.1358982062
 20
1852.8518996736
 30
0.0
  0
ENDSEC
  0
SECTION
  2
OBJECTS
  0
DICTIONARY
  5
C
100
AcDbDictionary
280
0
281
1
  3
ACAD_GROUP
350
D
  3
ACAD_MLINESTYLE
350
17
  3
ACAD_LAYOUT
350
1A
  3
ACAD_PLOTSETTINGS
350
19
  3
ACAD_PLOTSTYLENAME
350
E
  0
DICTIONARY
  5
D
102
{ACAD_REACTORS
330
C
102
}
100
AcDbDictionary
280
0
281
1
  0
ACDBDICTIONARYWDFLT
  5
E
102
{ACAD_REACTORS
330
C
102
}
100
AcDbDictionary
281
1
  3
Normal
350
F
100
AcDbDictionaryWithDefault
340
F
  0
DICTIONARY
  5
17
102
{ACAD_REACTORS
330
C
102
}
100
AcDbDictionary
280
0
281
1
  3
Standard
350
18
  0
DICTIONARY
  5
19
102
{ACAD_REACTORS
330
C
102
}
100
AcDbDictionary
281
1
  0
DICTIONARY
  5
1A
102
{ACAD_REACTORS
330
C
102
}
100
AcDbDictionary
281
1
  3
Model
350
616
  3
Layout1
350
617
  0
ACDBPLACEHOLDER
  5
F
102
{ACAD_REACTORS
330
E
102
}
  0
MLINESTYLE
  5
18
102
{ACAD_REACTORS
330
17
102
}
100
AcDbMlineStyle
  2
STANDARD
 70
0
  3

 62
256
 51
90.0
 52
90.0
 71
2
 49
0.5
 62
256
  6
BYLAYER
 49
-0.5
 62
256
  6
BYLAYER
  0
LAYOUT
  5
616
102
{ACAD_REACTORS
330
1A
102
}
100
AcDbPlotSettings
  1

  2
none_device
  4

  6

 40
0.0
 41
0.0
 42
0.0
 43
0.0
 44
431.8
 45
279.4
 46
0.0
 47
0.0
 48
0.0
 49
0.0
140
0.0
141
0.0
142
1.0
143
1.0
 70
1024
 72
1
 73
0
 74
0
  7

 75
0
147
1.0
148
0.0
149
0.0
100
AcDbLayout
  1
Model
 70
0
 71
0
 10
0.0
 20
0.0
 11
431.8
 21
279.4
 12
0.0
 22
0.0
 32
0.0
 14
0.0
 24
0.0
 34
0.0
 15
0.0
 25
0.0
 35
0.0
146
0.0
 13
0.0
 23
0.0
 33
0.0
 16
1.0
 26
0.0
 36
0.0
 17
0.0
 27
1.0
 37
0.0
 76
0
330
213
345
0
346
0
  0
LAYOUT
  5
617
102
{ACAD_REACTORS
330
1A
102
}
100
AcDbPlotSettings
  1

  2
none_device
  4

  6

 40
0.0
 41
0.0
 42
0.0
 43
0.0
 44
431.8
 45
279.4
 46
0.0
 47
0.0
 48
0.0
 49
0.0
140
0.0
141
0.0
142
1.0
143
1.0
 70
0
 72
1
 73
0
 74
0
  7

 75
0
147
1.0
148
0.0
149
0.0
100
AcDbLayout
  1
Layout1
 70
0
 71
1
 10
0.0
 20
0.0
 11
431.8
 21
279.4
 12
0.0
 22
0.0
 32
0.0
 14
0.0
 24
0.0
 34
0.0
 15
0.0
 25
0.0
 35
0.0
146
0.0
 13
0.0
 23
0.0
 33
0.0
 16
1.0
 26
0.0
 36
0.0
 17
0.0
 27
1.0
 37
0.0
 76
0
330
214
345
0
346
0
  0
ENDSEC
  0
EOF
