999
DXF file: D:\Agile attachment\ECO-113190\FG-901548-2D-A.dxf
999
Pro/ENGINEER 2022014 by Parametric Technology Corporation
  0
SECTION
  2
HEADER
  9
$ACADVER
  1
AC1015
  9
$DWGCODEPAGE
  3
ANSI_1252
  9
$EXTMAX
 10
4318.0
 20
2794.0
 30
0.0
  9
$EXTMIN
 10
0.0
 20
0.0
 30
0.0
  9
$LIMMIN
 10
0.0
 20
0.0
  9
$LIMMAX
 10
4318.0
 20
2794.0
  9
$VIEWCTR
 10
2159.0
 20
1397.0
  9
$VIEWSIZE
 40
2794.0
  9
$CLAYER
  8
0
  9
$LTSCALE
 40
237.49
  9
$CELTYPE
  6
BYLAYER
  9
$DIMSCALE
 40
1.0
  9
$DIMASZ
 40
20.0
  9
$DIMEXO
 40
1.5875
  9
$DIMDLI
 40
164.084
  9
$DIMEXE
 40
3.175
  9
$DIMCEN
 40
38.862
  9
$DIMLFAC
 40
1.0
  9
$DIMBLK
  1
_FILLED
  9
$DIMALT
 70
1
  9
$DIMALTD
 70
1
  9
$DIMALTTD
 70
2
  9
$DIMALTF
 40
0.0393700787
  9
$DIMTXT
 40
22.86
  9
$DIMTOL
 70
1
  9
$DIMLIM
 70
0
  9
$DIMTFAC
 40
1.0
  9
$DIMTP
 40
0.02
  9
$DIMTM
 40
0.02
  9
$DIMGAP
 40
0.625
  9
$DIMDSEP
 70
46
  9
$AUNITS
 70
0
  9
$PDMODE
 70
3
  9
$PDSIZE
 40
7.9375
  9
$HANDSEED
  5
6BF
  9
$TILEMODE
 70
1
  9
$MEASUREMENT
 70
1
  9
$INSUNITS
 70
4
  0
ENDSEC
  0
SECTION
  2
CLASSES
  0
CLASS
  1
ACDBDICTIONARYWDFLT
  2
AcDbDictionaryWithDefault
  3
AutoCAD 2000
 90
0
280
0
281
0
  0
CLASS
  1
ACDBPLACEHOLDER
  2
AcDbPlaceHolder
  3
AutoCAD 2000
 90
0
280
0
281
0
  0
CLASS
  1
LAYOUT
  2
AcDbLayout
  3
AutoCAD 2000
 90
0
280
0
281
0
  0
ENDSEC
  0
SECTION
  2
TABLES
  0
TABLE
  2
VPORT
  5
8
100
AcDbSymbolTable
 70
2
  0
VPORT
  5
1F4
100
AcDbSymbolTableRecord
100
AcDbViewportTableRecord
  2
*ACTIVE
 70
0
 10
0.0
 20
0.0
 11
1.0
 21
1.0
 12
2159.0
 22
1397.0
 13
0.0
 23
0.0
 14
1.0
 24
1.0
 15
0.0
 25
0.0
 16
0.0
 26
0.0
 36
1.0
 17
0.0
 27
0.0
 37
0.0
 40
2794.0
 41
1.5454545455
 42
50.0
 43
0.0
 44
0.0
 50
0.0
 51
0.0
 71
0
 72
100
 73
1
 74
1
 75
0
 76
0
 77
0
 78
0
  0
ENDTAB
  0
TABLE
  2
LTYPE
  5
5
100
AcDbSymbolTable
 70
6
  0
LTYPE
  5
14
100
AcDbSymbolTableRecord
100
AcDbLinetypeTableRecord
  2
BYBLOCK
 70
0
  3

 72
65
 73
0
 40
0.0
  0
LTYPE
  5
15
100
AcDbSymbolTableRecord
100
AcDbLinetypeTableRecord
  2
BYLAYER
 70
0
  3

 72
65
 73
0
 40
0.0
  0
LTYPE
  5
16
100
AcDbSymbolTableRecord
100
AcDbLinetypeTableRecord
  2
CONTINUOUS
 70
64
  3
Solid line
 72
65
 73
0
 40
0.0
  0
LTYPE
  5
1F5
100
AcDbSymbolTableRecord
100
AcDbLinetypeTableRecord
  2
CENTER
 70
64
  3
____ _ ____ _ ____ _ ____ _ ____ _ ____ _ ____
 72
65
 73
4
 40
0.6
 49
0.375
 74
0
 49
-0.075
 74
0
 49
0.075
 74
0
 49
-0.075
 74
0
  0
LTYPE
  5
1F6
100
AcDbSymbolTableRecord
100
AcDbLinetypeTableRecord
  2
HIDDEN
 70
64
  3
- - - - - - - - - - - - - - - - - - - -
 72
65
 73
2
 40
0.2
 49
0.1
 74
0
 49
-0.1
 74
0
  0
LTYPE
  5
1F7
100
AcDbSymbolTableRecord
100
AcDbLinetypeTableRecord
  2
PHANTOM
 70
64
  3
_____ _ _ _____ _ _ _____ _ _ _____
 72
65
 73
6
 40
0.8
 49
0.45
 74
0
 49
-0.05
 74
0
 49
0.1
 74
0
 49
-0.05
 74
0
 49
0.1
 74
0
 49
-0.05
 74
0
  0
LTYPE
  5
1F8
100
AcDbSymbolTableRecord
100
AcDbLinetypeTableRecord
  2
DOT
 70
64
  3
. . . . . . . . . . . . . . . . . . . .
 72
65
 73
2
 40
0.2
 49
0.1
 74
0
 49
-0.1
 74
0
  0
LTYPE
  5
1F9
100
AcDbSymbolTableRecord
100
AcDbLinetypeTableRecord
  2
DASHED
 70
64
  3
- - - - - - - - - - - - - - - - - - - -
 72
65
 73
2
 40
0.2
 49
0.1
 74
0
 49
-0.1
 74
0
  0
ENDTAB
  0
TABLE
  2
LAYER
  5
2
100
AcDbSymbolTable
 70
36
  0
LAYER
  5
10
100
AcDbSymbolTableRecord
100
AcDbLayerTableRecord
  2
0
 70
0
 62
7
  6
CONTINUOUS
370
-3
390
F
  0
LAYER
  5
1FA
100
AcDbSymbolTableRecord
100
AcDbLayerTableRecord
  2
DEFAULT_1
 70
0
 62
7
  6
CENTER
370
-3
390
F
  0
LAYER
  5
1FB
100
AcDbSymbolTableRecord
100
AcDbLayerTableRecord
  2
DEFAULT_2
 70
0
 62
8
  6
HIDDEN
370
-3
390
F
  0
LAYER
  5
1FC
100
AcDbSymbolTableRecord
100
AcDbLayerTableRecord
  2
DEFAULT_3
 70
0
 62
7
  6
PHANTOM
370
-3
390
F
  0
LAYER
  5
1FD
100
AcDbSymbolTableRecord
100
AcDbLayerTableRecord
  2
1_ALL_PLANES
 70
0
 62
7
  6
CONTINUOUS
370
-3
390
F
  0
LAYER
  5
1FE
100
AcDbSymbolTableRecord
100
AcDbLayerTableRecord
  2
1_DEF_PLANES
 70
0
 62
7
  6
CONTINUOUS
370
-3
390
F
  0
LAYER
  5
1FF
100
AcDbSymbolTableRecord
100
AcDbLayerTableRecord
  2
2_ALL_CSYS
 70
0
 62
7
  6
CONTINUOUS
370
-3
390
F
  0
LAYER
  5
200
100
AcDbSymbolTableRecord
100
AcDbLayerTableRecord
  2
2_DEF_CSYS
 70
0
 62
7
  6
CONTINUOUS
370
-3
390
F
  0
LAYER
  5
201
100
AcDbSymbolTableRecord
100
AcDbLayerTableRecord
  2
3_ALL_AXES
 70
0
 62
7
  6
CONTINUOUS
370
-3
390
F
  0
LAYER
  5
202
100
AcDbSymbolTableRecord
100
AcDbLayerTableRecord
  2
3_AXES_OTHER
 70
0
 62
7
  6
CONTINUOUS
370
-3
390
F
  0
LAYER
  5
203
100
AcDbSymbolTableRecord
100
AcDbLayerTableRecord
  2
3_HOLES
 70
0
 62
7
  6
CONTINUOUS
370
-3
390
F
  0
LAYER
  5
204
100
AcDbSymbolTableRecord
100
AcDbLayerTableRecord
  2
4_ALL_POINTS
 70
0
 62
7
  6
CONTINUOUS
370
-3
390
F
  0
LAYER
  5
205
100
AcDbSymbolTableRecord
100
AcDbLayerTableRecord
  2
5_ALL_CURVES
 70
0
 62
7
  6
CONTINUOUS
370
-3
390
F
  0
LAYER
  5
206
100
AcDbSymbolTableRecord
100
AcDbLayerTableRecord
  2
6_ALL_SURFS
 70
0
 62
7
  6
CONTINUOUS
370
-3
390
F
  0
LAYER
  5
207
100
AcDbSymbolTableRecord
100
AcDbLayerTableRecord
  2
6_COPYGEOM
 70
0
 62
7
  6
CONTINUOUS
370
-3
390
F
  0
LAYER
  5
208
100
AcDbSymbolTableRecord
100
AcDbLayerTableRecord
  2
7_ALL_ROUNDS
 70
0
 62
7
  6
CONTINUOUS
370
-3
390
F
  0
LAYER
  5
209
100
AcDbSymbolTableRecord
100
AcDbLayerTableRecord
  2
7_MERGES
 70
0
 62
7
  6
CONTINUOUS
370
-3
390
F
  0
LAYER
  5
20A
100
AcDbSymbolTableRecord
100
AcDbLayerTableRecord
  2
8_GDT
 70
0
 62
7
  6
CONTINUOUS
370
-3
390
F
  0
LAYER
  5
20B
100
AcDbSymbolTableRecord
100
AcDbLayerTableRecord
  2
8_SET_DATUMS
 70
0
 62
7
  6
CONTINUOUS
370
-3
390
F
  0
LAYER
  5
20C
100
AcDbSymbolTableRecord
100
AcDbLayerTableRecord
  2
9_COSMETICS
 70
0
 62
7
  6
CONTINUOUS
370
-3
390
F
  0
LAYER
  5
20D
100
AcDbSymbolTableRecord
100
AcDbLayerTableRecord
  2
9_THREADS
 70
0
 62
7
  6
CONTINUOUS
370
-3
390
F
  0
ENDTAB
  0
TABLE
  2
STYLE
  5
3
100
AcDbSymbolTable
 70
1
  0
STYLE
  5
11
100
AcDbSymbolTableRecord
100
AcDbTextStyleTableRecord
  2
STANDARD
 70
0
 40
0.0
 41
1.0
 50
0.0
 71
0
 42
0.2
  3
gothic.ttf
  4

1001
ACAD
1000
Century Gothic
1071
34
  0
STYLE
  5
20E
100
AcDbSymbolTableRecord
100
AcDbTextStyleTableRecord
  2
TEXTSTYLE_1
 70
0
 40
0.0
 41
0.8
 50
0.0
 71
0
 42
0.2
  3
gdt
  4

  0
STYLE
  5
20F
100
AcDbSymbolTableRecord
100
AcDbTextStyleTableRecord
  2
TEXTSTYLE_2
 70
0
 40
0.0
 41
1.0
 50
0.0
 71
0
 42
0.2
  3
gothic.ttf
  4

1001
ACAD
1000
Century Gothic
1071
34
  0
STYLE
  5
210
100
AcDbSymbolTableRecord
100
AcDbTextStyleTableRecord
  2
TEXTSTYLE_3
 70
0
 40
0.0
 41
1.0
 50
0.0
 71
0
 42
0.2
  3
ar_wgl_b.ttf
  4

1001
ACAD
1000
Arial WGL
1071
33554466
  0
STYLE
  5
211
100
AcDbSymbolTableRecord
100
AcDbTextStyleTableRecord
  2
TEXTSTYLE_4
 70
0
 40
0.0
 41
1.0
 50
0.0
 71
0
 42
0.2
  3
gdt
  4

  0
ENDTAB
  0
TABLE
  2
VIEW
  5
6
100
AcDbSymbolTable
 70
0
  0
ENDTAB
  0
TABLE
  2
UCS
  5
7
100
AcDbSymbolTable
 70
0
  0
ENDTAB
  0
TABLE
  2
APPID
  5
9
100
AcDbSymbolTable
 70
1
  0
APPID
  5
212
100
AcDbSymbolTableRecord
100
AcDbRegAppTableRecord
  2
ACAD
 70
0
  0
ENDTAB
  0
TABLE
  2
BLOCK_RECORD
  5
1
100
AcDbSymbolTable
 70
0
  0
BLOCK_RECORD
  5
213
100
AcDbSymbolTableRecord
100
AcDbBlockTableRecord
  2
*Model_Space
  0
BLOCK_RECORD
  5
214
100
AcDbSymbolTableRecord
100
AcDbBlockTableRecord
  2
*Paper_Space
  0
BLOCK_RECORD
  5
215
100
AcDbSymbolTableRecord
100
AcDbBlockTableRecord
  2
_FILLED
  0
BLOCK_RECORD
  5
216
100
AcDbSymbolTableRecord
100
AcDbBlockTableRecord
  2
XSEC_FILLED
  0
BLOCK_RECORD
  5
217
100
AcDbSymbolTableRecord
100
AcDbBlockTableRecord
  2
*D0
  0
BLOCK_RECORD
  5
218
100
AcDbSymbolTableRecord
100
AcDbBlockTableRecord
  2
*D1
  0
BLOCK_RECORD
  5
219
100
AcDbSymbolTableRecord
100
AcDbBlockTableRecord
  2
*D2
  0
BLOCK_RECORD
  5
21A
100
AcDbSymbolTableRecord
100
AcDbBlockTableRecord
  2
*D3
  0
BLOCK_RECORD
  5
21B
100
AcDbSymbolTableRecord
100
AcDbBlockTableRecord
  2
*D4
  0
BLOCK_RECORD
  5
21C
100
AcDbSymbolTableRecord
100
AcDbBlockTableRecord
  2
*D5
  0
BLOCK_RECORD
  5
21D
100
AcDbSymbolTableRecord
100
AcDbBlockTableRecord
  2
*D6
  0
BLOCK_RECORD
  5
21E
100
AcDbSymbolTableRecord
100
AcDbBlockTableRecord
  2
*D7
  0
BLOCK_RECORD
  5
21F
100
AcDbSymbolTableRecord
100
AcDbBlockTableRecord
  2
*D8
  0
BLOCK_RECORD
  5
220
100
AcDbSymbolTableRecord
100
AcDbBlockTableRecord
  2
*D9
  0
BLOCK_RECORD
  5
221
100
AcDbSymbolTableRecord
100
AcDbBlockTableRecord
  2
*D10
  0
BLOCK_RECORD
  5
222
100
AcDbSymbolTableRecord
100
AcDbBlockTableRecord
  2
*D11
  0
BLOCK_RECORD
  5
223
100
AcDbSymbolTableRecord
100
AcDbBlockTableRecord
  2
*D12
  0
BLOCK_RECORD
  5
224
100
AcDbSymbolTableRecord
100
AcDbBlockTableRecord
  2
*D13
  0
BLOCK_RECORD
  5
225
100
AcDbSymbolTableRecord
100
AcDbBlockTableRecord
  2
*D14
  0
BLOCK_RECORD
  5
226
100
AcDbSymbolTableRecord
100
AcDbBlockTableRecord
  2
*D15
  0
BLOCK_RECORD
  5
227
100
AcDbSymbolTableRecord
100
AcDbBlockTableRecord
  2
*D16
  0
BLOCK_RECORD
  5
228
100
AcDbSymbolTableRecord
100
AcDbBlockTableRecord
  2
*D17
  0
BLOCK_RECORD
  5
229
100
AcDbSymbolTableRecord
100
AcDbBlockTableRecord
  2
*D18
  0
BLOCK_RECORD
  5
22A
100
AcDbSymbolTableRecord
100
AcDbBlockTableRecord
  2
*D19
  0
BLOCK_RECORD
  5
22B
100
AcDbSymbolTableRecord
100
AcDbBlockTableRecord
  2
*D20
  0
BLOCK_RECORD
  5
22C
100
AcDbSymbolTableRecord
100
AcDbBlockTableRecord
  2
CG_3D_BL2
  0
BLOCK_RECORD
  5
22D
100
AcDbSymbolTableRecord
100
AcDbBlockTableRecord
  2
CG_3D_BL1
  0
BLOCK_RECORD
  5
22E
100
AcDbSymbolTableRecord
100
AcDbBlockTableRecord
  2
CG_3D_BL0
  0
ENDTAB
  0
TABLE
  2
DIMSTYLE
  5
A
100
AcDbSymbolTable
 70
1
100
AcDbDimStyleTable
 71
0
  0
DIMSTYLE
105
22F
100
AcDbSymbolTableRecord
100
AcDbDimStyleTableRecord
  2
STANDARD
 70
0
  3

  4

 40
1.0
 41
20.0
 42
1.5875
 43
0.38
 44
3.175
 45
0.0
 46
0.0
 47
0.02
 48
0.02
140
22.86
141
0.09
142
0.0
143
0.0393700787
144
1.0
145
0.0
146
1.0
147
0.625
 71
1
 72
0
 73
1
 74
1
 75
0
 76
0
 77
0
 78
4
 79
1
170
1
171
1
172
0
173
0
174
0
175
0
176
0
177
0
178
0
270
2
179
2
271
2
272
2
273
2
274
2
275
0
280
0
281
0
282
0
283
1
284
4
285
0
286
0
287
3
288
0
340
11
278
46
341
215
342
215
343
215
344
215
  0
DIMSTYLE
105
230
100
AcDbSymbolTableRecord
100
AcDbDimStyleTableRecord
  2
DIMSTYLE_1
 70
0
  3

  4

 40
1.0
 41
20.0
 42
1.5875
 43
0.38
 44
3.175
 45
0.0
 46
0.0
 47
0.02
 48
0.02
140
22.86
141
0.09
142
0.0
143
0.0393700787
144
1.0
145
0.0
146
1.0
147
1.143
 71
0
 72
0
 73
1
 74
1
 75
0
 76
0
 77
0
 78
4
 79
1
170
1
171
2
172
0
173
0
174
0
175
0
176
0
177
0
178
0
270
2
179
2
271
1
272
1
273
2
274
2
275
0
280
0
281
0
282
0
283
1
284
4
285
0
286
0
287
3
288
0
340
11
278
46
341
215
342
215
343
215
344
215
  0
DIMSTYLE
105
231
100
AcDbSymbolTableRecord
100
AcDbDimStyleTableRecord
  2
DIMSTYLE_2
 70
0
  3

  4

 40
1.0
 41
20.0
 42
1.5875
 43
0.38
 44
3.175
 45
0.0
 46
0.0
 47
0.5
 48
0.5
140
22.86
141
0.09
142
0.0
143
0.0393700787
144
1.0
145
0.0
146
1.0
147
1.143
 71
0
 72
0
 73
1
 74
1
 75
0
 76
0
 77
0
 78
4
 79
1
170
0
171
1
172
0
173
0
174
0
175
0
176
0
177
0
178
0
270
2
179
2
271
0
272
0
273
2
274
2
275
0
280
0
281
0
282
0
283
1
284
4
285
0
286
0
287
3
288
0
340
11
278
46
341
215
342
215
343
215
344
215
  0
ENDTAB
  0
ENDSEC
  0
SECTION
  2
BLOCKS
  0
BLOCK
  5
20
100
AcDbEntity
  8
0
100
AcDbBlockBegin
  2
*Model_Space
 70
0
 10
0.0
 20
0.0
 30
0.0
  3
*Model_Space
  1

  0
ENDBLK
  5
21
100
AcDbEntity
  8
0
100
AcDbBlockEnd
  0
BLOCK
  5
1C
100
AcDbEntity
  8
0
100
AcDbBlockBegin
  2
*Paper_Space
 70
0
 10
0.0
 20
0.0
 30
0.0
  3
*Paper_Space
  1

  0
ENDBLK
  5
1D
100
AcDbEntity
  8
0
100
AcDbBlockEnd
  0
BLOCK
  5
232
100
AcDbEntity
  8
0
100
AcDbBlockBegin
 62
2
  6
CONTINUOUS
  2
CG_3D_BL2
 70
64
 10
1004.0492201976
 20
833.5309742438
  3
CG_3D_BL2
  1

  0
ARC
  5
233
100
AcDbEntity
  8
0
100
AcDbCircle
 62
7
  6
CONTINUOUS
 10
1004.0492201976
 20
833.5309742438
 40
20.0
100
AcDbArc
 50
90.0
 51
180.0
  0
ARC
  5
234
100
AcDbEntity
  8
0
100
AcDbCircle
 62
7
  6
CONTINUOUS
 10
1004.0492201976
 20
833.5309742438
 40
20.0
100
AcDbArc
 50
180.0
 51
270.0
  0
ARC
  5
235
100
AcDbEntity
  8
0
100
AcDbCircle
 62
7
  6
CONTINUOUS
 10
1004.0492201976
 20
833.5309742438
 40
20.0
100
AcDbArc
 50
270.0
 51
360.0
  0
ARC
  5
236
100
AcDbEntity
  8
0
100
AcDbCircle
 62
7
  6
CONTINUOUS
 10
1004.0492201976
 20
833.5309742438
 40
20.0
100
AcDbArc
 50
0.0
 51
90.0
  0
LINE
  5
237
100
AcDbEntity
  8
0
100
AcDbLine
 62
7
  6
CONTINUOUS
 10
1004.0492201976
 20
833.5309742438
 11
1024.0492201976
 21
833.5309742438
  0
LINE
  5
238
100
AcDbEntity
  8
0
100
AcDbLine
 62
7
  6
CONTINUOUS
 10
1004.0492201976
 20
833.5309742438
 11
1004.0492201976
 21
813.5309742438
  0
LINE
  5
239
100
AcDbEntity
  8
0
100
AcDbLine
 62
7
  6
CONTINUOUS
 10
984.0492201976
 20
833.5309742438
 11
1004.0492201976
 21
833.5309742438
  0
LINE
  5
23A
100
AcDbEntity
  8
0
100
AcDbLine
 62
7
  6
CONTINUOUS
 10
1004.0492201976
 20
853.5309742438
 11
1004.0492201976
 21
833.5309742438
  0
LINE
  5
23B
100
AcDbEntity
  8
0
100
AcDbLine
 62
2
  6
CONTINUOUS
 10
1004.0492201976
 20
833.3991610565
 11
1004.1810333849
 21
833.5309742438
  0
LWPOLYLINE
  5
23C
100
AcDbEntity
  8
0
100
AcDbPolyline
 62
7
  6
CONTINUOUS
 90
8
 70
0
 10
1004.0492201976
 20
833.5309742438
 10
1004.0492201976
 20
813.5309742438
 10
1010.2295600851
 20
814.5098439179
 10
1015.8049252434
 20
817.3506343563
 10
1020.2295600851
 20
821.7752691979
 10
1023.0703505235
 20
827.3506343563
 10
1024.0492201976
 20
833.5309742438
 10
1004.0492201976
 20
833.5309742438
  0
HATCH
  5
23D
100
AcDbEntity
  8
0
100
AcDbHatch
 62
7
  6
CONTINUOUS
 10
0.0
 20
0.0
 30
0.0
210
0.0
220
0.0
230
1.0
  2
SOLID
 70
1
 71
1
 91
1
 92
1
 93
7
 72
1
 10
1004.0492201976
 20
833.5309742438
 11
1004.0492201976
 21
813.5309742438
 72
1
 10
1004.0492201976
 20
813.5309742438
 11
1010.2295600851
 21
814.5098439179
 72
1
 10
1010.2295600851
 20
814.5098439179
 11
1015.8049252434
 21
817.3506343563
 72
1
 10
1015.8049252434
 20
817.3506343563
 11
1020.2295600851
 21
821.7752691979
 72
1
 10
1020.2295600851
 20
821.7752691979
 11
1023.0703505235
 21
827.3506343563
 72
1
 10
1023.0703505235
 20
827.3506343563
 11
1024.0492201976
 21
833.5309742438
 72
1
 10
1024.0492201976
 20
833.5309742438
 11
1004.0492201976
 21
833.5309742438
 97
1
330
23C
 75
0
 76
1
 98
1
 10
0.0
 20
0.0
  0
LWPOLYLINE
  5
23E
100
AcDbEntity
  8
0
100
AcDbPolyline
 62
7
  6
CONTINUOUS
 90
8
 70
0
 10
1004.0492201976
 20
833.5309742438
 10
984.0492201976
 20
833.5309742438
 10
985.0280898717
 20
839.7113141313
 10
987.8688803101
 20
845.2866792896
 10
992.2935151517
 20
849.7113141313
 10
997.8688803101
 20
852.5521045697
 10
1004.0492201976
 20
853.5309742438
 10
1004.0492201976
 20
833.5309742438
  0
HATCH
  5
23F
100
AcDbEntity
  8
0
100
AcDbHatch
 62
7
  6
CONTINUOUS
 10
0.0
 20
0.0
 30
0.0
210
0.0
220
0.0
230
1.0
  2
SOLID
 70
1
 71
1
 91
1
 92
1
 93
7
 72
1
 10
1004.0492201976
 20
833.5309742438
 11
984.0492201976
 21
833.5309742438
 72
1
 10
984.0492201976
 20
833.5309742438
 11
985.0280898717
 21
839.7113141313
 72
1
 10
985.0280898717
 20
839.7113141313
 11
987.8688803101
 21
845.2866792896
 72
1
 10
987.8688803101
 20
845.2866792896
 11
992.2935151517
 21
849.7113141313
 72
1
 10
992.2935151517
 20
849.7113141313
 11
997.8688803101
 21
852.5521045697
 72
1
 10
997.8688803101
 20
852.5521045697
 11
1004.0492201976
 21
853.5309742438
 72
1
 10
1004.0492201976
 20
853.5309742438
 11
1004.0492201976
 21
833.5309742438
 97
1
330
23E
 75
0
 76
1
 98
1
 10
0.0
 20
0.0
  0
ENDBLK
  5
240
100
AcDbEntity
  8
0
  6
BYBLOCK
 62
0
100
AcDbBlockEnd
  0
BLOCK
  5
241
100
AcDbEntity
  8
0
100
AcDbBlockBegin
 62
2
  6
CONTINUOUS
  2
CG_3D_BL1
 70
64
 10
1623.3829355903
 20
833.4823699862
  3
CG_3D_BL1
  1

  0
ARC
  5
242
100
AcDbEntity
  8
0
100
AcDbCircle
 62
7
  6
CONTINUOUS
 10
1623.3829355903
 20
833.4823699862
 40
20.0
100
AcDbArc
 50
90.0
 51
180.0
  0
ARC
  5
243
100
AcDbEntity
  8
0
100
AcDbCircle
 62
7
  6
CONTINUOUS
 10
1623.3829355903
 20
833.4823699862
 40
20.0
100
AcDbArc
 50
180.0
 51
270.0
  0
ARC
  5
244
100
AcDbEntity
  8
0
100
AcDbCircle
 62
7
  6
CONTINUOUS
 10
1623.3829355903
 20
833.4823699862
 40
20.0
100
AcDbArc
 50
270.0
 51
360.0
  0
ARC
  5
245
100
AcDbEntity
  8
0
100
AcDbCircle
 62
7
  6
CONTINUOUS
 10
1623.3829355903
 20
833.4823699862
 40
20.0
100
AcDbArc
 50
0.0
 51
90.0
  0
LINE
  5
246
100
AcDbEntity
  8
0
100
AcDbLine
 62
7
  6
CONTINUOUS
 10
1623.3829355903
 20
833.4823699862
 11
1643.3829355903
 21
833.4823699862
  0
LINE
  5
247
100
AcDbEntity
  8
0
100
AcDbLine
 62
7
  6
CONTINUOUS
 10
1623.3829355903
 20
833.4823699862
 11
1623.3829355903
 21
813.4823699862
  0
LINE
  5
248
100
AcDbEntity
  8
0
100
AcDbLine
 62
7
  6
CONTINUOUS
 10
1603.3829355903
 20
833.4823699862
 11
1623.3829355903
 21
833.4823699862
  0
LINE
  5
249
100
AcDbEntity
  8
0
100
AcDbLine
 62
7
  6
CONTINUOUS
 10
1623.3829355903
 20
853.4823699862
 11
1623.3829355903
 21
833.4823699862
  0
LINE
  5
24A
100
AcDbEntity
  8
0
100
AcDbLine
 62
2
  6
CONTINUOUS
 10
1623.3829355903
 20
833.350556799
 11
1623.5147487776
 21
833.4823699862
  0
LWPOLYLINE
  5
24B
100
AcDbEntity
  8
0
100
AcDbPolyline
 62
7
  6
CONTINUOUS
 90
8
 70
0
 10
1623.3829355903
 20
833.4823699862
 10
1623.3829355903
 20
813.4823699862
 10
1629.5632754778
 20
814.4612396603
 10
1635.1386406362
 20
817.3020300987
 10
1639.5632754778
 20
821.7266649404
 10
1642.4040659162
 20
827.3020300987
 10
1643.3829355903
 20
833.4823699862
 10
1623.3829355903
 20
833.4823699862
  0
HATCH
  5
24C
100
AcDbEntity
  8
0
100
AcDbHatch
 62
7
  6
CONTINUOUS
 10
0.0
 20
0.0
 30
0.0
210
0.0
220
0.0
230
1.0
  2
SOLID
 70
1
 71
1
 91
1
 92
1
 93
7
 72
1
 10
1623.3829355903
 20
833.4823699862
 11
1623.3829355903
 21
813.4823699862
 72
1
 10
1623.3829355903
 20
813.4823699862
 11
1629.5632754778
 21
814.4612396603
 72
1
 10
1629.5632754778
 20
814.4612396603
 11
1635.1386406362
 21
817.3020300987
 72
1
 10
1635.1386406362
 20
817.3020300987
 11
1639.5632754778
 21
821.7266649404
 72
1
 10
1639.5632754778
 20
821.7266649404
 11
1642.4040659162
 21
827.3020300987
 72
1
 10
1642.4040659162
 20
827.3020300987
 11
1643.3829355903
 21
833.4823699862
 72
1
 10
1643.3829355903
 20
833.4823699862
 11
1623.3829355903
 21
833.4823699862
 97
1
330
24B
 75
0
 76
1
 98
1
 10
0.0
 20
0.0
  0
LWPOLYLINE
  5
24D
100
AcDbEntity
  8
0
100
AcDbPolyline
 62
7
  6
CONTINUOUS
 90
8
 70
0
 10
1623.3829355903
 20
833.4823699862
 10
1603.3829355903
 20
833.4823699862
 10
1604.3618052644
 20
839.6627098737
 10
1607.2025957028
 20
845.2380750321
 10
1611.6272305445
 20
849.6627098737
 10
1617.2025957028
 20
852.5035003121
 10
1623.3829355903
 20
853.4823699862
 10
1623.3829355903
 20
833.4823699862
  0
HATCH
  5
24E
100
AcDbEntity
  8
0
100
AcDbHatch
 62
7
  6
CONTINUOUS
 10
0.0
 20
0.0
 30
0.0
210
0.0
220
0.0
230
1.0
  2
SOLID
 70
1
 71
1
 91
1
 92
1
 93
7
 72
1
 10
1623.3829355903
 20
833.4823699862
 11
1603.3829355903
 21
833.4823699862
 72
1
 10
1603.3829355903
 20
833.4823699862
 11
1604.3618052644
 21
839.6627098737
 72
1
 10
1604.3618052644
 20
839.6627098737
 11
1607.2025957028
 21
845.2380750321
 72
1
 10
1607.2025957028
 20
845.2380750321
 11
1611.6272305445
 21
849.6627098737
 72
1
 10
1611.6272305445
 20
849.6627098737
 11
1617.2025957028
 21
852.5035003121
 72
1
 10
1617.2025957028
 20
852.5035003121
 11
1623.3829355903
 21
853.4823699862
 72
1
 10
1623.3829355903
 20
853.4823699862
 11
1623.3829355903
 21
833.4823699862
 97
1
330
24D
 75
0
 76
1
 98
1
 10
0.0
 20
0.0
  0
ENDBLK
  5
24F
100
AcDbEntity
  8
0
  6
BYBLOCK
 62
0
100
AcDbBlockEnd
  0
BLOCK
  5
250
100
AcDbEntity
  8
0
100
AcDbBlockBegin
 62
2
  6
CONTINUOUS
  2
CG_3D_BL0
 70
64
 10
325.4402789323
 20
2546.7089684648
  3
CG_3D_BL0
  1

  0
ARC
  5
251
100
AcDbEntity
  8
0
100
AcDbCircle
 62
7
  6
CONTINUOUS
 10
325.4402789323
 20
2546.7089684648
 40
16.25
100
AcDbArc
 50
90.0
 51
180.0
  0
ARC
  5
252
100
AcDbEntity
  8
0
100
AcDbCircle
 62
7
  6
CONTINUOUS
 10
325.4402789323
 20
2546.7089684648
 40
16.25
100
AcDbArc
 50
180.0
 51
270.0
  0
ARC
  5
253
100
AcDbEntity
  8
0
100
AcDbCircle
 62
7
  6
CONTINUOUS
 10
325.4402789323
 20
2546.7089684648
 40
16.25
100
AcDbArc
 50
270.0
 51
360.0
  0
ARC
  5
254
100
AcDbEntity
  8
0
100
AcDbCircle
 62
7
  6
CONTINUOUS
 10
325.4402789323
 20
2546.7089684648
 40
16.25
100
AcDbArc
 50
0.0
 51
90.0
  0
LINE
  5
255
100
AcDbEntity
  8
0
100
AcDbLine
 62
7
  6
CONTINUOUS
 10
325.4402789323
 20
2546.7089684648
 11
341.6902789323
 21
2546.7089684648
  0
LINE
  5
256
100
AcDbEntity
  8
0
100
AcDbLine
 62
7
  6
CONTINUOUS
 10
325.4402789323
 20
2546.7089684648
 11
325.4402789323
 21
2530.4589684648
  0
LINE
  5
257
100
AcDbEntity
  8
0
100
AcDbLine
 62
7
  6
CONTINUOUS
 10
309.1902789323
 20
2546.7089684648
 11
325.4402789323
 21
2546.7089684648
  0
LINE
  5
258
100
AcDbEntity
  8
0
100
AcDbLine
 62
7
  6
CONTINUOUS
 10
325.4402789323
 20
2562.9589684648
 11
325.4402789323
 21
2546.7089684648
  0
LINE
  5
259
100
AcDbEntity
  8
0
100
AcDbLine
 62
2
  6
CONTINUOUS
 10
325.4402789323
 20
2546.6018702502
 11
325.547377147
 21
2546.7089684648
  0
LWPOLYLINE
  5
25A
100
AcDbEntity
  8
0
100
AcDbPolyline
 62
7
  6
CONTINUOUS
 90
8
 70
0
 10
325.4402789323
 20
2546.7089684648
 10
325.4402789323
 20
2530.4589684648
 10
330.4618050909
 20
2531.254300075
 10
334.9917892821
 20
2533.5624423062
 10
338.5868050909
 20
2537.1574581151
 10
340.8949473221
 20
2541.6874423062
 10
341.6902789323
 20
2546.7089684648
 10
325.4402789323
 20
2546.7089684648
  0
HATCH
  5
25B
100
AcDbEntity
  8
0
100
AcDbHatch
 62
7
  6
CONTINUOUS
 10
0.0
 20
0.0
 30
0.0
210
0.0
220
0.0
230
1.0
  2
SOLID
 70
1
 71
1
 91
1
 92
1
 93
7
 72
1
 10
325.4402789323
 20
2546.7089684648
 11
325.4402789323
 21
2530.4589684648
 72
1
 10
325.4402789323
 20
2530.4589684648
 11
330.4618050909
 21
2531.254300075
 72
1
 10
330.4618050909
 20
2531.254300075
 11
334.9917892821
 21
2533.5624423062
 72
1
 10
334.9917892821
 20
2533.5624423062
 11
338.5868050909
 21
2537.1574581151
 72
1
 10
338.5868050909
 20
2537.1574581151
 11
340.8949473221
 21
2541.6874423062
 72
1
 10
340.8949473221
 20
2541.6874423062
 11
341.6902789323
 21
2546.7089684648
 72
1
 10
341.6902789323
 20
2546.7089684648
 11
325.4402789323
 21
2546.7089684648
 97
1
330
25A
 75
0
 76
1
 98
1
 10
0.0
 20
0.0
  0
LWPOLYLINE
  5
25C
100
AcDbEntity
  8
0
100
AcDbPolyline
 62
7
  6
CONTINUOUS
 90
8
 70
0
 10
325.4402789323
 20
2546.7089684648
 10
309.1902789323
 20
2546.7089684648
 10
309.9856105425
 20
2551.7304946234
 10
312.2937527737
 20
2556.2604788146
 10
315.8887685826
 20
2559.8554946234
 10
320.4187527737
 20
2562.1636368546
 10
325.4402789323
 20
2562.9589684648
 10
325.4402789323
 20
2546.7089684648
  0
HATCH
  5
25D
100
AcDbEntity
  8
0
100
AcDbHatch
 62
7
  6
CONTINUOUS
 10
0.0
 20
0.0
 30
0.0
210
0.0
220
0.0
230
1.0
  2
SOLID
 70
1
 71
1
 91
1
 92
1
 93
7
 72
1
 10
325.4402789323
 20
2546.7089684648
 11
309.1902789323
 21
2546.7089684648
 72
1
 10
309.1902789323
 20
2546.7089684648
 11
309.9856105425
 21
2551.7304946234
 72
1
 10
309.9856105425
 20
2551.7304946234
 11
312.2937527737
 21
2556.2604788146
 72
1
 10
312.2937527737
 20
2556.2604788146
 11
315.8887685826
 21
2559.8554946234
 72
1
 10
315.8887685826
 20
2559.8554946234
 11
320.4187527737
 21
2562.1636368546
 72
1
 10
320.4187527737
 20
2562.1636368546
 11
325.4402789323
 21
2562.9589684648
 72
1
 10
325.4402789323
 20
2562.9589684648
 11
325.4402789323
 21
2546.7089684648
 97
1
330
25C
 75
0
 76
1
 98
1
 10
0.0
 20
0.0
  0
ENDBLK
  5
25E
100
AcDbEntity
  8
0
  6
BYBLOCK
 62
0
100
AcDbBlockEnd
  0
BLOCK
  5
25F
100
AcDbEntity
  8
0
100
AcDbBlockBegin
  2
_FILLED
 70
64
 10
0.0
 20
0.0
  3
_FILLED
  1

  0
SOLID
  5
260
100
AcDbEntity
  8
0
  6
BYBLOCK
 62
0
100
AcDbTrace
 10
0.0
 20
0.0
 11
-1.0
 21
0.1275
 12
-1.0
 22
-0.1275
 13
-1.0
 23
-0.1275
  0
ENDBLK
  5
261
100
AcDbEntity
  8
0
  6
BYBLOCK
 62
0
100
AcDbBlockEnd
  0
BLOCK
  5
262
100
AcDbEntity
  8
0
100
AcDbBlockBegin
  2
XSEC_FILLED
 70
64
 10
0.0
 20
0.0
  3
XSEC_FILLED
  1

  0
SOLID
  5
263
100
AcDbEntity
  8
0
  6
BYBLOCK
 62
0
100
AcDbTrace
 10
0.0
 20
0.0
 11
-1.0
 21
0.166
 12
-1.0
 22
-0.166
 13
-1.0
 23
-0.166
  0
ENDBLK
  5
264
100
AcDbEntity
  8
0
  6
BYBLOCK
 62
0
100
AcDbBlockEnd
  0
BLOCK
  5
265
100
AcDbEntity
  8
0
100
AcDbBlockBegin
 62
2
  6
CONTINUOUS
  2
*D0
 70
65
 10
0.0
 20
0.0
  3
*D0
  1

  0
MTEXT
  5
266
100
AcDbEntity
  8
0
100
AcDbMText
 62
2
  6
CONTINUOUS
  7
STANDARD
 71
3
 72
1
 10
1543.1813042434
 20
449.5818091097
 30
0.0
 11
1.0
 21
0.0
 31
0.0
 73
2
 44
0.9
  1
4,8\P[.19]
 40
22.86
 41
66.6254275093
  0
LINE
  5
267
100
AcDbEntity
  8
0
100
AcDbLine
 62
2
  6
CONTINUOUS
 10
1623.4406872314
 20
792.1170409137
 11
1623.4406872314
 21
406.4018091097
  0
LINE
  5
268
100
AcDbEntity
  8
0
100
AcDbLine
 62
2
  6
CONTINUOUS
 10
1628.2031872314
 20
438.1071409137
 11
1628.2031872314
 21
406.4018091097
  0
LINE
  5
269
100
AcDbEntity
  8
0
100
AcDbLine
 62
2
  6
CONTINUOUS
 10
1623.4406872314
 20
438.1518091097
 11
1577.0463971802
 21
438.1518091097
  0
LINE
  5
26A
100
AcDbEntity
  8
0
100
AcDbLine
 62
2
  6
CONTINUOUS
 10
1628.2031872314
 20
438.1518091097
 11
1668.2031872314
 21
438.1518091097
  0
INSERT
  5
26B
100
AcDbEntity
  8
0
100
AcDbBlockReference
 62
2
  6
CONTINUOUS
  2
_FILLED
 10
1623.4406872314
 20
438.1518091097
 41
20.0
 42
20.0
 43
20.0
  0
INSERT
  5
26C
100
AcDbEntity
  8
0
100
AcDbBlockReference
 62
2
  6
CONTINUOUS
  2
_FILLED
 10
1628.2031872314
 20
438.1518091097
 41
20.0
 42
20.0
 43
20.0
 50
180.0
  0
ENDBLK
  5
26D
100
AcDbEntity
  8
0
  6
BYBLOCK
 62
0
100
AcDbBlockEnd
  0
BLOCK
  5
26E
100
AcDbEntity
  8
0
100
AcDbBlockBegin
 62
2
  6
CONTINUOUS
  2
*D1
 70
65
 10
0.0
 20
0.0
  3
*D1
  1

  0
MTEXT
  5
26F
100
AcDbEntity
  8
0
100
AcDbMText
 62
2
  6
CONTINUOUS
  7
STANDARD
 71
2
 72
1
 10
1616.985640763
 20
1340.1296612294
 30
0.0
 11
1.0
 21
0.0
 31
0.0
 73
2
 44
0.9
  1
360,0\P[14.17]
 40
22.86
 41
101.9776951673
  0
LINE
  5
270
100
AcDbEntity
  8
0
100
AcDbLine
 62
2
  6
CONTINUOUS
 10
1448.2031872314
 20
1205.2571409137
 11
1448.2031872314
 21
1360.4496612294
  0
LINE
  5
271
100
AcDbEntity
  8
0
100
AcDbLine
 62
2
  6
CONTINUOUS
 10
1808.2031872314
 20
1205.2571409137
 11
1808.2031872314
 21
1360.4496612294
  0
LINE
  5
272
100
AcDbEntity
  8
0
100
AcDbLine
 62
2
  6
CONTINUOUS
 10
1448.2031872314
 20
1328.6996612294
 11
1565.7843396478
 21
1328.6996612294
  0
LINE
  5
273
100
AcDbEntity
  8
0
100
AcDbLine
 62
2
  6
CONTINUOUS
 10
1808.2031872314
 20
1328.6996612294
 11
1690.622034815
 21
1328.6996612294
  0
INSERT
  5
274
100
AcDbEntity
  8
0
100
AcDbBlockReference
 62
2
  6
CONTINUOUS
  2
_FILLED
 10
1448.2031872314
 20
1328.6996612294
 41
20.0
 42
20.0
 43
20.0
 50
180.0
  0
INSERT
  5
275
100
AcDbEntity
  8
0
100
AcDbBlockReference
 62
2
  6
CONTINUOUS
  2
_FILLED
 10
1808.2031872314
 20
1328.6996612294
 41
20.0
 42
20.0
 43
20.0
  0
ENDBLK
  5
276
100
AcDbEntity
  8
0
  6
BYBLOCK
 62
0
100
AcDbBlockEnd
  0
BLOCK
  5
277
100
AcDbEntity
  8
0
100
AcDbBlockBegin
 62
2
  6
CONTINUOUS
  2
*D2
 70
65
 10
0.0
 20
0.0
  3
*D2
  1

  0
MTEXT
  5
278
100
AcDbEntity
  8
0
100
AcDbMText
 62
2
  6
CONTINUOUS
  7
STANDARD
 71
2
 72
1
 10
904.0127270941
 20
429.9659072543
 30
0.0
 11
1.0
 21
0.0
 31
0.0
 73
2
 44
0.9
  1
195,3\P[7.69]
 40
22.86
 41
84.3015613383
  0
LINE
  5
279
100
AcDbEntity
  8
0
100
AcDbLine
 62
2
  6
CONTINUOUS
 10
808.6876358696
 20
463.5071409137
 11
808.6876358696
 21
386.7859072543
  0
LINE
  5
27A
100
AcDbEntity
  8
0
100
AcDbLine
 62
2
  6
CONTINUOUS
 10
1003.9501358696
 20
795.5289390173
 11
1003.9501358696
 21
386.7859072543
  0
LINE
  5
27B
100
AcDbEntity
  8
0
100
AcDbLine
 62
2
  6
CONTINUOUS
 10
808.6876358696
 20
418.5359072543
 11
852.8114259788
 21
418.5359072543
  0
LINE
  5
27C
100
AcDbEntity
  8
0
100
AcDbLine
 62
2
  6
CONTINUOUS
 10
1003.9501358696
 20
418.5359072543
 11
959.9729873171
 21
418.5359072543
  0
INSERT
  5
27D
100
AcDbEntity
  8
0
100
AcDbBlockReference
 62
2
  6
CONTINUOUS
  2
_FILLED
 10
808.6876358696
 20
418.5359072543
 41
20.0
 42
20.0
 43
20.0
 50
180.0
  0
INSERT
  5
27E
100
AcDbEntity
  8
0
100
AcDbBlockReference
 62
2
  6
CONTINUOUS
  2
_FILLED
 10
1003.9501358696
 20
418.5359072543
 41
20.0
 42
20.0
 43
20.0
  0
ENDBLK
  5
27F
100
AcDbEntity
  8
0
  6
BYBLOCK
 62
0
100
AcDbBlockEnd
  0
BLOCK
  5
280
100
AcDbEntity
  8
0
100
AcDbBlockBegin
 62
2
  6
CONTINUOUS
  2
*D3
 70
65
 10
0.0
 20
0.0
  3
*D3
  1

  0
MTEXT
  5
281
100
AcDbEntity
  8
0
100
AcDbMText
 62
2
  6
CONTINUOUS
  7
STANDARD
 71
2
 72
1
 10
697.39773144
 20
683.6870962841
 30
0.0
 11
1.0
 21
0.0
 31
0.0
 73
2
 44
0.9
  1
354,0\P[13.94]
 40
22.86
 41
101.9776951673
  0
LINE
  5
282
100
AcDbEntity
  8
0
100
AcDbLine
 62
2
  6
CONTINUOUS
 10
792.8126358696
 20
479.3821409137
 11
676.8652779084
 21
479.3821409137
  0
LINE
  5
283
100
AcDbEntity
  8
0
100
AcDbLine
 62
2
  6
CONTINUOUS
 10
966.4460997649
 20
833.3921409137
 11
676.8652779084
 21
833.3921409137
  0
LINE
  5
284
100
AcDbEntity
  8
0
100
AcDbLine
 62
2
  6
CONTINUOUS
 10
708.6152779084
 20
479.3821409137
 11
708.6152779084
 21
608.903484375
  0
LINE
  5
285
100
AcDbEntity
  8
0
100
AcDbLine
 62
2
  6
CONTINUOUS
 10
708.6152779084
 20
833.3921409137
 11
708.6152779084
 21
695.1170962841
  0
INSERT
  5
286
100
AcDbEntity
  8
0
100
AcDbBlockReference
 62
2
  6
CONTINUOUS
  2
_FILLED
 10
708.6152779084
 20
479.3821409137
 41
20.0
 42
20.0
 43
20.0
 50
270.0
  0
INSERT
  5
287
100
AcDbEntity
  8
0
100
AcDbBlockReference
 62
2
  6
CONTINUOUS
  2
_FILLED
 10
708.6152779084
 20
833.3921409137
 41
20.0
 42
20.0
 43
20.0
 50
90.0
  0
ENDBLK
  5
288
100
AcDbEntity
  8
0
  6
BYBLOCK
 62
0
100
AcDbBlockEnd
  0
BLOCK
  5
289
100
AcDbEntity
  8
0
100
AcDbBlockBegin
 62
2
  6
CONTINUOUS
  2
*D4
 70
65
 10
0.0
 20
0.0
  3
*D4
  1

  0
MTEXT
  5
28A
100
AcDbEntity
  8
0
100
AcDbMText
 62
2
  6
CONTINUOUS
  7
STANDARD
 71
2
 72
1
 10
2032.8620849065
 20
875.6303247564
 30
0.0
 11
1.0
 21
0.0
 31
0.0
 73
2
 44
0.9
  1
710,0\P[27.95]
 40
22.86
 41
101.9776951673
  0
LINE
  5
28B
100
AcDbEntity
  8
0
100
AcDbLine
 62
2
  6
CONTINUOUS
 10
2101.8066066576
 20
479.3821409137
 11
2012.3296313749
 21
479.3821409137
  0
LINE
  5
28C
100
AcDbEntity
  8
0
100
AcDbLine
 62
2
  6
CONTINUOUS
 10
2101.8066066576
 20
1189.3821409137
 11
2012.3296313749
 21
1189.3821409137
  0
LINE
  5
28D
100
AcDbEntity
  8
0
100
AcDbLine
 62
2
  6
CONTINUOUS
 10
2044.0796313749
 20
479.3821409137
 11
2044.0796313749
 21
800.846675354
  0
LINE
  5
28E
100
AcDbEntity
  8
0
100
AcDbLine
 62
2
  6
CONTINUOUS
 10
2044.0796313749
 20
1189.3821409137
 11
2044.0796313749
 21
887.0603247564
  0
INSERT
  5
28F
100
AcDbEntity
  8
0
100
AcDbBlockReference
 62
2
  6
CONTINUOUS
  2
_FILLED
 10
2044.0796313749
 20
479.3821409137
 41
20.0
 42
20.0
 43
20.0
 50
270.0
  0
INSERT
  5
290
100
AcDbEntity
  8
0
100
AcDbBlockReference
 62
2
  6
CONTINUOUS
  2
_FILLED
 10
2044.0796313749
 20
1189.3821409137
 41
20.0
 42
20.0
 43
20.0
 50
90.0
  0
ENDBLK
  5
291
100
AcDbEntity
  8
0
  6
BYBLOCK
 62
0
100
AcDbBlockEnd
  0
BLOCK
  5
292
100
AcDbEntity
  8
0
100
AcDbBlockBegin
 62
2
  6
CONTINUOUS
  2
*D5
 70
65
 10
0.0
 20
0.0
  3
*D5
  1

  0
MTEXT
  5
293
100
AcDbEntity
  8
0
100
AcDbMText
 62
2
  6
CONTINUOUS
  7
STANDARD
 71
3
 72
1
 10
2721.572428363
 20
437.8159329679
 30
0.0
 11
1.0
 21
0.0
 31
0.0
 73
2
 44
0.9
  1
40,3\P[1.59]
 40
22.86
 41
84.3015613383
  0
LINE
  5
294
100
AcDbEntity
  8
0
100
AcDbLine
 62
2
  6
CONTINUOUS
 10
2982.3574715108
 20
519.6821409137
 11
2775.7575212998
 21
519.6821409137
  0
LINE
  5
295
100
AcDbEntity
  8
0
100
AcDbLine
 62
2
  6
CONTINUOUS
 10
2837.7574715108
 20
479.3821409137
 11
2775.7575212998
 21
479.3821409137
  0
LINE
  5
296
100
AcDbEntity
  8
0
100
AcDbLine
 62
2
  6
CONTINUOUS
 10
2807.5075212998
 20
519.6821409137
 11
2807.5075212998
 21
559.6821409137
  0
LINE
  5
297
100
AcDbEntity
  8
0
100
AcDbLine
 62
2
  6
CONTINUOUS
 10
2807.5075212998
 20
479.3821409137
 11
2807.5075212998
 21
426.3859329679
  0
LINE
  5
298
100
AcDbEntity
  8
0
100
AcDbLine
 62
2
  6
CONTINUOUS
 10
2807.5075212998
 20
426.3859329679
 11
2755.4375212998
 21
426.3859329679
  0
INSERT
  5
299
100
AcDbEntity
  8
0
100
AcDbBlockReference
 62
2
  6
CONTINUOUS
  2
_FILLED
 10
2807.5075212998
 20
519.6821409137
 41
20.0
 42
20.0
 43
20.0
 50
270.0
  0
INSERT
  5
29A
100
AcDbEntity
  8
0
100
AcDbBlockReference
 62
2
  6
CONTINUOUS
  2
_FILLED
 10
2807.5075212998
 20
479.3821409137
 41
20.0
 42
20.0
 43
20.0
 50
90.0
  0
ENDBLK
  5
29B
100
AcDbEntity
  8
0
  6
BYBLOCK
 62
0
100
AcDbBlockEnd
  0
BLOCK
  5
29C
100
AcDbEntity
  8
0
100
AcDbBlockBegin
 62
2
  6
CONTINUOUS
  2
*D6
 70
65
 10
0.0
 20
0.0
  3
*D6
  1

  0
MTEXT
  5
29D
100
AcDbEntity
  8
0
100
AcDbMText
 62
2
  6
CONTINUOUS
  7
STANDARD
 71
2
 72
1
 10
2703.1110708289
 20
773.5946382943
 30
0.0
 11
1.0
 21
0.0
 31
0.0
 73
2
 44
0.9
  1
669,7\P[26.37]
 40
22.86
 41
101.9776951673
  0
LINE
  5
29E
100
AcDbEntity
  8
0
100
AcDbLine
 62
2
  6
CONTINUOUS
 10
2837.7574715108
 20
479.3821409137
 11
2682.5786172973
 21
479.3821409137
  0
LINE
  5
29F
100
AcDbEntity
  8
0
100
AcDbLine
 62
2
  6
CONTINUOUS
 10
2982.3574715108
 20
1149.0821409137
 11
2682.5786172973
 21
1149.0821409137
  0
LINE
  5
2A0
100
AcDbEntity
  8
0
100
AcDbLine
 62
2
  6
CONTINUOUS
 10
2714.3286172973
 20
479.3821409137
 11
2714.3286172973
 21
698.810996521
  0
LINE
  5
2A1
100
AcDbEntity
  8
0
100
AcDbLine
 62
2
  6
CONTINUOUS
 10
2714.3286172973
 20
1149.0821409137
 11
2714.3286172973
 21
785.0246382943
  0
INSERT
  5
2A2
100
AcDbEntity
  8
0
100
AcDbBlockReference
 62
2
  6
CONTINUOUS
  2
_FILLED
 10
2714.3286172973
 20
479.3821409137
 41
20.0
 42
20.0
 43
20.0
 50
270.0
  0
INSERT
  5
2A3
100
AcDbEntity
  8
0
100
AcDbBlockReference
 62
2
  6
CONTINUOUS
  2
_FILLED
 10
2714.3286172973
 20
1149.0821409137
 41
20.0
 42
20.0
 43
20.0
 50
90.0
  0
ENDBLK
  5
2A4
100
AcDbEntity
  8
0
  6
BYBLOCK
 62
0
100
AcDbBlockEnd
  0
BLOCK
  5
2A5
100
AcDbEntity
  8
0
100
AcDbBlockBegin
 62
2
  6
CONTINUOUS
  2
*D7
 70
65
 10
0.0
 20
0.0
  3
*D7
  1

  0
MTEXT
  5
2A6
100
AcDbEntity
  8
0
100
AcDbMText
 62
2
  6
CONTINUOUS
  7
STANDARD
 71
1
 72
1
 10
3107.1419530578
 20
1273.4316607041
 30
0.0
 11
1.0
 21
0.0
 31
0.0
 73
2
 44
0.9
  1
50,8\P[2.00]
 40
22.86
 41
84.3015613383
  0
LINE
  5
2A7
100
AcDbEntity
  8
0
100
AcDbLine
 62
2
  6
CONTINUOUS
 10
3008.2324715108
 20
935.6071409137
 11
3008.2324715108
 21
1293.7516607041
  0
LINE
  5
2A8
100
AcDbEntity
  8
0
100
AcDbLine
 62
2
  6
CONTINUOUS
 10
3059.0324715108
 20
935.6071409137
 11
3059.0324715108
 21
1293.7516607041
  0
LINE
  5
2A9
100
AcDbEntity
  8
0
100
AcDbLine
 62
2
  6
CONTINUOUS
 10
3008.2324715108
 20
1262.0016607041
 11
2968.2324715108
 21
1262.0016607041
  0
LINE
  5
2AA
100
AcDbEntity
  8
0
100
AcDbLine
 62
2
  6
CONTINUOUS
 10
3059.0324715108
 20
1262.0016607041
 11
3095.7119530578
 21
1262.0016607041
  0
INSERT
  5
2AB
100
AcDbEntity
  8
0
100
AcDbBlockReference
 62
2
  6
CONTINUOUS
  2
_FILLED
 10
3008.2324715108
 20
1262.0016607041
 41
20.0
 42
20.0
 43
20.0
  0
INSERT
  5
2AC
100
AcDbEntity
  8
0
100
AcDbBlockReference
 62
2
  6
CONTINUOUS
  2
_FILLED
 10
3059.0324715108
 20
1262.0016607041
 41
20.0
 42
20.0
 43
20.0
 50
180.0
  0
ENDBLK
  5
2AD
100
AcDbEntity
  8
0
  6
BYBLOCK
 62
0
100
AcDbBlockEnd
  0
BLOCK
  5
2AE
100
AcDbEntity
  8
0
100
AcDbBlockBegin
 62
2
  6
CONTINUOUS
  2
*D8
 70
65
 10
0.0
 20
0.0
  3
*D8
  1

  0
MTEXT
  5
2AF
100
AcDbEntity
  8
0
100
AcDbMText
 62
2
  6
CONTINUOUS
  7
STANDARD
 71
2
 72
1
 10
3284.2910551004
 20
638.4697692734
 30
0.0
 11
1.0
 21
0.0
 31
0.0
 73
2
 44
0.9
  1
301,1\P[11.85]
 40
22.86
 41
101.9776951673
  0
LINE
  5
2B0
100
AcDbEntity
  8
0
100
AcDbLine
 62
2
  6
CONTINUOUS
 10
3229.5074715108
 20
479.3821409137
 11
3327.2586015688
 21
479.3821409137
  0
LINE
  5
2B1
100
AcDbEntity
  8
0
100
AcDbLine
 62
2
  6
CONTINUOUS
 10
3106.3074715108
 20
780.4321409137
 11
3327.2586015688
 21
780.4321409137
  0
LINE
  5
2B2
100
AcDbEntity
  8
0
100
AcDbLine
 62
2
  6
CONTINUOUS
 10
3295.5086015688
 20
479.3821409137
 11
3295.5086015688
 21
563.6861126099
  0
LINE
  5
2B3
100
AcDbEntity
  8
0
100
AcDbLine
 62
2
  6
CONTINUOUS
 10
3295.5086015688
 20
780.4321409137
 11
3295.5086015688
 21
649.8997692734
  0
INSERT
  5
2B4
100
AcDbEntity
  8
0
100
AcDbBlockReference
 62
2
  6
CONTINUOUS
  2
_FILLED
 10
3295.5086015688
 20
479.3821409137
 41
20.0
 42
20.0
 43
20.0
 50
270.0
  0
INSERT
  5
2B5
100
AcDbEntity
  8
0
100
AcDbBlockReference
 62
2
  6
CONTINUOUS
  2
_FILLED
 10
3295.5086015688
 20
780.4321409137
 41
20.0
 42
20.0
 43
20.0
 50
90.0
  0
ENDBLK
  5
2B6
100
AcDbEntity
  8
0
  6
BYBLOCK
 62
0
100
AcDbBlockEnd
  0
BLOCK
  5
2B7
100
AcDbEntity
  8
0
100
AcDbBlockBegin
 62
2
  6
CONTINUOUS
  2
*D9
 70
65
 10
0.0
 20
0.0
  3
*D9
  1

  0
MTEXT
  5
2B8
100
AcDbEntity
  8
0
100
AcDbMText
 62
2
  6
CONTINUOUS
  7
STANDARD
 71
3
 72
1
 10
2402.6380312912
 20
1937.8111081654
 30
0.0
 11
1.0
 21
0.0
 31
0.0
 73
2
 44
0.9
  1
40,3\P[1.59]\PBOTH ENDS
 40
22.86
 41
170.387732342
  0
LINE
  5
2B9
100
AcDbEntity
  8
0
100
AcDbLine
 62
2
  6
CONTINUOUS
 10
2535.9799105721
 20
2037.3840413846
 11
2568.7724960297
 21
1915.0004463451
  0
LINE
  5
2BA
100
AcDbEntity
  8
0
100
AcDbLine
 62
2
  6
CONTINUOUS
 10
2513.8334664108
 20
1964.3284530037
 11
2529.8456852303
 21
1904.5700388275
  0
LINE
  5
2BB
100
AcDbEntity
  8
0
100
AcDbLine
 62
2
  6
CONTINUOUS
 10
2560.5549913477
 20
1945.6685913298
 11
2599.1920243993
 21
1956.0213531339
  0
LINE
  5
2BC
100
AcDbEntity
  8
0
100
AcDbLine
 62
2
  6
CONTINUOUS
 10
2521.6281805483
 20
1935.2381838122
 11
2488.573124228
 21
1926.3811081654
  0
LINE
  5
2BD
100
AcDbEntity
  8
0
100
AcDbLine
 62
2
  6
CONTINUOUS
 10
2488.573124228
 20
1926.3811081654
 11
2436.503124228
 21
1926.3811081654
  0
INSERT
  5
2BE
100
AcDbEntity
  8
0
100
AcDbBlockReference
 62
2
  6
CONTINUOUS
  2
_FILLED
 10
2560.5549913477
 20
1945.6685913298
 41
20.0
 42
20.0
 43
20.0
 50
195.0
  0
INSERT
  5
2BF
100
AcDbEntity
  8
0
100
AcDbBlockReference
 62
2
  6
CONTINUOUS
  2
_FILLED
 10
2521.6281805483
 20
1935.2381838122
 41
20.0
 42
20.0
 43
20.0
 50
15.0
  0
ENDBLK
  5
2C0
100
AcDbEntity
  8
0
  6
BYBLOCK
 62
0
100
AcDbBlockEnd
  0
BLOCK
  5
2C1
100
AcDbEntity
  8
0
100
AcDbBlockBegin
 62
2
  6
CONTINUOUS
  2
*D10
 70
65
 10
0.0
 20
0.0
  3
*D10
  1

  0
MTEXT
  5
2C2
100
AcDbEntity
  8
0
100
AcDbMText
 62
2
  6
CONTINUOUS
  7
STANDARD
 71
2
 72
1
 10
2887.9021271155
 20
1985.2105528901
 30
0.0
 11
1.0
 21
0.0
 31
0.0
 73
2
 44
0.9
  1
669,7\P[26.37]\P  BOTH ENDS
 40
22.86
 41
188.063866171
  0
LINE
  5
2C3
100
AcDbEntity
  8
0
100
AcDbLine
 62
2
  6
CONTINUOUS
 10
2513.8334664108
 20
1964.3284530037
 11
2545.4972281379
 21
1846.1576854793
  0
LINE
  5
2C4
100
AcDbEntity
  8
0
100
AcDbLine
 62
2
  6
CONTINUOUS
 10
3143.9336256384
 20
2200.2847483721
 11
3192.3777540037
 21
2019.4887999844
  0
LINE
  5
2C5
100
AcDbEntity
  8
0
100
AcDbLine
 62
2
  6
CONTINUOUS
 10
2537.2797234559
 20
1876.825830464
 11
2836.7008260002
 21
1957.0554730875
  0
LINE
  5
2C6
100
AcDbEntity
  8
0
100
AcDbLine
 62
2
  6
CONTINUOUS
 10
3184.1602493217
 20
2050.1569449691
 11
2961.5385211675
 21
1990.5056326926
  0
INSERT
  5
2C7
100
AcDbEntity
  8
0
100
AcDbBlockReference
 62
2
  6
CONTINUOUS
  2
_FILLED
 10
2537.2797234559
 20
1876.825830464
 41
20.0
 42
20.0
 43
20.0
 50
195.0
  0
INSERT
  5
2C8
100
AcDbEntity
  8
0
100
AcDbBlockReference
 62
2
  6
CONTINUOUS
  2
_FILLED
 10
3184.1602493217
 20
2050.1569449691
 41
20.0
 42
20.0
 43
20.0
 50
15.0
  0
ENDBLK
  5
2C9
100
AcDbEntity
  8
0
  6
BYBLOCK
 62
0
100
AcDbBlockEnd
  0
BLOCK
  5
2CA
100
AcDbEntity
  8
0
100
AcDbBlockBegin
 62
2
  6
CONTINUOUS
  2
*D11
 70
65
 10
0.0
 20
0.0
  3
*D11
  1

  0
MTEXT
  5
2CB
100
AcDbEntity
  8
0
100
AcDbMText
 62
2
  6
CONTINUOUS
  7
STANDARD
 71
2
 72
1
 10
2345.3710601745
 20
2192.5237530445
 30
0.0
 11
1.0
 21
0.0
 31
0.0
 73
2
 44
0.9
  1
265,9\P[10.47]\PBOTH ENDS
 40
22.86
 41
170.387732342
  0
LINE
  5
2CC
100
AcDbEntity
  8
0
100
AcDbLine
 62
2
  6
CONTINUOUS
 10
2471.9563724201
 20
2074.3480483711
 11
2360.3350627447
 21
2044.4392085855
  0
LINE
  5
2CD
100
AcDbEntity
  8
0
100
AcDbLine
 62
2
  6
CONTINUOUS
 10
2399.3600595245
 20
2330.2127336493
 11
2291.5058605717
 21
2301.3132881396
  0
LINE
  5
2CE
100
AcDbEntity
  8
0
100
AcDbLine
 62
2
  6
CONTINUOUS
 10
2391.0032077294
 20
2052.6567132675
 11
2382.7521420978
 21
2083.4501094212
  0
LINE
  5
2CF
100
AcDbEntity
  8
0
100
AcDbLine
 62
2
  6
CONTINUOUS
 10
2322.1740055564
 20
2309.5307928216
 11
2350.4632881039
 21
2203.9537530445
  0
INSERT
  5
2D0
100
AcDbEntity
  8
0
100
AcDbBlockReference
 62
2
  6
CONTINUOUS
  2
_FILLED
 10
2391.0032077294
 20
2052.6567132675
 41
20.0
 42
20.0
 43
20.0
 50
285.0
  0
INSERT
  5
2D1
100
AcDbEntity
  8
0
100
AcDbBlockReference
 62
2
  6
CONTINUOUS
  2
_FILLED
 10
2322.1740055564
 20
2309.5307928216
 41
20.0
 42
20.0
 43
20.0
 50
105.0
  0
ENDBLK
  5
2D2
100
AcDbEntity
  8
0
  6
BYBLOCK
 62
0
100
AcDbBlockEnd
  0
BLOCK
  5
2D3
100
AcDbEntity
  8
0
100
AcDbBlockBegin
 62
2
  6
CONTINUOUS
  2
*D12
 70
65
 10
0.0
 20
0.0
  3
*D12
  1

  0
MTEXT
  5
2D4
100
AcDbEntity
  8
0
100
AcDbMText
 62
2
  6
CONTINUOUS
  7
STANDARD
 71
2
 72
1
 10
1625.8237076775
 20
1728.0794928876
 30
0.0
 11
1.0
 21
0.0
 31
0.0
 73
2
 44
0.9
  1
253,7\P[9.99]
 40
22.86
 41
84.3015613383
  0
LINE
  5
2D5
100
AcDbEntity
  8
0
100
AcDbLine
 62
2
  6
CONTINUOUS
 10
1755.0413289513
 20
1829.9762414319
 11
1755.0413289513
 21
1684.8994928876
  0
LINE
  5
2D6
100
AcDbEntity
  8
0
100
AcDbLine
 62
2
  6
CONTINUOUS
 10
1501.3650455115
 20
1829.9762414319
 11
1501.3650455115
 21
1684.8994928876
  0
LINE
  5
2D7
100
AcDbEntity
  8
0
100
AcDbLine
 62
2
  6
CONTINUOUS
 10
1755.0413289513
 20
1716.6494928876
 11
1681.7839679005
 21
1716.6494928876
  0
LINE
  5
2D8
100
AcDbEntity
  8
0
100
AcDbLine
 62
2
  6
CONTINUOUS
 10
1501.3650455115
 20
1716.6494928876
 11
1574.6224065623
 21
1716.6494928876
  0
INSERT
  5
2D9
100
AcDbEntity
  8
0
100
AcDbBlockReference
 62
2
  6
CONTINUOUS
  2
_FILLED
 10
1755.0413289513
 20
1716.6494928876
 41
20.0
 42
20.0
 43
20.0
  0
INSERT
  5
2DA
100
AcDbEntity
  8
0
100
AcDbBlockReference
 62
2
  6
CONTINUOUS
  2
_FILLED
 10
1501.3650455115
 20
1716.6494928876
 41
20.0
 42
20.0
 43
20.0
 50
180.0
  0
ENDBLK
  5
2DB
100
AcDbEntity
  8
0
  6
BYBLOCK
 62
0
100
AcDbBlockEnd
  0
BLOCK
  5
2DC
100
AcDbEntity
  8
0
100
AcDbBlockBegin
 62
2
  6
CONTINUOUS
  2
*D13
 70
65
 10
0.0
 20
0.0
  3
*D13
  1

  0
MTEXT
  5
2DD
100
AcDbEntity
  8
0
100
AcDbMText
 62
2
  6
CONTINUOUS
  7
STANDARD
 71
2
 72
1
 10
1166.0311740363
 20
1972.7357285037
 30
0.0
 11
1.0
 21
0.0
 31
0.0
 73
2
 44
0.9
  1
376,5\P[14.82]
 40
22.86
 41
101.9776951673
  0
LINE
  5
2DE
100
AcDbEntity
  8
0
100
AcDbLine
 62
2
  6
CONTINUOUS
 10
1515.392436885
 20
2149.5557285037
 11
1145.4987205047
 21
2149.5557285037
  0
LINE
  5
2DF
100
AcDbEntity
  8
0
100
AcDbLine
 62
2
  6
CONTINUOUS
 10
1612.3281872314
 20
1773.0557285037
 11
1512.0082913875
 21
1773.0557285037
  0
LINE
  5
2E0
100
AcDbEntity
  8
0
100
AcDbLine
 62
2
  6
CONTINUOUS
 10
1490.4748415605
 20
1773.0557285037
 11
1440.9800464357
 21
1773.0557285037
  0
LINE
  5
2E1
100
AcDbEntity
  8
0
100
AcDbLine
 62
2
  6
CONTINUOUS
 10
1417.839622741
 20
1773.0557285037
 11
1145.4987205047
 21
1773.0557285037
  0
LINE
  5
2E2
100
AcDbEntity
  8
0
100
AcDbLine
 62
2
  6
CONTINUOUS
 10
1177.2487205047
 20
2149.5557285037
 11
1177.2487205047
 21
1984.1657285037
  0
LINE
  5
2E3
100
AcDbEntity
  8
0
100
AcDbLine
 62
2
  6
CONTINUOUS
 10
1177.2487205047
 20
1773.0557285037
 11
1177.2487205047
 21
1897.9521976318
  0
INSERT
  5
2E4
100
AcDbEntity
  8
0
100
AcDbBlockReference
 62
2
  6
CONTINUOUS
  2
_FILLED
 10
1177.2487205047
 20
2149.5557285037
 41
20.0
 42
20.0
 43
20.0
 50
90.0
  0
INSERT
  5
2E5
100
AcDbEntity
  8
0
100
AcDbBlockReference
 62
2
  6
CONTINUOUS
  2
_FILLED
 10
1177.2487205047
 20
1773.0557285037
 41
20.0
 42
20.0
 43
20.0
 50
270.0
  0
ENDBLK
  5
2E6
100
AcDbEntity
  8
0
  6
BYBLOCK
 62
0
100
AcDbBlockEnd
  0
BLOCK
  5
2E7
100
AcDbEntity
  8
0
100
AcDbBlockBegin
 62
2
  6
CONTINUOUS
  2
*D14
 70
65
 10
0.0
 20
0.0
  3
*D14
  1

  0
MTEXT
  5
2E8
100
AcDbEntity
  8
0
100
AcDbMText
 62
2
  6
CONTINUOUS
  7
STANDARD
 71
2
 72
1
 10
1867.6829807888
 20
2083.8867639333
 30
0.0
 11
1.0
 21
0.0
 31
0.0
 73
2
 44
0.9
  1
195,0\P[7.68]
 40
22.86
 41
84.3015613383
  0
LINE
  5
2E9
100
AcDbEntity
  8
0
100
AcDbLine
 62
2
  6
CONTINUOUS
 10
1741.0139375778
 20
2149.5557285037
 11
1901.8124603427
 21
2149.5557285037
  0
LINE
  5
2EA
100
AcDbEntity
  8
0
100
AcDbLine
 62
2
  6
CONTINUOUS
 10
1678.4781872314
 20
1954.5557285037
 11
1901.8124603427
 21
1954.5557285037
  0
LINE
  5
2EB
100
AcDbEntity
  8
0
100
AcDbLine
 62
2
  6
CONTINUOUS
 10
1870.0624603427
 20
2149.5557285037
 11
1870.0624603427
 21
2095.3167639333
  0
LINE
  5
2EC
100
AcDbEntity
  8
0
100
AcDbLine
 62
2
  6
CONTINUOUS
 10
1870.0624603427
 20
1954.5557285037
 11
1870.0624603427
 21
2009.1030100098
  0
INSERT
  5
2ED
100
AcDbEntity
  8
0
100
AcDbBlockReference
 62
2
  6
CONTINUOUS
  2
_FILLED
 10
1870.0624603427
 20
2149.5557285037
 41
20.0
 42
20.0
 43
20.0
 50
90.0
  0
INSERT
  5
2EE
100
AcDbEntity
  8
0
100
AcDbBlockReference
 62
2
  6
CONTINUOUS
  2
_FILLED
 10
1870.0624603427
 20
1954.5557285037
 41
20.0
 42
20.0
 43
20.0
 50
270.0
  0
ENDBLK
  5
2EF
100
AcDbEntity
  8
0
  6
BYBLOCK
 62
0
100
AcDbBlockEnd
  0
BLOCK
  5
2F0
100
AcDbEntity
  8
0
100
AcDbBlockBegin
 62
2
  6
CONTINUOUS
  2
*D15
 70
65
 10
0.0
 20
0.0
  3
*D15
  1

  0
MTEXT
  5
2F1
100
AcDbEntity
  8
0
100
AcDbMText
 62
2
  6
CONTINUOUS
  7
STANDARD
 71
1
 72
1
 10
1848.5436235764
 20
2237.1503352284
 30
0.0
 11
1.0
 21
0.0
 31
0.0
 73
2
 44
0.9
  1
40,3\P[1.59]
 40
22.86
 41
84.3015613383
  0
LINE
  5
2F2
100
AcDbEntity
  8
0
100
AcDbLine
 62
2
  6
CONTINUOUS
 10
1741.0139375778
 20
2149.5557285037
 11
1816.7936235764
 21
2149.5557285037
  0
LINE
  5
2F3
100
AcDbEntity
  8
0
100
AcDbLine
 62
2
  6
CONTINUOUS
 10
1680.4781872314
 20
2109.2557285037
 11
1816.7936235764
 21
2109.2557285037
  0
LINE
  5
2F4
100
AcDbEntity
  8
0
100
AcDbLine
 62
2
  6
CONTINUOUS
 10
1785.0436235764
 20
2149.5557285037
 11
1785.0436235764
 21
2225.7203352284
  0
LINE
  5
2F5
100
AcDbEntity
  8
0
100
AcDbLine
 62
2
  6
CONTINUOUS
 10
1785.0436235764
 20
2225.7203352284
 11
1837.1136235764
 21
2225.7203352284
  0
LINE
  5
2F6
100
AcDbEntity
  8
0
100
AcDbLine
 62
2
  6
CONTINUOUS
 10
1785.0436235764
 20
2109.2557285037
 11
1785.0436235764
 21
2069.2557285037
  0
INSERT
  5
2F7
100
AcDbEntity
  8
0
100
AcDbBlockReference
 62
2
  6
CONTINUOUS
  2
_FILLED
 10
1785.0436235764
 20
2149.5557285037
 41
20.0
 42
20.0
 43
20.0
 50
270.0
  0
INSERT
  5
2F8
100
AcDbEntity
  8
0
100
AcDbBlockReference
 62
2
  6
CONTINUOUS
  2
_FILLED
 10
1785.0436235764
 20
2109.2557285037
 41
20.0
 42
20.0
 43
20.0
 50
90.0
  0
ENDBLK
  5
2F9
100
AcDbEntity
  8
0
  6
BYBLOCK
 62
0
100
AcDbBlockEnd
  0
BLOCK
  5
2FA
100
AcDbEntity
  8
0
100
AcDbBlockBegin
 62
2
  6
CONTINUOUS
  2
*D16
 70
65
 10
0.0
 20
0.0
  3
*D16
  1

  0
MTEXT
  5
2FB
100
AcDbEntity
  8
0
100
AcDbMText
 62
2
  6
CONTINUOUS
  7
STANDARD
 71
2
 72
1
 10
1986.2097660816
 20
2049.3038308151
 30
0.0
 11
1.0
 21
0.0
 31
0.0
 73
2
 44
0.9
  1
267,3\P[10.52]
 40
22.86
 41
101.9776951673
  0
LINE
  5
2FC
100
AcDbEntity
  8
0
100
AcDbLine
 62
2
  6
CONTINUOUS
 10
1741.0139375778
 20
2149.5557285037
 11
2029.17731255
 21
2149.5557285037
  0
LINE
  5
2FD
100
AcDbEntity
  8
0
100
AcDbLine
 62
2
  6
CONTINUOUS
 10
1807.3163289513
 20
1882.2512414319
 11
2029.17731255
 21
1882.2512414319
  0
LINE
  5
2FE
100
AcDbEntity
  8
0
100
AcDbLine
 62
2
  6
CONTINUOUS
 10
1997.42731255
 20
2149.5557285037
 11
1997.42731255
 21
2060.7338308151
  0
LINE
  5
2FF
100
AcDbEntity
  8
0
100
AcDbLine
 62
2
  6
CONTINUOUS
 10
1997.42731255
 20
1882.2512414319
 11
1997.42731255
 21
1974.5202681885
  0
INSERT
  5
300
100
AcDbEntity
  8
0
100
AcDbBlockReference
 62
2
  6
CONTINUOUS
  2
_FILLED
 10
1997.42731255
 20
2149.5557285037
 41
20.0
 42
20.0
 43
20.0
 50
90.0
  0
INSERT
  5
301
100
AcDbEntity
  8
0
100
AcDbBlockReference
 62
2
  6
CONTINUOUS
  2
_FILLED
 10
1997.42731255
 20
1882.2512414319
 41
20.0
 42
20.0
 43
20.0
 50
270.0
  0
ENDBLK
  5
302
100
AcDbEntity
  8
0
  6
BYBLOCK
 62
0
100
AcDbBlockEnd
  0
BLOCK
  5
303
100
AcDbEntity
  8
0
100
AcDbBlockBegin
 62
2
  6
CONTINUOUS
  2
*D17
 70
65
 10
0.0
 20
0.0
  3
*D17
  1

  0
MTEXT
  5
304
100
AcDbEntity
  8
0
100
AcDbMText
 62
2
  6
CONTINUOUS
  7
STANDARD
 71
3
 72
1
 10
1539.8513087794
 20
2249.8533417616
 30
0.0
 11
1.0
 21
0.0
 31
0.0
 73
2
 44
0.9
  1
107,9\P[4.25]
 40
22.86
 41
84.3015613383
  0
LINE
  5
305
100
AcDbEntity
  8
0
100
AcDbLine
 62
2
  6
CONTINUOUS
 10
1574.2531872314
 20
2028.2307285037
 11
1574.2531872314
 21
2270.1733417616
  0
LINE
  5
306
100
AcDbEntity
  8
0
100
AcDbLine
 62
2
  6
CONTINUOUS
 10
1682.1531872314
 20
2028.2307285037
 11
1682.1531872314
 21
2270.1733417616
  0
LINE
  5
307
100
AcDbEntity
  8
0
100
AcDbLine
 62
2
  6
CONTINUOUS
 10
1574.2531872314
 20
2238.4233417616
 11
1628.2031872314
 21
2238.4233417616
  0
LINE
  5
308
100
AcDbEntity
  8
0
100
AcDbLine
 62
2
  6
CONTINUOUS
 10
1628.2031872314
 20
2238.4233417616
 11
1556.0402678872
 21
2238.4233417616
  0
LINE
  5
309
100
AcDbEntity
  8
0
100
AcDbLine
 62
2
  6
CONTINUOUS
 10
1682.1531872314
 20
2238.4233417616
 11
1628.2031872314
 21
2238.4233417616
  0
INSERT
  5
30A
100
AcDbEntity
  8
0
100
AcDbBlockReference
 62
2
  6
CONTINUOUS
  2
_FILLED
 10
1574.2531872314
 20
2238.4233417616
 41
20.0
 42
20.0
 43
20.0
 50
180.0
  0
INSERT
  5
30B
100
AcDbEntity
  8
0
100
AcDbBlockReference
 62
2
  6
CONTINUOUS
  2
_FILLED
 10
1682.1531872314
 20
2238.4233417616
 41
20.0
 42
20.0
 43
20.0
  0
ENDBLK
  5
30C
100
AcDbEntity
  8
0
  6
BYBLOCK
 62
0
100
AcDbBlockEnd
  0
BLOCK
  5
30D
100
AcDbEntity
  8
0
100
AcDbBlockBegin
 62
2
  6
CONTINUOUS
  2
*D18
 70
65
 10
0.0
 20
0.0
  3
*D18
  1

  0
MTEXT
  5
30E
100
AcDbEntity
  8
0
100
AcDbMText
 62
2
  6
CONTINUOUS
  7
STANDARD
 71
1
 72
1
 10
3320.5086015688
 20
980.1279956366
 30
0.0
 11
1.0
 21
0.0
 31
0.0
 73
2
 44
0.9
  1
107,9\P[4.25]
 40
22.86
 41
84.3015613383
  0
LINE
  5
30F
100
AcDbEntity
  8
0
100
AcDbLine
 62
2
  6
CONTINUOUS
 10
3106.3074715108
 20
780.4321409137
 11
3327.2586015688
 21
780.4321409137
  0
LINE
  5
310
100
AcDbEntity
  8
0
100
AcDbLine
 62
2
  6
CONTINUOUS
 10
3106.3074715108
 20
888.3321409137
 11
3327.2586015688
 21
888.3321409137
  0
LINE
  5
311
100
AcDbEntity
  8
0
100
AcDbLine
 62
2
  6
CONTINUOUS
 10
3295.5086015688
 20
780.4321409137
 11
3295.5086015688
 21
834.3821409137
  0
LINE
  5
312
100
AcDbEntity
  8
0
100
AcDbLine
 62
2
  6
CONTINUOUS
 10
3295.5086015688
 20
888.3321409137
 11
3295.5086015688
 21
834.3821409137
  0
LINE
  5
313
100
AcDbEntity
  8
0
100
AcDbLine
 62
2
  6
CONTINUOUS
 10
3295.5086015688
 20
834.3821409137
 11
3295.5086015688
 21
968.6979956366
  0
LINE
  5
314
100
AcDbEntity
  8
0
100
AcDbLine
 62
2
  6
CONTINUOUS
 10
3295.5086015688
 20
968.6979956366
 11
3309.0786015688
 21
968.6979956366
  0
INSERT
  5
315
100
AcDbEntity
  8
0
100
AcDbBlockReference
 62
2
  6
CONTINUOUS
  2
_FILLED
 10
3295.5086015688
 20
780.4321409137
 41
20.0
 42
20.0
 43
20.0
 50
270.0
  0
INSERT
  5
316
100
AcDbEntity
  8
0
100
AcDbBlockReference
 62
2
  6
CONTINUOUS
  2
_FILLED
 10
3295.5086015688
 20
888.3321409137
 41
20.0
 42
20.0
 43
20.0
 50
90.0
  0
ENDBLK
  5
317
100
AcDbEntity
  8
0
  6
BYBLOCK
 62
0
100
AcDbBlockEnd
  0
BLOCK
  5
318
100
AcDbEntity
  8
0
100
AcDbBlockBegin
 62
2
  6
CONTINUOUS
  2
*D19
 70
65
 10
0.0
 20
0.0
  3
*D19
  1

  0
MTEXT
  5
319
100
AcDbEntity
  8
0
100
AcDbMText
 62
2
  6
CONTINUOUS
  7
STANDARD
 71
3
 72
1
 10
1299.0957760163
 20
2061.4961424304
 30
0.0
 11
1.0
 21
0.0
 31
0.0
 73
2
 44
0.9
  1
50,8\P[2.00]
 40
22.86
 41
84.3015613383
  0
LINE
  5
31A
100
AcDbEntity
  8
0
100
AcDbLine
 62
2
  6
CONTINUOUS
 10
1525.9781872314
 20
1979.9557285037
 11
1314.7808689531
 21
1979.9557285037
  0
LINE
  5
31B
100
AcDbEntity
  8
0
100
AcDbLine
 62
2
  6
CONTINUOUS
 10
1525.9781872314
 20
1929.1557285037
 11
1314.7808689531
 21
1929.1557285037
  0
LINE
  5
31C
100
AcDbEntity
  8
0
100
AcDbLine
 62
2
  6
CONTINUOUS
 10
1346.5308689531
 20
1979.9557285037
 11
1346.5308689531
 21
2050.0661424304
  0
LINE
  5
31D
100
AcDbEntity
  8
0
100
AcDbLine
 62
2
  6
CONTINUOUS
 10
1346.5308689531
 20
2050.0661424304
 11
1332.9608689531
 21
2050.0661424304
  0
LINE
  5
31E
100
AcDbEntity
  8
0
100
AcDbLine
 62
2
  6
CONTINUOUS
 10
1346.5308689531
 20
1929.1557285037
 11
1346.5308689531
 21
1889.1557285037
  0
INSERT
  5
31F
100
AcDbEntity
  8
0
100
AcDbBlockReference
 62
2
  6
CONTINUOUS
  2
_FILLED
 10
1346.5308689531
 20
1979.9557285037
 41
20.0
 42
20.0
 43
20.0
 50
270.0
  0
INSERT
  5
320
100
AcDbEntity
  8
0
100
AcDbBlockReference
 62
2
  6
CONTINUOUS
  2
_FILLED
 10
1346.5308689531
 20
1929.1557285037
 41
20.0
 42
20.0
 43
20.0
 50
90.0
  0
ENDBLK
  5
321
100
AcDbEntity
  8
0
  6
BYBLOCK
 62
0
100
AcDbBlockEnd
  0
BLOCK
  5
322
100
AcDbEntity
  8
0
100
AcDbBlockBegin
 62
2
  6
CONTINUOUS
  2
*D20
 70
65
 10
0.0
 20
0.0
  3
*D20
  1

  0
MTEXT
  5
323
100
AcDbEntity
  8
0
100
AcDbMText
 62
2
  6
CONTINUOUS
  7
STANDARD
 71
2
 72
1
 10
1628.2031872314
 20
1626.0389792665
 30
0.0
 11
1.0
 21
0.0
 31
0.0
 73
2
 44
0.9
  1
30\fgdt;{\W1.0;{\fgdt;~}}
 40
22.86
 41
50.592267658
  0
LINE
  5
324
100
AcDbEntity
  8
0
100
AcDbLine
 62
2
  6
CONTINUOUS
 10
1444.0944348904
 20
1824.2216560113
 11
1387.8985309809
 21
1614.4956874437
  0
LINE
  5
325
100
AcDbEntity
  8
0
100
AcDbLine
 62
2
  6
CONTINUOUS
 10
1812.3119395724
 20
1824.2216560113
 11
1868.5078434819
 21
1614.4956874437
  0
ARC
  5
326
100
AcDbEntity
  8
0
100
AcDbCircle
 62
2
  6
CONTINUOUS
 10
1628.2031872314
 20
2511.3248738661
 40
896.7158945996
100
AcDbArc
 50
255.0
 51
267.6527223307
  0
ARC
  5
327
100
AcDbEntity
  8
0
100
AcDbCircle
 62
2
  6
CONTINUOUS
 10
1628.2031872314
 20
2511.3248738661
 40
896.7158945996
100
AcDbArc
 50
272.3472776693
 51
285.0
  0
SOLID
  5
328
100
AcDbEntity
  8
0
100
AcDbTrace
 62
2
  6
CONTINUOUS
 10
1416.1235557047
 20
1642.6735228538
 11
1396.1160356629
 21
1645.1638324284
 12
1414.8585957727
 22
1637.7328876345
 13
1414.8585957727
 23
1637.7328876345
  0
SOLID
  5
329
100
AcDbEntity
  8
0
100
AcDbTrace
 62
2
  6
CONTINUOUS
 10
1841.5477786901
 20
1637.7328876345
 11
1860.2903387999
 21
1645.1638324284
 12
1840.2828187581
 22
1642.6735228538
 13
1840.2828187581
 23
1642.6735228538
  0
ENDBLK
  5
32A
100
AcDbEntity
  8
0
  6
BYBLOCK
 62
0
100
AcDbBlockEnd
  0
ENDSEC
  0
SECTION
  2
ENTITIES
  0
MTEXT
  5
32B
100
AcDbEntity
  8
0
100
AcDbMText
 62
2
  6
CONTINUOUS
  7
TEXTSTYLE_2
 71
1
 72
1
 10
2272.4040465931
 20
159.7309310665
 30
0.0
 11
1.0
 21
0.0
 31
0.0
 73
2
 44
1.0000002
  1
DRAWN BY
 40
10.0
 41
72.936802974
  0
MTEXT
  5
32C
100
AcDbEntity
  8
0
100
AcDbMText
 62
2
  6
CONTINUOUS
  7
TEXTSTYLE_2
 71
1
 72
1
 10
2272.5466341273
 20
114.7560487527
 30
0.0
 11
1.0
 21
0.0
 31
0.0
 73
2
 44
1.0000002
  1
MECH ENGINEER
 40
10.0
 41
111.8215613383
  0
MTEXT
  5
32D
100
AcDbEntity
  8
0
100
AcDbMText
 62
2
  6
CONTINUOUS
  7
TEXTSTYLE_2
 71
1
 72
1
 10
1972.031061616
 20
140.8572973865
 30
0.0
 11
1.0
 21
0.0
 31
0.0
 73
2
 44
1.0000002
  1
DECIMALS          ANGLES
 40
14.8
 41
238.4505576208
  0
MTEXT
  5
32E
100
AcDbEntity
  8
0
100
AcDbMText
 62
2
  6
CONTINUOUS
  7
TEXTSTYLE_2
 71
1
 72
1
 10
1628.3022647652
 20
101.175361241
 30
0.0
 11
1.0
 21
0.0
 31
0.0
 73
2
 44
1.0000002
  1
PROJECTION
 40
15.7
 41
134.8799256506
  0
MTEXT
  5
32F
100
AcDbEntity
  8
0
100
AcDbMText
 62
2
  6
CONTINUOUS
  7
TEXTSTYLE_2
 71
2
 72
1
 10
1764.6745139367
 20
161.344223432
 30
0.0
 11
1.0
 21
0.0
 31
0.0
 73
2
 44
0.81
  1
UNLESS  OTHERWISE  SPECIFIED\PDIMENSIONS ARE IN MM [IN]
 40
14.8
 41
299.1910780669
  0
MTEXT
  5
330
100
AcDbEntity
  8
0
100
AcDbMText
 62
2
  6
CONTINUOUS
  7
TEXTSTYLE_2
 71
1
 72
1
 10
1422.2873028248
 20
166.4270101061
 30
0.0
 11
1.0
 21
0.0
 31
0.0
 73
2
 44
1.0000002
  1
CAGE CODE
 40
13.22917
 41
114.3413392193
  0
MTEXT
  5
331
100
AcDbEntity
  8
0
100
AcDbMText
 62
2
  6
CONTINUOUS
  7
TEXTSTYLE_2
 71
1
 72
1
 10
1440.9020804992
 20
144.1079485397
 30
0.0
 11
1.0
 21
0.0
 31
0.0
 73
2
 44
1.0000002
  1
00PW4
 40
18.52083
 41
83.0339069888
  0
MTEXT
  5
332
100
AcDbEntity
  8
0
100
AcDbMText
 62
2
  6
CONTINUOUS
  7
TEXTSTYLE_2
 71
1
 72
1
 10
490.3937947147
 20
116.4850174849
 30
0.0
 11
1.0
 21
0.0
 31
0.0
 73
2
 44
1.0000002
  1
1675 MACARTHUR BOULEVARD\PCOSTA MESA, CA 92626 USA
 40
15.24
 41
315.5643122677
  0
MTEXT
  5
333
100
AcDbEntity
  8
0
100
AcDbMText
 62
2
  6
CONTINUOUS
  7
TEXTSTYLE_2
 71
1
 72
1
 10
488.9798801598
 20
151.6870825429
 30
0.0
 11
1.0
 21
0.0
 31
0.0
 73
2
 44
1.0000002
  1
QSC, LLC
 40
25.4
 41
158.4431226766
  0
MTEXT
  5
334
100
AcDbEntity
  8
0
100
AcDbMText
 62
2
  6
CONTINUOUS
  7
TEXTSTYLE_2
 71
2
 72
1
 10
1483.1708061034
 20
109.9603627044
 30
0.0
 11
1.0
 21
0.0
 31
0.0
 73
2
 44
1.0000002
  1
FORM
 40
13.0
 41
52.2416356877
  0
MTEXT
  5
335
100
AcDbEntity
  8
0
100
AcDbMText
 62
2
  6
CONTINUOUS
  7
TEXTSTYLE_2
 71
1
 72
1
 10
843.5326391283
 20
149.0232873312
 30
0.0
 11
1.0
 21
0.0
 31
0.0
 73
2
 44
1.0000002
  3
THIS DOCUMENT CONTAINS CONFIDENTIAL OR PROPRIETARY INFORMATION WHICH \PIS THE PROPERTY OF QSC, LLC, THAT MAY NOT BE DISCLOSED, REPRODUCED OR\P USED WITHOUT EXPRESS WRITTEN CONSENT FROM QSC, LLC. NO PORTION OF THIS \PDOCUMENT MAY BE REPRODUCED,REDISTR
  1
UBUTED, OR OTHERWISE DISCLOSED TO \P                        ANY THIRD PARTY WITHOUT QSC'S WRITTEN PERMISSION.
 40
9.0
 41
500.6208178439
  0
MTEXT
  5
336
100
AcDbEntity
  8
0
100
AcDbMText
 62
2
  6
CONTINUOUS
  7
TEXTSTYLE_2
 71
2
 72
1
 10
1480.4011900293
 20
91.4038832822
 30
0.0
 11
1.0
 21
0.0
 31
0.0
 73
2
 44
1.0000002
  1
QOS40169 B
 40
17.0
 41
138.970260223
  0
MTEXT
  5
337
100
AcDbEntity
  8
0
100
AcDbMText
 62
2
  6
CONTINUOUS
  7
TEXTSTYLE_2
 71
1
 72
1
 10
1972.9335144535
 20
160.4464950868
 30
0.0
 11
1.0
 21
0.0
 31
0.0
 73
2
 44
1.2
  1
TOLERANCES ARE:
 40
14.8
 41
178.7553903346
  0
MTEXT
  5
338
100
AcDbEntity
  8
0
100
AcDbMText
 62
2
  6
CONTINUOUS
  7
TEXTSTYLE_2
 71
1
 72
1
 10
2537.7865757727
 20
159.6743314486
 30
0.0
 11
1.0
 21
0.0
 31
0.0
 73
2
 44
1.0000002
  1
TECH DIRECTOR
 40
10.0
 41
105.5018587361
  0
MTEXT
  5
339
100
AcDbEntity
  8
0
100
AcDbMText
 62
2
  6
CONTINUOUS
  7
TEXTSTYLE_2
 71
1
 72
1
 10
2536.6576173061
 20
114.6828603512
 30
0.0
 11
1.0
 21
0.0
 31
0.0
 73
2
 44
1.0000002
  1
MFG ENGINEER
 40
10.0
 41
102.4163568773
  0
MTEXT
  5
33A
100
AcDbEntity
  8
0
100
AcDbMText
 62
2
  6
CONTINUOUS
  7
TEXTSTYLE_2
 71
1
 72
1
 10
2804.1379133649
 20
159.6390268883
 30
0.0
 11
1.0
 21
0.0
 31
0.0
 73
2
 44
1.0000002
  1
REV BY
 40
10.0
 41
45.8364312268
  0
MTEXT
  5
33B
100
AcDbEntity
  8
0
100
AcDbMText
 62
2
  6
CONTINUOUS
  7
TEXTSTYLE_2
 71
1
 72
1
 10
2804.1414664046
 20
114.6534534108
 30
0.0
 11
1.0
 21
0.0
 31
0.0
 73
2
 44
1.0000002
  1
REV DATE
 40
10.0
 41
63.6802973978
  0
MTEXT
  5
33C
100
AcDbEntity
  8
0
100
AcDbMText
 62
2
  6
CONTINUOUS
  7
TEXTSTYLE_2
 71
1
 72
1
 10
3828.1521942434
 20
165.5577836598
 30
0.0
 11
1.0
 21
0.0
 31
0.0
 73
2
 44
1.0000002
  1
DRAWING NUMBER
 40
10.0
 41
128.2156133829
  0
MTEXT
  5
33D
100
AcDbEntity
  8
0
100
AcDbMText
 62
2
  6
CONTINUOUS
  7
TEXTSTYLE_2
 71
1
 72
1
 10
4154.4414425568
 20
163.092025178
 30
0.0
 11
1.0
 21
0.0
 31
0.0
 73
2
 44
1.0000002
  1
REV
 40
10.0
 41
25.7249070632
  0
MTEXT
  5
33E
100
AcDbEntity
  8
0
100
AcDbMText
 62
2
  6
CONTINUOUS
  7
TEXTSTYLE_2
 71
1
 72
1
 10
3830.5124049726
 20
95.6183319575
 30
0.0
 11
1.0
 21
0.0
 31
0.0
 73
2
 44
1.0000002
  1
SCALE:  
 40
13.22917
 41
71.5555477695
  0
MTEXT
  5
33F
100
AcDbEntity
  8
0
100
AcDbMText
 62
2
  6
CONTINUOUS
  7
TEXTSTYLE_2
 71
1
 72
1
 10
4087.5133323369
 20
95.9568402209
 30
0.0
 11
1.0
 21
0.0
 31
0.0
 73
2
 44
1.0000002
  1
SHEET:
 40
13.22917
 41
54.5395893309
  0
MTEXT
  5
340
100
AcDbEntity
  8
0
100
AcDbMText
 62
2
  6
CONTINUOUS
  7
TEXTSTYLE_3
 71
1
 72
1
 10
428.1973510243
 20
134.8369447151
 30
0.0
 11
1.0
 21
0.0
 31
0.0
 73
2
 44
1.0000002
  1
TM
 40
5.7
 41
11.4635687732
  0
MTEXT
  5
341
100
AcDbEntity
  8
0
100
AcDbMText
 62
7
  6
CONTINUOUS
  7
STANDARD
 71
1
 72
1
 10
1855.344075757
 20
2354.3414068049
 30
0.0
 11
1.0
 21
0.0
 31
0.0
 73
2
 44
0.9
  1
A
 40
63.5
 41
65.3884758364
  0
LEADER
  5
342
100
AcDbEntity
  8
0
100
AcDbLeader
 62
7
  6
CONTINUOUS
  3
STANDARD
 71
1
 72
0
 73
3
 75
0
 76
2
 10
1933.0076445303
 20
2322.5914068049
 30
0.0
 10
2067.4815729003
 20
2358.6235873147
 30
0.0
1001
ACAD
1000
DSTYLE
1002
{
1070
77
1070
0
1070
341
1005
216
1070
41
1040
63.5
1002
}
  0
MTEXT
  5
343
100
AcDbEntity
  8
0
100
AcDbMText
 62
7
  6
CONTINUOUS
  7
STANDARD
 71
1
 72
1
 10
2008.3564322092
 20
1754.2971783527
 30
0.0
 11
1.0
 21
0.0
 31
0.0
 73
2
 44
0.9
  1
A
 40
63.5
 41
65.3884758364
  0
LEADER
  5
344
100
AcDbEntity
  8
0
100
AcDbLeader
 62
7
  6
CONTINUOUS
  3
STANDARD
 71
1
 72
0
 73
3
 75
0
 76
2
 10
2086.0200009825
 20
1722.5471783527
 30
0.0
 10
2227.7425143492
 20
1760.5216113587
 30
0.0
1001
ACAD
1000
DSTYLE
1002
{
1070
77
1070
0
1070
341
1005
216
1070
41
1040
63.5
1002
}
  0
DIMENSION
  5
345
100
AcDbEntity
  8
0
100
AcDbDimension
 62
2
  6
CONTINUOUS
  2
*D0
 10
1628.2031872314
 20
438.1518091097
 11
1532.3036834255
 21
421.0068091097
 70
160
 71
3
 72
2
 41
0.9
 42
4.7625
  1
<>\P[]
  3
DIMSTYLE_1
100
AcDbAlignedDimension
 13
1623.4406872314
 23
793.7045409137
 14
1628.2031872314
 24
404.8143091097
100
AcDbRotatedDimension
  0
DIMENSION
  5
346
100
AcDbEntity
  8
0
100
AcDbDimension
 62
2
  6
CONTINUOUS
  2
*D1
 10
1808.2031872314
 20
1328.6996612294
 11
1628.2031872314
 21
1311.5546612294
 70
160
 71
2
 72
2
 41
0.9
 42
360.0
  1
<>\P[]
  3
DIMSTYLE_1
100
AcDbAlignedDimension
 13
1448.2031872314
 23
1203.6696409137
 14
1808.2031872314
 24
1203.6696409137
100
AcDbRotatedDimension
  0
DIMENSION
  5
347
100
AcDbEntity
  8
0
100
AcDbDimension
 62
2
  6
CONTINUOUS
  2
*D2
 10
1003.9501358696
 20
418.5359072543
 11
906.392206648
 21
401.3909072543
 70
160
 71
2
 72
2
 41
0.9
 42
195.2625
  1
<>\P[]
  3
DIMSTYLE_1
100
AcDbAlignedDimension
 13
808.6876358696
 23
465.0946409137
 14
1003.9501358696
 24
797.1164390173
100
AcDbRotatedDimension
  0
DIMENSION
  5
348
100
AcDbEntity
  8
0
100
AcDbDimension
 62
2
  6
CONTINUOUS
  2
*D3
 10
708.6152779084
 20
833.3921409137
 11
708.6152779084
 21
655.1120962841
 70
160
 71
2
 72
2
 41
0.9
 42
354.01
  1
<>\P[]
  3
DIMSTYLE_1
100
AcDbAlignedDimension
 13
794.4001358696
 23
479.3821409137
 14
968.0335997649
 24
833.3921409137
 50
90.0
100
AcDbRotatedDimension
  0
DIMENSION
  5
349
100
AcDbEntity
  8
0
100
AcDbDimension
 62
2
  6
CONTINUOUS
  2
*D4
 10
2044.0796313749
 20
1189.3821409137
 11
2044.0796313749
 21
847.0553247564
 70
160
 71
2
 72
2
 41
0.9
 42
710.0
  1
<>\P[]
  3
DIMSTYLE_1
100
AcDbAlignedDimension
 13
2103.3941066576
 23
479.3821409137
 14
2103.3941066576
 24
1189.3821409137
 50
90.0
100
AcDbRotatedDimension
  0
DIMENSION
  5
34A
100
AcDbEntity
  8
0
100
AcDbDimension
 62
2
  6
CONTINUOUS
  2
*D5
 10
2807.5075212998
 20
479.3821409137
 11
2701.8567406306
 21
409.2409329679
 70
160
 71
3
 72
2
 41
0.9
 42
40.3
  1
<>\P[]
  3
DIMSTYLE_1
100
AcDbAlignedDimension
 13
2983.9449715108
 23
519.6821409137
 14
2774.1700212998
 24
479.3821409137
 50
270.0
100
AcDbRotatedDimension
  0
DIMENSION
  5
34B
100
AcDbEntity
  8
0
100
AcDbDimension
 62
2
  6
CONTINUOUS
  2
*D6
 10
2714.3286172973
 20
1149.0821409137
 11
2714.3286172973
 21
745.0196382943
 70
160
 71
2
 72
2
 41
0.9
 42
669.7
  1
<>\P[]
  3
DIMSTYLE_1
100
AcDbAlignedDimension
 13
2839.3449715108
 23
479.3821409137
 14
2983.9449715108
 24
1149.0821409137
 50
90.0
100
AcDbRotatedDimension
  0
DIMENSION
  5
34C
100
AcDbEntity
  8
0
100
AcDbDimension
 62
2
  6
CONTINUOUS
  2
*D7
 10
3059.0324715108
 20
1262.0016607041
 11
3149.2927337269
 21
1244.8566607041
 70
160
 71
1
 72
2
 41
0.9
 42
50.8
  1
<>\P[]
  3
DIMSTYLE_1
100
AcDbAlignedDimension
 13
3008.2324715108
 23
934.0196409137
 14
3059.0324715108
 24
934.0196409137
100
AcDbRotatedDimension
  0
DIMENSION
  5
34D
100
AcDbEntity
  8
0
100
AcDbDimension
 62
2
  6
CONTINUOUS
  2
*D8
 10
3295.5086015688
 20
780.4321409137
 11
3295.5086015688
 21
609.8947692734
 70
160
 71
2
 72
2
 41
0.9
 42
301.05
  1
<>\P[]
  3
DIMSTYLE_1
100
AcDbAlignedDimension
 13
3227.9199715108
 23
479.3821409137
 14
3104.7199715108
 24
780.4321409137
 50
90.0
100
AcDbRotatedDimension
  0
DIMENSION
  5
34E
100
AcDbEntity
  8
0
100
AcDbDimension
 62
2
  6
CONTINUOUS
  2
*D9
 10
2521.6281805483
 20
1935.2381838122
 11
2339.879258057
 21
1888.9892863537
 70
160
 71
3
 72
2
 41
0.9
 42
40.3
  1
<>\PBOTH ENDS\P[]
  3
DIMSTYLE_1
100
AcDbAlignedDimension
 13
2535.569035338
 23
2038.9174486338
 14
2530.2565604644
 24
1903.0366315783
 50
195.0
100
AcDbRotatedDimension
  0
DIMENSION
  5
34F
100
AcDbEntity
  8
0
100
AcDbDimension
 62
2
  6
CONTINUOUS
  2
*D10
 10
3184.1602493217
 20
2050.1569449691
 11
2899.1196735839
 21
1936.3887310784
 70
160
 71
2
 72
2
 41
0.9
 42
669.7
  1
<>\P  BOTH ENDS\P[]
  3
DIMSTYLE_1
100
AcDbAlignedDimension
 13
2513.4225911767
 23
1965.861860253
 14
3143.5227504043
 24
2201.8181556213
 50
15.0
100
AcDbRotatedDimension
  0
DIMENSION
  5
350
100
AcDbEntity
  8
0
100
AcDbDimension
 62
2
  6
CONTINUOUS
  2
*D11
 10
2322.1740055564
 20
2309.5307928216
 11
2356.5886066429
 21
2143.7019312329
 70
160
 71
2
 72
2
 41
0.9
 42
265.9356159271
  1
<>\PBOTH ENDS\P[]
  3
DIMSTYLE_1
100
AcDbAlignedDimension
 13
2473.4897796693
 23
2074.7589236052
 14
2400.8934667738
 24
2330.6236088834
 50
105.0
100
AcDbRotatedDimension
  0
DIMENSION
  5
351
100
AcDbEntity
  8
0
100
AcDbDimension
 62
2
  6
CONTINUOUS
  2
*D12
 10
1501.3650455115
 20
1716.6494928876
 11
1628.2031872314
 21
1699.5044928876
 70
160
 71
2
 72
2
 41
0.9
 42
253.6762834398
  1
<>\P[]
  3
DIMSTYLE_1
100
AcDbAlignedDimension
 13
1755.0413289513
 23
1831.5637414319
 14
1501.3650455115
 24
1831.5637414319
 50
180.0
100
AcDbRotatedDimension
  0
DIMENSION
  5
352
100
AcDbEntity
  8
0
100
AcDbDimension
 62
2
  6
CONTINUOUS
  2
*D13
 10
1177.2487205047
 20
1773.0557285037
 11
1177.2487205047
 21
1944.1607285037
 70
160
 71
2
 72
2
 41
0.9
 42
376.5
  1
<>\P[]
  3
DIMSTYLE_1
100
AcDbAlignedDimension
 13
1516.979936885
 23
2149.5557285037
 14
1613.9156872314
 24
1773.0557285037
 50
270.0
100
AcDbRotatedDimension
  0
DIMENSION
  5
353
100
AcDbEntity
  8
0
100
AcDbDimension
 62
2
  6
CONTINUOUS
  2
*D14
 10
1870.0624603427
 20
1954.5557285037
 11
1870.0624603427
 21
2055.3117639333
 70
160
 71
2
 72
2
 41
0.9
 42
195.0
  1
<>\P[]
  3
DIMSTYLE_1
100
AcDbAlignedDimension
 13
1739.4264375778
 23
2149.5557285037
 14
1676.8906872314
 24
1954.5557285037
 50
270.0
100
AcDbRotatedDimension
  0
DIMENSION
  5
354
100
AcDbEntity
  8
0
100
AcDbDimension
 62
2
  6
CONTINUOUS
  2
*D15
 10
1785.0436235764
 20
2109.2557285037
 11
1890.6944042455
 21
2208.5753352284
 70
160
 71
1
 72
2
 41
0.9
 42
40.3
  1
<>\P[]
  3
DIMSTYLE_1
100
AcDbAlignedDimension
 13
1739.4264375778
 23
2149.5557285037
 14
1678.8906872314
 24
2109.2557285037
 50
270.0
100
AcDbRotatedDimension
  0
DIMENSION
  5
355
100
AcDbEntity
  8
0
100
AcDbDimension
 62
2
  6
CONTINUOUS
  2
*D16
 10
1997.42731255
 20
1882.2512414319
 11
1997.42731255
 21
2020.7288308151
 70
160
 71
2
 72
2
 41
0.9
 42
267.3044870717
  1
<>\P[]
  3
DIMSTYLE_1
100
AcDbAlignedDimension
 13
1739.4264375778
 23
2149.5557285037
 14
1805.7288289513
 24
1882.2512414319
 50
270.0
100
AcDbRotatedDimension
  0
DIMENSION
  5
356
100
AcDbEntity
  8
0
100
AcDbDimension
 62
2
  6
CONTINUOUS
  2
*D17
 10
1682.1531872314
 20
2238.4233417616
 11
1502.4594872181
 21
2221.2783417616
 70
160
 71
3
 72
2
 41
0.9
 42
107.9
  1
<>\P[]
  3
DIMSTYLE_1
100
AcDbAlignedDimension
 13
1574.2531872314
 23
2026.6432285037
 14
1682.1531872314
 24
2026.6432285037
100
AcDbRotatedDimension
  0
DIMENSION
  5
357
100
AcDbEntity
  8
0
100
AcDbDimension
 62
2
  6
CONTINUOUS
  2
*D18
 10
3295.5086015688
 20
888.3321409137
 11
3362.6593822379
 21
951.5529956366
 70
160
 71
1
 72
2
 41
0.9
 42
107.9
  1
<>\P[]
  3
DIMSTYLE_1
100
AcDbAlignedDimension
 13
3104.7199715108
 23
780.4321409137
 14
3104.7199715108
 24
888.3321409137
 50
90.0
100
AcDbRotatedDimension
  0
DIMENSION
  5
358
100
AcDbEntity
  8
0
100
AcDbDimension
 62
2
  6
CONTINUOUS
  2
*D19
 10
1346.5308689531
 20
1929.1557285037
 11
1279.3800882839
 21
2032.9211424304
 70
160
 71
3
 72
2
 41
0.9
 42
50.8
  1
<>\P[]
  3
DIMSTYLE_1
100
AcDbAlignedDimension
 13
1527.5656872314
 23
1979.9557285037
 14
1527.5656872314
 24
1929.1557285037
 50
270.0
100
AcDbRotatedDimension
  0
DIMENSION
  5
359
100
AcDbEntity
  8
0
100
AcDbDimension
 62
2
  6
CONTINUOUS
  2
*D20
 10
1811.9010643383
 20
1825.7550632606
 11
1628.2031872314
 21
1614.6089792665
 70
162
 71
2
 72
2
 41
0.9
 42
0.5235987756
  3
DIMSTYLE_2
100
AcDb2LineAngularDimension
 13
1446.8261816402
 23
1834.4166736749
 14
1444.5053101245
 24
1825.7550632606
 15
1809.5801928226
 25
1834.4166736749
 16
1628.2031872314
 26
1614.6089792665
  0
LINE
  5
35A
100
AcDbEntity
  8
0
100
AcDbLine
 62
2
  6
CONTINUOUS
 10
3143.3224381155
 20
180.1968672975
 11
3732.3224381155
 21
180.1968672975
  0
LINE
  5
35B
100
AcDbEntity
  8
0
100
AcDbLine
 62
2
  6
CONTINUOUS
 10
3143.3224381155
 20
180.1968672975
 11
3143.3224381155
 21
-10.8968827025
  0
LINE
  5
35C
100
AcDbEntity
  8
0
100
AcDbLine
 62
2
  6
CONTINUOUS
 10
3143.3224381155
 20
-10.8968827025
 11
3732.3224381155
 21
-10.8968827025
  0
LINE
  5
35D
100
AcDbEntity
  8
0
100
AcDbLine
 62
2
  6
CONTINUOUS
 10
3732.3224381155
 20
180.1968672975
 11
3732.3224381155
 21
-10.8968827025
  0
MTEXT
  5
35E
100
AcDbEntity
  8
0
100
AcDbMText
 62
2
  6
CONTINUOUS
  7
TEXTSTYLE_2
 71
2
 72
1
 10
3437.8224381155
 20
126.9833245725
 30
0.0
 11
1.0
 21
0.0
 31
0.0
 73
2
 44
0.99999996
  1
LOUDSPEAKER, PL-DC12, \P12" 2-WAY
 40
31.75
 41
530.8977695167
  0
LINE
  5
35F
100
AcDbEntity
  8
0
100
AcDbLine
 62
2
  6
CONTINUOUS
 10
4148.4134470938
 20
167.9677051974
 11
4253.0384470938
 21
167.9677051974
  0
LINE
  5
360
100
AcDbEntity
  8
0
100
AcDbLine
 62
2
  6
CONTINUOUS
 10
4148.4134470938
 20
167.9677051974
 11
4148.4134470938
 21
106.9677051974
  0
LINE
  5
361
100
AcDbEntity
  8
0
100
AcDbLine
 62
2
  6
CONTINUOUS
 10
4148.4134470938
 20
106.9677051974
 11
4253.0384470938
 21
106.9677051974
  0
LINE
  5
362
100
AcDbEntity
  8
0
100
AcDbLine
 62
2
  6
CONTINUOUS
 10
4253.0384470938
 20
167.9677051974
 11
4253.0384470938
 21
106.9677051974
  0
MTEXT
  5
363
100
AcDbEntity
  8
0
100
AcDbMText
 62
2
  6
CONTINUOUS
  7
TEXTSTYLE_2
 71
2
 72
1
 10
4200.7259470938
 20
151.6989551974
 30
0.0
 11
1.0
 21
0.0
 31
0.0
 73
2
 44
0.9
  1
A
 40
31.75
 41
32.6942379182
  0
LINE
  5
364
100
AcDbEntity
  8
0
100
AcDbLine
 62
2
  6
CONTINUOUS
 10
3826.2435652304
 20
169.1030554201
 11
4141.2435652304
 21
169.1030554201
  0
LINE
  5
365
100
AcDbEntity
  8
0
100
AcDbLine
 62
2
  6
CONTINUOUS
 10
3826.2435652304
 20
169.1030554201
 11
3826.2435652304
 21
106.7593054201
  0
LINE
  5
366
100
AcDbEntity
  8
0
100
AcDbLine
 62
2
  6
CONTINUOUS
 10
3826.2435652304
 20
106.7593054201
 11
4141.2435652304
 21
106.7593054201
  0
LINE
  5
367
100
AcDbEntity
  8
0
100
AcDbLine
 62
2
  6
CONTINUOUS
 10
4141.2435652304
 20
169.1030554201
 11
4141.2435652304
 21
106.7593054201
  0
MTEXT
  5
368
100
AcDbEntity
  8
0
100
AcDbMText
 62
2
  6
CONTINUOUS
  7
TEXTSTYLE_2
 71
2
 72
1
 10
3983.7435652304
 20
147.5405554201
 30
0.0
 11
1.0
 21
0.0
 31
0.0
 73
2
 44
0.9
  1
FG-901548-2D
 40
31.75
 41
294.3661710037
  0
LINE
  5
369
100
AcDbEntity
  8
0
100
AcDbLine
 62
2
  6
CONTINUOUS
 10
3826.8221301445
 20
103.794494537
 11
3981.8221301445
 21
103.794494537
  0
LINE
  5
36A
100
AcDbEntity
  8
0
100
AcDbLine
 62
2
  6
CONTINUOUS
 10
3826.8221301445
 20
103.794494537
 11
3826.8221301445
 21
72.778869537
  0
LINE
  5
36B
100
AcDbEntity
  8
0
100
AcDbLine
 62
2
  6
CONTINUOUS
 10
3826.8221301445
 20
72.778869537
 11
3981.8221301445
 21
72.778869537
  0
LINE
  5
36C
100
AcDbEntity
  8
0
100
AcDbLine
 62
2
  6
CONTINUOUS
 10
3981.8221301445
 20
103.794494537
 11
3981.8221301445
 21
72.778869537
  0
MTEXT
  5
36D
100
AcDbEntity
  8
0
100
AcDbMText
 62
2
  6
CONTINUOUS
  7
TEXTSTYLE_2
 71
1
 72
1
 10
3912.4471301445
 20
97.176682037
 30
0.0
 11
1.0
 21
0.0
 31
0.0
 73
2
 44
0.9
  1
1:10
 40
17.78
 41
48.1183643123
  0
LINE
  5
36E
100
AcDbEntity
  8
0
100
AcDbLine
 62
2
  6
CONTINUOUS
 10
1935.662430774
 20
180.1418680646
 11
2236.037430774
 21
180.1418680646
  0
LINE
  5
36F
100
AcDbEntity
  8
0
100
AcDbLine
 62
2
  6
CONTINUOUS
 10
1935.662430774
 20
180.1418680646
 11
1935.662430774
 21
57.8762430646
  0
MTEXT
  5
370
100
AcDbEntity
  8
0
100
AcDbMText
 62
2
  6
CONTINUOUS
  7
TEXTSTYLE_2
 71
1
 72
1
 10
1969.662430774
 20
102.1731180646
 30
0.0
 11
1.0
 21
0.0
 31
0.0
 73
2
 44
0.9
  1
.X \fgdt;{\W1.0;{\fgdt;`}}\fCentury Gothic; 3.0 [.12]       \fgdt;{\W1.0;{\fgdt;`}}\fCentury Gothic;1\fgdt;{\W1.0;{\fgdt;~}}\P\fCentury Gothic;.XX \fgdt;{\W1.0;{\fgdt;`}}\fCentury Gothic; 
 40
15.875
 41
217.8238847584
  0
LINE
  5
371
100
AcDbEntity
  8
0
100
AcDbLine
 62
2
  6
CONTINUOUS
 10
4080.5970725718
 20
102.5319612796
 11
4253.0970725718
 21
102.5319612796
  0
LINE
  5
372
100
AcDbEntity
  8
0
100
AcDbLine
 62
2
  6
CONTINUOUS
 10
4080.5970725718
 20
102.5319612796
 11
4080.5970725718
 21
72.4538362796
  0
LINE
  5
373
100
AcDbEntity
  8
0
100
AcDbLine
 62
2
  6
CONTINUOUS
 10
4080.5970725718
 20
72.4538362796
 11
4253.0970725718
 21
72.4538362796
  0
LINE
  5
374
100
AcDbEntity
  8
0
100
AcDbLine
 62
2
  6
CONTINUOUS
 10
4253.0970725718
 20
102.5319612796
 11
4253.0970725718
 21
72.4538362796
  0
MTEXT
  5
375
100
AcDbEntity
  8
0
100
AcDbMText
 62
2
  6
CONTINUOUS
  7
TEXTSTYLE_2
 71
2
 72
1
 10
4201.3470725718
 20
96.7533137796
 30
0.0
 11
1.0
 21
0.0
 31
0.0
 73
2
 44
0.9
  1
1 OF 1
 40
18.52083
 41
77.9389574721
  0
LINE
  5
376
100
AcDbEntity
  8
0
100
AcDbLine
 62
2
  6
CONTINUOUS
 10
2267.888917157
 20
161.6291530181
 11
2522.888917157
 21
161.6291530181
  0
LINE
  5
377
100
AcDbEntity
  8
0
100
AcDbLine
 62
2
  6
CONTINUOUS
 10
2267.888917157
 20
161.6291530181
 11
2267.888917157
 21
121.3947780181
  0
LINE
  5
378
100
AcDbEntity
  8
0
100
AcDbLine
 62
2
  6
CONTINUOUS
 10
2267.888917157
 20
121.3947780181
 11
2522.888917157
 21
121.3947780181
  0
LINE
  5
379
100
AcDbEntity
  8
0
100
AcDbLine
 62
2
  6
CONTINUOUS
 10
2522.888917157
 20
161.6291530181
 11
2522.888917157
 21
121.3947780181
  0
MTEXT
  5
37A
100
AcDbEntity
  8
0
100
AcDbMText
 62
2
  6
CONTINUOUS
  7
TEXTSTYLE_2
 71
1
 72
1
 10
2268.513917157
 20
141.4025905181
 30
0.0
 11
1.0
 21
0.0
 31
0.0
 73
2
 44
0.9
  1
 M. DAVILA
 40
15.875
 41
118.6789033457
  0
LINE
  5
37B
100
AcDbEntity
  8
0
100
AcDbLine
 62
2
  6
CONTINUOUS
 10
2268.156585009
 20
116.3936151324
 11
2523.156585009
 21
116.3936151324
  0
LINE
  5
37C
100
AcDbEntity
  8
0
100
AcDbLine
 62
2
  6
CONTINUOUS
 10
2268.156585009
 20
116.3936151324
 11
2268.156585009
 21
76.1592401324
  0
LINE
  5
37D
100
AcDbEntity
  8
0
100
AcDbLine
 62
2
  6
CONTINUOUS
 10
2268.156585009
 20
76.1592401324
 11
2523.156585009
 21
76.1592401324
  0
LINE
  5
37E
100
AcDbEntity
  8
0
100
AcDbLine
 62
2
  6
CONTINUOUS
 10
2523.156585009
 20
116.3936151324
 11
2523.156585009
 21
76.1592401324
  0
MTEXT
  5
37F
100
AcDbEntity
  8
0
100
AcDbMText
 62
2
  6
CONTINUOUS
  7
TEXTSTYLE_2
 71
1
 72
1
 10
2268.781585009
 20
96.1670526324
 30
0.0
 11
1.0
 21
0.0
 31
0.0
 73
2
 44
0.9
  1
 B. HAWKINS
 40
15.875
 41
129.3015799257
  0
LINE
  5
380
100
AcDbEntity
  8
0
100
AcDbLine
 62
2
  6
CONTINUOUS
 10
2532.1363072824
 20
161.4246036571
 11
2787.1363072824
 21
161.4246036571
  0
LINE
  5
381
100
AcDbEntity
  8
0
100
AcDbLine
 62
2
  6
CONTINUOUS
 10
2532.1363072824
 20
161.4246036571
 11
2532.1363072824
 21
121.1902286571
  0
LINE
  5
382
100
AcDbEntity
  8
0
100
AcDbLine
 62
2
  6
CONTINUOUS
 10
2532.1363072824
 20
121.1902286571
 11
2787.1363072824
 21
121.1902286571
  0
LINE
  5
383
100
AcDbEntity
  8
0
100
AcDbLine
 62
2
  6
CONTINUOUS
 10
2787.1363072824
 20
161.4246036571
 11
2787.1363072824
 21
121.1902286571
  0
MTEXT
  5
384
100
AcDbEntity
  8
0
100
AcDbMText
 62
2
  6
CONTINUOUS
  7
TEXTSTYLE_2
 71
1
 72
1
 10
2532.7613072824
 20
141.1980411571
 30
0.0
 11
1.0
 21
0.0
 31
0.0
 73
2
 44
0.9
  1
 R. VAUCHER
 40
15.875
 41
136.6784386617
  0
LINE
  5
385
100
AcDbEntity
  8
0
100
AcDbLine
 62
2
  6
CONTINUOUS
 10
2532.0343840007
 20
116.2586220284
 11
2787.0343840007
 21
116.2586220284
  0
LINE
  5
386
100
AcDbEntity
  8
0
100
AcDbLine
 62
2
  6
CONTINUOUS
 10
2532.0343840007
 20
116.2586220284
 11
2532.0343840007
 21
76.0242470284
  0
LINE
  5
387
100
AcDbEntity
  8
0
100
AcDbLine
 62
2
  6
CONTINUOUS
 10
2532.0343840007
 20
76.0242470284
 11
2787.0343840007
 21
76.0242470284
  0
LINE
  5
388
100
AcDbEntity
  8
0
100
AcDbLine
 62
2
  6
CONTINUOUS
 10
2787.0343840007
 20
116.2586220284
 11
2787.0343840007
 21
76.0242470284
  0
MTEXT
  5
389
100
AcDbEntity
  8
0
100
AcDbMText
 62
2
  6
CONTINUOUS
  7
TEXTSTYLE_2
 71
1
 72
1
 10
2532.6593840007
 20
96.0320595284
 30
0.0
 11
1.0
 21
0.0
 31
0.0
 73
2
 44
0.9
  1
 A. TRAN
 40
15.875
 41
90.3517657993
  0
LINE
  5
38A
100
AcDbEntity
  8
0
100
AcDbLine
 62
2
  6
CONTINUOUS
 10
2800.5382952302
 20
161.6478982094
 11
3055.5382952302
 21
161.6478982094
  0
LINE
  5
38B
100
AcDbEntity
  8
0
100
AcDbLine
 62
2
  6
CONTINUOUS
 10
2800.5382952302
 20
161.6478982094
 11
2800.5382952302
 21
121.4135232094
  0
LINE
  5
38C
100
AcDbEntity
  8
0
100
AcDbLine
 62
2
  6
CONTINUOUS
 10
2800.5382952302
 20
121.4135232094
 11
3055.5382952302
 21
121.4135232094
  0
LINE
  5
38D
100
AcDbEntity
  8
0
100
AcDbLine
 62
2
  6
CONTINUOUS
 10
3055.5382952302
 20
161.6478982094
 11
3055.5382952302
 21
121.4135232094
  0
MTEXT
  5
38E
100
AcDbEntity
  8
0
100
AcDbMText
 62
2
  6
CONTINUOUS
  7
TEXTSTYLE_2
 71
1
 72
1
 10
2801.1632952302
 20
141.4213357094
 30
0.0
 11
1.0
 21
0.0
 31
0.0
 73
2
 44
0.9
  1
 MD
 40
15.875
 41
42.9628252788
  0
LINE
  5
38F
100
AcDbEntity
  8
0
100
AcDbLine
 62
2
  6
CONTINUOUS
 10
2799.7326588081
 20
116.4594742265
 11
3054.7326588081
 21
116.4594742265
  0
LINE
  5
390
100
AcDbEntity
  8
0
100
AcDbLine
 62
2
  6
CONTINUOUS
 10
2799.7326588081
 20
116.4594742265
 11
2799.7326588081
 21
76.2250992265
  0
LINE
  5
391
100
AcDbEntity
  8
0
100
AcDbLine
 62
2
  6
CONTINUOUS
 10
2799.7326588081
 20
76.2250992265
 11
3054.7326588081
 21
76.2250992265
  0
LINE
  5
392
100
AcDbEntity
  8
0
100
AcDbLine
 62
2
  6
CONTINUOUS
 10
3054.7326588081
 20
116.4594742265
 11
3054.7326588081
 21
76.2250992265
  0
MTEXT
  5
393
100
AcDbEntity
  8
0
100
AcDbMText
 62
2
  6
CONTINUOUS
  7
TEXTSTYLE_2
 71
1
 72
1
 10
2800.3576588081
 20
96.2329117265
 30
0.0
 11
1.0
 21
0.0
 31
0.0
 73
2
 44
0.9
  1
 16-JAN-2024
 40
15.875
 41
137.9177509294
  0
MTEXT
  5
394
100
AcDbEntity
  8
0
100
AcDbMText
 62
2
  6
CONTINUOUS
  7
TEXTSTYLE_2
 71
1
 72
1
 10
4162.7323863038
 20
96.9291353772
 30
0.0
 11
1.0
 21
0.0
 31
0.0
 73
2
 44
0.9
  1
1 OF 1
 40
18.52083
 41
77.9389574721
  0
TEXT
  5
395
100
AcDbEntity
  8
0
100
AcDbText
 62
2
  6
CONTINUOUS
 10
91.9269564227
 20
2671.8834422686
  7
STANDARD
 40
22.86
  1
NOTES: UNLESS OTHERWISE SPECIFIED
 41
1.0
 72
0
100
AcDbText
  0
TEXT
  5
396
100
AcDbEntity
  8
0
100
AcDbText
 62
2
  6
CONTINUOUS
 10
91.9269564227
 20
2637.5934422686
  7
STANDARD
 40
22.86
  1
 
 41
1.0
 72
0
100
AcDbText
  0
TEXT
  5
397
100
AcDbEntity
  8
0
100
AcDbText
 62
2
  6
CONTINUOUS
 10
91.9269564227
 20
2603.3034422686
  7
STANDARD
 40
22.86
  1
1.      NET WEIGHT APPROX. 21.2 KG [46.8 LBS]. 
 41
1.0
 72
0
100
AcDbText
  0
TEXT
  5
398
100
AcDbEntity
  8
0
100
AcDbText
 62
2
  6
CONTINUOUS
 10
91.9269564227
 20
2569.0134422686
  7
STANDARD
 40
22.86
  1
 
 41
1.0
 72
0
100
AcDbText
  0
TEXT
  5
399
100
AcDbEntity
  8
0
100
AcDbText
 62
2
  6
CONTINUOUS
 10
91.9269564227
 20
2534.7234422686
  7
STANDARD
 40
22.86
  1
2.      SYMBOL      INDICATES CENTER OF GRAVITY.
 41
1.0
 72
0
100
AcDbText
  0
TEXT
  5
39A
100
AcDbEntity
  8
0
100
AcDbText
 62
2
  6
CONTINUOUS
 10
91.9269564227
 20
2500.4334422686
  7
STANDARD
 40
22.86
  1
 
 41
1.0
 72
0
100
AcDbText
  0
TEXT
  5
39B
100
AcDbEntity
  8
0
100
AcDbText
 62
2
  6
CONTINUOUS
 10
103.3569564227
 20
2460.4284422686
  7
STANDARD
 40
22.86
  1
3
 41
1.0
 72
0
100
AcDbText
  0
TEXT
  5
39C
100
AcDbEntity
  8
0
100
AcDbText
 62
2
  6
CONTINUOUS
 10
132.4630902517
 20
2460.4284422686
  7
STANDARD
 40
22.86
  1
  SUSPENSION POINT LOCATION, M10 THREAD.
 41
1.0
 72
0
100
AcDbText
  0
TEXT
  5
39D
100
AcDbEntity
  8
0
100
AcDbText
 62
2
  6
CONTINUOUS
 10
91.9269564227
 20
2420.4234422686
  7
STANDARD
 40
22.86
  1
 
 41
1.0
 72
0
100
AcDbText
  0
TEXT
  5
39E
100
AcDbEntity
  8
0
100
AcDbText
 62
2
  6
CONTINUOUS
 10
103.3569564227
 20
2380.4184422686
  7
STANDARD
 40
22.86
  1
4
 41
1.0
 72
0
100
AcDbText
  0
TEXT
  5
39F
100
AcDbEntity
  8
0
100
AcDbText
 62
2
  6
CONTINUOUS
 10
132.4630902517
 20
2380.4184422686
  7
STANDARD
 40
22.86
  1
    SUSPENSION POINT LOCATION, M8 THREAD.
 41
1.0
 72
0
100
AcDbText
  0
TEXT
  5
3A0
100
AcDbEntity
  8
0
100
AcDbText
 62
2
  6
CONTINUOUS
 10
91.9269564227
 20
2340.4134422686
  7
STANDARD
 40
22.86
  1
 
 41
1.0
 72
0
100
AcDbText
  0
TEXT
  5
3A1
100
AcDbEntity
  8
0
100
AcDbText
 62
2
  6
CONTINUOUS
 10
103.3569564227
 20
2300.4084422686
  7
STANDARD
 40
22.86
  1
5
 41
1.0
 72
0
100
AcDbText
  0
TEXT
  5
3A2
100
AcDbEntity
  8
0
100
AcDbText
 62
2
  6
CONTINUOUS
 10
132.4630902517
 20
2300.4084422686
  7
STANDARD
 40
22.86
  1
     SUSPENSION POINT LOCATION, M6 THREAD.
 41
1.0
 72
0
100
AcDbText
  0
TEXT
  5
3A3
100
AcDbEntity
  8
0
100
AcDbText
 62
2
  6
CONTINUOUS
 10
91.9269564227
 20
2260.4034422686
  7
STANDARD
 40
22.86
  1
 
 41
1.0
 72
0
100
AcDbText
  0
TEXT
  5
3A4
100
AcDbEntity
  8
0
100
AcDbText
 62
2
  6
CONTINUOUS
 10
91.9269564227
 20
2226.1134422686
  7
STANDARD
 40
22.86
  1
6.      GRILLE NOT SHOWN FOR CLARITY. 
 41
1.0
 72
0
100
AcDbText
  0
MTEXT
  5
3A5
100
AcDbEntity
  8
0
100
AcDbMText
 62
2
  6
CONTINUOUS
  7
TEXTSTYLE_4
 71
1
 72
1
 10
3017.4248034464
 20
1545.2259926697
 30
0.0
 11
1.0
 21
0.0
 31
0.0
 73
2
 44
0.9
  1
{\fgdt;q}
 40
22.86
 41
36.195
  0
MTEXT
  5
3A6
100
AcDbEntity
  8
0
100
AcDbMText
 62
2
  6
CONTINUOUS
  7
TEXTSTYLE_4
 71
1
 72
1
 10
1611.254039478
 20
1252.9338336592
 30
0.0
 11
1.0
 21
0.0
 31
0.0
 73
2
 44
0.9
  1
{\fgdt;q}
 40
22.86
 41
36.195
  0
MTEXT
  5
3A7
100
AcDbEntity
  8
0
100
AcDbMText
 62
2
  6
CONTINUOUS
  7
STANDARD
 71
1
 72
1
 10
1483.4034737185
 20
1567.6809956615
 30
0.0
 11
1.0
 21
0.0
 31
0.0
 73
2
 44
0.9
  1
OUTLINE BOTH ENDS
 40
22.86
 41
303.9785130112
  0
MTEXT
  5
3A8
100
AcDbEntity
  8
0
100
AcDbMText
 62
2
  6
CONTINUOUS
  7
TEXTSTYLE_4
 71
1
 72
1
 10
1609.6991877754
 20
2318.2509851235
 30
0.0
 11
1.0
 21
0.0
 31
0.0
 73
2
 44
0.9
  1
{\fgdt;q}
 40
22.86
 41
36.195
  0
TEXT
  5
3A9
100
AcDbEntity
  8
0
100
AcDbText
 62
2
  6
CONTINUOUS
 10
1357.6419931141
 20
2086.9098235561
  7
STANDARD
 40
22.86
  1
4X 
 41
1.0
 72
2
 11
1403.5319559394
 21
2086.9098235561
100
AcDbText
  0
TEXT
  5
3AA
100
AcDbEntity
  8
0
100
AcDbText
 62
2
  6
CONTINUOUS
 10
1414.9619559394
 20
2086.9098235561
  7
STANDARD
 40
22.86
  1
5
 41
1.0
 72
2
 11
1432.6380897684
 21
2086.9098235561
100
AcDbText
  0
LEADER
  5
3AB
100
AcDbEntity
  8
0
100
AcDbLeader
 62
2
  6
CONTINUOUS
  3
STANDARD
 71
1
 72
0
 73
3
 75
0
 76
3
 10
1570.7487565941
 20
1986.0125607767
 30
0.0
 10
1469.0680897684
 20
2098.3398235561
 30
0.0
 10
1444.0680897684
 20
2098.3398235561
 30
0.0
1001
ACAD
1000
DSTYLE
1002
{
1070
77
1070
0
1002
}
  0
TEXT
  5
3AC
100
AcDbEntity
  8
0
100
AcDbText
 62
2
  6
CONTINUOUS
 10
1850.9168994504
 20
1905.9683549684
  7
STANDARD
 40
22.86
  1
4
 41
1.0
 72
0
100
AcDbText
  0
LEADER
  5
3AD
100
AcDbEntity
  8
0
100
AcDbLeader
 62
2
  6
CONTINUOUS
  3
STANDARD
 71
1
 72
0
 73
3
 75
0
 76
3
 10
1635.4843401808
 20
1949.265661233
 30
0.0
 10
1814.4868994504
 20
1917.3983549684
 30
0.0
 10
1839.4868994504
 20
1917.3983549684
 30
0.0
1001
ACAD
1000
DSTYLE
1002
{
1070
77
1070
0
1002
}
  0
TEXT
  5
3AE
100
AcDbEntity
  8
0
100
AcDbText
 62
2
  6
CONTINUOUS
 10
1290.3887415329
 20
1832.9741178354
  7
STANDARD
 40
22.86
  1
3X 
 41
1.0
 72
2
 11
1336.2787043581
 21
1832.9741178354
100
AcDbText
  0
TEXT
  5
3AF
100
AcDbEntity
  8
0
100
AcDbText
 62
2
  6
CONTINUOUS
 10
1347.7087043581
 20
1832.9741178354
  7
STANDARD
 40
22.86
  1
3
 41
1.0
 72
2
 11
1365.3848381871
 21
1832.9741178354
100
AcDbText
  0
LEADER
  5
3B0
100
AcDbEntity
  8
0
100
AcDbLeader
 62
2
  6
CONTINUOUS
  3
STANDARD
 71
1
 72
0
 73
3
 75
0
 76
3
 10
1494.9183677603
 20
1873.3383123235
 30
0.0
 10
1401.8148381871
 20
1844.4041178354
 30
0.0
 10
1376.8148381871
 20
1844.4041178354
 30
0.0
1001
ACAD
1000
DSTYLE
1002
{
1070
77
1070
0
1002
}
  0
MTEXT
  5
3B1
100
AcDbEntity
  8
0
100
AcDbMText
 62
2
  6
CONTINUOUS
  7
TEXTSTYLE_4
 71
1
 72
1
 10
1903.9104914698
 20
1966.8492708285
 30
0.0
 11
1.0
 21
0.0
 31
0.0
 73
2
 44
0.9
  1
{\fgdt;q}
 40
22.86
 41
36.195
  0
TEXT
  5
3B2
100
AcDbEntity
  8
0
100
AcDbText
 62
2
  6
CONTINUOUS
 10
3290.2994554574
 20
1040.3897822829
  7
STANDARD
 40
22.86
  1
5
 41
1.0
 72
0
100
AcDbText
  0
TEXT
  5
3B3
100
AcDbEntity
  8
0
100
AcDbText
 62
2
  6
CONTINUOUS
 10
3319.4055892864
 20
1040.3897822829
  7
STANDARD
 40
22.86
  1
 4X
 41
1.0
 72
0
100
AcDbText
  0
LEADER
  5
3B4
100
AcDbEntity
  8
0
100
AcDbLeader
 62
2
  6
CONTINUOUS
  3
STANDARD
 71
1
 72
0
 73
3
 75
0
 76
3
 10
3064.3947826126
 20
892.8316541815
 30
0.0
 10
3253.8694554574
 20
1051.8197822829
 30
0.0
 10
3278.8694554574
 20
1051.8197822829
 30
0.0
1001
ACAD
1000
DSTYLE
1002
{
1070
77
1070
0
1002
}
  0
TEXT
  5
3B5
100
AcDbEntity
  8
0
100
AcDbText
 62
2
  6
CONTINUOUS
 10
3122.4003235491
 20
419.6549264788
  7
STANDARD
 40
22.86
  1
3
 41
1.0
 72
0
100
AcDbText
  0
TEXT
  5
3B6
100
AcDbEntity
  8
0
100
AcDbText
 62
2
  6
CONTINUOUS
 10
3151.5064573781
 20
419.6549264788
  7
STANDARD
 40
22.86
  1
 2X
 41
1.0
 72
0
100
AcDbText
  0
LEADER
  5
3B7
100
AcDbEntity
  8
0
100
AcDbLeader
 62
2
  6
CONTINUOUS
  3
STANDARD
 71
1
 72
0
 73
3
 75
0
 76
3
 10
3041.0079645719
 20
511.5238396304
 30
0.0
 10
3085.9703235491
 20
431.0849264788
 30
0.0
 10
3110.9703235491
 20
431.0849264788
 30
0.0
1001
ACAD
1000
DSTYLE
1002
{
1070
77
1070
0
1002
}
  0
MTEXT
  5
3B8
100
AcDbEntity
  8
0
100
AcDbMText
 62
2
  6
CONTINUOUS
  7
STANDARD
 71
3
 72
1
 10
3020.451342376
 20
1796.5512696289
 30
0.0
 11
1.0
 21
0.0
 31
0.0
 73
2
 44
0.9
  1
VIEW \H63.5;A\H22.86;-\H63.5;A
 40
22.86
 41
227.4857992565
  0
TEXT
  5
3B9
100
AcDbEntity
  8
0
100
AcDbText
 62
2
  6
CONTINUOUS
 10
3224.5207488041
 20
2310.5858958262
  7
STANDARD
 40
22.86
  1
3
 41
1.0
 72
0
100
AcDbText
  0
TEXT
  5
3BA
100
AcDbEntity
  8
0
100
AcDbText
 62
2
  6
CONTINUOUS
 10
3253.6268826331
 20
2310.5858958262
  7
STANDARD
 40
22.86
  1
 2X BOTHENDS
 41
1.0
 72
0
100
AcDbText
  0
LEADER
  5
3BB
100
AcDbEntity
  8
0
100
AcDbLeader
 62
2
  6
CONTINUOUS
  3
STANDARD
 71
1
 72
0
 73
3
 75
0
 76
3
 10
3137.3263843572
 20
2259.3271265174
 30
0.0
 10
3188.0907488041
 20
2322.0158958262
 30
0.0
 10
3213.0907488041
 20
2322.0158958262
 30
0.0
1001
ACAD
1000
DSTYLE
1002
{
1070
77
1070
0
1002
}
  0
INSERT
  5
3BC
100
AcDbEntity
  8
0
100
AcDbBlockReference
 62
2
  6
CONTINUOUS
  2
CG_3D_BL0
 10
325.4402789323
 20
2546.7089684648
  0
INSERT
  5
3BD
100
AcDbEntity
  8
0
100
AcDbBlockReference
 62
2
  6
CONTINUOUS
  2
CG_3D_BL1
 10
1623.3829355903
 20
833.4823699862
  0
INSERT
  5
3BE
100
AcDbEntity
  8
0
100
AcDbBlockReference
 62
2
  6
CONTINUOUS
  2
CG_3D_BL2
 10
1004.0492201976
 20
833.5309742438
  0
LINE
  5
3BF
100
AcDbEntity
  8
0
100
AcDbLine
 62
7
  6
CONTINUOUS
 10
125.4762533973
 20
99.607387341
 11
137.4616666874
 21
92.9589697355
  0
LINE
  5
3C0
100
AcDbEntity
  8
0
100
AcDbLine
 62
7
  6
CONTINUOUS
 10
131.4689600424
 20
105.6534237229
 11
143.2193652288
 21
99.1353672469
  0
LINE
  5
3C1
100
AcDbEntity
  8
0
100
AcDbLine
 62
7
  6
CONTINUOUS
 10
75.1257671737
 20
93.7391411892
 11
102.5629632839
 21
77.8982686292
  0
LINE
  5
3C2
100
AcDbEntity
  8
0
100
AcDbLine
 62
7
  6
CONTINUOUS
 10
85.1136115821
 20
101.5408557263
 11
104.3255240618
 21
90.4488528844
  0
LINE
  5
3C3
100
AcDbEntity
  8
0
100
AcDbLine
 62
7
  6
CONTINUOUS
 10
95.2189600424
 20
108.7320012996
 11
105.5005645805
 21
102.7959141518
  0
LINE
  5
3C4
100
AcDbEntity
  8
0
100
AcDbLine
 62
7
  6
CONTINUOUS
 10
118.7197704152
 20
125.6922502932
 11
108.4381658771
 21
131.628337441
  0
LINE
  5
3C5
100
AcDbEntity
  8
0
100
AcDbLine
 62
7
  6
CONTINUOUS
 10
128.8251188754
 20
132.8833958665
 11
109.6132063957
 21
143.9753987083
  0
LINE
  5
3C6
100
AcDbEntity
  8
0
100
AcDbLine
 62
7
  6
CONTINUOUS
 10
138.8129632839
 20
140.6851104035
 11
111.3757671737
 21
156.5259829636
  0
LINE
  5
3C7
100
AcDbEntity
  8
0
100
AcDbLine
 62
7
  6
CONTINUOUS
 10
70.7193652288
 20
133.0529983564
 11
70.7193652288
 21
101.3712532363
  0
LINE
  5
3C8
100
AcDbEntity
  8
0
100
AcDbLine
 62
7
  6
CONTINUOUS
 10
82.4697704152
 20
128.3041286382
 11
82.4697704152
 21
106.1201229546
  0
LINE
  5
3C9
100
AcDbEntity
  8
0
100
AcDbLine
 62
7
  6
CONTINUOUS
 10
93.7501593941
 20
123.1482129441
 11
93.7501593941
 21
111.2760386486
  0
LINE
  5
3CA
100
AcDbEntity
  8
0
100
AcDbLine
 62
7
  6
CONTINUOUS
 10
120.1885710634
 20
111.2760386486
 11
120.1885710634
 21
123.1482129441
  0
LINE
  5
3CB
100
AcDbEntity
  8
0
100
AcDbLine
 62
7
  6
CONTINUOUS
 10
131.4689600424
 20
105.6534237229
 11
131.4689600424
 21
128.3041286382
  0
LINE
  5
3CC
100
AcDbEntity
  8
0
100
AcDbLine
 62
7
  6
CONTINUOUS
 10
143.2193652288
 20
99.1353672469
 11
143.2193652288
 21
133.0529983564
  0
LINE
  5
3CD
100
AcDbEntity
  8
0
100
AcDbLine
 62
7
  6
CONTINUOUS
 10
102.5629632839
 20
156.5259829636
 11
75.1257671737
 21
140.6851104035
  0
LINE
  5
3CE
100
AcDbEntity
  8
0
100
AcDbLine
 62
7
  6
CONTINUOUS
 10
104.3255240618
 20
143.9753987083
 11
85.1136115821
 21
132.8833958665
  0
LINE
  5
3CF
100
AcDbEntity
  8
0
100
AcDbLine
 62
7
  6
CONTINUOUS
 10
105.5005645805
 20
131.628337441
 11
95.2189600424
 21
125.6922502932
  0
LINE
  5
3D0
100
AcDbEntity
  8
0
100
AcDbLine
 62
7
  6
CONTINUOUS
 10
108.4381658771
 20
102.7959141518
 11
118.7197704152
 21
108.7320012996
  0
LINE
  5
3D1
100
AcDbEntity
  8
0
100
AcDbLine
 62
7
  6
CONTINUOUS
 10
109.6132063957
 20
90.4488528844
 11
125.4762533973
 21
99.607387341
  0
LINE
  5
3D2
100
AcDbEntity
  8
0
100
AcDbLine
 62
7
  6
CONTINUOUS
 10
111.3757671737
 20
77.8982686292
 11
137.4616666874
 21
92.9589697355
  0
ARC
  5
3D3
100
AcDbEntity
  8
0
100
AcDbCircle
 62
7
  6
CONTINUOUS
 10
134.406561339
 20
133.0529983564
 40
8.8128038898
100
AcDbArc
 50
0.0
 51
60.0
  0
ARC
  5
3D4
100
AcDbEntity
  8
0
100
AcDbCircle
 62
7
  6
CONTINUOUS
 10
106.9693652288
 20
148.8938709165
 40
8.8128038898
100
AcDbArc
 50
60.0
 51
120.0
  0
ARC
  5
3D5
100
AcDbEntity
  8
0
100
AcDbCircle
 62
7
  6
CONTINUOUS
 10
79.5321691186
 20
133.0529983564
 40
8.8128038898
100
AcDbArc
 50
120.0
 51
180.0
  0
ARC
  5
3D6
100
AcDbEntity
  8
0
100
AcDbCircle
 62
7
  6
CONTINUOUS
 10
79.5321691186
 20
101.3712532363
 40
8.8128038898
100
AcDbArc
 50
180.0
 51
240.0
  0
ARC
  5
3D7
100
AcDbEntity
  8
0
100
AcDbCircle
 62
7
  6
CONTINUOUS
 10
106.9693652288
 20
85.5303806763
 40
8.8128038898
100
AcDbArc
 50
240.0
 51
300.0
  0
ARC
  5
3D8
100
AcDbEntity
  8
0
100
AcDbCircle
 62
7
  6
CONTINUOUS
 10
126.1812777085
 20
128.3041286382
 40
5.2876823339
100
AcDbArc
 50
0.0
 51
60.0
  0
ARC
  5
3D9
100
AcDbEntity
  8
0
100
AcDbCircle
 62
7
  6
CONTINUOUS
 10
106.9693652288
 20
139.39613148
 40
5.2876823339
100
AcDbArc
 50
60.0
 51
120.0
  0
ARC
  5
3DA
100
AcDbEntity
  8
0
100
AcDbCircle
 62
7
  6
CONTINUOUS
 10
87.757452749
 20
128.3041286382
 40
5.2876823339
100
AcDbArc
 50
120.0
 51
180.0
  0
ARC
  5
3DB
100
AcDbEntity
  8
0
100
AcDbCircle
 62
7
  6
CONTINUOUS
 10
87.757452749
 20
106.1201229546
 40
5.2876823339
100
AcDbArc
 50
180.0
 51
240.0
  0
ARC
  5
3DC
100
AcDbEntity
  8
0
100
AcDbCircle
 62
7
  6
CONTINUOUS
 10
106.9693652288
 20
95.0281201127
 40
5.2876823339
100
AcDbArc
 50
240.0
 51
300.0
  0
ARC
  5
3DD
100
AcDbEntity
  8
0
100
AcDbCircle
 62
7
  6
CONTINUOUS
 10
106.9693652288
 20
105.3399515008
 40
2.9376012966
100
AcDbArc
 50
240.0
 51
300.0
  0
ARC
  5
3DE
100
AcDbEntity
  8
0
100
AcDbCircle
 62
7
  6
CONTINUOUS
 10
117.2509697669
 20
111.2760386486
 40
2.9376012966
100
AcDbArc
 50
300.0
 51
360.0
  0
ARC
  5
3DF
100
AcDbEntity
  8
0
100
AcDbCircle
 62
7
  6
CONTINUOUS
 10
117.2509697669
 20
123.1482129441
 40
2.9376012966
100
AcDbArc
 50
0.0
 51
60.0
  0
ARC
  5
3E0
100
AcDbEntity
  8
0
100
AcDbCircle
 62
7
  6
CONTINUOUS
 10
106.9693652288
 20
129.0843000919
 40
2.9376012966
100
AcDbArc
 50
60.0
 51
120.0
  0
ARC
  5
3E1
100
AcDbEntity
  8
0
100
AcDbCircle
 62
7
  6
CONTINUOUS
 10
96.6877606907
 20
123.1482129441
 40
2.9376012966
100
AcDbArc
 50
120.0
 51
180.0
  0
ARC
  5
3E2
100
AcDbEntity
  8
0
100
AcDbCircle
 62
7
  6
CONTINUOUS
 10
96.6877606907
 20
111.2760386486
 40
2.9376012966
100
AcDbArc
 50
180.0
 51
240.0
  0
HATCH
  5
3E3
100
AcDbEntity
  8
0
100
AcDbHatch
 62
7
  6
CONTINUOUS
 10
0.0
 20
0.0
 30
0.0
210
0.0
220
0.0
230
1.0
  2
XSEC0001
 70
1
 71
1
 91
2
 92
1
 93
24
 72
1
 10
137.4616666874
 20
92.9589697355
 11
111.3757671737
 21
77.8982686292
 72
2
 10
106.9693652288
 20
85.5303806763
 40
8.8128038898
 50
-300.0
 51
-240.0
 73
0
 72
1
 10
102.5629632839
 20
77.8982686292
 11
75.1257671737
 21
93.7391411892
 72
2
 10
79.5321691186
 20
101.3712532363
 40
8.8128038898
 50
-240.0
 51
-180.0
 73
0
 72
1
 10
70.7193652288
 20
101.3712532363
 11
70.7193652288
 21
133.0529983564
 72
2
 10
79.5321691186
 20
133.0529983564
 40
8.8128038898
 50
-180.0
 51
-120.0
 73
0
 72
1
 10
75.1257671737
 20
140.6851104035
 11
102.5629632839
 21
156.5259829636
 72
2
 10
106.9693652288
 20
148.8938709165
 40
8.8128038898
 50
-120.0
 51
-60.0
 73
0
 72
1
 10
111.3757671737
 20
156.5259829636
 11
138.8129632839
 21
140.6851104035
 72
2
 10
134.406561339
 20
133.0529983564
 40
8.8128038898
 50
-60.0
 51
0.0
 73
0
 72
1
 10
143.2193652288
 20
133.0529983564
 11
143.2193652288
 21
99.1353672469
 72
1
 10
143.2193652288
 20
99.1353672469
 11
131.4689600424
 21
105.6534237229
 72
1
 10
131.4689600424
 20
105.6534237229
 11
131.4689600424
 21
128.3041286382
 72
2
 10
126.1812777085
 20
128.3041286382
 40
5.2876823339
 50
0.0
 51
60.0
 73
1
 72
1
 10
128.8251188754
 20
132.8833958665
 11
109.6132063957
 21
143.9753987083
 72
2
 10
106.9693652288
 20
139.39613148
 40
5.2876823339
 50
60.0
 51
120.0
 73
1
 72
1
 10
104.3255240618
 20
143.9753987083
 11
85.1136115821
 21
132.8833958665
 72
2
 10
87.757452749
 20
128.3041286382
 40
5.2876823339
 50
120.0
 51
180.0
 73
1
 72
1
 10
82.4697704152
 20
128.3041286382
 11
82.4697704152
 21
106.1201229546
 72
2
 10
87.757452749
 20
106.1201229546
 40
5.2876823339
 50
180.0
 51
240.0
 73
1
 72
1
 10
85.1136115821
 20
101.5408557263
 11
104.3255240618
 21
90.4488528844
 72
2
 10
106.9693652288
 20
95.0281201127
 40
5.2876823339
 50
240.0
 51
300.0
 73
1
 72
1
 10
109.6132063957
 20
90.4488528844
 11
125.4762533973
 21
99.607387341
 72
1
 10
125.4762533973
 20
99.607387341
 11
137.4616666874
 21
92.9589697355
 97
36
330
3BF
330
3C0
330
3C1
330
3C2
330
3C3
330
3C4
330
3C5
330
3C6
330
3C7
330
3C8
330
3C9
330
3CA
330
3CB
330
3CC
330
3CD
330
3CE
330
3CF
330
3D0
330
3D1
330
3D2
330
3D3
330
3D4
330
3D5
330
3D6
330
3D7
330
3D8
330
3D9
330
3DA
330
3DB
330
3DC
330
3DD
330
3DE
330
3DF
330
3E0
330
3E1
330
3E2
 92
1
 93
12
 72
2
 10
106.9693652288
 20
105.3399515008
 40
2.9376012966
 50
240.0
 51
300.0
 73
1
 72
1
 10
108.4381658771
 20
102.7959141518
 11
118.7197704152
 21
108.7320012996
 72
2
 10
117.2509697669
 20
111.2760386486
 40
2.9376012966
 50
-60.0
 51
0.0
 73
1
 72
1
 10
120.1885710634
 20
111.2760386486
 11
120.1885710634
 21
123.1482129441
 72
2
 10
117.2509697669
 20
123.1482129441
 40
2.9376012966
 50
0.0
 51
60.0
 73
1
 72
1
 10
118.7197704152
 20
125.6922502932
 11
108.4381658771
 21
131.628337441
 72
2
 10
106.9693652288
 20
129.0843000919
 40
2.9376012966
 50
60.0
 51
120.0
 73
1
 72
1
 10
105.5005645805
 20
131.628337441
 11
95.2189600424
 21
125.6922502932
 72
2
 10
96.6877606907
 20
123.1482129441
 40
2.9376012966
 50
120.0
 51
180.0
 73
1
 72
1
 10
93.7501593941
 20
123.1482129441
 11
93.7501593941
 21
111.2760386486
 72
2
 10
96.6877606907
 20
111.2760386486
 40
2.9376012966
 50
180.0
 51
240.0
 73
1
 72
1
 10
95.2189600424
 20
108.7320012996
 11
105.5005645805
 21
102.7959141518
 97
36
330
3BF
330
3C0
330
3C1
330
3C2
330
3C3
330
3C4
330
3C5
330
3C6
330
3C7
330
3C8
330
3C9
330
3CA
330
3CB
330
3CC
330
3CD
330
3CE
330
3CF
330
3D0
330
3D1
330
3D2
330
3D3
330
3D4
330
3D5
330
3D6
330
3D7
330
3D8
330
3D9
330
3DA
330
3DB
330
3DC
330
3DD
330
3DE
330
3DF
330
3E0
330
3E1
330
3E2
 75
0
 76
1
 98
1
 10
0.0
 20
0.0
  0
LINE
  5
3E4
100
AcDbEntity
  8
0
100
AcDbLine
 62
7
  6
CONTINUOUS
 10
341.0961885675
 20
113.0243837541
 11
317.0078579354
 21
134.8112815232
  0
LINE
  5
3E5
100
AcDbEntity
  8
0
100
AcDbLine
 62
7
  6
CONTINUOUS
 10
344.8563182271
 20
118.1257061586
 11
326.4081820845
 21
134.8112815232
  0
LINE
  5
3E6
100
AcDbEntity
  8
0
100
AcDbLine
 62
7
  6
CONTINUOUS
 10
341.0961885675
 20
113.0243837541
 11
341.0961885675
 21
98.8550416529
  0
LINE
  5
3E7
100
AcDbEntity
  8
0
100
AcDbLine
 62
7
  6
CONTINUOUS
 10
348.6164478868
 20
113.0243837541
 11
348.6164478868
 21
98.8550416529
  0
LINE
  5
3E8
100
AcDbEntity
  8
0
100
AcDbLine
 62
7
  6
CONTINUOUS
 10
348.6164478868
 20
98.8550416529
 11
341.0961885675
 21
98.8550416529
  0
LINE
  5
3E9
100
AcDbEntity
  8
0
100
AcDbLine
 62
7
  6
CONTINUOUS
 10
326.4081820845
 20
134.8112815232
 11
317.0078579354
 21
134.8112815232
  0
LINE
  5
3EA
100
AcDbEntity
  8
0
100
AcDbLine
 62
7
  6
CONTINUOUS
 10
363.3044543698
 20
134.8112815232
 11
372.7047785189
 21
134.8112815232
  0
LINE
  5
3EB
100
AcDbEntity
  8
0
100
AcDbLine
 62
7
  6
CONTINUOUS
 10
344.8563182271
 20
118.1257061586
 11
363.3044543698
 21
134.8112815232
  0
LINE
  5
3EC
100
AcDbEntity
  8
0
100
AcDbLine
 62
7
  6
CONTINUOUS
 10
348.6164478868
 20
113.0243837541
 11
372.7047785189
 21
134.8112815232
  0
HATCH
  5
3ED
100
AcDbEntity
  8
0
100
AcDbHatch
 62
7
  6
CONTINUOUS
 10
0.0
 20
0.0
 30
0.0
210
0.0
220
0.0
230
1.0
  2
XSEC0005
 70
1
 71
1
 91
1
 92
1
 93
9
 72
1
 10
317.0078579354
 20
134.8112815232
 11
326.4081820845
 21
134.8112815232
 72
1
 10
326.4081820845
 20
134.8112815232
 11
344.8563182271
 21
118.1257061586
 72
1
 10
344.8563182271
 20
118.1257061586
 11
363.3044543698
 21
134.8112815232
 72
1
 10
363.3044543698
 20
134.8112815232
 11
372.7047785189
 21
134.8112815232
 72
1
 10
372.7047785189
 20
134.8112815232
 11
348.6164478868
 21
113.0243837541
 72
1
 10
348.6164478868
 20
113.0243837541
 11
348.6164478868
 21
98.8550416529
 72
1
 10
348.6164478868
 20
98.8550416529
 11
341.0961885675
 21
98.8550416529
 72
1
 10
341.0961885675
 20
98.8550416529
 11
341.0961885675
 21
113.0243837541
 72
1
 10
341.0961885675
 20
113.0243837541
 11
317.0078579354
 21
134.8112815232
 97
9
330
3E4
330
3E5
330
3E6
330
3E7
330
3E8
330
3E9
330
3EA
330
3EB
330
3EC
 75
0
 76
1
 98
1
 10
0.0
 20
0.0
  0
LINE
  5
3EE
100
AcDbEntity
  8
0
100
AcDbLine
 62
7
  6
CONTINUOUS
 10
176.5905159581
 20
108.255365802
 11
176.5905159581
 21
125.4109573741
  0
LINE
  5
3EF
100
AcDbEntity
  8
0
100
AcDbLine
 62
7
  6
CONTINUOUS
 10
183.0532388106
 20
108.3141178279
 11
183.0532388106
 21
125.3522053482
  0
LINE
  5
3F0
100
AcDbEntity
  8
0
100
AcDbLine
 62
7
  6
CONTINUOUS
 10
204.5564803017
 20
98.8550416529
 11
204.5564803017
 21
104.2602280386
  0
LINE
  5
3F1
100
AcDbEntity
  8
0
100
AcDbLine
 62
7
  6
CONTINUOUS
 10
207.4940815983
 20
94.3898876821
 11
207.4940815983
 21
107.7853495946
  0
LINE
  5
3F2
100
AcDbEntity
  8
0
100
AcDbLine
 62
7
  6
CONTINUOUS
 10
214.3093166064
 20
94.3898876821
 11
214.3093166064
 21
107.7853495946
  0
LINE
  5
3F3
100
AcDbEntity
  8
0
100
AcDbLine
 62
7
  6
CONTINUOUS
 10
217.4819260067
 20
98.8550416529
 11
217.4819260067
 21
104.2602280386
  0
LINE
  5
3F4
100
AcDbEntity
  8
0
100
AcDbLine
 62
7
  6
CONTINUOUS
 10
224.179656963
 20
108.3141178279
 11
224.179656963
 21
125.3522053482
  0
LINE
  5
3F5
100
AcDbEntity
  8
0
100
AcDbLine
 62
7
  6
CONTINUOUS
 10
230.6423798155
 20
108.255365802
 11
230.6423798155
 21
125.4109573741
  0
LINE
  5
3F6
100
AcDbEntity
  8
0
100
AcDbLine
 62
7
  6
CONTINUOUS
 10
207.4940815983
 20
94.3898876821
 11
214.3093166064
 21
94.3898876821
  0
LINE
  5
3F7
100
AcDbEntity
  8
0
100
AcDbLine
 62
7
  6
CONTINUOUS
 10
218.2731420843
 20
98.8550416529
 11
217.4819260067
 21
98.8550416529
  0
LINE
  5
3F8
100
AcDbEntity
  8
0
100
AcDbLine
 62
7
  6
CONTINUOUS
 10
188.9597536893
 20
98.8550416529
 11
204.5564803017
 21
98.8550416529
  0
LINE
  5
3F9
100
AcDbEntity
  8
0
100
AcDbLine
 62
7
  6
CONTINUOUS
 10
217.6440962552
 20
104.2602280386
 11
217.4819260067
 21
104.2602280386
  0
LINE
  5
3FA
100
AcDbEntity
  8
0
100
AcDbLine
 62
7
  6
CONTINUOUS
 10
189.5887995184
 20
104.2602280386
 11
204.5564803017
 21
104.2602280386
  0
LINE
  5
3FB
100
AcDbEntity
  8
0
100
AcDbLine
 62
7
  6
CONTINUOUS
 10
207.4940815983
 20
107.7853495946
 11
214.3093166064
 21
107.7853495946
  0
LINE
  5
3FC
100
AcDbEntity
  8
0
100
AcDbLine
 62
7
  6
CONTINUOUS
 10
189.5887995184
 20
129.4060951375
 11
217.6440962552
 21
129.4060951375
  0
LINE
  5
3FD
100
AcDbEntity
  8
0
100
AcDbLine
 62
7
  6
CONTINUOUS
 10
188.9597536893
 20
134.8112815232
 11
218.2731420843
 21
134.8112815232
  0
ELLIPSE
  5
3FE
100
AcDbEntity
  8
0
100
AcDbEllipse
 62
7
  6
CONTINUOUS
 10
217.6440962552
 20
108.3141178279
 30
0.0
 11
6.5355607078
 21
0.0
 31
0.0
 40
0.6202818657
 41
-1.5707963268
 42
0.0
  0
ELLIPSE
  5
3FF
100
AcDbEntity
  8
0
100
AcDbEllipse
 62
7
  6
CONTINUOUS
 10
218.2731420843
 20
108.255365802
 30
0.0
 11
12.3692377312
 21
0.0
 31
0.0
 40
0.7599760271
 41
4.7123889804
 42
6.2831853072
  0
ELLIPSE
  5
400
100
AcDbEntity
  8
0
100
AcDbEllipse
 62
7
  6
CONTINUOUS
 10
189.5887995184
 20
108.3141178279
 30
0.0
 11
6.5355607078
 21
0.0
 31
0.0
 40
0.6202818657
 41
9.4247779608
 42
10.9955742876
  0
ELLIPSE
  5
401
100
AcDbEntity
  8
0
100
AcDbEllipse
 62
7
  6
CONTINUOUS
 10
189.5887995184
 20
125.3522053482
 30
0.0
 11
6.5355607078
 21
0.0
 31
0.0
 40
0.6202818657
 41
1.5707963268
 42
3.1415926536
  0
ELLIPSE
  5
402
100
AcDbEntity
  8
0
100
AcDbEllipse
 62
7
  6
CONTINUOUS
 10
188.9597536893
 20
108.255365802
 30
0.0
 11
12.3692377312
 21
0.0
 31
0.0
 40
0.7599760271
 41
3.1415926536
 42
4.7123889804
  0
ELLIPSE
  5
403
100
AcDbEntity
  8
0
100
AcDbEllipse
 62
7
  6
CONTINUOUS
 10
188.9597536893
 20
125.4109573741
 30
0.0
 11
12.3692377312
 21
0.0
 31
0.0
 40
0.7599760271
 41
7.853981634
 42
9.4247779608
  0
ELLIPSE
  5
404
100
AcDbEntity
  8
0
100
AcDbEllipse
 62
7
  6
CONTINUOUS
 10
217.6440962552
 20
125.3522053482
 30
0.0
 11
-6.5355607078
 21
0.0
 31
0.0
 40
0.6202818657
 41
3.1415926536
 42
4.7123889804
  0
ELLIPSE
  5
405
100
AcDbEntity
  8
0
100
AcDbEllipse
 62
7
  6
CONTINUOUS
 10
218.2731420843
 20
125.4109573741
 30
0.0
 11
12.3692377312
 21
0.0
 31
0.0
 40
0.7599760271
 41
0.0
 42
1.5707963268
  0
HATCH
  5
406
100
AcDbEntity
  8
0
100
AcDbHatch
 62
7
  6
CONTINUOUS
 10
0.0
 20
0.0
 30
0.0
210
0.0
220
0.0
230
1.0
  2
XSEC0002
 70
1
 71
1
 91
2
 92
1
 93
20
 72
3
 10
188.9597536893
 20
125.4109573741
 11
12.3692377312
 21
0.0
 40
0.7599760271
 50
-180.0
 51
-90.0
 73
0
 72
1
 10
188.9597536893
 20
134.8112815232
 11
218.2731420843
 21
134.8112815232
 72
3
 10
218.2731420843
 20
125.4109573741
 11
12.3692377312
 21
0.0
 40
0.7599760271
 50
-90.0
 51
0.0
 73
0
 72
1
 10
230.6423798155
 20
125.4109573741
 11
230.6423798155
 21
108.255365802
 72
3
 10
218.2731420843
 20
108.255365802
 11
12.3692377312
 21
0.0
 40
0.7599760271
 50
0.0
 51
90.0
 73
0
 72
1
 10
218.2731420843
 20
98.8550416529
 11
217.4819260067
 21
98.8550416529
 72
1
 10
217.4819260067
 20
98.8550416529
 11
217.4819260067
 21
104.2602280386
 72
1
 10
217.4819260067
 20
104.2602280386
 11
217.6440962552
 21
104.2602280386
 72
3
 10
217.6440962552
 20
108.3141178279
 11
6.5355607078
 21
0.0
 40
0.6202818657
 50
-90.0
 51
0.0
 73
1
 72
1
 10
224.179656963
 20
108.3141178279
 11
224.179656963
 21
125.3522053482
 72
3
 10
217.6440962552
 20
125.3522053482
 11
-6.5355607078
 21
0.0
 40
0.6202818657
 50
180.0
 51
-90.0
 73
1
 72
1
 10
217.6440962552
 20
129.4060951375
 11
189.5887995184
 21
129.4060951375
 72
3
 10
189.5887995184
 20
125.3522053482
 11
6.5355607078
 21
0.0
 40
0.6202818657
 50
90.0
 51
180.0
 73
1
 72
1
 10
183.0532388106
 20
125.3522053482
 11
183.0532388106
 21
108.3141178279
 72
3
 10
189.5887995184
 20
108.3141178279
 11
6.5355607078
 21
0.0
 40
0.6202818657
 50
180.0
 51
-90.0
 73
1
 72
1
 10
189.5887995184
 20
104.2602280386
 11
204.5564803017
 21
104.2602280386
 72
1
 10
204.5564803017
 20
104.2602280386
 11
204.5564803017
 21
98.8550416529
 72
1
 10
204.5564803017
 20
98.8550416529
 11
188.9597536893
 21
98.8550416529
 72
3
 10
188.9597536893
 20
108.255365802
 11
12.3692377312
 21
0.0
 40
0.7599760271
 50
-270.0
 51
-180.0
 73
0
 72
1
 10
176.5905159581
 20
108.255365802
 11
176.5905159581
 21
125.4109573741
 97
24
330
3EE
330
3EF
330
3F0
330
3F1
330
3F2
330
3F3
330
3F4
330
3F5
330
3F6
330
3F7
330
3F8
330
3F9
330
3FA
330
3FB
330
3FC
330
3FD
330
3FE
330
3FF
330
400
330
401
330
402
330
403
330
404
330
405
 92
1
 93
4
 72
1
 10
207.4940815983
 20
107.7853495946
 11
214.3093166064
 21
107.7853495946
 72
1
 10
214.3093166064
 20
107.7853495946
 11
214.3093166064
 21
94.3898876821
 72
1
 10
214.3093166064
 20
94.3898876821
 11
207.4940815983
 21
94.3898876821
 72
1
 10
207.4940815983
 20
94.3898876821
 11
207.4940815983
 21
107.7853495946
 97
24
330
3EE
330
3EF
330
3F0
330
3F1
330
3F2
330
3F3
330
3F4
330
3F5
330
3F6
330
3F7
330
3F8
330
3F9
330
3FA
330
3FB
330
3FC
330
3FD
330
3FE
330
3FF
330
400
330
401
330
402
330
403
330
404
330
405
 75
0
 76
1
 98
1
 10
0.0
 20
0.0
  0
LINE
  5
407
100
AcDbEntity
  8
0
100
AcDbLine
 62
7
  6
CONTINUOUS
 10
240.8652323276
 20
109.9004225281
 11
240.8652323276
 21
114.3655764989
  0
LINE
  5
408
100
AcDbEntity
  8
0
100
AcDbLine
 62
7
  6
CONTINUOUS
 10
255.5532388106
 20
109.9004225281
 11
255.5532388106
 21
114.3655764989
  0
LINE
  5
409
100
AcDbEntity
  8
0
100
AcDbLine
 62
7
  6
CONTINUOUS
 10
240.8652323276
 20
109.9004225281
 11
255.5532388106
 21
109.9004225281
  0
LINE
  5
40A
100
AcDbEntity
  8
0
100
AcDbLine
 62
7
  6
CONTINUOUS
 10
240.8652323276
 20
114.3655764989
 11
255.5532388106
 21
114.3655764989
  0
HATCH
  5
40B
100
AcDbEntity
  8
0
100
AcDbHatch
 62
7
  6
CONTINUOUS
 10
0.0
 20
0.0
 30
0.0
210
0.0
220
0.0
230
1.0
  2
XSEC0003
 70
1
 71
1
 91
1
 92
1
 93
4
 72
1
 10
240.8652323276
 20
114.3655764989
 11
255.5532388106
 21
114.3655764989
 72
1
 10
255.5532388106
 20
114.3655764989
 11
255.5532388106
 21
109.9004225281
 72
1
 10
255.5532388106
 20
109.9004225281
 11
240.8652323276
 21
109.9004225281
 72
1
 10
240.8652323276
 20
109.9004225281
 11
240.8652323276
 21
114.3655764989
 97
4
330
407
330
408
330
409
330
40A
 75
0
 76
1
 98
1
 10
0.0
 20
0.0
  0
LINE
  5
40C
100
AcDbEntity
  8
0
100
AcDbLine
 62
7
  6
CONTINUOUS
 10
263.1910021818
 20
108.255365802
 11
263.1910021818
 21
110.6054468393
  0
LINE
  5
40D
100
AcDbEntity
  8
0
100
AcDbLine
 62
7
  6
CONTINUOUS
 10
263.1910021818
 20
123.5308925443
 11
263.1910021818
 21
125.4109573741
  0
LINE
  5
40E
100
AcDbEntity
  8
0
100
AcDbLine
 62
7
  6
CONTINUOUS
 10
269.6537250343
 20
108.3141178279
 11
269.6537250343
 21
110.6054468393
  0
LINE
  5
40F
100
AcDbEntity
  8
0
100
AcDbLine
 62
7
  6
CONTINUOUS
 10
269.6537250343
 20
123.5896445702
 11
269.6537250343
 21
125.3522053482
  0
LINE
  5
410
100
AcDbEntity
  8
0
100
AcDbLine
 62
7
  6
CONTINUOUS
 10
306.0799811121
 20
110.0766786059
 11
306.0799811121
 21
108.3141178279
  0
LINE
  5
411
100
AcDbEntity
  8
0
100
AcDbLine
 62
7
  6
CONTINUOUS
 10
306.0799811121
 20
123.0608763369
 11
306.0799811121
 21
125.3522053482
  0
LINE
  5
412
100
AcDbEntity
  8
0
100
AcDbLine
 62
7
  6
CONTINUOUS
 10
312.5427039646
 20
108.255365802
 11
312.5427039646
 21
110.1354306318
  0
LINE
  5
413
100
AcDbEntity
  8
0
100
AcDbLine
 62
7
  6
CONTINUOUS
 10
312.5427039646
 20
123.0608763369
 11
312.5427039646
 21
125.4109573741
  0
LINE
  5
414
100
AcDbEntity
  8
0
100
AcDbLine
 62
7
  6
CONTINUOUS
 10
275.560239913
 20
98.8550416529
 11
300.1734662334
 21
98.8550416529
  0
LINE
  5
415
100
AcDbEntity
  8
0
100
AcDbLine
 62
7
  6
CONTINUOUS
 10
276.189285742
 20
104.2602280386
 11
299.5444204043
 21
104.2602280386
  0
LINE
  5
416
100
AcDbEntity
  8
0
100
AcDbLine
 62
7
  6
CONTINUOUS
 10
263.1910021818
 20
110.6054468393
 11
269.6537250343
 21
110.6054468393
  0
LINE
  5
417
100
AcDbEntity
  8
0
100
AcDbLine
 62
7
  6
CONTINUOUS
 10
275.560239913
 20
114.1305683952
 11
299.5444204043
 21
114.1305683952
  0
LINE
  5
418
100
AcDbEntity
  8
0
100
AcDbLine
 62
7
  6
CONTINUOUS
 10
276.189285742
 20
119.5357547809
 11
300.1734662334
 21
119.5357547809
  0
LINE
  5
419
100
AcDbEntity
  8
0
100
AcDbLine
 62
7
  6
CONTINUOUS
 10
306.0799811121
 20
123.0608763369
 11
312.5427039646
 21
123.0608763369
  0
LINE
  5
41A
100
AcDbEntity
  8
0
100
AcDbLine
 62
7
  6
CONTINUOUS
 10
276.189285742
 20
129.4060951375
 11
299.5444204043
 21
129.4060951375
  0
LINE
  5
41B
100
AcDbEntity
  8
0
100
AcDbLine
 62
7
  6
CONTINUOUS
 10
275.560239913
 20
134.8112815232
 11
300.1734662334
 21
134.8112815232
  0
ELLIPSE
  5
41C
100
AcDbEntity
  8
0
100
AcDbEllipse
 62
7
  6
CONTINUOUS
 10
276.189285742
 20
108.3141178279
 30
0.0
 11
6.5355607078
 21
0.0
 31
0.0
 40
0.6202818657
 41
9.4247779608
 42
10.9955742876
  0
ELLIPSE
  5
41D
100
AcDbEntity
  8
0
100
AcDbEllipse
 62
7
  6
CONTINUOUS
 10
276.189285742
 20
125.3522053482
 30
0.0
 11
6.5355607078
 21
0.0
 31
0.0
 40
0.6202818657
 41
1.5707963268
 42
3.1415926536
  0
ELLIPSE
  5
41E
100
AcDbEntity
  8
0
100
AcDbEllipse
 62
7
  6
CONTINUOUS
 10
299.5444204043
 20
108.3141178279
 30
0.0
 11
6.5355607078
 21
-0.0
 31
0.0
 40
0.6202818657
 41
-1.5707963268
 42
0.0
  0
ELLIPSE
  5
41F
100
AcDbEntity
  8
0
100
AcDbEllipse
 62
7
  6
CONTINUOUS
 10
299.5444204043
 20
125.3522053482
 30
0.0
 11
-6.5355607078
 21
0.0
 31
0.0
 40
0.6202818657
 41
3.1415926536
 42
4.7123889804
  0
ELLIPSE
  5
420
100
AcDbEntity
  8
0
100
AcDbEllipse
 62
7
  6
CONTINUOUS
 10
299.5444204043
 20
110.0766786059
 30
0.0
 11
6.5355607078
 21
0.0
 31
0.0
 40
0.6202818657
 41
0.0
 42
1.5707963268
  0
ELLIPSE
  5
421
100
AcDbEntity
  8
0
100
AcDbEllipse
 62
7
  6
CONTINUOUS
 10
276.189285742
 20
123.5896445702
 30
0.0
 11
6.5355607078
 21
0.0
 31
0.0
 40
0.6202818657
 41
3.1415926536
 42
4.7123889804
  0
ELLIPSE
  5
422
100
AcDbEntity
  8
0
100
AcDbEllipse
 62
7
  6
CONTINUOUS
 10
300.1734662334
 20
108.255365802
 30
0.0
 11
12.3692377312
 21
0.0
 31
0.0
 40
0.7599760271
 41
4.7123889804
 42
6.2831853072
  0
ELLIPSE
  5
423
100
AcDbEntity
  8
0
100
AcDbEllipse
 62
7
  6
CONTINUOUS
 10
275.560239913
 20
108.255365802
 30
0.0
 11
12.3692377312
 21
0.0
 31
0.0
 40
0.7599760271
 41
3.1415926536
 42
4.7123889804
  0
ELLIPSE
  5
424
100
AcDbEntity
  8
0
100
AcDbEllipse
 62
7
  6
CONTINUOUS
 10
300.1734662334
 20
125.4109573741
 30
0.0
 11
12.3692377312
 21
0.0
 31
0.0
 40
0.7599760271
 41
0.0
 42
1.5707963268
  0
ELLIPSE
  5
425
100
AcDbEntity
  8
0
100
AcDbEllipse
 62
7
  6
CONTINUOUS
 10
275.560239913
 20
123.5308925443
 30
0.0
 11
12.3692377312
 21
0.0
 31
0.0
 40
0.7599760271
 41
9.4247779608
 42
10.9955742876
  0
ELLIPSE
  5
426
100
AcDbEntity
  8
0
100
AcDbEllipse
 62
7
  6
CONTINUOUS
 10
300.1734662334
 20
110.1354306318
 30
0.0
 11
12.3692377312
 21
0.0
 31
0.0
 40
0.7599760271
 41
6.2831853072
 42
7.853981634
  0
ELLIPSE
  5
427
100
AcDbEntity
  8
0
100
AcDbEllipse
 62
7
  6
CONTINUOUS
 10
275.560239913
 20
125.4109573741
 30
0.0
 11
12.3692377312
 21
0.0
 31
0.0
 40
0.7599760271
 41
7.853981634
 42
9.4247779608
  0
HATCH
  5
428
100
AcDbEntity
  8
0
100
AcDbHatch
 62
7
  6
CONTINUOUS
 10
0.0
 20
0.0
 30
0.0
210
0.0
220
0.0
230
1.0
  2
XSEC0004
 70
1
 71
1
 91
1
 92
1
 93
28
 72
1
 10
263.1910021818
 20
110.6054468393
 11
269.6537250343
 21
110.6054468393
 72
1
 10
269.6537250343
 20
110.6054468393
 11
269.6537250343
 21
108.3141178279
 72
3
 10
276.189285742
 20
108.3141178279
 11
6.5355607078
 21
0.0
 40
0.6202818657
 50
180.0
 51
-90.0
 73
1
 72
1
 10
276.189285742
 20
104.2602280386
 11
299.5444204043
 21
104.2602280386
 72
3
 10
299.5444204043
 20
108.3141178279
 11
6.5355607078
 21
-0.0
 40
0.6202818657
 50
-90.0
 51
0.0
 73
1
 72
1
 10
306.0799811121
 20
108.3141178279
 11
306.0799811121
 21
110.0766786059
 72
3
 10
299.5444204043
 20
110.0766786059
 11
6.5355607078
 21
0.0
 40
0.6202818657
 50
0.0
 51
90.0
 73
1
 72
1
 10
299.5444204043
 20
114.1305683952
 11
275.560239913
 21
114.1305683952
 72
3
 10
275.560239913
 20
123.5308925443
 11
12.3692377312
 21
0.0
 40
0.7599760271
 50
-270.0
 51
-180.0
 73
0
 72
1
 10
263.1910021818
 20
123.5308925443
 11
263.1910021818
 21
125.4109573741
 72
3
 10
275.560239913
 20
125.4109573741
 11
12.3692377312
 21
0.0
 40
0.7599760271
 50
-180.0
 51
-90.0
 73
0
 72
1
 10
275.560239913
 20
134.8112815232
 11
300.1734662334
 21
134.8112815232
 72
3
 10
300.1734662334
 20
125.4109573741
 11
12.3692377312
 21
0.0
 40
0.7599760271
 50
-90.0
 51
0.0
 73
0
 72
1
 10
312.5427039646
 20
125.4109573741
 11
312.5427039646
 21
123.0608763369
 72
1
 10
312.5427039646
 20
123.0608763369
 11
306.0799811121
 21
123.0608763369
 72
1
 10
306.0799811121
 20
123.0608763369
 11
306.0799811121
 21
125.3522053482
 72
3
 10
299.5444204043
 20
125.3522053482
 11
-6.5355607078
 21
0.0
 40
0.6202818657
 50
180.0
 51
-90.0
 73
1
 72
1
 10
299.5444204043
 20
129.4060951375
 11
276.189285742
 21
129.4060951375
 72
3
 10
276.189285742
 20
125.3522053482
 11
6.5355607078
 21
0.0
 40
0.6202818657
 50
90.0
 51
180.0
 73
1
 72
1
 10
269.6537250343
 20
125.3522053482
 11
269.6537250343
 21
123.5896445702
 72
3
 10
276.189285742
 20
123.5896445702
 11
6.5355607078
 21
0.0
 40
0.6202818657
 50
180.0
 51
-90.0
 73
1
 72
1
 10
276.189285742
 20
119.5357547809
 11
300.1734662334
 21
119.5357547809
 72
3
 10
300.1734662334
 20
110.1354306318
 11
12.3692377312
 21
0.0
 40
0.7599760271
 50
-90.0
 51
0.0
 73
0
 72
1
 10
312.5427039646
 20
110.1354306318
 11
312.5427039646
 21
108.255365802
 72
3
 10
300.1734662334
 20
108.255365802
 11
12.3692377312
 21
0.0
 40
0.7599760271
 50
0.0
 51
90.0
 73
0
 72
1
 10
300.1734662334
 20
98.8550416529
 11
275.560239913
 21
98.8550416529
 72
3
 10
275.560239913
 20
108.255365802
 11
12.3692377312
 21
0.0
 40
0.7599760271
 50
-270.0
 51
-180.0
 73
0
 72
1
 10
263.1910021818
 20
108.255365802
 11
263.1910021818
 21
110.6054468393
 97
28
330
40C
330
40D
330
40E
330
40F
330
410
330
411
330
412
330
413
330
414
330
415
330
416
330
417
330
418
330
419
330
41A
330
41B
330
41C
330
41D
330
41E
330
41F
330
420
330
421
330
422
330
423
330
424
330
425
330
426
330
427
 75
0
 76
1
 98
1
 10
0.0
 20
0.0
  0
LINE
  5
429
100
AcDbEntity
  8
0
100
AcDbLine
 62
7
  6
CONTINUOUS
 10
375.7598838673
 20
108.255365802
 11
375.7598838673
 21
110.6054468393
  0
LINE
  5
42A
100
AcDbEntity
  8
0
100
AcDbLine
 62
7
  6
CONTINUOUS
 10
375.7598838673
 20
123.5308925443
 11
375.7598838673
 21
125.4109573741
  0
LINE
  5
42B
100
AcDbEntity
  8
0
100
AcDbLine
 62
7
  6
CONTINUOUS
 10
382.2226067199
 20
108.3141178279
 11
382.2226067199
 21
110.6054468393
  0
LINE
  5
42C
100
AcDbEntity
  8
0
100
AcDbLine
 62
7
  6
CONTINUOUS
 10
382.2226067199
 20
123.5896445702
 11
382.2226067199
 21
125.3522053482
  0
LINE
  5
42D
100
AcDbEntity
  8
0
100
AcDbLine
 62
7
  6
CONTINUOUS
 10
418.6488627976
 20
110.0766786059
 11
418.6488627976
 21
108.3141178279
  0
LINE
  5
42E
100
AcDbEntity
  8
0
100
AcDbLine
 62
7
  6
CONTINUOUS
 10
418.6488627976
 20
123.0608763369
 11
418.6488627976
 21
125.3522053482
  0
LINE
  5
42F
100
AcDbEntity
  8
0
100
AcDbLine
 62
7
  6
CONTINUOUS
 10
425.1115856502
 20
108.255365802
 11
425.1115856502
 21
110.1354306318
  0
LINE
  5
430
100
AcDbEntity
  8
0
100
AcDbLine
 62
7
  6
CONTINUOUS
 10
425.1115856502
 20
123.0608763369
 11
425.1115856502
 21
125.4109573741
  0
LINE
  5
431
100
AcDbEntity
  8
0
100
AcDbLine
 62
7
  6
CONTINUOUS
 10
388.1291215986
 20
98.8550416529
 11
412.7423479189
 21
98.8550416529
  0
LINE
  5
432
100
AcDbEntity
  8
0
100
AcDbLine
 62
7
  6
CONTINUOUS
 10
388.7581674276
 20
104.2602280386
 11
412.1133020899
 21
104.2602280386
  0
LINE
  5
433
100
AcDbEntity
  8
0
100
AcDbLine
 62
7
  6
CONTINUOUS
 10
375.7598838673
 20
110.6054468393
 11
382.2226067199
 21
110.6054468393
  0
LINE
  5
434
100
AcDbEntity
  8
0
100
AcDbLine
 62
7
  6
CONTINUOUS
 10
388.1291215986
 20
114.1305683952
 11
412.1133020899
 21
114.1305683952
  0
LINE
  5
435
100
AcDbEntity
  8
0
100
AcDbLine
 62
7
  6
CONTINUOUS
 10
388.7581674276
 20
119.5357547809
 11
412.7423479189
 21
119.5357547809
  0
LINE
  5
436
100
AcDbEntity
  8
0
100
AcDbLine
 62
7
  6
CONTINUOUS
 10
418.6488627976
 20
123.0608763369
 11
425.1115856502
 21
123.0608763369
  0
LINE
  5
437
100
AcDbEntity
  8
0
100
AcDbLine
 62
7
  6
CONTINUOUS
 10
388.7581674276
 20
129.4060951375
 11
412.1133020899
 21
129.4060951375
  0
LINE
  5
438
100
AcDbEntity
  8
0
100
AcDbLine
 62
7
  6
CONTINUOUS
 10
388.1291215986
 20
134.8112815232
 11
412.7423479189
 21
134.8112815232
  0
ELLIPSE
  5
439
100
AcDbEntity
  8
0
100
AcDbEllipse
 62
7
  6
CONTINUOUS
 10
388.7581674276
 20
108.3141178279
 30
0.0
 11
6.5355607078
 21
0.0
 31
0.0
 40
0.6202818657
 41
9.4247779608
 42
10.9955742876
  0
ELLIPSE
  5
43A
100
AcDbEntity
  8
0
100
AcDbEllipse
 62
7
  6
CONTINUOUS
 10
388.7581674276
 20
125.3522053482
 30
0.0
 11
6.5355607078
 21
0.0
 31
0.0
 40
0.6202818657
 41
1.5707963268
 42
3.1415926536
  0
ELLIPSE
  5
43B
100
AcDbEntity
  8
0
100
AcDbEllipse
 62
7
  6
CONTINUOUS
 10
412.1133020899
 20
108.3141178279
 30
0.0
 11
6.5355607078
 21
-0.0
 31
0.0
 40
0.6202818657
 41
-1.5707963268
 42
0.0
  0
ELLIPSE
  5
43C
100
AcDbEntity
  8
0
100
AcDbEllipse
 62
7
  6
CONTINUOUS
 10
412.1133020899
 20
125.3522053482
 30
0.0
 11
-6.5355607078
 21
0.0
 31
0.0
 40
0.6202818657
 41
3.1415926536
 42
4.7123889804
  0
ELLIPSE
  5
43D
100
AcDbEntity
  8
0
100
AcDbEllipse
 62
7
  6
CONTINUOUS
 10
412.1133020899
 20
110.0766786059
 30
0.0
 11
6.5355607078
 21
0.0
 31
0.0
 40
0.6202818657
 41
0.0
 42
1.5707963268
  0
ELLIPSE
  5
43E
100
AcDbEntity
  8
0
100
AcDbEllipse
 62
7
  6
CONTINUOUS
 10
388.7581674276
 20
123.5896445702
 30
0.0
 11
6.5355607078
 21
0.0
 31
0.0
 40
0.6202818657
 41
3.1415926536
 42
4.7123889804
  0
ELLIPSE
  5
43F
100
AcDbEntity
  8
0
100
AcDbEllipse
 62
7
  6
CONTINUOUS
 10
412.7423479189
 20
108.255365802
 30
0.0
 11
12.3692377312
 21
0.0
 31
0.0
 40
0.7599760271
 41
4.7123889804
 42
6.2831853072
  0
ELLIPSE
  5
440
100
AcDbEntity
  8
0
100
AcDbEllipse
 62
7
  6
CONTINUOUS
 10
388.1291215986
 20
108.255365802
 30
0.0
 11
12.3692377312
 21
0.0
 31
0.0
 40
0.7599760271
 41
3.1415926536
 42
4.7123889804
  0
ELLIPSE
  5
441
100
AcDbEntity
  8
0
100
AcDbEllipse
 62
7
  6
CONTINUOUS
 10
412.7423479189
 20
125.4109573741
 30
0.0
 11
12.3692377312
 21
0.0
 31
0.0
 40
0.7599760271
 41
0.0
 42
1.5707963268
  0
ELLIPSE
  5
442
100
AcDbEntity
  8
0
100
AcDbEllipse
 62
7
  6
CONTINUOUS
 10
388.1291215986
 20
125.4109573741
 30
0.0
 11
12.3692377312
 21
0.0
 31
0.0
 40
0.7599760271
 41
7.853981634
 42
9.4247779608
  0
ELLIPSE
  5
443
100
AcDbEntity
  8
0
100
AcDbEllipse
 62
7
  6
CONTINUOUS
 10
388.1291215986
 20
123.5308925443
 30
0.0
 11
12.3692377312
 21
0.0
 31
0.0
 40
0.7599760271
 41
9.4247779608
 42
10.9955742876
  0
ELLIPSE
  5
444
100
AcDbEntity
  8
0
100
AcDbEllipse
 62
7
  6
CONTINUOUS
 10
412.7423479189
 20
110.1354306318
 30
0.0
 11
12.3692377312
 21
0.0
 31
0.0
 40
0.7599760271
 41
6.2831853072
 42
7.853981634
  0
HATCH
  5
445
100
AcDbEntity
  8
0
100
AcDbHatch
 62
7
  6
CONTINUOUS
 10
0.0
 20
0.0
 30
0.0
210
0.0
220
0.0
230
1.0
  2
XSEC0006
 70
1
 71
1
 91
1
 92
1
 93
28
 72
1
 10
375.7598838673
 20
110.6054468393
 11
382.2226067199
 21
110.6054468393
 72
1
 10
382.2226067199
 20
110.6054468393
 11
382.2226067199
 21
108.3141178279
 72
3
 10
388.7581674276
 20
108.3141178279
 11
6.5355607078
 21
0.0
 40
0.6202818657
 50
180.0
 51
-90.0
 73
1
 72
1
 10
388.7581674276
 20
104.2602280386
 11
412.1133020899
 21
104.2602280386
 72
3
 10
412.1133020899
 20
108.3141178279
 11
6.5355607078
 21
-0.0
 40
0.6202818657
 50
-90.0
 51
0.0
 73
1
 72
1
 10
418.6488627976
 20
108.3141178279
 11
418.6488627976
 21
110.0766786059
 72
3
 10
412.1133020899
 20
110.0766786059
 11
6.5355607078
 21
0.0
 40
0.6202818657
 50
0.0
 51
90.0
 73
1
 72
1
 10
412.1133020899
 20
114.1305683952
 11
388.1291215986
 21
114.1305683952
 72
3
 10
388.1291215986
 20
123.5308925443
 11
12.3692377312
 21
0.0
 40
0.7599760271
 50
-270.0
 51
-180.0
 73
0
 72
1
 10
375.7598838673
 20
123.5308925443
 11
375.7598838673
 21
125.4109573741
 72
3
 10
388.1291215986
 20
125.4109573741
 11
12.3692377312
 21
0.0
 40
0.7599760271
 50
-180.0
 51
-90.0
 73
0
 72
1
 10
388.1291215986
 20
134.8112815232
 11
412.7423479189
 21
134.8112815232
 72
3
 10
412.7423479189
 20
125.4109573741
 11
12.3692377312
 21
0.0
 40
0.7599760271
 50
-90.0
 51
0.0
 73
0
 72
1
 10
425.1115856502
 20
125.4109573741
 11
425.1115856502
 21
123.0608763369
 72
1
 10
425.1115856502
 20
123.0608763369
 11
418.6488627976
 21
123.0608763369
 72
1
 10
418.6488627976
 20
123.0608763369
 11
418.6488627976
 21
125.3522053482
 72
3
 10
412.1133020899
 20
125.3522053482
 11
-6.5355607078
 21
0.0
 40
0.6202818657
 50
180.0
 51
-90.0
 73
1
 72
1
 10
412.1133020899
 20
129.4060951375
 11
388.7581674276
 21
129.4060951375
 72
3
 10
388.7581674276
 20
125.3522053482
 11
6.5355607078
 21
0.0
 40
0.6202818657
 50
90.0
 51
180.0
 73
1
 72
1
 10
382.2226067199
 20
125.3522053482
 11
382.2226067199
 21
123.5896445702
 72
3
 10
388.7581674276
 20
123.5896445702
 11
6.5355607078
 21
0.0
 40
0.6202818657
 50
180.0
 51
-90.0
 73
1
 72
1
 10
388.7581674276
 20
119.5357547809
 11
412.7423479189
 21
119.5357547809
 72
3
 10
412.7423479189
 20
110.1354306318
 11
12.3692377312
 21
0.0
 40
0.7599760271
 50
-90.0
 51
0.0
 73
0
 72
1
 10
425.1115856502
 20
110.1354306318
 11
425.1115856502
 21
108.255365802
 72
3
 10
412.7423479189
 20
108.255365802
 11
12.3692377312
 21
0.0
 40
0.7599760271
 50
0.0
 51
90.0
 73
0
 72
1
 10
412.7423479189
 20
98.8550416529
 11
388.1291215986
 21
98.8550416529
 72
3
 10
388.1291215986
 20
108.255365802
 11
12.3692377312
 21
0.0
 40
0.7599760271
 50
-270.0
 51
-180.0
 73
0
 72
1
 10
375.7598838673
 20
108.255365802
 11
375.7598838673
 21
110.6054468393
 97
28
330
429
330
42A
330
42B
330
42C
330
42D
330
42E
330
42F
330
430
330
431
330
432
330
433
330
434
330
435
330
436
330
437
330
438
330
439
330
43A
330
43B
330
43C
330
43D
330
43E
330
43F
330
440
330
441
330
442
330
443
330
444
 75
0
 76
1
 98
1
 10
0.0
 20
0.0
  0
LWPOLYLINE
  5
446
100
AcDbEntity
  8
0
100
AcDbPolyline
 62
7
  6
CONTINUOUS
 90
2
 70
0
 43
2.4999999888
 10
1842.4098002583
 20
87.6967776197
 10
1880.5098002593
 20
81.3467776197
  0
LWPOLYLINE
  5
447
100
AcDbEntity
  8
0
100
AcDbPolyline
 62
7
  6
CONTINUOUS
 90
2
 70
0
 43
2.4999999888
 10
1842.4098002583
 20
100.3967776197
 10
1880.5098002593
 20
106.7467776197
  0
LWPOLYLINE
  5
448
100
AcDbEntity
  8
0
100
AcDbPolyline
 62
7
  6
CONTINUOUS
 90
2
 70
0
 43
0.9999999698
 10
1800.5506002583
 20
94.0467776197
 10
1833.4690002593
 20
94.0467776197
  0
LWPOLYLINE
  5
449
100
AcDbEntity
  8
0
100
AcDbPolyline
 62
7
  6
CONTINUOUS
 90
2
 70
0
 43
0.9999999698
 10
1837.6809353403
 20
94.0467776197
 10
1884.3960853343
 20
94.0467776197
  0
LWPOLYLINE
  5
44A
100
AcDbEntity
  8
0
100
AcDbPolyline
 62
7
  6
CONTINUOUS
 90
2
 70
0
 43
2.4999999888
 10
4253.0
 20
180.0
 10
65.0
 20
180.0
  0
LWPOLYLINE
  5
44B
100
AcDbEntity
  8
0
100
AcDbPolyline
 62
7
  6
CONTINUOUS
 90
2
 70
0
 43
0.9999999698
 10
1817.0098002583
 20
77.5875776197
 10
1817.0098002583
 20
110.5059776197
  0
LWPOLYLINE
  5
44C
100
AcDbEntity
  8
0
100
AcDbPolyline
 62
7
  6
CONTINUOUS
 90
2
 70
0
 43
2.4999999888
 10
1842.4098002583
 20
100.3967776197
 10
1842.4098002583
 20
87.6967776197
  0
LWPOLYLINE
  5
44D
100
AcDbEntity
  8
0
100
AcDbPolyline
 62
7
  6
CONTINUOUS
 90
2
 70
0
 43
2.4999999888
 10
1880.5098002593
 20
106.7467776197
 10
1880.5098002593
 20
81.3467776197
  0
LWPOLYLINE
  5
44E
100
AcDbEntity
  8
0
100
AcDbPolyline
 62
2
  6
CONTINUOUS
 90
5
 70
0
 10
91.9269564227
 20
2288.9784422686
 10
132.4630902517
 20
2288.9784422686
 10
132.4630902517
 20
2334.6984422686
 10
91.9269564227
 20
2334.6984422686
 10
91.9269564227
 20
2288.9784422686
  0
LWPOLYLINE
  5
44F
100
AcDbEntity
  8
0
100
AcDbPolyline
 62
2
  6
CONTINUOUS
 90
5
 70
0
 10
91.9269564227
 20
2368.9884422686
 10
132.4630902517
 20
2368.9884422686
 10
132.4630902517
 20
2414.7084422686
 10
91.9269564227
 20
2414.7084422686
 10
91.9269564227
 20
2368.9884422686
  0
LWPOLYLINE
  5
450
100
AcDbEntity
  8
0
100
AcDbPolyline
 62
2
  6
CONTINUOUS
 90
5
 70
0
 10
91.9269564227
 20
2448.9984422686
 10
132.4630902517
 20
2448.9984422686
 10
132.4630902517
 20
2494.7184422686
 10
91.9269564227
 20
2494.7184422686
 10
91.9269564227
 20
2448.9984422686
  0
LWPOLYLINE
  5
451
100
AcDbEntity
  8
0
100
AcDbPolyline
 62
7
  6
CONTINUOUS
 90
2
 70
0
 43
2.4999999888
 10
65.0
 20
2729.0
 10
4253.0
 20
2729.0
  0
LINE
  5
452
100
AcDbEntity
  8
0
100
AcDbLine
 62
7
  6
CONTINUOUS
 10
1808.2031872314
 20
479.3821409137
 11
1448.2031872314
 21
479.3821409137
  0
LINE
  5
453
100
AcDbEntity
  8
0
100
AcDbLine
 62
7
  6
CONTINUOUS
 10
1808.2031872314
 20
494.2821409137
 11
1448.2031872314
 21
494.2821409137
  0
LINE
  5
454
100
AcDbEntity
  8
0
100
AcDbLine
 62
7
  6
CONTINUOUS
 10
1454.2031872314
 20
509.1821409137
 11
1802.2031872314
 21
509.1821409137
  0
LINE
  5
455
100
AcDbEntity
  8
0
100
AcDbLine
 62
7
  6
CONTINUOUS
 10
1756.3631872314
 20
1126.6421409137
 11
1641.6164872314
 21
1056.8547409137
  0
LINE
  5
456
100
AcDbEntity
  8
0
100
AcDbLine
 62
7
  6
CONTINUOUS
 10
1448.2031872314
 20
479.3821409137
 11
1448.2031872314
 21
1189.3821409137
  0
LINE
  5
457
100
AcDbEntity
  8
0
100
AcDbLine
 62
7
  6
CONTINUOUS
 10
1452.2031872314
 20
494.2821409137
 11
1452.2031872314
 21
1174.4821409137
  0
LINE
  5
458
100
AcDbEntity
  8
0
100
AcDbLine
 62
7
  6
CONTINUOUS
 10
1454.2031872314
 20
494.2821409137
 11
1454.2031872314
 21
509.1821409137
  0
LINE
  5
459
100
AcDbEntity
  8
0
100
AcDbLine
 62
7
  6
CONTINUOUS
 10
1454.2031872314
 20
1159.5821409137
 11
1454.2031872314
 21
1174.4821409137
  0
LINE
  5
45A
100
AcDbEntity
  8
0
100
AcDbLine
 62
7
  6
CONTINUOUS
 10
1468.5231872314
 20
1079.2039024168
 11
1468.5231872314
 21
917.7608781339
  0
LINE
  5
45B
100
AcDbEntity
  8
0
100
AcDbLine
 62
7
  6
CONTINUOUS
 10
1478.2031872314
 20
479.3821409137
 11
1478.2031872314
 21
494.2821409137
  0
LINE
  5
45C
100
AcDbEntity
  8
0
100
AcDbLine
 62
7
  6
CONTINUOUS
 10
1478.2031872314
 20
1174.4821409137
 11
1478.2031872314
 21
1189.3821409137
  0
LINE
  5
45D
100
AcDbEntity
  8
0
100
AcDbLine
 62
7
  6
CONTINUOUS
 10
1479.6949151227
 20
494.2821409137
 11
1479.6949151227
 21
509.1821409137
  0
LINE
  5
45E
100
AcDbEntity
  8
0
100
AcDbLine
 62
7
  6
CONTINUOUS
 10
1479.6949151227
 20
1159.5821409137
 11
1479.6949151227
 21
1174.4821409137
  0
LINE
  5
45F
100
AcDbEntity
  8
0
100
AcDbLine
 62
7
  6
CONTINUOUS
 10
1500.0431872314
 20
1126.6421409137
 11
1500.0431872314
 21
870.3221409137
  0
LINE
  5
460
100
AcDbEntity
  8
0
100
AcDbLine
 62
7
  6
CONTINUOUS
 10
1500.0431872314
 20
870.3221409137
 11
1614.7898872314
 21
940.1095409137
  0
LINE
  5
461
100
AcDbEntity
  8
0
100
AcDbLine
 62
7
  6
CONTINUOUS
 10
1615.2984884747
 20
1011.3868396703
 11
1614.8233278862
 21
1053.8652154031
  0
LINE
  5
462
100
AcDbEntity
  8
0
100
AcDbLine
 62
7
  6
CONTINUOUS
 10
1614.7898872314
 20
940.1095409137
 11
1614.7898872314
 21
1056.8547409137
  0
LINE
  5
463
100
AcDbEntity
  8
3_ALL_AXES
100
AcDbLine
 62
7
  6
CENTER
 10
1623.4406872314
 20
833.3921409137
 11
1623.4406872314
 21
807.9920409137
  0
LINE
  5
464
100
AcDbEntity
  8
3_ALL_AXES
100
AcDbLine
 62
7
  6
CENTER
 10
1623.4406872314
 20
833.3921409137
 11
1623.4406872314
 21
858.7922409137
  0
LINE
  5
465
100
AcDbEntity
  8
3_AXES_OTHER
100
AcDbLine
 62
7
  6
CENTER
 10
1628.2031872314
 20
453.9821409137
 11
1628.2031872314
 21
1214.7821409137
  0
LINE
  5
466
100
AcDbEntity
  8
0
100
AcDbLine
 62
7
  6
CONTINUOUS
 10
1615.2984884747
 20
985.577442157
 11
1614.8233280376
 21
943.0990799566
  0
LINE
  5
467
100
AcDbEntity
  8
3_ALL_AXES
100
AcDbLine
 62
7
  6
CENTER
 10
1623.4406872314
 20
833.3921409137
 11
1598.0405872314
 21
833.3921409137
  0
LINE
  5
468
100
AcDbEntity
  8
3_ALL_AXES
100
AcDbLine
 62
7
  6
CENTER
 10
1623.4406872314
 20
833.3921409137
 11
1648.8407872314
 21
833.3921409137
  0
LINE
  5
469
100
AcDbEntity
  8
0
100
AcDbLine
 62
7
  6
CONTINUOUS
 10
1641.1078859881
 20
985.577442157
 11
1641.5830465766
 21
943.0990664242
  0
LINE
  5
46A
100
AcDbEntity
  8
0
100
AcDbLine
 62
7
  6
CONTINUOUS
 10
1641.6164872314
 20
1056.8547409137
 11
1641.6164872314
 21
940.1095409137
  0
LINE
  5
46B
100
AcDbEntity
  8
0
100
AcDbLine
 62
7
  6
CONTINUOUS
 10
1641.1078859881
 20
1011.3868396703
 11
1641.5830464252
 21
1053.8652018707
  0
LINE
  5
46C
100
AcDbEntity
  8
0
100
AcDbLine
 62
7
  6
CONTINUOUS
 10
1547.481425831
 20
838.8121409137
 11
1708.9244500112
 21
838.8121409137
  0
LINE
  5
46D
100
AcDbEntity
  8
0
100
AcDbLine
 62
7
  6
CONTINUOUS
 10
1500.0431872314
 20
870.3221409137
 11
1756.3631872314
 21
870.3221409137
  0
LINE
  5
46E
100
AcDbEntity
  8
0
100
AcDbLine
 62
7
  6
CONTINUOUS
 10
1641.6164872314
 20
940.1095409137
 11
1614.7898872314
 21
940.1095409137
  0
LINE
  5
46F
100
AcDbEntity
  8
0
100
AcDbLine
 62
7
  6
CONTINUOUS
 10
1756.3631872314
 20
870.3221409137
 11
1641.6164872314
 21
940.1095409137
  0
LINE
  5
470
100
AcDbEntity
  8
0
100
AcDbLine
 62
7
  6
CONTINUOUS
 10
1756.3631872314
 20
870.3221409137
 11
1756.3631872314
 21
1126.6421409137
  0
LINE
  5
471
100
AcDbEntity
  8
0
100
AcDbLine
 62
7
  6
CONTINUOUS
 10
1776.7114593401
 20
494.2821409137
 11
1776.7114593401
 21
509.1821409137
  0
LINE
  5
472
100
AcDbEntity
  8
0
100
AcDbLine
 62
7
  6
CONTINUOUS
 10
1776.7114593401
 20
1159.5821409137
 11
1776.7114593401
 21
1174.4821409137
  0
LINE
  5
473
100
AcDbEntity
  8
0
100
AcDbLine
 62
7
  6
CONTINUOUS
 10
1778.2031872314
 20
479.3821409137
 11
1778.2031872314
 21
494.2821409137
  0
LINE
  5
474
100
AcDbEntity
  8
0
100
AcDbLine
 62
7
  6
CONTINUOUS
 10
1778.2031872314
 20
1174.4821409137
 11
1778.2031872314
 21
1189.3821409137
  0
LINE
  5
475
100
AcDbEntity
  8
0
100
AcDbLine
 62
7
  6
CONTINUOUS
 10
1787.8731872314
 20
917.76037943
 11
1787.8731872314
 21
1079.2033427893
  0
LINE
  5
476
100
AcDbEntity
  8
0
100
AcDbLine
 62
7
  6
CONTINUOUS
 10
1802.2031872314
 20
494.2821409137
 11
1802.2031872314
 21
509.1821409137
  0
LINE
  5
477
100
AcDbEntity
  8
0
100
AcDbLine
 62
7
  6
CONTINUOUS
 10
1802.2031872314
 20
1159.5821409137
 11
1802.2031872314
 21
1174.4821409137
  0
LINE
  5
478
100
AcDbEntity
  8
0
100
AcDbLine
 62
7
  6
CONTINUOUS
 10
1804.2031872314
 20
494.2821409137
 11
1804.2031872314
 21
1174.4821409137
  0
LINE
  5
479
100
AcDbEntity
  8
0
100
AcDbLine
 62
7
  6
CONTINUOUS
 10
1808.2031872314
 20
479.3821409137
 11
1808.2031872314
 21
1189.3821409137
  0
LINE
  5
47A
100
AcDbEntity
  8
0
100
AcDbLine
 62
7
  6
CONTINUOUS
 10
1500.0431872314
 20
1126.6421409137
 11
1614.7898872314
 21
1056.8547409137
  0
LINE
  5
47B
100
AcDbEntity
  8
0
100
AcDbLine
 62
7
  6
CONTINUOUS
 10
1614.7898872314
 20
1056.8547409137
 11
1641.6164872314
 21
1056.8547409137
  0
LINE
  5
47C
100
AcDbEntity
  8
0
100
AcDbLine
 62
7
  6
CONTINUOUS
 10
1756.3631872314
 20
1126.6421409137
 11
1500.0431872314
 21
1126.6421409137
  0
LINE
  5
47D
100
AcDbEntity
  8
0
100
AcDbLine
 62
7
  6
CONTINUOUS
 10
1708.9249487159
 20
1158.1621409137
 11
1547.4819244295
 21
1158.1621409137
  0
LINE
  5
47E
100
AcDbEntity
  8
0
100
AcDbLine
 62
7
  6
CONTINUOUS
 10
1454.2031872314
 20
1159.5821409137
 11
1802.2031872314
 21
1159.5821409137
  0
LINE
  5
47F
100
AcDbEntity
  8
0
100
AcDbLine
 62
7
  6
CONTINUOUS
 10
1808.2031872314
 20
1174.4821409137
 11
1448.2031872314
 21
1174.4821409137
  0
LINE
  5
480
100
AcDbEntity
  8
0
100
AcDbLine
 62
7
  6
CONTINUOUS
 10
1808.2031872314
 20
1189.3821409137
 11
1448.2031872314
 21
1189.3821409137
  0
LINE
  5
481
100
AcDbEntity
  8
0
100
AcDbLine
 62
7
  6
CONTINUOUS
 10
1448.2031872314
 20
1816.5557285037
 11
1448.2031872314
 21
1839.5557285037
  0
LINE
  5
482
100
AcDbEntity
  8
0
100
AcDbLine
 62
7
  6
CONTINUOUS
 10
1448.2031872314
 20
1839.5557285037
 11
1531.267436885
 21
2149.5557285037
  0
LWPOLYLINE
  5
483
100
AcDbEntity
  8
0
100
AcDbPolyline
 62
2
  6
CONTINUOUS
 90
5
 70
0
 10
1336.2787043581
 20
1821.5441178354
 10
1376.8148381871
 20
1821.5441178354
 10
1376.8148381871
 20
1867.2641178354
 10
1336.2787043581
 20
1867.2641178354
 10
1336.2787043581
 20
1821.5441178354
  0
LINE
  5
484
100
AcDbEntity
  8
3_AXES_OTHER
100
AcDbLine
 62
7
  6
CENTER
 10
1501.3650455115
 20
1882.2512414319
 11
1501.3650455115
 21
1845.8512414319
  0
LINE
  5
485
100
AcDbEntity
  8
3_AXES_OTHER
100
AcDbLine
 62
7
  6
CENTER
 10
1501.3650455115
 20
1882.2512414319
 11
1501.3650455115
 21
1918.6512414319
  0
LINE
  5
486
100
AcDbEntity
  8
3_AXES_OTHER
100
AcDbLine
 62
7
  6
CENTER
 10
1755.0413289513
 20
1882.2512414319
 11
1529.9891143632
 21
1882.2512414319
  0
LINE
  5
487
100
AcDbEntity
  8
3_AXES_OTHER
100
AcDbLine
 62
7
  6
CENTER
 10
1501.3650455115
 20
1882.2512414319
 11
1464.9650455115
 21
1882.2512414319
  0
LINE
  5
488
100
AcDbEntity
  8
3_AXES_OTHER
100
AcDbLine
 62
7
  6
CENTER
 10
1501.3650455115
 20
1882.2512414319
 11
1529.9891143632
 21
1882.2512414319
  0
LINE
  5
489
100
AcDbEntity
  8
3_AXES_OTHER
100
AcDbLine
 62
7
  6
CENTER
 10
1755.0413289513
 20
1882.2512414319
 11
1791.4413289513
 21
1882.2512414319
  0
LINE
  5
48A
100
AcDbEntity
  8
3_AXES_OTHER
100
AcDbLine
 62
7
  6
CENTER
 10
1574.2531872314
 20
1979.9557285037
 11
1574.2531872314
 21
1947.5557285037
  0
LINE
  5
48B
100
AcDbEntity
  8
3_AXES_OTHER
100
AcDbLine
 62
7
  6
CENTER
 10
1574.2531872314
 20
1929.1557285037
 11
1574.2531872314
 21
1896.7557285037
  0
LINE
  5
48C
100
AcDbEntity
  8
3_AXES_OTHER
100
AcDbLine
 62
7
  6
CENTER
 10
1574.2531872314
 20
1929.1557285037
 11
1574.2531872314
 21
1947.5557285037
  0
LINE
  5
48D
100
AcDbEntity
  8
3_AXES_OTHER
100
AcDbLine
 62
7
  6
CENTER
 10
1574.2531872314
 20
1979.9557285037
 11
1574.2531872314
 21
2012.3557285037
  0
LWPOLYLINE
  5
48E
100
AcDbEntity
  8
0
100
AcDbPolyline
 62
2
  6
CONTINUOUS
 90
5
 70
0
 10
1839.4868994504
 20
1894.5383549684
 10
1880.0230332794
 20
1894.5383549684
 10
1880.0230332794
 20
1940.2583549684
 10
1839.4868994504
 20
1940.2583549684
 10
1839.4868994504
 20
1894.5383549684
  0
LINE
  5
48F
100
AcDbEntity
  8
3_AXES_OTHER
100
AcDbLine
 62
7
  6
CENTER
 10
1682.1531872314
 20
1929.1557285037
 11
1649.7531872314
 21
1929.1557285037
  0
LINE
  5
490
100
AcDbEntity
  8
3_AXES_OTHER
100
AcDbLine
 62
7
  6
CENTER
 10
1574.2531872314
 20
1929.1557285037
 11
1541.8531872314
 21
1929.1557285037
  0
LINE
  5
491
100
AcDbEntity
  8
3_AXES_OTHER
100
AcDbLine
 62
7
  6
CENTER
 10
1574.2531872314
 20
1929.1557285037
 11
1649.7531872314
 21
1929.1557285037
  0
LINE
  5
492
100
AcDbEntity
  8
3_AXES_OTHER
100
AcDbLine
 62
7
  6
CENTER
 10
1682.1531872314
 20
1929.1557285037
 11
1714.5531872314
 21
1929.1557285037
  0
LINE
  5
493
100
AcDbEntity
  8
3_AXES_OTHER
100
AcDbLine
 62
7
  6
CENTER
 10
1628.2031872314
 20
2109.2557285037
 11
1628.2031872314
 21
2072.8557285037
  0
LINE
  5
494
100
AcDbEntity
  8
3_AXES_OTHER
100
AcDbLine
 62
7
  6
CENTER
 10
1628.2031872314
 20
1954.5557285037
 11
1628.2031872314
 21
1864.9608864719
  0
LINE
  5
495
100
AcDbEntity
  8
3_AXES_OTHER
100
AcDbLine
 62
7
  6
CENTER
 10
1628.2031872314
 20
1954.5557285037
 11
1628.2031872314
 21
2072.8557285037
  0
LINE
  5
496
100
AcDbEntity
  8
3_AXES_OTHER
100
AcDbLine
 62
7
  6
CENTER
 10
1628.2031872314
 20
2109.2557285037
 11
1628.2031872314
 21
2286.6633188793
  0
LINE
  5
497
100
AcDbEntity
  8
3_AXES_OTHER
100
AcDbLine
 62
7
  6
CENTER
 10
1628.2031872314
 20
1954.5557285037
 11
1593.8031872314
 21
1954.5557285037
  0
LINE
  5
498
100
AcDbEntity
  8
3_AXES_OTHER
100
AcDbLine
 62
7
  6
CENTER
 10
1628.2031872314
 20
1954.5557285037
 11
1662.6031872314
 21
1954.5557285037
  0
LINE
  5
499
100
AcDbEntity
  8
3_AXES_OTHER
100
AcDbLine
 62
7
  6
CENTER
 10
1682.1531872314
 20
1979.9557285037
 11
1649.7531872314
 21
1979.9557285037
  0
LINE
  5
49A
100
AcDbEntity
  8
3_AXES_OTHER
100
AcDbLine
 62
7
  6
CENTER
 10
1574.2531872314
 20
1979.9557285037
 11
1541.8531872314
 21
1979.9557285037
  0
LINE
  5
49B
100
AcDbEntity
  8
3_AXES_OTHER
100
AcDbLine
 62
7
  6
CENTER
 10
1574.2531872314
 20
1979.9557285037
 11
1649.7531872314
 21
1979.9557285037
  0
LINE
  5
49C
100
AcDbEntity
  8
3_AXES_OTHER
100
AcDbLine
 62
7
  6
CENTER
 10
1682.1531872314
 20
1979.9557285037
 11
1714.5531872314
 21
1979.9557285037
  0
LINE
  5
49D
100
AcDbEntity
  8
3_AXES_OTHER
100
AcDbLine
 62
7
  6
CENTER
 10
1682.1531872314
 20
1979.9557285037
 11
1682.1531872314
 21
1947.5557285037
  0
LINE
  5
49E
100
AcDbEntity
  8
3_AXES_OTHER
100
AcDbLine
 62
7
  6
CENTER
 10
1682.1531872314
 20
1929.1557285037
 11
1682.1531872314
 21
1896.7557285037
  0
LINE
  5
49F
100
AcDbEntity
  8
3_AXES_OTHER
100
AcDbLine
 62
7
  6
CENTER
 10
1682.1531872314
 20
1929.1557285037
 11
1682.1531872314
 21
1947.5557285037
  0
LINE
  5
4A0
100
AcDbEntity
  8
3_AXES_OTHER
100
AcDbLine
 62
7
  6
CENTER
 10
1682.1531872314
 20
1979.9557285037
 11
1682.1531872314
 21
2012.3557285037
  0
LWPOLYLINE
  5
4A1
100
AcDbEntity
  8
0
100
AcDbPolyline
 62
2
  6
CONTINUOUS
 90
5
 70
0
 10
1403.5319559394
 20
2075.4798235561
 10
1444.0680897684
 20
2075.4798235561
 10
1444.0680897684
 20
2121.1998235561
 10
1403.5319559394
 20
2121.1998235561
 10
1403.5319559394
 20
2075.4798235561
  0
LINE
  5
4A2
100
AcDbEntity
  8
3_AXES_OTHER
100
AcDbLine
 62
7
  6
CENTER
 10
1755.0413289513
 20
1882.2512414319
 11
1755.0413289513
 21
1845.8512414319
  0
LINE
  5
4A3
100
AcDbEntity
  8
3_AXES_OTHER
100
AcDbLine
 62
7
  6
CENTER
 10
1755.0413289513
 20
1882.2512414319
 11
1755.0413289513
 21
1918.6512414319
  0
LINE
  5
4A4
100
AcDbEntity
  8
3_AXES_OTHER
100
AcDbLine
 62
7
  6
CENTER
 10
1628.2031872314
 20
2109.2557285037
 11
1591.8031872314
 21
2109.2557285037
  0
LINE
  5
4A5
100
AcDbEntity
  8
3_AXES_OTHER
100
AcDbLine
 62
7
  6
CENTER
 10
1628.2031872314
 20
2109.2557285037
 11
1664.6031872314
 21
2109.2557285037
  0
LINE
  5
4A6
100
AcDbEntity
  8
0
100
AcDbLine
 62
7
  6
CONTINUOUS
 10
1725.1389375778
 20
2149.5557285037
 11
1808.2031872314
 21
1839.5557285037
  0
LINE
  5
4A7
100
AcDbEntity
  8
0
100
AcDbLine
 62
7
  6
CONTINUOUS
 10
1808.2031872314
 20
1839.5557285037
 11
1808.2031872314
 21
1816.5557285037
  0
LINE
  5
4A8
100
AcDbEntity
  8
0
100
AcDbLine
 62
7
  6
CONTINUOUS
 10
1531.267436885
 20
2149.5557285037
 11
1725.1389375778
 21
2149.5557285037
  0
LINE
  5
4A9
100
AcDbEntity
  8
DEFAULT_3
100
AcDbLine
 62
7
  6
PHANTOM
 10
2067.4815729003
 20
2358.6235873147
 11
2227.7425143492
 21
1760.5216113587
  0
LINE
  5
4AA
100
AcDbEntity
  8
0
100
AcDbLine
 62
7
  6
CONTINUOUS
 10
2494.1816066576
 20
479.3821409137
 11
2117.6816066576
 21
479.3821409137
  0
LINE
  5
4AB
100
AcDbEntity
  8
0
100
AcDbLine
 62
7
  6
CONTINUOUS
 10
2184.1816066576
 20
494.2821409137
 11
2117.6816066576
 21
494.2821409137
  0
LINE
  5
4AC
100
AcDbEntity
  8
0
100
AcDbLine
 62
7
  6
CONTINUOUS
 10
2121.6816066576
 20
509.1821409137
 11
2169.1816066576
 21
509.1821409137
  0
LINE
  5
4AD
100
AcDbEntity
  8
0
100
AcDbLine
 62
7
  6
CONTINUOUS
 10
2169.1816066576
 20
523.3589909137
 11
2162.5416066576
 21
523.3589909137
  0
LINE
  5
4AE
100
AcDbEntity
  8
0
100
AcDbLine
 62
7
  6
CONTINUOUS
 10
2117.6816066576
 20
1189.3821409137
 11
2117.6816066576
 21
1174.4821409137
  0
LINE
  5
4AF
100
AcDbEntity
  8
0
100
AcDbLine
 62
7
  6
CONTINUOUS
 10
2117.6816066576
 20
494.2821409137
 11
2117.6816066576
 21
479.3821409137
  0
LINE
  5
4B0
100
AcDbEntity
  8
0
100
AcDbLine
 62
7
  6
CONTINUOUS
 10
2121.6816066576
 20
494.2821409137
 11
2121.6816066576
 21
509.1821409137
  0
LINE
  5
4B1
100
AcDbEntity
  8
0
100
AcDbLine
 62
7
  6
CONTINUOUS
 10
2121.6816066576
 20
1159.5821409137
 11
2121.6816066576
 21
1174.4821409137
  0
LINE
  5
4B2
100
AcDbEntity
  8
0
100
AcDbLine
 62
7
  6
CONTINUOUS
 10
2128.2778012877
 20
479.3821409137
 11
2128.2778012877
 21
494.2821409137
  0
LINE
  5
4B3
100
AcDbEntity
  8
0
100
AcDbLine
 62
7
  6
CONTINUOUS
 10
2128.2778012877
 20
1174.4821409137
 11
2128.2778012877
 21
1189.3821409137
  0
LINE
  5
4B4
100
AcDbEntity
  8
0
100
AcDbLine
 62
7
  6
CONTINUOUS
 10
2132.1065294706
 20
494.2821409137
 11
2132.1065294706
 21
509.1821409137
  0
LINE
  5
4B5
100
AcDbEntity
  8
0
100
AcDbLine
 62
7
  6
CONTINUOUS
 10
2132.1065294706
 20
1159.5821409137
 11
2132.1065294706
 21
1174.4821409137
  0
LINE
  5
4B6
100
AcDbEntity
  8
0
100
AcDbLine
 62
7
  6
CONTINUOUS
 10
2158.8708555233
 20
494.2821409137
 11
2158.8708555233
 21
509.1821409137
  0
LINE
  5
4B7
100
AcDbEntity
  8
0
100
AcDbLine
 62
7
  6
CONTINUOUS
 10
2158.8708555233
 20
1159.5821409137
 11
2158.8708555233
 21
1174.4821409137
  0
LINE
  5
4B8
100
AcDbEntity
  8
0
100
AcDbLine
 62
7
  6
CONTINUOUS
 10
2161.1816066576
 20
479.3821409137
 11
2161.1816066576
 21
494.2821409137
  0
LINE
  5
4B9
100
AcDbEntity
  8
0
100
AcDbLine
 62
7
  6
CONTINUOUS
 10
2161.1816066576
 20
1174.4821409137
 11
2161.1816066576
 21
1189.3821409137
  0
LINE
  5
4BA
100
AcDbEntity
  8
0
100
AcDbLine
 62
7
  6
CONTINUOUS
 10
2162.5416066576
 20
523.3589909137
 11
2162.5416066576
 21
835.8052909137
  0
LINE
  5
4BB
100
AcDbEntity
  8
0
100
AcDbLine
 62
7
  6
CONTINUOUS
 10
2162.6816066576
 20
838.8121409137
 11
2162.6816066576
 21
1158.1621409137
  0
LINE
  5
4BC
100
AcDbEntity
  8
0
100
AcDbLine
 62
7
  6
CONTINUOUS
 10
2169.1816066576
 20
494.2821409137
 11
2169.1816066576
 21
1174.4821409137
  0
LINE
  5
4BD
100
AcDbEntity
  8
0
100
AcDbLine
 62
7
  6
CONTINUOUS
 10
2184.1816066576
 20
479.3821409137
 11
2184.1816066576
 21
1189.3821409137
  0
LINE
  5
4BE
100
AcDbEntity
  8
0
100
AcDbLine
 62
7
  6
CONTINUOUS
 10
2169.1816066576
 20
835.8052909137
 11
2162.5416066576
 21
835.8052909137
  0
LINE
  5
4BF
100
AcDbEntity
  8
0
100
AcDbLine
 62
7
  6
CONTINUOUS
 10
2169.1816066576
 20
838.8121409137
 11
2162.6816066576
 21
838.8121409137
  0
LINE
  5
4C0
100
AcDbEntity
  8
0
100
AcDbLine
 62
9
  6
CONTINUOUS
 10
2169.1816066576
 20
917.76037943
 11
2162.6816066576
 21
917.76037943
  0
LINE
  5
4C1
100
AcDbEntity
  8
0
100
AcDbLine
 62
7
  6
CONTINUOUS
 10
2494.1816066576
 20
479.3821409137
 11
2494.1816066576
 21
1189.3821409137
  0
LINE
  5
4C2
100
AcDbEntity
  8
0
100
AcDbLine
 62
9
  6
CONTINUOUS
 10
2169.1816066576
 20
1079.2033427893
 11
2162.6816066576
 21
1079.2033427893
  0
LINE
  5
4C3
100
AcDbEntity
  8
0
100
AcDbLine
 62
7
  6
CONTINUOUS
 10
2169.1816066576
 20
1158.1621409137
 11
2162.6816066576
 21
1158.1621409137
  0
LINE
  5
4C4
100
AcDbEntity
  8
0
100
AcDbLine
 62
7
  6
CONTINUOUS
 10
2121.6816066576
 20
1159.5821409137
 11
2169.1816066576
 21
1159.5821409137
  0
LINE
  5
4C5
100
AcDbEntity
  8
0
100
AcDbLine
 62
7
  6
CONTINUOUS
 10
2184.1816066576
 20
1174.4821409137
 11
2117.6816066576
 21
1174.4821409137
  0
LINE
  5
4C6
100
AcDbEntity
  8
0
100
AcDbLine
 62
7
  6
CONTINUOUS
 10
2494.1816066576
 20
1189.3821409137
 11
2117.6816066576
 21
1189.3821409137
  0
LINE
  5
4C7
100
AcDbEntity
  8
0
100
AcDbLine
 62
7
  6
CONTINUOUS
 10
3688.6706107739
 20
2449.6194101185
 11
3704.9340667412
 21
2459.0115797198
  0
LINE
  5
4C8
100
AcDbEntity
  8
0
100
AcDbLine
 62
7
  6
CONTINUOUS
 10
3704.9340667412
 20
2459.0115797198
 11
3982.8724631133
 21
2551.6819734523
  0
LINE
  5
4C9
100
AcDbEntity
  8
0
100
AcDbLine
 62
7
  6
CONTINUOUS
 10
3946.0574791258
 20
1740.0393545509
 11
3944.6432655635
 21
1740.856064951
  0
LINE
  5
4CA
100
AcDbEntity
  8
0
100
AcDbLine
 62
7
  6
CONTINUOUS
 10
3698.5701057105
 20
1895.1278803604
 11
3944.6432655635
 21
1753.020270741
  0
LINE
  5
4CB
100
AcDbEntity
  8
0
100
AcDbLine
 62
7
  6
CONTINUOUS
 10
3959.4925079684
 20
1744.5312617515
 11
3956.6640808436
 21
1746.1646825518
  0
LINE
  5
4CC
100
AcDbEntity
  8
0
100
AcDbLine
 62
7
  6
CONTINUOUS
 10
3684.927353905
 20
2434.2890211603
 11
3684.927353905
 21
2422.1248153703
  0
LINE
  5
4CD
100
AcDbEntity
  8
0
100
AcDbLine
 62
7
  6
CONTINUOUS
 10
3684.927353905
 20
1866.8165752121
 11
3684.927353905
 21
1854.6523694221
  0
LINE
  5
4CE
100
AcDbEntity
  8
0
100
AcDbLine
 62
7
  6
CONTINUOUS
 10
3686.6173103056
 20
1844.2956623542
 11
3686.6173103056
 21
1856.4598681442
  0
LINE
  5
4CF
100
AcDbEntity
  8
0
100
AcDbLine
 62
7
  6
CONTINUOUS
 10
3686.6173103056
 20
2411.7681083024
 11
3686.6173103056
 21
2423.9323140924
  0
LINE
  5
4D0
100
AcDbEntity
  8
0
100
AcDbLine
 62
7
  6
CONTINUOUS
 10
3688.927353905
 20
1866.8165752121
 11
3688.927353905
 21
1878.9807810021
  0
LINE
  5
4D1
100
AcDbEntity
  8
0
100
AcDbLine
 62
7
  6
CONTINUOUS
 10
3690.3794408747
 20
1857.4141943658
 11
3690.3794408747
 21
1869.5784001558
  0
LINE
  5
4D2
100
AcDbEntity
  8
0
100
AcDbLine
 62
7
  6
CONTINUOUS
 10
3690.3794408747
 20
2400.558228734
 11
3690.3794408747
 21
2409.0792682517
  0
LINE
  5
4D3
100
AcDbEntity
  8
0
100
AcDbLine
 62
7
  6
CONTINUOUS
 10
3697.1558921482
 20
1894.3111699603
 11
3697.1558921482
 21
2395.7215733826
  0
LINE
  5
4D4
100
AcDbEntity
  8
0
100
AcDbLine
 62
7
  6
CONTINUOUS
 10
3704.0996807394
 20
2351.9857916524
 11
3704.0996807394
 21
2220.185377509
  0
LINE
  5
4D5
100
AcDbEntity
  8
0
100
AcDbLine
 62
7
  6
CONTINUOUS
 10
3726.3876864824
 20
2374.8575386848
 11
3726.3876864824
 21
2168.5855275117
  0
LINE
  5
4D6
100
AcDbEntity
  8
0
100
AcDbLine
 62
7
  6
CONTINUOUS
 10
3959.4925079684
 20
2312.0037076997
 11
3943.2290520011
 21
2302.6115380984
  0
LINE
  5
4D7
100
AcDbEntity
  8
0
100
AcDbLine
 62
7
  6
CONTINUOUS
 10
3959.4925079684
 20
2299.8395019097
 11
3943.2290520011
 21
2290.4473323084
  0
LINE
  5
4D8
100
AcDbEntity
  8
0
100
AcDbLine
 62
7
  6
CONTINUOUS
 10
3944.6432655635
 20
2284.0000993192
 11
3937.3524635173
 21
2279.789650477
  0
LINE
  5
4D9
100
AcDbEntity
  8
0
100
AcDbLine
 62
7
  6
CONTINUOUS
 10
4119.9603159319
 20
2472.5135380018
 11
3959.4925079684
 21
2312.0037076997
  0
LINE
  5
4DA
100
AcDbEntity
  8
0
100
AcDbLine
 62
7
  6
CONTINUOUS
 10
3898.8816481374
 20
2239.3008155646
 11
3879.9123773613
 21
2220.505148791
  0
LINE
  5
4DB
100
AcDbEntity
  8
0
100
AcDbLine
 62
9
  6
CONTINUOUS
 10
3934.5104253891
 20
2224.2314104409
 11
3929.9142313113
 21
2221.5771016405
  0
LINE
  5
4DC
100
AcDbEntity
  8
0
100
AcDbLine
 62
7
  6
CONTINUOUS
 10
3726.3876864824
 20
2168.5855275117
 11
3879.9123773613
 21
2220.505148791
  0
LINE
  5
4DD
100
AcDbEntity
  8
0
100
AcDbLine
 62
7
  6
CONTINUOUS
 10
3759.9315866837
 20
2123.489438216
 11
3874.0890438568
 21
2057.5633397793
  0
LINE
  5
4DE
100
AcDbEntity
  8
0
100
AcDbLine
 62
7
  6
CONTINUOUS
 10
3726.3876864824
 20
2168.5855275117
 11
3907.6332966362
 21
2063.9159226334
  0
LINE
  5
4DF
100
AcDbEntity
  8
0
100
AcDbLine
 62
7
  6
CONTINUOUS
 10
3743.4797706036
 20
2098.4712307951
 11
3738.7845815765
 21
2095.7597522667
  0
LINE
  5
4E0
100
AcDbEntity
  8
0
100
AcDbLine
 62
7
  6
CONTINUOUS
 10
3907.6332966362
 20
2063.9159226334
 11
3898.8816481374
 21
2209.5503671812
  0
LINE
  5
4E1
100
AcDbEntity
  8
0
100
AcDbLine
 62
7
  6
CONTINUOUS
 10
3879.9123773613
 20
2220.505148791
 11
3879.9123773613
 21
2288.8439956908
  0
LINE
  5
4E2
100
AcDbEntity
  8
0
100
AcDbLine
 62
7
  6
CONTINUOUS
 10
3898.7493446616
 20
1721.7891023375
 11
3898.7493446616
 21
1733.9533081275
  0
LINE
  5
4E3
100
AcDbEntity
  8
0
100
AcDbLine
 62
7
  6
CONTINUOUS
 10
3898.7493446616
 20
2289.2615482857
 11
3898.7493446616
 21
2301.4257540757
  0
LINE
  5
4E4
100
AcDbEntity
  8
0
100
AcDbLine
 62
7
  6
CONTINUOUS
 10
3898.8816481374
 20
2278.2270076119
 11
3898.8816481374
 21
2209.5503671812
  0
LINE
  5
4E5
100
AcDbEntity
  8
0
100
AcDbLine
 62
7
  6
CONTINUOUS
 10
3900.4018534154
 20
1736.1259440321
 11
3900.4018534154
 21
1748.2901498221
  0
LINE
  5
4E6
100
AcDbEntity
  8
0
100
AcDbLine
 62
7
  6
CONTINUOUS
 10
3900.4018534154
 20
2279.2699784003
 11
3900.4018534154
 21
2289.1562449333
  0
LINE
  5
4E7
100
AcDbEntity
  8
0
100
AcDbLine
 62
7
  6
CONTINUOUS
 10
3907.6332966362
 20
2063.9159226334
 11
3907.6332966362
 21
2273.1729178074
  0
LINE
  5
4E8
100
AcDbEntity
  8
0
100
AcDbLine
 62
7
  6
CONTINUOUS
 10
3929.9142313113
 20
2089.7767372345
 11
3929.9142313113
 21
2221.5771016405
  0
LINE
  5
4E9
100
AcDbEntity
  8
0
100
AcDbLine
 62
7
  6
CONTINUOUS
 10
3934.5104253891
 20
2092.4310460349
 11
3934.5104253891
 21
2224.2314104409
  0
LINE
  5
4EA
100
AcDbEntity
  8
0
100
AcDbLine
 62
7
  6
CONTINUOUS
 10
3937.3524635173
 20
1736.6456161089
 11
3937.3524635173
 21
1748.8098218989
  0
LINE
  5
4EB
100
AcDbEntity
  8
0
100
AcDbLine
 62
7
  6
CONTINUOUS
 10
3937.3524635173
 20
2279.789650477
 11
3937.3524635173
 21
2289.7517583481
  0
LINE
  5
4EC
100
AcDbEntity
  8
0
100
AcDbLine
 62
7
  6
CONTINUOUS
 10
3943.2290520011
 20
1722.9748863603
 11
3943.2290520011
 21
1735.1390921503
  0
LINE
  5
4ED
100
AcDbEntity
  8
0
100
AcDbLine
 62
7
  6
CONTINUOUS
 10
3943.2290520011
 20
2290.4473323084
 11
3943.2290520011
 21
2302.6115380984
  0
LINE
  5
4EE
100
AcDbEntity
  8
0
100
AcDbLine
 62
7
  6
CONTINUOUS
 10
3944.6432655635
 20
1740.856064951
 11
3944.6432655635
 21
1753.020270741
  0
LINE
  5
4EF
100
AcDbEntity
  8
0
100
AcDbLine
 62
7
  6
CONTINUOUS
 10
3944.6432655635
 20
2284.0000993192
 11
3944.6432655635
 21
2291.2640427086
  0
LINE
  5
4F0
100
AcDbEntity
  8
0
100
AcDbLine
 62
7
  6
CONTINUOUS
 10
3946.0574791258
 20
1740.0393545509
 11
3946.0574791258
 21
2292.0807531087
  0
LINE
  5
4F1
100
AcDbEntity
  8
0
100
AcDbLine
 62
7
  6
CONTINUOUS
 10
3956.6640808436
 20
1746.1646825518
 11
3956.6640808436
 21
2298.2060811095
  0
LINE
  5
4F2
100
AcDbEntity
  8
0
100
AcDbLine
 62
7
  6
CONTINUOUS
 10
3959.4925079684
 20
1732.3670559616
 11
3959.4925079684
 21
2312.0037076997
  0
LINE
  5
4F3
100
AcDbEntity
  8
0
100
AcDbLine
 62
9
  6
CONTINUOUS
 10
3934.5104253891
 20
2092.4310460349
 11
3929.9142313113
 21
2089.7767372345
  0
LINE
  5
4F4
100
AcDbEntity
  8
0
100
AcDbLine
 62
7
  6
CONTINUOUS
 10
3898.8816481374
 20
2209.5503671812
 11
3879.9123773613
 21
2220.505148791
  0
LINE
  5
4F5
100
AcDbEntity
  8
0
100
AcDbLine
 62
7
  6
CONTINUOUS
 10
3920.5602091943
 20
2052.1553378633
 11
3915.9640151166
 21
2049.501029063
  0
LINE
  5
4F6
100
AcDbEntity
  8
0
100
AcDbLine
 62
7
  6
CONTINUOUS
 10
3691.2793036643
 20
1890.9174315183
 11
3698.5701057105
 21
1895.1278803604
  0
LINE
  5
4F7
100
AcDbEntity
  8
0
100
AcDbLine
 62
7
  6
CONTINUOUS
 10
3688.6706107739
 20
1882.1469641703
 11
3689.2035174398
 21
1882.4547185491
  0
LINE
  5
4F8
100
AcDbEntity
  8
0
100
AcDbLine
 62
7
  6
CONTINUOUS
 10
3907.6332966362
 20
2273.1729178074
 11
3882.9766435986
 21
2287.4121709892
  0
LINE
  5
4F9
100
AcDbEntity
  8
0
100
AcDbLine
 62
7
  6
CONTINUOUS
 10
4119.9603159319
 20
1892.8768862636
 11
4119.9603159319
 21
2472.5135380018
  0
LINE
  5
4FA
100
AcDbEntity
  8
0
100
AcDbLine
 62
7
  6
CONTINUOUS
 10
3899.7336006704
 20
1827.9025131407
 11
3895.0384116433
 21
1825.1910346123
  0
LINE
  5
4FB
100
AcDbEntity
  8
0
100
AcDbLine
 62
7
  6
CONTINUOUS
 10
4119.9603159319
 20
1892.8768862636
 11
3959.4925079684
 21
1732.3670559616
  0
LINE
  5
4FC
100
AcDbEntity
  8
0
100
AcDbLine
 62
7
  6
CONTINUOUS
 10
3944.6432655635
 20
1753.020270741
 11
3937.3524635173
 21
1748.8098218989
  0
LINE
  5
4FD
100
AcDbEntity
  8
0
100
AcDbLine
 62
7
  6
CONTINUOUS
 10
3944.6432655635
 20
1740.856064951
 11
3937.3524635173
 21
1736.6456161089
  0
LINE
  5
4FE
100
AcDbEntity
  8
0
100
AcDbLine
 62
7
  6
CONTINUOUS
 10
3956.6640808436
 20
1746.1646825518
 11
3946.0574791258
 21
1740.0393545509
  0
LINE
  5
4FF
100
AcDbEntity
  8
0
100
AcDbLine
 62
7
  6
CONTINUOUS
 10
3959.4925079684
 20
1744.5312617515
 11
3943.2290520011
 21
1735.1390921503
  0
LINE
  5
500
100
AcDbEntity
  8
0
100
AcDbLine
 62
7
  6
CONTINUOUS
 10
3959.4925079684
 20
1732.3670559616
 11
3943.2290520011
 21
1722.9748863603
  0
LINE
  5
501
100
AcDbEntity
  8
0
100
AcDbLine
 62
7
  6
CONTINUOUS
 10
3982.8724631133
 20
2551.6819734523
 11
4119.9603159319
 21
2472.5135380018
  0
LINE
  5
502
100
AcDbEntity
  8
0
100
AcDbLine
 62
7
  6
CONTINUOUS
 10
1185.1876358696
 20
479.3821409137
 11
808.6876358696
 21
479.3821409137
  0
LINE
  5
503
100
AcDbEntity
  8
0
100
AcDbLine
 62
7
  6
CONTINUOUS
 10
1185.1876358696
 20
494.2821409137
 11
1118.6876358696
 21
494.2821409137
  0
LINE
  5
504
100
AcDbEntity
  8
0
100
AcDbLine
 62
7
  6
CONTINUOUS
 10
1133.6876358696
 20
509.1821409137
 11
1181.1876358696
 21
509.1821409137
  0
LINE
  5
505
100
AcDbEntity
  8
0
100
AcDbLine
 62
7
  6
CONTINUOUS
 10
1133.6876358696
 20
523.3589909137
 11
1140.3276358696
 21
523.3589909137
  0
LINE
  5
506
100
AcDbEntity
  8
0
100
AcDbLine
 62
7
  6
CONTINUOUS
 10
808.6876358696
 20
479.3821409137
 11
808.6876358696
 21
1189.3821409137
  0
LINE
  5
507
100
AcDbEntity
  8
3_ALL_AXES
100
AcDbLine
 62
7
  6
CENTER
 10
1026.2886322866
 20
833.3921409137
 11
982.3210997649
 21
833.3921409137
  0
LINE
  5
508
100
AcDbEntity
  8
0
100
AcDbLine
 62
7
  6
CONTINUOUS
 10
1133.6876358696
 20
835.8052909137
 11
1140.3276358696
 21
835.8052909137
  0
LINE
  5
509
100
AcDbEntity
  8
3_ALL_AXES
100
AcDbLine
 62
7
  6
CENTER
 10
1003.9501358696
 20
811.4039390173
 11
1003.9501358696
 21
855.371471539
  0
LINE
  5
50A
100
AcDbEntity
  8
0
100
AcDbLine
 62
7
  6
CONTINUOUS
 10
1133.6876358696
 20
838.8121409137
 11
1140.1876358696
 21
838.8121409137
  0
LINE
  5
50B
100
AcDbEntity
  8
0
100
AcDbLine
 62
9
  6
CONTINUOUS
 10
1133.6876358696
 20
917.7608781339
 11
1140.1876358696
 21
917.7608781339
  0
LINE
  5
50C
100
AcDbEntity
  8
0
100
AcDbLine
 62
7
  6
CONTINUOUS
 10
1118.6876358696
 20
479.3821409137
 11
1118.6876358696
 21
1189.3821409137
  0
LINE
  5
50D
100
AcDbEntity
  8
0
100
AcDbLine
 62
7
  6
CONTINUOUS
 10
1133.6876358696
 20
494.2821409137
 11
1133.6876358696
 21
1174.4821409137
  0
LINE
  5
50E
100
AcDbEntity
  8
0
100
AcDbLine
 62
7
  6
CONTINUOUS
 10
1140.1876358696
 20
1158.1621409137
 11
1140.1876358696
 21
838.8121409137
  0
LINE
  5
50F
100
AcDbEntity
  8
0
100
AcDbLine
 62
7
  6
CONTINUOUS
 10
1140.3276358696
 20
835.8052909137
 11
1140.3276358696
 21
523.3589909137
  0
LINE
  5
510
100
AcDbEntity
  8
0
100
AcDbLine
 62
7
  6
CONTINUOUS
 10
1141.6876358696
 20
479.3821409137
 11
1141.6876358696
 21
494.2821409137
  0
LINE
  5
511
100
AcDbEntity
  8
0
100
AcDbLine
 62
7
  6
CONTINUOUS
 10
1141.6876358696
 20
1174.4821409137
 11
1141.6876358696
 21
1189.3821409137
  0
LINE
  5
512
100
AcDbEntity
  8
0
100
AcDbLine
 62
7
  6
CONTINUOUS
 10
1143.9983870039
 20
494.2821409137
 11
1143.9983870039
 21
509.1821409137
  0
LINE
  5
513
100
AcDbEntity
  8
0
100
AcDbLine
 62
7
  6
CONTINUOUS
 10
1143.9983870039
 20
1159.5821409137
 11
1143.9983870039
 21
1174.4821409137
  0
LINE
  5
514
100
AcDbEntity
  8
0
100
AcDbLine
 62
7
  6
CONTINUOUS
 10
1170.7627130566
 20
494.2821409137
 11
1170.7627130566
 21
509.1821409137
  0
LINE
  5
515
100
AcDbEntity
  8
0
100
AcDbLine
 62
7
  6
CONTINUOUS
 10
1170.7627130566
 20
1159.5821409137
 11
1170.7627130566
 21
1174.4821409137
  0
LINE
  5
516
100
AcDbEntity
  8
0
100
AcDbLine
 62
7
  6
CONTINUOUS
 10
1174.5914412395
 20
479.3821409137
 11
1174.5914412395
 21
494.2821409137
  0
LINE
  5
517
100
AcDbEntity
  8
0
100
AcDbLine
 62
7
  6
CONTINUOUS
 10
1174.5914412395
 20
1174.4821409137
 11
1174.5914412395
 21
1189.3821409137
  0
LINE
  5
518
100
AcDbEntity
  8
0
100
AcDbLine
 62
7
  6
CONTINUOUS
 10
1181.1876358696
 20
494.2821409137
 11
1181.1876358696
 21
509.1821409137
  0
LINE
  5
519
100
AcDbEntity
  8
0
100
AcDbLine
 62
7
  6
CONTINUOUS
 10
1181.1876358696
 20
1159.5821409137
 11
1181.1876358696
 21
1174.4821409137
  0
LINE
  5
51A
100
AcDbEntity
  8
0
100
AcDbLine
 62
7
  6
CONTINUOUS
 10
1185.1876358696
 20
1189.3821409137
 11
1185.1876358696
 21
1174.4821409137
  0
LINE
  5
51B
100
AcDbEntity
  8
0
100
AcDbLine
 62
7
  6
CONTINUOUS
 10
1185.1876358696
 20
494.2821409137
 11
1185.1876358696
 21
479.3821409137
  0
LINE
  5
51C
100
AcDbEntity
  8
0
100
AcDbLine
 62
9
  6
CONTINUOUS
 10
1133.6876358696
 20
1079.2039024168
 11
1140.1876358696
 21
1079.2039024168
  0
LINE
  5
51D
100
AcDbEntity
  8
0
100
AcDbLine
 62
7
  6
CONTINUOUS
 10
1133.6876358696
 20
1158.1621409137
 11
1140.1876358696
 21
1158.1621409137
  0
LINE
  5
51E
100
AcDbEntity
  8
0
100
AcDbLine
 62
7
  6
CONTINUOUS
 10
1133.6876358696
 20
1159.5821409137
 11
1181.1876358696
 21
1159.5821409137
  0
LINE
  5
51F
100
AcDbEntity
  8
0
100
AcDbLine
 62
7
  6
CONTINUOUS
 10
1185.1876358696
 20
1174.4821409137
 11
1118.6876358696
 21
1174.4821409137
  0
LINE
  5
520
100
AcDbEntity
  8
0
100
AcDbLine
 62
7
  6
CONTINUOUS
 10
1185.1876358696
 20
1189.3821409137
 11
808.6876358696
 21
1189.3821409137
  0
LWPOLYLINE
  5
521
100
AcDbEntity
  8
0
100
AcDbPolyline
 62
2
  6
CONTINUOUS
 90
5
 70
0
 10
3110.9703235491
 20
408.2249264788
 10
3151.5064573781
 20
408.2249264788
 10
3151.5064573781
 20
453.9449264788
 10
3110.9703235491
 20
453.9449264788
 10
3110.9703235491
 20
408.2249264788
  0
LINE
  5
522
100
AcDbEntity
  8
0
100
AcDbLine
 62
7
  6
CONTINUOUS
 10
3213.6324715108
 20
479.3821409137
 11
2853.6324715108
 21
479.3821409137
  0
LINE
  5
523
100
AcDbEntity
  8
3_AXES_OTHER
100
AcDbLine
 62
7
  6
CENTER
 10
3033.6324715108
 20
519.6821409137
 11
2998.2324715108
 21
519.6821409137
  0
LINE
  5
524
100
AcDbEntity
  8
3_AXES_OTHER
100
AcDbLine
 62
7
  6
CENTER
 10
3033.6324715108
 20
519.6821409137
 11
3069.0324715108
 21
519.6821409137
  0
LINE
  5
525
100
AcDbEntity
  8
0
100
AcDbLine
 62
7
  6
CONTINUOUS
 10
2984.1324715108
 20
541.8821409137
 11
3083.1324715108
 21
541.8821409137
  0
LINE
  5
526
100
AcDbEntity
  8
0
100
AcDbLine
 62
7
  6
CONTINUOUS
 10
3006.0202287605
 20
553.4730523118
 11
3061.2447142611
 21
553.4730523118
  0
LINE
  5
527
100
AcDbEntity
  8
0
100
AcDbLine
 62
7
  6
CONTINUOUS
 10
3009.167378982
 20
557.1969741542
 11
3058.0975640396
 21
557.1969741542
  0
LINE
  5
528
100
AcDbEntity
  8
0
100
AcDbLine
 62
7
  6
CONTINUOUS
 10
3058.0975640396
 20
576.6472334425
 11
3009.167378982
 21
576.6472334425
  0
LINE
  5
529
100
AcDbEntity
  8
0
100
AcDbLine
 62
7
  6
CONTINUOUS
 10
2853.6324715108
 20
479.3821409137
 11
2853.6324715108
 21
1189.3821409137
  0
LINE
  5
52A
100
AcDbEntity
  8
0
100
AcDbLine
 62
7
  6
CONTINUOUS
 10
3061.2447142611
 20
685.2912295155
 11
3006.0202287605
 21
685.2912295155
  0
LINE
  5
52B
100
AcDbEntity
  8
0
100
AcDbLine
 62
7
  6
CONTINUOUS
 10
3083.1324715108
 20
696.8821409137
 11
2984.1324715108
 21
696.8821409137
  0
LINE
  5
52C
100
AcDbEntity
  8
0
100
AcDbLine
 62
7
  6
CONTINUOUS
 10
2936.6967211644
 20
479.3821409137
 11
2936.6967211644
 21
1189.3821409137
  0
LINE
  5
52D
100
AcDbEntity
  8
0
100
AcDbLine
 62
7
  6
CONTINUOUS
 10
2973.1324715108
 20
685.8821409137
 11
2973.1324715108
 21
552.8821409137
  0
LINE
  5
52E
100
AcDbEntity
  8
3_AXES_OTHER
100
AcDbLine
 62
7
  6
CENTER
 10
3059.0324715108
 20
780.4321409137
 11
3027.6324715108
 21
780.4321409137
  0
LINE
  5
52F
100
AcDbEntity
  8
3_AXES_OTHER
100
AcDbLine
 62
7
  6
CENTER
 10
3008.2324715108
 20
780.4321409137
 11
2976.8324715108
 21
780.4321409137
  0
LINE
  5
530
100
AcDbEntity
  8
3_AXES_OTHER
100
AcDbLine
 62
7
  6
CENTER
 10
3008.2324715108
 20
780.4321409137
 11
3027.6324715108
 21
780.4321409137
  0
LINE
  5
531
100
AcDbEntity
  8
3_AXES_OTHER
100
AcDbLine
 62
7
  6
CENTER
 10
3059.0324715108
 20
780.4321409137
 11
3090.4324715108
 21
780.4321409137
  0
LINE
  5
532
100
AcDbEntity
  8
0
100
AcDbLine
 62
7
  6
CONTINUOUS
 10
2996.2233826214
 20
612.4943828611
 11
2996.2233829806
 21
563.2698979774
  0
LINE
  5
533
100
AcDbEntity
  8
0
100
AcDbLine
 62
7
  6
CONTINUOUS
 10
2996.2233829806
 20
675.49438385
 11
2996.2233826214
 21
626.2698989662
  0
LINE
  5
534
100
AcDbEntity
  8
3_AXES_OTHER
100
AcDbLine
 62
7
  6
CENTER
 10
3008.2324715108
 20
888.3321409137
 11
3008.2324715108
 21
807.95333734
  0
LINE
  5
535
100
AcDbEntity
  8
3_AXES_OTHER
100
AcDbLine
 62
7
  6
CENTER
 10
3008.2324715108
 20
780.4321409137
 11
3008.2324715108
 21
749.0321409137
  0
LINE
  5
536
100
AcDbEntity
  8
3_AXES_OTHER
100
AcDbLine
 62
7
  6
CENTER
 10
3008.2324715108
 20
780.4321409137
 11
3008.2324715108
 21
807.95333734
  0
LINE
  5
537
100
AcDbEntity
  8
3_AXES_OTHER
100
AcDbLine
 62
7
  6
CENTER
 10
3008.2324715108
 20
888.3321409137
 11
3008.2324715108
 21
919.7321409137
  0
LINE
  5
538
100
AcDbEntity
  8
0
100
AcDbLine
 62
7
  6
CONTINUOUS
 10
3009.167378982
 20
576.6472334425
 11
3009.167378982
 21
557.1969741542
  0
LINE
  5
539
100
AcDbEntity
  8
3_AXES_OTHER
100
AcDbLine
 62
7
  6
CENTER
 10
3033.6324715108
 20
1149.0821409137
 11
3033.6324715108
 21
547.1722970018
  0
LINE
  5
53A
100
AcDbEntity
  8
3_AXES_OTHER
100
AcDbLine
 62
7
  6
CENTER
 10
3033.6324715108
 20
519.6821409137
 11
3033.6324715108
 21
484.2821409137
  0
LINE
  5
53B
100
AcDbEntity
  8
3_AXES_OTHER
100
AcDbLine
 62
7
  6
CENTER
 10
3033.6324715108
 20
519.6821409137
 11
3033.6324715108
 21
547.1722970018
  0
LINE
  5
53C
100
AcDbEntity
  8
3_AXES_OTHER
100
AcDbLine
 62
7
  6
CENTER
 10
3033.6324715108
 20
1149.0821409137
 11
3033.6324715108
 21
1315.9768121342
  0
LINE
  5
53D
100
AcDbEntity
  8
0
100
AcDbLine
 62
7
  6
CONTINUOUS
 10
3058.0975640396
 20
557.1969741542
 11
3058.0975640396
 21
576.6472334425
  0
LINE
  5
53E
100
AcDbEntity
  8
3_AXES_OTHER
100
AcDbLine
 62
7
  6
CENTER
 10
3059.0324715108
 20
888.3321409137
 11
3059.0324715108
 21
806.5190124703
  0
LINE
  5
53F
100
AcDbEntity
  8
3_AXES_OTHER
100
AcDbLine
 62
7
  6
CENTER
 10
3059.0324715108
 20
780.4321409137
 11
3059.0324715108
 21
749.0321409137
  0
LINE
  5
540
100
AcDbEntity
  8
3_AXES_OTHER
100
AcDbLine
 62
7
  6
CENTER
 10
3059.0324715108
 20
780.4321409137
 11
3059.0324715108
 21
806.5190124703
  0
LINE
  5
541
100
AcDbEntity
  8
3_AXES_OTHER
100
AcDbLine
 62
7
  6
CENTER
 10
3059.0324715108
 20
888.3321409137
 11
3059.0324715108
 21
919.7321409137
  0
LINE
  5
542
100
AcDbEntity
  8
0
100
AcDbLine
 62
7
  6
CONTINUOUS
 10
3071.0415604002
 20
626.2698989662
 11
3071.041560041
 21
675.49438385
  0
LINE
  5
543
100
AcDbEntity
  8
0
100
AcDbLine
 62
7
  6
CONTINUOUS
 10
3071.041560041
 20
563.2698979774
 11
3071.0415604002
 21
612.4943828611
  0
LINE
  5
544
100
AcDbEntity
  8
3_AXES_OTHER
100
AcDbLine
 62
7
  6
CENTER
 10
3059.0324715108
 20
888.3321409137
 11
3027.6324715108
 21
888.3321409137
  0
LINE
  5
545
100
AcDbEntity
  8
3_AXES_OTHER
100
AcDbLine
 62
7
  6
CENTER
 10
3008.2324715108
 20
888.3321409137
 11
2976.8324715108
 21
888.3321409137
  0
LINE
  5
546
100
AcDbEntity
  8
3_AXES_OTHER
100
AcDbLine
 62
7
  6
CENTER
 10
3008.2324715108
 20
888.3321409137
 11
3027.6324715108
 21
888.3321409137
  0
LINE
  5
547
100
AcDbEntity
  8
3_AXES_OTHER
100
AcDbLine
 62
7
  6
CENTER
 10
3059.0324715108
 20
888.3321409137
 11
3090.4324715108
 21
888.3321409137
  0
LINE
  5
548
100
AcDbEntity
  8
0
100
AcDbLine
 62
7
  6
CONTINUOUS
 10
3094.1324715108
 20
552.8821409137
 11
3094.1324715108
 21
685.8821409137
  0
LINE
  5
549
100
AcDbEntity
  8
0
100
AcDbLine
 62
7
  6
CONTINUOUS
 10
3130.5682218571
 20
479.3821409137
 11
3130.5682218571
 21
1189.3821409137
  0
LINE
  5
54A
100
AcDbEntity
  8
0
100
AcDbLine
 62
7
  6
CONTINUOUS
 10
3213.6324715108
 20
479.3821409137
 11
3213.6324715108
 21
1189.3821409137
  0
LWPOLYLINE
  5
54B
100
AcDbEntity
  8
0
100
AcDbPolyline
 62
2
  6
CONTINUOUS
 90
5
 70
0
 10
3278.8694554574
 20
1028.9597822829
 10
3319.4055892864
 20
1028.9597822829
 10
3319.4055892864
 20
1074.6797822829
 10
3278.8694554574
 20
1074.6797822829
 10
3278.8694554574
 20
1028.9597822829
  0
LINE
  5
54C
100
AcDbEntity
  8
3_AXES_OTHER
100
AcDbLine
 62
7
  6
CENTER
 10
3033.6324715108
 20
1149.0821409137
 11
2998.2324715108
 21
1149.0821409137
  0
LINE
  5
54D
100
AcDbEntity
  8
3_AXES_OTHER
100
AcDbLine
 62
7
  6
CENTER
 10
3033.6324715108
 20
1149.0821409137
 11
3069.0324715108
 21
1149.0821409137
  0
LINE
  5
54E
100
AcDbEntity
  8
0
100
AcDbLine
 62
7
  6
CONTINUOUS
 10
3213.6324715108
 20
1189.3821409137
 11
2853.6324715108
 21
1189.3821409137
  0
LINE
  5
54F
100
AcDbEntity
  8
0
100
AcDbLine
 62
7
  6
CONTINUOUS
 10
2401.7072040054
 20
2382.7893611635
 11
2509.7247140698
 21
1979.6625254961
  0
LINE
  5
550
100
AcDbEntity
  8
0
100
AcDbLine
 62
7
  6
CONTINUOUS
 10
2512.1506764822
 20
2028.1778897623
 11
2524.1170088815
 21
1983.5189292681
  0
LINE
  5
551
100
AcDbEntity
  8
0
100
AcDbLine
 62
7
  6
CONTINUOUS
 10
2537.4521948265
 20
1991.3205170397
 11
2530.0250221015
 21
2019.039103006
  0
LINE
  5
552
100
AcDbEntity
  8
3_AXES_OTHER
100
AcDbLine
 62
7
  6
CENTER
 10
2522.4501449893
 20
2087.8778139538
 11
2531.8711582311
 21
2052.7181138769
  0
LINE
  5
553
100
AcDbEntity
  8
3_AXES_OTHER
100
AcDbLine
 62
7
  6
CENTER
 10
2522.4501449893
 20
2087.8778139538
 11
2513.0291317476
 21
2123.0375140308
  0
LINE
  5
554
100
AcDbEntity
  8
0
100
AcDbLine
 62
9
  6
CONTINUOUS
 10
2607.6649790959
 20
2039.842666783
 11
2608.1960765178
 21
2037.8605842207
  0
LINE
  5
555
100
AcDbEntity
  8
0
100
AcDbLine
 62
7
  6
CONTINUOUS
 10
3195.532050735
 20
2163.4240475189
 11
3181.1397559233
 21
2159.5676437468
  0
LINE
  5
556
100
AcDbEntity
  8
0
100
AcDbLine
 62
7
  6
CONTINUOUS
 10
2524.1170088815
 20
1983.5189292681
 11
2509.7247140698
 21
1979.6625254961
  0
LINE
  5
557
100
AcDbEntity
  8
0
100
AcDbLine
 62
7
  6
CONTINUOUS
 10
3180.0826470566
 20
2163.5128277464
 11
3165.6903522449
 21
2159.6564239743
  0
LINE
  5
558
100
AcDbEntity
  8
0
100
AcDbLine
 62
7
  6
CONTINUOUS
 10
2537.4521948265
 20
1991.3205170397
 11
2523.0599000148
 21
1987.4641132676
  0
LINE
  5
559
100
AcDbEntity
  8
0
100
AcDbLine
 62
7
  6
CONTINUOUS
 10
3175.099187519
 20
2182.1113519383
 11
3160.7068927073
 21
2178.2549481663
  0
LINE
  5
55A
100
AcDbEntity
  8
0
100
AcDbLine
 62
7
  6
CONTINUOUS
 10
2532.4687352889
 20
2009.9190412316
 11
2518.0764404772
 21
2006.0626374596
  0
LINE
  5
55B
100
AcDbEntity
  8
0
100
AcDbLine
 62
7
  6
CONTINUOUS
 10
3189.3157183358
 20
2186.6237158696
 11
3174.9234235241
 21
2182.7673120975
  0
LINE
  5
55C
100
AcDbEntity
  8
0
100
AcDbLine
 62
7
  6
CONTINUOUS
 10
2517.9006764822
 20
2006.7185976188
 11
2503.5083816705
 21
2002.8621938468
  0
LINE
  5
55D
100
AcDbEntity
  8
0
100
AcDbLine
 62
7
  6
CONTINUOUS
 10
2764.1380042992
 20
2079.6450978359
 11
2608.1960765178
 21
2037.8605842207
  0
LINE
  5
55E
100
AcDbEntity
  8
0
100
AcDbLine
 62
7
  6
CONTINUOUS
 10
3172.6554743316
 20
2191.2314137127
 11
2515.6327272898
 21
2015.1826992339
  0
LINE
  5
55F
100
AcDbEntity
  8
0
100
AcDbLine
 62
7
  6
CONTINUOUS
 10
3183.5657183358
 20
2208.0830080131
 11
2497.7583816705
 21
2024.3214859903
  0
LINE
  5
560
100
AcDbEntity
  8
3_AXES_OTHER
100
AcDbLine
 62
7
  6
CENTER
 10
3130.4038600557
 20
2250.7785209414
 11
3095.2441599788
 21
2241.3575076996
  0
LINE
  5
561
100
AcDbEntity
  8
3_AXES_OTHER
100
AcDbLine
 62
7
  6
CENTER
 10
2522.4501449893
 20
2087.8778139538
 11
2487.2904449124
 21
2078.4568007121
  0
LINE
  5
562
100
AcDbEntity
  8
3_AXES_OTHER
100
AcDbLine
 62
7
  6
CENTER
 10
2522.4501449893
 20
2087.8778139538
 11
3095.2441599788
 21
2241.3575076996
  0
LINE
  5
563
100
AcDbEntity
  8
3_AXES_OTHER
100
AcDbLine
 62
7
  6
CENTER
 10
3130.4038600557
 20
2250.7785209414
 11
3165.5635601326
 21
2260.1995341831
  0
LINE
  5
564
100
AcDbEntity
  8
0
100
AcDbLine
 62
9
  6
CONTINUOUS
 10
2763.6069068773
 20
2081.6271803982
 11
2764.1380042992
 21
2079.6450978359
  0
LWPOLYLINE
  5
565
100
AcDbEntity
  8
0
100
AcDbPolyline
 62
2
  6
CONTINUOUS
 90
5
 70
0
 10
3213.0907488041
 20
2299.1558958262
 10
3253.6268826331
 20
2299.1558958262
 10
3253.6268826331
 20
2344.8758958262
 10
3213.0907488041
 20
2344.8758958262
 10
3213.0907488041
 20
2299.1558958262
  0
LINE
  5
566
100
AcDbEntity
  8
0
100
AcDbLine
 62
7
  6
CONTINUOUS
 10
3100.5014686821
 20
2518.0830080131
 11
2414.6941320169
 21
2334.3214859903
  0
LINE
  5
567
100
AcDbEntity
  8
0
100
AcDbLine
 62
7
  6
CONTINUOUS
 10
2898.5970530832
 20
2473.745812786
 11
3027.0651879796
 21
2508.1687457846
  0
LINE
  5
568
100
AcDbEntity
  8
0
100
AcDbLine
 62
7
  6
CONTINUOUS
 10
2880.6032662022
 20
2498.3988032899
 11
2887.2350087148
 21
2473.6488032899
  0
LINE
  5
569
100
AcDbEntity
  8
0
100
AcDbLine
 62
9
  6
CONTINUOUS
 10
2890.4915900121
 20
2503.995812786
 11
2891.1665900121
 21
2501.4766784909
  0
LINE
  5
56A
100
AcDbEntity
  8
0
100
AcDbLine
 62
7
  6
CONTINUOUS
 10
2893.9404285917
 20
2493.4076783023
 11
2897.6397676647
 21
2479.6015569271
  0
LINE
  5
56B
100
AcDbEntity
  8
0
100
AcDbLine
 62
9
  6
CONTINUOUS
 10
2896.4991336547
 20
2494.842836936
 11
2900.5732505626
 21
2479.63802564
  0
LINE
  5
56C
100
AcDbEntity
  8
0
100
AcDbLine
 62
7
  6
CONTINUOUS
 10
2900.2355719052
 20
2496.9577434437
 11
2904.8665542655
 21
2479.6746819861
  0
LINE
  5
56D
100
AcDbEntity
  8
0
100
AcDbLine
 62
9
  6
CONTINUOUS
 10
2902.7471906074
 20
2498.3924999874
 11
2907.759058138
 21
2479.6879557223
  0
LINE
  5
56E
100
AcDbEntity
  8
0
100
AcDbLine
 62
7
  6
CONTINUOUS
 10
2907.759058138
 20
2479.6879557223
 11
2955.3062593971
 21
2492.4281898058
  0
LINE
  5
56F
100
AcDbEntity
  8
0
100
AcDbLine
 62
7
  6
CONTINUOUS
 10
2968.6123861734
 20
2495.9935557299
 11
3016.1595873844
 21
2508.733789993
  0
LINE
  5
570
100
AcDbEntity
  8
0
100
AcDbLine
 62
7
  6
CONTINUOUS
 10
3011.1477198538
 20
2527.4383342581
 11
2963.6005185947
 21
2514.6981001746
  0
LINE
  5
571
100
AcDbEntity
  8
0
100
AcDbLine
 62
7
  6
CONTINUOUS
 10
2950.2943918184
 20
2511.1327342505
 11
2902.7471906074
 21
2498.3924999874
  0
LINE
  5
572
100
AcDbEntity
  8
0
100
AcDbLine
 62
7
  6
CONTINUOUS
 10
3019.6347249086
 20
2535.8996114895
 11
2891.1665900121
 21
2501.4766784909
  0
LINE
  5
573
100
AcDbEntity
  8
0
100
AcDbLine
 62
7
  6
CONTINUOUS
 10
3018.9597249086
 20
2538.4187457846
 11
2890.4915900121
 21
2503.995812786
  0
LINE
  5
574
100
AcDbEntity
  8
0
100
AcDbLine
 62
7
  6
CONTINUOUS
 10
3087.5145406706
 20
2566.5508831863
 11
2401.7072040054
 21
2382.7893611635
  0
LINE
  5
575
100
AcDbEntity
  8
0
100
AcDbLine
 62
9
  6
CONTINUOUS
 10
2950.2943918184
 20
2511.1327342505
 11
2955.3062593971
 21
2492.4281898058
  0
LINE
  5
576
100
AcDbEntity
  8
0
100
AcDbLine
 62
7
  6
CONTINUOUS
 10
2953.1868966762
 20
2511.1460081522
 11
2957.8178790355
 21
2493.8629466982
  0
LINE
  5
577
100
AcDbEntity
  8
0
100
AcDbLine
 62
7
  6
CONTINUOUS
 10
2961.0888989564
 20
2513.2633432817
 11
2965.7198813157
 21
2495.9802818277
  0
LINE
  5
578
100
AcDbEntity
  8
0
100
AcDbLine
 62
9
  6
CONTINUOUS
 10
2963.6005185947
 20
2514.6981001746
 11
2968.6123861734
 21
2495.9935557299
  0
LINE
  5
579
100
AcDbEntity
  8
0
100
AcDbLine
 62
9
  6
CONTINUOUS
 10
3011.1477198538
 20
2527.4383342581
 11
3016.1595873844
 21
2508.733789993
  0
LINE
  5
57A
100
AcDbEntity
  8
0
100
AcDbLine
 62
7
  6
CONTINUOUS
 10
3014.0402237264
 20
2527.4516079941
 11
3018.6712060867
 21
2510.1685465365
  0
LINE
  5
57B
100
AcDbEntity
  8
0
100
AcDbLine
 62
9
  6
CONTINUOUS
 10
3018.3335274248
 20
2527.488264357
 11
3022.4076443326
 21
2512.2834530611
  0
LINE
  5
57C
100
AcDbEntity
  8
0
100
AcDbLine
 62
7
  6
CONTINUOUS
 10
3024.9663494001
 20
2513.7186116782
 11
3021.267010327
 21
2527.5247330533
  0
LINE
  5
57D
100
AcDbEntity
  8
0
100
AcDbLine
 62
9
  6
CONTINUOUS
 10
3018.9597249086
 20
2538.4187457846
 11
3019.6347249086
 21
2535.8996114895
  0
LINE
  5
57E
100
AcDbEntity
  8
0
100
AcDbLine
 62
7
  6
CONTINUOUS
 10
3036.9535117896
 20
2513.7657552808
 11
3030.321769277
 21
2538.5157552808
  0
LINE
  5
57F
100
AcDbEntity
  8
3_AXES_OTHER
100
AcDbLine
 62
7
  6
CENTER
 10
3130.4038600557
 20
2250.7785209414
 11
3139.8248732974
 21
2215.6188208644
  0
LINE
  5
580
100
AcDbEntity
  8
3_AXES_OTHER
100
AcDbLine
 62
7
  6
CENTER
 10
3130.4038600557
 20
2250.7785209414
 11
3120.9828468139
 21
2285.9382210183
  0
LINE
  5
581
100
AcDbEntity
  8
0
100
AcDbLine
 62
7
  6
CONTINUOUS
 10
3165.6903522449
 20
2159.6564239743
 11
3158.2631795199
 21
2187.3750099407
  0
LINE
  5
582
100
AcDbEntity
  8
0
100
AcDbLine
 62
7
  6
CONTINUOUS
 10
3169.1734235241
 20
2204.2266042411
 11
3181.1397559233
 21
2159.5676437468
  0
LINE
  5
583
100
AcDbEntity
  8
0
100
AcDbLine
 62
7
  6
CONTINUOUS
 10
3087.5145406706
 20
2566.5508831863
 11
3195.532050735
 21
2163.4240475189
  0
LWPOLYLINE
  5
584
100
AcDbEntity
  8
0
100
AcDbPolyline
 62
7
  6
CONTINUOUS
 90
2
 70
1
 43
2.5
 10
1804.3098002583
 20
94.0467776197
 42
1.0
 10
1829.7098002583
 20
94.0467776197
 42
1.0
  0
LWPOLYLINE
  5
585
100
AcDbEntity
  8
0
100
AcDbPolyline
 62
7
  6
CONTINUOUS
 90
2
 70
1
 43
2.5
 10
1810.6598002583
 20
94.0467776197
 42
1.0
 10
1823.3598002583
 20
94.0467776197
 42
1.0
  0
CIRCLE
  5
586
100
AcDbEntity
  8
0
100
AcDbCircle
 62
7
  6
CONTINUOUS
 10
1628.2031872314
 20
679.5821409137
 40
156.22315
  0
CIRCLE
  5
587
100
AcDbEntity
  8
0
100
AcDbCircle
 62
7
  6
CONTINUOUS
 10
1628.2031872314
 20
679.5821409137
 40
141.2
  0
CIRCLE
  5
588
100
AcDbEntity
  8
0
100
AcDbCircle
 62
7
  6
CONTINUOUS
 10
1628.2031872314
 20
679.5821409137
 40
120.74045
  0
CIRCLE
  5
589
100
AcDbEntity
  8
0
100
AcDbCircle
 62
7
  6
CONTINUOUS
 10
1628.2031872314
 20
679.5821409137
 40
78.67045
  0
ARC
  5
58A
100
AcDbEntity
  8
0
100
AcDbCircle
 62
7
  6
CONTINUOUS
 10
1628.2031872314
 20
998.4821409137
 40
18.25
100
AcDbArc
 50
222.2036850691
 51
317.7963149309
  0
ARC
  5
58B
100
AcDbEntity
  8
0
100
AcDbCircle
 62
7
  6
CONTINUOUS
 10
1628.2031872314
 20
998.4821409137
 40
18.25
100
AcDbArc
 50
42.2036850691
 51
137.7963149309
  0
ARC
  5
58C
100
AcDbEntity
  8
0
100
AcDbCircle
 62
7
  6
CONTINUOUS
 10
1628.2031872314
 20
2840.0557285037
 40
1067.0
100
AcDbArc
 50
261.9185284428
 51
278.0814715572
  0
ARC
  5
58D
100
AcDbEntity
  8
0
100
AcDbCircle
 62
7
  6
CONTINUOUS
 10
1724.1969189098
 20
1863.0201975385
 40
96.0
100
AcDbArc
 50
304.2333912935
 51
331.0527042128
  0
ARC
  5
58E
100
AcDbEntity
  8
0
100
AcDbCircle
 62
7
  6
CONTINUOUS
 10
1532.209455553
 20
1863.0201975385
 40
96.0
100
AcDbArc
 50
208.9472957872
 51
235.7666087065
  0
CIRCLE
  5
58F
100
AcDbEntity
  8
0
100
AcDbCircle
 62
7
  6
CONTINUOUS
 10
1628.2031872314
 20
2109.2557285037
 40
11.0
  0
CIRCLE
  5
590
100
AcDbEntity
  8
0
100
AcDbCircle
 62
7
  6
CONTINUOUS
 10
1755.0413289513
 20
1882.2512414319
 40
11.0
  0
CIRCLE
  5
591
100
AcDbEntity
  8
0
100
AcDbCircle
 62
7
  6
CONTINUOUS
 10
1501.3650455115
 20
1882.2512414319
 40
11.0
  0
CIRCLE
  5
592
100
AcDbEntity
  8
0
100
AcDbCircle
 62
7
  6
CONTINUOUS
 10
1755.0413289513
 20
1882.2512414319
 40
10.0
  0
CIRCLE
  5
593
100
AcDbEntity
  8
0
100
AcDbCircle
 62
7
  6
CONTINUOUS
 10
1501.3650455115
 20
1882.2512414319
 40
10.0
  0
CIRCLE
  5
594
100
AcDbEntity
  8
0
100
AcDbCircle
 62
7
  6
CONTINUOUS
 10
1628.2031872314
 20
2109.2557285037
 40
10.0
  0
CIRCLE
  5
595
100
AcDbEntity
  8
0
100
AcDbCircle
 62
7
  6
CONTINUOUS
 10
1628.2031872314
 20
1954.5557285037
 40
9.0
  0
CIRCLE
  5
596
100
AcDbEntity
  8
0
100
AcDbCircle
 62
7
  6
CONTINUOUS
 10
1628.2031872314
 20
1954.5557285037
 40
8.0
  0
CIRCLE
  5
597
100
AcDbEntity
  8
0
100
AcDbCircle
 62
7
  6
CONTINUOUS
 10
1682.1531872314
 20
1929.1557285037
 40
7.0
  0
CIRCLE
  5
598
100
AcDbEntity
  8
0
100
AcDbCircle
 62
7
  6
CONTINUOUS
 10
1682.1531872314
 20
1979.9557285037
 40
7.0
  0
CIRCLE
  5
599
100
AcDbEntity
  8
0
100
AcDbCircle
 62
7
  6
CONTINUOUS
 10
1574.2531872314
 20
1929.1557285037
 40
7.0
  0
CIRCLE
  5
59A
100
AcDbEntity
  8
0
100
AcDbCircle
 62
7
  6
CONTINUOUS
 10
1574.2531872314
 20
1979.9557285037
 40
7.0
  0
CIRCLE
  5
59B
100
AcDbEntity
  8
0
100
AcDbCircle
 62
7
  6
CONTINUOUS
 10
1682.1531872314
 20
1929.1557285037
 40
6.0
  0
CIRCLE
  5
59C
100
AcDbEntity
  8
0
100
AcDbCircle
 62
7
  6
CONTINUOUS
 10
1574.2531872314
 20
1929.1557285037
 40
6.0
  0
CIRCLE
  5
59D
100
AcDbEntity
  8
0
100
AcDbCircle
 62
7
  6
CONTINUOUS
 10
1682.1531872314
 20
1979.9557285037
 40
6.0
  0
CIRCLE
  5
59E
100
AcDbEntity
  8
0
100
AcDbCircle
 62
7
  6
CONTINUOUS
 10
1574.2531872314
 20
1979.9557285037
 40
6.0
  0
ARC
  5
59F
100
AcDbEntity
  8
0
100
AcDbCircle
 62
7
  6
CONTINUOUS
 10
4196.041660442
 20
3059.8878446871
 40
830.9090339927
100
AcDbArc
 50
232.5141792063
 51
235.4313748104
  0
ARC
  5
5A0
100
AcDbEntity
  8
0
100
AcDbCircle
 62
7
  6
CONTINUOUS
 10
3916.6758999633
 20
2436.0474499054
 40
157.6198596707
100
AcDbArc
 50
264.0737236194
 51
277.5377817801
  0
ARC
  5
5A1
100
AcDbEntity
  8
0
100
AcDbCircle
 62
7
  6
CONTINUOUS
 10
3916.6758999633
 20
1892.9034155373
 40
157.6198596707
100
AcDbArc
 50
264.0737236194
 51
277.5377817801
  0
ARC
  5
5A2
100
AcDbEntity
  8
0
100
AcDbCircle
 62
7
  6
CONTINUOUS
 10
3916.6758999633
 20
1905.0676213273
 40
157.6198596707
100
AcDbArc
 50
264.0737236194
 51
277.5377817801
  0
ARC
  5
5A3
100
AcDbEntity
  8
0
100
AcDbCircle
 62
7
  6
CONTINUOUS
 10
3869.277453677
 20
1883.0194300124
 40
47.9413648708
100
AcDbArc
 50
291.3696537199
 51
292.1151783554
  0
ARC
  5
5A4
100
AcDbEntity
  8
0
100
AcDbCircle
 62
7
  6
CONTINUOUS
 10
3775.9898370747
 20
2044.5533491072
 40
47.9301253486
100
AcDbArc
 50
127.8845263988
 51
128.6052008792
  0
ARC
  5
5A5
100
AcDbEntity
  8
0
100
AcDbCircle
 62
7
  6
CONTINUOUS
 10
3775.7917821458
 20
2044.8109064634
 40
47.6052282521
100
AcDbArc
 50
124.6787269581
 51
127.8867456882
  0
ARC
  5
5A6
100
AcDbEntity
  8
0
100
AcDbCircle
 62
7
  6
CONTINUOUS
 10
3869.432791037
 20
1882.6455452205
 40
47.5365074778
100
AcDbArc
 50
292.1113783686
 51
296.63928926
  0
ARC
  5
5A7
100
AcDbEntity
  8
0
100
AcDbCircle
 62
7
  6
CONTINUOUS
 10
3722.9361627401
 20
1865.0582483948
 40
38.2903676974
100
AcDbArc
 50
153.4939179507
 51
157.9211073137
  0
ARC
  5
5A8
100
AcDbEntity
  8
0
100
AcDbCircle
 62
7
  6
CONTINUOUS
 10
3719.7290845057
 20
1878.9773567326
 40
30.8018037275
100
AcDbArc
 50
174.163098479
 51
179.9904585035
  0
ARC
  5
5A9
100
AcDbEntity
  8
0
100
AcDbCircle
 62
7
  6
CONTINUOUS
 10
2984.1324715108
 20
685.8821409137
 40
11.0
100
AcDbArc
 50
90.0
 51
180.0
  0
ARC
  5
5AA
100
AcDbEntity
  8
0
100
AcDbCircle
 62
7
  6
CONTINUOUS
 10
2984.1324715108
 20
552.8821409137
 40
11.0
100
AcDbArc
 50
180.0
 51
270.0
  0
CIRCLE
  5
5AB
100
AcDbEntity
  8
0
100
AcDbCircle
 62
7
  6
CONTINUOUS
 10
3008.2324715108
 20
780.4321409137
 40
7.0
  0
CIRCLE
  5
5AC
100
AcDbEntity
  8
0
100
AcDbCircle
 62
7
  6
CONTINUOUS
 10
3008.2324715108
 20
780.4321409137
 40
6.0
  0
ARC
  5
5AD
100
AcDbEntity
  8
0
100
AcDbCircle
 62
7
  6
CONTINUOUS
 10
2999.1324715108
 20
556.3821409137
 40
4.0909117943
100
AcDbArc
 50
359.073866907
 51
90.9261331275
  0
ARC
  5
5AE
100
AcDbEntity
  8
0
100
AcDbCircle
 62
7
  6
CONTINUOUS
 10
2999.1324715108
 20
682.3821409137
 40
4.0909117943
100
AcDbArc
 50
269.0738668725
 51
0.926133093
  0
ARC
  5
5AF
100
AcDbEntity
  8
0
100
AcDbCircle
 62
7
  6
CONTINUOUS
 10
2999.1324715108
 20
619.3821409137
 40
4.0909117884
100
AcDbArc
 50
269.0738669819
 51
90.9261330181
  0
CIRCLE
  5
5B0
100
AcDbEntity
  8
0
100
AcDbCircle
 62
7
  6
CONTINUOUS
 10
3021.6324715108
 20
664.8821409137
 40
2.8681748742
  0
ARC
  5
5B1
100
AcDbEntity
  8
0
100
AcDbCircle
 62
7
  6
CONTINUOUS
 10
2999.020229498
 20
612.4952983662
 40
2.7968198622
100
AcDbArc
 50
89.0551677097
 51
180.0187548957
  0
ARC
  5
5B2
100
AcDbEntity
  8
0
100
AcDbCircle
 62
7
  6
CONTINUOUS
 10
2999.0202180386
 20
563.2689659154
 40
2.7967992245
100
AcDbArc
 50
179.9809058412
 51
270.9450727811
  0
ARC
  5
5B3
100
AcDbEntity
  8
0
100
AcDbCircle
 62
7
  6
CONTINUOUS
 10
2999.0202097573
 20
675.4953240537
 40
2.7967890809
100
AcDbArc
 50
89.0547548397
 51
180.0192610078
  0
ARC
  5
5B4
100
AcDbEntity
  8
0
100
AcDbCircle
 62
7
  6
CONTINUOUS
 10
2999.0202025024
 20
626.2689578366
 40
2.7967869436
100
AcDbArc
 50
179.9807199764
 51
270.9453939039
  0
ARC
  5
5B5
100
AcDbEntity
  8
0
100
AcDbCircle
 62
7
  6
CONTINUOUS
 10
3006.0192880544
 20
556.2698719281
 40
2.7967866682
100
AcDbArc
 50
179.0546065463
 51
270.0192713492
  0
ARC
  5
5B6
100
AcDbEntity
  8
0
100
AcDbCircle
 62
7
  6
CONTINUOUS
 10
3006.0192880544
 20
682.4944098992
 40
2.7967866682
100
AcDbArc
 50
89.9807286508
 51
180.9453934537
  0
CIRCLE
  5
5B7
100
AcDbEntity
  8
0
100
AcDbCircle
 62
7
  6
CONTINUOUS
 10
3008.2324715108
 20
888.3321409137
 40
7.0
  0
CIRCLE
  5
5B8
100
AcDbEntity
  8
0
100
AcDbCircle
 62
7
  6
CONTINUOUS
 10
3008.2324715108
 20
888.3321409137
 40
6.0
  0
CIRCLE
  5
5B9
100
AcDbEntity
  8
0
100
AcDbCircle
 62
7
  6
CONTINUOUS
 10
3035.6324715108
 20
641.3821409137
 40
12.5650898701
  0
CIRCLE
  5
5BA
100
AcDbEntity
  8
0
100
AcDbCircle
 62
7
  6
CONTINUOUS
 10
3035.6324715108
 20
601.3821409137
 40
12.5650898701
  0
ARC
  5
5BB
100
AcDbEntity
  8
0
100
AcDbCircle
 62
7
  6
CONTINUOUS
 10
3083.1324715108
 20
552.8821409137
 40
11.0
100
AcDbArc
 50
270.0
 51
360.0
  0
ARC
  5
5BC
100
AcDbEntity
  8
0
100
AcDbCircle
 62
7
  6
CONTINUOUS
 10
3083.1324715108
 20
685.8821409137
 40
11.0
100
AcDbArc
 50
0.0
 51
90.0
  0
CIRCLE
  5
5BD
100
AcDbEntity
  8
0
100
AcDbCircle
 62
7
  6
CONTINUOUS
 10
3033.6324715108
 20
519.6821409137
 40
11.0
  0
CIRCLE
  5
5BE
100
AcDbEntity
  8
0
100
AcDbCircle
 62
7
  6
CONTINUOUS
 10
3033.6324715108
 20
519.6821409137
 40
10.0
  0
CIRCLE
  5
5BF
100
AcDbEntity
  8
0
100
AcDbCircle
 62
7
  6
CONTINUOUS
 10
3059.0324715108
 20
780.4321409137
 40
7.0
  0
CIRCLE
  5
5C0
100
AcDbEntity
  8
0
100
AcDbCircle
 62
7
  6
CONTINUOUS
 10
3059.0324715108
 20
780.4321409137
 40
6.0
  0
ARC
  5
5C1
100
AcDbEntity
  8
0
100
AcDbCircle
 62
7
  6
CONTINUOUS
 10
3068.1324715108
 20
556.3821409137
 40
4.0909117943
100
AcDbArc
 50
89.0738668725
 51
180.926133093
  0
ARC
  5
5C2
100
AcDbEntity
  8
0
100
AcDbCircle
 62
7
  6
CONTINUOUS
 10
3068.1324715108
 20
682.3821409137
 40
4.0909117943
100
AcDbArc
 50
179.073866907
 51
270.9261331275
  0
ARC
  5
5C3
100
AcDbEntity
  8
0
100
AcDbCircle
 62
7
  6
CONTINUOUS
 10
3068.1324715108
 20
619.3821409137
 40
4.0909117884
100
AcDbArc
 50
89.0738669819
 51
270.9261330181
  0
CIRCLE
  5
5C4
100
AcDbEntity
  8
0
100
AcDbCircle
 62
7
  6
CONTINUOUS
 10
3050.6324715108
 20
664.8821409137
 40
2.8681748742
  0
ARC
  5
5C5
100
AcDbEntity
  8
0
100
AcDbCircle
 62
7
  6
CONTINUOUS
 10
3068.2446930092
 20
675.4952834899
 40
2.796839389
100
AcDbArc
 50
359.981570246
 51
90.9444069077
  0
ARC
  5
5C6
100
AcDbEntity
  8
0
100
AcDbCircle
 62
7
  6
CONTINUOUS
 10
3068.2447138266
 20
612.4952983993
 40
2.7968197386
100
AcDbArc
 50
359.9812444231
 51
90.9448385069
  0
ARC
  5
5C7
100
AcDbEntity
  8
0
100
AcDbCircle
 62
7
  6
CONTINUOUS
 10
3061.2456293271
 20
682.4943826707
 40
2.796819671
100
AcDbArc
 50
359.0551729368
 51
90.0187459026
  0
ARC
  5
5C8
100
AcDbEntity
  8
0
100
AcDbCircle
 62
7
  6
CONTINUOUS
 10
3061.2456292898
 20
556.2698985856
 40
2.7968195432
100
AcDbArc
 50
269.9812548579
 51
0.9448387465
  0
ARC
  5
5C9
100
AcDbEntity
  8
0
100
AcDbCircle
 62
7
  6
CONTINUOUS
 10
3068.2447328528
 20
563.2689575745
 40
2.7967890809
100
AcDbArc
 50
269.0547632022
 51
0.0192650856
  0
ARC
  5
5CA
100
AcDbEntity
  8
0
100
AcDbCircle
 62
7
  6
CONTINUOUS
 10
3068.2447405192
 20
626.2689578366
 40
2.7967869436
100
AcDbArc
 50
269.0546060961
 51
0.0192800236
  0
CIRCLE
  5
5CB
100
AcDbEntity
  8
0
100
AcDbCircle
 62
7
  6
CONTINUOUS
 10
3033.6324715108
 20
1149.0821409137
 40
11.0
  0
CIRCLE
  5
5CC
100
AcDbEntity
  8
0
100
AcDbCircle
 62
7
  6
CONTINUOUS
 10
3033.6324715108
 20
1149.0821409137
 40
10.0
  0
CIRCLE
  5
5CD
100
AcDbEntity
  8
0
100
AcDbCircle
 62
7
  6
CONTINUOUS
 10
3059.0324715108
 20
888.3321409137
 40
7.0
  0
CIRCLE
  5
5CE
100
AcDbEntity
  8
0
100
AcDbCircle
 62
7
  6
CONTINUOUS
 10
3059.0324715108
 20
888.3321409137
 40
6.0
  0
ARC
  5
5CF
100
AcDbEntity
  8
0
100
AcDbCircle
 62
7
  6
CONTINUOUS
 10
2840.6629559298
 20
2714.3001376756
 40
592.4714774163
100
AcDbArc
 50
281.2242089559
 51
288.7757910441
  0
ARC
  5
5D0
100
AcDbEntity
  8
0
100
AcDbCircle
 62
7
  6
CONTINUOUS
 10
2807.2581637303
 20
2449.3142297157
 40
22.7783973604
100
AcDbArc
 50
105.0001228221
 51
105.2757604339
  0
ARC
  5
5D1
100
AcDbEntity
  8
0
100
AcDbCircle
 62
7
  6
CONTINUOUS
 10
2703.034767068
 20
2421.3876547704
 40
22.7783973384
100
AcDbArc
 50
105.0001228219
 51
105.275760434
  0
ARC
  5
5D2
100
AcDbEntity
  8
0
100
AcDbCircle
 62
7
  6
CONTINUOUS
 10
2706.4377217749
 20
2408.6876549069
 40
22.7783971969
100
AcDbArc
 50
105.0001228209
 51
105.2757604348
  0
ARC
  5
5D3
100
AcDbEntity
  8
0
100
AcDbCircle
 62
7
  6
CONTINUOUS
 10
2810.6611184315
 20
2436.6142298735
 40
22.7783971969
100
AcDbArc
 50
105.0001228209
 51
105.2757604348
  0
CIRCLE
  5
5D4
100
AcDbEntity
  8
0
100
AcDbCircle
 62
7
  6
CONTINUOUS
 10
3130.4038600557
 20
2250.7785209414
 40
11.0
  0
CIRCLE
  5
5D5
100
AcDbEntity
  8
0
100
AcDbCircle
 62
7
  6
CONTINUOUS
 10
2522.4501449893
 20
2087.8778139538
 40
11.0
  0
CIRCLE
  5
5D6
100
AcDbEntity
  8
0
100
AcDbCircle
 62
7
  6
CONTINUOUS
 10
2522.4501449893
 20
2087.8778139538
 40
10.0
  0
CIRCLE
  5
5D7
100
AcDbEntity
  8
0
100
AcDbCircle
 62
7
  6
CONTINUOUS
 10
3130.4038600557
 20
2250.7785209414
 40
10.0
  0
SPLINE
  5
5D8
100
AcDbEntity
  8
0
100
AcDbSpline
 62
7
  6
CONTINUOUS
 70
0
 71
3
 72
30
 73
26
 74
0
 42
0.0000001
 43
0.0000001
 44
0.0000000001
 40
0.0
 40
0.0
 40
0.0
 40
0.0
 40
0.0341282388
 40
0.0784337672
 40
0.1289223938
 40
0.1816203556
 40
0.2320458146
 40
0.2765094785
 40
0.3169904173
 40
0.3554589949
 40
0.3936422018
 40
0.4321406611
 40
0.4706926094
 40
0.5091344451
 40
0.5475529493
 40
0.5860644299
 40
0.6246553461
 40
0.6630371279
 40
0.7012390311
 40
0.7404050866
 40
0.7822564518
 40
0.8283937094
 40
0.8799049136
 40
0.9369783728
 40
1.0
 40
1.0
 40
1.0
 40
1.0
 10
1547.4819244295
 20
1158.1621409137
 30
0.0
 10
1546.0416644278
 20
1158.1621409132
 30
0.0
 10
1542.7297000063
 20
1158.1168823111
 30
0.0
 10
1537.2835105478
 20
1157.8562004777
 30
0.0
 10
1531.0603999214
 20
1157.2693078517
 30
0.0
 10
1524.6080374038
 20
1156.284573705
 30
0.0
 10
1518.4667460178
 20
1154.9269753833
 30
0.0
 10
1512.9182183724
 20
1153.2878510893
 30
0.0
 10
1507.9629786528
 20
1151.437920069
 30
0.0
 10
1503.3859521656
 20
1149.3433026538
 30
0.0
 10
1499.044596735
 20
1146.9427084614
 30
0.0
 10
1494.9009277717
 20
1144.1886857004
 30
0.0
 10
1490.995241259
 20
1141.075813623
 30
0.0
 10
1487.3815167064
 20
1137.6281122187
 30
0.0
 10
1484.091973775
 20
1133.8737068434
 30
0.0
 10
1481.1441274934
 20
1129.8445193892
 30
0.0
 10
1478.5524240897
 20
1125.5904369007
 30
0.0
 10
1476.3170064585
 20
1121.1671291624
 30
0.0
 10
1474.4054464908
 20
1116.581917957
 30
0.0
 10
1472.7636934543
 20
1111.7501839404
 30
0.0
 10
1471.3494612239
 20
1106.5092773463
 30
0.0
 10
1470.1614747859
 20
1100.6895370841
 30
0.0
 10
1469.241905167
 20
1094.1833618853
 30
0.0
 10
1468.6509167512
 20
1086.9380362138
 30
0.0
 10
1468.5232003033
 20
1081.8634372951
 30
0.0
 10
1468.5231872314
 20
1079.2039024168
 30
0.0
  0
SPLINE
  5
5D9
100
AcDbEntity
  8
0
100
AcDbSpline
 62
7
  6
CONTINUOUS
 70
0
 71
3
 72
30
 73
26
 74
0
 42
0.0000001
 43
0.0000001
 44
0.0000000001
 40
0.0
 40
0.0
 40
0.0
 40
0.0
 40
0.0341282386
 40
0.0784337665
 40
0.1289223927
 40
0.1816203542
 40
0.2320458135
 40
0.2765094774
 40
0.3169904163
 40
0.355458994
 40
0.3936422009
 40
0.4321406601
 40
0.4706926085
 40
0.5091344442
 40
0.5475529484
 40
0.586064429
 40
0.6246553453
 40
0.6630371271
 40
0.7012390303
 40
0.7404050858
 40
0.7822564509
 40
0.8283937086
 40
0.8799049128
 40
0.936978372
 40
1.0
 40
1.0
 40
1.0
 40
1.0
 10
1468.5231872314
 20
917.7608781339
 30
0.0
 10
1468.5232784351
 20
916.3207093428
 30
0.0
 10
1468.5687439002
 20
913.0089575436
 30
0.0
 10
1468.8297540954
 20
907.5631295144
 30
0.0
 10
1469.4170036204
 20
901.3404501682
 30
0.0
 10
1470.4020839881
 20
894.8885586138
 30
0.0
 10
1471.7599852246
 20
888.7477420794
 30
0.0
 10
1473.3993570747
 20
883.1996695661
 30
0.0
 10
1475.2494847332
 20
878.2448607633
 30
0.0
 10
1477.3442593414
 20
873.6682567424
 30
0.0
 10
1479.7449764267
 20
869.3273282326
 30
0.0
 10
1482.4990871819
 20
865.1840960527
 30
0.0
 10
1485.6120094607
 20
861.2788539768
 30
0.0
 10
1489.0597213765
 20
857.6655765753
 30
0.0
 10
1492.8140973141
 20
854.3764796888
 30
0.0
 10
1496.8432162937
 20
851.4290752153
 30
0.0
 10
1501.097193515
 20
848.8378053092
 30
0.0
 10
1505.5203627094
 20
846.6028093311
 30
0.0
 10
1510.1054046106
 20
844.6916607619
 30
0.0
 10
1514.9369366264
 20
843.0503176506
 30
0.0
 10
1520.1776009013
 20
841.6365068489
 30
0.0
 10
1525.9970478637
 20
840.4489641674
 30
0.0
 10
1532.5028692987
 20
839.5298647762
 30
0.0
 10
1539.7477736288
 20
838.9393725847
 30
0.0
 10
1544.8220593284
 20
838.8119855701
 30
0.0
 10
1547.481425831
 20
838.8121409137
 30
0.0
  0
SPLINE
  5
5DA
100
AcDbEntity
  8
0
100
AcDbSpline
 62
7
  6
CONTINUOUS
 70
0
 71
3
 72
30
 73
26
 74
0
 42
0.0000001
 43
0.0000001
 44
0.0000000001
 40
0.0
 40
0.0
 40
0.0
 40
0.0
 40
0.0341282386
 40
0.0784337666
 40
0.1289223928
 40
0.1816203544
 40
0.2320458136
 40
0.2765094776
 40
0.3169904165
 40
0.3554589942
 40
0.3936422012
 40
0.4321406604
 40
0.4706926088
 40
0.5091344445
 40
0.5475529488
 40
0.5860644294
 40
0.6246553457
 40
0.6630371276
 40
0.7012390308
 40
0.7404050863
 40
0.7822564514
 40
0.8283937091
 40
0.8799049134
 40
0.9369783726
 40
1.0
 40
1.0
 40
1.0
 40
1.0
 10
1708.9244500112
 20
838.8121409137
 30
0.0
 10
1710.364527599
 20
838.8121409135
 30
0.0
 10
1713.6760725367
 20
838.8573937837
 30
0.0
 10
1719.1215721978
 20
839.1180425936
 30
0.0
 10
1725.3438946352
 20
839.704860878
 30
0.0
 10
1731.7954399567
 20
840.6894702948
 30
0.0
 10
1737.9359535681
 20
842.0468966677
 30
0.0
 10
1743.4837785222
 20
843.6858133631
 30
0.0
 10
1748.4383906844
 20
845.5355100875
 30
0.0
 10
1753.0148375095
 20
847.6298622173
 30
0.0
 10
1757.3556431231
 20
850.0301523722
 30
0.0
 10
1761.4987873058
 20
852.7838263349
 30
0.0
 10
1765.4039791786
 20
855.8963041674
 30
0.0
 10
1769.0172460681
 20
859.3435689225
 30
0.0
 10
1772.3063723932
 20
863.0974988063
 30
0.0
 10
1775.2538453434
 20
867.1261759695
 30
0.0
 10
1777.8452205201
 20
871.3797196858
 30
0.0
 10
1780.0803550463
 20
875.8024672207
 30
0.0
 10
1781.9916729242
 20
880.3870977181
 30
0.0
 10
1783.6332180405
 20
885.2182198049
 30
0.0
 10
1785.0472711654
 20
890.4584626477
 30
0.0
 10
1786.2351071514
 20
896.2774658509
 30
0.0
 10
1787.1545603127
 20
902.7828170561
 30
0.0
 10
1787.7454738854
 20
910.0272251297
 30
0.0
 10
1787.8731741604
 20
915.1011813689
 30
0.0
 10
1787.8731872314
 20
917.76037943
 30
0.0
  0
SPLINE
  5
5DB
100
AcDbEntity
  8
0
100
AcDbSpline
 62
7
  6
CONTINUOUS
 70
0
 71
3
 72
30
 73
26
 74
0
 42
0.0000001
 43
0.0000001
 44
0.0000000001
 40
0.0
 40
0.0
 40
0.0
 40
0.0
 40
0.0341287033
 40
0.0784342099
 40
0.1289228118
 40
0.1816207481
 40
0.2320461831
 40
0.2765098257
 40
0.3169907451
 40
0.3554593043
 40
0.3936424929
 40
0.4321409336
 40
0.4706928634
 40
0.5091346807
 40
0.5475531664
 40
0.5860646286
 40
0.6246555263
 40
0.6630372897
 40
0.7012391745
 40
0.7404052112
 40
0.7822565562
 40
0.8283937917
 40
0.8799049712
 40
0.9369784029
 40
1.0
 40
1.0
 40
1.0
 40
1.0
 10
1787.8731872314
 20
1079.2033427893
 30
0.0
 10
1787.8731872314
 20
1080.6435318619
 30
0.0
 10
1787.8282890333
 20
1083.9553096952
 30
0.0
 10
1787.567892945
 20
1089.4011910667
 30
0.0
 10
1786.9814562647
 20
1095.6239447441
 30
0.0
 10
1785.9971859533
 20
1102.075961017
 30
0.0
 10
1784.6400643164
 20
1108.2169494923
 30
0.0
 10
1783.0013947644
 20
1113.7652296012
 30
0.0
 10
1781.1518947764
 20
1118.7202726976
 30
0.0
 10
1779.0576998185
 20
1123.2971420013
 30
0.0
 10
1776.6575325657
 20
1127.6383745454
 30
0.0
 10
1773.9039465982
 20
1131.7819555208
 30
0.0
 10
1770.7915189689
 20
1135.68759184
 30
0.0
 10
1767.3442647253
 20
1139.3013058902
 30
0.0
 10
1763.5903054026
 20
1142.5908782691
 30
0.0
 10
1759.5615597624
 20
1145.5387930356
 30
0.0
 10
1755.3079107752
 20
1148.1306017172
 30
0.0
 10
1750.8850246918
 20
1150.3661579028
 30
0.0
 10
1746.3002248853
 20
1152.2778871843
 30
0.0
 10
1741.4689007932
 20
1153.9198422296
 30
0.0
 10
1736.2284156266
 20
1155.3343167864
 30
0.0
 10
1730.4091191183
 20
1156.5225965315
 30
0.0
 10
1723.9034141427
 20
1157.4425199221
 30
0.0
 10
1716.6585846859
 20
1158.033929724
 30
0.0
 10
1711.5843151882
 20
1158.161959429
 30
0.0
 10
1708.9249487159
 20
1158.1621409137
 30
0.0
  0
SPLINE
  5
5DC
100
AcDbEntity
  8
0
100
AcDbSpline
 62
7
  6
CONTINUOUS
 70
0
 71
3
 72
11
 73
7
 74
0
 42
0.0000001
 43
0.0000001
 44
0.0000000001
 40
0.0
 40
0.0
 40
0.0
 40
0.0
 40
0.253060145
 40
0.5
 40
0.746939855
 40
1.0
 40
1.0
 40
1.0
 40
1.0
 10
2227.3894497955
 20
1149.0821409137
 30
0.0
 10
2227.3894497955
 20
1146.5435423793
 30
0.0
 10
2229.395947934
 20
1141.3010669431
 30
0.0
 10
2237.0487080584
 20
1137.9862583698
 30
0.0
 10
2244.7014681828
 20
1141.3010669431
 30
0.0
 10
2246.7079663213
 20
1146.5435423793
 30
0.0
 10
2246.7079663213
 20
1149.0821409137
 30
0.0
  0
SPLINE
  5
5DD
100
AcDbEntity
  8
0
100
AcDbSpline
 62
7
  6
CONTINUOUS
 70
0
 71
3
 72
11
 73
7
 74
0
 42
0.0000001
 43
0.0000001
 44
0.0000000001
 40
0.0
 40
0.0
 40
0.0
 40
0.0
 40
0.253060145
 40
0.5
 40
0.746939855
 40
1.0
 40
1.0
 40
1.0
 40
1.0
 10
2246.7079663213
 20
519.6821409137
 30
0.0
 10
2246.7079663213
 20
522.220739448
 30
0.0
 10
2244.7014681828
 20
527.4632148843
 30
0.0
 10
2237.0487080584
 20
530.7780234575
 30
0.0
 10
2229.395947934
 20
527.4632148843
 30
0.0
 10
2227.3894497955
 20
522.220739448
 30
0.0
 10
2227.3894497955
 20
519.6821409137
 30
0.0
  0
SPLINE
  5
5DE
100
AcDbEntity
  8
0
100
AcDbSpline
 62
7
  6
CONTINUOUS
 70
0
 71
3
 72
11
 73
7
 74
0
 42
0.0000001
 43
0.0000001
 44
0.0000000001
 40
0.0
 40
0.0
 40
0.0
 40
0.0
 40
0.253060145
 40
0.5
 40
0.746939855
 40
1.0
 40
1.0
 40
1.0
 40
1.0
 10
2227.3894497955
 20
1149.0821409137
 30
0.0
 10
2227.3894497955
 20
1151.620739448
 30
0.0
 10
2229.395947934
 20
1156.8632148843
 30
0.0
 10
2237.0487080584
 20
1160.1780234575
 30
0.0
 10
2244.7014681828
 20
1156.8632148843
 30
0.0
 10
2246.7079663213
 20
1151.620739448
 30
0.0
 10
2246.7079663213
 20
1149.0821409137
 30
0.0
  0
SPLINE
  5
5DF
100
AcDbEntity
  8
0
100
AcDbSpline
 62
7
  6
CONTINUOUS
 70
0
 71
3
 72
11
 73
7
 74
0
 42
0.0000001
 43
0.0000001
 44
0.0000000001
 40
0.0
 40
0.0
 40
0.0
 40
0.0
 40
0.253060145
 40
0.5
 40
0.746939855
 40
1.0
 40
1.0
 40
1.0
 40
1.0
 10
2246.7079663213
 20
519.6821409137
 30
0.0
 10
2246.7079663213
 20
517.1435423793
 30
0.0
 10
2244.7014681828
 20
511.9010669431
 30
0.0
 10
2237.0487080584
 20
508.5862583698
 30
0.0
 10
2229.395947934
 20
511.9010669431
 30
0.0
 10
2227.3894497955
 20
517.1435423793
 30
0.0
 10
2227.3894497955
 20
519.6821409137
 30
0.0
  0
SPLINE
  5
5E0
100
AcDbEntity
  8
0
100
AcDbSpline
 62
7
  6
CONTINUOUS
 70
0
 71
3
 72
11
 73
7
 74
0
 42
0.0000001
 43
0.0000001
 44
0.0000000001
 40
0.0
 40
0.0
 40
0.0
 40
0.0
 40
0.253060145
 40
0.5
 40
0.746939855
 40
1.0
 40
1.0
 40
1.0
 40
1.0
 10
2226.6823430143
 20
519.6821409137
 30
0.0
 10
2226.6823430143
 20
522.4745993015
 30
0.0
 10
2228.8894909666
 20
528.2413222813
 30
0.0
 10
2237.3075271035
 20
531.8876117119
 30
0.0
 10
2245.7255632404
 20
528.2413222813
 30
0.0
 10
2247.9327111927
 20
522.4745993015
 30
0.0
 10
2247.9327111927
 20
519.6821409137
 30
0.0
  0
SPLINE
  5
5E1
100
AcDbEntity
  8
0
100
AcDbSpline
 62
7
  6
CONTINUOUS
 70
0
 71
3
 72
11
 73
7
 74
0
 42
0.0000001
 43
0.0000001
 44
0.0000000001
 40
0.0
 40
0.0
 40
0.0
 40
0.0
 40
0.253060145
 40
0.5
 40
0.746939855
 40
1.0
 40
1.0
 40
1.0
 40
1.0
 10
2247.9327111927
 20
519.6821409137
 30
0.0
 10
2247.9327111927
 20
516.8896825259
 30
0.0
 10
2245.7255632404
 20
511.122959546
 30
0.0
 10
2237.3075271035
 20
507.4766701155
 30
0.0
 10
2228.8894909666
 20
511.122959546
 30
0.0
 10
2226.6823430143
 20
516.8896825259
 30
0.0
 10
2226.6823430143
 20
519.6821409137
 30
0.0
  0
SPLINE
  5
5E2
100
AcDbEntity
  8
0
100
AcDbSpline
 62
7
  6
CONTINUOUS
 70
0
 71
3
 72
11
 73
7
 74
0
 42
0.0000001
 43
0.0000001
 44
0.0000000001
 40
0.0
 40
0.0
 40
0.0
 40
0.0
 40
0.253060145
 40
0.5
 40
0.746939855
 40
1.0
 40
1.0
 40
1.0
 40
1.0
 10
2226.6823430143
 20
1149.0821409137
 30
0.0
 10
2226.6823430143
 20
1151.8745993015
 30
0.0
 10
2228.8894909666
 20
1157.6413222813
 30
0.0
 10
2237.3075271035
 20
1161.2876117119
 30
0.0
 10
2245.7255632404
 20
1157.6413222813
 30
0.0
 10
2247.9327111927
 20
1151.8745993015
 30
0.0
 10
2247.9327111927
 20
1149.0821409137
 30
0.0
  0
SPLINE
  5
5E3
100
AcDbEntity
  8
0
100
AcDbSpline
 62
7
  6
CONTINUOUS
 70
0
 71
3
 72
11
 73
7
 74
0
 42
0.0000001
 43
0.0000001
 44
0.0000000001
 40
0.0
 40
0.0
 40
0.0
 40
0.0
 40
0.253060145
 40
0.5
 40
0.746939855
 40
1.0
 40
1.0
 40
1.0
 40
1.0
 10
2247.9327111927
 20
1149.0821409137
 30
0.0
 10
2247.9327111927
 20
1146.2896825259
 30
0.0
 10
2245.7255632404
 20
1140.522959546
 30
0.0
 10
2237.3075271035
 20
1136.8766701155
 30
0.0
 10
2228.8894909666
 20
1140.522959546
 30
0.0
 10
2226.6823430143
 20
1146.2896825259
 30
0.0
 10
2226.6823430143
 20
1149.0821409137
 30
0.0
  0
SPLINE
  5
5E4
100
AcDbEntity
  8
0
100
AcDbSpline
 62
7
  6
CONTINUOUS
 70
0
 71
3
 72
9
 73
5
 74
0
 42
0.0000001
 43
0.0000001
 44
0.0000000001
 40
0.0
 40
0.0
 40
0.0
 40
0.0
 40
0.2477787108
 40
1.0
 40
1.0
 40
1.0
 40
1.0
 10
3943.2290520011
 20
1722.9748863603
 30
0.0
 10
3939.5974437863
 20
1722.3714186398
 30
0.0
 10
3924.8578060789
 20
1720.4637363172
 30
0.0
 10
3909.8587895129
 20
1720.5691128049
 30
0.0
 10
3898.7493446616
 20
1721.7891023375
 30
0.0
  0
SPLINE
  5
5E5
100
AcDbEntity
  8
0
100
AcDbSpline
 62
7
  6
CONTINUOUS
 70
0
 71
3
 72
9
 73
5
 74
0
 42
0.0000001
 43
0.0000001
 44
0.0000000001
 40
0.0
 40
0.0
 40
0.0
 40
0.0
 40
0.2539831178
 40
1.0
 40
1.0
 40
1.0
 40
1.0
 10
3686.6173103056
 20
1844.2956623542
 30
0.0
 10
3686.338708708
 20
1845.1417708032
 30
0.0
 10
3685.3674101452
 20
1848.5129031968
 30
0.0
 10
3684.9270467879
 20
1852.0392385577
 30
0.0
 10
3684.9272399582
 20
1854.6557479221
 30
0.0
  0
SPLINE
  5
5E6
100
AcDbEntity
  8
0
100
AcDbSpline
 62
7
  6
CONTINUOUS
 70
0
 71
3
 72
9
 73
5
 74
0
 42
0.0000001
 43
0.0000001
 44
0.0000000001
 40
0.0
 40
0.0
 40
0.0
 40
0.0
 40
0.2632541267
 40
1.0
 40
1.0
 40
1.0
 40
1.0
 10
3898.7493446616
 20
1721.7891023375
 30
0.0
 10
3879.0028346961
 20
1730.3569642549
 30
0.0
 10
3804.889767993
 20
1764.866897619
 30
0.0
 10
3734.3790227022
 20
1807.5840080178
 30
0.0
 10
3686.6173103056
 20
1844.2956623542
 30
0.0
  0
SPLINE
  5
5E7
100
AcDbEntity
  8
0
100
AcDbSpline
 62
7
  6
CONTINUOUS
 70
0
 71
3
 72
9
 73
5
 74
0
 42
0.0000001
 43
0.0000001
 44
0.0000000001
 40
0.0
 40
0.0
 40
0.0
 40
0.0
 40
0.2176350697
 40
1.0
 40
1.0
 40
1.0
 40
1.0
 10
3981.9765343913
 20
2297.9093454794
 30
0.0
 10
3981.8928006636
 20
2298.1294662605
 30
0.0
 10
3981.5775871157
 20
2299.1673482858
 30
0.0
 10
3981.4925079684
 20
2300.262346982
 30
0.0
 10
3981.4925079684
 20
2301.1089660181
 30
0.0
  0
SPLINE
  5
5E8
100
AcDbEntity
  8
0
100
AcDbSpline
 62
7
  6
CONTINUOUS
 70
0
 71
3
 72
9
 73
5
 74
0
 42
0.0000001
 43
0.0000001
 44
0.0000000001
 40
0.0
 40
0.0
 40
0.0
 40
0.0
 40
0.2176350697
 40
1.0
 40
1.0
 40
1.0
 40
1.0
 10
3981.9765343913
 20
1784.0736995583
 30
0.0
 10
3981.8928006636
 20
1784.2938203394
 30
0.0
 10
3981.5775871157
 20
1785.3317023647
 30
0.0
 10
3981.4925079684
 20
1786.4267010609
 30
0.0
 10
3981.4925079684
 20
1787.2733200969
 30
0.0
  0
SPLINE
  5
5E9
100
AcDbEntity
  8
0
100
AcDbSpline
 62
7
  6
CONTINUOUS
 70
0
 71
3
 72
9
 73
5
 74
0
 42
0.0000001
 43
0.0000001
 44
0.0000000001
 40
0.0
 40
0.0
 40
0.0
 40
0.0
 40
0.4999670668
 40
1.0
 40
1.0
 40
1.0
 40
1.0
 10
3959.8698587889
 20
2346.6556564957
 30
0.0
 10
3957.5619609416
 20
2345.3228421143
 30
0.0
 10
3952.0936452845
 20
2344.2682958209
 30
0.0
 10
3946.6252842311
 20
2345.3216777825
 30
0.0
 10
3944.3166174515
 20
2346.6538624314
 30
0.0
  0
SPLINE
  5
5EA
100
AcDbEntity
  8
0
100
AcDbSpline
 62
7
  6
CONTINUOUS
 70
0
 71
3
 72
9
 73
5
 74
0
 42
0.0000001
 43
0.0000001
 44
0.0000000001
 40
0.0
 40
0.0
 40
0.0
 40
0.0
 40
0.4999670668
 40
1.0
 40
1.0
 40
1.0
 40
1.0
 10
3780.4936385424
 20
2450.2456859692
 30
0.0
 10
3778.1857406951
 20
2448.9128715878
 30
0.0
 10
3772.717425038
 20
2447.8583252944
 30
0.0
 10
3767.2490639846
 20
2448.911707256
 30
0.0
 10
3764.940397205
 20
2450.2438919049
 30
0.0
  0
SPLINE
  5
5EB
100
AcDbEntity
  8
0
100
AcDbSpline
 62
7
  6
CONTINUOUS
 70
0
 71
3
 72
9
 73
5
 74
0
 42
0.0000001
 43
0.0000001
 44
0.0000000001
 40
0.0
 40
0.0
 40
0.0
 40
0.0
 40
0.4999670668
 40
1.0
 40
1.0
 40
1.0
 40
1.0
 10
4030.6981608339
 20
2491.1491339642
 30
0.0
 10
4028.3902629865
 20
2489.8163195828
 30
0.0
 10
4022.9219473295
 20
2488.7617732894
 30
0.0
 10
4017.453586276
 20
2489.815155251
 30
0.0
 10
4015.1449194965
 20
2491.1473398999
 30
0.0
  0
SPLINE
  5
5EC
100
AcDbEntity
  8
0
100
AcDbSpline
 62
7
  6
CONTINUOUS
 70
0
 71
3
 72
9
 73
5
 74
0
 42
0.0000001
 43
0.0000001
 44
0.0000000001
 40
0.0
 40
0.0
 40
0.0
 40
0.0
 40
0.2477787108
 40
1.0
 40
1.0
 40
1.0
 40
1.0
 10
3943.2290520011
 20
2290.4473323084
 30
0.0
 10
3939.5974437863
 20
2289.843864588
 30
0.0
 10
3924.8578060789
 20
2287.9361822654
 30
0.0
 10
3909.8587895129
 20
2288.0415587531
 30
0.0
 10
3898.7493446616
 20
2289.2615482857
 30
0.0
  0
SPLINE
  5
5ED
100
AcDbEntity
  8
0
100
AcDbSpline
 62
7
  6
CONTINUOUS
 70
0
 71
3
 72
9
 73
5
 74
0
 42
0.0000001
 43
0.0000001
 44
0.0000000001
 40
0.0
 40
0.0
 40
0.0
 40
0.0
 40
0.2632541267
 40
1.0
 40
1.0
 40
1.0
 40
1.0
 10
3898.7493446616
 20
2289.2615482857
 30
0.0
 10
3879.0028346961
 20
2297.8294102031
 30
0.0
 10
3804.889767993
 20
2332.3393435672
 30
0.0
 10
3734.3790227022
 20
2375.056453966
 30
0.0
 10
3686.6173103056
 20
2411.7681083024
 30
0.0
  0
SPLINE
  5
5EE
100
AcDbEntity
  8
0
100
AcDbSpline
 62
7
  6
CONTINUOUS
 70
0
 71
3
 72
9
 73
5
 74
0
 42
0.0000001
 43
0.0000001
 44
0.0000000001
 40
0.0
 40
0.0
 40
0.0
 40
0.0
 40
0.2539831178
 40
1.0
 40
1.0
 40
1.0
 40
1.0
 10
3686.6173103056
 20
2411.7681083024
 30
0.0
 10
3686.338708708
 20
2412.6142167513
 30
0.0
 10
3685.3674101452
 20
2415.985349145
 30
0.0
 10
3684.9270467879
 20
2419.5116845059
 30
0.0
 10
3684.9272399582
 20
2422.1281938703
 30
0.0
  0
SPLINE
  5
5EF
100
AcDbEntity
  8
0
100
AcDbSpline
 62
7
  6
CONTINUOUS
 70
0
 71
3
 72
9
 73
5
 74
0
 42
0.0000001
 43
0.0000001
 44
0.0000000001
 40
0.0
 40
0.0
 40
0.0
 40
0.0
 40
0.5000329332
 40
1.0
 40
1.0
 40
1.0
 40
1.0
 10
3919.8919854366
 20
2428.7918270449
 30
0.0
 10
3918.0030762533
 20
2427.7018577867
 30
0.0
 10
3913.5289626642
 20
2426.8399998181
 30
0.0
 10
3909.0548862175
 20
2427.7028104218
 30
0.0
 10
3907.1666061606
 20
2428.7932949157
 30
0.0
  0
SPLINE
  5
5F0
100
AcDbEntity
  8
0
100
AcDbSpline
 62
7
  6
CONTINUOUS
 70
0
 71
3
 72
9
 73
5
 74
0
 42
0.0000001
 43
0.0000001
 44
0.0000000001
 40
0.0
 40
0.0
 40
0.0
 40
0.0
 40
0.5000286126
 40
1.0
 40
1.0
 40
1.0
 40
1.0
 10
3898.2902791106
 20
2462.0120008758
 30
0.0
 10
3896.8211691125
 20
2461.1642438739
 30
0.0
 10
3893.3413890691
 20
2460.4936820716
 30
0.0
 10
3889.8615789355
 20
2461.1648384043
 30
0.0
 10
3888.3929211201
 20
2462.0129904402
 30
0.0
  0
SPLINE
  5
5F1
100
AcDbEntity
  8
0
100
AcDbSpline
 62
7
  6
CONTINUOUS
 70
0
 71
3
 72
9
 73
5
 74
0
 42
0.0000001
 43
0.0000001
 44
0.0000000001
 40
0.0
 40
0.0
 40
0.0
 40
0.0
 40
0.5000286126
 40
1.0
 40
1.0
 40
1.0
 40
1.0
 10
3862.3692546264
 20
2441.267556713
 30
0.0
 10
3860.9001446283
 20
2440.4197997111
 30
0.0
 10
3857.4203645848
 20
2439.7492379087
 30
0.0
 10
3853.9405544513
 20
2440.4203942415
 30
0.0
 10
3852.4718966358
 20
2441.2685462774
 30
0.0
  0
SPLINE
  5
5F2
100
AcDbEntity
  8
0
100
AcDbSpline
 62
7
  6
CONTINUOUS
 70
0
 71
3
 72
9
 73
5
 74
0
 42
0.0000001
 43
0.0000001
 44
0.0000000001
 40
0.0
 40
0.0
 40
0.0
 40
0.0
 40
0.5000286126
 40
1.0
 40
1.0
 40
1.0
 40
1.0
 10
3974.5871008007
 20
2417.9504747898
 30
0.0
 10
3973.1179908026
 20
2417.1027177879
 30
0.0
 10
3969.6382107591
 20
2416.4321559856
 30
0.0
 10
3966.1584006256
 20
2417.1033123183
 30
0.0
 10
3964.6897428101
 20
2417.9514643542
 30
0.0
  0
SPLINE
  5
5F3
100
AcDbEntity
  8
0
100
AcDbSpline
 62
7
  6
CONTINUOUS
 70
0
 71
3
 72
9
 73
5
 74
0
 42
0.0000001
 43
0.0000001
 44
0.0000000001
 40
0.0
 40
0.0
 40
0.0
 40
0.0
 40
0.5000286126
 40
1.0
 40
1.0
 40
1.0
 40
1.0
 10
3938.6660763164
 20
2397.206030627
 30
0.0
 10
3937.1969663183
 20
2396.3582736251
 30
0.0
 10
3933.7171862749
 20
2395.6877118227
 30
0.0
 10
3930.2373761413
 20
2396.3588681555
 30
0.0
 10
3928.7687183258
 20
2397.2070201914
 30
0.0
  0
SPLINE
  5
5F4
100
AcDbEntity
  8
0
100
AcDbSpline
 62
7
  6
CONTINUOUS
 70
0
 71
3
 72
9
 73
5
 74
0
 42
0.0000001
 43
0.0000001
 44
0.0000000001
 40
0.0
 40
0.0
 40
0.0
 40
0.0
 40
0.4664917902
 40
1.0
 40
1.0
 40
1.0
 40
1.0
 10
3711.2354693746
 20
2385.7154718115
 30
0.0
 10
3708.2301024427
 20
2381.2152071659
 30
0.0
 10
3704.741358571
 20
2369.7458563558
 30
0.0
 10
3704.0997070869
 20
2358.1747397572
 30
0.0
 10
3704.0996807394
 20
2351.9857916524
 30
0.0
  0
SPLINE
  5
5F5
100
AcDbEntity
  8
0
100
AcDbSpline
 62
7
  6
CONTINUOUS
 70
0
 71
3
 72
11
 73
7
 74
0
 42
0.0000001
 43
0.0000001
 44
0.0000000001
 40
0.0
 40
0.0
 40
0.0
 40
0.0
 40
0.2371986512
 40
0.4999753094
 40
0.7627665494
 40
1.0
 40
1.0
 40
1.0
 40
1.0
 10
3907.9447418179
 20
1914.4372444254
 30
0.0
 10
3907.9447418179
 20
1928.4308452375
 30
0.0
 10
3902.6950488686
 20
1957.945983872
 30
0.0
 10
3884.3976225313
 20
1999.4221513366
 30
0.0
 10
3857.6253641359
 20
2036.0076657611
 30
0.0
 10
3834.6881490565
 20
2055.3142876166
 30
0.0
 10
3822.5683508594
 20
2062.3134887968
 30
0.0
  0
SPLINE
  5
5F6
100
AcDbEntity
  8
0
100
AcDbSpline
 62
7
  6
CONTINUOUS
 70
0
 71
3
 72
16
 73
12
 74
0
 42
0.0000001
 43
0.0000001
 44
0.0000000001
 40
0.0
 40
0.0
 40
0.0
 40
0.0
 40
0.0428741525
 40
0.0875180563
 40
0.1869154163
 40
0.3042243757
 40
0.437950541
 40
0.5823615403
 40
0.729587072
 40
0.8712502764
 40
1.0
 40
1.0
 40
1.0
 40
1.0
 10
3887.5202807351
 20
1838.1978669509
 30
0.0
 10
3891.0008811157
 20
1840.2070515662
 30
0.0
 10
3897.5982327044
 20
1845.2573286399
 30
0.0
 10
3908.5610670881
 20
1859.1199969862
 30
0.0
 10
3916.7287092735
 20
1882.9106074885
 30
0.0
 10
3917.4516352751
 20
1916.0727736835
 30
0.0
 10
3910.012347246
 20
1952.6463793924
 30
0.0
 10
3894.9911828299
 20
1989.7915507812
 30
0.0
 10
3873.6174103599
 20
2024.5583246739
 30
0.0
 10
3847.649576009
 20
2054.1002204588
 30
0.0
 10
3827.3625018357
 20
2069.7141412677
 30
0.0
 10
3816.9114966099
 20
2075.7496120669
 30
0.0
  0
SPLINE
  5
5F7
100
AcDbEntity
  8
0
100
AcDbSpline
 62
7
  6
CONTINUOUS
 70
0
 71
3
 72
16
 73
12
 74
0
 42
0.0000001
 43
0.0000001
 44
0.0000000001
 40
0.0
 40
0.0
 40
0.0
 40
0.0
 40
0.0428741525
 40
0.0875180563
 40
0.1869154163
 40
0.3042243757
 40
0.437950541
 40
0.5823615403
 40
0.729587072
 40
0.8712502764
 40
1.0
 40
1.0
 40
1.0
 40
1.0
 10
3738.7902028867
 20
2095.7627897729
 30
0.0
 10
3734.9392796903
 20
2093.539835456
 30
0.0
 10
3727.639994656
 20
2087.9522278581
 30
0.0
 10
3715.5107558433
 20
2072.6146236339
 30
0.0
 10
3706.4741071869
 20
2046.2927814731
 30
0.0
 10
3705.6742645723
 20
2009.6022852706
 30
0.0
 10
3713.905064924
 20
1969.1373851947
 30
0.0
 10
3730.5244248514
 20
1928.0401069962
 30
0.0
 10
3754.1722864849
 20
1889.5742788598
 30
0.0
 10
3782.9030009395
 20
1856.88923625
 30
0.0
 10
3805.3485436564
 20
1839.6140528746
 30
0.0
 10
3816.9114966099
 20
1832.9364306367
 30
0.0
  0
SPLINE
  5
5F8
100
AcDbEntity
  8
0
100
AcDbSpline
 62
7
  6
CONTINUOUS
 70
0
 71
3
 72
10
 73
6
 74
0
 42
0.0000001
 43
0.0000001
 44
0.0000000001
 40
0.0
 40
0.0
 40
0.0
 40
0.0
 40
0.5385545698
 40
0.7995443096
 40
1.0
 40
1.0
 40
1.0
 40
1.0
 10
3981.4925079684
 20
1787.2733200969
 30
0.0
 10
3981.4925079684
 20
1790.3755357483
 30
0.0
 10
3982.7019404671
 20
1795.0031396083
 30
0.0
 10
3985.4110519343
 20
1800.0707174666
 30
0.0
 10
3987.2223790574
 20
1802.1237905394
 30
0.0
 10
3988.1975856901
 20
1802.742055756
 30
0.0
  0
SPLINE
  5
5F9
100
AcDbEntity
  8
0
100
AcDbSpline
 62
7
  6
CONTINUOUS
 70
0
 71
3
 72
10
 73
6
 74
0
 42
0.0000001
 43
0.0000001
 44
0.0000000001
 40
0.0
 40
0.0
 40
0.0
 40
0.0
 40
0.5385545698
 40
0.7995443096
 40
1.0
 40
1.0
 40
1.0
 40
1.0
 10
3981.4925079684
 20
2301.1089660181
 30
0.0
 10
3981.4925079684
 20
2304.2111816694
 30
0.0
 10
3982.7019404671
 20
2308.8387855294
 30
0.0
 10
3985.4110519343
 20
2313.9063633877
 30
0.0
 10
3987.2223790574
 20
2315.9594364606
 30
0.0
 10
3988.1975856901
 20
2316.5777016772
 30
0.0
  0
SPLINE
  5
5FA
100
AcDbEntity
  8
0
100
AcDbSpline
 62
7
  6
CONTINUOUS
 70
0
 71
3
 72
8
 73
4
 74
0
 42
0.0000001
 43
0.0000001
 44
0.0000000001
 40
0.0
 40
0.0
 40
0.0
 40
0.0
 40
1.0
 40
1.0
 40
1.0
 40
1.0
 10
3688.9272812054
 20
2409.9623147514
 30
0.0
 10
3688.9271314914
 20
2406.7904663361
 30
0.0
 10
3689.4365225981
 20
2403.5866817245
 30
0.0
 10
3690.3794408747
 20
2400.558228734
 30
0.0
  0
SPLINE
  5
5FB
100
AcDbEntity
  8
0
100
AcDbSpline
 62
7
  6
CONTINUOUS
 70
0
 71
3
 72
9
 73
5
 74
0
 42
0.0000001
 43
0.0000001
 44
0.0000000001
 40
0.0
 40
0.0
 40
0.0
 40
0.0
 40
0.2396325698
 40
1.0
 40
1.0
 40
1.0
 40
1.0
 10
3724.589761035
 20
2375.6781331833
 30
0.0
 10
3737.7852728883
 20
2366.5753066826
 30
0.0
 10
3793.8949909249
 20
2330.1086361149
 30
0.0
 10
3853.7523598528
 20
2299.5480848484
 30
0.0
 10
3900.4018534154
 20
2279.2699784003
 30
0.0
  0
SPLINE
  5
5FC
100
AcDbEntity
  8
0
100
AcDbSpline
 62
7
  6
CONTINUOUS
 70
0
 71
3
 72
9
 73
5
 74
0
 42
0.0000001
 43
0.0000001
 44
0.0000000001
 40
0.0
 40
0.0
 40
0.0
 40
0.0
 40
0.2465678622
 40
1.0
 40
1.0
 40
1.0
 40
1.0
 10
3684.9272399582
 20
1866.8199537121
 30
0.0
 10
3684.9273183979
 20
1867.882426029
 30
0.0
 10
3685.1403495252
 20
1872.190412803
 30
0.0
 10
3686.2346056207
 20
1876.4419629366
 30
0.0
 10
3687.4537362189
 20
1879.4509432977
 30
0.0
  0
SPLINE
  5
5FD
100
AcDbEntity
  8
0
100
AcDbSpline
 62
7
  6
CONTINUOUS
 70
0
 71
3
 72
9
 73
5
 74
0
 42
0.0000001
 43
0.0000001
 44
0.0000000001
 40
0.0
 40
0.0
 40
0.0
 40
0.0
 40
0.254813836
 40
1.0
 40
1.0
 40
1.0
 40
1.0
 10
3691.2793036643
 20
1890.9174315183
 30
0.0
 10
3690.9929416117
 20
1890.2001659011
 30
0.0
 10
3689.9612595728
 20
1887.3497143504
 30
0.0
 10
3689.3165469209
 20
1884.3567003636
 30
0.0
 10
3689.08697529
 20
1882.1098087557
 30
0.0
  0
SPLINE
  5
5FE
100
AcDbEntity
  8
0
100
AcDbSpline
 62
7
  6
CONTINUOUS
 70
0
 71
3
 72
9
 73
5
 74
0
 42
0.0000001
 43
0.0000001
 44
0.0000000001
 40
0.0
 40
0.0
 40
0.0
 40
0.0
 40
0.2450324696
 40
1.0
 40
1.0
 40
1.0
 40
1.0
 10
3684.9272399582
 20
2434.2923996603
 30
0.0
 10
3684.9273355917
 20
2435.5877635356
 30
0.0
 10
3685.2453747694
 20
2440.8733728826
 30
0.0
 10
3686.8907187157
 20
2446.0471359202
 30
0.0
 10
3688.6706107739
 20
2449.6194101185
 30
0.0
  0
SPLINE
  5
5FF
100
AcDbEntity
  8
0
100
AcDbSpline
 62
7
  6
CONTINUOUS
 70
0
 71
3
 72
11
 73
7
 74
0
 42
0.0000001
 43
0.0000001
 44
0.0000000001
 40
0.0
 40
0.0
 40
0.0
 40
0.0
 40
0.234196474
 40
0.499978788
 40
0.7657728914
 40
1.0
 40
1.0
 40
1.0
 40
1.0
 10
3704.0996807394
 20
2220.185377509
 30
0.0
 10
3704.1001826784
 20
2211.0341788964
 30
0.0
 10
3705.8930992555
 20
2191.4163485692
 30
0.0
 10
3716.5488904872
 20
2162.9094632835
 30
0.0
 10
3735.9110654936
 20
2139.4283501993
 30
0.0
 10
3752.00566698
 20
2128.0661338977
 30
0.0
 10
3759.9315866837
 20
2123.489438216
 30
0.0
  0
SPLINE
  5
600
100
AcDbEntity
  8
0
100
AcDbSpline
 62
7
  6
CONTINUOUS
 70
0
 71
3
 72
11
 73
7
 74
0
 42
0.0000001
 43
0.0000001
 44
0.0000000001
 40
0.0
 40
0.0
 40
0.0
 40
0.0
 40
0.2836796383
 40
0.5477600623
 40
0.7857794067
 40
1.0
 40
1.0
 40
1.0
 40
1.0
 10
3874.0890438568
 20
2057.5633397793
 30
0.0
 10
3877.7202635292
 20
2055.4663051084
 30
0.0
 10
3884.9057853207
 20
2051.697356336
 30
0.0
 10
3895.8506807449
 20
2047.6764203919
 30
0.0
 10
3906.4708160412
 20
2046.1714519163
 30
0.0
 10
3913.2217853933
 20
2047.9174112074
 30
0.0
 10
3915.9639101497
 20
2049.5009684449
 30
0.0
  0
SPLINE
  5
601
100
AcDbEntity
  8
0
100
AcDbSpline
 62
7
  6
CONTINUOUS
 70
0
 71
3
 72
11
 73
7
 74
0
 42
0.0000001
 43
0.0000001
 44
0.0000000001
 40
0.0
 40
0.0
 40
0.0
 40
0.0
 40
0.2898296195
 40
0.549073273
 40
0.7822488371
 40
1.0
 40
1.0
 40
1.0
 40
1.0
 10
3816.9114966099
 20
1832.9364306367
 30
0.0
 10
3823.7700512604
 20
1828.9756052976
 30
0.0
 10
3837.4062459935
 20
1822.4813167385
 30
0.0
 10
3858.3708162944
 20
1817.423442631
 30
0.0
 10
3878.0374137352
 20
1817.9127133023
 30
0.0
 10
3889.8793509162
 20
1822.2131622903
 30
0.0
 10
3895.0327903331
 20
1825.1879971062
 30
0.0
  0
SPLINE
  5
602
100
AcDbEntity
  8
0
100
AcDbSpline
 62
7
  6
CONTINUOUS
 70
0
 71
3
 72
11
 73
7
 74
0
 42
0.0000001
 43
0.0000001
 44
0.0000000001
 40
0.0
 40
0.0
 40
0.0
 40
0.0
 40
0.2898296195
 40
0.549073273
 40
0.7822488371
 40
1.0
 40
1.0
 40
1.0
 40
1.0
 10
3816.9114966099
 20
2075.7496120669
 30
0.0
 10
3810.7124927066
 20
2079.3295458852
 30
0.0
 10
3798.3876183437
 20
2085.1993132311
 30
0.0
 10
3779.4390993407
 20
2089.7707984686
 30
0.0
 10
3761.6637340467
 20
2089.3285783572
 30
0.0
 10
3750.9605730237
 20
2085.4416806913
 30
0.0
 10
3746.3027124847
 20
2082.7529199282
 30
0.0
  0
SPLINE
  5
603
100
AcDbEntity
  8
0
100
AcDbSpline
 62
7
  6
CONTINUOUS
 70
0
 71
3
 72
9
 73
5
 74
0
 42
0.0000001
 43
0.0000001
 44
0.0000000001
 40
0.0
 40
0.0
 40
0.0
 40
0.0
 40
0.263254131
 40
1.0
 40
1.0
 40
1.0
 40
1.0
 10
3898.7493446616
 20
2301.4257540757
 30
0.0
 10
3879.0028343791
 20
2309.9936161306
 30
0.0
 10
3804.8897676965
 20
2344.5035495442
 30
0.0
 10
3734.379022429
 20
2387.220659966
 30
0.0
 10
3686.6173103056
 20
2423.9323140924
 30
0.0
  0
SPLINE
  5
604
100
AcDbEntity
  8
0
100
AcDbSpline
 62
7
  6
CONTINUOUS
 70
0
 71
3
 72
9
 73
5
 74
0
 42
0.0000001
 43
0.0000001
 44
0.0000000001
 40
0.0
 40
0.0
 40
0.0
 40
0.0
 40
0.2539831178
 40
1.0
 40
1.0
 40
1.0
 40
1.0
 10
3686.6173103056
 20
1856.4598681442
 30
0.0
 10
3686.338708708
 20
1857.3059765932
 30
0.0
 10
3685.3674101452
 20
1860.6771089868
 30
0.0
 10
3684.9270467879
 20
1864.2034443477
 30
0.0
 10
3684.9272399582
 20
1866.8199537121
 30
0.0
  0
SPLINE
  5
605
100
AcDbEntity
  8
0
100
AcDbSpline
 62
7
  6
CONTINUOUS
 70
0
 71
3
 72
9
 73
5
 74
0
 42
0.0000001
 43
0.0000001
 44
0.0000000001
 40
0.0
 40
0.0
 40
0.0
 40
0.0
 40
0.2539831178
 40
1.0
 40
1.0
 40
1.0
 40
1.0
 10
3686.6173103056
 20
2423.9323140924
 30
0.0
 10
3686.338708708
 20
2424.7784225413
 30
0.0
 10
3685.3674101452
 20
2428.149554935
 30
0.0
 10
3684.9270467879
 20
2431.6758902959
 30
0.0
 10
3684.9272399582
 20
2434.2923996603
 30
0.0
  0
SPLINE
  5
606
100
AcDbEntity
  8
0
100
AcDbSpline
 62
7
  6
CONTINUOUS
 70
0
 71
3
 72
8
 73
4
 74
0
 42
0.0000001
 43
0.0000001
 44
0.0000000001
 40
0.0
 40
0.0
 40
0.0
 40
0.0
 40
1.0
 40
1.0
 40
1.0
 40
1.0
 10
3987.7719722625
 20
2316.2542004121
 30
0.0
 10
3988.1721305928
 20
2316.4266675
 30
0.0
 10
3988.6370273666
 20
2316.5233392757
 30
0.0
 10
3989.0654088261
 20
2316.4435839571
 30
0.0
  0
SPLINE
  5
607
100
AcDbEntity
  8
0
100
AcDbSpline
 62
7
  6
CONTINUOUS
 70
0
 71
3
 72
10
 73
6
 74
0
 42
0.0000001
 43
0.0000001
 44
0.0000000001
 40
0.0
 40
0.0
 40
0.0
 40
0.0
 40
0.1819599587
 40
0.5236399315
 40
1.0
 40
1.0
 40
1.0
 40
1.0
 10
3989.0654088261
 20
2316.4435839571
 30
0.0
 10
3989.3828134635
 20
2316.3844901111
 30
0.0
 10
3990.2497322817
 20
2315.9109296347
 30
0.0
 10
3991.0063353671
 20
2314.1933394993
 30
0.0
 10
3991.1264825646
 20
2312.7456909887
 30
0.0
 10
3991.1264825646
 20
2311.9004664256
 30
0.0
  0
SPLINE
  5
608
100
AcDbEntity
  8
0
100
AcDbSpline
 62
7
  6
CONTINUOUS
 70
0
 71
3
 72
8
 73
4
 74
0
 42
0.0000001
 43
0.0000001
 44
0.0000000001
 40
0.0
 40
0.0
 40
0.0
 40
0.0
 40
1.0
 40
1.0
 40
1.0
 40
1.0
 10
3919.5297142846
 20
2428.5957680885
 30
0.0
 10
3919.9427363076
 20
2428.8662854816
 30
0.0
 10
3920.3319627045
 20
2429.1844414348
 30
0.0
 10
3920.6586193848
 20
2429.5546606465
 30
0.0
  0
SPLINE
  5
609
100
AcDbEntity
  8
0
100
AcDbSpline
 62
7
  6
CONTINUOUS
 70
0
 71
3
 72
10
 73
6
 74
0
 42
0.0000001
 43
0.0000001
 44
0.0000000001
 40
0.0
 40
0.0
 40
0.0
 40
0.0
 40
0.2458632361
 40
0.4711668504
 40
1.0
 40
1.0
 40
1.0
 40
1.0
 10
3920.6586193848
 20
2429.5546606465
 30
0.0
 10
3921.00648693
 20
2429.9489193779
 30
0.0
 10
3921.5590775477
 20
2430.8452717572
 30
0.0
 10
3921.5540171181
 20
2433.0983431503
 30
0.0
 10
3920.1667692743
 20
2434.3533688604
 30
0.0
 10
3919.1874214407
 20
2434.9189436663
 30
0.0
  0
SPLINE
  5
60A
100
AcDbEntity
  8
0
100
AcDbSpline
 62
7
  6
CONTINUOUS
 70
0
 71
3
 72
11
 73
7
 74
0
 42
0.0000001
 43
0.0000001
 44
0.0000000001
 40
0.0
 40
0.0
 40
0.0
 40
0.0
 40
0.2262234402
 40
0.4166738362
 40
0.6629036655
 40
1.0
 40
1.0
 40
1.0
 40
1.0
 10
3988.1975856901
 20
2316.5777016772
 30
0.0
 10
3988.7041581469
 20
2316.8988604134
 30
0.0
 10
3989.8120479658
 20
2317.4043013153
 30
0.0
 10
3991.5706331141
 20
2316.5550248324
 30
0.0
 10
3992.3554123913
 20
2314.5421506186
 30
0.0
 10
3992.4925079684
 20
2313.0056088925
 30
0.0
 10
3992.4925079684
 20
2312.1118466315
 30
0.0
  0
SPLINE
  5
60B
100
AcDbEntity
  8
0
100
AcDbSpline
 62
7
  6
CONTINUOUS
 70
0
 71
3
 72
11
 73
7
 74
0
 42
0.0000001
 43
0.0000001
 44
0.0000000001
 40
0.0
 40
0.0
 40
0.0
 40
0.0
 40
0.2262234402
 40
0.4166738362
 40
0.6629036655
 40
1.0
 40
1.0
 40
1.0
 40
1.0
 10
3988.1975856901
 20
1802.742055756
 30
0.0
 10
3988.7041581469
 20
1803.0632144923
 30
0.0
 10
3989.8120479658
 20
1803.5686553942
 30
0.0
 10
3991.5706331141
 20
1802.7193789113
 30
0.0
 10
3992.3554123913
 20
1800.7065046974
 30
0.0
 10
3992.4925079684
 20
1799.1699629714
 30
0.0
 10
3992.4925079684
 20
1798.2762007104
 30
0.0
  0
SPLINE
  5
60C
100
AcDbEntity
  8
0
100
AcDbSpline
 62
7
  6
CONTINUOUS
 70
0
 71
3
 72
14
 73
10
 74
0
 42
0.0000001
 43
0.0000001
 44
0.0000000001
 40
0.0
 40
0.0
 40
0.0
 40
0.0
 40
0.2907608064
 40
0.444814042
 40
0.583882488
 40
0.698463901
 40
0.791941707
 40
0.8854020413
 40
1.0
 40
1.0
 40
1.0
 40
1.0
 10
3944.3135096028
 20
2355.6394708969
 30
0.0
 10
3946.6220243471
 20
2356.9726415372
 30
0.0
 10
3950.8642765949
 20
2357.7850061288
 30
0.0
 10
3956.1978182914
 20
2357.2083253602
 30
0.0
 10
3959.7532518217
 20
2355.913924051
 30
0.0
 10
3962.3391117218
 20
2353.916283852
 30
0.0
 10
3963.4283790434
 20
2351.1476422883
 30
0.0
 10
3962.3427439464
 20
2348.3789575058
 30
0.0
 10
3960.7797168974
 20
2347.1811008838
 30
0.0
 10
3959.8698587889
 20
2346.6556564957
 30
0.0
  0
SPLINE
  5
60D
100
AcDbEntity
  8
0
100
AcDbSpline
 62
7
  6
CONTINUOUS
 70
0
 71
3
 72
11
 73
7
 74
0
 42
0.0000001
 43
0.0000001
 44
0.0000000001
 40
0.0
 40
0.0
 40
0.0
 40
0.0
 40
0.2753981107
 40
0.5000484574
 40
0.7246249601
 40
1.0
 40
1.0
 40
1.0
 40
1.0
 10
4015.1449194965
 20
2491.1473398999
 30
0.0
 10
4014.2345993562
 20
2491.6726277098
 30
0.0
 10
4012.6704199526
 20
2492.8704906074
 30
0.0
 10
4011.5839828208
 20
2495.6393950941
 30
0.0
 10
4012.6680440532
 20
2498.4092427052
 30
0.0
 10
4014.231751059
 20
2499.6073870447
 30
0.0
 10
4015.1418116478
 20
2500.1329483654
 30
0.0
  0
SPLINE
  5
60E
100
AcDbEntity
  8
0
100
AcDbSpline
 62
7
  6
CONTINUOUS
 70
0
 71
3
 72
10
 73
6
 74
0
 42
0.0000001
 43
0.0000001
 44
0.0000000001
 40
0.0
 40
0.0
 40
0.0
 40
0.0
 40
0.5314798931
 40
0.770425019
 40
1.0
 40
1.0
 40
1.0
 40
1.0
 10
3799.6409369191
 20
2100.8642897819
 30
0.0
 10
3789.9644666808
 20
2104.1855823749
 30
0.0
 10
3774.9252823855
 20
2107.0564378556
 30
0.0
 10
3755.7389976863
 20
2104.193617966
 30
0.0
 10
3747.3065509327
 20
2100.6812039692
 30
0.0
 10
3743.47970757
 20
2098.4711944214
 30
0.0
  0
SPLINE
  5
60F
100
AcDbEntity
  8
0
100
AcDbSpline
 62
7
  6
CONTINUOUS
 70
0
 71
3
 72
9
 73
5
 74
0
 42
0.0000001
 43
0.0000001
 44
0.0000000001
 40
0.0
 40
0.0
 40
0.0
 40
0.0
 40
0.5310454947
 40
1.0
 40
1.0
 40
1.0
 40
1.0
 10
3921.6608983791
 20
2278.6669900712
 30
0.0
 10
3926.4473105069
 20
2269.9107716761
 30
0.0
 10
3932.8574093266
 20
2251.8942545544
 30
0.0
 10
3934.5104253891
 20
2233.0436733804
 30
0.0
 10
3934.5104253891
 20
2224.2314104409
 30
0.0
  0
SPLINE
  5
610
100
AcDbEntity
  8
0
100
AcDbSpline
 62
7
  6
CONTINUOUS
 70
0
 71
3
 72
11
 73
7
 74
0
 42
0.0000001
 43
0.0000001
 44
0.0000000001
 40
0.0
 40
0.0
 40
0.0
 40
0.0
 40
0.2753981107
 40
0.5000484574
 40
0.7246249601
 40
1.0
 40
1.0
 40
1.0
 40
1.0
 10
3764.940397205
 20
2450.2438919049
 30
0.0
 10
3764.0300770648
 20
2450.7691797148
 30
0.0
 10
3762.4658976611
 20
2451.9670426124
 30
0.0
 10
3761.3794605294
 20
2454.7359470991
 30
0.0
 10
3762.4635217618
 20
2457.5057947102
 30
0.0
 10
3764.0272287675
 20
2458.7039390497
 30
0.0
 10
3764.9372893563
 20
2459.2295003704
 30
0.0
  0
SPLINE
  5
611
100
AcDbEntity
  8
0
100
AcDbSpline
 62
7
  6
CONTINUOUS
 70
0
 71
3
 72
11
 73
7
 74
0
 42
0.0000001
 43
0.0000001
 44
0.0000000001
 40
0.0
 40
0.0
 40
0.0
 40
0.0
 40
0.2753981107
 40
0.5000484574
 40
0.7246249601
 40
1.0
 40
1.0
 40
1.0
 40
1.0
 10
3944.3166174515
 20
2346.6538624314
 30
0.0
 10
3943.4062973113
 20
2347.1791502413
 30
0.0
 10
3941.8421179076
 20
2348.3770131389
 30
0.0
 10
3940.7556807759
 20
2351.1459176256
 30
0.0
 10
3941.8397420083
 20
2353.9157652368
 30
0.0
 10
3943.403449014
 20
2355.1139095763
 30
0.0
 10
3944.3135096028
 20
2355.6394708969
 30
0.0
  0
SPLINE
  5
612
100
AcDbEntity
  8
0
100
AcDbSpline
 62
7
  6
CONTINUOUS
 70
0
 71
3
 72
8
 73
4
 74
0
 42
0.0000001
 43
0.0000001
 44
0.0000000001
 40
0.0
 40
0.0
 40
0.0
 40
0.0
 40
1.0
 40
1.0
 40
1.0
 40
1.0
 10
3688.9272812054
 20
1878.9824861732
 30
0.0
 10
3688.9271314914
 20
1875.8106377579
 30
0.0
 10
3689.4365225981
 20
1872.6068531463
 30
0.0
 10
3690.3794408747
 20
1869.5784001558
 30
0.0
  0
SPLINE
  5
613
100
AcDbEntity
  8
0
100
AcDbSpline
 62
7
  6
CONTINUOUS
 70
0
 71
3
 72
8
 73
4
 74
0
 42
0.0000001
 43
0.0000001
 44
0.0000000001
 40
0.0
 40
0.0
 40
0.0
 40
0.0
 40
1.0
 40
1.0
 40
1.0
 40
1.0
 10
3981.7358472359
 20
2298.6015717068
 30
0.0
 10
3981.8324462018
 20
2298.4086913878
 30
0.0
 10
3981.946393455
 20
2298.2226448097
 30
0.0
 10
3982.0813975927
 20
2298.0543948157
 30
0.0
  0
SPLINE
  5
614
100
AcDbEntity
  8
0
100
AcDbSpline
 62
7
  6
CONTINUOUS
 70
0
 71
3
 72
14
 73
10
 74
0
 42
0.0000001
 43
0.0000001
 44
0.0000000001
 40
0.0
 40
0.0
 40
0.0
 40
0.0
 40
0.0689329389
 40
0.1433740863
 40
0.2446855801
 40
0.375511822
 40
0.5287401146
 40
0.6928243215
 40
1.0
 40
1.0
 40
1.0
 40
1.0
 10
3982.0813975927
 20
2298.0543948157
 30
0.0
 10
3982.354442077
 20
2297.7141109282
 30
0.0
 10
3983.1950154907
 20
2297.1453846866
 30
0.0
 10
3984.8129065333
 20
2297.5590416768
 30
0.0
 10
3986.316546566
 20
2298.8136365654
 30
0.0
 10
3987.8117258862
 20
2300.7602403847
 30
0.0
 10
3989.1544807323
 20
2303.2711425723
 30
0.0
 10
3990.5484051548
 20
2306.9710296576
 30
0.0
 10
3991.1264825646
 20
2309.9563047317
 30
0.0
 10
3991.1264825646
 20
2311.9004664256
 30
0.0
  0
SPLINE
  5
615
100
AcDbEntity
  8
0
100
AcDbSpline
 62
7
  6
CONTINUOUS
 70
0
 71
3
 72
11
 73
7
 74
0
 42
0.0000001
 43
0.0000001
 44
0.0000000001
 40
0.0
 40
0.0
 40
0.0
 40
0.0
 40
0.283674207
 40
0.5477327932
 40
0.7857541374
 40
1.0
 40
1.0
 40
1.0
 40
1.0
 10
3934.5104253891
 20
2092.4310460349
 30
0.0
 10
3934.5104075463
 20
2088.2400686783
 30
0.0
 10
3934.1808749883
 20
2080.1374383859
 30
0.0
 10
3932.19052873
 20
2068.6549424069
 30
0.0
 10
3928.1853628331
 20
2058.71076752
 30
0.0
 10
3923.3014462592
 20
2053.7384642105
 30
0.0
 10
3920.5604645922
 20
2052.1554853587
 30
0.0
  0
SPLINE
  5
616
100
AcDbEntity
  8
0
100
AcDbSpline
 62
7
  6
CONTINUOUS
 70
0
 71
3
 72
14
 73
10
 74
0
 42
0.0000001
 43
0.0000001
 44
0.0000000001
 40
0.0
 40
0.0
 40
0.0
 40
0.0
 40
0.2907608064
 40
0.444814042
 40
0.583882488
 40
0.698463901
 40
0.791941707
 40
0.8854020413
 40
1.0
 40
1.0
 40
1.0
 40
1.0
 10
3764.9372893563
 20
2459.2295003704
 30
0.0
 10
3767.2458041006
 20
2460.5626710107
 30
0.0
 10
3771.4880563484
 20
2461.3750356023
 30
0.0
 10
3776.8215980449
 20
2460.7983548336
 30
0.0
 10
3780.3770315752
 20
2459.5039535245
 30
0.0
 10
3782.9628914753
 20
2457.5063133255
 30
0.0
 10
3784.0521587969
 20
2454.7376717617
 30
0.0
 10
3782.9665236999
 20
2451.9689869793
 30
0.0
 10
3781.4034966509
 20
2450.7711303572
 30
0.0
 10
3780.4936385424
 20
2450.2456859692
 30
0.0
  0
SPLINE
  5
617
100
AcDbEntity
  8
0
100
AcDbSpline
 62
7
  6
CONTINUOUS
 70
0
 71
3
 72
14
 73
10
 74
0
 42
0.0000001
 43
0.0000001
 44
0.0000000001
 40
0.0
 40
0.0
 40
0.0
 40
0.0
 40
0.2907608064
 40
0.444814042
 40
0.583882488
 40
0.698463901
 40
0.791941707
 40
0.8854020413
 40
1.0
 40
1.0
 40
1.0
 40
1.0
 10
4015.1418116478
 20
2500.1329483654
 30
0.0
 10
4017.450326392
 20
2501.4661190057
 30
0.0
 10
4021.6925786398
 20
2502.2784835973
 30
0.0
 10
4027.0261203364
 20
2501.7018028286
 30
0.0
 10
4030.5815538667
 20
2500.4074015195
 30
0.0
 10
4033.1674137668
 20
2498.4097613205
 30
0.0
 10
4034.2566810884
 20
2495.6411197567
 30
0.0
 10
4033.1710459913
 20
2492.8724349743
 30
0.0
 10
4031.6080189424
 20
2491.6745783522
 30
0.0
 10
4030.6981608339
 20
2491.1491339642
 30
0.0
  0
SPLINE
  5
618
100
AcDbEntity
  8
0
100
AcDbSpline
 62
7
  6
CONTINUOUS
 70
0
 71
3
 72
9
 73
5
 74
0
 42
0.0000001
 43
0.0000001
 44
0.0000000001
 40
0.0
 40
0.0
 40
0.0
 40
0.0
 40
0.2369896458
 40
1.0
 40
1.0
 40
1.0
 40
1.0
 10
3690.3794408747
 20
1869.5784001558
 30
0.0
 10
3705.6018035677
 20
1857.8993431973
 30
0.0
 10
3771.6009755892
 20
1810.9289914055
 30
0.0
 10
3843.7501116606
 20
1772.9161417042
 30
0.0
 10
3900.4018534154
 20
1748.2901498221
 30
0.0
  0
SPLINE
  5
619
100
AcDbEntity
  8
0
100
AcDbSpline
 62
7
  6
CONTINUOUS
 70
0
 71
3
 72
14
 73
10
 74
0
 42
0.0000001
 43
0.0000001
 44
0.0000000001
 40
0.0
 40
0.0
 40
0.0
 40
0.0
 40
0.1145982809
 40
0.2080590345
 40
0.301538854
 40
0.4161229674
 40
0.5551862455
 40
0.7092400294
 40
1.0
 40
1.0
 40
1.0
 40
1.0
 10
3928.7687183258
 20
2397.2070201914
 30
0.0
 10
3928.1897202938
 20
2397.5413924015
 30
0.0
 10
3927.1950449587
 20
2398.3036257207
 30
0.0
 10
3926.5041819705
 20
2400.065541647
 30
0.0
 10
3927.1974860669
 20
2401.8274016832
 30
0.0
 10
3928.8431316905
 20
2403.098429688
 30
0.0
 10
3931.1055500345
 20
2403.9223424964
 30
0.0
 10
3934.4995937548
 20
2404.2893467499
 30
0.0
 10
3937.199173331
 20
2403.7723657005
 30
0.0
 10
3938.6682132624
 20
2402.9239929921
 30
0.0
  0
SPLINE
  5
61A
100
AcDbEntity
  8
0
100
AcDbSpline
 62
7
  6
CONTINUOUS
 70
0
 71
3
 72
9
 73
5
 74
0
 42
0.0000001
 43
0.0000001
 44
0.0000000001
 40
0.0
 40
0.0
 40
0.0
 40
0.0
 40
0.4999367947
 40
1.0
 40
1.0
 40
1.0
 40
1.0
 10
3938.6682132624
 20
2402.9239929921
 30
0.0
 10
3939.6837552757
 20
2402.3375159946
 30
0.0
 10
3941.7535135352
 20
2400.0640950231
 30
0.0
 10
3939.6820715778
 20
2397.7923155872
 30
0.0
 10
3938.6660763164
 20
2397.206030627
 30
0.0
  0
SPLINE
  5
61B
100
AcDbEntity
  8
0
100
AcDbSpline
 62
7
  6
CONTINUOUS
 70
0
 71
3
 72
14
 73
10
 74
0
 42
0.0000001
 43
0.0000001
 44
0.0000000001
 40
0.0
 40
0.0
 40
0.0
 40
0.0
 40
0.1145982809
 40
0.2080590345
 40
0.301538854
 40
0.4161229674
 40
0.5551862455
 40
0.7092400294
 40
1.0
 40
1.0
 40
1.0
 40
1.0
 10
3964.6897428101
 20
2417.9514643542
 30
0.0
 10
3964.110744778
 20
2418.2858365643
 30
0.0
 10
3963.116069443
 20
2419.0480698835
 30
0.0
 10
3962.4252064548
 20
2420.8099858098
 30
0.0
 10
3963.1185105512
 20
2422.571845846
 30
0.0
 10
3964.7641561748
 20
2423.8428738508
 30
0.0
 10
3967.0265745188
 20
2424.6667866593
 30
0.0
 10
3970.420618239
 20
2425.0337909127
 30
0.0
 10
3973.1201978153
 20
2424.5168098634
 30
0.0
 10
3974.5892377467
 20
2423.668437155
 30
0.0
  0
SPLINE
  5
61C
100
AcDbEntity
  8
0
100
AcDbSpline
 62
7
  6
CONTINUOUS
 70
0
 71
3
 72
9
 73
5
 74
0
 42
0.0000001
 43
0.0000001
 44
0.0000000001
 40
0.0
 40
0.0
 40
0.0
 40
0.0
 40
0.4999367947
 40
1.0
 40
1.0
 40
1.0
 40
1.0
 10
3974.5892377467
 20
2423.668437155
 30
0.0
 10
3975.60477976
 20
2423.0819601574
 30
0.0
 10
3977.6745380195
 20
2420.8085391859
 30
0.0
 10
3975.6030960621
 20
2418.53675975
 30
0.0
 10
3974.5871008007
 20
2417.9504747898
 30
0.0
  0
SPLINE
  5
61D
100
AcDbEntity
  8
0
100
AcDbSpline
 62
7
  6
CONTINUOUS
 70
0
 71
3
 72
14
 73
10
 74
0
 42
0.0000001
 43
0.0000001
 44
0.0000000001
 40
0.0
 40
0.0
 40
0.0
 40
0.0
 40
0.1145982809
 40
0.2080590345
 40
0.301538854
 40
0.4161229674
 40
0.5551862455
 40
0.7092400294
 40
1.0
 40
1.0
 40
1.0
 40
1.0
 10
3852.4718966358
 20
2441.2685462774
 30
0.0
 10
3851.8928986037
 20
2441.6029184875
 30
0.0
 10
3850.8982232687
 20
2442.3651518067
 30
0.0
 10
3850.2073602805
 20
2444.127067733
 30
0.0
 10
3850.9006643769
 20
2445.8889277692
 30
0.0
 10
3852.5463100005
 20
2447.159955774
 30
0.0
 10
3854.8087283445
 20
2447.9838685824
 30
0.0
 10
3858.2027720647
 20
2448.3508728359
 30
0.0
 10
3860.902351641
 20
2447.8338917866
 30
0.0
 10
3862.3713915724
 20
2446.9855190782
 30
0.0
  0
SPLINE
  5
61E
100
AcDbEntity
  8
0
100
AcDbSpline
 62
7
  6
CONTINUOUS
 70
0
 71
3
 72
11
 73
7
 74
0
 42
0.0000001
 43
0.0000001
 44
0.0000000001
 40
0.0
 40
0.0
 40
0.0
 40
0.0
 40
0.2142456547
 40
0.4522666612
 40
0.7163253514
 40
1.0
 40
1.0
 40
1.0
 40
1.0
 10
3915.9639101497
 20
2049.5009684449
 30
0.0
 10
3918.704949812
 20
2051.0838990484
 30
0.0
 10
3923.5890072321
 20
2056.0561593429
 30
0.0
 10
3927.5942811022
 20
2066.0004005924
 30
0.0
 10
3929.5846741977
 20
2077.4830011857
 30
0.0
 10
3929.9142134684
 20
2085.5857147389
 30
0.0
 10
3929.9142313113
 20
2089.7767372345
 30
0.0
  0
SPLINE
  5
61F
100
AcDbEntity
  8
0
100
AcDbSpline
 62
7
  6
CONTINUOUS
 70
0
 71
3
 72
9
 73
5
 74
0
 42
0.0000001
 43
0.0000001
 44
0.0000000001
 40
0.0
 40
0.0
 40
0.0
 40
0.0
 40
0.4999367947
 40
1.0
 40
1.0
 40
1.0
 40
1.0
 10
3862.3713915724
 20
2446.9855190782
 30
0.0
 10
3863.3869335857
 20
2446.3990420806
 30
0.0
 10
3865.4566918452
 20
2444.1256211091
 30
0.0
 10
3863.3852498878
 20
2441.8538416732
 30
0.0
 10
3862.3692546264
 20
2441.267556713
 30
0.0
  0
SPLINE
  5
620
100
AcDbEntity
  8
0
100
AcDbSpline
 62
7
  6
CONTINUOUS
 70
0
 71
3
 72
14
 73
10
 74
0
 42
0.0000001
 43
0.0000001
 44
0.0000000001
 40
0.0
 40
0.0
 40
0.0
 40
0.0
 40
0.1145982809
 40
0.2080590345
 40
0.301538854
 40
0.4161229674
 40
0.5551862455
 40
0.7092400294
 40
1.0
 40
1.0
 40
1.0
 40
1.0
 10
3888.3929211201
 20
2462.0129904402
 30
0.0
 10
3887.813923088
 20
2462.3473626503
 30
0.0
 10
3886.819247753
 20
2463.1095959695
 30
0.0
 10
3886.1283847648
 20
2464.8715118958
 30
0.0
 10
3886.8216888612
 20
2466.633371932
 30
0.0
 10
3888.4673344848
 20
2467.9043999369
 30
0.0
 10
3890.7297528288
 20
2468.7283127453
 30
0.0
 10
3894.123796549
 20
2469.0953169988
 30
0.0
 10
3896.8233761253
 20
2468.5783359494
 30
0.0
 10
3898.2924160567
 20
2467.729963241
 30
0.0
  0
SPLINE
  5
621
100
AcDbEntity
  8
0
100
AcDbSpline
 62
7
  6
CONTINUOUS
 70
0
 71
3
 72
9
 73
5
 74
0
 42
0.0000001
 43
0.0000001
 44
0.0000000001
 40
0.0
 40
0.0
 40
0.0
 40
0.0
 40
0.4999367947
 40
1.0
 40
1.0
 40
1.0
 40
1.0
 10
3898.2924160567
 20
2467.729963241
 30
0.0
 10
3899.30795807
 20
2467.1434862434
 30
0.0
 10
3901.3777163295
 20
2464.8700652719
 30
0.0
 10
3899.306274372
 20
2462.598285836
 30
0.0
 10
3898.2902791106
 20
2462.0120008758
 30
0.0
  0
SPLINE
  5
622
100
AcDbEntity
  8
0
100
AcDbSpline
 62
7
  6
CONTINUOUS
 70
0
 71
3
 72
14
 73
10
 74
0
 42
0.0000001
 43
0.0000001
 44
0.0000000001
 40
0.0
 40
0.0
 40
0.0
 40
0.0
 40
0.1145979587
 40
0.208058293
 40
0.301536099
 40
0.416117512
 40
0.555185958
 40
0.7092391936
 40
1.0
 40
1.0
 40
1.0
 40
1.0
 10
3907.1666061606
 20
2428.7932949157
 30
0.0
 10
3906.4221767991
 20
2429.2232039604
 30
0.0
 10
3905.1433364863
 20
2430.2032684694
 30
0.0
 10
3904.2550895887
 20
2432.4685560187
 30
0.0
 10
3905.1463083064
 20
2434.7338082072
 30
0.0
 10
3907.262011861
 20
2436.3682410973
 30
0.0
 10
3910.1710029312
 20
2437.4272967139
 30
0.0
 10
3914.5348097739
 20
2437.8991264336
 30
0.0
 10
3918.0057434311
 20
2437.2344644951
 30
0.0
 10
3919.8945282219
 20
2436.1436885167
 30
0.0
  0
SPLINE
  5
623
100
AcDbEntity
  8
0
100
AcDbSpline
 62
7
  6
CONTINUOUS
 70
0
 71
3
 72
16
 73
12
 74
0
 42
0.0000001
 43
0.0000001
 44
0.0000000001
 40
0.0
 40
0.0
 40
0.0
 40
0.0
 40
0.0428741525
 40
0.0875180563
 40
0.1869154163
 40
0.3042243757
 40
0.437950541
 40
0.5823615403
 40
0.729587072
 40
0.8712502764
 40
1.0
 40
1.0
 40
1.0
 40
1.0
 10
3746.3027124847
 20
2082.7529199282
 30
0.0
 10
3742.8221121041
 20
2080.7437353129
 30
0.0
 10
3736.2247605155
 20
2075.6934582392
 30
0.0
 10
3725.2619261318
 20
2061.8307898929
 30
0.0
 10
3717.0942839463
 20
2038.0401793906
 30
0.0
 10
3716.3713579447
 20
2004.8780131956
 30
0.0
 10
3723.8106459738
 20
1968.3044074866
 30
0.0
 10
3738.8318103899
 20
1931.1592360979
 30
0.0
 10
3760.2055828599
 20
1896.3924622052
 30
0.0
 10
3786.1734172109
 20
1866.8505664203
 30
0.0
 10
3806.4604913841
 20
1851.2366456114
 30
0.0
 10
3816.9114966099
 20
1845.2011748122
 30
0.0
  0
SPLINE
  5
624
100
AcDbEntity
  8
0
100
AcDbSpline
 62
7
  6
CONTINUOUS
 70
0
 71
3
 72
15
 73
11
 74
0
 42
0.0000001
 43
0.0000001
 44
0.0000000001
 40
0.0
 40
0.0
 40
0.0
 40
0.0
 40
0.0883018437
 40
0.1906239961
 40
0.3101749648
 40
0.4445908208
 40
0.5881621711
 40
0.733526881
 40
0.8730218626
 40
1.0
 40
1.0
 40
1.0
 40
1.0
 10
3746.0838097362
 20
2082.0090088231
 30
0.0
 10
3739.7805146848
 20
2076.9762494354
 30
0.0
 10
3728.9912929341
 20
2062.4420775911
 30
0.0
 10
3722.020196621
 20
2034.4999431664
 30
0.0
 10
3722.8600326939
 20
2001.6706341291
 30
0.0
 10
3731.2987291683
 20
1966.1330553248
 30
0.0
 10
3746.6379606915
 20
1930.4453177005
 30
0.0
 10
3767.740910678
 20
1897.2786491757
 30
0.0
 10
3792.9814560892
 20
1869.1572210295
 30
0.0
 10
3812.524065091
 20
1854.2686061304
 30
0.0
 10
3822.5683508594
 20
1848.4680164126
 30
0.0
  0
SPLINE
  5
625
100
AcDbEntity
  8
0
100
AcDbSpline
 62
7
  6
CONTINUOUS
 70
0
 71
3
 72
11
 73
7
 74
0
 42
0.0000001
 43
0.0000001
 44
0.0000000001
 40
0.0
 40
0.0
 40
0.0
 40
0.0
 40
0.2753750399
 40
0.4999515426
 40
0.7246018893
 40
1.0
 40
1.0
 40
1.0
 40
1.0
 10
3919.8945282219
 20
2436.1436885167
 30
0.0
 10
3920.6391232491
 20
2435.7136837997
 30
0.0
 10
3921.9185198902
 20
2434.7333838856
 30
0.0
 10
3922.8054790803
 20
2432.467144931
 30
0.0
 10
3921.9165759725
 20
2430.2016776238
 30
0.0
 10
3920.6367928241
 20
2429.2216079803
 30
0.0
 10
3919.8919854366
 20
2428.7918270449
 30
0.0
  0
SPLINE
  5
626
100
AcDbEntity
  8
0
100
AcDbSpline
 62
7
  6
CONTINUOUS
 70
0
 71
3
 72
11
 73
7
 74
0
 42
0.0000001
 43
0.0000001
 44
0.0000000001
 40
0.0
 40
0.0
 40
0.0
 40
0.0
 40
0.3406966124
 40
0.5978852153
 40
0.7934193629
 40
1.0
 40
1.0
 40
1.0
 40
1.0
 10
3991.1264825646
 20
1798.0648205045
 30
0.0
 10
3991.1264825646
 20
1798.817267328
 30
0.0
 10
3991.014722023
 20
1800.1384268569
 30
0.0
 10
3990.4200103618
 20
1801.8375979729
 30
0.0
 10
3989.1527420844
 20
1802.7952990537
 30
0.0
 10
3988.1909582356
 20
1802.5991362387
 30
0.0
 10
3987.7719722625
 20
1802.418554491
 30
0.0
  0
SPLINE
  5
627
100
AcDbEntity
  8
0
100
AcDbSpline
 62
7
  6
CONTINUOUS
 70
0
 71
3
 72
14
 73
10
 74
0
 42
0.0000001
 43
0.0000001
 44
0.0000000001
 40
0.0
 40
0.0
 40
0.0
 40
0.0
 40
0.3071756785
 40
0.4712598854
 40
0.624488178
 40
0.7553144199
 40
0.8566259137
 40
0.9310670611
 40
1.0
 40
1.0
 40
1.0
 40
1.0
 10
3991.1264825646
 20
1798.0648205045
 30
0.0
 10
3991.1264825646
 20
1796.1206588106
 30
0.0
 10
3990.5484051548
 20
1793.1353837364
 30
0.0
 10
3989.1544807323
 20
1789.4354966511
 30
0.0
 10
3987.8117258862
 20
1786.9245944636
 30
0.0
 10
3986.316546566
 20
1784.9779906442
 30
0.0
 10
3984.8129065333
 20
1783.7233957556
 30
0.0
 10
3983.1950154907
 20
1783.3097387655
 30
0.0
 10
3982.354442077
 20
1783.878465007
 30
0.0
 10
3982.0813975927
 20
1784.2187488946
 30
0.0
  0
SPLINE
  5
628
100
AcDbEntity
  8
0
100
AcDbSpline
 62
7
  6
CONTINUOUS
 70
0
 71
3
 72
8
 73
4
 74
0
 42
0.0000001
 43
0.0000001
 44
0.0000000001
 40
0.0
 40
0.0
 40
0.0
 40
0.0
 40
1.0
 40
1.0
 40
1.0
 40
1.0
 10
3982.0813975927
 20
1784.2187488946
 30
0.0
 10
3981.946393455
 20
1784.3869988886
 30
0.0
 10
3981.8324462018
 20
1784.5730454666
 30
0.0
 10
3981.7358472359
 20
1784.7659257857
 30
0.0
  0
SPLINE
  5
629
100
AcDbEntity
  8
0
100
AcDbSpline
 62
7
  6
CONTINUOUS
 70
0
 71
3
 72
9
 73
5
 74
0
 42
0.0000001
 43
0.0000001
 44
0.0000000001
 40
0.0
 40
0.0
 40
0.0
 40
0.0
 40
0.2477787108
 40
1.0
 40
1.0
 40
1.0
 40
1.0
 10
3943.2290520011
 20
1735.1390921503
 30
0.0
 10
3939.5974437863
 20
1734.5356244298
 30
0.0
 10
3924.8578060789
 20
1732.6279421072
 30
0.0
 10
3909.8587895129
 20
1732.7333185949
 30
0.0
 10
3898.7493446616
 20
1733.9533081275
 30
0.0
  0
SPLINE
  5
62A
100
AcDbEntity
  8
0
100
AcDbSpline
 62
7
  6
CONTINUOUS
 70
0
 71
3
 72
8
 73
4
 74
0
 42
0.0000001
 43
0.0000001
 44
0.0000000001
 40
0.0
 40
0.0
 40
0.0
 40
0.0
 40
1.0
 40
1.0
 40
1.0
 40
1.0
 10
3907.5296434618
 20
2428.5970076626
 30
0.0
 10
3907.1173770892
 20
2428.8673666326
 30
0.0
 10
3906.7288396443
 20
2429.1851071866
 30
0.0
 10
3906.4025149977
 20
2429.5546606465
 30
0.0
  0
SPLINE
  5
62B
100
AcDbEntity
  8
0
100
AcDbSpline
 62
7
  6
CONTINUOUS
 70
0
 71
3
 72
13
 73
9
 74
0
 42
0.0000001
 43
0.0000001
 44
0.0000000001
 40
0.0
 40
0.0
 40
0.0
 40
0.0
 40
0.096835683
 40
0.1867362799
 40
0.2897037182
 40
0.4151269709
 40
0.7129658565
 40
1.0
 40
1.0
 40
1.0
 40
1.0
 10
3906.4025149977
 20
2429.5546606465
 30
0.0
 10
3906.0151380132
 20
2429.9933541574
 30
0.0
 10
3905.4081838773
 20
2431.0274737505
 30
0.0
 10
3905.6230902871
 20
2432.8808269031
 30
0.0
 10
3906.9096583153
 20
2434.4110080754
 30
0.0
 10
3909.7176813198
 20
2435.9854973887
 30
0.0
 10
3914.0957833084
 20
2436.5826452988
 30
0.0
 10
3917.6851831784
 20
2435.7864884593
 30
0.0
 10
3919.1874214407
 20
2434.9189436663
 30
0.0
  0
SPLINE
  5
62C
100
AcDbEntity
  8
0
100
AcDbSpline
 62
7
  6
CONTINUOUS
 70
0
 71
3
 72
12
 73
8
 74
0
 42
0.0000001
 43
0.0000001
 44
0.0000000001
 40
0.0
 40
0.0
 40
0.0
 40
0.0
 40
0.2911018768
 40
0.5887903466
 40
0.8046605902
 40
0.8954294841
 40
1.0
 40
1.0
 40
1.0
 40
1.0
 10
3897.5853092755
 20
2466.5052183906
 30
0.0
 10
3896.4027347758
 20
2467.1881568933
 30
0.0
 10
3893.5532698311
 20
2467.751464071
 30
0.0
 10
3889.8274092813
 20
2467.2426725497
 30
0.0
 10
3887.2185421763
 20
2465.2021130586
 30
0.0
 10
3887.3918628467
 20
2463.1268292187
 30
0.0
 10
3888.0282674751
 20
2462.4024560629
 30
0.0
 10
3888.4044203909
 20
2462.0875650475
 30
0.0
  0
SPLINE
  5
62D
100
AcDbEntity
  8
0
100
AcDbSpline
 62
7
  6
CONTINUOUS
 70
0
 71
3
 72
9
 73
5
 74
0
 42
0.0000001
 43
0.0000001
 44
0.0000000001
 40
0.0
 40
0.0
 40
0.0
 40
0.0
 40
0.2477787108
 40
1.0
 40
1.0
 40
1.0
 40
1.0
 10
3943.2290520011
 20
2302.6115380984
 30
0.0
 10
3939.5974437863
 20
2302.008070378
 30
0.0
 10
3924.8578060789
 20
2300.1003880554
 30
0.0
 10
3909.8587895129
 20
2300.2057645431
 30
0.0
 10
3898.7493446616
 20
2301.4257540757
 30
0.0
  0
SPLINE
  5
62E
100
AcDbEntity
  8
0
100
AcDbSpline
 62
7
  6
CONTINUOUS
 70
0
 71
3
 72
12
 73
8
 74
0
 42
0.0000001
 43
0.0000001
 44
0.0000000001
 40
0.0
 40
0.0
 40
0.0
 40
0.0
 40
0.2911018768
 40
0.5887903466
 40
0.8046605902
 40
0.8954294841
 40
1.0
 40
1.0
 40
1.0
 40
1.0
 10
3861.6642847912
 20
2445.7607742278
 30
0.0
 10
3860.4817102915
 20
2446.4437127305
 30
0.0
 10
3857.6322453469
 20
2447.0070199082
 30
0.0
 10
3853.906384797
 20
2446.4982283869
 30
0.0
 10
3851.297517692
 20
2444.4576688958
 30
0.0
 10
3851.4708383624
 20
2442.3823850559
 30
0.0
 10
3852.1072429908
 20
2441.6580119
 30
0.0
 10
3852.4833959067
 20
2441.3431208847
 30
0.0
  0
SPLINE
  5
62F
100
AcDbEntity
  8
0
100
AcDbSpline
 62
7
  6
CONTINUOUS
 70
0
 71
3
 72
12
 73
8
 74
0
 42
0.0000001
 43
0.0000001
 44
0.0000000001
 40
0.0
 40
0.0
 40
0.0
 40
0.0
 40
0.2911018768
 40
0.5887903466
 40
0.8046605902
 40
0.8954294841
 40
1.0
 40
1.0
 40
1.0
 40
1.0
 10
3973.8821309655
 20
2422.4436923046
 30
0.0
 10
3972.6995564658
 20
2423.1266308073
 30
0.0
 10
3969.8500915212
 20
2423.689937985
 30
0.0
 10
3966.1242309714
 20
2423.1811464637
 30
0.0
 10
3963.5153638663
 20
2421.1405869726
 30
0.0
 10
3963.6886845367
 20
2419.0653031327
 30
0.0
 10
3964.3250891651
 20
2418.3409299769
 30
0.0
 10
3964.701242081
 20
2418.0260389615
 30
0.0
  0
SPLINE
  5
630
100
AcDbEntity
  8
0
100
AcDbSpline
 62
7
  6
CONTINUOUS
 70
0
 71
3
 72
12
 73
8
 74
0
 42
0.0000001
 43
0.0000001
 44
0.0000000001
 40
0.0
 40
0.0
 40
0.0
 40
0.0
 40
0.2911018768
 40
0.5887903466
 40
0.8046605902
 40
0.8954294841
 40
1.0
 40
1.0
 40
1.0
 40
1.0
 10
3937.9611064812
 20
2401.6992481417
 30
0.0
 10
3936.7785319815
 20
2402.3821866445
 30
0.0
 10
3933.9290670369
 20
2402.9454938222
 30
0.0
 10
3930.2032064871
 20
2402.4367023009
 30
0.0
 10
3927.594339382
 20
2400.3961428098
 30
0.0
 10
3927.7676600524
 20
2398.3208589699
 30
0.0
 10
3928.4040646809
 20
2397.596485814
 30
0.0
 10
3928.7802175967
 20
2397.2815947987
 30
0.0
  0
SPLINE
  5
631
100
AcDbEntity
  8
0
100
AcDbSpline
 62
7
  6
CONTINUOUS
 70
0
 71
3
 72
10
 73
6
 74
0
 42
0.0000001
 43
0.0000001
 44
0.0000000001
 40
0.0
 40
0.0
 40
0.0
 40
0.0
 40
0.5135330862
 40
0.7391086204
 40
1.0
 40
1.0
 40
1.0
 40
1.0
 10
3973.8821309655
 20
2422.4436923046
 30
0.0
 10
3974.6795237917
 20
2421.9831967815
 30
0.0
 10
3975.8384698664
 20
2420.8632266599
 30
0.0
 10
3975.5200563594
 20
2418.9752361793
 30
0.0
 10
3974.912313155
 20
2418.3006746153
 30
0.0
 10
3974.5511109719
 20
2418.0034019435
 30
0.0
  0
SPLINE
  5
632
100
AcDbEntity
  8
0
100
AcDbSpline
 62
7
  6
CONTINUOUS
 70
0
 71
3
 72
10
 73
6
 74
0
 42
0.0000001
 43
0.0000001
 44
0.0000000001
 40
0.0
 40
0.0
 40
0.0
 40
0.0
 40
0.5135330862
 40
0.7391086204
 40
1.0
 40
1.0
 40
1.0
 40
1.0
 10
3937.9611064812
 20
2401.6992481417
 30
0.0
 10
3938.7584993075
 20
2401.2387526187
 30
0.0
 10
3939.9174453822
 20
2400.1187824971
 30
0.0
 10
3939.5990318751
 20
2398.2307920165
 30
0.0
 10
3938.9912886707
 20
2397.5562304524
 30
0.0
 10
3938.6300864876
 20
2397.2589577807
 30
0.0
  0
SPLINE
  5
633
100
AcDbEntity
  8
0
100
AcDbSpline
 62
7
  6
CONTINUOUS
 70
0
 71
3
 72
10
 73
6
 74
0
 42
0.0000001
 43
0.0000001
 44
0.0000000001
 40
0.0
 40
0.0
 40
0.0
 40
0.0
 40
0.5135330862
 40
0.7391086204
 40
1.0
 40
1.0
 40
1.0
 40
1.0
 10
3861.6642847912
 20
2445.7607742278
 30
0.0
 10
3862.4616776174
 20
2445.3002787047
 30
0.0
 10
3863.6206236921
 20
2444.1803085831
 30
0.0
 10
3863.3022101851
 20
2442.2923181025
 30
0.0
 10
3862.6944669807
 20
2441.6177565384
 30
0.0
 10
3862.3332647976
 20
2441.3204838667
 30
0.0
  0
SPLINE
  5
634
100
AcDbEntity
  8
0
100
AcDbSpline
 62
7
  6
CONTINUOUS
 70
0
 71
3
 72
10
 73
6
 74
0
 42
0.0000001
 43
0.0000001
 44
0.0000000001
 40
0.0
 40
0.0
 40
0.0
 40
0.0
 40
0.5135330862
 40
0.7391086204
 40
1.0
 40
1.0
 40
1.0
 40
1.0
 10
3897.5853092755
 20
2466.5052183906
 30
0.0
 10
3898.3827021017
 20
2466.0447228675
 30
0.0
 10
3899.5416481764
 20
2464.9247527459
 30
0.0
 10
3899.2232346693
 20
2463.0367622654
 30
0.0
 10
3898.615491465
 20
2462.3622007013
 30
0.0
 10
3898.2542892819
 20
2462.0649280295
 30
0.0
  0
SPLINE
  5
635
100
AcDbEntity
  8
0
100
AcDbSpline
 62
7
  6
CONTINUOUS
 70
0
 71
3
 72
13
 73
9
 74
0
 42
0.0000001
 43
0.0000001
 44
0.0000000001
 40
0.0
 40
0.0
 40
0.0
 40
0.0
 40
0.2916669742
 40
0.4471762909
 40
0.5894751131
 40
0.7995775895
 40
0.8912244115
 40
1.0
 40
1.0
 40
1.0
 40
1.0
 10
4015.8489184289
 20
2498.908203515
 30
0.0
 10
4017.8718270584
 20
2500.0764362064
 30
0.0
 10
4021.5684469185
 20
2500.835607182
 30
0.0
 10
4026.3060309167
 20
2500.3818656683
 30
0.0
 10
4030.1251107459
 20
2499.198037437
 30
0.0
 10
4033.3433967613
 20
2496.3563806139
 30
0.0
 10
4032.6290568325
 20
2492.8672962103
 30
0.0
 10
4031.4169737185
 20
2491.7116249853
 30
0.0
 10
4030.7093038355
 20
2491.203496917
 30
0.0
  0
SPLINE
  5
636
100
AcDbEntity
  8
0
100
AcDbSpline
 62
7
  6
CONTINUOUS
 70
0
 71
3
 72
13
 73
9
 74
0
 42
0.0000001
 43
0.0000001
 44
0.0000000001
 40
0.0
 40
0.0
 40
0.0
 40
0.0
 40
0.2916669742
 40
0.4471762909
 40
0.5894751131
 40
0.7995775895
 40
0.8912244115
 40
1.0
 40
1.0
 40
1.0
 40
1.0
 10
3765.6443961375
 20
2458.00475552
 30
0.0
 10
3767.667304767
 20
2459.1729882114
 30
0.0
 10
3771.3639246271
 20
2459.932159187
 30
0.0
 10
3776.1015086252
 20
2459.4784176733
 30
0.0
 10
3779.9205884544
 20
2458.294589442
 30
0.0
 10
3783.1388744699
 20
2455.4529326189
 30
0.0
 10
3782.424534541
 20
2451.9638482153
 30
0.0
 10
3781.2124514271
 20
2450.8081769903
 30
0.0
 10
3780.504781544
 20
2450.300048922
 30
0.0
  0
SPLINE
  5
637
100
AcDbEntity
  8
0
100
AcDbSpline
 62
7
  6
CONTINUOUS
 70
0
 71
3
 72
13
 73
9
 74
0
 42
0.0000001
 43
0.0000001
 44
0.0000000001
 40
0.0
 40
0.0
 40
0.0
 40
0.0
 40
0.2916669742
 40
0.4471762909
 40
0.5894751131
 40
0.7995775895
 40
0.8912244115
 40
1.0
 40
1.0
 40
1.0
 40
1.0
 10
3945.020616384
 20
2354.4147260466
 30
0.0
 10
3947.0435250135
 20
2355.5829587379
 30
0.0
 10
3950.7401448736
 20
2356.3421297136
 30
0.0
 10
3955.4777288717
 20
2355.8883881998
 30
0.0
 10
3959.2968087009
 20
2354.7045599685
 30
0.0
 10
3962.5150947164
 20
2351.8629031454
 30
0.0
 10
3961.8007547875
 20
2348.3738187418
 30
0.0
 10
3960.5886716736
 20
2347.2181475169
 30
0.0
 10
3959.8810017905
 20
2346.7100194485
 30
0.0
  0
SPLINE
  5
638
100
AcDbEntity
  8
0
100
AcDbSpline
 62
7
  6
CONTINUOUS
 70
0
 71
3
 72
10
 73
6
 74
0
 42
0.0000001
 43
0.0000001
 44
0.0000000001
 40
0.0
 40
0.0
 40
0.0
 40
0.0
 40
0.5053411305
 40
0.7317124453
 40
1.0
 40
1.0
 40
1.0
 40
1.0
 10
3945.020616384
 20
2354.4147260466
 30
0.0
 10
3943.6441919452
 20
2353.6198389205
 30
0.0
 10
3941.6243598623
 20
2351.5898261512
 30
0.0
 10
3942.4514816284
 20
2348.3130912126
 30
0.0
 10
3943.6192619879
 20
2347.199605572
 30
0.0
 10
3944.3050460576
 20
2346.7078885151
 30
0.0
  0
SPLINE
  5
639
100
AcDbEntity
  8
0
100
AcDbSpline
 62
7
  6
CONTINUOUS
 70
0
 71
3
 72
10
 73
6
 74
0
 42
0.0000001
 43
0.0000001
 44
0.0000000001
 40
0.0
 40
0.0
 40
0.0
 40
0.0
 40
0.5053411305
 40
0.7317124453
 40
1.0
 40
1.0
 40
1.0
 40
1.0
 10
3765.6443961375
 20
2458.00475552
 30
0.0
 10
3764.2679716987
 20
2457.209868394
 30
0.0
 10
3762.2481396158
 20
2455.1798556247
 30
0.0
 10
3763.075261382
 20
2451.9031206861
 30
0.0
 10
3764.2430417414
 20
2450.7896350455
 30
0.0
 10
3764.9288258111
 20
2450.2979179885
 30
0.0
  0
SPLINE
  5
63A
100
AcDbEntity
  8
0
100
AcDbSpline
 62
7
  6
CONTINUOUS
 70
0
 71
3
 72
10
 73
6
 74
0
 42
0.0000001
 43
0.0000001
 44
0.0000000001
 40
0.0
 40
0.0
 40
0.0
 40
0.0
 40
0.5053411305
 40
0.7317124453
 40
1.0
 40
1.0
 40
1.0
 40
1.0
 10
4015.8489184289
 20
2498.908203515
 30
0.0
 10
4014.4724939901
 20
2498.113316389
 30
0.0
 10
4012.4526619073
 20
2496.0833036196
 30
0.0
 10
4013.2797836734
 20
2492.8065686811
 30
0.0
 10
4014.4475640328
 20
2491.6930830405
 30
0.0
 10
4015.1333481026
 20
2491.2013659835
 30
0.0
  0
SPLINE
  5
63B
100
AcDbEntity
  8
0
100
AcDbSpline
 62
7
  6
CONTINUOUS
 70
0
 71
3
 72
13
 73
9
 74
0
 42
0.0000001
 43
0.0000001
 44
0.0000000001
 40
0.0
 40
0.0
 40
0.0
 40
0.0
 40
0.3168921056
 40
0.6347352653
 40
0.7582660112
 40
0.8484972
 40
0.9178646045
 40
1.0
 40
1.0
 40
1.0
 40
1.0
 10
3992.4925079684
 20
1798.2762007104
 30
0.0
 10
3992.4925079684
 20
1795.9510240773
 30
0.0
 10
3991.5213733232
 20
1791.3229042419
 30
0.0
 10
3989.1496129159
 20
1786.17169082
 30
0.0
 10
3986.5677011023
 20
1783.249303716
 30
0.0
 10
3984.722408223
 20
1782.0786876802
 30
0.0
 10
3982.781985065
 20
1782.4337184223
 30
0.0
 10
3982.1908075518
 20
1783.5104142884
 30
0.0
 10
3981.9765343913
 20
1784.0736995583
 30
0.0
  0
SPLINE
  5
63C
100
AcDbEntity
  8
0
100
AcDbSpline
 62
7
  6
CONTINUOUS
 70
0
 71
3
 72
9
 73
5
 74
0
 42
0.0000001
 43
0.0000001
 44
0.0000000001
 40
0.0
 40
0.0
 40
0.0
 40
0.0
 40
0.2632541267
 40
1.0
 40
1.0
 40
1.0
 40
1.0
 10
3898.7493446616
 20
1733.9533081275
 30
0.0
 10
3879.0028346961
 20
1742.5211700449
 30
0.0
 10
3804.889767993
 20
1777.031103409
 30
0.0
 10
3734.3790227022
 20
1819.7482138078
 30
0.0
 10
3686.6173103056
 20
1856.4598681442
 30
0.0
  0
SPLINE
  5
63D
100
AcDbEntity
  8
0
100
AcDbSpline
 62
7
  6
CONTINUOUS
 70
0
 71
3
 72
13
 73
9
 74
0
 42
0.0000001
 43
0.0000001
 44
0.0000000001
 40
0.0
 40
0.0
 40
0.0
 40
0.0
 40
0.3168921056
 40
0.6347352653
 40
0.7582660112
 40
0.8484972
 40
0.9178646045
 40
1.0
 40
1.0
 40
1.0
 40
1.0
 10
3992.4925079684
 20
2312.1118466315
 30
0.0
 10
3992.4925079684
 20
2309.7866699984
 30
0.0
 10
3991.5213733232
 20
2305.158550163
 30
0.0
 10
3989.1496129159
 20
2300.0073367411
 30
0.0
 10
3986.5677011023
 20
2297.0849496372
 30
0.0
 10
3984.722408223
 20
2295.9143336014
 30
0.0
 10
3982.781985065
 20
2296.2693643434
 30
0.0
 10
3982.1908075518
 20
2297.3460602095
 30
0.0
 10
3981.9765343913
 20
2297.9093454794
 30
0.0
  0
SPLINE
  5
63E
100
AcDbEntity
  8
0
100
AcDbSpline
 62
7
  6
CONTINUOUS
 70
0
 71
3
 72
16
 73
12
 74
0
 42
0.0000001
 43
0.0000001
 44
0.0000000001
 40
0.0
 40
0.0
 40
0.0
 40
0.0
 40
0.0428741525
 40
0.0875180563
 40
0.1869154163
 40
0.3042243757
 40
0.437950541
 40
0.5823615403
 40
0.729587072
 40
0.8712502764
 40
1.0
 40
1.0
 40
1.0
 40
1.0
 10
3895.0327903331
 20
1825.1879971062
 30
0.0
 10
3898.8837135296
 20
1827.4109514231
 30
0.0
 10
3906.1829985638
 20
1832.9985590209
 30
0.0
 10
3918.3122373765
 20
1848.3361632452
 30
0.0
 10
3927.3488860329
 20
1874.6580054059
 30
0.0
 10
3928.1487286476
 20
1911.3485016085
 30
0.0
 10
3919.9179282958
 20
1951.8134016844
 30
0.0
 10
3903.2985683684
 20
1992.9106798829
 30
0.0
 10
3879.650706735
 20
2031.3765080193
 30
0.0
 10
3850.9199922804
 20
2064.061550629
 30
0.0
 10
3828.4744495635
 20
2081.3367340045
 30
0.0
 10
3816.9114966099
 20
2088.0143562423
 30
0.0
  0
SPLINE
  5
63F
100
AcDbEntity
  8
0
100
AcDbSpline
 62
7
  6
CONTINUOUS
 70
0
 71
3
 72
15
 73
11
 74
0
 42
0.0000001
 43
0.0000001
 44
0.0000000001
 40
0.0
 40
0.0
 40
0.0
 40
0.0
 40
0.0867305612
 40
0.1842342363
 40
0.2978730309
 40
0.4273988802
 40
0.568823779
 40
0.7160375991
 40
0.8620380841
 40
1.0
 40
1.0
 40
1.0
 40
1.0
 10
3899.733663704
 20
1827.9025495144
 30
0.0
 10
3906.8526699152
 20
1832.0137895645
 30
0.0
 10
3919.8942800271
 20
1844.6702258546
 30
0.0
 10
3930.5745971679
 20
1871.4225880681
 30
0.0
 10
3933.2913058901
 20
1903.9402366631
 30
0.0
 10
3928.2378225031
 20
1940.2784783557
 30
0.0
 10
3915.8562694934
 20
1978.1204638767
 30
0.0
 10
3896.9870377086
 20
2014.9297806584
 30
0.0
 10
3872.9440462829
 20
2048.1662126375
 30
0.0
 10
3853.7252195913
 20
2067.2520691844
 30
0.0
 10
3843.5724343549
 20
2075.4937857768
 30
0.0
  0
SPLINE
  5
640
100
AcDbEntity
  8
0
100
AcDbSpline
 62
7
  6
CONTINUOUS
 70
0
 71
3
 72
9
 73
5
 74
0
 42
0.0000001
 43
0.0000001
 44
0.0000000001
 40
0.0
 40
0.0
 40
0.0
 40
0.0
 40
0.4682554751
 40
1.0
 40
1.0
 40
1.0
 40
1.0
 10
3929.9142313113
 20
2221.5771016405
 30
0.0
 10
3929.9142313113
 20
2230.8368206403
 30
0.0
 10
3928.0883259146
 20
2250.6843720956
 30
0.0
 10
3920.920367296
 20
2269.5384073993
 30
0.0
 10
3915.5951498525
 20
2278.605474767
 30
0.0
  0
SPLINE
  5
641
100
AcDbEntity
  8
0
100
AcDbSpline
 62
7
  6
CONTINUOUS
 70
0
 71
3
 72
16
 73
12
 74
0
 42
0.0000001
 43
0.0000001
 44
0.0000000001
 40
0.0
 40
0.0
 40
0.0
 40
0.0
 40
0.1372855889
 40
0.2892573783
 40
0.4434395885
 40
0.586745138
 40
0.7092935551
 40
0.8092756385
 40
0.8545352391
 40
0.8998244118
 40
1.0
 40
1.0
 40
1.0
 40
1.0
 10
3852.3163331439
 20
1916.6959971391
 30
0.0
 10
3845.0576223414
 20
1920.8879132412
 30
0.0
 10
3831.2010438372
 20
1932.2421754139
 30
0.0
 10
3814.5342719763
 20
1953.7951770557
 30
0.0
 10
3802.3438351146
 20
1978.6048706189
 30
0.0
 10
3796.161771521
 20
2003.7350803397
 30
0.0
 10
3796.6048552372
 20
2026.3967572552
 30
0.0
 10
3803.6322260861
 20
2042.0285814522
 30
0.0
 10
3812.82690124
 20
2049.4818837749
 30
0.0
 10
3823.89406125
 20
2053.6467224447
 30
0.0
 10
3833.2474241603
 20
2052.6698244208
 30
0.0
 10
3839.1132376637
 20
2050.9371099029
 30
0.0
  0
SPLINE
  5
642
100
AcDbEntity
  8
0
100
AcDbSpline
 62
7
  6
CONTINUOUS
 70
0
 71
3
 72
12
 73
8
 74
0
 42
0.0000001
 43
0.0000001
 44
0.0000000001
 40
0.0
 40
0.0
 40
0.0
 40
0.0
 40
0.2868098607
 40
0.5255562594
 40
0.6369233905
 40
0.7499524874
 40
1.0
 40
1.0
 40
1.0
 40
1.0
 10
3852.3163331439
 20
1916.6959971391
 30
0.0
 10
3857.9299905546
 20
1913.4541017762
 30
0.0
 10
3869.0721158505
 20
1908.68751222
 30
0.0
 10
3884.1280721401
 20
1908.9183316625
 30
0.0
 10
3893.6560107897
 20
1913.617961558
 30
0.0
 10
3901.6026798429
 20
1921.0118733268
 30
0.0
 10
3905.006158829
 20
1928.908623858
 30
0.0
 10
3906.3382794477
 20
1934.4009956362
 30
0.0
  0
SPLINE
  5
643
100
AcDbEntity
  8
0
100
AcDbSpline
 62
7
  6
CONTINUOUS
 70
0
 71
3
 72
19
 73
15
 74
0
 42
0.0000001
 43
0.0000001
 44
0.0000000001
 40
0.0
 40
0.0
 40
0.0
 40
0.0
 40
0.0604616213
 40
0.1145440514
 40
0.1631885818
 40
0.2086144218
 40
0.2540370568
 40
0.3026716359
 40
0.3567444073
 40
0.4171912233
 40
0.555432679
 40
0.7085812218
 40
0.8617382629
 40
1.0
 40
1.0
 40
1.0
 40
1.0
 10
3822.5683508594
 20
2062.3134887968
 30
0.0
 10
3817.2683838255
 20
2065.3742275085
 30
0.0
 10
3806.7301329457
 20
2070.3924019457
 30
0.0
 10
3790.5328786795
 20
2074.303731926
 30
0.0
 10
3775.325053566
 20
2073.9212844565
 30
0.0
 10
3761.7889463183
 20
2069.0164107665
 30
0.0
 10
3750.7694489513
 20
2059.7516441485
 30
0.0
 10
3742.8310271508
 20
2046.7784710154
 30
0.0
 10
3738.114915087
 20
2030.7950319485
 30
0.0
 10
3736.0884584415
 20
2005.1485233833
 30
0.0
 10
3742.447347204
 20
1969.5494157411
 30
0.0
 10
3760.7374747311
 20
1928.0592392089
 30
0.0
 10
3787.5117484257
 20
1891.4775928754
 30
0.0
 10
3810.4485526623
 20
1872.1701824633
 30
0.0
 10
3822.5683508594
 20
1865.1709812831
 30
0.0
  0
SPLINE
  5
644
100
AcDbEntity
  8
0
100
AcDbSpline
 62
7
  6
CONTINUOUS
 70
0
 71
3
 72
8
 73
4
 74
0
 42
0.0000001
 43
0.0000001
 44
0.0000000001
 40
0.0
 40
0.0
 40
0.0
 40
0.0
 40
1.0
 40
1.0
 40
1.0
 40
1.0
 10
3690.3794408747
 20
1857.4141943658
 30
0.0
 10
3689.4365225981
 20
1860.4426473563
 30
0.0
 10
3688.9271314914
 20
1863.6464319679
 30
0.0
 10
3688.9272812054
 20
1866.8182803832
 30
0.0
  0
SPLINE
  5
645
100
AcDbEntity
  8
0
100
AcDbSpline
 62
7
  6
CONTINUOUS
 70
0
 71
3
 72
11
 73
7
 74
0
 42
0.0000001
 43
0.0000001
 44
0.0000000001
 40
0.0
 40
0.0
 40
0.0
 40
0.0
 40
0.2898296195
 40
0.549073273
 40
0.7822488371
 40
1.0
 40
1.0
 40
1.0
 40
1.0
 10
3816.9114966099
 20
2088.0143562423
 30
0.0
 10
3810.0529419595
 20
2091.9751815814
 30
0.0
 10
3796.4167472263
 20
2098.4694701406
 30
0.0
 10
3775.4521769255
 20
2103.5273442481
 30
0.0
 10
3755.7855794847
 20
2103.0380735768
 30
0.0
 10
3743.9436423036
 20
2098.7376245888
 30
0.0
 10
3738.7902028867
 20
2095.7627897729
 30
0.0
  0
SPLINE
  5
646
100
AcDbEntity
  8
0
100
AcDbSpline
 62
7
  6
CONTINUOUS
 70
0
 71
3
 72
11
 73
7
 74
0
 42
0.0000001
 43
0.0000001
 44
0.0000000001
 40
0.0
 40
0.0
 40
0.0
 40
0.0
 40
0.2898296195
 40
0.549073273
 40
0.7822488371
 40
1.0
 40
1.0
 40
1.0
 40
1.0
 10
3816.9114966099
 20
1845.2011748122
 30
0.0
 10
3823.1105005133
 20
1841.6212409939
 30
0.0
 10
3835.4353748761
 20
1835.751473648
 30
0.0
 10
3854.3838938791
 20
1831.1799884105
 30
0.0
 10
3872.1592591732
 20
1831.6222085218
 30
0.0
 10
3882.8624201961
 20
1835.5091061878
 30
0.0
 10
3887.5202807351
 20
1838.1978669509
 30
0.0
  0
SPLINE
  5
647
100
AcDbEntity
  8
0
100
AcDbSpline
 62
7
  6
CONTINUOUS
 70
0
 71
3
 72
9
 73
5
 74
0
 42
0.0000001
 43
0.0000001
 44
0.0000000001
 40
0.0
 40
0.0
 40
0.0
 40
0.0
 40
0.2631711641
 40
1.0
 40
1.0
 40
1.0
 40
1.0
 10
3900.4018534154
 20
1736.1259440321
 30
0.0
 10
3880.863906627
 20
1744.6189100752
 30
0.0
 10
3807.5068491852
 20
1778.8239665673
 30
0.0
 10
3737.7029665606
 20
1821.1061544701
 30
0.0
 10
3690.3794408747
 20
1857.4141943658
 30
0.0
  0
SPLINE
  5
648
100
AcDbEntity
  8
0
100
AcDbSpline
 62
7
  6
CONTINUOUS
 70
0
 71
3
 72
11
 73
7
 74
0
 42
0.0000001
 43
0.0000001
 44
0.0000000001
 40
0.0
 40
0.0
 40
0.0
 40
0.0
 40
0.2865306597
 40
0.5461981635
 40
0.78170562
 40
1.0
 40
1.0
 40
1.0
 40
1.0
 10
3822.5683508594
 20
1848.4680164126
 30
0.0
 10
3828.1120667306
 20
1845.2665123911
 30
0.0
 10
3839.1432541806
 20
1839.9029177711
 30
0.0
 10
3856.0759790649
 20
1835.1787997257
 30
0.0
 10
3872.1463547409
 20
1834.3582751216
 30
0.0
 10
3882.2046232688
 20
1836.5968994327
 30
0.0
 10
3886.7465011067
 20
1838.3740848175
 30
0.0
  0
SPLINE
  5
649
100
AcDbEntity
  8
0
100
AcDbSpline
 62
7
  6
CONTINUOUS
 70
0
 71
3
 72
15
 73
11
 74
0
 42
0.0000001
 43
0.0000001
 44
0.0000000001
 40
0.0
 40
0.0
 40
0.0
 40
0.0
 40
0.1449254393
 40
0.27456007
 40
0.3911601507
 40
0.5000450877
 40
0.6089223422
 40
0.7254985701
 40
0.8551100489
 40
1.0
 40
1.0
 40
1.0
 40
1.0
 10
3822.5683508594
 20
1865.1709812831
 30
0.0
 10
3827.8683178934
 20
1862.1102425715
 30
0.0
 10
3838.4065679317
 20
1857.0920665194
 30
0.0
 10
3854.6038255412
 20
1853.1807429559
 30
0.0
 10
3869.8116400923
 20
1853.5631701526
 30
0.0
 10
3883.3477833666
 20
1858.4681129904
 30
0.0
 10
3894.3671450154
 20
1867.732619116
 30
0.0
 10
3902.3061292193
 20
1880.7068717056
 30
0.0
 10
3907.0197860249
 20
1896.6855982402
 30
0.0
 10
3907.9447418179
 20
1908.3184676222
 30
0.0
 10
3907.9447418179
 20
1914.4372444254
 30
0.0
  0
SPLINE
  5
64A
100
AcDbEntity
  8
0
100
AcDbSpline
 62
7
  6
CONTINUOUS
 70
0
 71
3
 72
11
 73
7
 74
0
 42
0.0000001
 43
0.0000001
 44
0.0000000001
 40
0.0
 40
0.0
 40
0.0
 40
0.0
 40
0.253060145
 40
0.5
 40
0.746939855
 40
1.0
 40
1.0
 40
1.0
 40
1.0
 10
1076.1868995128
 20
519.6821409137
 30
0.0
 10
1076.1868995128
 20
522.4745993015
 30
0.0
 10
1073.9797515605
 20
528.2413222813
 30
0.0
 10
1065.5617154237
 20
531.8876117119
 30
0.0
 10
1057.1436792868
 20
528.2413222813
 30
0.0
 10
1054.9365313345
 20
522.4745993015
 30
0.0
 10
1054.9365313345
 20
519.6821409137
 30
0.0
  0
SPLINE
  5
64B
100
AcDbEntity
  8
0
100
AcDbSpline
 62
7
  6
CONTINUOUS
 70
0
 71
3
 72
11
 73
7
 74
0
 42
0.0000001
 43
0.0000001
 44
0.0000000001
 40
0.0
 40
0.0
 40
0.0
 40
0.0
 40
0.253060145
 40
0.5
 40
0.746939855
 40
1.0
 40
1.0
 40
1.0
 40
1.0
 10
1054.9365313345
 20
519.6821409137
 30
0.0
 10
1054.9365313345
 20
516.8896825259
 30
0.0
 10
1057.1436792868
 20
511.122959546
 30
0.0
 10
1065.5617154237
 20
507.4766701155
 30
0.0
 10
1073.9797515605
 20
511.122959546
 30
0.0
 10
1076.1868995128
 20
516.8896825259
 30
0.0
 10
1076.1868995128
 20
519.6821409137
 30
0.0
  0
SPLINE
  5
64C
100
AcDbEntity
  8
0
100
AcDbSpline
 62
7
  6
CONTINUOUS
 70
0
 71
3
 72
11
 73
7
 74
0
 42
0.0000001
 43
0.0000001
 44
0.0000000001
 40
0.0
 40
0.0
 40
0.0
 40
0.0
 40
0.253060145
 40
0.5
 40
0.746939855
 40
1.0
 40
1.0
 40
1.0
 40
1.0
 10
1076.1868995128
 20
1149.0821409137
 30
0.0
 10
1076.1868995128
 20
1151.8745993015
 30
0.0
 10
1073.9797515605
 20
1157.6413222813
 30
0.0
 10
1065.5617154237
 20
1161.2876117119
 30
0.0
 10
1057.1436792868
 20
1157.6413222813
 30
0.0
 10
1054.9365313345
 20
1151.8745993015
 30
0.0
 10
1054.9365313345
 20
1149.0821409137
 30
0.0
  0
SPLINE
  5
64D
100
AcDbEntity
  8
0
100
AcDbSpline
 62
7
  6
CONTINUOUS
 70
0
 71
3
 72
11
 73
7
 74
0
 42
0.0000001
 43
0.0000001
 44
0.0000000001
 40
0.0
 40
0.0
 40
0.0
 40
0.0
 40
0.253060145
 40
0.5
 40
0.746939855
 40
1.0
 40
1.0
 40
1.0
 40
1.0
 10
1054.9365313345
 20
1149.0821409137
 30
0.0
 10
1054.9365313345
 20
1146.2896825259
 30
0.0
 10
1057.1436792868
 20
1140.522959546
 30
0.0
 10
1065.5617154237
 20
1136.8766701155
 30
0.0
 10
1073.9797515605
 20
1140.522959546
 30
0.0
 10
1076.1868995128
 20
1146.2896825259
 30
0.0
 10
1076.1868995128
 20
1149.0821409137
 30
0.0
  0
SPLINE
  5
64E
100
AcDbEntity
  8
0
100
AcDbSpline
 62
7
  6
CONTINUOUS
 70
0
 71
3
 72
11
 73
7
 74
0
 42
0.0000001
 43
0.0000001
 44
0.0000000001
 40
0.0
 40
0.0
 40
0.0
 40
0.0
 40
0.253060145
 40
0.5
 40
0.746939855
 40
1.0
 40
1.0
 40
1.0
 40
1.0
 10
1075.4797927317
 20
1149.0821409137
 30
0.0
 10
1075.4797927317
 20
1146.5435423793
 30
0.0
 10
1073.4732945932
 20
1141.3010669431
 30
0.0
 10
1065.8205344688
 20
1137.9862583698
 30
0.0
 10
1058.1677743443
 20
1141.3010669431
 30
0.0
 10
1056.1612762059
 20
1146.5435423793
 30
0.0
 10
1056.1612762059
 20
1149.0821409137
 30
0.0
  0
SPLINE
  5
64F
100
AcDbEntity
  8
0
100
AcDbSpline
 62
7
  6
CONTINUOUS
 70
0
 71
3
 72
11
 73
7
 74
0
 42
0.0000001
 43
0.0000001
 44
0.0000000001
 40
0.0
 40
0.0
 40
0.0
 40
0.0
 40
0.253060145
 40
0.5
 40
0.746939855
 40
1.0
 40
1.0
 40
1.0
 40
1.0
 10
1056.1612762059
 20
519.6821409137
 30
0.0
 10
1056.1612762059
 20
522.220739448
 30
0.0
 10
1058.1677743443
 20
527.4632148843
 30
0.0
 10
1065.8205344688
 20
530.7780234575
 30
0.0
 10
1073.4732945932
 20
527.4632148843
 30
0.0
 10
1075.4797927317
 20
522.220739448
 30
0.0
 10
1075.4797927317
 20
519.6821409137
 30
0.0
  0
SPLINE
  5
650
100
AcDbEntity
  8
0
100
AcDbSpline
 62
7
  6
CONTINUOUS
 70
0
 71
3
 72
11
 73
7
 74
0
 42
0.0000001
 43
0.0000001
 44
0.0000000001
 40
0.0
 40
0.0
 40
0.0
 40
0.0
 40
0.253060145
 40
0.5
 40
0.746939855
 40
1.0
 40
1.0
 40
1.0
 40
1.0
 10
1075.4797927317
 20
1149.0821409137
 30
0.0
 10
1075.4797927317
 20
1151.620739448
 30
0.0
 10
1073.4732945932
 20
1156.8632148843
 30
0.0
 10
1065.8205344688
 20
1160.1780234575
 30
0.0
 10
1058.1677743443
 20
1156.8632148843
 30
0.0
 10
1056.1612762059
 20
1151.620739448
 30
0.0
 10
1056.1612762059
 20
1149.0821409137
 30
0.0
  0
SPLINE
  5
651
100
AcDbEntity
  8
0
100
AcDbSpline
 62
7
  6
CONTINUOUS
 70
0
 71
3
 72
11
 73
7
 74
0
 42
0.0000001
 43
0.0000001
 44
0.0000000001
 40
0.0
 40
0.0
 40
0.0
 40
0.0
 40
0.253060145
 40
0.5
 40
0.746939855
 40
1.0
 40
1.0
 40
1.0
 40
1.0
 10
1056.1612762059
 20
519.6821409137
 30
0.0
 10
1056.1612762059
 20
517.1435423793
 30
0.0
 10
1058.1677743443
 20
511.9010669431
 30
0.0
 10
1065.8205344688
 20
508.5862583698
 30
0.0
 10
1073.4732945932
 20
511.9010669431
 30
0.0
 10
1075.4797927317
 20
517.1435423793
 30
0.0
 10
1075.4797927317
 20
519.6821409137
 30
0.0
  0
SPLINE
  5
652
100
AcDbEntity
  8
0
100
AcDbSpline
 62
7
  6
CONTINUOUS
 70
0
 71
3
 72
10
 73
6
 74
0
 42
0.0000001
 43
0.0000001
 44
0.0000000001
 40
0.0
 40
0.0
 40
0.0
 40
0.0
 40
0.156638793
 40
0.3887516228
 40
1.0
 40
1.0
 40
1.0
 40
1.0
 10
2868.629145009
 20
1159.6811489404
 30
0.0
 10
2869.0185474823
 20
1159.2638155652
 30
0.0
 10
2869.625897735
 20
1157.9354200729
 30
0.0
 10
2870.510359373
 20
1154.4142649437
 30
0.0
 10
2870.7145284876
 20
1151.3095238377
 30
0.0
 10
2870.7145284876
 20
1149.0821409137
 30
0.0
  0
SPLINE
  5
653
100
AcDbEntity
  8
0
100
AcDbSpline
 62
7
  6
CONTINUOUS
 70
0
 71
3
 72
10
 73
6
 74
0
 42
0.0000001
 43
0.0000001
 44
0.0000000001
 40
0.0
 40
0.0
 40
0.0
 40
0.0
 40
0.156638793
 40
0.3887516228
 40
1.0
 40
1.0
 40
1.0
 40
1.0
 10
2868.629145009
 20
530.2811489404
 30
0.0
 10
2869.0185474823
 20
529.8638155652
 30
0.0
 10
2869.625897735
 20
528.5354200729
 30
0.0
 10
2870.510359373
 20
525.0142649437
 30
0.0
 10
2870.7145284876
 20
521.9095238377
 30
0.0
 10
2870.7145284876
 20
519.6821409137
 30
0.0
  0
SPLINE
  5
654
100
AcDbEntity
  8
0
100
AcDbSpline
 62
7
  6
CONTINUOUS
 70
0
 71
3
 72
10
 73
6
 74
0
 42
0.0000001
 43
0.0000001
 44
0.0000000001
 40
0.0
 40
0.0
 40
0.0
 40
0.0
 40
0.156638793
 40
0.3887516228
 40
1.0
 40
1.0
 40
1.0
 40
1.0
 10
3198.6357980126
 20
1159.6811489404
 30
0.0
 10
3198.2463955393
 20
1159.2638155652
 30
0.0
 10
3197.6390452866
 20
1157.9354200729
 30
0.0
 10
3196.7545836486
 20
1154.4142649437
 30
0.0
 10
3196.550414534
 20
1151.3095238377
 30
0.0
 10
3196.550414534
 20
1149.0821409137
 30
0.0
  0
SPLINE
  5
655
100
AcDbEntity
  8
0
100
AcDbSpline
 62
7
  6
CONTINUOUS
 70
0
 71
3
 72
10
 73
6
 74
0
 42
0.0000001
 43
0.0000001
 44
0.0000000001
 40
0.0
 40
0.0
 40
0.0
 40
0.0
 40
0.156638793
 40
0.3887516228
 40
1.0
 40
1.0
 40
1.0
 40
1.0
 10
3198.6357980126
 20
530.2811489404
 30
0.0
 10
3198.2463955393
 20
529.8638155652
 30
0.0
 10
3197.6390452866
 20
528.5354200729
 30
0.0
 10
3196.7545836486
 20
525.0142649437
 30
0.0
 10
3196.550414534
 20
521.9095238377
 30
0.0
 10
3196.550414534
 20
519.6821409137
 30
0.0
  0
SPLINE
  5
656
100
AcDbEntity
  8
0
100
AcDbSpline
 62
7
  6
CONTINUOUS
 70
0
 71
3
 72
10
 73
6
 74
0
 42
0.0000001
 43
0.0000001
 44
0.0000000001
 40
0.0
 40
0.0
 40
0.0
 40
0.0
 40
0.6112483772
 40
0.843361207
 40
1.0
 40
1.0
 40
1.0
 40
1.0
 10
3196.550414534
 20
519.6821409137
 30
0.0
 10
3196.550414534
 20
517.4547579896
 30
0.0
 10
3196.7545836486
 20
514.3500168836
 30
0.0
 10
3197.6390452866
 20
510.8288617544
 30
0.0
 10
3198.2463955393
 20
509.5004662621
 30
0.0
 10
3198.6357980126
 20
509.0831328869
 30
0.0
  0
SPLINE
  5
657
100
AcDbEntity
  8
0
100
AcDbSpline
 62
7
  6
CONTINUOUS
 70
0
 71
3
 72
10
 73
6
 74
0
 42
0.0000001
 43
0.0000001
 44
0.0000000001
 40
0.0
 40
0.0
 40
0.0
 40
0.0
 40
0.6112483772
 40
0.843361207
 40
1.0
 40
1.0
 40
1.0
 40
1.0
 10
3196.550414534
 20
1149.0821409137
 30
0.0
 10
3196.550414534
 20
1146.8547579896
 30
0.0
 10
3196.7545836486
 20
1143.7500168836
 30
0.0
 10
3197.6390452866
 20
1140.2288617544
 30
0.0
 10
3198.2463955393
 20
1138.9004662621
 30
0.0
 10
3198.6357980126
 20
1138.4831328869
 30
0.0
  0
SPLINE
  5
658
100
AcDbEntity
  8
0
100
AcDbSpline
 62
7
  6
CONTINUOUS
 70
0
 71
3
 72
10
 73
6
 74
0
 42
0.0000001
 43
0.0000001
 44
0.0000000001
 40
0.0
 40
0.0
 40
0.0
 40
0.0
 40
0.6112483772
 40
0.843361207
 40
1.0
 40
1.0
 40
1.0
 40
1.0
 10
2870.7145284876
 20
519.6821409137
 30
0.0
 10
2870.7145284876
 20
517.4547579896
 30
0.0
 10
2870.510359373
 20
514.3500168836
 30
0.0
 10
2869.625897735
 20
510.8288617544
 30
0.0
 10
2869.0185474823
 20
509.5004662621
 30
0.0
 10
2868.629145009
 20
509.0831328869
 30
0.0
  0
SPLINE
  5
659
100
AcDbEntity
  8
0
100
AcDbSpline
 62
7
  6
CONTINUOUS
 70
0
 71
3
 72
10
 73
6
 74
0
 42
0.0000001
 43
0.0000001
 44
0.0000000001
 40
0.0
 40
0.0
 40
0.0
 40
0.0
 40
0.6112483772
 40
0.843361207
 40
1.0
 40
1.0
 40
1.0
 40
1.0
 10
2870.7145284876
 20
1149.0821409137
 30
0.0
 10
2870.7145284876
 20
1146.8547579896
 30
0.0
 10
2870.510359373
 20
1143.7500168836
 30
0.0
 10
2869.625897735
 20
1140.2288617544
 30
0.0
 10
2869.0185474823
 20
1138.9004662621
 30
0.0
 10
2868.629145009
 20
1138.4831328869
 30
0.0
  0
SPLINE
  5
65A
100
AcDbEntity
  8
0
100
AcDbSpline
 62
7
  6
CONTINUOUS
 70
0
 71
3
 72
13
 73
9
 74
0
 42
0.0000001
 43
0.0000001
 44
0.0000000001
 40
0.0
 40
0.0
 40
0.0
 40
0.0
 40
0.1987549531
 40
0.387989584
 40
0.6335491093
 40
0.8126208807
 40
0.9175165775
 40
1.0
 40
1.0
 40
1.0
 40
1.0
 10
2865.0205094953
 20
519.6821409137
 30
0.0
 10
2865.0205094953
 20
520.5187247913
 30
0.0
 10
2865.0692580595
 20
522.1545927649
 30
0.0
 10
2865.3056907431
 20
524.8011284534
 30
0.0
 10
2865.775915991
 20
527.3966343025
 30
0.0
 10
2866.4383799384
 20
529.4064486224
 30
0.0
 10
2867.4680390597
 20
530.923592181
 30
0.0
 10
2868.3922911777
 20
530.5349917268
 30
0.0
 10
2868.629145009
 20
530.2811489404
 30
0.0
  0
SPLINE
  5
65B
100
AcDbEntity
  8
0
100
AcDbSpline
 62
7
  6
CONTINUOUS
 70
0
 71
3
 72
13
 73
9
 74
0
 42
0.0000001
 43
0.0000001
 44
0.0000000001
 40
0.0
 40
0.0
 40
0.0
 40
0.0
 40
0.1987549531
 40
0.387989584
 40
0.6335491093
 40
0.8126208807
 40
0.9175165775
 40
1.0
 40
1.0
 40
1.0
 40
1.0
 10
2865.0205094953
 20
1149.0821409137
 30
0.0
 10
2865.0205094953
 20
1149.9187247913
 30
0.0
 10
2865.0692580595
 20
1151.5545927649
 30
0.0
 10
2865.3056907431
 20
1154.2011284534
 30
0.0
 10
2865.775915991
 20
1156.7966343025
 30
0.0
 10
2866.4383799384
 20
1158.8064486224
 30
0.0
 10
2867.4680390597
 20
1160.323592181
 30
0.0
 10
2868.3922911777
 20
1159.9349917268
 30
0.0
 10
2868.629145009
 20
1159.6811489404
 30
0.0
  0
SPLINE
  5
65C
100
AcDbEntity
  8
0
100
AcDbSpline
 62
7
  6
CONTINUOUS
 70
0
 71
3
 72
10
 73
6
 74
0
 42
0.0000001
 43
0.0000001
 44
0.0000000001
 40
0.0
 40
0.0
 40
0.0
 40
0.0
 40
0.6033167305
 40
0.8370515848
 40
1.0
 40
1.0
 40
1.0
 40
1.0
 10
2866.2452543667
 20
1149.0821409137
 30
0.0
 10
2866.2452543667
 20
1147.1159408798
 30
0.0
 10
2866.4235816132
 20
1144.3653220707
 30
0.0
 10
2867.1821846462
 20
1141.2021396755
 30
0.0
 10
2867.7027664353
 20
1139.9869386758
 30
0.0
 10
2868.0336499837
 20
1139.5715757507
 30
0.0
  0
SPLINE
  5
65D
100
AcDbEntity
  8
0
100
AcDbSpline
 62
7
  6
CONTINUOUS
 70
0
 71
3
 72
9
 73
5
 74
0
 42
0.0000001
 43
0.0000001
 44
0.0000000001
 40
0.0
 40
0.0
 40
0.0
 40
0.0
 40
0.3117312161
 40
1.0
 40
1.0
 40
1.0
 40
1.0
 10
2868.0336499837
 20
1139.5715757507
 30
0.0
 10
2868.1074611009
 20
1139.4789195829
 30
0.0
 10
2868.3532673774
 20
1139.1958485389
 30
0.0
 10
2868.7873970831
 20
1139.0367601264
 30
0.0
 10
2869.0374653119
 20
1139.1134083799
 30
0.0
  0
SPLINE
  5
65E
100
AcDbEntity
  8
0
100
AcDbSpline
 62
7
  6
CONTINUOUS
 70
0
 71
3
 72
10
 73
6
 74
0
 42
0.0000001
 43
0.0000001
 44
0.0000000001
 40
0.0
 40
0.0
 40
0.0
 40
0.0
 40
0.6033167305
 40
0.8370515848
 40
1.0
 40
1.0
 40
1.0
 40
1.0
 10
2866.2452543667
 20
1149.0821409137
 30
0.0
 10
2866.2452543667
 20
1151.0483409475
 30
0.0
 10
2866.4235816132
 20
1153.7989597566
 30
0.0
 10
2867.1821846462
 20
1156.9621421518
 30
0.0
 10
2867.7027664353
 20
1158.1773431515
 30
0.0
 10
2868.0336499837
 20
1158.5927060766
 30
0.0
  0
SPLINE
  5
65F
100
AcDbEntity
  8
0
100
AcDbSpline
 62
7
  6
CONTINUOUS
 70
0
 71
3
 72
9
 73
5
 74
0
 42
0.0000001
 43
0.0000001
 44
0.0000000001
 40
0.0
 40
0.0
 40
0.0
 40
0.0
 40
0.3117312161
 40
1.0
 40
1.0
 40
1.0
 40
1.0
 10
2868.0336499837
 20
1158.5927060766
 30
0.0
 10
2868.1074611009
 20
1158.6853622444
 30
0.0
 10
2868.3532673774
 20
1158.9684332884
 30
0.0
 10
2868.7873970831
 20
1159.1275217009
 30
0.0
 10
2869.0374653119
 20
1159.0508734474
 30
0.0
  0
SPLINE
  5
660
100
AcDbEntity
  8
0
100
AcDbSpline
 62
7
  6
CONTINUOUS
 70
0
 71
3
 72
10
 73
6
 74
0
 42
0.0000001
 43
0.0000001
 44
0.0000000001
 40
0.0
 40
0.0
 40
0.0
 40
0.0
 40
0.6033167305
 40
0.8370515848
 40
1.0
 40
1.0
 40
1.0
 40
1.0
 10
3201.0196886549
 20
1149.0821409137
 30
0.0
 10
3201.0196886549
 20
1147.1159408798
 30
0.0
 10
3200.8413614084
 20
1144.3653220707
 30
0.0
 10
3200.0827583754
 20
1141.2021396755
 30
0.0
 10
3199.5621765863
 20
1139.9869386758
 30
0.0
 10
3199.2312930379
 20
1139.5715757507
 30
0.0
  0
SPLINE
  5
661
100
AcDbEntity
  8
0
100
AcDbSpline
 62
7
  6
CONTINUOUS
 70
0
 71
3
 72
9
 73
5
 74
0
 42
0.0000001
 43
0.0000001
 44
0.0000000001
 40
0.0
 40
0.0
 40
0.0
 40
0.0
 40
0.3117312161
 40
1.0
 40
1.0
 40
1.0
 40
1.0
 10
3199.2312930379
 20
1139.5715757507
 30
0.0
 10
3199.1574819207
 20
1139.4789195829
 30
0.0
 10
3198.9116756442
 20
1139.1958485389
 30
0.0
 10
3198.4775459385
 20
1139.0367601264
 30
0.0
 10
3198.2274777097
 20
1139.1134083799
 30
0.0
  0
SPLINE
  5
662
100
AcDbEntity
  8
0
100
AcDbSpline
 62
7
  6
CONTINUOUS
 70
0
 71
3
 72
10
 73
6
 74
0
 42
0.0000001
 43
0.0000001
 44
0.0000000001
 40
0.0
 40
0.0
 40
0.0
 40
0.0
 40
0.6033167305
 40
0.8370515848
 40
1.0
 40
1.0
 40
1.0
 40
1.0
 10
3201.0196886549
 20
1149.0821409137
 30
0.0
 10
3201.0196886549
 20
1151.0483409475
 30
0.0
 10
3200.8413614084
 20
1153.7989597566
 30
0.0
 10
3200.0827583754
 20
1156.9621421518
 30
0.0
 10
3199.5621765863
 20
1158.1773431515
 30
0.0
 10
3199.2312930379
 20
1158.5927060766
 30
0.0
  0
SPLINE
  5
663
100
AcDbEntity
  8
0
100
AcDbSpline
 62
7
  6
CONTINUOUS
 70
0
 71
3
 72
9
 73
5
 74
0
 42
0.0000001
 43
0.0000001
 44
0.0000000001
 40
0.0
 40
0.0
 40
0.0
 40
0.0
 40
0.3117312161
 40
1.0
 40
1.0
 40
1.0
 40
1.0
 10
3199.2312930379
 20
1158.5927060766
 30
0.0
 10
3199.1574819207
 20
1158.6853622444
 30
0.0
 10
3198.9116756442
 20
1158.9684332884
 30
0.0
 10
3198.4775459385
 20
1159.1275217009
 30
0.0
 10
3198.2274777097
 20
1159.0508734474
 30
0.0
  0
SPLINE
  5
664
100
AcDbEntity
  8
0
100
AcDbSpline
 62
7
  6
CONTINUOUS
 70
0
 71
3
 72
9
 73
5
 74
0
 42
0.0000001
 43
0.0000001
 44
0.0000000001
 40
0.0
 40
0.0
 40
0.0
 40
0.0
 40
0.6882687839
 40
1.0
 40
1.0
 40
1.0
 40
1.0
 10
2869.0374653119
 20
529.6508734474
 30
0.0
 10
2868.7873970831
 20
529.7275217009
 30
0.0
 10
2868.3532673774
 20
529.5684332884
 30
0.0
 10
2868.1074611009
 20
529.2853622444
 30
0.0
 10
2868.0336499837
 20
529.1927060766
 30
0.0
  0
SPLINE
  5
665
100
AcDbEntity
  8
0
100
AcDbSpline
 62
7
  6
CONTINUOUS
 70
0
 71
3
 72
10
 73
6
 74
0
 42
0.0000001
 43
0.0000001
 44
0.0000000001
 40
0.0
 40
0.0
 40
0.0
 40
0.0
 40
0.1629484152
 40
0.3966832695
 40
1.0
 40
1.0
 40
1.0
 40
1.0
 10
2868.0336499837
 20
529.1927060766
 30
0.0
 10
2867.7027664353
 20
528.7773431515
 30
0.0
 10
2867.1821846462
 20
527.5621421518
 30
0.0
 10
2866.4235816132
 20
524.3989597566
 30
0.0
 10
2866.2452543667
 20
521.6483409475
 30
0.0
 10
2866.2452543667
 20
519.6821409137
 30
0.0
  0
SPLINE
  5
666
100
AcDbEntity
  8
0
100
AcDbSpline
 62
7
  6
CONTINUOUS
 70
0
 71
3
 72
13
 73
9
 74
0
 42
0.0000001
 43
0.0000001
 44
0.0000000001
 40
0.0
 40
0.0
 40
0.0
 40
0.0
 40
0.0596415303
 40
0.113216663
 40
0.2412292177
 40
0.4438237076
 40
0.7057855495
 40
1.0
 40
1.0
 40
1.0
 40
1.0
 10
3198.6357980126
 20
509.0831328869
 30
0.0
 10
3198.8076235356
 20
508.8989827328
 30
0.0
 10
3199.2407981467
 20
508.5639072416
 30
0.0
 10
3200.3006098539
 20
508.9656936325
 30
0.0
 10
3201.0251738504
 20
510.5242038943
 30
0.0
 10
3201.7140773146
 20
512.8929320621
 30
0.0
 10
3202.1409995809
 20
516.0953686331
 30
0.0
 10
3202.2444335263
 20
518.4396858666
 30
0.0
 10
3202.2444335263
 20
519.6821409137
 30
0.0
  0
SPLINE
  5
667
100
AcDbEntity
  8
0
100
AcDbSpline
 62
7
  6
CONTINUOUS
 70
0
 71
3
 72
13
 73
9
 74
0
 42
0.0000001
 43
0.0000001
 44
0.0000000001
 40
0.0
 40
0.0
 40
0.0
 40
0.0
 40
0.1987549531
 40
0.387989584
 40
0.6335491093
 40
0.8126208807
 40
0.9175165775
 40
1.0
 40
1.0
 40
1.0
 40
1.0
 10
3202.2444335263
 20
519.6821409137
 30
0.0
 10
3202.2444335263
 20
520.5187247913
 30
0.0
 10
3202.195684962
 20
522.1545927649
 30
0.0
 10
3201.9592522785
 20
524.8011284534
 30
0.0
 10
3201.4890270306
 20
527.3966343025
 30
0.0
 10
3200.8265630832
 20
529.4064486224
 30
0.0
 10
3199.7969039619
 20
530.923592181
 30
0.0
 10
3198.8726518439
 20
530.5349917268
 30
0.0
 10
3198.6357980126
 20
530.2811489404
 30
0.0
  0
SPLINE
  5
668
100
AcDbEntity
  8
0
100
AcDbSpline
 62
7
  6
CONTINUOUS
 70
0
 71
3
 72
9
 73
5
 74
0
 42
0.0000001
 43
0.0000001
 44
0.0000000001
 40
0.0
 40
0.0
 40
0.0
 40
0.0
 40
0.6882687839
 40
1.0
 40
1.0
 40
1.0
 40
1.0
 10
3198.2274777097
 20
509.7134083799
 30
0.0
 10
3198.4775459385
 20
509.6367601264
 30
0.0
 10
3198.9116756442
 20
509.7958485389
 30
0.0
 10
3199.1574819207
 20
510.0789195829
 30
0.0
 10
3199.2312930379
 20
510.1715757507
 30
0.0
  0
SPLINE
  5
669
100
AcDbEntity
  8
0
100
AcDbSpline
 62
7
  6
CONTINUOUS
 70
0
 71
3
 72
10
 73
6
 74
0
 42
0.0000001
 43
0.0000001
 44
0.0000000001
 40
0.0
 40
0.0
 40
0.0
 40
0.0
 40
0.1629484152
 40
0.3966832695
 40
1.0
 40
1.0
 40
1.0
 40
1.0
 10
3199.2312930379
 20
510.1715757507
 30
0.0
 10
3199.5621765863
 20
510.5869386758
 30
0.0
 10
3200.0827583754
 20
511.8021396755
 30
0.0
 10
3200.8413614084
 20
514.9653220707
 30
0.0
 10
3201.0196886549
 20
517.7159408798
 30
0.0
 10
3201.0196886549
 20
519.6821409137
 30
0.0
  0
SPLINE
  5
66A
100
AcDbEntity
  8
0
100
AcDbSpline
 62
7
  6
CONTINUOUS
 70
0
 71
3
 72
13
 73
9
 74
0
 42
0.0000001
 43
0.0000001
 44
0.0000000001
 40
0.0
 40
0.0
 40
0.0
 40
0.0
 40
0.1987549531
 40
0.387989584
 40
0.6335491093
 40
0.8126208807
 40
0.9175165775
 40
1.0
 40
1.0
 40
1.0
 40
1.0
 10
3202.2444335263
 20
1149.0821409137
 30
0.0
 10
3202.2444335263
 20
1149.9187247913
 30
0.0
 10
3202.195684962
 20
1151.5545927649
 30
0.0
 10
3201.9592522785
 20
1154.2011284534
 30
0.0
 10
3201.4890270306
 20
1156.7966343025
 30
0.0
 10
3200.8265630832
 20
1158.8064486224
 30
0.0
 10
3199.7969039619
 20
1160.323592181
 30
0.0
 10
3198.8726518439
 20
1159.9349917268
 30
0.0
 10
3198.6357980126
 20
1159.6811489404
 30
0.0
  0
SPLINE
  5
66B
100
AcDbEntity
  8
0
100
AcDbSpline
 62
7
  6
CONTINUOUS
 70
0
 71
3
 72
9
 73
5
 74
0
 42
0.0000001
 43
0.0000001
 44
0.0000000001
 40
0.0
 40
0.0
 40
0.0
 40
0.0
 40
0.6882687839
 40
1.0
 40
1.0
 40
1.0
 40
1.0
 10
2869.0374653119
 20
509.7134083799
 30
0.0
 10
2868.7873970831
 20
509.6367601264
 30
0.0
 10
2868.3532673774
 20
509.7958485389
 30
0.0
 10
2868.1074611009
 20
510.0789195829
 30
0.0
 10
2868.0336499837
 20
510.1715757507
 30
0.0
  0
SPLINE
  5
66C
100
AcDbEntity
  8
0
100
AcDbSpline
 62
7
  6
CONTINUOUS
 70
0
 71
3
 72
10
 73
6
 74
0
 42
0.0000001
 43
0.0000001
 44
0.0000000001
 40
0.0
 40
0.0
 40
0.0
 40
0.0
 40
0.1629484152
 40
0.3966832695
 40
1.0
 40
1.0
 40
1.0
 40
1.0
 10
2868.0336499837
 20
510.1715757507
 30
0.0
 10
2867.7027664353
 20
510.5869386758
 30
0.0
 10
2867.1821846462
 20
511.8021396755
 30
0.0
 10
2866.4235816132
 20
514.9653220707
 30
0.0
 10
2866.2452543667
 20
517.7159408798
 30
0.0
 10
2866.2452543667
 20
519.6821409137
 30
0.0
  0
SPLINE
  5
66D
100
AcDbEntity
  8
0
100
AcDbSpline
 62
7
  6
CONTINUOUS
 70
0
 71
3
 72
9
 73
5
 74
0
 42
0.0000001
 43
0.0000001
 44
0.0000000001
 40
0.0
 40
0.0
 40
0.0
 40
0.0
 40
0.6882687839
 40
1.0
 40
1.0
 40
1.0
 40
1.0
 10
3198.2274777097
 20
529.6508734474
 30
0.0
 10
3198.4775459385
 20
529.7275217009
 30
0.0
 10
3198.9116756442
 20
529.5684332884
 30
0.0
 10
3199.1574819207
 20
529.2853622444
 30
0.0
 10
3199.2312930379
 20
529.1927060766
 30
0.0
  0
SPLINE
  5
66E
100
AcDbEntity
  8
0
100
AcDbSpline
 62
7
  6
CONTINUOUS
 70
0
 71
3
 72
10
 73
6
 74
0
 42
0.0000001
 43
0.0000001
 44
0.0000000001
 40
0.0
 40
0.0
 40
0.0
 40
0.0
 40
0.1629484152
 40
0.3966832695
 40
1.0
 40
1.0
 40
1.0
 40
1.0
 10
3199.2312930379
 20
529.1927060766
 30
0.0
 10
3199.5621765863
 20
528.7773431515
 30
0.0
 10
3200.0827583754
 20
527.5621421518
 30
0.0
 10
3200.8413614084
 20
524.3989597566
 30
0.0
 10
3201.0196886549
 20
521.6483409475
 30
0.0
 10
3201.0196886549
 20
519.6821409137
 30
0.0
  0
SPLINE
  5
66F
100
AcDbEntity
  8
0
100
AcDbSpline
 62
7
  6
CONTINUOUS
 70
0
 71
3
 72
13
 73
9
 74
0
 42
0.0000001
 43
0.0000001
 44
0.0000000001
 40
0.0
 40
0.0
 40
0.0
 40
0.0
 40
0.0596415303
 40
0.113216663
 40
0.2412292177
 40
0.4438237076
 40
0.7057855495
 40
1.0
 40
1.0
 40
1.0
 40
1.0
 10
3198.6357980126
 20
1138.4831328869
 30
0.0
 10
3198.8076235356
 20
1138.2989827328
 30
0.0
 10
3199.2407981467
 20
1137.9639072416
 30
0.0
 10
3200.3006098539
 20
1138.3656936325
 30
0.0
 10
3201.0251738504
 20
1139.9242038943
 30
0.0
 10
3201.7140773146
 20
1142.2929320621
 30
0.0
 10
3202.1409995809
 20
1145.4953686331
 30
0.0
 10
3202.2444335263
 20
1147.8396858666
 30
0.0
 10
3202.2444335263
 20
1149.0821409137
 30
0.0
  0
SPLINE
  5
670
100
AcDbEntity
  8
0
100
AcDbSpline
 62
7
  6
CONTINUOUS
 70
0
 71
3
 72
13
 73
9
 74
0
 42
0.0000001
 43
0.0000001
 44
0.0000000001
 40
0.0
 40
0.0
 40
0.0
 40
0.0
 40
0.0596415303
 40
0.113216663
 40
0.2412292177
 40
0.4438237076
 40
0.7057855495
 40
1.0
 40
1.0
 40
1.0
 40
1.0
 10
2868.629145009
 20
509.0831328869
 30
0.0
 10
2868.4573194859
 20
508.8989827328
 30
0.0
 10
2868.0241448749
 20
508.5639072416
 30
0.0
 10
2866.9643331677
 20
508.9656936325
 30
0.0
 10
2866.2397691712
 20
510.5242038943
 30
0.0
 10
2865.550865707
 20
512.8929320621
 30
0.0
 10
2865.1239434407
 20
516.0953686331
 30
0.0
 10
2865.0205094953
 20
518.4396858666
 30
0.0
 10
2865.0205094953
 20
519.6821409137
 30
0.0
  0
SPLINE
  5
671
100
AcDbEntity
  8
0
100
AcDbSpline
 62
7
  6
CONTINUOUS
 70
0
 71
3
 72
13
 73
9
 74
0
 42
0.0000001
 43
0.0000001
 44
0.0000000001
 40
0.0
 40
0.0
 40
0.0
 40
0.0
 40
0.0596415303
 40
0.113216663
 40
0.2412292177
 40
0.4438237076
 40
0.7057855495
 40
1.0
 40
1.0
 40
1.0
 40
1.0
 10
2868.629145009
 20
1138.4831328869
 30
0.0
 10
2868.4573194859
 20
1138.2989827328
 30
0.0
 10
2868.0241448749
 20
1137.9639072416
 30
0.0
 10
2866.9643331677
 20
1138.3656936325
 30
0.0
 10
2866.2397691712
 20
1139.9242038943
 30
0.0
 10
2865.550865707
 20
1142.2929320621
 30
0.0
 10
2865.1239434407
 20
1145.4953686331
 30
0.0
 10
2865.0205094953
 20
1147.8396858666
 30
0.0
 10
2865.0205094953
 20
1149.0821409137
 30
0.0
  0
SPLINE
  5
672
100
AcDbEntity
  8
0
100
AcDbSpline
 62
7
  6
CONTINUOUS
 70
0
 71
3
 72
10
 73
6
 74
0
 42
0.0000001
 43
0.0000001
 44
0.0000000001
 40
0.0
 40
0.0
 40
0.0
 40
0.0
 40
0.1568058671
 40
0.3889213048
 40
1.0
 40
1.0
 40
1.0
 40
1.0
 10
2690.9041525874
 20
2440.6077895384
 30
0.0
 10
2691.2255568427
 20
2440.4380532256
 30
0.0
 10
2692.1417554377
 20
2440.2836337968
 30
0.0
 10
2694.451216051
 20
2440.3207121222
 30
0.0
 10
2696.3918758286
 20
2440.7062901181
 30
0.0
 10
2697.7600717303
 20
2441.072897105
 30
0.0
  0
SPLINE
  5
673
100
AcDbEntity
  8
0
100
AcDbSpline
 62
7
  6
CONTINUOUS
 70
0
 71
3
 72
10
 73
6
 74
0
 42
0.0000001
 43
0.0000001
 44
0.0000000001
 40
0.0
 40
0.0
 40
0.0
 40
0.0
 40
0.1568058671
 40
0.3889213048
 40
1.0
 40
1.0
 40
1.0
 40
1.0
 10
2694.3071073312
 20
2427.9077895384
 30
0.0
 10
2694.6285115865
 20
2427.7380532256
 30
0.0
 10
2695.5447101816
 20
2427.5836337968
 30
0.0
 10
2697.8541707949
 20
2427.6207121222
 30
0.0
 10
2699.7948305724
 20
2428.0062901181
 30
0.0
 10
2701.1630264741
 20
2428.372897105
 30
0.0
  0
SPLINE
  5
674
100
AcDbEntity
  8
0
100
AcDbSpline
 62
7
  6
CONTINUOUS
 70
0
 71
3
 72
10
 73
6
 74
0
 42
0.0000001
 43
0.0000001
 44
0.0000000001
 40
0.0
 40
0.0
 40
0.0
 40
0.0
 40
0.1568058671
 40
0.3889213048
 40
1.0
 40
1.0
 40
1.0
 40
1.0
 10
2795.1275492439
 20
2468.5343645049
 30
0.0
 10
2795.4489534992
 20
2468.3646281922
 30
0.0
 10
2796.3651520943
 20
2468.2102087634
 30
0.0
 10
2798.6746127076
 20
2468.2472870888
 30
0.0
 10
2800.6152724852
 20
2468.6328650846
 30
0.0
 10
2801.9834683869
 20
2468.9994720716
 30
0.0
  0
SPLINE
  5
675
100
AcDbEntity
  8
0
100
AcDbSpline
 62
7
  6
CONTINUOUS
 70
0
 71
3
 72
10
 73
6
 74
0
 42
0.0000001
 43
0.0000001
 44
0.0000000001
 40
0.0
 40
0.0
 40
0.0
 40
0.0
 40
0.1568058671
 40
0.3889213048
 40
1.0
 40
1.0
 40
1.0
 40
1.0
 10
2798.5305039878
 20
2455.8343645049
 30
0.0
 10
2798.8519082431
 20
2455.6646281922
 30
0.0
 10
2799.7681068381
 20
2455.5102087634
 30
0.0
 10
2802.0775674515
 20
2455.5472870888
 30
0.0
 10
2804.018227229
 20
2455.9328650846
 30
0.0
 10
2805.3864231307
 20
2456.2994720716
 30
0.0
  0
SPLINE
  5
676
100
AcDbEntity
  8
0
100
AcDbSpline
 62
7
  6
CONTINUOUS
 70
0
 71
3
 72
10
 73
6
 74
0
 42
0.0000001
 43
0.0000001
 44
0.0000000001
 40
0.0
 40
0.0
 40
0.0
 40
0.0
 40
0.156638793
 40
0.3887516228
 40
1.0
 40
1.0
 40
1.0
 40
1.0
 10
3045.0404616094
 20
2528.4076387052
 30
0.0
 10
3045.544359471
 20
2528.139518625
 30
0.0
 10
3046.984684797
 20
2527.8966773833
 30
0.0
 10
3050.6147749912
 20
2527.9536950529
 30
0.0
 10
3053.6665674647
 20
2528.5600489606
 30
0.0
 10
3055.8180541561
 20
2529.136538082
 30
0.0
  0
SPLINE
  5
677
100
AcDbEntity
  8
0
100
AcDbSpline
 62
7
  6
CONTINUOUS
 70
0
 71
3
 72
10
 73
6
 74
0
 42
0.0000001
 43
0.0000001
 44
0.0000000001
 40
0.0
 40
0.0
 40
0.0
 40
0.0
 40
0.156638793
 40
0.3887516228
 40
1.0
 40
1.0
 40
1.0
 40
1.0
 10
2437.086746543
 20
2365.5069317177
 30
0.0
 10
2437.5906444047
 20
2365.2388116375
 30
0.0
 10
2439.0309697306
 20
2364.9959703957
 30
0.0
 10
2442.6610599249
 20
2365.0529880654
 30
0.0
 10
2445.7128523984
 20
2365.659341973
 30
0.0
 10
2447.8643390898
 20
2366.2358310945
 30
0.0
  0
SPLINE
  5
678
100
AcDbEntity
  8
0
100
AcDbSpline
 62
7
  6
CONTINUOUS
 70
0
 71
3
 72
10
 73
6
 74
0
 42
0.0000001
 43
0.0000001
 44
0.0000000001
 40
0.0
 40
0.0
 40
0.0
 40
0.0
 40
0.1169193316
 40
0.3344876399
 40
1.0
 40
1.0
 40
1.0
 40
1.0
 10
2887.2350087148
 20
2473.6488032899
 30
0.0
 10
2887.3535705606
 20
2473.2063244577
 30
0.0
 10
2888.7714587512
 20
2472.5283483256
 30
0.0
 10
2892.5485310739
 20
2472.4758730742
 30
0.0
 10
2896.0784350935
 20
2473.0709511296
 30
0.0
 10
2898.5970530832
 20
2473.745812786
 30
0.0
  0
SPLINE
  5
679
100
AcDbEntity
  8
0
100
AcDbSpline
 62
7
  6
CONTINUOUS
 70
0
 71
3
 72
10
 73
6
 74
0
 42
0.0000001
 43
0.0000001
 44
0.0000000001
 40
0.0
 40
0.0
 40
0.0
 40
0.0
 40
0.6655123601
 40
0.8830806684
 40
1.0
 40
1.0
 40
1.0
 40
1.0
 10
3027.0651879796
 20
2508.1687457846
 30
0.0
 10
3029.5838059693
 20
2508.843607441
 30
0.0
 10
3032.9383315509
 20
2510.0932067376
 30
0.0
 10
3036.1831345086
 20
2512.0271877997
 30
0.0
 10
3037.0720736354
 20
2513.3232764486
 30
0.0
 10
3036.9535117896
 20
2513.7657552808
 30
0.0
  0
SPLINE
  5
67A
100
AcDbEntity
  8
0
100
AcDbSpline
 62
7
  6
CONTINUOUS
 70
0
 71
3
 72
10
 73
6
 74
0
 42
0.0000001
 43
0.0000001
 44
0.0000000001
 40
0.0
 40
0.0
 40
0.0
 40
0.0
 40
0.6112483772
 40
0.843361207
 40
1.0
 40
1.0
 40
1.0
 40
1.0
 10
2447.8643390898
 20
2366.2358310945
 30
0.0
 10
2450.0158257812
 20
2366.812320216
 30
0.0
 10
2452.9619325441
 20
2367.8130985651
 30
0.0
 10
2456.1341917052
 20
2369.5787649118
 30
0.0
 10
2457.2601294063
 20
2370.5092342592
 30
0.0
 10
2457.5624577153
 20
2370.9933819908
 30
0.0
  0
SPLINE
  5
67B
100
AcDbEntity
  8
0
100
AcDbSpline
 62
7
  6
CONTINUOUS
 70
0
 71
3
 72
10
 73
6
 74
0
 42
0.0000001
 43
0.0000001
 44
0.0000000001
 40
0.0
 40
0.0
 40
0.0
 40
0.0
 40
0.6112483772
 40
0.843361207
 40
1.0
 40
1.0
 40
1.0
 40
1.0
 10
3055.8180541561
 20
2529.136538082
 30
0.0
 10
3057.9695408475
 20
2529.7130272035
 30
0.0
 10
3060.9156476104
 20
2530.7138055526
 30
0.0
 10
3064.0879067715
 20
2532.4794718993
 30
0.0
 10
3065.2138444726
 20
2533.4099412467
 30
0.0
 10
3065.5161727816
 20
2533.8940889783
 30
0.0
  0
SPLINE
  5
67C
100
AcDbEntity
  8
0
100
AcDbSpline
 62
7
  6
CONTINUOUS
 70
0
 71
3
 72
10
 73
6
 74
0
 42
0.0000001
 43
0.0000001
 44
0.0000000001
 40
0.0
 40
0.0
 40
0.0
 40
0.0
 40
0.6110786952
 40
0.8431941329
 40
1.0
 40
1.0
 40
1.0
 40
1.0
 10
2805.3864231307
 20
2456.2994720716
 30
0.0
 10
2806.7546190324
 20
2456.6660790585
 30
0.0
 10
2808.6280686978
 20
2457.3024886077
 30
0.0
 10
2810.6466594207
 20
2458.4251081427
 30
0.0
 10
2811.3629009645
 20
2459.0169385884
 30
0.0
 10
2811.5563770581
 20
2459.3246366748
 30
0.0
  0
SPLINE
  5
67D
100
AcDbEntity
  8
0
100
AcDbSpline
 62
7
  6
CONTINUOUS
 70
0
 71
3
 72
10
 73
6
 74
0
 42
0.0000001
 43
0.0000001
 44
0.0000000001
 40
0.0
 40
0.0
 40
0.0
 40
0.0
 40
0.6110786952
 40
0.8431941329
 40
1.0
 40
1.0
 40
1.0
 40
1.0
 10
2801.9834683869
 20
2468.9994720716
 30
0.0
 10
2803.3516642885
 20
2469.3660790585
 30
0.0
 10
2805.2251139539
 20
2470.0024886077
 30
0.0
 10
2807.2437046768
 20
2471.1251081427
 30
0.0
 10
2807.9599462206
 20
2471.7169385884
 30
0.0
 10
2808.1534223142
 20
2472.0246366748
 30
0.0
  0
SPLINE
  5
67E
100
AcDbEntity
  8
0
100
AcDbSpline
 62
7
  6
CONTINUOUS
 70
0
 71
3
 72
10
 73
6
 74
0
 42
0.0000001
 43
0.0000001
 44
0.0000000001
 40
0.0
 40
0.0
 40
0.0
 40
0.0
 40
0.6110786952
 40
0.8431941329
 40
1.0
 40
1.0
 40
1.0
 40
1.0
 10
2701.1630264741
 20
2428.372897105
 30
0.0
 10
2702.5312223758
 20
2428.739504092
 30
0.0
 10
2704.4046720412
 20
2429.3759136412
 30
0.0
 10
2706.4232627641
 20
2430.4985331761
 30
0.0
 10
2707.1395043079
 20
2431.0903636218
 30
0.0
 10
2707.3329804015
 20
2431.3980617083
 30
0.0
  0
SPLINE
  5
67F
100
AcDbEntity
  8
0
100
AcDbSpline
 62
7
  6
CONTINUOUS
 70
0
 71
3
 72
10
 73
6
 74
0
 42
0.0000001
 43
0.0000001
 44
0.0000000001
 40
0.0
 40
0.0
 40
0.0
 40
0.0
 40
0.6110786952
 40
0.8431941329
 40
1.0
 40
1.0
 40
1.0
 40
1.0
 10
2697.7600717303
 20
2441.072897105
 30
0.0
 10
2699.128267632
 20
2441.439504092
 30
0.0
 10
2701.0017172973
 20
2442.0759136412
 30
0.0
 10
2703.0203080202
 20
2443.1985331761
 30
0.0
 10
2703.736549564
 20
2443.7903636218
 30
0.0
 10
2703.9300256576
 20
2444.0980617083
 30
0.0
  0
SPLINE
  5
680
100
AcDbEntity
  8
0
100
AcDbSpline
 62
7
  6
CONTINUOUS
 70
0
 71
3
 72
9
 73
5
 74
0
 42
0.0000001
 43
0.0000001
 44
0.0000000001
 40
0.0
 40
0.0
 40
0.0
 40
0.0
 40
0.6728185688
 40
1.0
 40
1.0
 40
1.0
 40
1.0
 10
2900.573250556
 20
2479.6380256561
 30
0.0
 10
2899.9240091716
 20
2479.4611730919
 30
0.0
 10
2899.1325428482
 20
2479.3190626837
 30
0.0
 10
2897.7245953249
 20
2479.285523523
 30
0.0
 10
2897.6397676647
 20
2479.6015569271
 30
0.0
  0
SPLINE
  5
681
100
AcDbEntity
  8
0
100
AcDbSpline
 62
7
  6
CONTINUOUS
 70
0
 71
3
 72
10
 73
6
 74
0
 42
0.0000001
 43
0.0000001
 44
0.0000000001
 40
0.0
 40
0.0
 40
0.0
 40
0.0
 40
0.1147124612
 40
0.3316322087
 40
1.0
 40
1.0
 40
1.0
 40
1.0
 10
2904.8665543191
 20
2479.6746820005
 30
0.0
 10
2904.8328368465
 20
2479.841510867
 30
0.0
 10
2904.2997302271
 20
2480.1140147919
 30
0.0
 10
2902.8711505388
 20
2480.121650898
 30
0.0
 10
2901.5300535706
 20
2479.8986956664
 30
0.0
 10
2900.5732505615
 20
2479.6380256398
 30
0.0
  0
SPLINE
  5
682
100
AcDbEntity
  8
0
100
AcDbSpline
 62
7
  6
CONTINUOUS
 70
0
 71
3
 72
9
 73
5
 74
0
 42
0.0000001
 43
0.0000001
 44
0.0000000001
 40
0.0
 40
0.0
 40
0.0
 40
0.0
 40
0.6769728884
 40
1.0
 40
1.0
 40
1.0
 40
1.0
 10
2907.759058138
 20
2479.6879557223
 30
0.0
 10
2907.1133177125
 20
2479.5149386716
 30
0.0
 10
2906.3463255755
 20
2479.3678673367
 30
0.0
 10
2904.9298666452
 20
2479.362035629
 30
0.0
 10
2904.8665543728
 20
2479.6746820146
 30
0.0
  0
SPLINE
  5
683
100
AcDbEntity
  8
0
100
AcDbSpline
 62
7
  6
CONTINUOUS
 70
0
 71
3
 72
9
 73
5
 74
0
 42
0.0000001
 43
0.0000001
 44
0.0000000001
 40
0.0
 40
0.0
 40
0.0
 40
0.0
 40
0.3228833129
 40
1.0
 40
1.0
 40
1.0
 40
1.0
 10
2957.817878791
 20
2493.8629466321
 30
0.0
 10
2957.9192760055
 20
2493.5606463588
 30
0.0
 10
2956.6900077847
 20
2492.8573540199
 30
0.0
 10
2955.9521336964
 20
2492.6012713826
 30
0.0
 10
2955.3062593971
 20
2492.4281898058
 30
0.0
  0
SPLINE
  5
684
100
AcDbEntity
  8
0
100
AcDbSpline
 62
7
  6
CONTINUOUS
 70
0
 71
3
 72
13
 73
9
 74
0
 42
0.0000001
 43
0.0000001
 44
0.0000000001
 40
0.0
 40
0.0
 40
0.0
 40
0.0
 40
0.0574347103
 40
0.1656098627
 40
0.5
 40
0.8343901373
 40
0.9425652897
 40
1.0
 40
1.0
 40
1.0
 40
1.0
 10
2965.7198814381
 20
2495.9802818605
 30
0.0
 10
2965.6866143231
 20
2496.1448824208
 30
0.0
 10
2965.1652491193
 20
2496.4164451556
 30
0.0
 10
2963.7533114288
 20
2496.4292956181
 30
0.0
 10
2961.4643596122
 20
2496.0581004775
 30
0.0
 10
2959.2964716207
 20
2495.2350889907
 30
0.0
 10
2958.0801229434
 20
2494.5179913185
 30
0.0
 10
2957.7643887998
 20
2494.0221284896
 30
0.0
 10
2957.8178789132
 20
2493.8629466654
 30
0.0
  0
SPLINE
  5
685
100
AcDbEntity
  8
0
100
AcDbSpline
 62
7
  6
CONTINUOUS
 70
0
 71
3
 72
9
 73
5
 74
0
 42
0.0000001
 43
0.0000001
 44
0.0000000001
 40
0.0
 40
0.0
 40
0.0
 40
0.0
 40
0.6771166871
 40
1.0
 40
1.0
 40
1.0
 40
1.0
 10
2968.6123861734
 20
2495.9935557299
 30
0.0
 10
2967.9665018342
 20
2495.8205116227
 30
0.0
 10
2967.1994428103
 20
2495.6733486479
 30
0.0
 10
2965.7832191335
 20
2495.6677835693
 30
0.0
 10
2965.7198815606
 20
2495.9802818928
 30
0.0
  0
SPLINE
  5
686
100
AcDbEntity
  8
0
100
AcDbSpline
 62
7
  6
CONTINUOUS
 70
0
 71
3
 72
9
 73
5
 74
0
 42
0.0000001
 43
0.0000001
 44
0.0000000001
 40
0.0
 40
0.0
 40
0.0
 40
0.0
 40
0.3230271116
 40
1.0
 40
1.0
 40
1.0
 40
1.0
 10
3018.6712059794
 20
2510.1685465075
 30
0.0
 10
3018.772699136
 20
2509.8661306589
 30
0.0
 10
3017.5430938651
 20
2509.1629516009
 30
0.0
 10
3016.8053235225
 20
2508.9068230446
 30
0.0
 10
3016.1595873844
 20
2508.733789993
 30
0.0
  0
SPLINE
  5
687
100
AcDbEntity
  8
0
100
AcDbSpline
 62
7
  6
CONTINUOUS
 70
0
 71
3
 72
10
 73
6
 74
0
 42
0.0000001
 43
0.0000001
 44
0.0000000001
 40
0.0
 40
0.0
 40
0.0
 40
0.0
 40
0.6683677913
 40
0.8852875388
 40
1.0
 40
1.0
 40
1.0
 40
1.0
 10
3022.4076443336
 20
2512.2834530613
 30
0.0
 10
3021.448693608
 20
2512.0307984219
 30
0.0
 10
3020.1757919488
 20
2511.5533348322
 30
0.0
 10
3018.9424237005
 20
2510.8324319262
 30
0.0
 10
3018.6169917876
 20
2510.3298832949
 30
0.0
 10
3018.671206033
 20
2510.1685465221
 30
0.0
  0
SPLINE
  5
688
100
AcDbEntity
  8
0
100
AcDbSpline
 62
7
  6
CONTINUOUS
 70
0
 71
3
 72
9
 73
5
 74
0
 42
0.0000001
 43
0.0000001
 44
0.0000000001
 40
0.0
 40
0.0
 40
0.0
 40
0.0
 40
0.3271814312
 40
1.0
 40
1.0
 40
1.0
 40
1.0
 10
3024.9663494001
 20
2513.7186116782
 30
0.0
 10
3025.0509031935
 20
2513.4025048917
 30
0.0
 10
3023.8148152908
 20
2512.7275768952
 30
0.0
 10
3023.0583301444
 20
2512.4549149571
 30
0.0
 10
3022.4076443302
 20
2512.2834530782
 30
0.0
  0
SPLINE
  5
689
100
AcDbEntity
  8
0
100
AcDbSpline
 62
7
  6
CONTINUOUS
 70
0
 71
3
 72
9
 73
5
 74
0
 42
0.0000001
 43
0.0000001
 44
0.0000000001
 40
0.0
 40
0.0
 40
0.0
 40
0.0
 40
0.2426463895
 40
1.0
 40
1.0
 40
1.0
 40
1.0
 10
2803.7977449406
 20
2092.3328615312
 30
0.0
 10
2800.6673636351
 20
2091.087236473
 30
0.0
 10
2787.63866652
 20
2086.2746134797
 30
0.0
 10
2774.2954158806
 20
2082.3667819164
 30
0.0
 10
2764.1380042992
 20
2079.6450978359
 30
0.0
  0
SPLINE
  5
68A
100
AcDbEntity
  8
0
100
AcDbSpline
 62
7
  6
CONTINUOUS
 70
0
 71
3
 72
9
 73
5
 74
0
 42
0.0000001
 43
0.0000001
 44
0.0000000001
 40
0.0
 40
0.0
 40
0.0
 40
0.0
 40
0.2540225295
 40
1.0
 40
1.0
 40
1.0
 40
1.0
 10
2608.1960765178
 20
2037.8605842207
 30
0.0
 10
2604.7885100488
 20
2036.9475295372
 30
0.0
 10
2591.3446521555
 20
2033.4759261641
 30
0.0
 10
2577.7449468439
 20
2030.5114210807
 30
0.0
 10
2567.4936016492
 20
2029.0158632186
 30
0.0
  0
SPLINE
  5
68B
100
AcDbEntity
  8
0
100
AcDbSpline
 62
7
  6
CONTINUOUS
 70
0
 71
3
 72
10
 73
6
 74
0
 42
0.0000001
 43
0.0000001
 44
0.0000000001
 40
0.0
 40
0.0
 40
0.0
 40
0.0
 40
0.6655150296
 40
0.883090169
 40
1.0
 40
1.0
 40
1.0
 40
1.0
 10
2446.7076058295
 20
2370.5528183926
 30
0.0
 10
2444.4179543969
 20
2369.9393081403
 30
0.0
 10
2441.3681511795
 20
2368.8035395339
 30
0.0
 10
2438.4187243034
 20
2367.0450037169
 30
0.0
 10
2437.6104463026
 20
2365.8668469001
 30
0.0
 10
2437.7182205477
 20
2365.4646279416
 30
0.0
  0
SPLINE
  5
68C
100
AcDbEntity
  8
0
100
AcDbSpline
 62
7
  6
CONTINUOUS
 70
0
 71
3
 72
9
 73
5
 74
0
 42
0.0000001
 43
0.0000001
 44
0.0000000001
 40
0.0
 40
0.0
 40
0.0
 40
0.0
 40
0.4946820792
 40
1.0
 40
1.0
 40
1.0
 40
1.0
 10
2437.7182205477
 20
2365.4646279416
 30
0.0
 10
2437.7270539683
 20
2365.4316611672
 30
0.0
 10
2437.7501177205
 20
2365.3663114837
 30
0.0
 10
2437.7827310957
 20
2365.3052046716
 30
0.0
 10
2437.8012269904
 20
2365.275651893
 30
0.0
  0
SPLINE
  5
68D
100
AcDbEntity
  8
0
100
AcDbSpline
 62
7
  6
CONTINUOUS
 70
0
 71
3
 72
9
 73
5
 74
0
 42
0.0000001
 43
0.0000001
 44
0.0000000001
 40
0.0
 40
0.0
 40
0.0
 40
0.0
 40
0.6882687839
 40
1.0
 40
1.0
 40
1.0
 40
1.0
 10
3045.7549420567
 20
2528.1763588805
 30
0.0
 10
3045.6161831089
 20
2528.3980682132
 30
0.0
 10
3045.6574896793
 20
2528.8585804189
 30
0.0
 10
3045.8672959657
 20
2529.169275227
 30
0.0
 10
3045.9376912282
 20
2529.2645524722
 30
0.0
  0
SPLINE
  5
68E
100
AcDbEntity
  8
0
100
AcDbSpline
 62
7
  6
CONTINUOUS
 70
0
 71
3
 72
10
 73
6
 74
0
 42
0.0000001
 43
0.0000001
 44
0.0000000001
 40
0.0
 40
0.0
 40
0.0
 40
0.0
 40
0.1629484152
 40
0.3966832695
 40
1.0
 40
1.0
 40
1.0
 40
1.0
 10
3045.9376912282
 20
2529.2645524722
 30
0.0
 10
3046.2532620408
 20
2529.6916652727
 30
0.0
 10
3047.292319589
 20
2530.5090258299
 30
0.0
 10
3050.1513782451
 20
2532.0604719384
 30
0.0
 10
3052.7621175035
 20
2532.9446353649
 30
0.0
 10
3054.6613208958
 20
2533.4535253802
 30
0.0
  0
SPLINE
  5
68F
100
AcDbEntity
  8
0
100
AcDbSpline
 62
7
  6
CONTINUOUS
 70
0
 71
3
 72
13
 73
9
 74
0
 42
0.0000001
 43
0.0000001
 44
0.0000000001
 40
0.0
 40
0.0
 40
0.0
 40
0.0
 40
0.0596415303
 40
0.113216663
 40
0.2412292177
 40
0.4438237076
 40
0.7057855495
 40
1.0
 40
1.0
 40
1.0
 40
1.0
 10
3065.5161727816
 20
2533.8940889783
 30
0.0
 10
3065.6495764536
 20
2534.1077212556
 30
0.0
 10
3065.8611206851
 20
2534.6128597184
 30
0.0
 10
3065.1987253794
 20
2535.5325692473
 30
0.0
 10
3063.5057891053
 20
2535.8290721866
 30
0.0
 10
3061.0394720557
 20
2535.881429872
 30
0.0
 10
3057.8356602515
 20
2535.4649535396
 30
0.0
 10
3055.5444530157
 20
2534.9581091109
 30
0.0
 10
3054.3443335977
 20
2534.636538082
 30
0.0
  0
SPLINE
  5
690
100
AcDbEntity
  8
0
100
AcDbSpline
 62
7
  6
CONTINUOUS
 70
0
 71
3
 72
9
 73
5
 74
0
 42
0.0000001
 43
0.0000001
 44
0.0000000001
 40
0.0
 40
0.0
 40
0.0
 40
0.0
 40
0.6882687839
 40
1.0
 40
1.0
 40
1.0
 40
1.0
 10
3065.0130544761
 20
2533.336554551
 30
0.0
 10
3065.0223685835
 20
2533.5979399393
 30
0.0
 10
3064.7563399414
 20
2533.976101923
 30
0.0
 10
3064.4192949635
 20
2534.1402683764
 30
0.0
 10
3064.3106922552
 20
2534.18758326
 30
0.0
  0
SPLINE
  5
691
100
AcDbEntity
  8
0
100
AcDbSpline
 62
7
  6
CONTINUOUS
 70
0
 71
3
 72
10
 73
6
 74
0
 42
0.0000001
 43
0.0000001
 44
0.0000000001
 40
0.0
 40
0.0
 40
0.0
 40
0.0
 40
0.1629484152
 40
0.3966832695
 40
1.0
 40
1.0
 40
1.0
 40
1.0
 10
3064.3106922552
 20
2534.18758326
 30
0.0
 10
3063.8238435145
 20
2534.3996883892
 30
0.0
 10
3062.5153130032
 20
2534.5880146216
 30
0.0
 10
3059.2635725218
 20
2534.5020770361
 30
0.0
 10
3056.5605242882
 20
2533.9624153954
 30
0.0
 10
3054.6613208958
 20
2533.4535253802
 30
0.0
  0
SPLINE
  5
692
100
AcDbEntity
  8
0
100
AcDbSpline
 62
7
  6
CONTINUOUS
 70
0
 71
3
 72
10
 73
6
 74
0
 42
0.0000001
 43
0.0000001
 44
0.0000000001
 40
0.0
 40
0.0
 40
0.0
 40
0.0
 40
0.1169193316
 40
0.3344876399
 40
1.0
 40
1.0
 40
1.0
 40
1.0
 10
3030.321769277
 20
2538.5157552808
 30
0.0
 10
3030.2032074312
 20
2538.9582341129
 30
0.0
 10
3028.7853192405
 20
2539.6362102451
 30
0.0
 10
3025.0082469179
 20
2539.6886854964
 30
0.0
 10
3021.4783428983
 20
2539.093607441
 30
0.0
 10
3018.9597249086
 20
2538.4187457846
 30
0.0
  0
SPLINE
  5
693
100
AcDbEntity
  8
0
100
AcDbSpline
 62
7
  6
CONTINUOUS
 70
0
 71
3
 72
9
 73
5
 74
0
 42
0.0000001
 43
0.0000001
 44
0.0000000001
 40
0.0
 40
0.0
 40
0.0
 40
0.0
 40
0.590745376
 40
1.0
 40
1.0
 40
1.0
 40
1.0
 10
2891.1665900121
 20
2501.4766784909
 30
0.0
 10
2889.192607363
 20
2500.9477514342
 30
0.0
 10
2885.9577396385
 20
2499.8051925851
 30
0.0
 10
2882.769937082
 20
2498.1848378413
 30
0.0
 10
2881.8050759614
 20
2497.1487641276
 30
0.0
  0
SPLINE
  5
694
100
AcDbEntity
  8
0
100
AcDbSpline
 62
7
  6
CONTINUOUS
 70
0
 71
3
 72
9
 73
5
 74
0
 42
0.0000001
 43
0.0000001
 44
0.0000000001
 40
0.0
 40
0.0
 40
0.0
 40
0.0
 40
0.3204005754
 40
1.0
 40
1.0
 40
1.0
 40
1.0
 10
2881.8050759614
 20
2497.1487641276
 30
0.0
 10
2881.7030951021
 20
2497.0392564633
 30
0.0
 10
2881.4075971367
 20
2496.6910458791
 30
0.0
 10
2881.1961171375
 20
2496.1862534779
 30
0.0
 10
2881.2782662022
 20
2495.8796689948
 30
0.0
  0
SPLINE
  5
695
100
AcDbEntity
  8
0
100
AcDbSpline
 62
7
  6
CONTINUOUS
 70
0
 71
3
 72
10
 73
6
 74
0
 42
0.0000001
 43
0.0000001
 44
0.0000000001
 40
0.0
 40
0.0
 40
0.0
 40
0.0
 40
0.1169045284
 40
0.3344595633
 40
1.0
 40
1.0
 40
1.0
 40
1.0
 10
3030.996769277
 20
2535.9966209857
 30
0.0
 10
3030.8782221496
 20
2536.4390448882
 30
0.0
 10
3029.4604622293
 20
2537.1169290632
 30
0.0
 10
3025.6834408314
 20
2537.1701266138
 30
0.0
 10
3022.1534553736
 20
2536.5745032836
 30
0.0
 10
3019.6347249086
 20
2535.8996114895
 30
0.0
  0
SPLINE
  5
696
100
AcDbEntity
  8
0
100
AcDbSpline
 62
7
  6
CONTINUOUS
 70
0
 71
3
 72
9
 73
5
 74
0
 42
0.0000001
 43
0.0000001
 44
0.0000000001
 40
0.0
 40
0.0
 40
0.0
 40
0.0
 40
0.6728185688
 40
1.0
 40
1.0
 40
1.0
 40
1.0
 10
3018.3335274357
 20
2527.4882643244
 30
0.0
 10
3018.9827688202
 20
2527.6651168886
 30
0.0
 10
3019.7742351436
 20
2527.8072272967
 30
0.0
 10
3021.1821826669
 20
2527.8407664574
 30
0.0
 10
3021.267010327
 20
2527.5247330533
 30
0.0
  0
SPLINE
  5
697
100
AcDbEntity
  8
0
100
AcDbSpline
 62
7
  6
CONTINUOUS
 70
0
 71
3
 72
10
 73
6
 74
0
 42
0.0000001
 43
0.0000001
 44
0.0000000001
 40
0.0
 40
0.0
 40
0.0
 40
0.0
 40
0.1147124612
 40
0.3316322087
 40
1.0
 40
1.0
 40
1.0
 40
1.0
 10
3014.0402236726
 20
2527.45160798
 30
0.0
 10
3014.0739411452
 20
2527.2847791134
 30
0.0
 10
3014.6070477647
 20
2527.0122751886
 30
0.0
 10
3016.035627453
 20
2527.0046390825
 30
0.0
 10
3017.3767244212
 20
2527.227594314
 30
0.0
 10
3018.3335274303
 20
2527.4882643407
 30
0.0
  0
SPLINE
  5
698
100
AcDbEntity
  8
0
100
AcDbSpline
 62
7
  6
CONTINUOUS
 70
0
 71
3
 72
9
 73
5
 74
0
 42
0.0000001
 43
0.0000001
 44
0.0000000001
 40
0.0
 40
0.0
 40
0.0
 40
0.0
 40
0.6769728884
 40
1.0
 40
1.0
 40
1.0
 40
1.0
 10
3011.1477198538
 20
2527.4383342581
 30
0.0
 10
3011.7934602793
 20
2527.6113513088
 30
0.0
 10
3012.5604524163
 20
2527.7584226437
 30
0.0
 10
3013.9769113466
 20
2527.7642543515
 30
0.0
 10
3014.0402236189
 20
2527.4516079658
 30
0.0
  0
SPLINE
  5
699
100
AcDbEntity
  8
0
100
AcDbSpline
 62
7
  6
CONTINUOUS
 70
0
 71
3
 72
9
 73
5
 74
0
 42
0.0000001
 43
0.0000001
 44
0.0000000001
 40
0.0
 40
0.0
 40
0.0
 40
0.0
 40
0.3228833129
 40
1.0
 40
1.0
 40
1.0
 40
1.0
 10
2961.0888992008
 20
2513.2633433483
 30
0.0
 10
2960.9875019863
 20
2513.5656436216
 30
0.0
 10
2962.2167702071
 20
2514.2689359605
 30
0.0
 10
2962.9546442954
 20
2514.5250185978
 30
0.0
 10
2963.6005185947
 20
2514.6981001746
 30
0.0
  0
SPLINE
  5
69A
100
AcDbEntity
  8
0
100
AcDbSpline
 62
7
  6
CONTINUOUS
 70
0
 71
3
 72
13
 73
9
 74
0
 42
0.0000001
 43
0.0000001
 44
0.0000000001
 40
0.0
 40
0.0
 40
0.0
 40
0.0
 40
0.0574347103
 40
0.1656098627
 40
0.5
 40
0.8343901373
 40
0.9425652897
 40
1.0
 40
1.0
 40
1.0
 40
1.0
 10
2953.1868965537
 20
2511.1460081199
 30
0.0
 10
2953.2201636687
 20
2510.9814075597
 30
0.0
 10
2953.7415288724
 20
2510.7098448248
 30
0.0
 10
2955.1534665629
 20
2510.6969943623
 30
0.0
 10
2957.4424183796
 20
2511.0681895029
 30
0.0
 10
2959.6103063711
 20
2511.8912009897
 30
0.0
 10
2960.8266550484
 20
2512.6082986619
 30
0.0
 10
2961.142389192
 20
2513.1041614909
 30
0.0
 10
2961.0888990786
 20
2513.263343315
 30
0.0
  0
SPLINE
  5
69B
100
AcDbEntity
  8
0
100
AcDbSpline
 62
7
  6
CONTINUOUS
 70
0
 71
3
 72
9
 73
5
 74
0
 42
0.0000001
 43
0.0000001
 44
0.0000000001
 40
0.0
 40
0.0
 40
0.0
 40
0.0
 40
0.6771166871
 40
1.0
 40
1.0
 40
1.0
 40
1.0
 10
2950.2943918184
 20
2511.1327342505
 30
0.0
 10
2950.9402761576
 20
2511.3057783577
 30
0.0
 10
2951.7073351815
 20
2511.4529413325
 30
0.0
 10
2953.1235588582
 20
2511.4585064112
 30
0.0
 10
2953.1868964312
 20
2511.1460080876
 30
0.0
  0
SPLINE
  5
69C
100
AcDbEntity
  8
0
100
AcDbSpline
 62
7
  6
CONTINUOUS
 70
0
 71
3
 72
9
 73
5
 74
0
 42
0.0000001
 43
0.0000001
 44
0.0000000001
 40
0.0
 40
0.0
 40
0.0
 40
0.0
 40
0.3230271116
 40
1.0
 40
1.0
 40
1.0
 40
1.0
 10
2900.2355720123
 20
2496.9577434729
 30
0.0
 10
2900.1340788558
 20
2497.2601593215
 30
0.0
 10
2901.3636841267
 20
2497.9633383795
 30
0.0
 10
2902.1014544692
 20
2498.2194669359
 30
0.0
 10
2902.7471906074
 20
2498.3924999874
 30
0.0
  0
SPLINE
  5
69D
100
AcDbEntity
  8
0
100
AcDbSpline
 62
7
  6
CONTINUOUS
 70
0
 71
3
 72
10
 73
6
 74
0
 42
0.0000001
 43
0.0000001
 44
0.0000000001
 40
0.0
 40
0.0
 40
0.0
 40
0.0
 40
0.6683677913
 40
0.8852875388
 40
1.0
 40
1.0
 40
1.0
 40
1.0
 10
2896.4991336581
 20
2494.8428369191
 30
0.0
 10
2897.4580843837
 20
2495.0954915585
 30
0.0
 10
2898.730986043
 20
2495.5729551483
 30
0.0
 10
2899.9643542913
 20
2496.2938580542
 30
0.0
 10
2900.2897862042
 20
2496.7964066855
 30
0.0
 10
2900.2355719588
 20
2496.9577434583
 30
0.0
  0
SPLINE
  5
69E
100
AcDbEntity
  8
0
100
AcDbSpline
 62
7
  6
CONTINUOUS
 70
0
 71
3
 72
9
 73
5
 74
0
 42
0.0000001
 43
0.0000001
 44
0.0000000001
 40
0.0
 40
0.0
 40
0.0
 40
0.0
 40
0.3271814312
 40
1.0
 40
1.0
 40
1.0
 40
1.0
 10
2893.9404285917
 20
2493.4076783023
 30
0.0
 10
2893.8558747983
 20
2493.7237850888
 30
0.0
 10
2895.0919627009
 20
2494.3987130852
 30
0.0
 10
2895.8484478474
 20
2494.6713750233
 30
0.0
 10
2896.4991336616
 20
2494.8428369022
 30
0.0
  0
SPLINE
  5
69F
100
AcDbEntity
  8
0
100
AcDbSpline
 62
7
  6
CONTINUOUS
 70
0
 71
3
 72
10
 73
6
 74
0
 42
0.0000001
 43
0.0000001
 44
0.0000000001
 40
0.0
 40
0.0
 40
0.0
 40
0.0
 40
0.6655123601
 40
0.8830806684
 40
1.0
 40
1.0
 40
1.0
 40
1.0
 10
2890.4915900121
 20
2503.995812786
 30
0.0
 10
2887.9729720225
 20
2503.3209511296
 30
0.0
 10
2884.6184464409
 20
2502.0713518331
 30
0.0
 10
2881.3736434832
 20
2500.137370771
 30
0.0
 10
2880.4847043564
 20
2498.841282122
 30
0.0
 10
2880.6032662022
 20
2498.3988032899
 30
0.0
  0
SPLINE
  5
6A0
100
AcDbEntity
  8
0
100
AcDbSpline
 62
7
  6
CONTINUOUS
 70
0
 71
3
 72
12
 73
8
 74
0
 42
0.0000001
 43
0.0000001
 44
0.0000000001
 40
0.0
 40
0.0
 40
0.0
 40
0.0
 40
0.0597853652
 40
0.1133547591
 40
0.2413472476
 40
0.4440244264
 40
1.0
 40
1.0
 40
1.0
 40
1.0
 10
2703.9300256576
 20
2444.0980617083
 30
0.0
 10
2704.0155142456
 20
2444.234019978
 30
0.0
 10
2704.1509634793
 20
2444.5552902469
 30
0.0
 10
2703.7324057828
 20
2445.1426147289
 30
0.0
 10
2702.6542245526
 20
2445.332063481
 30
0.0
 10
2700.3052243494
 20
2445.3760498606
 30
0.0
 10
2698.2648800562
 20
2444.9594487823
 30
0.0
 10
2696.8222495568
 20
2444.572897105
 30
0.0
  0
SPLINE
  5
6A1
100
AcDbEntity
  8
0
100
AcDbSpline
 62
7
  6
CONTINUOUS
 70
0
 71
3
 72
12
 73
8
 74
0
 42
0.0000001
 43
0.0000001
 44
0.0000000001
 40
0.0
 40
0.0
 40
0.0
 40
0.0
 40
0.0597853652
 40
0.1133547591
 40
0.2413472476
 40
0.4440244264
 40
1.0
 40
1.0
 40
1.0
 40
1.0
 10
2808.1534223142
 20
2472.0246366748
 30
0.0
 10
2808.2389109022
 20
2472.1605949446
 30
0.0
 10
2808.3743601359
 20
2472.4818652135
 30
0.0
 10
2807.9558024394
 20
2473.0691896955
 30
0.0
 10
2806.8776212092
 20
2473.2586384476
 30
0.0
 10
2804.528621006
 20
2473.3026248271
 30
0.0
 10
2802.4882767128
 20
2472.8860237489
 30
0.0
 10
2801.0456462133
 20
2472.4994720716
 30
0.0
  0
SPLINE
  5
6A2
100
AcDbEntity
  8
0
100
AcDbSpline
 62
7
  6
CONTINUOUS
 70
0
 71
3
 72
12
 73
8
 74
0
 42
0.0000001
 43
0.0000001
 44
0.0000000001
 40
0.0
 40
0.0
 40
0.0
 40
0.0
 40
0.0597853652
 40
0.1133547591
 40
0.2413472476
 40
0.4440244264
 40
1.0
 40
1.0
 40
1.0
 40
1.0
 10
2707.3329804015
 20
2431.3980617083
 30
0.0
 10
2707.4184689895
 20
2431.534019978
 30
0.0
 10
2707.5539182232
 20
2431.8552902469
 30
0.0
 10
2707.1353605267
 20
2432.4426147289
 30
0.0
 10
2706.0571792964
 20
2432.632063481
 30
0.0
 10
2703.7081790932
 20
2432.6760498606
 30
0.0
 10
2701.6678348001
 20
2432.2594487823
 30
0.0
 10
2700.2252043006
 20
2431.872897105
 30
0.0
  0
SPLINE
  5
6A3
100
AcDbEntity
  8
0
100
AcDbSpline
 62
7
  6
CONTINUOUS
 70
0
 71
3
 72
9
 73
5
 74
0
 42
0.0000001
 43
0.0000001
 44
0.0000000001
 40
0.0
 40
0.0
 40
0.0
 40
0.0
 40
0.1810806247
 40
1.0
 40
1.0
 40
1.0
 40
1.0
 10
2695.145654513
 20
2427.6496078242
 30
0.0
 10
2695.1299363576
 20
2427.7168169269
 30
0.0
 10
2695.1521780293
 20
2428.1130298859
 30
0.0
 10
2695.4819583892
 20
2428.3979797321
 30
0.0
 10
2695.7240556706
 20
2428.5950211949
 30
0.0
  0
SPLINE
  5
6A4
100
AcDbEntity
  8
0
100
AcDbSpline
 62
7
  6
CONTINUOUS
 70
0
 71
3
 72
9
 73
5
 74
0
 42
0.0000001
 43
0.0000001
 44
0.0000000001
 40
0.0
 40
0.0
 40
0.0
 40
0.0
 40
0.4297635924
 40
1.0
 40
1.0
 40
1.0
 40
1.0
 10
2695.7240556706
 20
2428.5950211949
 30
0.0
 10
2696.2980863255
 20
2429.0622211538
 30
0.0
 10
2697.8618578736
 20
2429.844290672
 30
0.0
 10
2699.4890638643
 20
2430.402535349
 30
0.0
 10
2700.4364122574
 20
2430.6612677855
 30
0.0
  0
SPLINE
  5
6A5
100
AcDbEntity
  8
0
100
AcDbSpline
 62
7
  6
CONTINUOUS
 70
0
 71
3
 72
13
 73
9
 74
0
 42
0.0000001
 43
0.0000001
 44
0.0000000001
 40
0.0
 40
0.0
 40
0.0
 40
0.0
 40
0.1987549531
 40
0.387989584
 40
0.6335491093
 40
0.8126208807
 40
0.9175165775
 40
1.0
 40
1.0
 40
1.0
 40
1.0
 10
2446.3906185314
 20
2371.7358310945
 30
0.0
 10
2445.5825405582
 20
2371.5193072542
 30
0.0
 10
2444.0150304908
 20
2371.0488259701
 30
0.0
 10
2441.5198666005
 20
2370.1354756952
 30
0.0
 10
2439.1345037182
 20
2369.0095066386
 30
0.0
 10
2437.3646304469
 20
2367.8494373797
 30
0.0
 10
2436.165677692
 20
2366.4621973951
 30
0.0
 10
2436.7802509575
 20
2365.6700156028
 30
0.0
 10
2437.086746543
 20
2365.5069317177
 30
0.0
  0
SPLINE
  5
6A6
100
AcDbEntity
  8
0
100
AcDbSpline
 62
7
  6
CONTINUOUS
 70
0
 71
3
 72
13
 73
9
 74
0
 42
0.0000001
 43
0.0000001
 44
0.0000000001
 40
0.0
 40
0.0
 40
0.0
 40
0.0
 40
0.0596415303
 40
0.113216663
 40
0.2412292177
 40
0.4438237076
 40
0.7057855495
 40
1.0
 40
1.0
 40
1.0
 40
1.0
 10
2457.5624577153
 20
2370.9933819908
 30
0.0
 10
2457.6958613872
 20
2371.2070142681
 30
0.0
 10
2457.9074056188
 20
2371.7121527309
 30
0.0
 10
2457.245010313
 20
2372.6318622598
 30
0.0
 10
2455.552074039
 20
2372.9283651991
 30
0.0
 10
2453.0857569894
 20
2372.9807228845
 30
0.0
 10
2449.8819451851
 20
2372.564246552
 30
0.0
 10
2447.5907379493
 20
2372.0574021234
 30
0.0
 10
2446.3906185314
 20
2371.7358310945
 30
0.0
  0
SPLINE
  5
6A7
100
AcDbEntity
  8
0
100
AcDbSpline
 62
7
  6
CONTINUOUS
 70
0
 71
3
 72
13
 73
9
 74
0
 42
0.0000001
 43
0.0000001
 44
0.0000000001
 40
0.0
 40
0.0
 40
0.0
 40
0.0
 40
0.1987549531
 40
0.387989584
 40
0.6335491093
 40
0.8126208807
 40
0.9175165775
 40
1.0
 40
1.0
 40
1.0
 40
1.0
 10
3054.3443335977
 20
2534.636538082
 30
0.0
 10
3053.5362556245
 20
2534.4200142417
 30
0.0
 10
3051.9687455572
 20
2533.9495329576
 30
0.0
 10
3049.4735816668
 20
2533.0361826827
 30
0.0
 10
3047.0882187846
 20
2531.9102136261
 30
0.0
 10
3045.3183455132
 20
2530.7501443672
 30
0.0
 10
3044.1193927584
 20
2529.3629043826
 30
0.0
 10
3044.7339660238
 20
2528.5707225903
 30
0.0
 10
3045.0404616094
 20
2528.4076387052
 30
0.0
  0
SPLINE
  5
6A8
100
AcDbEntity
  8
0
100
AcDbSpline
 62
7
  6
CONTINUOUS
 70
0
 71
3
 72
12
 73
8
 74
0
 42
0.0000001
 43
0.0000001
 44
0.0000000001
 40
0.0
 40
0.0
 40
0.0
 40
0.0
 40
0.0597853652
 40
0.1133547591
 40
0.2413472476
 40
0.4440244264
 40
1.0
 40
1.0
 40
1.0
 40
1.0
 10
2811.5563770581
 20
2459.3246366748
 30
0.0
 10
2811.641865646
 20
2459.4605949446
 30
0.0
 10
2811.7773148798
 20
2459.7818652135
 30
0.0
 10
2811.3587571832
 20
2460.3691896955
 30
0.0
 10
2810.280575953
 20
2460.5586384476
 30
0.0
 10
2807.9315757498
 20
2460.6026248271
 30
0.0
 10
2805.8912314567
 20
2460.1860237489
 30
0.0
 10
2804.4486009572
 20
2459.7994720716
 30
0.0
  0
SPLINE
  5
6A9
100
AcDbEntity
  8
0
100
AcDbSpline
 62
7
  6
CONTINUOUS
 70
0
 71
3
 72
13
 73
9
 74
0
 42
0.0000001
 43
0.0000001
 44
0.0000000001
 40
0.0
 40
0.0
 40
0.0
 40
0.0
 40
0.1987291232
 40
0.38809281
 40
0.6336298965
 40
0.8126297643
 40
0.9173989314
 40
1.0
 40
1.0
 40
1.0
 40
1.0
 10
2804.4486009572
 20
2459.7994720716
 30
0.0
 10
2803.9342709015
 20
2459.6616577485
 30
0.0
 10
2802.9362265077
 20
2459.3619432387
 30
0.0
 10
2801.3476040159
 20
2458.7806394343
 30
0.0
 10
2799.8293450673
 20
2458.0633069676
 30
0.0
 10
2798.7029611217
 20
2457.3254783804
 30
0.0
 10
2797.9413370185
 20
2456.4407147309
 30
0.0
 10
2798.3347979498
 20
2455.9377185232
 30
0.0
 10
2798.5305039878
 20
2455.8343645049
 30
0.0
  0
SPLINE
  5
6AA
100
AcDbEntity
  8
0
100
AcDbSpline
 62
7
  6
CONTINUOUS
 70
0
 71
3
 72
9
 73
5
 74
0
 42
0.0000001
 43
0.0000001
 44
0.0000000001
 40
0.0
 40
0.0
 40
0.0
 40
0.0
 40
0.1810806247
 40
1.0
 40
1.0
 40
1.0
 40
1.0
 10
2706.7358680969
 20
2430.7551961941
 30
0.0
 10
2706.7158758674
 20
2430.8212600621
 30
0.0
 10
2706.4985075353
 20
2431.1532697141
 30
0.0
 10
2706.0704344428
 20
2431.2351533397
 30
0.0
 10
2705.7622513155
 20
2431.2847476114
 30
0.0
  0
SPLINE
  5
6AB
100
AcDbEntity
  8
0
100
AcDbSpline
 62
7
  6
CONTINUOUS
 70
0
 71
3
 72
9
 73
5
 74
0
 42
0.0000001
 43
0.0000001
 44
0.0000000001
 40
0.0
 40
0.0
 40
0.0
 40
0.0
 40
0.4299297594
 40
1.0
 40
1.0
 40
1.0
 40
1.0
 10
2705.7622513155
 20
2431.2847476114
 30
0.0
 10
2705.0157915767
 20
2431.4048714073
 30
0.0
 10
2703.2333061992
 20
2431.2921335449
 30
0.0
 10
2701.510542713
 20
2430.9493533022
 30
0.0
 10
2700.5421915987
 20
2430.6898844031
 30
0.0
  0
SPLINE
  5
6AC
100
AcDbEntity
  8
0
100
AcDbSpline
 62
7
  6
CONTINUOUS
 70
0
 71
3
 72
13
 73
9
 74
0
 42
0.0000001
 43
0.0000001
 44
0.0000000001
 40
0.0
 40
0.0
 40
0.0
 40
0.0
 40
0.1987291232
 40
0.38809281
 40
0.6336298965
 40
0.8126297643
 40
0.9173989314
 40
1.0
 40
1.0
 40
1.0
 40
1.0
 10
2801.0456462133
 20
2472.4994720716
 30
0.0
 10
2800.5313161576
 20
2472.3616577485
 30
0.0
 10
2799.5332717638
 20
2472.0619432387
 30
0.0
 10
2797.944649272
 20
2471.4806394343
 30
0.0
 10
2796.4263903234
 20
2470.7633069676
 30
0.0
 10
2795.3000063779
 20
2470.0254783804
 30
0.0
 10
2794.5383822747
 20
2469.1407147309
 30
0.0
 10
2794.9318432059
 20
2468.6377185232
 30
0.0
 10
2795.1275492439
 20
2468.5343645049
 30
0.0
  0
SPLINE
  5
6AD
100
AcDbEntity
  8
0
100
AcDbSpline
 62
7
  6
CONTINUOUS
 70
0
 71
3
 72
13
 73
9
 74
0
 42
0.0000001
 43
0.0000001
 44
0.0000000001
 40
0.0
 40
0.0
 40
0.0
 40
0.0
 40
0.1987291232
 40
0.38809281
 40
0.6336298965
 40
0.8126297643
 40
0.9173989314
 40
1.0
 40
1.0
 40
1.0
 40
1.0
 10
2700.2252043006
 20
2431.872897105
 30
0.0
 10
2699.7108742449
 20
2431.7350827819
 30
0.0
 10
2698.7128298511
 20
2431.4353682721
 30
0.0
 10
2697.1242073593
 20
2430.8540644678
 30
0.0
 10
2695.6059484107
 20
2430.136732001
 30
0.0
 10
2694.4795644651
 20
2429.3989034138
 30
0.0
 10
2693.717940362
 20
2428.5141397643
 30
0.0
 10
2694.1114012932
 20
2428.0111435566
 30
0.0
 10
2694.3071073312
 20
2427.9077895384
 30
0.0
  0
SPLINE
  5
6AE
100
AcDbEntity
  8
0
100
AcDbSpline
 62
7
  6
CONTINUOUS
 70
0
 71
3
 72
13
 73
9
 74
0
 42
0.0000001
 43
0.0000001
 44
0.0000000001
 40
0.0
 40
0.0
 40
0.0
 40
0.0
 40
0.1987291232
 40
0.38809281
 40
0.6336298965
 40
0.8126297643
 40
0.9173989314
 40
1.0
 40
1.0
 40
1.0
 40
1.0
 10
2696.8222495568
 20
2444.572897105
 30
0.0
 10
2696.307919501
 20
2444.4350827819
 30
0.0
 10
2695.3098751073
 20
2444.1353682721
 30
0.0
 10
2693.7212526155
 20
2443.5540644678
 30
0.0
 10
2692.2029936668
 20
2442.836732001
 30
0.0
 10
2691.0766097213
 20
2442.0989034138
 30
0.0
 10
2690.3149856181
 20
2441.2141397643
 30
0.0
 10
2690.7084465493
 20
2440.7111435566
 30
0.0
 10
2690.9041525874
 20
2440.6077895384
 30
0.0
  0
SPLINE
  5
6AF
100
AcDbEntity
  8
0
100
AcDbSpline
 62
7
  6
CONTINUOUS
 70
0
 71
3
 72
9
 73
5
 74
0
 42
0.0000001
 43
0.0000001
 44
0.0000000001
 40
0.0
 40
0.0
 40
0.0
 40
0.0
 40
0.5700702406
 40
1.0
 40
1.0
 40
1.0
 40
1.0
 10
2697.1392368549
 20
2443.3898844031
 30
0.0
 10
2698.1075879691
 20
2443.6493533022
 30
0.0
 10
2699.8303514553
 20
2443.9921335449
 30
0.0
 10
2701.6128368328
 20
2444.1048714073
 30
0.0
 10
2702.3592965716
 20
2443.9847476114
 30
0.0
  0
SPLINE
  5
6B0
100
AcDbEntity
  8
0
100
AcDbSpline
 62
7
  6
CONTINUOUS
 70
0
 71
3
 72
9
 73
5
 74
0
 42
0.0000001
 43
0.0000001
 44
0.0000000001
 40
0.0
 40
0.0
 40
0.0
 40
0.0
 40
0.3416191105
 40
1.0
 40
1.0
 40
1.0
 40
1.0
 10
2702.3592965716
 20
2443.9847476114
 30
0.0
 10
2702.4864110227
 20
2443.9642917588
 30
0.0
 10
2702.8406924125
 20
2443.8922857911
 30
0.0
 10
2703.261042712
 20
2443.6926910936
 30
0.0
 10
2703.3329133531
 20
2443.4551961941
 30
0.0
  0
SPLINE
  5
6B1
100
AcDbEntity
  8
0
100
AcDbSpline
 62
7
  6
CONTINUOUS
 70
0
 71
3
 72
9
 73
5
 74
0
 42
0.0000001
 43
0.0000001
 44
0.0000000001
 40
0.0
 40
0.0
 40
0.0
 40
0.0
 40
0.5700702406
 40
1.0
 40
1.0
 40
1.0
 40
1.0
 10
2801.3626335115
 20
2471.3164593697
 30
0.0
 10
2802.3309846257
 20
2471.5759282687
 30
0.0
 10
2804.0537481119
 20
2471.9187085114
 30
0.0
 10
2805.8362334894
 20
2472.0314463738
 30
0.0
 10
2806.5826932282
 20
2471.9113225779
 30
0.0
  0
SPLINE
  5
6B2
100
AcDbEntity
  8
0
100
AcDbSpline
 62
7
  6
CONTINUOUS
 70
0
 71
3
 72
9
 73
5
 74
0
 42
0.0000001
 43
0.0000001
 44
0.0000000001
 40
0.0
 40
0.0
 40
0.0
 40
0.0
 40
0.3416191105
 40
1.0
 40
1.0
 40
1.0
 40
1.0
 10
2806.5826932282
 20
2471.9113225779
 30
0.0
 10
2806.7098076793
 20
2471.8908667253
 30
0.0
 10
2807.0640890691
 20
2471.8188607577
 30
0.0
 10
2807.4844393686
 20
2471.6192660602
 30
0.0
 10
2807.5563100096
 20
2471.3817711607
 30
0.0
  0
SPLINE
  5
6B3
100
AcDbEntity
  8
0
100
AcDbSpline
 62
7
  6
CONTINUOUS
 70
0
 71
3
 72
9
 73
5
 74
0
 42
0.0000001
 43
0.0000001
 44
0.0000000001
 40
0.0
 40
0.0
 40
0.0
 40
0.0
 40
0.5700702406
 40
1.0
 40
1.0
 40
1.0
 40
1.0
 10
2804.7655882553
 20
2458.6164593697
 30
0.0
 10
2805.7339393696
 20
2458.8759282687
 30
0.0
 10
2807.4567028558
 20
2459.2187085114
 30
0.0
 10
2809.2391882333
 20
2459.3314463738
 30
0.0
 10
2809.9856479721
 20
2459.2113225779
 30
0.0
  0
SPLINE
  5
6B4
100
AcDbEntity
  8
0
100
AcDbSpline
 62
7
  6
CONTINUOUS
 70
0
 71
3
 72
9
 73
5
 74
0
 42
0.0000001
 43
0.0000001
 44
0.0000000001
 40
0.0
 40
0.0
 40
0.0
 40
0.0
 40
0.3416191105
 40
1.0
 40
1.0
 40
1.0
 40
1.0
 10
2809.9856479721
 20
2459.2113225779
 30
0.0
 10
2810.1127624232
 20
2459.1908667253
 30
0.0
 10
2810.4670438129
 20
2459.1188607577
 30
0.0
 10
2810.8873941125
 20
2458.9192660602
 30
0.0
 10
2810.9592647535
 20
2458.6817711607
 30
0.0
  0
SPLINE
  5
6B5
100
AcDbEntity
  8
0
100
AcDbSpline
 62
7
  6
CONTINUOUS
 70
0
 71
3
 72
9
 73
5
 74
0
 42
0.0000001
 43
0.0000001
 44
0.0000000001
 40
0.0
 40
0.0
 40
0.0
 40
0.0
 40
0.5702364076
 40
1.0
 40
1.0
 40
1.0
 40
1.0
 10
2801.2568541701
 20
2471.287842752
 30
0.0
 10
2800.309505777
 20
2471.0291103155
 30
0.0
 10
2798.6822997863
 20
2470.4708656385
 30
0.0
 10
2797.1185282383
 20
2469.6887961204
 30
0.0
 10
2796.5444975833
 20
2469.2215961614
 30
0.0
  0
SPLINE
  5
6B6
100
AcDbEntity
  8
0
100
AcDbSpline
 62
7
  6
CONTINUOUS
 70
0
 71
3
 72
9
 73
5
 74
0
 42
0.0000001
 43
0.0000001
 44
0.0000000001
 40
0.0
 40
0.0
 40
0.0
 40
0.0
 40
0.3416191105
 40
1.0
 40
1.0
 40
1.0
 40
1.0
 10
2796.5444975833
 20
2469.2215961614
 30
0.0
 10
2796.4446411658
 20
2469.1403236479
 30
0.0
 10
2796.173827466
 20
2468.9008239558
 30
0.0
 10
2795.9095907768
 20
2468.5177947275
 30
0.0
 10
2795.9660964257
 20
2468.2761827908
 30
0.0
  0
SPLINE
  5
6B7
100
AcDbEntity
  8
0
100
AcDbSpline
 62
7
  6
CONTINUOUS
 70
0
 71
3
 72
9
 73
5
 74
0
 42
0.0000001
 43
0.0000001
 44
0.0000000001
 40
0.0
 40
0.0
 40
0.0
 40
0.0
 40
0.5702364076
 40
1.0
 40
1.0
 40
1.0
 40
1.0
 10
2804.659808914
 20
2458.587842752
 30
0.0
 10
2803.7124605209
 20
2458.3291103155
 30
0.0
 10
2802.0852545302
 20
2457.7708656385
 30
0.0
 10
2800.5214829821
 20
2456.9887961204
 30
0.0
 10
2799.9474523272
 20
2456.5215961614
 30
0.0
  0
SPLINE
  5
6B8
100
AcDbEntity
  8
0
100
AcDbSpline
 62
7
  6
CONTINUOUS
 70
0
 71
3
 72
9
 73
5
 74
0
 42
0.0000001
 43
0.0000001
 44
0.0000000001
 40
0.0
 40
0.0
 40
0.0
 40
0.0
 40
0.3416191105
 40
1.0
 40
1.0
 40
1.0
 40
1.0
 10
2799.9474523272
 20
2456.5215961614
 30
0.0
 10
2799.8475959097
 20
2456.4403236479
 30
0.0
 10
2799.5767822099
 20
2456.2008239558
 30
0.0
 10
2799.3125455207
 20
2455.8177947275
 30
0.0
 10
2799.3690511696
 20
2455.5761827908
 30
0.0
  0
SPLINE
  5
6B9
100
AcDbEntity
  8
0
100
AcDbSpline
 62
7
  6
CONTINUOUS
 70
0
 71
3
 72
9
 73
5
 74
0
 42
0.0000001
 43
0.0000001
 44
0.0000000001
 40
0.0
 40
0.0
 40
0.0
 40
0.0
 40
0.5702364076
 40
1.0
 40
1.0
 40
1.0
 40
1.0
 10
2697.0334575135
 20
2443.3612677855
 30
0.0
 10
2696.0861091204
 20
2443.102535349
 30
0.0
 10
2694.4589031297
 20
2442.544290672
 30
0.0
 10
2692.8951315817
 20
2441.7622211538
 30
0.0
 10
2692.3211009268
 20
2441.2950211949
 30
0.0
  0
SPLINE
  5
6BA
100
AcDbEntity
  8
0
100
AcDbSpline
 62
7
  6
CONTINUOUS
 70
0
 71
3
 72
9
 73
5
 74
0
 42
0.0000001
 43
0.0000001
 44
0.0000000001
 40
0.0
 40
0.0
 40
0.0
 40
0.0
 40
0.3416191105
 40
1.0
 40
1.0
 40
1.0
 40
1.0
 10
2692.3211009268
 20
2441.2950211949
 30
0.0
 10
2692.2212445092
 20
2441.2137486813
 30
0.0
 10
2691.9504308094
 20
2440.9742489892
 30
0.0
 10
2691.6861941202
 20
2440.5912197609
 30
0.0
 10
2691.7426997691
 20
2440.3496078242
 30
0.0
  0
SPLINE
  5
6BB
100
AcDbEntity
  8
0
100
AcDbSpline
 62
7
  6
CONTINUOUS
 70
0
 71
3
 72
10
 73
6
 74
0
 42
0.0000001
 43
0.0000001
 44
0.0000000001
 40
0.0
 40
0.0
 40
0.0
 40
0.0
 40
0.6033167305
 40
0.8370515848
 40
1.0
 40
1.0
 40
1.0
 40
1.0
 10
2446.7076058295
 20
2370.5528183926
 30
0.0
 10
2448.6068092218
 20
2371.0617084079
 30
0.0
 10
2451.3098574555
 20
2371.6013700486
 30
0.0
 10
2454.5615979368
 20
2371.6873076341
 30
0.0
 10
2455.8701284482
 20
2371.4989814016
 30
0.0
 10
2456.3569771888
 20
2371.2868762724
 30
0.0
  0
SPLINE
  5
6BC
100
AcDbEntity
  8
0
100
AcDbSpline
 62
7
  6
CONTINUOUS
 70
0
 71
3
 72
9
 73
5
 74
0
 42
0.0000001
 43
0.0000001
 44
0.0000000001
 40
0.0
 40
0.0
 40
0.0
 40
0.0
 40
0.3117312161
 40
1.0
 40
1.0
 40
1.0
 40
1.0
 10
2456.3569771888
 20
2371.2868762724
 30
0.0
 10
2456.4655798971
 20
2371.2395613889
 30
0.0
 10
2456.802624875
 20
2371.0753949355
 30
0.0
 10
2457.0686535172
 20
2370.6972329518
 30
0.0
 10
2457.0593394097
 20
2370.4358475635
 30
0.0
  0
ENDSEC
  0
SECTION
  2
OBJECTS
  0
DICTIONARY
  5
C
100
AcDbDictionary
280
0
281
1
  3
ACAD_GROUP
350
D
  3
ACAD_MLINESTYLE
350
17
  3
ACAD_LAYOUT
350
1A
  3
ACAD_PLOTSETTINGS
350
19
  3
ACAD_PLOTSTYLENAME
350
E
  0
DICTIONARY
  5
D
102
{ACAD_REACTORS
330
C
102
}
100
AcDbDictionary
280
0
281
1
  0
ACDBDICTIONARYWDFLT
  5
E
102
{ACAD_REACTORS
330
C
102
}
100
AcDbDictionary
281
1
  3
Normal
350
F
100
AcDbDictionaryWithDefault
340
F
  0
DICTIONARY
  5
17
102
{ACAD_REACTORS
330
C
102
}
100
AcDbDictionary
280
0
281
1
  3
Standard
350
18
  0
DICTIONARY
  5
19
102
{ACAD_REACTORS
330
C
102
}
100
AcDbDictionary
281
1
  0
DICTIONARY
  5
1A
102
{ACAD_REACTORS
330
C
102
}
100
AcDbDictionary
281
1
  3
Model
350
6BD
  3
Layout1
350
6BE
  0
ACDBPLACEHOLDER
  5
F
102
{ACAD_REACTORS
330
E
102
}
  0
MLINESTYLE
  5
18
102
{ACAD_REACTORS
330
17
102
}
100
AcDbMlineStyle
  2
STANDARD
 70
0
  3

 62
256
 51
90.0
 52
90.0
 71
2
 49
0.5
 62
256
  6
BYLAYER
 49
-0.5
 62
256
  6
BYLAYER
  0
LAYOUT
  5
6BD
102
{ACAD_REACTORS
330
1A
102
}
100
AcDbPlotSettings
  1

  2
none_device
  4

  6

 40
0.0
 41
0.0
 42
0.0
 43
0.0
 44
431.8
 45
279.4
 46
0.0
 47
0.0
 48
0.0
 49
0.0
140
0.0
141
0.0
142
1.0
143
1.0
 70
1024
 72
1
 73
0
 74
0
  7

 75
0
147
1.0
148
0.0
149
0.0
100
AcDbLayout
  1
Model
 70
0
 71
0
 10
0.0
 20
0.0
 11
431.8
 21
279.4
 12
0.0
 22
0.0
 32
0.0
 14
0.0
 24
0.0
 34
0.0
 15
0.0
 25
0.0
 35
0.0
146
0.0
 13
0.0
 23
0.0
 33
0.0
 16
1.0
 26
0.0
 36
0.0
 17
0.0
 27
1.0
 37
0.0
 76
0
330
213
345
0
346
0
  0
LAYOUT
  5
6BE
102
{ACAD_REACTORS
330
1A
102
}
100
AcDbPlotSettings
  1

  2
none_device
  4

  6

 40
0.0
 41
0.0
 42
0.0
 43
0.0
 44
431.8
 45
279.4
 46
0.0
 47
0.0
 48
0.0
 49
0.0
140
0.0
141
0.0
142
1.0
143
1.0
 70
0
 72
1
 73
0
 74
0
  7

 75
0
147
1.0
148
0.0
149
0.0
100
AcDbLayout
  1
Layout1
 70
0
 71
1
 10
0.0
 20
0.0
 11
431.8
 21
279.4
 12
0.0
 22
0.0
 32
0.0
 14
0.0
 24
0.0
 34
0.0
 15
0.0
 25
0.0
 35
0.0
146
0.0
 13
0.0
 23
0.0
 33
0.0
 16
1.0
 26
0.0
 36
0.0
 17
0.0
 27
1.0
 37
0.0
 76
0
330
214
345
0
346
0
  0
ENDSEC
  0
EOF
