  0
SECTION
  2
HEADER
  9
$ACADVER
  1
AC1015
  9
$ACADMAINTVER
 70
    13
  9
$DWGCODEPAGE
  3
ANSI_1252
  9
$INSBASE
 10
0.0
 20
0.0
 30
0.0
  9
$EXTMIN
 10
-0.0295408107683954
 20
-0.0020750369900782
 30
-0.0015258207003583
  9
$EXTMAX
 10
88.00268575176909
 20
68.06433121308723
 30
0.0000000349246037
  9
$LIMMIN
 10
0.0
 20
0.0
  9
$LIMMAX
 10
88.0
 20
68.0
  9
$ORTHOMODE
 70
     0
  9
$REGENMODE
 70
     1
  9
$FILLMODE
 70
     1
  9
$QTEXTMODE
 70
     0
  9
$MIRRTEXT
 70
     1
  9
$LTSCALE
 40
4.839999999999999
  9
$ATTMODE
 70
     1
  9
$TEXTSIZE
 40
0.2
  9
$TRACEWID
 40
0.05
  9
$TEXTSTYLE
  7
STANDARD
  9
$CLAYER
  8
0
  9
$CELTYPE
  6
BYLAYER
  9
$CECOLOR
 62
   256
  9
$CELTSCALE
 40
1.0
  9
$DISPSILH
 70
     0
  9
$DIMSCALE
 40
1.0
  9
$DIMASZ
 40
0.75
  9
$DIMEXO
 40
0.0625
  9
$DIMDLI
 40
0.38
  9
$DIMRND
 40
0.0
  9
$DIMDLE
 40
0.0
  9
$DIMEXE
 40
0.18
  9
$DIMTP
 40
0.0
  9
$DIMTM
 40
0.0
  9
$DIMTXT
 40
0.625
  9
$DIMCEN
 40
0.09
  9
$DIMTSZ
 40
0.0
  9
$DIMTOL
 70
     0
  9
$DIMLIM
 70
     0
  9
$DIMTIH
 70
     1
  9
$DIMTOH
 70
     1
  9
$DIMSE1
 70
     0
  9
$DIMSE2
 70
     0
  9
$DIMTAD
 70
     0
  9
$DIMZIN
 70
     4
  9
$DIMBLK
  1
CLOSED
  9
$DIMASO
 70
     1
  9
$DIMSHO
 70
     1
  9
$DIMPOST
  1
\X
  9
$DIMAPOST
  1

  9
$DIMALT
 70
     1
  9
$DIMALTD
 70
     1
  9
$DIMALTF
 40
25.4
  9
$DIMLFAC
 40
1.0
  9
$DIMTOFL
 70
     0
  9
$DIMTVP
 40
0.0
  9
$DIMTIX
 70
     0
  9
$DIMSOXD
 70
     0
  9
$DIMSAH
 70
     0
  9
$DIMBLK1
  1
CLOSED
  9
$DIMBLK2
  1
CLOSED
  9
$DIMSTYLE
  2
DIMSTYLE_1
  9
$DIMCLRD
 70
     0
  9
$DIMCLRE
 70
     0
  9
$DIMCLRT
 70
     0
  9
$DIMTFAC
 40
1.0
  9
$DIMGAP
 40
1.0
  9
$DIMJUST
 70
     0
  9
$DIMSD1
 70
     0
  9
$DIMSD2
 70
     0
  9
$DIMTOLJ
 70
     1
  9
$DIMTZIN
 70
     4
  9
$DIMALTZ
 70
     0
  9
$DIMALTTZ
 70
     0
  9
$DIMUPT
 70
     0
  9
$DIMDEC
 70
     2
  9
$DIMTDEC
 70
     2
  9
$DIMALTU
 70
     2
  9
$DIMALTTD
 70
     2
  9
$DIMTXSTY
  7
STANDARD
  9
$DIMAUNIT
 70
     0
  9
$DIMADEC
 70
     0
  9
$DIMALTRND
 40
0.0
  9
$DIMAZIN
 70
     0
  9
$DIMDSEP
 70
    46
  9
$DIMATFIT
 70
     3
  9
$DIMFRAC
 70
     0
  9
$DIMLDRBLK
  1
CLOSED
  9
$DIMLUNIT
 70
     2
  9
$DIMLWD
 70
    -2
  9
$DIMLWE
 70
    -2
  9
$DIMTMOVE
 70
     0
  9
$LUNITS
 70
     2
  9
$LUPREC
 70
     4
  9
$SKETCHINC
 40
0.1
  9
$FILLETRAD
 40
0.0
  9
$AUNITS
 70
     0
  9
$AUPREC
 70
     0
  9
$MENU
  1
.
  9
$ELEVATION
 40
0.0
  9
$PELEVATION
 40
0.0
  9
$THICKNESS
 40
0.0
  9
$LIMCHECK
 70
     0
  9
$CHAMFERA
 40
0.0
  9
$CHAMFERB
 40
0.0
  9
$CHAMFERC
 40
0.0
  9
$CHAMFERD
 40
0.0
  9
$SKPOLY
 70
     0
  9
$TDCREATE
 40
2453910.429880636
  9
$TDUCREATE
 40
2453910.721547303
  9
$TDUPDATE
 40
2453910.431217083
  9
$TDUUPDATE
 40
2453910.722883750
  9
$TDINDWG
 40
0.0013366204
  9
$TDUSRTIMER
 40
0.0013366204
  9
$USRTIMER
 70
     1
  9
$ANGBASE
 50
0.0
  9
$ANGDIR
 70
     0
  9
$PDMODE
 70
     3
  9
$PDSIZE
 40
0.3125
  9
$PLINEWID
 40
0.0
  9
$SPLFRAME
 70
     0
  9
$SPLINETYPE
 70
     6
  9
$SPLINESEGS
 70
     8
  9
$HANDSEED
  5
5B2
  9
$SURFTAB1
 70
     6
  9
$SURFTAB2
 70
     6
  9
$SURFTYPE
 70
     6
  9
$SURFU
 70
     6
  9
$SURFV
 70
     6
  9
$UCSBASE
  2

  9
$UCSNAME
  2

  9
$UCSORG
 10
0.0
 20
0.0
 30
0.0
  9
$UCSXDIR
 10
1.0
 20
0.0
 30
0.0
  9
$UCSYDIR
 10
0.0
 20
1.0
 30
0.0
  9
$UCSORTHOREF
  2

  9
$UCSORTHOVIEW
 70
     0
  9
$UCSORGTOP
 10
0.0
 20
0.0
 30
0.0
  9
$UCSORGBOTTOM
 10
0.0
 20
0.0
 30
0.0
  9
$UCSORGLEFT
 10
0.0
 20
0.0
 30
0.0
  9
$UCSORGRIGHT
 10
0.0
 20
0.0
 30
0.0
  9
$UCSORGFRONT
 10
0.0
 20
0.0
 30
0.0
  9
$UCSORGBACK
 10
0.0
 20
0.0
 30
0.0
  9
$PUCSBASE
  2

  9
$PUCSNAME
  2

  9
$PUCSORG
 10
0.0
 20
0.0
 30
0.0
  9
$PUCSXDIR
 10
1.0
 20
0.0
 30
0.0
  9
$PUCSYDIR
 10
0.0
 20
1.0
 30
0.0
  9
$PUCSORTHOREF
  2

  9
$PUCSORTHOVIEW
 70
     0
  9
$PUCSORGTOP
 10
0.0
 20
0.0
 30
0.0
  9
$PUCSORGBOTTOM
 10
0.0
 20
0.0
 30
0.0
  9
$PUCSORGLEFT
 10
0.0
 20
0.0
 30
0.0
  9
$PUCSORGRIGHT
 10
0.0
 20
0.0
 30
0.0
  9
$PUCSORGFRONT
 10
0.0
 20
0.0
 30
0.0
  9
$PUCSORGBACK
 10
0.0
 20
0.0
 30
0.0
  9
$USERI1
 70
     0
  9
$USERI2
 70
     0
  9
$USERI3
 70
     0
  9
$USERI4
 70
     0
  9
$USERI5
 70
     0
  9
$USERR1
 40
0.0
  9
$USERR2
 40
0.0
  9
$USERR3
 40
0.0
  9
$USERR4
 40
0.0
  9
$USERR5
 40
0.0
  9
$WORLDVIEW
 70
     1
  9
$SHADEDGE
 70
     3
  9
$SHADEDIF
 70
    70
  9
$TILEMODE
 70
     1
  9
$MAXACTVP
 70
    64
  9
$PINSBASE
 10
0.0
 20
0.0
 30
0.0
  9
$PLIMCHECK
 70
     0
  9
$PEXTMIN
 10
1.000000000000000E+20
 20
1.000000000000000E+20
 30
1.000000000000000E+20
  9
$PEXTMAX
 10
-1.000000000000000E+20
 20
-1.000000000000000E+20
 30
-1.000000000000000E+20
  9
$PLIMMIN
 10
0.0
 20
0.0
  9
$PLIMMAX
 10
12.0
 20
9.0
  9
$UNITMODE
 70
     0
  9
$VISRETAIN
 70
     1
  9
$PLINEGEN
 70
     0
  9
$PSLTSCALE
 70
     1
  9
$TREEDEPTH
 70
  3020
  9
$CMLSTYLE
  2
Standard
  9
$CMLJUST
 70
     0
  9
$CMLSCALE
 40
1.0
  9
$PROXYGRAPHICS
 70
     1
  9
$MEASUREMENT
 70
     0
  9
$CELWEIGHT
370
    -1
  9
$ENDCAPS
280
     0
  9
$JOINSTYLE
280
     0
  9
$LWDISPLAY
290
     0
  9
$INSUNITS
 70
     1
  9
$HYPERLINKBASE
  1

  9
$STYLESHEET
  1

  9
$XEDIT
290
     1
  9
$CEPSNTYPE
380
     0
  9
$PSTYLEMODE
290
     1
  9
$FINGERPRINTGUID
  2
{A608739A-A4EC-45C2-B871-B6EB953AA5BE}
  9
$VERSIONGUID
  2
{7DC257B1-354E-4366-9274-49FDC17F19C3}
  9
$EXTNAMES
290
     1
  9
$PSVPSCALE
 40
0.0
  9
$OLESTARTUP
290
     0
  0
ENDSEC
  0
SECTION
  2
CLASSES
  0
CLASS
  1
ACDBDICTIONARYWDFLT
  2
AcDbDictionaryWithDefault
  3
AutoCAD 2000
 90
        0
280
     0
281
     0
  0
CLASS
  1
ACDBPLACEHOLDER
  2
AcDbPlaceHolder
  3
AutoCAD 2000
 90
        0
280
     0
281
     0
  0
CLASS
  1
LAYOUT
  2
AcDbLayout
  3
AutoCAD 2000
 90
        0
280
     0
281
     0
  0
CLASS
  1
DICTIONARYVAR
  2
AcDbDictionaryVar
  3
AutoCAD 2000
 90
        0
280
     0
281
     0
  0
ENDSEC
  0
SECTION
  2
TABLES
  0
TABLE
  2
VPORT
  5
8
330
0
100
AcDbSymbolTable
 70
     2
  0
VPORT
  5
5B1
330
8
100
AcDbSymbolTableRecord
100
AcDbViewportTableRecord
  2
*Active
 70
     0
 10
0.0
 20
0.0
 11
1.0
 21
1.0
 12
43.98657247050034
 22
34.03112808804857
 13
0.0
 23
0.0
 14
1.0
 24
1.0
 15
0.0
 25
0.0
 16
0.0
 26
0.0
 36
1.0
 17
0.0
 27
0.0
 37
0.0
 40
68.57373350163067
 41
1.498756218905472
 42
50.0
 43
0.0
 44
0.0
 50
0.0
 51
0.0
 71
     0
 72
  1000
 73
     1
 74
     1
 75
     0
 76
     0
 77
     0
 78
     0
281
     0
 65
     1
110
0.0
120
0.0
130
0.0
111
1.0
121
0.0
131
0.0
112
0.0
122
1.0
132
0.0
 79
     0
146
0.0
  0
ENDTAB
  0
TABLE
  2
LTYPE
  5
5
330
0
100
AcDbSymbolTable
 70
     6
  0
LTYPE
  5
14
330
5
100
AcDbSymbolTableRecord
100
AcDbLinetypeTableRecord
  2
BYBLOCK
 70
     0
  3

 72
    65
 73
     0
 40
0.0
  0
LTYPE
  5
15
330
5
100
AcDbSymbolTableRecord
100
AcDbLinetypeTableRecord
  2
BYLAYER
 70
     0
  3

 72
    65
 73
     0
 40
0.0
  0
LTYPE
  5
16
330
5
100
AcDbSymbolTableRecord
100
AcDbLinetypeTableRecord
  2
CONTINUOUS
 70
     0
  3
Solid line
 72
    65
 73
     0
 40
0.0
  0
LTYPE
  5
1F5
330
5
100
AcDbSymbolTableRecord
100
AcDbLinetypeTableRecord
  2
CENTER
 70
     0
  3
____ _ ____ _ ____ _ ____ _ ____ _ ____ _ ____
 72
    65
 73
     4
 40
0.6
 49
0.375
 74
     0
 49
-0.075
 74
     0
 49
0.075
 74
     0
 49
-0.075
 74
     0
  0
LTYPE
  5
1F6
330
5
100
AcDbSymbolTableRecord
100
AcDbLinetypeTableRecord
  2
HIDDEN
 70
     0
  3
- - - - - - - - - - - - - - - - - - - -
 72
    65
 73
     2
 40
0.2
 49
0.1
 74
     0
 49
-0.1
 74
     0
  0
LTYPE
  5
1F7
330
5
100
AcDbSymbolTableRecord
100
AcDbLinetypeTableRecord
  2
PHANTOM
 70
     0
  3
_____ _ _ _____ _ _ _____ _ _ _____
 72
    65
 73
     6
 40
0.8
 49
0.45
 74
     0
 49
-0.05
 74
     0
 49
0.1
 74
     0
 49
-0.05
 74
     0
 49
0.1
 74
     0
 49
-0.05
 74
     0
  0
LTYPE
  5
1F8
330
5
100
AcDbSymbolTableRecord
100
AcDbLinetypeTableRecord
  2
DOT
 70
     0
  3
. . . . . . . . . . . . . . . . . . . .
 72
    65
 73
     2
 40
0.2
 49
0.1
 74
     0
 49
-0.1
 74
     0
  0
LTYPE
  5
1F9
330
5
100
AcDbSymbolTableRecord
100
AcDbLinetypeTableRecord
  2
DASHED
 70
     0
  3
- - - - - - - - - - - - - - - - - - - -
 72
    65
 73
     2
 40
0.2
 49
0.1
 74
     0
 49
-0.1
 74
     0
  0
ENDTAB
  0
TABLE
  2
LAYER
  5
2
330
0
100
AcDbSymbolTable
 70
    26
  0
LAYER
  5
10
330
2
100
AcDbSymbolTableRecord
100
AcDbLayerTableRecord
  2
0
 70
     0
 62
     7
  6
CONTINUOUS
370
    -3
390
F
  0
LAYER
  5
1FA
330
2
100
AcDbSymbolTableRecord
100
AcDbLayerTableRecord
  2
DEFAULT_1
 70
     0
 62
     7
  6
CENTER
370
    -3
390
F
  0
LAYER
  5
1FB
330
2
100
AcDbSymbolTableRecord
100
AcDbLayerTableRecord
  2
DEFAULT_2
 70
     0
 62
     8
  6
HIDDEN
370
    -3
390
F
  0
LAYER
  5
1FC
330
2
100
AcDbSymbolTableRecord
100
AcDbLayerTableRecord
  2
DEFAULT_3
 70
     0
 62
     7
  6
PHANTOM
370
    -3
390
F
  0
LAYER
  5
1FD
330
2
100
AcDbSymbolTableRecord
100
AcDbLayerTableRecord
  2
_2D_DELETED_OBJS
 70
     0
 62
     7
  6
CONTINUOUS
370
    -3
390
F
  0
LAYER
  5
1FE
330
2
100
AcDbSymbolTableRecord
100
AcDbLayerTableRecord
  2
_BLACK_HOLE
 70
     0
 62
     7
  6
CONTINUOUS
370
    -3
390
F
  0
LAYER
  5
1FF
330
2
100
AcDbSymbolTableRecord
100
AcDbLayerTableRecord
  2
1_ALL_PLANES
 70
     0
 62
     7
  6
CONTINUOUS
370
    -3
390
F
  0
LAYER
  5
200
330
2
100
AcDbSymbolTableRecord
100
AcDbLayerTableRecord
  2
1__DEF_ASM_PLN
 70
     0
 62
     7
  6
CONTINUOUS
370
    -3
390
F
  0
LAYER
  5
201
330
2
100
AcDbSymbolTableRecord
100
AcDbLayerTableRecord
  2
1__DEF_PLANES
 70
     0
 62
     7
  6
CONTINUOUS
370
    -3
390
F
  0
LAYER
  5
202
330
2
100
AcDbSymbolTableRecord
100
AcDbLayerTableRecord
  2
2_ALL_CSYS
 70
     0
 62
     7
  6
CONTINUOUS
370
    -3
390
F
  0
LAYER
  5
203
330
2
100
AcDbSymbolTableRecord
100
AcDbLayerTableRecord
  2
2__DEF_ASM_CSYS
 70
     0
 62
     7
  6
CONTINUOUS
370
    -3
390
F
  0
LAYER
  5
204
330
2
100
AcDbSymbolTableRecord
100
AcDbLayerTableRecord
  2
2__DEF_CSYS
 70
     0
 62
     7
  6
CONTINUOUS
370
    -3
390
F
  0
LAYER
  5
205
330
2
100
AcDbSymbolTableRecord
100
AcDbLayerTableRecord
  2
3_ALL_AXES
 70
     0
 62
     7
  6
CONTINUOUS
370
    -3
390
F
  0
LAYER
  5
206
330
2
100
AcDbSymbolTableRecord
100
AcDbLayerTableRecord
  2
3_AXES_OTHER
 70
     0
 62
     7
  6
CONTINUOUS
370
    -3
390
F
  0
LAYER
  5
207
330
2
100
AcDbSymbolTableRecord
100
AcDbLayerTableRecord
  2
3_HOLES
 70
     0
 62
     7
  6
CONTINUOUS
370
    -3
390
F
  0
LAYER
  5
208
330
2
100
AcDbSymbolTableRecord
100
AcDbLayerTableRecord
  2
4_ALL_POINTS
 70
     0
 62
     7
  6
CONTINUOUS
370
    -3
390
F
  0
LAYER
  5
209
330
2
100
AcDbSymbolTableRecord
100
AcDbLayerTableRecord
  2
5_ALL_CURVES
 70
     0
 62
     7
  6
CONTINUOUS
370
    -3
390
F
  0
LAYER
  5
20A
330
2
100
AcDbSymbolTableRecord
100
AcDbLayerTableRecord
  2
6_ALL_SURFS
 70
     0
 62
     7
  6
CONTINUOUS
370
    -3
390
F
  0
LAYER
  5
20B
330
2
100
AcDbSymbolTableRecord
100
AcDbLayerTableRecord
  2
6_COPYGEOM
 70
     0
 62
     7
  6
CONTINUOUS
370
    -3
390
F
  0
LAYER
  5
20C
330
2
100
AcDbSymbolTableRecord
100
AcDbLayerTableRecord
  2
7_ALL_ROUNDS
 70
     0
 62
     7
  6
CONTINUOUS
370
    -3
390
F
  0
LAYER
  5
20D
330
2
100
AcDbSymbolTableRecord
100
AcDbLayerTableRecord
  2
7_MERGES
 70
     0
 62
     7
  6
CONTINUOUS
370
    -3
390
F
  0
LAYER
  5
20E
330
2
100
AcDbSymbolTableRecord
100
AcDbLayerTableRecord
  2
8_SET_DATUMS
 70
     0
 62
     7
  6
CONTINUOUS
370
    -3
390
F
  0
LAYER
  5
20F
330
2
100
AcDbSymbolTableRecord
100
AcDbLayerTableRecord
  2
9_COSMETICS
 70
     0
 62
     7
  6
CONTINUOUS
370
    -3
390
F
  0
LAYER
  5
210
330
2
100
AcDbSymbolTableRecord
100
AcDbLayerTableRecord
  2
9_THREADS
 70
     0
 62
     7
  6
CONTINUOUS
370
    -3
390
F
  0
LAYER
  5
211
330
2
100
AcDbSymbolTableRecord
100
AcDbLayerTableRecord
  2
DRW_FORMAT
 70
     0
 62
     7
  6
CONTINUOUS
370
    -3
390
F
  0
LAYER
  5
526
330
2
100
AcDbSymbolTableRecord
100
AcDbLayerTableRecord
  2
Defpoints
 70
     0
 62
     7
  6
CONTINUOUS
290
     0
370
    -3
390
F
  0
ENDTAB
  0
TABLE
  2
STYLE
  5
3
330
0
100
AcDbSymbolTable
 70
     2
  0
STYLE
  5
11
330
3
100
AcDbSymbolTableRecord
100
AcDbTextStyleTableRecord
  2
STANDARD
 70
     0
 40
0.0
 41
0.8
 50
0.0
 71
     0
 42
0.2
  3
txt
  4

  0
STYLE
  5
212
330
3
100
AcDbSymbolTableRecord
100
AcDbTextStyleTableRecord
  2
TEXTSTYLE_1
 70
     0
 40
0.0
 41
0.6
 50
0.0
 71
     0
 42
0.2
  3
txt
  4

  0
ENDTAB
  0
TABLE
  2
VIEW
  5
6
330
0
100
AcDbSymbolTable
 70
     0
  0
ENDTAB
  0
TABLE
  2
UCS
  5
7
330
0
100
AcDbSymbolTable
 70
     0
  0
ENDTAB
  0
TABLE
  2
APPID
  5
9
330
0
100
AcDbSymbolTable
 70
     1
  0
APPID
  5
213
330
9
100
AcDbSymbolTableRecord
100
AcDbRegAppTableRecord
  2
ACAD
 70
     0
  0
ENDTAB
  0
TABLE
  2
DIMSTYLE
  5
A
330
0
100
AcDbSymbolTable
 70
     2
100
AcDbDimStyleTable
 71
     1
340
21F
  0
DIMSTYLE
105
21E
330
A
100
AcDbSymbolTableRecord
100
AcDbDimStyleTableRecord
  2
STANDARD
 70
     0
 41
0.1875
 47
0.001
 48
0.001
 78
     4
140
0.625
271
     3
272
     3
284
     4
340
11
341
214
342
214
343
214
344
214
  0
DIMSTYLE
105
21F
102
{ACAD_REACTORS
330
4A7
330
4A6
330
4A5
330
4A4
330
4A3
330
59B
102
}
330
A
100
AcDbSymbolTableRecord
100
AcDbDimStyleTableRecord
  2
DIMSTYLE_1
 70
     0
 41
0.75
 78
     4
140
0.625
271
     2
272
     2
284
     4
340
11
341
214
342
214
343
214
344
214
  0
ENDTAB
  0
TABLE
  2
BLOCK_RECORD
  5
1
330
0
100
AcDbSymbolTable
 70
    11
  0
BLOCK_RECORD
  5
1F
330
1
100
AcDbSymbolTableRecord
100
AcDbBlockTableRecord
  2
*MODEL_SPACE
340
22
  0
BLOCK_RECORD
  5
1B
330
1
100
AcDbSymbolTableRecord
100
AcDbBlockTableRecord
  2
*PAPER_SPACE
340
1E
  0
BLOCK_RECORD
  5
214
330
1
100
AcDbSymbolTableRecord
100
AcDbBlockTableRecord
  2
_CLOSED
340
0
102
{BLKREFS
331
26E
331
26F
331
27D
331
27E
331
28C
331
28D
331
29B
331
29C
331
2A9
331
2AA
331
2B5
331
52A
331
531
331
532
331
53C
331
53D
331
547
331
548
331
551
331
552
331
55B
331
55C
331
564
331
56B
331
56C
331
576
331
577
331
581
331
582
331
58B
331
58C
331
595
331
596
331
5A0
331
5AA
102
}
  0
BLOCK_RECORD
  5
215
330
1
100
AcDbSymbolTableRecord
100
AcDbBlockTableRecord
  2
RD010411_BL0
340
0
102
{BLKREFS
331
30C
102
}
  0
BLOCK_RECORD
  5
216
330
1
100
AcDbSymbolTableRecord
100
AcDbBlockTableRecord
  2
*D2
340
0
  0
BLOCK_RECORD
  5
217
330
1
100
AcDbSymbolTableRecord
100
AcDbBlockTableRecord
  2
*D3
340
0
  0
BLOCK_RECORD
  5
218
330
1
100
AcDbSymbolTableRecord
100
AcDbBlockTableRecord
  2
*D4
340
0
  0
BLOCK_RECORD
  5
219
330
1
100
AcDbSymbolTableRecord
100
AcDbBlockTableRecord
  2
*D5
340
0
  0
BLOCK_RECORD
  5
21A
330
1
100
AcDbSymbolTableRecord
100
AcDbBlockTableRecord
  2
*D6
340
0
  0
BLOCK_RECORD
  5
21B
330
1
100
AcDbSymbolTableRecord
100
AcDbBlockTableRecord
  2
*D7
340
0
  0
BLOCK_RECORD
  5
21C
330
1
100
AcDbSymbolTableRecord
100
AcDbBlockTableRecord
  2
PICK-POINT_BL1
340
0
102
{BLKREFS
331
520
102
}
  0
BLOCK_RECORD
  5
21D
330
1
100
AcDbSymbolTableRecord
100
AcDbBlockTableRecord
  2
PICK-POINT_BL2
340
0
102
{BLKREFS
331
521
102
}
  0
BLOCK_RECORD
  5
59C
330
1
100
AcDbSymbolTableRecord
100
AcDbBlockTableRecord
  2
*D10
340
0
  0
ENDTAB
  0
ENDSEC
  0
SECTION
  2
BLOCKS
  0
BLOCK
  5
20
330
1F
100
AcDbEntity
  8
0
100
AcDbBlockBegin
  2
*MODEL_SPACE
 70
     0
 10
0.0
 20
0.0
 30
0.0
  3
*MODEL_SPACE
  1

  0
ENDBLK
  5
21
330
1F
100
AcDbEntity
  8
0
100
AcDbBlockEnd
  0
BLOCK
  5
1C
330
1B
100
AcDbEntity
 67
     1
  8
0
100
AcDbBlockBegin
  2
*PAPER_SPACE
 70
     0
 10
0.0
 20
0.0
 30
0.0
  3
*PAPER_SPACE
  1

  0
ENDBLK
  5
1D
330
1B
100
AcDbEntity
 67
     1
  8
0
100
AcDbBlockEnd
  0
BLOCK
  5
2C3
330
214
100
AcDbEntity
  8
0
100
AcDbBlockBegin
  2
_CLOSED
 70
     0
 10
0.0
 20
0.0
 30
0.0
  3
_CLOSED
  1

  0
LINE
  5
2C4
330
214
100
AcDbEntity
  8
0
  6
ByBlock
 62
     0
100
AcDbLine
 10
0.0
 20
0.0
 30
0.0
 11
-1.0
 21
0.1666666667
 31
0.0
  0
LINE
  5
2C5
330
214
100
AcDbEntity
  8
0
  6
ByBlock
 62
     0
100
AcDbLine
 10
-1.0
 20
0.1666666667
 30
0.0
 11
-1.0
 21
-0.1666666667
 31
0.0
  0
LINE
  5
2C6
330
214
100
AcDbEntity
  8
0
  6
ByBlock
 62
     0
100
AcDbLine
 10
-1.0
 20
-0.1666666667
 30
0.0
 11
0.0
 21
0.0
 31
0.0
  0
LINE
  5
2C7
330
214
100
AcDbEntity
  8
0
  6
ByBlock
 62
     0
100
AcDbLine
 10
-1.0
 20
0.0
 30
0.0
 11
0.0
 21
0.0
 31
0.0
  0
ENDBLK
  5
2C8
330
214
100
AcDbEntity
  8
0
  6
ByBlock
 62
     0
100
AcDbBlockEnd
  0
BLOCK
  5
220
330
215
100
AcDbEntity
  8
DRW_FORMAT
  6
Continuous
 62
     7
100
AcDbBlockBegin
  2
RD010411_BL0
 70
     0
 10
69.2195920005
 20
10.08104287029999
 30
0.0
  3
RD010411_BL0
  1

  0
ARC
  5
221
330
215
100
AcDbEntity
  8
DRW_FORMAT
  6
Continuous
 62
     7
100
AcDbCircle
 10
71.82823827909999
 20
10.48255070039999
 30
0.0
 40
0.0494860531
100
AcDbArc
 50
270.0
 51
360.0
  0
LINE
  5
222
330
215
100
AcDbEntity
  8
DRW_FORMAT
  6
Continuous
 62
     7
100
AcDbLine
 10
71.87772433220001
 20
10.48255070039999
 30
0.0
 11
71.87772433220001
 21
10.5815568172
 31
0.0
  0
ARC
  5
223
330
215
100
AcDbEntity
  8
DRW_FORMAT
  6
Continuous
 62
     7
100
AcDbCircle
 10
71.82823827909999
 20
10.5815568172
 30
0.0
 40
0.0494860531
100
AcDbArc
 50
0.0
 51
90.0
  0
LINE
  5
224
330
215
100
AcDbEntity
  8
DRW_FORMAT
  6
Continuous
 62
     7
100
AcDbLine
 10
71.82823827909999
 20
10.6310428703
 30
0.0
 11
70.49786495020001
 21
10.6310428703
 31
0.0
  0
SPLINE
  5
225
330
215
100
AcDbEntity
  8
DRW_FORMAT
  6
Continuous
 62
     7
100
AcDbSpline
210
0.0
220
0.0
230
1.0
 70
     8
 71
     3
 72
    13
 73
     9
 74
     0
 42
0.0000000001
 43
0.0000000001
 40
0.0
 40
0.0
 40
0.0
 40
0.0
 40
0.1310616762
 40
0.2699656353
 40
0.4157607805
 40
0.5899807757
 40
0.76586761
 40
0.9948829976
 40
0.9948829976
 40
0.9948829976
 40
0.9948829976
 10
70.49786495020001
 20
10.6310428703
 30
0.0
 10
70.4698992922
 20
10.6289599695
 30
0.0
 10
70.4122946075
 20
10.6246695348
 30
0.0
 10
70.3342287881
 20
10.5762955034
 30
0.0
 10
70.2781868456
 20
10.4950842173
 30
0.0
 10
70.241745479
 20
10.3957806909
 30
0.0
 10
70.22121947649999
 20
10.2743904997
 30
0.0
 10
70.21932958669999
 20
10.18861405899999
 30
0.0
 10
70.2183501008
 20
10.14009196149999
 30
0.0
  0
LINE
  5
226
330
215
100
AcDbEntity
  8
DRW_FORMAT
  6
Continuous
 62
     7
100
AcDbLine
 10
70.2183501008
 20
10.14009196149999
 30
0.0
 11
70.2184369542
 21
10.1325622459
 31
0.0
  0
SPLINE
  5
227
330
215
100
AcDbEntity
  8
DRW_FORMAT
  6
Continuous
 62
     7
100
AcDbSpline
210
0.0
220
0.0
230
1.0
 70
     8
 71
     3
 72
    13
 73
     9
 74
     0
 42
0.0000000001
 43
0.0000000001
 40
0.0
 40
0.0
 40
0.0
 40
0.0
 40
0.2222860645
 40
0.3981728988
 40
0.572392894
 40
0.7181880393000001
 40
0.8570919983999999
 40
0.9881536745999998
 40
0.9881536745999998
 40
0.9881536745999998
 40
0.9881536745999998
 10
70.2184369542
 20
10.1325622459
 30
0.0
 10
70.2193971359
 20
10.0854665313
 30
0.0
 10
70.2214575638
 20
10.00113133149999
 30
0.0
 10
70.24174546229999
 20
9.8811482725
 30
0.0
 10
70.2781872651
 20
9.781855852299999
 30
0.0
 10
70.3342274596
 20
9.7006101003
 30
0.0
 10
70.4122992371
 20
9.6523517033
 30
0.0
 10
70.46988987769999
 20
9.6477889864
 30
0.0
 10
70.49786495020001
 20
9.645705385299999
 30
0.0
  0
LINE
  5
228
330
215
100
AcDbEntity
  8
DRW_FORMAT
  6
Continuous
 62
     7
100
AcDbLine
 10
70.49786495020001
 20
9.645705385299999
 30
0.0
 11
71.8283462874
 21
9.6486092961
 31
0.0
  0
ARC
  5
229
330
215
100
AcDbEntity
  8
DRW_FORMAT
  6
Continuous
 62
     7
100
AcDbCircle
 10
71.82823827909999
 20
9.698095231199999
 30
0.0
 40
0.0494860529
100
AcDbArc
 50
270.125053868
 51
360.0
  0
LINE
  5
22A
330
215
100
AcDbEntity
  8
DRW_FORMAT
  6
Continuous
 62
     7
100
AcDbLine
 10
71.87772433220001
 20
9.698095231199999
 30
0.0
 11
71.87772433220001
 21
9.793235948200001
 31
0.0
  0
ARC
  5
22B
330
215
100
AcDbEntity
  8
DRW_FORMAT
  6
Continuous
 62
     7
100
AcDbCircle
 10
71.82823827909999
 20
9.793235948200001
 30
0.0
 40
0.0494860531
100
AcDbArc
 50
0.0
 51
90.0
  0
LINE
  5
22C
330
215
100
AcDbEntity
  8
DRW_FORMAT
  6
Continuous
 62
     7
100
AcDbLine
 10
71.82823827909999
 20
9.8427220013
 30
0.0
 11
70.6879265063
 21
9.8427220013
 31
0.0
  0
LINE
  5
22D
330
215
100
AcDbEntity
  8
DRW_FORMAT
  6
Continuous
 62
     7
100
AcDbLine
 10
70.63844045319999
 20
9.892208054400001
 30
0.0
 11
70.63844045319999
 21
10.3835785942
 31
0.0
  0
ARC
  5
22E
330
215
100
AcDbEntity
  8
DRW_FORMAT
  6
Continuous
 62
     7
100
AcDbCircle
 10
70.68792650679999
 20
10.3835785942
 30
0.0
 40
0.0494860531
100
AcDbArc
 50
90.0
 51
180.0
  0
LINE
  5
22F
330
215
100
AcDbEntity
  8
DRW_FORMAT
  6
Continuous
 62
     7
100
AcDbLine
 10
70.6879265063
 20
10.4330646473
 30
0.0
 11
71.82823827909999
 21
10.4330646473
 31
0.0
  0
LINE
  5
230
330
215
100
AcDbEntity
  8
DRW_FORMAT
  6
Continuous
 62
     7
100
AcDbLine
 10
68.6546493374
 20
10.0384526119
 30
0.0
 11
69.6050970742
 21
10.0384526119
 31
0.0
  0
ARC
  5
231
330
215
100
AcDbEntity
  8
DRW_FORMAT
  6
Continuous
 62
     7
100
AcDbCircle
 10
69.6050970741
 20
9.988966558899999
 30
0.0
 40
0.0494860531
100
AcDbArc
 50
0.0
 51
90.0
  0
LINE
  5
232
330
215
100
AcDbEntity
  8
DRW_FORMAT
  6
Continuous
 62
     7
100
AcDbLine
 10
69.6545831273
 20
9.988966558799999
 30
0.0
 11
69.6545831273
 21
9.8879211499
 31
0.0
  0
LINE
  5
233
330
215
100
AcDbEntity
  8
DRW_FORMAT
  6
Continuous
 62
     7
100
AcDbLine
 10
69.6050970742
 20
9.838435096900001
 30
0.0
 11
68.4971765147
 21
9.838435096900001
 31
0.0
  0
ARC
  5
234
330
215
100
AcDbEntity
  8
DRW_FORMAT
  6
Continuous
 62
     7
100
AcDbCircle
 10
68.4971765147
 20
9.7889490438
 30
0.0
 40
0.0494860531
100
AcDbArc
 50
90.0
 51
180.0
  0
LINE
  5
235
330
215
100
AcDbEntity
  8
DRW_FORMAT
  6
Continuous
 62
     7
100
AcDbLine
 10
68.4476904616
 20
9.7889490438
 30
0.0
 11
68.4476904616
 21
9.695190938899999
 31
0.0
  0
ARC
  5
236
330
215
100
AcDbEntity
  8
DRW_FORMAT
  6
Continuous
 62
     7
100
AcDbCircle
 10
68.4971765147
 20
9.695190938899999
 30
0.0
 40
0.0494860531
100
AcDbArc
 50
180.0
 51
270.0
  0
LINE
  5
237
330
215
100
AcDbEntity
  8
DRW_FORMAT
  6
Continuous
 62
     7
100
AcDbLine
 10
68.4971765147
 20
9.6457048858
 30
0.0
 11
69.87260338289999
 21
9.6457048858
 31
0.0
  0
SPLINE
  5
238
330
215
100
AcDbEntity
  8
DRW_FORMAT
  6
Continuous
 62
     7
100
AcDbSpline
210
0.0
220
0.0
230
1.0
 70
     8
 71
     3
 72
    13
 73
     9
 74
     0
 42
0.0000000001
 43
0.0000000001
 40
0.0
 40
0.0
 40
0.0
 40
0.0
 40
0.1604571392
 40
0.3334692485000001
 40
0.4767982758000001
 40
0.6242014838000002
 40
0.7505998515000001
 40
1.0
 40
1.0
 40
1.0
 40
1.0
 10
69.87260338289999
 20
9.6457048858
 30
0.0
 10
69.8957932516
 20
9.646821436599999
 30
0.0
 10
69.9439874797
 20
9.6491419016
 30
0.0
 10
70.008795065
 20
9.6772783832
 30
0.0
 10
70.0576297156
 20
9.7245734603
 30
0.0
 10
70.0851499619
 20
9.778795439099999
 30
0.0
 10
70.1062493242
 20
9.851534779099999
 30
0.0
 10
70.1071055373
 20
9.905969450499998
 30
0.0
 10
70.1076737658
 20
9.942095231499999
 30
0.0
  0
SPLINE
  5
239
330
215
100
AcDbEntity
  8
DRW_FORMAT
  6
Continuous
 62
     7
100
AcDbSpline
210
0.0
220
0.0
230
1.0
 70
     8
 71
     3
 72
    13
 73
     9
 74
     0
 42
0.0000000001
 43
0.0000000001
 40
0.0
 40
0.0
 40
0.0
 40
0.0
 40
0.2494001485
 40
0.3757985162
 40
0.5232017242
 40
0.6665307515
 40
0.8395428607999999
 40
1.0
 40
1.0
 40
1.0
 40
1.0
 10
70.1076737658
 20
9.942095231499999
 30
0.0
 10
70.1071055373
 20
9.9782210133
 30
0.0
 10
70.1062493242
 20
10.0326556839
 30
0.0
 10
70.0851499619
 20
10.1053950247
 30
0.0
 10
70.0576297156
 20
10.1596170035
 30
0.0
 10
70.008795065
 20
10.2069120798
 30
0.0
 10
69.9439874797
 20
10.23504856149999
 30
0.0
 10
69.8957932516
 20
10.2373690272
 30
0.0
 10
69.87260338289999
 20
10.2384855772
 30
0.0
  0
LINE
  5
23A
330
215
100
AcDbEntity
  8
DRW_FORMAT
  6
Continuous
 62
     7
100
AcDbLine
 10
69.87260338289999
 20
10.2384855772
 30
0.0
 11
68.9348244853
 21
10.2384855772
 31
0.0
  0
LINE
  5
23B
330
215
100
AcDbEntity
  8
DRW_FORMAT
  6
Continuous
 62
     7
100
AcDbLine
 10
68.8853384322
 20
10.28797163029999
 30
0.0
 11
68.8853384322
 21
10.3816042073
 31
0.0
  0
ARC
  5
23C
330
215
100
AcDbEntity
  8
DRW_FORMAT
  6
Continuous
 62
     7
100
AcDbCircle
 10
68.93482448479999
 20
10.3816042073
 30
0.0
 40
0.0494860531
100
AcDbArc
 50
90.0
 51
180.0
  0
LINE
  5
23D
330
215
100
AcDbEntity
  8
DRW_FORMAT
  6
Continuous
 62
     7
100
AcDbLine
 10
68.9348244853
 20
10.43109026039999
 30
0.0
 11
70.04424888399999
 21
10.43109026039999
 31
0.0
  0
ARC
  5
23E
330
215
100
AcDbEntity
  8
DRW_FORMAT
  6
Continuous
 62
     7
100
AcDbCircle
 10
70.04424888399999
 20
10.4805763135
 30
0.0
 40
0.0494860531
100
AcDbArc
 50
270.0
 51
360.0
  0
LINE
  5
23F
330
215
100
AcDbEntity
  8
DRW_FORMAT
  6
Continuous
 62
     7
100
AcDbLine
 10
70.0937349371
 20
10.4805763135
 30
0.0
 11
70.0937349371
 21
10.5815568172
 31
0.0
  0
ARC
  5
240
330
215
100
AcDbEntity
  8
DRW_FORMAT
  6
Continuous
 62
     7
100
AcDbCircle
 10
70.04424888399999
 20
10.5815568172
 30
0.0
 40
0.0494860531
100
AcDbArc
 50
0.0
 51
90.0
  0
LINE
  5
241
330
215
100
AcDbEntity
  8
DRW_FORMAT
  6
Continuous
 62
     7
100
AcDbLine
 10
70.04424888399999
 20
10.6310428703
 30
0.0
 11
68.6546493374
 21
10.6310428703
 31
0.0
  0
SPLINE
  5
242
330
215
100
AcDbEntity
  8
DRW_FORMAT
  6
Continuous
 62
     7
100
AcDbSpline
210
0.0
220
0.0
230
1.0
 70
     8
 71
     3
 72
    13
 73
     9
 74
     0
 42
0.0000000001
 43
0.0000000001
 40
0.0
 40
0.0
 40
0.0
 40
0.0
 40
0.1133740464
 40
0.2392044088
 40
0.3655787964
 40
0.4912154373
 40
0.7445390876000002
 40
1.0
 40
1.0
 40
1.0
 40
1.0
 10
68.6546493374
 20
10.6310428703
 30
0.0
 10
68.63877483279999
 20
10.6302609769
 30
0.0
 10
68.6052817052
 20
10.6286112832
 30
0.0
 10
68.5555309771
 20
10.6137472518
 30
0.0
 10
68.51102410260001
 20
10.5837321434
 30
0.0
 10
68.46555993329999
 20
10.5284431684
 30
0.0
 10
68.43695099379999
 20
10.4416468338
 30
0.0
 10
68.43384835000001
 20
10.3704804224
 30
0.0
 10
68.4322905123
 20
10.33474774109999
 30
0.0
  0
SPLINE
  5
243
330
215
100
AcDbEntity
  8
DRW_FORMAT
  6
Continuous
 62
     7
100
AcDbSpline
210
0.0
220
0.0
230
1.0
 70
     8
 71
     3
 72
    13
 73
     9
 74
     0
 42
0.0000000001
 43
0.0000000001
 40
0.0
 40
0.0
 40
0.0
 40
0.0
 40
0.2554609124
 40
0.5087845627
 40
0.6344212036
 40
0.7607955912000001
 40
0.8866259535999999
 40
1.0
 40
1.0
 40
1.0
 40
1.0
 10
68.4322905123
 20
10.33474774109999
 30
0.0
 10
68.43384835000001
 20
10.2990150597
 30
0.0
 10
68.43695099379999
 20
10.22784864749999
 30
0.0
 10
68.46555993329999
 20
10.1410523137
 30
0.0
 10
68.51102410260001
 20
10.0857633388
 30
0.0
 10
68.5555309771
 20
10.05574823029999
 30
0.0
 10
68.6052817052
 20
10.0408841989
 30
0.0
 10
68.63877483279999
 20
10.0392345052
 30
0.0
 10
68.6546493374
 20
10.0384526119
 30
0.0
  0
LINE
  5
244
330
215
100
AcDbEntity
  8
DRW_FORMAT
  6
Continuous
 62
     7
100
AcDbLine
 10
66.8261940285
 20
9.6457048858
 30
0.0
 11
67.595104016
 21
9.6457048858
 31
0.0
  0
LINE
  5
245
330
215
100
AcDbEntity
  8
DRW_FORMAT
  6
Continuous
 62
     7
100
AcDbLine
 10
67.595104016
 20
9.6457048858
 30
0.0
 11
67.595104016
 21
9.550075967599999
 31
0.0
  0
ARC
  5
246
330
215
100
AcDbEntity
  8
DRW_FORMAT
  6
Continuous
 62
     7
100
AcDbCircle
 10
67.6141371133
 20
9.550075967599999
 30
0.0
 40
0.0190330973
100
AcDbArc
 50
180.0
 51
270.0
  0
LINE
  5
247
330
215
100
AcDbEntity
  8
DRW_FORMAT
  6
Continuous
 62
     7
100
AcDbLine
 10
67.6141371133
 20
9.5310428703
 30
0.0
 11
67.9105017971
 21
9.5310428703
 31
0.0
  0
ARC
  5
248
330
215
100
AcDbEntity
  8
DRW_FORMAT
  6
Continuous
 62
     7
100
AcDbCircle
 10
67.9105017971
 20
9.550075967599999
 30
0.0
 40
0.0190330973
100
AcDbArc
 50
270.0
 51
360.0
  0
LINE
  5
249
330
215
100
AcDbEntity
  8
DRW_FORMAT
  6
Continuous
 62
     7
100
AcDbLine
 10
67.92953489439999
 20
9.550075967599999
 30
0.0
 11
67.92953489439999
 21
9.6457048858
 31
0.0
  0
LINE
  5
24A
330
215
100
AcDbEntity
  8
DRW_FORMAT
  6
Continuous
 62
     7
100
AcDbLine
 10
67.92953489439999
 20
9.6457048858
 30
0.0
 11
68.0807313758
 21
9.6457048858
 31
0.0
  0
SPLINE
  5
24B
330
215
100
AcDbEntity
  8
DRW_FORMAT
  6
Continuous
 62
     7
100
AcDbSpline
210
0.0
220
0.0
230
1.0
 70
     8
 71
     3
 72
    12
 73
     8
 74
     0
 42
0.0000000001
 43
0.0000000001
 40
0.0
 40
0.0
 40
0.0
 40
0.0
 40
0.2415790084
 40
0.4893269843
 40
0.7378634303000001
 40
0.8656387112
 40
1.0
 40
1.0
 40
1.0
 40
1.0
 10
68.0807313758
 20
9.6457048858
 30
0.0
 10
68.1078423945
 20
9.6465477369
 30
0.0
 10
68.16275674020001
 20
9.648254962299999
 30
0.0
 10
68.2431181551
 20
9.6769139801
 30
0.0
 10
68.29192322459999
 20
9.731014621299999
 30
0.0
 10
68.31342511789999
 20
9.7850711697
 30
0.0
 10
68.3138126135
 20
9.8146832326
 30
0.0
 10
68.3140112292
 20
9.829861255199999
 30
0.0
  0
LINE
  5
24C
330
215
100
AcDbEntity
  8
DRW_FORMAT
  6
Continuous
 62
     7
100
AcDbLine
 10
68.3140112292
 20
9.829861255199999
 30
0.0
 11
68.3140112292
 21
10.4457308173
 31
0.0
  0
SPLINE
  5
24D
330
215
100
AcDbEntity
  8
DRW_FORMAT
  6
Continuous
 62
     7
100
AcDbSpline
210
0.0
220
0.0
230
1.0
 70
     8
 71
     3
 72
    12
 73
     8
 74
     0
 42
0.0000000001
 43
0.0000000001
 40
0.0
 40
0.0
 40
0.0
 40
0.0
 40
0.1343612888
 40
0.2621365697
 40
0.5106730157000001
 40
0.7584209916
 40
1.0
 40
1.0
 40
1.0
 40
1.0
 10
68.3140112292
 20
10.4457308173
 30
0.0
 10
68.3138126135
 20
10.4609088407
 30
0.0
 10
68.31342511789999
 20
10.4905209036
 30
0.0
 10
68.29192322459999
 20
10.5445774519
 30
0.0
 10
68.2431181551
 20
10.5986780932
 30
0.0
 10
68.16275674020001
 20
10.62733711019999
 30
0.0
 10
68.1078423945
 20
10.62904433569999
 30
0.0
 10
68.0807313758
 20
10.62988718669999
 30
0.0
  0
LINE
  5
24E
330
215
100
AcDbEntity
  8
DRW_FORMAT
  6
Continuous
 62
     7
100
AcDbLine
 10
68.0807313758
 20
10.62988718669999
 30
0.0
 11
66.8261940285
 21
10.62988718669999
 31
0.0
  0
SPLINE
  5
24F
330
215
100
AcDbEntity
  8
DRW_FORMAT
  6
Continuous
 62
     7
100
AcDbSpline
210
0.0
220
0.0
230
1.0
 70
     8
 71
     3
 72
    12
 73
     8
 74
     0
 42
0.0000000001
 43
0.0000000001
 40
0.0
 40
0.0
 40
0.0
 40
0.0
 40
0.1341799809
 40
0.2908319589999999
 40
0.5815217441
 40
0.7607838570000001
 40
1.0
 40
1.0
 40
1.0
 40
1.0
 10
66.8261940285
 20
10.62988718669999
 30
0.0
 10
66.7988303417
 20
10.62521047299999
 30
0.0
 10
66.73952019319999
 20
10.61507380469999
 30
0.0
 10
66.63968107699999
 20
10.5404842329
 30
0.0
 10
66.5923922046
 20
10.4149947686
 30
0.0
 10
66.5647239083
 20
10.2727408951
 30
0.0
 10
66.562646936
 20
10.1866992685
 30
0.0
 10
66.5614596689
 20
10.1375150019
 30
0.0
  0
SPLINE
  5
250
330
215
100
AcDbEntity
  8
DRW_FORMAT
  6
Continuous
 62
     7
100
AcDbSpline
210
0.0
220
0.0
230
1.0
 70
     8
 71
     3
 72
    12
 73
     8
 74
     0
 42
0.0000000001
 43
0.0000000001
 40
0.0
 40
0.0
 40
0.0
 40
0.0
 40
0.2392679579
 40
0.4185688994
 40
0.7093216488
 40
0.8660075581
 40
1.0
 40
1.0
 40
1.0
 40
1.0
 10
66.5614596689
 20
10.1375150019
 30
0.0
 10
66.5626474103
 20
10.0883326524
 30
0.0
 10
66.56472521169999
 20
10.0022943794
 30
0.0
 10
66.59238753770001
 20
9.860016365799999
 30
0.0
 10
66.6397053023
 20
9.7346437305
 30
0.0
 10
66.739440472
 20
9.6598119511
 30
0.0
 10
66.79882148209999
 20
9.650155957599999
 30
0.0
 10
66.8261940285
 20
9.6457048858
 30
0.0
  0
LINE
  5
251
330
215
100
AcDbEntity
  8
DRW_FORMAT
  6
Continuous
 62
     7
100
AcDbLine
 10
68.0605954117
 20
9.899090043300001
 30
0.0
 11
68.0605954117
 21
10.3925420365
 31
0.0
  0
ARC
  5
252
330
215
100
AcDbEntity
  8
DRW_FORMAT
  6
Continuous
 62
     7
100
AcDbCircle
 10
67.0223956641
 20
9.899090043300001
 30
0.0
 40
0.0494860531
100
AcDbArc
 50
180.0
 51
270.0
  0
LINE
  5
253
330
215
100
AcDbEntity
  8
DRW_FORMAT
  6
Continuous
 62
     7
100
AcDbLine
 10
67.0223956641
 20
9.8496039902
 30
0.0
 11
67.59077523640001
 21
9.8496039902
 31
0.0
  0
LINE
  5
254
330
215
100
AcDbEntity
  8
DRW_FORMAT
  6
Continuous
 62
     7
100
AcDbLine
 10
67.59077523640001
 20
9.8496039902
 30
0.0
 11
67.59077523640001
 21
9.944936607999999
 31
0.0
  0
ARC
  5
255
330
215
100
AcDbEntity
  8
DRW_FORMAT
  6
Continuous
 62
     7
100
AcDbCircle
 10
67.60980833409999
 20
9.944936607999999
 30
0.0
 40
0.0190330973
100
AcDbArc
 50
90.0
 51
180.0
  0
LINE
  5
256
330
215
100
AcDbEntity
  8
DRW_FORMAT
  6
Continuous
 62
     7
100
AcDbLine
 10
67.6098083338
 20
9.9639697054
 30
0.0
 11
67.9046626765
 21
9.9639697054
 31
0.0
  0
ARC
  5
257
330
215
100
AcDbEntity
  8
DRW_FORMAT
  6
Continuous
 62
     7
100
AcDbCircle
 10
67.9046626758
 20
9.9449366087
 30
0.0
 40
0.0190330973
100
AcDbArc
 50
0.0
 51
90.0
  0
LINE
  5
258
330
215
100
AcDbEntity
  8
DRW_FORMAT
  6
Continuous
 62
     7
100
AcDbLine
 10
67.92369577390001
 20
9.8496039902
 30
0.0
 11
68.01110935859999
 21
9.8496039902
 31
0.0
  0
ARC
  5
259
330
215
100
AcDbEntity
  8
DRW_FORMAT
  6
Continuous
 62
     7
100
AcDbCircle
 10
68.01110935859999
 20
9.899090043300001
 30
0.0
 40
0.0494860531
100
AcDbArc
 50
270.0
 51
360.0
  0
LINE
  5
25A
330
215
100
AcDbEntity
  8
DRW_FORMAT
  6
Continuous
 62
     7
100
AcDbLine
 10
67.92369577390001
 20
9.8496039902
 30
0.0
 11
67.92369577390001
 21
9.944936607999999
 31
0.0
  0
LINE
  5
25B
330
215
100
AcDbEntity
  8
DRW_FORMAT
  6
Continuous
 62
     7
100
AcDbLine
 10
66.97290961100001
 20
9.899090043300001
 30
0.0
 11
66.97290961100001
 21
10.3925420365
 31
0.0
  0
ARC
  5
25C
330
215
100
AcDbEntity
  8
DRW_FORMAT
  6
Continuous
 62
     7
100
AcDbCircle
 10
67.0223956648
 20
10.3925420365
 30
0.0
 40
0.0494860531
100
AcDbArc
 50
90.0
 51
180.0
  0
LINE
  5
25D
330
215
100
AcDbEntity
  8
DRW_FORMAT
  6
Continuous
 62
     7
100
AcDbLine
 10
67.0223956641
 20
10.4420280896
 30
0.0
 11
68.01110935859999
 21
10.4420280896
 31
0.0
  0
ARC
  5
25E
330
215
100
AcDbEntity
  8
DRW_FORMAT
  6
Continuous
 62
     7
100
AcDbCircle
 10
68.0111093591
 20
10.3925420361
 30
0.0
 40
0.0494860531
100
AcDbArc
 50
0.0000000277
 51
90.00000002770001
  0
ARC
  5
25F
330
215
100
AcDbEntity
  8
DRW_FORMAT
  6
Continuous
 62
     7
100
AcDbCircle
 10
68.9348244853
 20
10.28797163029999
 30
0.0
 40
0.0494860531
100
AcDbArc
 50
180.0
 51
270.0
  0
ARC
  5
260
330
215
100
AcDbEntity
  8
DRW_FORMAT
  6
Continuous
 62
     7
100
AcDbCircle
 10
69.6050970742
 20
9.8879211499
 30
0.0
 40
0.0494860531
100
AcDbArc
 50
270.0
 51
360.0
  0
ARC
  5
261
330
215
100
AcDbEntity
  8
DRW_FORMAT
  6
Continuous
 62
     7
100
AcDbCircle
 10
70.6879265063
 20
9.892208054400001
 30
0.0
 40
0.0494860531
100
AcDbArc
 50
180.0
 51
270.0
  0
ENDBLK
  5
262
330
215
100
AcDbEntity
  8
0
  6
ByBlock
 62
     0
100
AcDbBlockEnd
  0
BLOCK
  5
263
330
216
100
AcDbEntity
  8
0
  6
Continuous
 62
     7
100
AcDbBlockBegin
  2
*D2
 70
     1
 10
0.0
 20
0.0
 30
0.0
  3
*D2
  1

  0
LINE
  5
591
330
216
100
AcDbEntity
  8
0
  6
Continuous
 62
     0
370
    -2
100
AcDbLine
 10
10.35511048539999
 20
47.1514848641
 30
0.0
 11
10.35511048539999
 21
53.7232147355
 31
0.0
  0
LINE
  5
592
330
216
100
AcDbEntity
  8
0
  6
Continuous
 62
     0
370
    -2
100
AcDbLine
 10
37.7967404067
 20
47.1514848641
 30
0.0
 11
37.7967404067
 21
53.7232147355
 31
0.0
  0
LINE
  5
593
330
216
100
AcDbEntity
  8
0
  6
Continuous
 62
     0
370
    -2
100
AcDbLine
 10
11.1051104854
 20
53.5432147355
 30
0.0
 11
21.98105583546666
 21
53.5432147355
 31
0.0
  0
LINE
  5
594
330
216
100
AcDbEntity
  8
0
  6
Continuous
 62
     0
370
    -2
100
AcDbLine
 10
37.0467404067
 20
53.5432147355
 30
0.0
 11
27.39772250213333
 21
53.5432147355
 31
0.0
  0
INSERT
  5
595
330
216
100
AcDbEntity
  8
0
  6
Continuous
 62
     0
370
    -2
100
AcDbBlockReference
  2
_CLOSED
 10
10.35511048539999
 20
53.5432147355
 30
0.0
 41
0.75
 42
0.75
 43
0.75
 50
180.0
  0
INSERT
  5
596
330
216
100
AcDbEntity
  8
0
  6
Continuous
 62
     0
370
    -2
100
AcDbBlockReference
  2
_CLOSED
 10
37.7967404067
 20
53.5432147355
 30
0.0
 41
0.75
 42
0.75
 43
0.75
  0
MTEXT
  5
597
330
216
100
AcDbEntity
  8
0
  6
Continuous
 62
     0
100
AcDbMText
 10
24.6893891688
 20
53.5432147355
 30
0.0
 40
0.625
 41
0.0
 71
     5
 72
     1
  1
\A1;(27.44\P [697.0])
 73
     1
 44
1.0
  0
POINT
  5
598
330
216
100
AcDbEntity
  8
Defpoints
  6
Continuous
 62
     0
100
AcDbPoint
 10
10.35511048539999
 20
47.08898486409999
 30
0.0
  0
POINT
  5
599
330
216
100
AcDbEntity
  8
Defpoints
  6
Continuous
 62
     0
100
AcDbPoint
 10
37.7967404067
 20
47.08898486409999
 30
0.0
  0
POINT
  5
59A
330
216
100
AcDbEntity
  8
Defpoints
  6
Continuous
 62
     0
100
AcDbPoint
 10
37.7967404067
 20
53.5432147355
 30
0.0
  0
ENDBLK
  5
270
330
216
100
AcDbEntity
  8
0
  6
ByBlock
 62
     0
100
AcDbBlockEnd
  0
BLOCK
  5
271
330
217
100
AcDbEntity
  8
0
  6
Continuous
 62
     7
100
AcDbBlockBegin
  2
*D3
 70
     1
 10
0.0
 20
0.0
 30
0.0
  3
*D3
  1

  0
LINE
  5
587
330
217
100
AcDbEntity
  8
0
  6
Continuous
 62
     0
370
    -2
100
AcDbLine
 10
62.7772503683
 20
26.12051050869999
 30
0.0
 11
62.7772503683
 21
29.5424244245
 31
0.0
  0
LINE
  5
588
330
217
100
AcDbEntity
  8
0
  6
Continuous
 62
     0
370
    -2
100
AcDbLine
 10
58.2772503683
 20
25.75051050869999
 30
0.0
 11
58.2772503683
 21
29.5424244245
 31
0.0
  0
LINE
  5
589
330
217
100
AcDbEntity
  8
0
  6
Continuous
 62
     0
370
    -2
100
AcDbLine
 10
62.0272503683
 20
29.3624244245
 30
0.0
 11
59.0272503683
 21
29.3624244245
 31
0.0
  0
LINE
  5
58A
330
217
100
AcDbEntity
  8
0
  6
Continuous
 62
     0
370
    -2
100
AcDbLine
 10
58.2772503683
 20
29.3624244245
 30
0.0
 11
57.33599592143334
 21
29.3624244245
 31
0.0
  0
INSERT
  5
58B
330
217
100
AcDbEntity
  8
0
  6
Continuous
 62
     0
370
    -2
100
AcDbBlockReference
  2
_CLOSED
 10
62.7772503683
 20
29.3624244245
 30
0.0
 41
0.75
 42
0.75
 43
0.75
  0
INSERT
  5
58C
330
217
100
AcDbEntity
  8
0
  6
Continuous
 62
     0
370
    -2
100
AcDbBlockReference
  2
_CLOSED
 10
58.2772503683
 20
29.3624244245
 30
0.0
 41
0.75
 42
0.75
 43
0.75
 50
180.0
  0
MTEXT
  5
58D
330
217
100
AcDbEntity
  8
0
  6
Continuous
 62
     0
100
AcDbMText
 10
54.7526625881
 20
29.3624244245
 30
0.0
 40
0.625
 41
0.0
 71
     5
 72
     1
  1
\A1;(4.50\P [114.3])
 73
     1
 44
1.0
  0
POINT
  5
58E
330
217
100
AcDbEntity
  8
Defpoints
  6
Continuous
 62
     0
100
AcDbPoint
 10
62.7772503683
 20
26.05801050869999
 30
0.0
  0
POINT
  5
58F
330
217
100
AcDbEntity
  8
Defpoints
  6
Continuous
 62
     0
100
AcDbPoint
 10
58.2772503683
 20
25.6880105087
 30
0.0
  0
POINT
  5
590
330
217
100
AcDbEntity
  8
Defpoints
  6
Continuous
 62
     0
100
AcDbPoint
 10
58.2772503683
 20
29.3624244245
 30
0.0
  0
ENDBLK
  5
27F
330
217
100
AcDbEntity
  8
0
  6
ByBlock
 62
     0
100
AcDbBlockEnd
  0
BLOCK
  5
280
330
218
100
AcDbEntity
  8
0
  6
Continuous
 62
     7
100
AcDbBlockBegin
  2
*D4
 70
     1
 10
0.0
 20
0.0
 30
0.0
  3
*D4
  1

  0
LINE
  5
57C
330
218
100
AcDbEntity
  8
0
  6
Continuous
 62
     0
370
    -2
100
AcDbLine
 10
62.9597503683
 20
25.9380105087
 30
0.0
 11
65.69749121940001
 21
25.9380105087
 31
0.0
  0
LINE
  5
57D
330
218
100
AcDbEntity
  8
0
  6
Continuous
 62
     0
370
    -2
100
AcDbLine
 10
62.9597503683
 20
24.9380105087
 30
0.0
 11
65.69749121940001
 21
24.9380105087
 31
0.0
  0
LINE
  5
57E
330
218
100
AcDbEntity
  8
0
  6
Continuous
 62
     0
370
    -2
100
AcDbLine
 10
65.5174912194
 20
24.18801050869999
 30
0.0
 11
65.5174912194
 21
23.4380105087
 31
0.0
  0
LINE
  5
57F
330
218
100
AcDbEntity
  8
0
  6
Continuous
 62
     0
370
    -2
100
AcDbLine
 10
65.5174912194
 20
26.68801050869999
 30
0.0
 11
65.5174912194
 21
27.4380105087
 31
0.0
  0
LINE
  5
580
330
218
100
AcDbEntity
  8
0
  6
Continuous
 62
     0
370
    -2
100
AcDbLine
 10
65.5174912194
 20
27.4380105087
 30
0.0
 11
66.2674912194
 21
27.4380105087
 31
0.0
  0
INSERT
  5
581
330
218
100
AcDbEntity
  8
0
  6
Continuous
 62
     0
370
    -2
100
AcDbBlockReference
  2
_CLOSED
 10
65.5174912194
 20
24.9380105087
 30
0.0
 41
0.75
 42
0.75
 43
0.75
 50
90.0
  0
INSERT
  5
582
330
218
100
AcDbEntity
  8
0
  6
Continuous
 62
     0
370
    -2
100
AcDbBlockReference
  2
_CLOSED
 10
65.5174912194
 20
25.9380105087
 30
0.0
 41
0.75
 42
0.75
 43
0.75
 50
270.0
  0
MTEXT
  5
583
330
218
100
AcDbEntity
  8
0
  6
Continuous
 62
     0
100
AcDbMText
 10
68.7674912194
 20
27.43801050870001
 30
0.0
 40
0.625
 41
0.0
 71
     5
 72
     1
  1
\A1;(1.00\P [25.4])
 73
     1
 44
1.0
  0
POINT
  5
584
330
218
100
AcDbEntity
  8
Defpoints
  6
Continuous
 62
     0
100
AcDbPoint
 10
62.8972503683
 20
25.9380105087
 30
0.0
  0
POINT
  5
585
330
218
100
AcDbEntity
  8
Defpoints
  6
Continuous
 62
     0
100
AcDbPoint
 10
62.8972503683
 20
24.9380105087
 30
0.0
  0
POINT
  5
586
330
218
100
AcDbEntity
  8
Defpoints
  6
Continuous
 62
     0
100
AcDbPoint
 10
65.5174912194
 20
24.9380105087
 30
0.0
  0
ENDBLK
  5
28E
330
218
100
AcDbEntity
  8
0
  6
ByBlock
 62
     0
100
AcDbBlockEnd
  0
BLOCK
  5
28F
330
219
100
AcDbEntity
  8
0
  6
Continuous
 62
     7
100
AcDbBlockBegin
  2
*D5
 70
     1
 10
0.0
 20
0.0
 30
0.0
  3
*D5
  1

  0
LINE
  5
571
330
219
100
AcDbEntity
  8
0
  6
Continuous
 62
     0
370
    -2
100
AcDbLine
 10
25.095925446
 20
45.8995163602
 30
0.0
 11
41.22884681453334
 21
45.8995163602
 31
0.0
  0
LINE
  5
572
330
219
100
AcDbEntity
  8
0
  6
Continuous
 62
     0
370
    -2
100
AcDbLine
 10
37.7361541816
 20
47.1495163602
 30
0.0
 11
41.22884681453334
 21
47.1495163602
 31
0.0
  0
LINE
  5
573
330
219
100
AcDbEntity
  8
0
  6
Continuous
 62
     0
370
    -2
100
AcDbLine
 10
41.04884681453333
 20
45.1495163602
 30
0.0
 11
41.04884681453333
 21
44.3995163602
 31
0.0
  0
LINE
  5
574
330
219
100
AcDbEntity
  8
0
  6
Continuous
 62
     0
370
    -2
100
AcDbLine
 10
41.04884681453333
 20
47.8995163602
 30
0.0
 11
41.04884681453334
 21
48.7281824231
 31
0.0
  0
LINE
  5
575
330
219
100
AcDbEntity
  8
0
  6
Continuous
 62
     0
370
    -2
100
AcDbLine
 10
41.04884681453334
 20
48.7281824231
 30
0.0
 11
41.79884681453335
 21
48.7281824231
 31
0.0
  0
INSERT
  5
576
330
219
100
AcDbEntity
  8
0
  6
Continuous
 62
     0
370
    -2
100
AcDbBlockReference
  2
_CLOSED
 10
41.04884681453333
 20
45.8995163602
 30
0.0
 41
0.75
 42
0.75
 43
0.75
 50
90.0
  0
INSERT
  5
577
330
219
100
AcDbEntity
  8
0
  6
Continuous
 62
     0
370
    -2
100
AcDbBlockReference
  2
_CLOSED
 10
41.04884681453333
 20
47.1495163602
 30
0.0
 41
0.75
 42
0.75
 43
0.75
 50
270.0
  0
MTEXT
  5
578
330
219
100
AcDbEntity
  8
0
  6
Continuous
 62
     0
100
AcDbMText
 10
44.2155134812
 20
48.7281824231
 30
0.0
 40
0.625
 41
0.0
 71
     5
 72
     1
  1
\A1;(1.25\P [31.8])
 73
     1
 44
1.0
  0
POINT
  5
579
330
219
100
AcDbEntity
  8
Defpoints
  6
Continuous
 62
     0
100
AcDbPoint
 10
25.033425446
 20
45.8995163602
 30
0.0
  0
POINT
  5
57A
330
219
100
AcDbEntity
  8
Defpoints
  6
Continuous
 62
     0
100
AcDbPoint
 10
37.6736541816
 20
47.1495163602
 30
0.0
  0
POINT
  5
57B
330
219
100
AcDbEntity
  8
Defpoints
  6
Continuous
 62
     0
100
AcDbPoint
 10
41.04884681453333
 20
47.1495163602
 30
0.0
  0
ENDBLK
  5
29D
330
219
100
AcDbEntity
  8
0
  6
ByBlock
 62
     0
100
AcDbBlockEnd
  0
BLOCK
  5
29E
330
21A
100
AcDbEntity
  8
0
  6
Continuous
 62
     7
100
AcDbBlockBegin
  2
*D6
 70
     1
 10
0.0
 20
0.0
 30
0.0
  3
*D6
  1

  0
LINE
  5
567
330
21A
100
AcDbEntity
  8
0
  6
Continuous
 62
     0
370
    -2
100
AcDbLine
 10
24.000925446
 20
46.9945163602
 30
0.0
 11
24.000925446
 21
50.1802586504
 31
0.0
  0
LINE
  5
568
330
21A
100
AcDbEntity
  8
0
  6
Continuous
 62
     0
370
    -2
100
AcDbLine
 10
37.091425446
 20
47.33201636020001
 30
0.0
 11
37.091425446
 21
50.1802586504
 31
0.0
  0
LINE
  5
569
330
21A
100
AcDbEntity
  8
0
  6
Continuous
 62
     0
370
    -2
100
AcDbLine
 10
24.750925446
 20
50.0002586504
 30
0.0
 11
27.88982092479999
 21
50.0002586504
 31
0.0
  0
LINE
  5
56A
330
21A
100
AcDbEntity
  8
0
  6
Continuous
 62
     0
370
    -2
100
AcDbLine
 10
36.341425446
 20
50.0002586504
 30
0.0
 11
33.3898209248
 21
50.0002586504
 31
0.0
  0
INSERT
  5
56B
330
21A
100
AcDbEntity
  8
0
  6
Continuous
 62
     0
370
    -2
100
AcDbBlockReference
  2
_CLOSED
 10
24.000925446
 20
50.0002586504
 30
0.0
 41
0.75
 42
0.75
 43
0.75
 50
180.0
  0
INSERT
  5
56C
330
21A
100
AcDbEntity
  8
0
  6
Continuous
 62
     0
370
    -2
100
AcDbBlockReference
  2
_CLOSED
 10
37.091425446
 20
50.0002586504
 30
0.0
 41
0.75
 42
0.75
 43
0.75
  0
MTEXT
  5
56D
330
21A
100
AcDbEntity
  8
0
  6
Continuous
 62
     0
100
AcDbMText
 10
30.63982092479999
 20
50.0002586504
 30
0.0
 40
0.625
 41
0.0
 71
     5
 72
     1
  1
\A1;(13.09\P [332.5])
 73
     1
 44
1.0
  0
POINT
  5
56E
330
21A
100
AcDbEntity
  8
Defpoints
  6
Continuous
 62
     0
100
AcDbPoint
 10
24.000925446
 20
46.9320163602
 30
0.0
  0
POINT
  5
56F
330
21A
100
AcDbEntity
  8
Defpoints
  6
Continuous
 62
     0
100
AcDbPoint
 10
37.091425446
 20
47.2695163602
 30
0.0
  0
POINT
  5
570
330
21A
100
AcDbEntity
  8
Defpoints
  6
Continuous
 62
     0
100
AcDbPoint
 10
37.091425446
 20
50.0002586504
 30
0.0
  0
ENDBLK
  5
2AB
330
21A
100
AcDbEntity
  8
0
  6
ByBlock
 62
     0
100
AcDbBlockEnd
  0
BLOCK
  5
2AC
330
21B
100
AcDbEntity
  8
0
  6
Continuous
 62
     7
100
AcDbBlockBegin
  2
*D7
 70
     1
 10
0.0
 20
0.0
 30
0.0
  3
*D7
  1

  0
LINE
  5
561
330
21B
100
AcDbEntity
  8
0
  6
Continuous
 62
     0
370
    -2
100
AcDbLine
 10
26.45084662201866
 20
41.31516314949999
 30
0.0
 11
25.70084662201866
 21
41.31516314949999
 31
0.0
  0
LINE
  5
562
330
21B
100
AcDbEntity
  8
0
  6
Continuous
 62
     0
370
    -2
100
AcDbLine
 10
25.70084662201866
 20
41.31516314949999
 30
0.0
 11
24.12869648620516
 21
45.55494298441622
 31
0.0
  0
MTEXT
  5
563
330
21B
100
AcDbEntity
  8
0
  6
Continuous
 62
     0
100
AcDbMText
 10
29.11751328868533
 20
41.31516314949999
 30
0.0
 40
0.625
 41
0.0
 71
     5
 72
     1
  1
\A1;(\U+2205.76\P [\U+220519.4])
 73
     1
 44
1.0
  0
INSERT
  5
564
330
21B
100
AcDbEntity
  8
0
  6
Continuous
 62
     0
370
    -2
100
AcDbBlockReference
  2
_CLOSED
 10
23.86793926139999
 20
46.25815395539997
 30
0.0
 41
0.75
 42
0.75
 43
0.75
 50
110.345252925893
  0
POINT
  5
565
330
21B
100
AcDbEntity
  8
Defpoints
  6
Continuous
 62
     0
100
AcDbPoint
 10
23.86793926139999
 20
46.25815395539997
 30
0.0
  0
POINT
  5
566
330
21B
100
AcDbEntity
  8
Defpoints
  6
Continuous
 62
     0
100
AcDbPoint
 10
24.13391163069999
 20
45.54087876499997
 30
0.0
  0
ENDBLK
  5
2B6
330
21B
100
AcDbEntity
  8
0
  6
ByBlock
 62
     0
100
AcDbBlockEnd
  0
BLOCK
  5
2B7
330
21C
100
AcDbEntity
  8
0
  6
Continuous
 62
     7
100
AcDbBlockBegin
  2
PICK-POINT_BL1
 70
     0
 10
8.1193880637
 20
4.037294518199999
 30
0.0
  3
PICK-POINT_BL1
  1

  0
CIRCLE
  5
2B8
330
21C
100
AcDbEntity
  8
0
  6
Continuous
 62
     7
100
AcDbCircle
 10
8.1193880637
 20
4.037294518199999
 30
0.0
 40
0.4
  0
CIRCLE
  5
2B9
330
21C
100
AcDbEntity
  8
0
  6
Continuous
 62
     7
100
AcDbCircle
 10
8.1193880637
 20
4.037294518199999
 30
0.0
 40
0.25
  0
CIRCLE
  5
2BA
330
21C
100
AcDbEntity
  8
0
  6
Continuous
 62
     7
100
AcDbCircle
 10
8.1193880637
 20
4.037294518199999
 30
0.0
 40
0.001
  0
LINE
  5
2BB
330
21C
100
AcDbEntity
  8
0
  6
Continuous
 62
     7
100
AcDbLine
 10
8.1193880637
 20
4.037294518199999
 30
0.0
 11
8.119389166199999
 21
4.038294517599999
 31
0.0
  0
ENDBLK
  5
2BC
330
21C
100
AcDbEntity
  8
0
  6
ByBlock
 62
     0
100
AcDbBlockEnd
  0
BLOCK
  5
2BD
330
21D
100
AcDbEntity
  8
0
  6
Continuous
 62
     7
100
AcDbBlockBegin
  2
PICK-POINT_BL2
 70
     0
 10
58.7772503683
 20
25.43801050869999
 30
0.0
  3
PICK-POINT_BL2
  1

  0
CIRCLE
  5
2BE
330
21D
100
AcDbEntity
  8
0
  6
Continuous
 62
     7
100
AcDbCircle
 10
58.7772503683
 20
25.43801050869999
 30
0.0
 40
0.25
  0
CIRCLE
  5
2BF
330
21D
100
AcDbEntity
  8
0
  6
Continuous
 62
     7
100
AcDbCircle
 10
58.7772503683
 20
25.43801050869999
 30
0.0
 40
0.15625
  0
CIRCLE
  5
2C0
330
21D
100
AcDbEntity
  8
0
  6
Continuous
 62
     7
100
AcDbCircle
 10
58.7772503683
 20
25.43801050869999
 30
0.0
 40
0.000625
  0
LINE
  5
2C1
330
21D
100
AcDbEntity
  8
0
  6
Continuous
 62
     7
100
AcDbLine
 10
58.7772503683
 20
25.43801050869999
 30
0.0
 11
58.7772510574
 21
25.4386355083
 31
0.0
  0
ENDBLK
  5
2C2
330
21D
100
AcDbEntity
  8
0
  6
ByBlock
 62
     0
100
AcDbBlockEnd
  0
BLOCK
  5
5A5
330
59C
100
AcDbEntity
  8
0
100
AcDbBlockBegin
  2
*D10
 70
     1
 10
0.0
 20
0.0
 30
0.0
  3
*D10
  1

  0
LINE
  5
5A7
330
59C
100
AcDbEntity
  8
0
 62
     0
370
    -2
100
AcDbLine
 10
25.97547056412389
 20
41.83267658855041
 30
0.0
 11
25.22547056412388
 21
41.83267658855041
 31
0.0
  0
LINE
  5
5A8
330
59C
100
AcDbEntity
  8
0
 62
     0
370
    -2
100
AcDbLine
 10
25.22547056412388
 20
41.83267658855041
 30
0.0
 11
24.32744592611772
 21
44.81510839911538
 31
0.0
  0
MTEXT
  5
5A9
330
59C
100
AcDbEntity
  8
0
 62
     0
100
AcDbMText
 10
28.64213723079055
 20
41.8326765885504
 30
0.0
 40
0.625
 41
0.0
 71
     5
 72
     1
  1
\A1;(\U+2205.77\P [\U+220519.4])
 73
     1
 44
1.0
  0
INSERT
  5
5AA
330
59C
100
AcDbEntity
  8
0
 62
     0
370
    -2
100
AcDbBlockReference
  2
_CLOSED
 10
24.11120719756294
 20
45.53325936672108
 30
0.0
 41
0.75
 42
0.75
 43
0.75
 50
106.7573021362741
  0
LINE
  5
5AB
330
59C
100
AcDbEntity
  8
0
 62
     0
370
    -2
100
AcDbLine
 10
23.91092544599999
 20
45.89951636020001
 30
0.0
 11
24.09092544599999
 21
45.8995163602
 31
0.0
  0
LINE
  5
5AC
330
59C
100
AcDbEntity
  8
0
 62
     0
370
    -2
100
AcDbLine
 10
24.000925446
 20
45.8095163602
 30
0.0
 11
24.00092544599999
 21
45.98951636020001
 31
0.0
  0
POINT
  5
5AD
330
59C
100
AcDbEntity
  8
Defpoints
 62
     0
100
AcDbPoint
 10
24.11120719756294
 20
45.53325936672108
 30
0.0
  0
POINT
  5
5AE
330
59C
100
AcDbEntity
  8
Defpoints
 62
     0
100
AcDbPoint
 10
23.89064369443706
 20
46.26577335367891
 30
0.0
  0
ENDBLK
  5
5A6
330
59C
100
AcDbEntity
  8
0
100
AcDbBlockEnd
  0
ENDSEC
  0
SECTION
  2
ENTITIES
  0
LINE
  5
2C9
330
1F
100
AcDbEntity
  8
DRW_FORMAT
  6
PHANTOM
100
AcDbLine
 10
0.0
 20
0.0
 30
0.0
 11
88.0
 21
0.0
 31
0.0
  0
LINE
  5
2CA
330
1F
100
AcDbEntity
  8
DRW_FORMAT
  6
PHANTOM
100
AcDbLine
 10
0.0
 20
0.0
 30
0.0
 11
0.0216333547
 21
68.06072078619999
 31
0.0
  0
LINE
  5
2CB
330
1F
100
AcDbEntity
  8
DRW_FORMAT
  6
Continuous
100
AcDbLine
 10
1.3157510018
 20
66.7666031391
 30
0.0
 11
1.294117647099999
 21
1.294117647099999
 31
0.0
  0
LINE
  5
2CC
330
1F
100
AcDbEntity
  8
DRW_FORMAT
  6
Continuous
100
AcDbLine
 10
85.4333980606
 20
66.7666031391
 30
0.0
 11
85.4117647059
 21
1.294117647099999
 31
0.0
  0
LINE
  5
2CD
330
1F
100
AcDbEntity
  8
DRW_FORMAT
  6
Continuous
100
AcDbLine
 10
85.4333980606
 20
66.7666031391
 30
0.0
 11
1.3157510018
 21
66.7666031391
 31
0.0
  0
LINE
  5
2CE
330
1F
100
AcDbEntity
  8
DRW_FORMAT
  6
Continuous
100
AcDbLine
 10
1.294117647099999
 20
1.294117647099999
 30
0.0
 11
85.4117647059
 21
1.294117647099999
 31
0.0
  0
LINE
  5
2CF
330
1F
100
AcDbEntity
  8
DRW_FORMAT
  6
Continuous
100
AcDbLine
 10
11.8304568841
 20
66.7666031391
 30
0.0
 11
11.8304568841
 21
68.06072078619999
 31
0.0
  0
LINE
  5
2D0
330
1F
100
AcDbEntity
  8
DRW_FORMAT
  6
Continuous
100
AcDbLine
 10
22.34516276649999
 20
66.7666031391
 30
0.0
 11
22.34516276649999
 21
68.06072078619999
 31
0.0
  0
LINE
  5
2D1
330
1F
100
AcDbEntity
  8
DRW_FORMAT
  6
Continuous
100
AcDbLine
 10
32.8598686488
 20
66.7666031391
 30
0.0
 11
32.8598686488
 21
68.06072078619999
 31
0.0
  0
LINE
  5
2D2
330
1F
100
AcDbEntity
  8
DRW_FORMAT
  6
Continuous
100
AcDbLine
 10
53.8892804135
 20
66.7666031391
 30
0.0
 11
53.8892804135
 21
68.06072078619999
 31
0.0
  0
LINE
  5
2D3
330
1F
100
AcDbEntity
  8
DRW_FORMAT
  6
Continuous
100
AcDbLine
 10
64.40398629589999
 20
66.7666031391
 30
0.0
 11
64.40398629589999
 21
68.06072078619999
 31
0.0
  0
LINE
  5
2D4
330
1F
100
AcDbEntity
  8
DRW_FORMAT
  6
Continuous
100
AcDbLine
 10
74.91869217819999
 20
66.7666031391
 30
0.0
 11
74.91869217819999
 21
68.06072078619999
 31
0.0
  0
LINE
  5
2D5
330
1F
100
AcDbEntity
  8
DRW_FORMAT
  6
Continuous
100
AcDbLine
 10
11.8088235294
 20
1.294117647099999
 30
0.0
 11
11.8088235294
 21
0.0
 31
0.0
  0
LINE
  5
2D6
330
1F
100
AcDbEntity
  8
DRW_FORMAT
  6
Continuous
100
AcDbLine
 10
22.32352941179999
 20
1.294117647099999
 30
0.0
 11
22.32352941179999
 21
0.0
 31
0.0
  0
LINE
  5
2D7
330
1F
100
AcDbEntity
  8
DRW_FORMAT
  6
Continuous
100
AcDbLine
 10
32.83823529409999
 20
1.294117647099999
 30
0.0
 11
32.83823529409999
 21
0.0
 31
0.0
  0
LINE
  5
2D8
330
1F
100
AcDbEntity
  8
DRW_FORMAT
  6
Continuous
100
AcDbLine
 10
53.86764705880001
 20
1.294117647099999
 30
0.0
 11
53.86764705880001
 21
0.0
 31
0.0
  0
LINE
  5
2D9
330
1F
100
AcDbEntity
  8
DRW_FORMAT
  6
Continuous
100
AcDbLine
 10
64.3823529412
 20
1.294117647099999
 30
0.0
 11
64.3823529412
 21
0.0
 31
0.0
  0
LINE
  5
2DA
330
1F
100
AcDbEntity
  8
DRW_FORMAT
  6
Continuous
100
AcDbLine
 10
74.8970588235
 20
1.294117647099999
 30
0.0
 11
74.8970588235
 21
0.0
 31
0.0
  0
LINE
  5
2DB
330
1F
100
AcDbEntity
  8
DRW_FORMAT
  6
Continuous
100
AcDbLine
 10
85.5171017494
 20
50.4155623145
 30
0.0
 11
86.81121939649999
 21
50.4155623145
 31
0.0
  0
LINE
  5
2DC
330
1F
100
AcDbEntity
  8
DRW_FORMAT
  6
Continuous
100
AcDbLine
 10
1.299021429299999
 20
50.39382686979999
 30
0.0
 11
0.0049037822
 21
50.39382686979999
 31
0.0
  0
LINE
  5
2DD
330
1F
100
AcDbEntity
  8
DRW_FORMAT
  6
Continuous
100
AcDbLine
 10
1.294117647099999
 20
17.6469648318
 30
0.0
 11
0.0
 21
17.6469648318
 31
0.0
  0
LINE
  5
2DE
330
1F
100
AcDbEntity
  8
DRW_FORMAT
  6
Continuous
100
AcDbLine
 10
43.3529411765
 20
1.294117647099999
 30
0.0
 11
43.3529411765
 21
0.0
 31
0.0
  0
LINE
  5
2DF
330
1F
100
AcDbEntity
  8
DRW_FORMAT
  6
Continuous
100
AcDbLine
 10
43.3529411765
 20
1.294117647099999
 30
0.0
 11
42.9164226395
 21
0.6793152807
 31
0.0
  0
LINE
  5
2E0
330
1F
100
AcDbEntity
  8
DRW_FORMAT
  6
Continuous
100
AcDbLine
 10
43.3529411765
 20
1.294117647099999
 30
0.0
 11
43.7894597135
 21
0.6793152807
 31
0.0
  0
LINE
  5
2E1
330
1F
100
AcDbEntity
  8
DRW_FORMAT
  6
Continuous
100
AcDbLine
 10
42.9164226395
 20
0.6793152807
 30
0.0
 11
43.7894597135
 21
0.6793152807
 31
0.0
  0
LINE
  5
2E2
330
1F
100
AcDbEntity
  8
DRW_FORMAT
  6
Continuous
100
AcDbLine
 10
85.4464592301
 20
34.0248682857
 30
0.0
 11
86.74057687719999
 21
34.0248682857
 31
0.0
  0
LINE
  5
2E3
330
1F
100
AcDbEntity
  8
DRW_FORMAT
  6
Continuous
100
AcDbLine
 10
85.4464592301
 20
34.0248682857
 30
0.0
 11
86.06126159620002
 21
33.58834974869999
 31
0.0
  0
LINE
  5
2E4
330
1F
100
AcDbEntity
  8
DRW_FORMAT
  6
Continuous
100
AcDbLine
 10
85.4464592301
 20
34.0248682857
 30
0.0
 11
86.06126159620002
 21
34.461386823
 31
0.0
  0
LINE
  5
2E5
330
1F
100
AcDbEntity
  8
DRW_FORMAT
  6
Continuous
100
AcDbLine
 10
86.06126159620002
 20
33.58834974869999
 30
0.0
 11
86.06126159620002
 21
34.461386823
 31
0.0
  0
LINE
  5
2E6
330
1F
100
AcDbEntity
  8
DRW_FORMAT
  6
Continuous
100
AcDbLine
 10
1.2709245943
 20
34.02532437449999
 30
0.0
 11
-0.0231930528
 21
34.02532437449999
 31
0.0
  0
LINE
  5
2E7
330
1F
100
AcDbEntity
  8
DRW_FORMAT
  6
Continuous
100
AcDbLine
 10
1.2709245943
 20
34.02532437449999
 30
0.0
 11
0.656122228
 21
33.58880583749999
 31
0.0
  0
LINE
  5
2E8
330
1F
100
AcDbEntity
  8
DRW_FORMAT
  6
Continuous
100
AcDbLine
 10
1.2709245943
 20
34.02532437449999
 30
0.0
 11
0.656122228
 21
34.4618429115
 31
0.0
  0
LINE
  5
2E9
330
1F
100
AcDbEntity
  8
DRW_FORMAT
  6
Continuous
100
AcDbLine
 10
0.656122228
 20
33.58880583749999
 30
0.0
 11
0.656122228
 21
34.4618429115
 31
0.0
  0
LINE
  5
2EA
330
1F
100
AcDbEntity
  8
DRW_FORMAT
  6
Continuous
100
AcDbLine
 10
43.37457453119999
 20
66.7666031391
 30
0.0
 11
43.37457453119999
 21
68.06072078619999
 31
0.0
  0
LINE
  5
2EB
330
1F
100
AcDbEntity
  8
DRW_FORMAT
  6
Continuous
100
AcDbLine
 10
43.37457453119999
 20
66.7666031391
 30
0.0
 11
42.93805599419999
 21
67.38140550549999
 31
0.0
  0
LINE
  5
2EC
330
1F
100
AcDbEntity
  8
DRW_FORMAT
  6
Continuous
100
AcDbLine
 10
43.37457453119999
 20
66.7666031391
 30
0.0
 11
43.81109306819999
 21
67.38140550549999
 31
0.0
  0
LINE
  5
2ED
330
1F
100
AcDbEntity
  8
DRW_FORMAT
  6
Continuous
100
AcDbLine
 10
42.93805599419999
 20
67.38140550549999
 30
0.0
 11
43.81109306819999
 21
67.38140550549999
 31
0.0
  0
LINE
  5
2EE
330
1F
100
AcDbEntity
  8
DRW_FORMAT
  6
Continuous
100
AcDbLine
 10
9.242221589999999
 20
66.7666031391
 30
0.0
 11
9.242221589999999
 21
65.4724854921
 31
0.0
  0
LINE
  5
2EF
330
1F
100
AcDbEntity
  8
DRW_FORMAT
  6
Continuous
100
AcDbLine
 10
9.242221589999999
 20
65.4724854921
 30
0.0
 11
1.3157510018
 21
65.4724854921
 31
0.0
  0
LINE
  5
2F0
330
1F
100
AcDbEntity
  8
DRW_FORMAT
  6
PHANTOM
100
AcDbLine
 10
88.0
 20
0.0
 30
0.0
 11
88.0
 21
68.0280637166
 31
0.0
  0
LINE
  5
2F1
330
1F
100
AcDbEntity
  8
DRW_FORMAT
  6
PHANTOM
100
AcDbLine
 10
0.0216491528
 20
68.0280637166
 30
0.0
 11
88.0
 21
68.0280637166
 31
0.0
  0
TEXT
  5
2F2
330
1F
100
AcDbEntity
  8
DRW_FORMAT
  6
Continuous
100
AcDbText
 10
6.374584751
 20
0.5400784752000001
 30
0.0
 40
0.4044117647000001
  1
8
 41
0.8
100
AcDbText
  0
TEXT
  5
2F3
330
1F
100
AcDbEntity
  8
DRW_FORMAT
  6
Continuous
100
AcDbText
 10
16.88929063329999
 20
0.5400784752000001
 30
0.0
 40
0.4044117647000001
  1
7
 41
0.8
100
AcDbText
  0
TEXT
  5
2F4
330
1F
100
AcDbEntity
  8
DRW_FORMAT
  6
Continuous
100
AcDbText
 10
27.4039965157
 20
0.5400784752000001
 30
0.0
 40
0.4044117647000001
  1
6
 41
0.8
100
AcDbText
  0
TEXT
  5
2F5
330
1F
100
AcDbEntity
  8
DRW_FORMAT
  6
Continuous
100
AcDbText
 10
37.918702398
 20
0.5400784752000001
 30
0.0
 40
0.4044117647000001
  1
5
 41
0.8
100
AcDbText
  0
TEXT
  5
2F6
330
1F
100
AcDbEntity
  8
DRW_FORMAT
  6
Continuous
100
AcDbText
 10
48.4334082804
 20
0.5400784752000001
 30
0.0
 40
0.4044117647000001
  1
4
 41
0.8
100
AcDbText
  0
TEXT
  5
2F7
330
1F
100
AcDbEntity
  8
DRW_FORMAT
  6
Continuous
100
AcDbText
 10
58.94811416279999
 20
0.5400784752000001
 30
0.0
 40
0.4044117647000001
  1
3
 41
0.8
100
AcDbText
  0
TEXT
  5
2F8
330
1F
100
AcDbEntity
  8
DRW_FORMAT
  6
Continuous
100
AcDbText
 10
69.4628200451
 20
0.5400784752000001
 30
0.0
 40
0.4044117647000001
  1
2
 41
0.8
100
AcDbText
  0
TEXT
  5
2F9
330
1F
100
AcDbEntity
  8
DRW_FORMAT
  6
Continuous
100
AcDbText
 10
79.9775259275
 20
0.5400784752000001
 30
0.0
 40
0.4044117647000001
  1
1
 41
0.8
100
AcDbText
  0
TEXT
  5
2FA
330
1F
100
AcDbEntity
  8
DRW_FORMAT
  6
Continuous
100
AcDbText
 10
6.5575462336
 20
67.1654255377
 30
0.0
 40
0.404412
  1
8
 41
0.8
100
AcDbText
  0
TEXT
  5
2FB
330
1F
100
AcDbEntity
  8
DRW_FORMAT
  6
Continuous
100
AcDbText
 10
17.1094789249
 20
67.1804708134
 30
0.0
 40
0.4044117647000001
  1
7
 41
0.8
100
AcDbText
  0
TEXT
  5
2FC
330
1F
100
AcDbEntity
  8
DRW_FORMAT
  6
Continuous
100
AcDbText
 10
27.6302075105
 20
67.1412201208
 30
0.0
 40
0.4044117647000001
  1
6
 41
0.8
100
AcDbText
  0
TEXT
  5
2FD
330
1F
100
AcDbEntity
  8
DRW_FORMAT
  6
Continuous
100
AcDbText
 10
38.16560289419999
 20
67.18405323849999
 30
0.0
 40
0.4044117647000001
  1
5
 41
0.8
100
AcDbText
  0
TEXT
  5
2FE
330
1F
100
AcDbEntity
  8
DRW_FORMAT
  6
Continuous
100
AcDbText
 10
48.6820999891
 20
67.1566919684
 30
0.0
 40
0.4044117647000001
  1
4
 41
0.8
100
AcDbText
  0
TEXT
  5
2FF
330
1F
100
AcDbEntity
  8
DRW_FORMAT
  6
Continuous
100
AcDbText
 10
59.1052729169
 20
67.1531095433
 30
0.0
 40
0.4044117647000001
  1
3
 41
0.8
100
AcDbText
  0
TEXT
  5
300
330
1F
100
AcDbEntity
  8
DRW_FORMAT
  6
Continuous
100
AcDbText
 10
69.61624039010001
 20
67.1566919684
 30
0.0
 40
0.4044117647000001
  1
2
 41
0.8
100
AcDbText
  0
TEXT
  5
301
330
1F
100
AcDbEntity
  8
DRW_FORMAT
  6
Continuous
100
AcDbText
 10
80.1833845185
 20
67.19594254329999
 30
0.0
 40
0.404412
  1
1
 41
0.8
100
AcDbText
  0
TEXT
  5
302
330
1F
100
AcDbEntity
  8
DRW_FORMAT
  6
Continuous
100
AcDbText
 10
0.4572649249000001
 20
9.272286430099999
 30
0.0
 40
0.4044117647000001
  1
A
 41
0.8
100
AcDbText
  0
TEXT
  5
303
330
1F
100
AcDbEntity
  8
DRW_FORMAT
  6
Continuous
100
AcDbText
 10
0.5130382123000001
 20
25.6046461739
 30
0.0
 40
0.4044117647000001
  1
B
 41
0.8
100
AcDbText
  0
TEXT
  5
304
330
1F
100
AcDbEntity
  8
DRW_FORMAT
  6
Continuous
100
AcDbText
 10
0.5349687544
 20
42.12433362769999
 30
0.0
 40
0.4044117647000001
  1
C
 41
0.8
100
AcDbText
  0
TEXT
  5
305
330
1F
100
AcDbEntity
  8
DRW_FORMAT
  6
Continuous
100
AcDbText
 10
0.4687953531000001
 20
58.4164314527
 30
0.0
 40
0.4044117647000001
  1
D
 41
0.8
100
AcDbText
  0
TEXT
  5
306
330
1F
100
AcDbEntity
  8
DRW_FORMAT
  6
Continuous
100
AcDbText
 10
85.92480291820001
 20
7.9283857509
 30
0.0
 40
0.4044117647000001
  1
A
 41
0.8
100
AcDbText
  0
TEXT
  5
307
330
1F
100
AcDbEntity
  8
DRW_FORMAT
  6
Continuous
100
AcDbText
 10
86.34615109219998
 20
41.95176416719999
 30
0.0
 40
0.4044117647000001
  1
C
 41
0.8
100
AcDbText
  0
TEXT
  5
308
330
1F
100
AcDbEntity
  8
DRW_FORMAT
  6
Continuous
100
AcDbText
 10
86.42117531750001
 20
56.5854127816
 30
0.0
 40
0.4044117647000001
  1
D
 41
0.8
100
AcDbText
  0
TEXT
  5
309
330
1F
100
AcDbEntity
  8
DRW_FORMAT
  6
Continuous
100
AcDbText
 10
66.3070449554
 20
0.9510415957999999
 30
0.0
 40
0.2329411765
  1
MODEL INFO
 41
0.8
100
AcDbText
  0
TEXT
  5
30A
330
1F
100
AcDbEntity
  8
DRW_FORMAT
  6
Continuous
100
AcDbText
 10
75.2738593829
 20
0.9365856917
 30
0.0
 40
0.2329411765
  1
DRAWING INFO
 41
0.8
100
AcDbText
  0
MTEXT
  5
30B
330
1F
100
AcDbEntity
  8
DRW_FORMAT
  6
Continuous
100
AcDbMText
 10
1.56804247676227
 20
66.71557483921308
 30
0.0
 40
0.1941176471
 41
7.609411764699999
 71
     1
 72
     1
  1
THIS DOCUMENT CONTAINS PROPRIETARY INFORMATION\PWHICH IS THE PROPERTY OF QSC AUDIO PRODUCTS, THAT\PMAY NOT BE DISCLOSED, REPRODUCED OR USED WITHOUT\PEXPRESS WRITTEN CONSENT FROM QSC AUDIO PRODUCTS.
 73
     1
 44
1.0
  0
INSERT
  5
30C
330
1F
100
AcDbEntity
  8
DRW_FORMAT
  6
Continuous
100
AcDbBlockReference
  2
RD010411_BL0
 10
69.2195920005
 20
10.08104287029999
 30
0.0
  0
LINE
  5
30D
330
1F
100
AcDbEntity
  8
0
  6
Continuous
100
AcDbLine
 10
57.8188250002
 20
5.255067648599999
 30
0.0
 11
55.4463894209
 21
4.8848031362
 31
0.0
  0
LINE
  5
30E
330
1F
100
AcDbEntity
  8
0
  6
Continuous
100
AcDbLine
 10
55.4601029213
 20
5.255067648599999
 30
0.0
 11
57.8188250002
 21
4.8573761353
 31
0.0
  0
LINE
  5
30F
330
1F
100
AcDbEntity
  8
0
  6
Continuous
100
AcDbLine
 10
10.5566852886
 20
25.1470583309
 30
0.0
 11
10.5566852886
 21
25.2647821623
 31
0.0
  0
LINE
  5
310
330
1F
100
AcDbEntity
  8
0
  6
Continuous
100
AcDbLine
 10
10.5566852886
 20
25.2647821623
 30
0.0
 11
10.5566852886
 21
25.2713613833
 31
0.0
  0
LINE
  5
311
330
1F
100
AcDbEntity
  8
0
  6
Continuous
100
AcDbLine
 10
10.5566852886
 20
25.2713613833
 30
0.0
 11
10.5566852886
 21
25.2726272191
 31
0.0
  0
LINE
  5
312
330
1F
100
AcDbEntity
  8
0
  6
Continuous
100
AcDbLine
 10
10.5566852886
 20
25.2726272191
 30
0.0
 11
10.5566852886
 21
25.2925364251
 31
0.0
  0
LINE
  5
313
330
1F
100
AcDbEntity
  8
0
  6
Continuous
100
AcDbLine
 10
10.5566852886
 20
25.2925364251
 30
0.0
 11
10.5566852886
 21
25.29523280139999
 31
0.0
  0
LINE
  5
314
330
1F
100
AcDbEntity
  8
0
  6
Continuous
100
AcDbLine
 10
10.5566852886
 20
25.29523280139999
 30
0.0
 11
10.5566852886
 21
25.5246246819
 31
0.0
  0
LINE
  5
315
330
1F
100
AcDbEntity
  8
0
  6
Continuous
100
AcDbLine
 10
10.5566852886
 20
25.5246246819
 30
0.0
 11
10.5566852886
 21
25.52739564179999
 31
0.0
  0
LINE
  5
316
330
1F
100
AcDbEntity
  8
0
  6
Continuous
100
AcDbLine
 10
10.5566852886
 20
25.52739564179999
 30
0.0
 11
10.5566852886
 21
25.5834845923
 31
0.0
  0
LINE
  5
317
330
1F
100
AcDbEntity
  8
0
  6
Continuous
100
AcDbLine
 10
10.5566852886
 20
25.5834845923
 30
0.0
 11
10.5566852886
 21
25.6053309053
 31
0.0
  0
LINE
  5
318
330
1F
100
AcDbEntity
  8
0
  6
Continuous
100
AcDbLine
 10
10.5566852886
 20
25.6053309053
 30
0.0
 11
10.5566852886
 21
25.610204923
 31
0.0
  0
LINE
  5
319
330
1F
100
AcDbEntity
  8
0
  6
Continuous
100
AcDbLine
 10
10.5566852886
 20
25.610204923
 30
0.0
 11
10.5566852886
 21
25.6112388552
 31
0.0
  0
LINE
  5
31A
330
1F
100
AcDbEntity
  8
0
  6
Continuous
100
AcDbLine
 10
10.5566852886
 20
25.6112388552
 30
0.0
 11
10.5566852886
 21
25.7274423355
 31
0.0
  0
LINE
  5
31B
330
1F
100
AcDbEntity
  8
0
  6
Continuous
100
AcDbLine
 10
10.5566852886
 20
25.7274423355
 30
0.0
 11
10.5566852886
 21
25.7293465882
 31
0.0
  0
LINE
  5
31C
330
1F
100
AcDbEntity
  8
0
  6
Continuous
100
AcDbLine
 10
10.635425446
 20
25.1470583309
 30
0.0
 11
10.5566852886
 21
25.1470583309
 31
0.0
  0
LINE
  5
31D
330
1F
100
AcDbEntity
  8
0
  6
Continuous
100
AcDbLine
 10
10.635425446
 20
25.7293490914
 30
0.0
 11
10.5566852886
 21
25.7293490914
 31
0.0
  0
LINE
  5
31E
330
1F
100
AcDbEntity
  8
0
  6
Continuous
100
AcDbLine
 10
37.5951656035
 20
25.7289626865
 30
0.0
 11
37.5951656035
 21
25.6112388552
 31
0.0
  0
LINE
  5
31F
330
1F
100
AcDbEntity
  8
0
  6
Continuous
100
AcDbLine
 10
37.5951656035
 20
25.6112388552
 30
0.0
 11
37.5951656035
 21
25.60465963409999
 31
0.0
  0
LINE
  5
320
330
1F
100
AcDbEntity
  8
0
  6
Continuous
100
AcDbLine
 10
37.5951656035
 20
25.60465963409999
 30
0.0
 11
37.5951656035
 21
25.6033937984
 31
0.0
  0
LINE
  5
321
330
1F
100
AcDbEntity
  8
0
  6
Continuous
100
AcDbLine
 10
37.5951656035
 20
25.6033937984
 30
0.0
 11
37.5951656035
 21
25.5834845923
 31
0.0
  0
LINE
  5
322
330
1F
100
AcDbEntity
  8
0
  6
Continuous
100
AcDbLine
 10
37.5951656035
 20
25.5834845923
 30
0.0
 11
37.5951656035
 21
25.580788216
 31
0.0
  0
LINE
  5
323
330
1F
100
AcDbEntity
  8
0
  6
Continuous
100
AcDbLine
 10
37.5951656035
 20
25.580788216
 30
0.0
 11
37.5951656035
 21
25.3513963355
 31
0.0
  0
LINE
  5
324
330
1F
100
AcDbEntity
  8
0
  6
Continuous
100
AcDbLine
 10
37.5951656035
 20
25.3513963355
 30
0.0
 11
37.5951656035
 21
25.3486253756
 31
0.0
  0
LINE
  5
325
330
1F
100
AcDbEntity
  8
0
  6
Continuous
100
AcDbLine
 10
37.5951656035
 20
25.3486253756
 30
0.0
 11
37.5951656035
 21
25.2925364251
 31
0.0
  0
LINE
  5
326
330
1F
100
AcDbEntity
  8
0
  6
Continuous
100
AcDbLine
 10
37.5951656035
 20
25.2925364251
 30
0.0
 11
37.5951656035
 21
25.2706901122
 31
0.0
  0
LINE
  5
327
330
1F
100
AcDbEntity
  8
0
  6
Continuous
100
AcDbLine
 10
37.5951656035
 20
25.2706901122
 30
0.0
 11
37.5951656035
 21
25.2658160944
 31
0.0
  0
LINE
  5
328
330
1F
100
AcDbEntity
  8
0
  6
Continuous
100
AcDbLine
 10
37.5951656035
 20
25.2658160944
 30
0.0
 11
37.5951656035
 21
25.2647821623
 31
0.0
  0
LINE
  5
329
330
1F
100
AcDbEntity
  8
0
  6
Continuous
100
AcDbLine
 10
37.5951656035
 20
25.2647821623
 30
0.0
 11
37.5951656035
 21
25.1485786819
 31
0.0
  0
LINE
  5
32A
330
1F
100
AcDbEntity
  8
0
  6
Continuous
100
AcDbLine
 10
37.5951656035
 20
25.1485786819
 30
0.0
 11
37.5951656035
 21
25.1466744292
 31
0.0
  0
LINE
  5
32B
330
1F
100
AcDbEntity
  8
0
  6
Continuous
100
AcDbLine
 10
37.516425446
 20
25.7289626865
 30
0.0
 11
37.5951656035
 21
25.7289626865
 31
0.0
  0
LINE
  5
32C
330
1F
100
AcDbEntity
  8
0
  6
Continuous
100
AcDbLine
 10
37.516425446
 20
25.146671926
 30
0.0
 11
37.5951656035
 21
25.146671926
 31
0.0
  0
LINE
  5
32D
330
1F
100
AcDbEntity
  8
0
  6
Continuous
100
AcDbLine
 10
37.516425446
 20
25.9380105087
 30
0.0
 11
37.516425446
 21
25.6030105087
 31
0.0
  0
LINE
  5
32E
330
1F
100
AcDbEntity
  8
0
  6
Continuous
100
AcDbLine
 10
37.516425446
 20
25.6030105087
 30
0.0
 11
37.516425446
 21
25.5987702219
 31
0.0
  0
LINE
  5
32F
330
1F
100
AcDbEntity
  8
0
  6
Continuous
100
AcDbLine
 10
37.516425446
 20
25.5987702219
 30
0.0
 11
37.516425446
 21
25.43801050869999
 31
0.0
  0
LINE
  5
330
330
1F
100
AcDbEntity
  8
0
  6
Continuous
100
AcDbLine
 10
37.516425446
 20
25.43801050869999
 30
0.0
 11
37.516425446
 21
25.2772507955
 31
0.0
  0
LINE
  5
331
330
1F
100
AcDbEntity
  8
0
  6
Continuous
100
AcDbLine
 10
37.516425446
 20
25.2772507955
 30
0.0
 11
37.516425446
 21
25.2730105087
 31
0.0
  0
LINE
  5
332
330
1F
100
AcDbEntity
  8
0
  6
Continuous
100
AcDbLine
 10
37.516425446
 20
25.2730105087
 30
0.0
 11
37.516425446
 21
24.9380105087
 31
0.0
  0
LINE
  5
333
330
1F
100
AcDbEntity
  8
0
  6
Continuous
100
AcDbLine
 10
37.39142544599999
 20
25.9380105087
 30
0.0
 11
37.39142544599999
 21
25.6030105087
 31
0.0
  0
LINE
  5
334
330
1F
100
AcDbEntity
  8
0
  6
Continuous
100
AcDbLine
 10
37.39142544599999
 20
25.6030105087
 30
0.0
 11
37.39142544599999
 21
25.5987702219
 31
0.0
  0
LINE
  5
335
330
1F
100
AcDbEntity
  8
0
  6
Continuous
100
AcDbLine
 10
37.39142544599999
 20
25.5987702219
 30
0.0
 11
37.39142544599999
 21
25.43801050869999
 31
0.0
  0
LINE
  5
336
330
1F
100
AcDbEntity
  8
0
  6
Continuous
100
AcDbLine
 10
37.39142544599999
 20
25.43801050869999
 30
0.0
 11
37.39142544599999
 21
25.2772507955
 31
0.0
  0
LINE
  5
337
330
1F
100
AcDbEntity
  8
0
  6
Continuous
100
AcDbLine
 10
37.39142544599999
 20
25.2772507955
 30
0.0
 11
37.39142544599999
 21
25.2730105087
 31
0.0
  0
LINE
  5
338
330
1F
100
AcDbEntity
  8
0
  6
Continuous
100
AcDbLine
 10
37.39142544599999
 20
25.2730105087
 30
0.0
 11
37.39142544599999
 21
24.9380105087
 31
0.0
  0
LINE
  5
339
330
1F
100
AcDbEntity
  8
0
  6
Continuous
100
AcDbLine
 10
37.39142544599999
 20
25.9380105087
 30
0.0
 11
37.516425446
 21
25.9380105087
 31
0.0
  0
LINE
  5
33A
330
1F
100
AcDbEntity
  8
0
  6
Continuous
100
AcDbLine
 10
37.39142544599999
 20
24.9380105087
 30
0.0
 11
37.516425446
 21
24.9380105087
 31
0.0
  0
LINE
  5
33B
330
1F
100
AcDbEntity
  8
0
  6
Continuous
100
AcDbLine
 10
37.091425446
 20
25.9380105087
 30
0.0
 11
37.091425446
 21
25.6030105087
 31
0.0
  0
LINE
  5
33C
330
1F
100
AcDbEntity
  8
0
  6
Continuous
100
AcDbLine
 10
37.091425446
 20
25.6030105087
 30
0.0
 11
37.091425446
 21
25.5987702219
 31
0.0
  0
LINE
  5
33D
330
1F
100
AcDbEntity
  8
0
  6
Continuous
100
AcDbLine
 10
37.091425446
 20
25.5987702219
 30
0.0
 11
37.091425446
 21
25.43801050869999
 31
0.0
  0
LINE
  5
33E
330
1F
100
AcDbEntity
  8
0
  6
Continuous
100
AcDbLine
 10
37.091425446
 20
25.43801050869999
 30
0.0
 11
37.091425446
 21
25.2772507955
 31
0.0
  0
LINE
  5
33F
330
1F
100
AcDbEntity
  8
0
  6
Continuous
100
AcDbLine
 10
37.091425446
 20
25.2772507955
 30
0.0
 11
37.091425446
 21
25.2730105087
 31
0.0
  0
LINE
  5
340
330
1F
100
AcDbEntity
  8
0
  6
Continuous
100
AcDbLine
 10
37.091425446
 20
25.2730105087
 30
0.0
 11
37.091425446
 21
24.9380105087
 31
0.0
  0
LINE
  5
341
330
1F
100
AcDbEntity
  8
0
  6
Continuous
100
AcDbLine
 10
36.966425446
 20
25.9380105087
 30
0.0
 11
36.966425446
 21
25.6030105087
 31
0.0
  0
LINE
  5
342
330
1F
100
AcDbEntity
  8
0
  6
Continuous
100
AcDbLine
 10
36.966425446
 20
25.6030105087
 30
0.0
 11
36.966425446
 21
25.5987702219
 31
0.0
  0
LINE
  5
343
330
1F
100
AcDbEntity
  8
0
  6
Continuous
100
AcDbLine
 10
36.966425446
 20
25.5987702219
 30
0.0
 11
36.966425446
 21
25.43801050869999
 31
0.0
  0
LINE
  5
344
330
1F
100
AcDbEntity
  8
0
  6
Continuous
100
AcDbLine
 10
36.966425446
 20
25.43801050869999
 30
0.0
 11
36.966425446
 21
25.2772507955
 31
0.0
  0
LINE
  5
345
330
1F
100
AcDbEntity
  8
0
  6
Continuous
100
AcDbLine
 10
36.966425446
 20
25.2772507955
 30
0.0
 11
36.966425446
 21
25.2730105087
 31
0.0
  0
LINE
  5
346
330
1F
100
AcDbEntity
  8
0
  6
Continuous
100
AcDbLine
 10
36.966425446
 20
25.2730105087
 30
0.0
 11
36.966425446
 21
24.9380105087
 31
0.0
  0
LINE
  5
347
330
1F
100
AcDbEntity
  8
0
  6
Continuous
100
AcDbLine
 10
36.966425446
 20
25.9380105087
 30
0.0
 11
37.091425446
 21
25.9380105087
 31
0.0
  0
LINE
  5
348
330
1F
100
AcDbEntity
  8
0
  6
Continuous
100
AcDbLine
 10
36.966425446
 20
24.9380105087
 30
0.0
 11
37.091425446
 21
24.9380105087
 31
0.0
  0
LINE
  5
349
330
1F
100
AcDbEntity
  8
0
  6
Continuous
100
AcDbLine
 10
37.091425446
 20
25.0630105087
 30
0.0
 11
37.39142544599999
 21
25.0630105087
 31
0.0
  0
LINE
  5
34A
330
1F
100
AcDbEntity
  8
0
  6
Continuous
100
AcDbLine
 10
37.091425446
 20
25.8130105087
 30
0.0
 11
37.39142544599999
 21
25.8130105087
 31
0.0
  0
LINE
  5
34B
330
1F
100
AcDbEntity
  8
0
  6
Continuous
100
AcDbLine
 10
10.88542544599999
 20
25.9380105087
 30
0.0
 11
10.88542544599999
 21
25.6030105087
 31
0.0
  0
LINE
  5
34C
330
1F
100
AcDbEntity
  8
0
  6
Continuous
100
AcDbLine
 10
10.88542544599999
 20
25.6030105087
 30
0.0
 11
10.88542544599999
 21
25.5987702219
 31
0.0
  0
LINE
  5
34D
330
1F
100
AcDbEntity
  8
0
  6
Continuous
100
AcDbLine
 10
10.88542544599999
 20
25.5987702219
 30
0.0
 11
10.88542544599999
 21
25.43801050869999
 31
0.0
  0
LINE
  5
34E
330
1F
100
AcDbEntity
  8
0
  6
Continuous
100
AcDbLine
 10
10.88542544599999
 20
25.43801050869999
 30
0.0
 11
10.88542544599999
 21
25.2772507955
 31
0.0
  0
LINE
  5
34F
330
1F
100
AcDbEntity
  8
0
  6
Continuous
100
AcDbLine
 10
10.88542544599999
 20
25.2772507955
 30
0.0
 11
10.88542544599999
 21
25.2730105087
 31
0.0
  0
LINE
  5
350
330
1F
100
AcDbEntity
  8
0
  6
Continuous
100
AcDbLine
 10
10.88542544599999
 20
25.2730105087
 30
0.0
 11
10.88542544599999
 21
24.9380105087
 31
0.0
  0
LINE
  5
351
330
1F
100
AcDbEntity
  8
0
  6
Continuous
100
AcDbLine
 10
10.635425446
 20
25.9380105087
 30
0.0
 11
10.635425446
 21
25.6030105087
 31
0.0
  0
LINE
  5
352
330
1F
100
AcDbEntity
  8
0
  6
Continuous
100
AcDbLine
 10
10.635425446
 20
25.6030105087
 30
0.0
 11
10.635425446
 21
25.5987702219
 31
0.0
  0
LINE
  5
353
330
1F
100
AcDbEntity
  8
0
  6
Continuous
100
AcDbLine
 10
10.635425446
 20
25.5987702219
 30
0.0
 11
10.635425446
 21
25.43801050869999
 31
0.0
  0
LINE
  5
354
330
1F
100
AcDbEntity
  8
0
  6
Continuous
100
AcDbLine
 10
10.635425446
 20
25.43801050869999
 30
0.0
 11
10.635425446
 21
25.2772507955
 31
0.0
  0
LINE
  5
355
330
1F
100
AcDbEntity
  8
0
  6
Continuous
100
AcDbLine
 10
10.635425446
 20
25.2772507955
 30
0.0
 11
10.635425446
 21
25.2730105087
 31
0.0
  0
LINE
  5
356
330
1F
100
AcDbEntity
  8
0
  6
Continuous
100
AcDbLine
 10
10.635425446
 20
25.2730105087
 30
0.0
 11
10.635425446
 21
24.9380105087
 31
0.0
  0
LINE
  5
357
330
1F
100
AcDbEntity
  8
0
  6
Continuous
100
AcDbLine
 10
10.635425446
 20
25.9380105087
 30
0.0
 11
10.88542544599999
 21
25.9380105087
 31
0.0
  0
LINE
  5
358
330
1F
100
AcDbEntity
  8
0
  6
Continuous
100
AcDbLine
 10
10.635425446
 20
24.9380105087
 30
0.0
 11
10.88542544599999
 21
24.9380105087
 31
0.0
  0
LINE
  5
359
330
1F
100
AcDbEntity
  8
0
  6
Continuous
100
AcDbLine
 10
37.7967404067
 20
25.2925364251
 30
0.0
 11
37.7967404067
 21
25.5834845923
 31
0.0
  0
LINE
  5
35A
330
1F
100
AcDbEntity
  8
0
  6
Continuous
100
AcDbLine
 10
37.7967404067
 20
25.5834845923
 30
0.0
 11
37.7967404067
 21
25.7289586759
 31
0.0
  0
LINE
  5
35B
330
1F
100
AcDbEntity
  8
0
  6
Continuous
100
AcDbLine
 10
37.7967404067
 20
25.1470623416
 30
0.0
 11
37.7967404067
 21
25.2925364251
 31
0.0
  0
LINE
  5
35C
330
1F
100
AcDbEntity
  8
0
  6
Continuous
100
AcDbLine
 10
37.7967404067
 20
25.7289586759
 30
0.0
 11
37.5951656035
 21
25.7289586759
 31
0.0
  0
LINE
  5
35D
330
1F
100
AcDbEntity
  8
0
  6
Continuous
100
AcDbLine
 10
37.7967404067
 20
25.1470623416
 30
0.0
 11
37.5951656035
 21
25.1470623416
 31
0.0
  0
LINE
  5
35E
330
1F
100
AcDbEntity
  8
0
  6
Continuous
100
AcDbLine
 10
37.7967404067
 20
25.5834845923
 30
0.0
 11
37.5951656035
 21
25.5834845923
 31
0.0
  0
LINE
  5
35F
330
1F
100
AcDbEntity
  8
0
  6
Continuous
100
AcDbLine
 10
37.7967404067
 20
25.2925364251
 30
0.0
 11
37.5951656035
 21
25.2925364251
 31
0.0
  0
LINE
  5
360
330
1F
100
AcDbEntity
  8
0
  6
Continuous
100
AcDbLine
 10
10.35511048539999
 20
25.5834845923
 30
0.0
 11
10.35511048539999
 21
25.2925364251
 31
0.0
  0
LINE
  5
361
330
1F
100
AcDbEntity
  8
0
  6
Continuous
100
AcDbLine
 10
10.35511048539999
 20
25.2925364251
 30
0.0
 11
10.35511048539999
 21
25.1470623416
 31
0.0
  0
LINE
  5
362
330
1F
100
AcDbEntity
  8
0
  6
Continuous
100
AcDbLine
 10
10.35511048539999
 20
25.7289586759
 30
0.0
 11
10.35511048539999
 21
25.5834845923
 31
0.0
  0
LINE
  5
363
330
1F
100
AcDbEntity
  8
0
  6
Continuous
100
AcDbLine
 10
10.35511048539999
 20
25.1470623416
 30
0.0
 11
10.5566852886
 21
25.1470623416
 31
0.0
  0
LINE
  5
364
330
1F
100
AcDbEntity
  8
0
  6
Continuous
100
AcDbLine
 10
10.35511048539999
 20
25.7289586759
 30
0.0
 11
10.5566852886
 21
25.7289586759
 31
0.0
  0
LINE
  5
365
330
1F
100
AcDbEntity
  8
0
  6
Continuous
100
AcDbLine
 10
10.35511048539999
 20
25.2925364251
 30
0.0
 11
10.5566852886
 21
25.2925364251
 31
0.0
  0
LINE
  5
366
330
1F
100
AcDbEntity
  8
0
  6
Continuous
100
AcDbLine
 10
10.35511048539999
 20
25.5834845923
 30
0.0
 11
10.5566852886
 21
25.5834845923
 31
0.0
  0
LINE
  5
367
330
1F
100
AcDbEntity
  8
0
  6
Continuous
100
AcDbLine
 10
36.966425446
 20
25.0630105087
 30
0.0
 11
10.88542544599999
 21
25.0630105087
 31
0.0
  0
LINE
  5
368
330
1F
100
AcDbEntity
  8
0
  6
Continuous
100
AcDbLine
 10
10.88542544599999
 20
25.8130105087
 30
0.0
 11
36.966425446
 21
25.8130105087
 31
0.0
  0
LINE
  5
369
330
1F
100
AcDbEntity
  8
0
  6
Continuous
100
AcDbLine
 10
61.96278186439999
 20
25.2925364251
 30
0.0
 11
61.96278186439999
 21
25.5834845923
 31
0.0
  0
LINE
  5
36A
330
1F
100
AcDbEntity
  8
0
  6
Continuous
100
AcDbLine
 10
61.96278186439999
 20
25.5834845923
 30
0.0
 11
62.2147503683
 21
25.7289586759
 31
0.0
  0
LINE
  5
36B
330
1F
100
AcDbEntity
  8
0
  6
Continuous
100
AcDbLine
 10
62.2147503683
 20
25.7289586759
 30
0.0
 11
62.46671887229999
 21
25.5834845923
 31
0.0
  0
LINE
  5
36C
330
1F
100
AcDbEntity
  8
0
  6
Continuous
100
AcDbLine
 10
62.46671887229999
 20
25.5834845923
 30
0.0
 11
62.46671887229999
 21
25.2925364251
 31
0.0
  0
LINE
  5
36D
330
1F
100
AcDbEntity
  8
0
  6
Continuous
100
AcDbLine
 10
62.46671887229999
 20
25.2925364251
 30
0.0
 11
62.2147503683
 21
25.1470623416
 31
0.0
  0
LINE
  5
36E
330
1F
100
AcDbEntity
  8
0
  6
Continuous
100
AcDbLine
 10
62.2147503683
 20
25.1470623416
 30
0.0
 11
61.96278186439999
 21
25.2925364251
 31
0.0
  0
LINE
  5
36F
330
1F
100
AcDbEntity
  8
0
  6
Continuous
100
AcDbLine
 10
60.58778186439999
 20
25.2925364251
 30
0.0
 11
60.58778186439999
 21
25.5834845923
 31
0.0
  0
LINE
  5
370
330
1F
100
AcDbEntity
  8
0
  6
Continuous
100
AcDbLine
 10
60.58778186439999
 20
25.5834845923
 30
0.0
 11
60.8397503683
 21
25.7289586759
 31
0.0
  0
LINE
  5
371
330
1F
100
AcDbEntity
  8
0
  6
Continuous
100
AcDbLine
 10
60.8397503683
 20
25.7289586759
 30
0.0
 11
61.09171887229999
 21
25.5834845923
 31
0.0
  0
LINE
  5
372
330
1F
100
AcDbEntity
  8
0
  6
Continuous
100
AcDbLine
 10
61.09171887229999
 20
25.5834845923
 30
0.0
 11
61.09171887229999
 21
25.2925364251
 31
0.0
  0
LINE
  5
373
330
1F
100
AcDbEntity
  8
0
  6
Continuous
100
AcDbLine
 10
61.09171887229999
 20
25.2925364251
 30
0.0
 11
60.8397503683
 21
25.1470623416
 31
0.0
  0
LINE
  5
374
330
1F
100
AcDbEntity
  8
0
  6
Continuous
100
AcDbLine
 10
60.8397503683
 20
25.1470623416
 30
0.0
 11
60.58778186439999
 21
25.2925364251
 31
0.0
  0
LINE
  5
375
330
1F
100
AcDbEntity
  8
0
  6
Continuous
100
AcDbLine
 10
62.1997503683
 20
25.7289626865
 30
0.0
 11
62.1997503683
 21
25.7202984218
 31
0.0
  0
LINE
  5
376
330
1F
100
AcDbEntity
  8
0
  6
Continuous
100
AcDbLine
 10
62.2297503683
 20
25.7289626865
 30
0.0
 11
62.2297503683
 21
25.7202984218
 31
0.0
  0
ARC
  5
377
330
1F
100
AcDbEntity
  8
0
  6
Continuous
100
AcDbCircle
 10
62.2147503683
 20
25.43801050869999
 30
0.0
 40
0.2913385827
100
AcDbArc
 50
92.9512632551
 51
149.9982408536
  0
ARC
  5
378
330
1F
100
AcDbEntity
  8
0
  6
Continuous
100
AcDbCircle
 10
62.2147503683
 20
25.43801050869999
 30
0.0
 40
0.2913385827
100
AcDbArc
 50
149.9982408536
 51
150.6542920983
  0
ARC
  5
379
330
1F
100
AcDbEntity
  8
0
  6
Continuous
100
AcDbCircle
 10
62.2147503683
 20
25.43801050869999
 30
0.0
 40
0.2913385827
100
AcDbArc
 50
150.6542920983
 51
210.0009040071999
  0
ARC
  5
37A
330
1F
100
AcDbEntity
  8
0
  6
Continuous
100
AcDbCircle
 10
62.2147503683
 20
25.43801050869999
 30
0.0
 40
0.2913385827
100
AcDbArc
 50
210.0009040071999
 51
270.0
  0
ARC
  5
37B
330
1F
100
AcDbEntity
  8
0
  6
Continuous
100
AcDbCircle
 10
62.2147503683
 20
25.43801050869999
 30
0.0
 40
0.2913385827
100
AcDbArc
 50
270.0
 51
273.9345743164
  0
ARC
  5
37C
330
1F
100
AcDbEntity
  8
0
  6
Continuous
100
AcDbCircle
 10
62.2147503683
 20
25.43801050869999
 30
0.0
 40
0.2913385827
100
AcDbArc
 50
273.9345743164
 51
329.9990959927999
  0
ARC
  5
37D
330
1F
100
AcDbEntity
  8
0
  6
Continuous
100
AcDbCircle
 10
62.2147503683
 20
25.43801050869999
 30
0.0
 40
0.2913385827
100
AcDbArc
 50
329.9990959927999
 51
29.34570790169999
  0
ARC
  5
37E
330
1F
100
AcDbEntity
  8
0
  6
Continuous
100
AcDbCircle
 10
62.2147503683
 20
25.43801050869999
 30
0.0
 40
0.2913385827
100
AcDbArc
 50
29.34570790169999
 51
30.00175914639999
  0
ARC
  5
37F
330
1F
100
AcDbEntity
  8
0
  6
Continuous
100
AcDbCircle
 10
62.2147503683
 20
25.43801050869999
 30
0.0
 40
0.2913385827
100
AcDbArc
 50
30.00175914639999
 51
87.0487367449
  0
LINE
  5
380
330
1F
100
AcDbEntity
  8
0
  6
Continuous
100
AcDbLine
 10
60.8247503683
 20
25.7289626865
 30
0.0
 11
60.8247503683
 21
25.7202984218
 31
0.0
  0
LINE
  5
381
330
1F
100
AcDbEntity
  8
0
  6
Continuous
100
AcDbLine
 10
60.8547503683
 20
25.7289626865
 30
0.0
 11
60.8547503683
 21
25.7202984218
 31
0.0
  0
ARC
  5
382
330
1F
100
AcDbEntity
  8
0
  6
Continuous
100
AcDbCircle
 10
60.8397503683
 20
25.43801050869999
 30
0.0
 40
0.2913385827
100
AcDbArc
 50
92.9512632551
 51
149.9982408536
  0
ARC
  5
383
330
1F
100
AcDbEntity
  8
0
  6
Continuous
100
AcDbCircle
 10
60.8397503683
 20
25.43801050869999
 30
0.0
 40
0.2913385827
100
AcDbArc
 50
149.9982408536
 51
150.6542920983
  0
ARC
  5
384
330
1F
100
AcDbEntity
  8
0
  6
Continuous
100
AcDbCircle
 10
60.8397503683
 20
25.43801050869999
 30
0.0
 40
0.2913385827
100
AcDbArc
 50
150.6542920983
 51
210.0009040071999
  0
ARC
  5
385
330
1F
100
AcDbEntity
  8
0
  6
Continuous
100
AcDbCircle
 10
60.8397503683
 20
25.43801050869999
 30
0.0
 40
0.2913385827
100
AcDbArc
 50
210.0009040071999
 51
270.0
  0
ARC
  5
386
330
1F
100
AcDbEntity
  8
0
  6
Continuous
100
AcDbCircle
 10
60.8397503683
 20
25.43801050869999
 30
0.0
 40
0.2913385827
100
AcDbArc
 50
270.0
 51
273.9345743164
  0
ARC
  5
387
330
1F
100
AcDbEntity
  8
0
  6
Continuous
100
AcDbCircle
 10
60.8397503683
 20
25.43801050869999
 30
0.0
 40
0.2913385827
100
AcDbArc
 50
273.9345743164
 51
329.9990959927999
  0
ARC
  5
388
330
1F
100
AcDbEntity
  8
0
  6
Continuous
100
AcDbCircle
 10
60.8397503683
 20
25.43801050869999
 30
0.0
 40
0.2913385827
100
AcDbArc
 50
329.9990959927999
 51
29.34570790169999
  0
ARC
  5
389
330
1F
100
AcDbEntity
  8
0
  6
Continuous
100
AcDbCircle
 10
60.8397503683
 20
25.43801050869999
 30
0.0
 40
0.2913385827
100
AcDbArc
 50
29.34570790169999
 51
30.00175914639999
  0
ARC
  5
38A
330
1F
100
AcDbEntity
  8
0
  6
Continuous
100
AcDbCircle
 10
60.8397503683
 20
25.43801050869999
 30
0.0
 40
0.2913385827
100
AcDbArc
 50
30.00175914639999
 51
87.0487367449
  0
LINE
  5
38B
330
1F
100
AcDbEntity
  8
0
  6
Continuous
100
AcDbLine
 10
62.6472503683
 20
25.9380105087
 30
0.0
 11
58.7772503683
 21
25.9380105087
 31
0.0
  0
ARC
  5
38C
330
1F
100
AcDbEntity
  8
0
  6
Continuous
100
AcDbCircle
 10
58.7772503683
 20
25.43801050869999
 30
0.0
 40
0.5
100
AcDbArc
 50
90.0
 51
270.0
  0
LINE
  5
38D
330
1F
100
AcDbEntity
  8
0
  6
Continuous
100
AcDbLine
 10
58.7772503683
 20
24.9380105087
 30
0.0
 11
62.6472503683
 21
24.9380105087
 31
0.0
  0
ARC
  5
38E
330
1F
100
AcDbEntity
  8
0
  6
Continuous
100
AcDbCircle
 10
62.6472503683
 20
25.0680105087
 30
0.0
 40
0.13
100
AcDbArc
 50
270.0
 51
360.0
  0
LINE
  5
38F
330
1F
100
AcDbEntity
  8
0
  6
Continuous
100
AcDbLine
 10
62.7772503683
 20
25.0680105087
 30
0.0
 11
62.7772503683
 21
25.80801050869999
 31
0.0
  0
ARC
  5
390
330
1F
100
AcDbEntity
  8
0
  6
Continuous
100
AcDbCircle
 10
62.6472503683
 20
25.80801050869999
 30
0.0
 40
0.13
100
AcDbArc
 50
0.0
 51
90.0
  0
ARC
  5
391
330
1F
100
AcDbEntity
  8
0
  6
Continuous
100
AcDbCircle
 10
58.7772503683
 20
25.43801050869999
 30
0.0
 40
0.165
100
AcDbArc
 50
0.0
 51
180.0
  0
ARC
  5
392
330
1F
100
AcDbEntity
  8
0
  6
Continuous
100
AcDbCircle
 10
58.7772503683
 20
25.43801050869999
 30
0.0
 40
0.165
100
AcDbArc
 50
180.0
 51
360.0
  0
LINE
  5
393
330
1F
100
AcDbEntity
  8
0
  6
Continuous
100
AcDbLine
 10
37.5951656035
 20
46.5720163602
 30
0.0
 11
37.5951656035
 21
46.4196958995
 31
0.0
  0
LINE
  5
394
330
1F
100
AcDbEntity
  8
0
  6
Continuous
100
AcDbLine
 10
37.5951656035
 20
46.4196958995
 30
0.0
 11
37.5951656035
 21
46.4137880137
 31
0.0
  0
LINE
  5
395
330
1F
100
AcDbEntity
  8
0
  6
Continuous
100
AcDbLine
 10
37.5951656035
 20
46.4137880137
 30
0.0
 11
37.5951656035
 21
46.3350478562
 31
0.0
  0
LINE
  5
396
330
1F
100
AcDbEntity
  8
0
  6
Continuous
100
AcDbLine
 10
37.5951656035
 20
46.3350478562
 30
0.0
 11
37.5951656035
 21
46.2956779204
 31
0.0
  0
LINE
  5
397
330
1F
100
AcDbEntity
  8
0
  6
Continuous
100
AcDbLine
 10
37.516425446
 20
46.6020163602
 30
0.0
 11
37.5951656035
 21
46.6020163602
 31
0.0
  0
LINE
  5
398
330
1F
100
AcDbEntity
  8
0
  6
Continuous
100
AcDbLine
 10
37.516425446
 20
46.5720163602
 30
0.0
 11
37.5951656035
 21
46.5720163602
 31
0.0
  0
LINE
  5
399
330
1F
100
AcDbEntity
  8
0
  6
Continuous
100
AcDbLine
 10
37.516425446
 20
46.2956777775
 30
0.0
 11
37.5951656035
 21
46.2956777775
 31
0.0
  0
LINE
  5
39A
330
1F
100
AcDbEntity
  8
0
  6
Continuous
100
AcDbLine
 10
37.5951656035
 20
46.87835479989999
 30
0.0
 11
37.5951656035
 21
46.8389848641
 31
0.0
  0
LINE
  5
39B
330
1F
100
AcDbEntity
  8
0
  6
Continuous
100
AcDbLine
 10
37.5951656035
 20
46.8389848641
 30
0.0
 11
37.5951656035
 21
46.76024470659999
 31
0.0
  0
LINE
  5
39C
330
1F
100
AcDbEntity
  8
0
  6
Continuous
100
AcDbLine
 10
37.5951656035
 20
46.76024470659999
 30
0.0
 11
37.5951656035
 21
46.7543368209
 31
0.0
  0
LINE
  5
39D
330
1F
100
AcDbEntity
  8
0
  6
Continuous
100
AcDbLine
 10
37.5951656035
 20
46.7543368209
 30
0.0
 11
37.5951656035
 21
46.7370365088
 31
0.0
  0
LINE
  5
39E
330
1F
100
AcDbEntity
  8
0
  6
Continuous
100
AcDbLine
 10
37.5951656035
 20
46.7370365088
 30
0.0
 11
37.5951656035
 21
46.6020163602
 31
0.0
  0
LINE
  5
39F
330
1F
100
AcDbEntity
  8
0
  6
Continuous
100
AcDbLine
 10
37.516425446
 20
46.87835494279999
 30
0.0
 11
37.5951656035
 21
46.87835494279999
 31
0.0
  0
LINE
  5
3A0
330
1F
100
AcDbEntity
  8
0
  6
Continuous
100
AcDbLine
 10
37.5951656035
 20
45.1970163602
 30
0.0
 11
37.5951656035
 21
45.0446958995
 31
0.0
  0
LINE
  5
3A1
330
1F
100
AcDbEntity
  8
0
  6
Continuous
100
AcDbLine
 10
37.5951656035
 20
45.0446958995
 30
0.0
 11
37.5951656035
 21
45.03878801369999
 31
0.0
  0
LINE
  5
3A2
330
1F
100
AcDbEntity
  8
0
  6
Continuous
100
AcDbLine
 10
37.5951656035
 20
45.03878801369999
 30
0.0
 11
37.5951656035
 21
44.9600478562
 31
0.0
  0
LINE
  5
3A3
330
1F
100
AcDbEntity
  8
0
  6
Continuous
100
AcDbLine
 10
37.5951656035
 20
44.9600478562
 30
0.0
 11
37.5951656035
 21
44.9206779204
 31
0.0
  0
LINE
  5
3A4
330
1F
100
AcDbEntity
  8
0
  6
Continuous
100
AcDbLine
 10
37.516425446
 20
45.2270163602
 30
0.0
 11
37.5951656035
 21
45.2270163602
 31
0.0
  0
LINE
  5
3A5
330
1F
100
AcDbEntity
  8
0
  6
Continuous
100
AcDbLine
 10
37.516425446
 20
45.1970163602
 30
0.0
 11
37.5951656035
 21
45.1970163602
 31
0.0
  0
LINE
  5
3A6
330
1F
100
AcDbEntity
  8
0
  6
Continuous
100
AcDbLine
 10
37.516425446
 20
44.9206777775
 30
0.0
 11
37.5951656035
 21
44.9206777775
 31
0.0
  0
LINE
  5
3A7
330
1F
100
AcDbEntity
  8
0
  6
Continuous
100
AcDbLine
 10
37.5951656035
 20
45.50335479989999
 30
0.0
 11
37.5951656035
 21
45.4639848641
 31
0.0
  0
LINE
  5
3A8
330
1F
100
AcDbEntity
  8
0
  6
Continuous
100
AcDbLine
 10
37.5951656035
 20
45.4639848641
 30
0.0
 11
37.5951656035
 21
45.38524470659999
 31
0.0
  0
LINE
  5
3A9
330
1F
100
AcDbEntity
  8
0
  6
Continuous
100
AcDbLine
 10
37.5951656035
 20
45.38524470659999
 30
0.0
 11
37.5951656035
 21
45.3793368209
 31
0.0
  0
LINE
  5
3AA
330
1F
100
AcDbEntity
  8
0
  6
Continuous
100
AcDbLine
 10
37.5951656035
 20
45.3793368209
 30
0.0
 11
37.5951656035
 21
45.3620365088
 31
0.0
  0
LINE
  5
3AB
330
1F
100
AcDbEntity
  8
0
  6
Continuous
100
AcDbLine
 10
37.5951656035
 20
45.3620365088
 30
0.0
 11
37.5951656035
 21
45.2270163602
 31
0.0
  0
LINE
  5
3AC
330
1F
100
AcDbEntity
  8
0
  6
Continuous
100
AcDbLine
 10
37.516425446
 20
45.50335494279999
 30
0.0
 11
37.5951656035
 21
45.50335494279999
 31
0.0
  0
LINE
  5
3AD
330
1F
100
AcDbEntity
  8
0
  6
Continuous
100
AcDbLine
 10
10.635425446
 20
46.87835494279999
 30
0.0
 11
10.5566852886
 21
46.87835494279999
 31
0.0
  0
LINE
  5
3AE
330
1F
100
AcDbEntity
  8
0
  6
Continuous
100
AcDbLine
 10
10.5566852886
 20
46.2956779204
 30
0.0
 11
10.5566852886
 21
46.3350478562
 31
0.0
  0
LINE
  5
3AF
330
1F
100
AcDbEntity
  8
0
  6
Continuous
100
AcDbLine
 10
10.5566852886
 20
46.3350478562
 30
0.0
 11
10.5566852886
 21
46.3372475977
 31
0.0
  0
LINE
  5
3B0
330
1F
100
AcDbEntity
  8
0
  6
Continuous
100
AcDbLine
 10
10.5566852886
 20
46.3372475977
 30
0.0
 11
10.5566852886
 21
46.4137880137
 31
0.0
  0
LINE
  5
3B1
330
1F
100
AcDbEntity
  8
0
  6
Continuous
100
AcDbLine
 10
10.5566852886
 20
46.4137880137
 30
0.0
 11
10.5566852886
 21
46.4196958995
 31
0.0
  0
LINE
  5
3B2
330
1F
100
AcDbEntity
  8
0
  6
Continuous
100
AcDbLine
 10
10.5566852886
 20
46.4196958995
 30
0.0
 11
10.5566852886
 21
46.43699621149999
 31
0.0
  0
LINE
  5
3B3
330
1F
100
AcDbEntity
  8
0
  6
Continuous
100
AcDbLine
 10
10.5566852886
 20
46.43699621149999
 30
0.0
 11
10.5566852886
 21
46.5720163602
 31
0.0
  0
LINE
  5
3B4
330
1F
100
AcDbEntity
  8
0
  6
Continuous
100
AcDbLine
 10
10.5566852886
 20
46.5720163602
 30
0.0
 11
10.5566852886
 21
46.5870163602
 31
0.0
  0
LINE
  5
3B5
330
1F
100
AcDbEntity
  8
0
  6
Continuous
100
AcDbLine
 10
10.5566852886
 20
46.5870163602
 30
0.0
 11
10.5566852886
 21
46.6020163602
 31
0.0
  0
LINE
  5
3B6
330
1F
100
AcDbEntity
  8
0
  6
Continuous
100
AcDbLine
 10
10.5566852886
 20
46.6020163602
 30
0.0
 11
10.5566852886
 21
46.7543368209
 31
0.0
  0
LINE
  5
3B7
330
1F
100
AcDbEntity
  8
0
  6
Continuous
100
AcDbLine
 10
10.5566852886
 20
46.7543368209
 30
0.0
 11
10.5566852886
 21
46.76024470659999
 31
0.0
  0
LINE
  5
3B8
330
1F
100
AcDbEntity
  8
0
  6
Continuous
100
AcDbLine
 10
10.5566852886
 20
46.76024470659999
 30
0.0
 11
10.5566852886
 21
46.83678512260001
 31
0.0
  0
LINE
  5
3B9
330
1F
100
AcDbEntity
  8
0
  6
Continuous
100
AcDbLine
 10
10.5566852886
 20
46.83678512260001
 30
0.0
 11
10.5566852886
 21
46.8389848641
 31
0.0
  0
LINE
  5
3BA
330
1F
100
AcDbEntity
  8
0
  6
Continuous
100
AcDbLine
 10
10.5566852886
 20
46.8389848641
 30
0.0
 11
10.5566852886
 21
46.87835479989999
 31
0.0
  0
LINE
  5
3BB
330
1F
100
AcDbEntity
  8
0
  6
Continuous
100
AcDbLine
 10
10.635425446
 20
46.2956777775
 30
0.0
 11
10.5566852886
 21
46.2956777775
 31
0.0
  0
LINE
  5
3BC
330
1F
100
AcDbEntity
  8
0
  6
Continuous
100
AcDbLine
 10
10.635425446
 20
45.50335494279999
 30
0.0
 11
10.5566852886
 21
45.50335494279999
 31
0.0
  0
LINE
  5
3BD
330
1F
100
AcDbEntity
  8
0
  6
Continuous
100
AcDbLine
 10
10.5566852886
 20
44.9206779204
 30
0.0
 11
10.5566852886
 21
44.9600478562
 31
0.0
  0
LINE
  5
3BE
330
1F
100
AcDbEntity
  8
0
  6
Continuous
100
AcDbLine
 10
10.5566852886
 20
44.9600478562
 30
0.0
 11
10.5566852886
 21
44.9622475977
 31
0.0
  0
LINE
  5
3BF
330
1F
100
AcDbEntity
  8
0
  6
Continuous
100
AcDbLine
 10
10.5566852886
 20
44.9622475977
 30
0.0
 11
10.5566852886
 21
45.03878801369999
 31
0.0
  0
LINE
  5
3C0
330
1F
100
AcDbEntity
  8
0
  6
Continuous
100
AcDbLine
 10
10.5566852886
 20
45.03878801369999
 30
0.0
 11
10.5566852886
 21
45.0446958995
 31
0.0
  0
LINE
  5
3C1
330
1F
100
AcDbEntity
  8
0
  6
Continuous
100
AcDbLine
 10
10.5566852886
 20
45.0446958995
 30
0.0
 11
10.5566852886
 21
45.06199621149999
 31
0.0
  0
LINE
  5
3C2
330
1F
100
AcDbEntity
  8
0
  6
Continuous
100
AcDbLine
 10
10.5566852886
 20
45.06199621149999
 30
0.0
 11
10.5566852886
 21
45.1970163602
 31
0.0
  0
LINE
  5
3C3
330
1F
100
AcDbEntity
  8
0
  6
Continuous
100
AcDbLine
 10
10.5566852886
 20
45.1970163602
 30
0.0
 11
10.5566852886
 21
45.2120163602
 31
0.0
  0
LINE
  5
3C4
330
1F
100
AcDbEntity
  8
0
  6
Continuous
100
AcDbLine
 10
10.5566852886
 20
45.2120163602
 30
0.0
 11
10.5566852886
 21
45.2270163602
 31
0.0
  0
LINE
  5
3C5
330
1F
100
AcDbEntity
  8
0
  6
Continuous
100
AcDbLine
 10
10.5566852886
 20
45.2270163602
 30
0.0
 11
10.5566852886
 21
45.3793368209
 31
0.0
  0
LINE
  5
3C6
330
1F
100
AcDbEntity
  8
0
  6
Continuous
100
AcDbLine
 10
10.5566852886
 20
45.3793368209
 30
0.0
 11
10.5566852886
 21
45.38524470659999
 31
0.0
  0
LINE
  5
3C7
330
1F
100
AcDbEntity
  8
0
  6
Continuous
100
AcDbLine
 10
10.5566852886
 20
45.38524470659999
 30
0.0
 11
10.5566852886
 21
45.4617851226
 31
0.0
  0
LINE
  5
3C8
330
1F
100
AcDbEntity
  8
0
  6
Continuous
100
AcDbLine
 10
10.5566852886
 20
45.4617851226
 30
0.0
 11
10.5566852886
 21
45.4639848641
 31
0.0
  0
LINE
  5
3C9
330
1F
100
AcDbEntity
  8
0
  6
Continuous
100
AcDbLine
 10
10.5566852886
 20
45.4639848641
 30
0.0
 11
10.5566852886
 21
45.50335479989999
 31
0.0
  0
LINE
  5
3CA
330
1F
100
AcDbEntity
  8
0
  6
Continuous
100
AcDbLine
 10
10.635425446
 20
44.9206777775
 30
0.0
 11
10.5566852886
 21
44.9206777775
 31
0.0
  0
LINE
  5
3CB
330
1F
100
AcDbEntity
  8
0
  6
Continuous
100
AcDbLine
 10
37.091425446
 20
46.2120163602
 30
0.0
 11
37.39142544599999
 21
46.2120163602
 31
0.0
  0
LINE
  5
3CC
330
1F
100
AcDbEntity
  8
0
  6
Continuous
100
AcDbLine
 10
37.091425446
 20
46.9620163602
 30
0.0
 11
37.39142544599999
 21
46.9620163602
 31
0.0
  0
LINE
  5
3CD
330
1F
100
AcDbEntity
  8
0
  6
Continuous
100
AcDbLine
 10
37.091425446
 20
46.2120163602
 30
0.0
 11
37.39142544599999
 21
46.2120163602
 31
0.0
  0
LINE
  5
3CE
330
1F
100
AcDbEntity
  8
0
  6
Continuous
100
AcDbLine
 10
37.091425446
 20
46.9620163602
 30
0.0
 11
37.39142544599999
 21
46.9620163602
 31
0.0
  0
LINE
  5
3CF
330
1F
100
AcDbEntity
  8
0
  6
Continuous
100
AcDbLine
 10
37.091425446
 20
44.8370163602
 30
0.0
 11
37.39142544599999
 21
44.8370163602
 31
0.0
  0
LINE
  5
3D0
330
1F
100
AcDbEntity
  8
0
  6
Continuous
100
AcDbLine
 10
37.091425446
 20
45.5870163602
 30
0.0
 11
37.39142544599999
 21
45.5870163602
 31
0.0
  0
LINE
  5
3D1
330
1F
100
AcDbEntity
  8
0
  6
Continuous
100
AcDbLine
 10
37.091425446
 20
44.8370163602
 30
0.0
 11
37.39142544599999
 21
44.8370163602
 31
0.0
  0
LINE
  5
3D2
330
1F
100
AcDbEntity
  8
0
  6
Continuous
100
AcDbLine
 10
37.091425446
 20
45.5870163602
 30
0.0
 11
37.39142544599999
 21
45.5870163602
 31
0.0
  0
LINE
  5
3D3
330
1F
100
AcDbEntity
  8
0
  6
Continuous
100
AcDbLine
 10
37.7967404067
 20
46.3350478562
 30
0.0
 11
37.7967404067
 21
46.5870163602
 31
0.0
  0
LINE
  5
3D4
330
1F
100
AcDbEntity
  8
0
  6
Continuous
100
AcDbLine
 10
37.7967404067
 20
46.5870163602
 30
0.0
 11
37.7967404067
 21
46.8389848641
 31
0.0
  0
LINE
  5
3D5
330
1F
100
AcDbEntity
  8
0
  6
Continuous
100
AcDbLine
 10
37.5951656035
 20
46.5870163602
 30
0.0
 11
37.5951656035
 21
46.6020163602
 31
0.0
  0
LINE
  5
3D6
330
1F
100
AcDbEntity
  8
0
  6
Continuous
100
AcDbLine
 10
37.5951656035
 20
46.5720163602
 30
0.0
 11
37.5951656035
 21
46.5870163602
 31
0.0
  0
LINE
  5
3D7
330
1F
100
AcDbEntity
  8
0
  6
Continuous
100
AcDbLine
 10
37.7967404067
 20
46.3350478562
 30
0.0
 11
37.5951656035
 21
46.3350478562
 31
0.0
  0
LINE
  5
3D8
330
1F
100
AcDbEntity
  8
0
  6
Continuous
100
AcDbLine
 10
37.7967404067
 20
46.8389848641
 30
0.0
 11
37.5951656035
 21
46.8389848641
 31
0.0
  0
LINE
  5
3D9
330
1F
100
AcDbEntity
  8
0
  6
Continuous
100
AcDbLine
 10
37.7967404067
 20
46.5870163602
 30
0.0
 11
37.5951656035
 21
46.5870163602
 31
0.0
  0
LINE
  5
3DA
330
1F
100
AcDbEntity
  8
0
  6
Continuous
100
AcDbLine
 10
37.7967404067
 20
44.9600478562
 30
0.0
 11
37.7967404067
 21
45.2120163602
 31
0.0
  0
LINE
  5
3DB
330
1F
100
AcDbEntity
  8
0
  6
Continuous
100
AcDbLine
 10
37.7967404067
 20
45.2120163602
 30
0.0
 11
37.7967404067
 21
45.4639848641
 31
0.0
  0
LINE
  5
3DC
330
1F
100
AcDbEntity
  8
0
  6
Continuous
100
AcDbLine
 10
37.5951656035
 20
45.2120163602
 30
0.0
 11
37.5951656035
 21
45.2270163602
 31
0.0
  0
LINE
  5
3DD
330
1F
100
AcDbEntity
  8
0
  6
Continuous
100
AcDbLine
 10
37.5951656035
 20
45.1970163602
 30
0.0
 11
37.5951656035
 21
45.2120163602
 31
0.0
  0
LINE
  5
3DE
330
1F
100
AcDbEntity
  8
0
  6
Continuous
100
AcDbLine
 10
37.7967404067
 20
44.9600478562
 30
0.0
 11
37.5951656035
 21
44.9600478562
 31
0.0
  0
LINE
  5
3DF
330
1F
100
AcDbEntity
  8
0
  6
Continuous
100
AcDbLine
 10
37.7967404067
 20
45.4639848641
 30
0.0
 11
37.5951656035
 21
45.4639848641
 31
0.0
  0
LINE
  5
3E0
330
1F
100
AcDbEntity
  8
0
  6
Continuous
100
AcDbLine
 10
37.7967404067
 20
45.2120163602
 30
0.0
 11
37.5951656035
 21
45.2120163602
 31
0.0
  0
LINE
  5
3E1
330
1F
100
AcDbEntity
  8
0
  6
Continuous
100
AcDbLine
 10
10.35511048539999
 20
46.8389848641
 30
0.0
 11
10.35511048539999
 21
46.5870163602
 31
0.0
  0
LINE
  5
3E2
330
1F
100
AcDbEntity
  8
0
  6
Continuous
100
AcDbLine
 10
10.35511048539999
 20
46.5870163602
 30
0.0
 11
10.35511048539999
 21
46.3350478562
 31
0.0
  0
LINE
  5
3E3
330
1F
100
AcDbEntity
  8
0
  6
Continuous
100
AcDbLine
 10
10.35511048539999
 20
46.3350478562
 30
0.0
 11
10.5566852886
 21
46.3350478562
 31
0.0
  0
LINE
  5
3E4
330
1F
100
AcDbEntity
  8
0
  6
Continuous
100
AcDbLine
 10
10.35511048539999
 20
46.8389848641
 30
0.0
 11
10.5566852886
 21
46.8389848641
 31
0.0
  0
LINE
  5
3E5
330
1F
100
AcDbEntity
  8
0
  6
Continuous
100
AcDbLine
 10
10.35511048539999
 20
46.5870163602
 30
0.0
 11
10.5566852886
 21
46.5870163602
 31
0.0
  0
LINE
  5
3E6
330
1F
100
AcDbEntity
  8
0
  6
Continuous
100
AcDbLine
 10
10.35511048539999
 20
45.4639848641
 30
0.0
 11
10.35511048539999
 21
45.2120163602
 31
0.0
  0
LINE
  5
3E7
330
1F
100
AcDbEntity
  8
0
  6
Continuous
100
AcDbLine
 10
10.35511048539999
 20
45.2120163602
 30
0.0
 11
10.35511048539999
 21
44.9600478562
 31
0.0
  0
LINE
  5
3E8
330
1F
100
AcDbEntity
  8
0
  6
Continuous
100
AcDbLine
 10
10.35511048539999
 20
44.9600478562
 30
0.0
 11
10.5566852886
 21
44.9600478562
 31
0.0
  0
LINE
  5
3E9
330
1F
100
AcDbEntity
  8
0
  6
Continuous
100
AcDbLine
 10
10.35511048539999
 20
45.4639848641
 30
0.0
 11
10.5566852886
 21
45.4639848641
 31
0.0
  0
LINE
  5
3EA
330
1F
100
AcDbEntity
  8
0
  6
Continuous
100
AcDbLine
 10
10.35511048539999
 20
45.2120163602
 30
0.0
 11
10.5566852886
 21
45.2120163602
 31
0.0
  0
LINE
  5
3EB
330
1F
100
AcDbEntity
  8
0
  6
Continuous
100
AcDbLine
 10
37.39142544599999
 20
47.01951636020001
 30
0.0
 11
37.39142544599999
 21
47.1495163602
 31
0.0
  0
LINE
  5
3EC
330
1F
100
AcDbEntity
  8
0
  6
Continuous
100
AcDbLine
 10
37.39142544599999
 20
47.01951636020001
 30
0.0
 11
37.39142544599999
 21
43.1495163602
 31
0.0
  0
LINE
  5
3ED
330
1F
100
AcDbEntity
  8
0
  6
Continuous
100
AcDbLine
 10
37.39142544599999
 20
43.1495163602
 30
0.0
 11
37.39142544599999
 21
42.98875664699999
 31
0.0
  0
LINE
  5
3EE
330
1F
100
AcDbEntity
  8
0
  6
Continuous
100
AcDbLine
 10
37.39142544599999
 20
42.98875664699999
 30
0.0
 11
37.39142544599999
 21
42.9845163602
 31
0.0
  0
LINE
  5
3EF
330
1F
100
AcDbEntity
  8
0
  6
Continuous
100
AcDbLine
 10
37.39142544599999
 20
42.9845163602
 30
0.0
 11
37.39142544599999
 21
42.6495163602
 31
0.0
  0
LINE
  5
3F0
330
1F
100
AcDbEntity
  8
0
  6
Continuous
100
AcDbLine
 10
37.39142544599999
 20
42.6495163602
 30
0.0
 11
37.516425446
 21
42.6495163602
 31
0.0
  0
LINE
  5
3F1
330
1F
100
AcDbEntity
  8
0
  6
Continuous
100
AcDbLine
 10
37.516425446
 20
47.1495163602
 30
0.0
 11
37.516425446
 21
47.01951636020001
 31
0.0
  0
LINE
  5
3F2
330
1F
100
AcDbEntity
  8
0
  6
Continuous
100
AcDbLine
 10
37.516425446
 20
47.1495163602
 30
0.0
 11
37.39142544599999
 21
47.1495163602
 31
0.0
  0
LINE
  5
3F3
330
1F
100
AcDbEntity
  8
0
  6
Continuous
100
AcDbLine
 10
37.516425446
 20
47.01951636020001
 30
0.0
 11
37.516425446
 21
43.1495163602
 31
0.0
  0
LINE
  5
3F4
330
1F
100
AcDbEntity
  8
0
  6
Continuous
100
AcDbLine
 10
37.516425446
 20
43.1495163602
 30
0.0
 11
37.516425446
 21
42.98875664699999
 31
0.0
  0
LINE
  5
3F5
330
1F
100
AcDbEntity
  8
0
  6
Continuous
100
AcDbLine
 10
37.516425446
 20
42.98875664699999
 30
0.0
 11
37.516425446
 21
42.9845163602
 31
0.0
  0
LINE
  5
3F6
330
1F
100
AcDbEntity
  8
0
  6
Continuous
100
AcDbLine
 10
37.516425446
 20
42.9845163602
 30
0.0
 11
37.516425446
 21
42.6495163602
 31
0.0
  0
LINE
  5
3F7
330
1F
100
AcDbEntity
  8
0
  6
Continuous
100
AcDbLine
 10
36.966425446
 20
47.01951636020001
 30
0.0
 11
36.966425446
 21
47.04844408159999
 31
0.0
  0
LINE
  5
3F8
330
1F
100
AcDbEntity
  8
0
  6
Continuous
100
AcDbLine
 10
36.966425446
 20
47.04844408159999
 30
0.0
 11
36.966425446
 21
47.05781533979999
 31
0.0
  0
LINE
  5
3F9
330
1F
100
AcDbEntity
  8
0
  6
Continuous
100
AcDbLine
 10
36.966425446
 20
47.05781533979999
 30
0.0
 11
36.966425446
 21
47.1495163602
 31
0.0
  0
LINE
  5
3FA
330
1F
100
AcDbEntity
  8
0
  6
Continuous
100
AcDbLine
 10
36.966425446
 20
47.01951636020001
 30
0.0
 11
36.966425446
 21
43.1495163602
 31
0.0
  0
LINE
  5
3FB
330
1F
100
AcDbEntity
  8
0
  6
Continuous
100
AcDbLine
 10
36.966425446
 20
43.1495163602
 30
0.0
 11
36.966425446
 21
42.98875664699999
 31
0.0
  0
LINE
  5
3FC
330
1F
100
AcDbEntity
  8
0
  6
Continuous
100
AcDbLine
 10
36.966425446
 20
42.98875664699999
 30
0.0
 11
36.966425446
 21
42.9845163602
 31
0.0
  0
LINE
  5
3FD
330
1F
100
AcDbEntity
  8
0
  6
Continuous
100
AcDbLine
 10
36.966425446
 20
42.9845163602
 30
0.0
 11
36.966425446
 21
42.6495163602
 31
0.0
  0
LINE
  5
3FE
330
1F
100
AcDbEntity
  8
0
  6
Continuous
100
AcDbLine
 10
36.966425446
 20
42.6495163602
 30
0.0
 11
37.091425446
 21
42.6495163602
 31
0.0
  0
LINE
  5
3FF
330
1F
100
AcDbEntity
  8
0
  6
Continuous
100
AcDbLine
 10
37.091425446
 20
47.1495163602
 30
0.0
 11
37.091425446
 21
47.01951636020001
 31
0.0
  0
LINE
  5
400
330
1F
100
AcDbEntity
  8
0
  6
Continuous
100
AcDbLine
 10
37.091425446
 20
47.1495163602
 30
0.0
 11
36.966425446
 21
47.1495163602
 31
0.0
  0
LINE
  5
401
330
1F
100
AcDbEntity
  8
0
  6
Continuous
100
AcDbLine
 10
37.091425446
 20
47.01951636020001
 30
0.0
 11
37.091425446
 21
43.1495163602
 31
0.0
  0
LINE
  5
402
330
1F
100
AcDbEntity
  8
0
  6
Continuous
100
AcDbLine
 10
37.091425446
 20
43.1495163602
 30
0.0
 11
37.091425446
 21
42.98875664699999
 31
0.0
  0
LINE
  5
403
330
1F
100
AcDbEntity
  8
0
  6
Continuous
100
AcDbLine
 10
37.091425446
 20
42.98875664699999
 30
0.0
 11
37.091425446
 21
42.9845163602
 31
0.0
  0
LINE
  5
404
330
1F
100
AcDbEntity
  8
0
  6
Continuous
100
AcDbLine
 10
37.091425446
 20
42.9845163602
 30
0.0
 11
37.091425446
 21
42.6495163602
 31
0.0
  0
LINE
  5
405
330
1F
100
AcDbEntity
  8
0
  6
Continuous
100
AcDbLine
 10
10.635425446
 20
47.01951636020001
 30
0.0
 11
10.635425446
 21
47.1495163602
 31
0.0
  0
LINE
  5
406
330
1F
100
AcDbEntity
  8
0
  6
Continuous
100
AcDbLine
 10
10.635425446
 20
47.01951636020001
 30
0.0
 11
10.635425446
 21
43.1495163602
 31
0.0
  0
LINE
  5
407
330
1F
100
AcDbEntity
  8
0
  6
Continuous
100
AcDbLine
 10
10.635425446
 20
43.1495163602
 30
0.0
 11
10.635425446
 21
42.98875664699999
 31
0.0
  0
LINE
  5
408
330
1F
100
AcDbEntity
  8
0
  6
Continuous
100
AcDbLine
 10
10.635425446
 20
42.98875664699999
 30
0.0
 11
10.635425446
 21
42.9845163602
 31
0.0
  0
LINE
  5
409
330
1F
100
AcDbEntity
  8
0
  6
Continuous
100
AcDbLine
 10
10.635425446
 20
42.9845163602
 30
0.0
 11
10.635425446
 21
42.6495163602
 31
0.0
  0
LINE
  5
40A
330
1F
100
AcDbEntity
  8
0
  6
Continuous
100
AcDbLine
 10
10.635425446
 20
42.6495163602
 30
0.0
 11
10.88542544599999
 21
42.6495163602
 31
0.0
  0
LINE
  5
40B
330
1F
100
AcDbEntity
  8
0
  6
Continuous
100
AcDbLine
 10
10.88542544599999
 20
47.1495163602
 30
0.0
 11
10.88542544599999
 21
47.05781533979999
 31
0.0
  0
LINE
  5
40C
330
1F
100
AcDbEntity
  8
0
  6
Continuous
100
AcDbLine
 10
10.88542544599999
 20
47.05781533979999
 30
0.0
 11
10.88542544599999
 21
47.0245163602
 31
0.0
  0
LINE
  5
40D
330
1F
100
AcDbEntity
  8
0
  6
Continuous
100
AcDbLine
 10
10.88542544599999
 20
47.0245163602
 30
0.0
 11
10.88542544599999
 21
47.01951636020001
 31
0.0
  0
LINE
  5
40E
330
1F
100
AcDbEntity
  8
0
  6
Continuous
100
AcDbLine
 10
10.88542544599999
 20
47.1495163602
 30
0.0
 11
10.635425446
 21
47.1495163602
 31
0.0
  0
LINE
  5
40F
330
1F
100
AcDbEntity
  8
0
  6
Continuous
100
AcDbLine
 10
10.88542544599999
 20
47.01951636020001
 30
0.0
 11
10.88542544599999
 21
43.1495163602
 31
0.0
  0
LINE
  5
410
330
1F
100
AcDbEntity
  8
0
  6
Continuous
100
AcDbLine
 10
10.88542544599999
 20
43.1495163602
 30
0.0
 11
10.88542544599999
 21
42.98875664699999
 31
0.0
  0
LINE
  5
411
330
1F
100
AcDbEntity
  8
0
  6
Continuous
100
AcDbLine
 10
10.88542544599999
 20
42.98875664699999
 30
0.0
 11
10.88542544599999
 21
42.9845163602
 31
0.0
  0
LINE
  5
412
330
1F
100
AcDbEntity
  8
0
  6
Continuous
100
AcDbLine
 10
10.88542544599999
 20
42.9845163602
 30
0.0
 11
10.88542544599999
 21
42.6495163602
 31
0.0
  0
ARC
  5
413
330
1F
100
AcDbEntity
  8
0
  6
Continuous
100
AcDbCircle
 10
24.000925446
 20
45.8995163602
 30
0.0
 40
0.3825
100
AcDbArc
 50
0.0
 51
180.0
  0
ARC
  5
414
330
1F
100
AcDbEntity
  8
0
  6
Continuous
100
AcDbCircle
 10
24.000925446
 20
45.8995163602
 30
0.0
 40
0.3825
100
AcDbArc
 50
180.0
 51
360.0
  0
LINE
  5
415
330
1F
100
AcDbEntity
  8
0
  6
Continuous
100
AcDbLine
 10
36.966425446
 20
47.1495163602
 30
0.0
 11
10.88542544599999
 21
47.1495163602
 31
0.0
  0
LINE
  5
416
330
1F
100
AcDbEntity
  8
0
  6
Continuous
100
AcDbLine
 10
10.88542544599999
 20
44.6495163602
 30
0.0
 11
36.966425446
 21
44.6495163602
 31
0.0
  0
SPLINE
  5
417
330
1F
100
AcDbEntity
  8
0
  6
Continuous
100
AcDbSpline
210
0.0
220
0.0
230
1.0
 70
     8
 71
     3
 72
    20
 73
    16
 74
    14
 42
0.0000000001
 43
0.0000000001
 44
0.0000000001
 12
0.8656412750694414
 22
0.5006647410155338
 32
0.0
 13
0.3815283054901889
 23
-0.924357156141383
 33
0.0
 40
0.0
 40
0.0
 40
0.0
 40
0.0
 40
0.024779552243205
 40
0.0582206477619329
 40
0.0939374523760897
 40
0.1327404971896433
 40
0.1750232365491136
 40
0.2208171313406634
 40
0.2698676184883075
 40
0.3217038420429542
 40
0.3756968063724147
 40
0.4311080686920964
 40
0.4871322608419495
 40
0.5429361819903934
 40
0.5575605746958298
 40
0.5575605746958298
 40
0.5575605746958298
 40
0.5575605746958298
 10
68.89609065950001
 20
57.1887249735
 30
0.0
 10
68.90324072723315
 20
57.19286038953544
 30
0.0
 10
68.92104725005829
 20
57.20093137592137
 30
0.0
 10
68.95206266635418
 20
57.20714799145382
 30
0.0
 10
68.98829970448961
 20
57.20598666046032
 30
0.0
 10
69.02643271957228
 20
57.19715923941937
 30
0.0
 10
69.06567555544796
 20
57.18096922516734
 30
0.0
 10
69.10523034761734
 20
57.1578149694796
 30
0.0
 10
69.14427196243065
 20
57.12821351453335
 30
0.0
 10
69.18196739885402
 20
57.0928121817168
 30
0.0
 10
69.21749964187239
 20
57.05238479997727
 30
0.0
 10
69.25009220121911
 20
57.00781642804407
 30
0.0
 10
69.27902744911107
 20
56.96009055238639
 30
0.0
 10
69.29773671768514
 20
56.92225218069226
 30
0.0
 10
69.30695055754409
 20
56.90065836401716
 30
0.0
 10
69.30881043079999
 20
56.89615231
 30
0.0
 11
68.89609065950001
 21
57.1887249735
 31
0.0
 11
68.91865470519999
 21
57.1989665579
 31
0.0
 11
68.95139988380001
 21
57.20575332060001
 31
0.0
 11
68.9871067368
 21
57.2049102425
 31
0.0
 11
69.02497763220001
 21
57.1964561566
 31
0.0
 11
69.06416659680001
 21
57.1805799133
 31
0.0
 11
69.1037982137
 21
57.1576361616
 31
0.0
 11
69.1429871783
 21
57.12813742699999
 31
0.0
 11
69.18085807369999
 21
57.0927426625
 31
0.0
 11
69.2165649267
 21
57.05224252859999
 31
0.0
 11
69.24931010529999
 21
57.0075417314
 31
0.0
 11
69.2783621363
 21
56.95963881289999
 31
0.0
 11
69.3030720453
 21
56.909603845
 31
0.0
 11
69.30881043079999
 21
56.89615231
 31
0.0
  0
LINE
  5
418
330
1F
100
AcDbEntity
  8
0
  6
Continuous
100
AcDbLine
 10
68.8497248004
 20
57.1618860079
 30
0.0
 11
68.89609913130001
 21
57.18873328829999
 31
0.0
  0
SPLINE
  5
419
330
1F
100
AcDbEntity
  8
0
  6
Continuous
100
AcDbSpline
210
0.0
220
0.0
230
1.0
 70
     8
 71
     3
 72
    20
 73
    16
 74
    14
 42
0.0000000001
 43
0.0000000001
 44
0.0000000001
 12
0.8656412750694414
 22
0.5006647410155338
 32
0.0
 13
0.3815283054901889
 23
-0.924357156141383
 33
0.0
 40
0.0
 40
0.0
 40
0.0
 40
0.0
 40
0.024779552243218
 40
0.0582206477619319
 40
0.0939374524760769
 40
0.1327404972896151
 40
0.1750232365564059
 40
0.2208171314344936
 40
0.2698676185022411
 40
0.3217038420569079
 40
0.3756968064524819
 40
0.4311080687721777
 40
0.4871322609220235
 40
0.5429361820704673
 40
0.5575605747366703
 40
0.5575605747366703
 40
0.5575605747366703
 40
0.5575605747366703
 10
69.86836248359999
 20
56.6258520696
 30
0.0
 10
69.87551255133315
 20
56.62998748563545
 30
0.0
 10
69.89331907415817
 20
56.63805847202175
 30
0.0
 10
69.92433449048768
 20
56.64427508755836
 30
0.0
 10
69.96057152865493
 20
56.64311375656246
 30
0.0
 10
69.99870454374999
 20
56.63428633554423
 30
0.0
 10
70.03794737958465
 20
56.61809632120851
 30
0.0
 10
70.07750217179378
 20
56.59494206564663
 30
0.0
 10
70.11654378653805
 20
56.56534061059542
 30
0.0
 10
70.15423922295584
 20
56.5299392777912
 30
0.0
 10
70.18977146607458
 20
56.48951189610972
 30
0.0
 10
70.22236402543008
 20
56.4449435241465
 30
0.0
 10
70.25129927325112
 20
56.39721764846143
 30
0.0
 10
70.27000854203624
 20
56.35937927687089
 30
0.0
 10
70.27922238164908
 20
56.33778546010507
 30
0.0
 10
70.2810822549
 20
56.3332794061
 30
0.0
 11
69.86836248359999
 21
56.6258520696
 31
0.0
 11
69.89092652930001
 21
56.636093654
 31
0.0
 11
69.9236717079
 21
56.6428804167
 31
0.0
 11
69.95937856100001
 21
56.64203733859999
 31
0.0
 11
69.9972494564
 21
56.6335832527
 31
0.0
 11
70.03643842089999
 21
56.6177070094
 31
0.0
 11
70.07607003789999
 21
56.5947632577
 31
0.0
 11
70.11525900239999
 21
56.5652645231
 31
0.0
 11
70.15312989779999
 21
56.52986975859999
 31
0.0
 11
70.18883675089999
 21
56.4893696247
 31
0.0
 11
70.2215819295
 21
56.4446688275
 31
0.0
 11
70.2506339605
 21
56.39676590899999
 31
0.0
 11
70.27534386949999
 21
56.3467309411
 31
0.0
 11
70.2810822549
 21
56.3332794061
 31
0.0
  0
LINE
  5
41A
330
1F
100
AcDbEntity
  8
0
  6
Continuous
100
AcDbLine
 10
69.8219966245
 20
56.59901310390001
 30
0.0
 11
69.8683709554
 21
56.6258603844
 31
0.0
  0
SPLINE
  5
41B
330
1F
100
AcDbEntity
  8
0
  6
Continuous
100
AcDbSpline
210
0.0
220
0.0
230
1.0
 70
     8
 71
     3
 72
    10
 73
     6
 74
     4
 42
0.0000000001
 43
0.0000000001
 44
0.0000000001
 12
0.9962743968927291
 22
0.0862399333025548
 32
0.0
 13
0.865326782068381
 23
0.5012081007278121
 33
0.0
 40
0.0
 40
0.0
 40
0.0
 40
0.0
 40
0.013634720468889
 40
0.0370048004426674
 40
0.0452765041918146
 40
0.0452765041918146
 40
0.0452765041918146
 40
0.0452765041918146
 10
50.2119325822
 20
45.61371060479999
 30
0.0
 10
50.21646055650398
 20
45.61410255726127
 30
0.0
 10
50.22869271868166
 20
45.61587692574632
 30
0.0
 10
50.24318038567945
 20
45.62065279762675
 30
0.0
 10
50.25253149187084
 20
45.62555292899136
 30
0.0
 10
50.25491740079999
 20
45.62693487729999
 30
0.0
 11
50.2119325822
 21
45.61371060479999
 31
0.0
 11
50.22542151399999
 21
45.61569915229999
 31
0.0
 11
50.24758954
 21
45.6230977509
 31
0.0
 11
50.25491740079999
 21
45.62693487729999
 31
0.0
  0
LINE
  5
41C
330
1F
100
AcDbEntity
  8
0
  6
Continuous
100
AcDbLine
 10
50.3106004258
 20
45.6591682165
 30
0.0
 11
50.2549227265
 21
45.6269349793
 31
0.0
  0
SPLINE
  5
41D
330
1F
100
AcDbEntity
  8
0
  6
Continuous
100
AcDbSpline
210
0.0
220
0.0
230
1.0
 70
     8
 71
     3
 72
     9
 73
     5
 74
     3
 42
0.0000000001
 43
0.0000000001
 44
0.0000000001
 12
-0.8652798808520355
 22
-0.5012890661012741
 32
0.0
 13
-0.5978009408347214
 23
-0.8016445815553932
 33
0.0
 40
0.0
 40
0.0
 40
0.0
 40
0.0
 40
0.0177259358315537
 40
0.0414606025860111
 40
0.0414606025860111
 40
0.0414606025860111
 40
0.0414606025860111
 10
49.96299536
 20
46.1312060327
 30
0.0
 10
49.95788272811856
 20
46.12824409342708
 30
0.0
 10
49.94653693403404
 20
46.12021181898772
 30
0.0
 10
49.93707201817207
 20
46.10994760936624
 30
0.0
 10
49.9323424828
 20
46.10360535369999
 30
0.0
 11
49.96299536
 21
46.1312060327
 31
0.0
 11
49.9485250393
 21
46.1209679362
 31
0.0
 11
49.9323424828
 21
46.10360535369999
 31
0.0
  0
SPLINE
  5
41E
330
1F
100
AcDbEntity
  8
0
  6
Continuous
100
AcDbSpline
210
0.0
220
0.0
230
1.0
 70
     8
 71
     3
 72
     8
 73
     4
 74
     2
 42
0.0000000001
 43
0.0000000001
 44
0.0000000001
 12
-0.5978009478323161
 22
-0.8016445763371596
 32
0.0
 13
-0.575487608040636
 23
-0.8178104994383891
 33
0.0
 40
0.0
 40
0.0
 40
0.0
 40
0.0
 40
0.0031654785270827
 40
0.0031654785270827
 40
0.0031654785270827
 40
0.0031654785270827
 10
49.9323424828
 20
46.10360535369999
 30
0.0
 10
49.93171170744538
 20
46.10275949080241
 30
0.0
 10
49.93109267722195
 20
46.10190474762506
 30
0.0
 10
49.930485446
 20
46.10104182709999
 30
0.0
 11
49.9323424828
 21
46.10360535369999
 31
0.0
 11
49.930485446
 21
46.10104182709999
 31
0.0
  0
SPLINE
  5
41F
330
1F
100
AcDbEntity
  8
0
  6
Continuous
100
AcDbSpline
210
0.0
220
0.0
230
1.0
 70
     8
 71
     3
 72
     8
 73
     4
 74
     2
 42
0.0000000001
 43
0.0000000001
 44
0.0000000001
 12
-0.5754875717506062
 22
-0.8178105249754317
 32
0.0
 13
-0.5710445392004429
 23
-0.8209190789897343
 33
0.0
 40
0.0
 40
0.0
 40
0.0
 40
0.0
 40
0.0006325871166593
 40
0.0006325871166593
 40
0.0006325871166593
 40
0.0006325871166593
 10
49.930485446
 20
46.10104182709999
 30
0.0
 10
49.93036409732544
 20
46.10086938163267
 30
0.0
 10
49.93024321700619
 20
46.10069660564439
 30
0.0
 10
49.93012280520001
 20
46.1005235047
 30
0.0
 11
49.930485446
 21
46.10104182709999
 31
0.0
 11
49.93012280520001
 21
46.1005235047
 31
0.0
  0
LINE
  5
420
330
1F
100
AcDbEntity
  8
0
  6
Continuous
100
AcDbLine
 10
50.0186663099
 20
46.1634371437
 30
0.0
 11
49.9629886105
 21
46.13120390659999
 31
0.0
  0
SPLINE
  5
421
330
1F
100
AcDbEntity
  8
0
  6
Continuous
100
AcDbSpline
210
0.0
220
0.0
230
1.0
 70
     8
 71
     3
 72
    31
 73
    27
 74
    25
 42
0.0000000001
 43
0.0000000001
 44
0.0000000001
 12
0.8652798801077675
 22
0.5012890673859614
 32
0.0
 13
-0.8653267823318715
 23
-0.5012081002729003
 33
0.0
 40
0.0
 40
0.0
 40
0.0
 40
0.0
 40
0.0053844946346236
 40
0.028668630568603
 40
0.0529732071336338
 40
0.0789498536835914
 40
0.1070251177020244
 40
0.1373929542472299
 40
0.1700602000674913
 40
0.2048683351199878
 40
0.2415480065490155
 40
0.2797297732626632
 40
0.3189860860014918
 40
0.3588419471209832
 40
0.3987991550899856
 40
0.4383599195647027
 40
0.4770337582750949
 40
0.5143753471364702
 40
0.5499844314075661
 40
0.5835514860159467
 40
0.6148656767278887
 40
0.6438638698854576
 40
0.6706584437495661
 40
0.6955779610742179
 40
0.7191870579151429
 40
0.7340115148312013
 40
0.7340115148312013
 40
0.7340115148312013
 40
0.7340115148312013
 10
50.01867305930001
 20
46.16343926979999
 30
0.0
 10
50.02022609092397
 20
46.16433899923124
 30
0.0
 10
50.02862678840575
 20
46.16889983113952
 30
0.0
 10
50.04540083101943
 20
46.17498612878216
 30
0.0
 10
50.06992769335578
 20
46.17794170199573
 30
0.0
 10
50.0961129863675
 20
46.17579292615563
 30
0.0
 10
50.12345649357751
 20
46.16866014498131
 30
0.0
 10
50.15148569600202
 20
46.15672682990953
 30
0.0
 10
50.17970947106421
 20
46.14023391442654
 30
0.0
 10
50.2076276797695
 20
46.11949140616569
 30
0.0
 10
50.23473381451974
 20
46.09488395097041
 30
0.0
 10
50.26053201285501
 20
46.06686553466036
 30
0.0
 10
50.28454526378286
 20
46.03595566043177
 30
0.0
 10
50.30632827870848
 20
46.00272788368942
 30
0.0
 10
50.32547636959382
 20
45.96779960264824
 30
0.0
 10
50.34163306405075
 20
45.93182099789902
 30
0.0
 10
50.35449868070355
 20
45.89545910806026
 30
0.0
 10
50.36383378975097
 20
45.85938890881389
 30
0.0
 10
50.36946479790225
 20
45.82427360209877
 30
0.0
 10
50.37128368229845
 20
45.79075697647222
 30
0.0
 10
50.3692464461216
 20
45.75944478346828
 30
0.0
 10
50.3633671518044
 20
45.73090079526596
 30
0.0
 10
50.35370641411269
 20
45.70564240268375
 30
0.0
 10
50.34037642591366
 20
45.6841627185789
 30
0.0
 10
50.32548311821258
 20
45.6689176998251
 30
0.0
 10
50.31487109996767
 20
45.66164482702949
 30
0.0
 10
50.3105951001
 20
45.6591681144
 30
0.0
 11
50.01867305930001
 21
46.16343926979999
 31
0.0
 11
50.0234055921
 21
46.1660075213
 31
0.0
 11
50.0452685403
 21
46.17401766999999
 31
0.0
 11
50.0693793758
 21
46.17708035729999
 31
0.0
 11
50.0952833045
 21
46.17513802779999
 31
0.0
 11
50.1224946426
 21
46.1682269115
 31
0.0
 11
50.15049768689999
 21
46.1564780815
 31
0.0
 11
50.1787690488
 21
46.1401110706
 31
0.0
 11
50.206772093
 21
46.11943655050001
 31
0.0
 11
50.23398343109999
 21
46.09484099449999
 31
0.0
 11
50.2598873598
 21
46.0667904368
 31
0.0
 11
50.2839981954
 21
46.03581099689999
 31
0.0
 11
50.30586114350001
 21
46.00248681399999
 31
0.0
 11
50.3250639971
 21
45.9674464247
 31
0.0
 11
50.34124655350001
 21
45.9313468547
 31
0.0
 11
50.3541022063
 21
45.8948722335
 31
0.0
 11
50.3633906289
 21
45.85870429929999
 31
0.0
 11
50.3689355128
 21
45.8235295762
 31
0.0
 11
50.3706332693
 21
45.79000548369999
 31
0.0
 11
50.3684516447
 21
45.75876738109999
 31
0.0
 11
50.3624316964
 21
45.7304009321
 31
0.0
 11
50.3526868019
 21
45.7054412402
 31
0.0
 11
50.33940088560001
 21
45.6843588596
 31
0.0
 11
50.32282295539999
 21
45.6675492884
 31
0.0
 11
50.3105951001
 21
45.6591681144
 31
0.0
  0
SPLINE
  5
422
330
1F
100
AcDbEntity
  8
0
  6
Continuous
100
AcDbSpline
210
0.0
220
0.0
230
1.0
 70
     8
 71
     3
 72
    10
 73
     6
 74
     4
 42
0.0000000001
 43
0.0000000001
 44
0.0000000001
 12
0.8653267825151187
 22
0.5012080999565272
 32
0.0
 13
0.5754683220511044
 23
0.8178240705162
 33
0.0
 40
0.0
 40
0.0
 40
0.0
 40
0.0
 40
0.0148244568595212
 40
0.0384335536302266
 40
0.0446242274542117
 40
0.0446242274542117
 40
0.0446242274542117
 40
0.0446242274542117
 10
50.25491740079999
 20
45.62693487729999
 30
0.0
 10
50.25919340065225
 20
45.62941158991847
 30
0.0
 10
50.26980332638629
 20
45.63668177426307
 30
0.0
 10
50.28030394665043
 20
45.64743302550791
 30
0.0
 10
50.28623358017404
 20
45.65540286484468
 30
0.0
 10
50.28742109239999
 20
45.6570904922
 30
0.0
 11
50.25491740079999
 21
45.62693487729999
 31
0.0
 11
50.2671452561
 21
45.6353160512
 31
0.0
 11
50.2837231862
 21
45.6521256224
 31
0.0
 11
50.28742109239999
 21
45.6570904922
 31
0.0
  0
SPLINE
  5
423
330
1F
100
AcDbEntity
  8
0
  6
Continuous
100
AcDbSpline
210
0.0
220
0.0
230
1.0
 70
     8
 71
     3
 72
     8
 73
     4
 74
     2
 42
0.0000000001
 43
0.0000000001
 44
0.0000000001
 12
0.5754683168883909
 22
0.8178240741489839
 32
0.0
 13
0.5618414574076897
 23
0.8272449315275395
 33
0.0
 40
0.0
 40
0.0
 40
0.0
 40
0.0
 40
0.0019469589317093
 40
0.0019469589317093
 40
0.0019469589317093
 40
0.0019469589317093
 10
50.28742109239999
 20
45.6570904922
 30
0.0
 10
50.28779456345982
 20
45.65762124882858
 30
0.0
 10
50.28816361558543
 20
45.65815514166394
 30
0.0
 10
50.288528243
 20
45.65869201229999
 30
0.0
 11
50.28742109239999
 21
45.6570904922
 31
0.0
 11
50.288528243
 21
45.65869201229999
 31
0.0
  0
SPLINE
  5
424
330
1F
100
AcDbEntity
  8
0
  6
Continuous
100
AcDbSpline
210
0.0
220
0.0
230
1.0
 70
     8
 71
     3
 72
    15
 73
    11
 74
     9
 42
0.0000000001
 43
0.0000000001
 44
0.0000000001
 12
0.5618414496970649
 22
0.8272449367643785
 32
0.0
 13
-0.3620175081649997
 23
0.9321712953003887
 33
0.0
 40
0.0
 40
0.0
 40
0.0
 40
0.0
 40
0.0168118697817204
 40
0.0436064436458289
 40
0.0726046368034102
 40
0.1039188276081302
 40
0.1374858822114528
 40
0.1730949664825499
 40
0.2104365553439234
 40
0.2442866723686357
 40
0.2442866723686357
 40
0.2442866723686357
 40
0.2442866723686357
 10
50.288528243
 20
45.65869201229999
 30
0.0
 10
50.29167677809676
 20
45.66332785701815
 30
0.0
 10
50.29899680936578
 20
45.67594153977217
 30
0.0
 10
50.30769026097202
 20
45.69866923998318
 30
0.0
 10
50.31356850450982
 20
45.72721103860669
 30
0.0
 10
50.31560605170572
 20
45.75852389828937
 30
0.0
 10
50.31378709235231
 20
45.79204028704174
 30
0.0
 10
50.30815603565975
 20
45.82715582097978
 30
0.0
 10
50.29922461548419
 20
45.8616666224707
 30
0.0
 10
50.29142416233879
 20
45.884104557489
 30
0.0
 10
50.287339384
 20
45.8946225933
 30
0.0
 11
50.288528243
 21
45.65869201229999
 31
0.0
 11
50.2970091026
 21
45.673208003
 31
0.0
 11
50.3067539971
 21
45.6981676949
 31
0.0
 11
50.3127739454
 21
45.7265341439
 31
0.0
 11
50.3149555699
 21
45.7577722466
 31
0.0
 11
50.3132578135
 21
45.7912963391
 31
0.0
 11
50.3077129296
 21
45.8264710622
 31
0.0
 11
50.298424507
 21
45.8626389964
 31
0.0
 11
50.287339384
 21
45.8946225933
 31
0.0
  0
SPLINE
  5
425
330
1F
100
AcDbEntity
  8
0
  6
Continuous
100
AcDbSpline
210
0.0
220
0.0
230
1.0
 70
     8
 71
     3
 72
    16
 73
    12
 74
    10
 42
0.0000000001
 43
0.0000000001
 44
0.0000000001
 12
-0.3620175080825239
 22
0.932171295332419
 32
0.0
 13
-0.8651446325719579
 23
0.5015224468874071
 33
0.0
 40
0.0
 40
0.0
 40
0.0
 40
0.0
 40
0.0048274293508727
 40
0.0443881938255897
 40
0.0843454017946047
 40
0.1242012629140901
 40
0.1634575757318216
 40
0.2016393423720022
 40
0.2383190138010403
 40
0.2731271488535311
 40
0.2895889197812508
 40
0.2895889197812508
 40
0.2895889197812508
 40
0.2895889197812508
 10
50.287339384
 20
45.8946225933
 30
0.0
 10
50.28675684601864
 20
45.8961225903237
 30
0.0
 10
50.28132996454335
 20
45.90988743055249
 30
0.0
 10
50.2697980790354
 20
45.93556786044763
 30
0.0
 10
50.25065074570359
 20
45.97049424037019
 30
0.0
 10
50.22886749272058
 20
46.00372254780984
 30
0.0
 10
50.2048544334222
 20
46.03463220157992
 30
0.0
 10
50.17905572428095
 20
46.06265096515182
 30
0.0
 10
50.15195133803233
 20
46.08725731272777
 30
0.0
 10
50.12837183940796
 20
46.1047756975224
 30
0.0
 10
50.11384135282025
 20
46.11378993775473
 30
0.0
 10
50.10909408189999
 20
46.11654192029999
 30
0.0
 11
50.287339384
 21
45.8946225933
 31
0.0
 11
50.2855688542
 21
45.8991136175
 31
0.0
 11
50.2693862978
 21
45.93521318749999
 31
0.0
 11
50.2501834442
 21
45.9702535768
 31
0.0
 11
50.22832049609999
 21
46.0035777597
 31
0.0
 11
50.2042096605
 21
46.0345571997
 31
0.0
 11
50.1783057318
 21
46.06260775729999
 31
0.0
 11
50.1510943937
 21
46.0872033133
 31
0.0
 11
50.1230913495
 21
46.1078778334
 31
0.0
 11
50.10909408189999
 21
46.11654192029999
 31
0.0
  0
SPLINE
  5
426
330
1F
100
AcDbEntity
  8
0
  6
Continuous
100
AcDbSpline
210
0.0
220
0.0
230
1.0
 70
     8
 71
     3
 72
    14
 73
    10
 74
     8
 42
0.0000000001
 43
0.0000000001
 44
0.0000000001
 12
-0.8651446323449416
 22
0.5015224472790183
 32
0.0
 13
-0.8652798801751069
 23
-0.501289067269727
 33
0.0
 40
0.0
 40
0.0
 40
0.0
 40
0.0
 40
0.0162198893057205
 40
0.0465877257587246
 40
0.0746629897771525
 40
0.1006396363345875
 40
0.1249442129122215
 40
0.1482283488117985
 40
0.1536128434464216
 40
0.1536128434464216
 40
0.1536128434464216
 40
0.1536128434464216
 10
50.10909408189999
 20
46.11654192029999
 30
0.0
 10
50.10441656517664
 20
46.11925346649306
 30
0.0
 10
50.0907511470438
 20
46.12664621552275
 30
0.0
 10
50.06777786700955
 20
46.13642739771546
 30
0.0
 10
50.04043550786011
 20
46.14355957224316
 30
0.0
 10
50.01424994068008
 20
46.14570849317721
 30
0.0
 10
49.98972314559927
 20
46.1427528841855
 30
0.0
 10
49.97294908826956
 20
46.13666659447963
 30
0.0
 10
49.96454839162408
 20
46.13210576213104
 30
0.0
 10
49.96299536
 20
46.1312060327
 30
0.0
 11
50.10909408189999
 21
46.11654192029999
 31
0.0
 11
50.0948199875
 21
46.12424484429999
 31
0.0
 11
50.0668169433
 21
46.1359936743
 31
0.0
 11
50.0396056052
 21
46.14290479060001
 31
0.0
 11
50.0137016765
 21
46.1448471202
 31
0.0
 11
49.989590841
 21
46.14178443279999
 31
0.0
 11
49.9677278928
 21
46.1337742842
 31
0.0
 11
49.96299536
 21
46.1312060327
 31
0.0
  0
SPLINE
  5
427
330
1F
100
AcDbEntity
  8
0
  6
Continuous
100
AcDbSpline
210
0.0
220
0.0
230
1.0
 70
     8
 71
     3
 72
    10
 73
     6
 74
     4
 42
0.0000000001
 43
0.0000000001
 44
0.0000000001
 12
0.9962743968927291
 22
0.0862399333025548
 32
0.0
 13
0.865326782068381
 23
0.5012081007278121
 33
0.0
 40
0.0
 40
0.0
 40
0.0
 40
0.0
 40
0.0136347203699565
 40
0.0370048003437259
 40
0.0452765040928764
 40
0.0452765040928764
 40
0.0452765040928764
 40
0.0452765040928764
 10
51.18420440640001
 20
45.0508377009
 30
0.0
 10
51.18873238067113
 20
45.05122965335844
 30
0.0
 10
51.20096454281187
 20
45.05300402186708
 30
0.0
 10
51.21545220977963
 20
45.05777989372552
 30
0.0
 10
51.22480331597084
 20
45.06268002509137
 30
0.0
 10
51.22718922489999
 20
45.0640619734
 30
0.0
 11
51.18420440640001
 21
45.0508377009
 31
0.0
 11
51.1976933381
 21
45.0528262484
 31
0.0
 11
51.2198613641
 21
45.06022484699999
 31
0.0
 11
51.22718922489999
 21
45.0640619734
 31
0.0
  0
LINE
  5
428
330
1F
100
AcDbEntity
  8
0
  6
Continuous
100
AcDbLine
 10
51.2828722499
 20
45.09629531259999
 30
0.0
 11
51.2271945506
 21
45.0640620754
 31
0.0
  0
SPLINE
  5
429
330
1F
100
AcDbEntity
  8
0
  6
Continuous
100
AcDbSpline
210
0.0
220
0.0
230
1.0
 70
     8
 71
     3
 72
     9
 73
     5
 74
     3
 42
0.0000000001
 43
0.0000000001
 44
0.0000000001
 12
-0.8652798808520355
 22
-0.5012890661012741
 32
0.0
 13
-0.5978009408347214
 23
-0.8016445815553932
 33
0.0
 40
0.0
 40
0.0
 40
0.0
 40
0.0
 40
0.0177259358315496
 40
0.0414606025178246
 40
0.0414606025178246
 40
0.0414606025178246
 40
0.0414606025178246
 10
50.9352671841
 20
45.5683331288
 30
0.0
 10
50.93015455221856
 20
45.56537118952707
 30
0.0
 10
50.91880875813205
 20
45.55733891512033
 30
0.0
 10
50.90934384235848
 20
45.54707470544801
 30
0.0
 10
50.90461430699999
 20
45.54073244979999
 30
0.0
 11
50.9352671841
 21
45.5683331288
 31
0.0
 11
50.92079686339999
 21
45.55809503229999
 31
0.0
 11
50.90461430699999
 21
45.54073244979999
 31
0.0
  0
SPLINE
  5
42A
330
1F
100
AcDbEntity
  8
0
  6
Continuous
100
AcDbSpline
210
0.0
220
0.0
230
1.0
 70
     8
 71
     3
 72
     8
 73
     4
 74
     2
 42
0.0000000001
 43
0.0000000001
 44
0.0000000001
 12
-0.5978009478323161
 22
-0.8016445763371596
 32
0.0
 13
-0.575487608040636
 23
-0.8178104994383891
 33
0.0
 40
0.0
 40
0.0
 40
0.0
 40
0.0
 40
0.0031654785270827
 40
0.0031654785270827
 40
0.0031654785270827
 40
0.0031654785270827
 10
50.90461430699999
 20
45.54073244979999
 30
0.0
 10
50.90398353164538
 20
45.53988658690241
 30
0.0
 10
50.90336450142196
 20
45.53903184372506
 30
0.0
 10
50.9027572702
 20
45.53816892319999
 30
0.0
 11
50.90461430699999
 21
45.54073244979999
 31
0.0
 11
50.9027572702
 21
45.53816892319999
 31
0.0
  0
SPLINE
  5
42B
330
1F
100
AcDbEntity
  8
0
  6
Continuous
100
AcDbSpline
210
0.0
220
0.0
230
1.0
 70
     8
 71
     3
 72
     8
 73
     4
 74
     2
 42
0.0000000001
 43
0.0000000001
 44
0.0000000001
 12
-0.5754875717506062
 22
-0.8178105249754317
 32
0.0
 13
-0.5710445392004429
 23
-0.8209190789897343
 33
0.0
 40
0.0
 40
0.0
 40
0.0
 40
0.0
 40
0.0006325871739869
 40
0.0006325871739869
 40
0.0006325871739869
 40
0.0006325871739869
 10
50.9027572702
 20
45.53816892319999
 30
0.0
 10
50.90263592151444
 20
45.53799647771704
 30
0.0
 10
50.9025150411171
 20
45.53782370176008
 30
0.0
 10
50.9023946293
 20
45.53765060079999
 30
0.0
 11
50.9027572702
 21
45.53816892319999
 31
0.0
 11
50.9023946293
 21
45.53765060079999
 31
0.0
  0
LINE
  5
42C
330
1F
100
AcDbEntity
  8
0
  6
Continuous
100
AcDbLine
 10
50.99093813399999
 20
45.60056423979999
 30
0.0
 11
50.9352604347
 21
45.5683310027
 31
0.0
  0
SPLINE
  5
42D
330
1F
100
AcDbEntity
  8
0
  6
Continuous
100
AcDbSpline
210
0.0
220
0.0
230
1.0
 70
     8
 71
     3
 72
    31
 73
    27
 74
    25
 42
0.0000000001
 43
0.0000000001
 44
0.0000000001
 12
0.8652798801077675
 22
0.5012890673859614
 32
0.0
 13
-0.8653267823318715
 23
-0.5012081002729003
 33
0.0
 40
0.0
 40
0.0
 40
0.0
 40
0.0
 40
0.0053844946346168
 40
0.0286686305685986
 40
0.052973207232835
 40
0.0789498536830708
 40
0.1070251177015055
 40
0.1373929542467148
 40
0.1700602000669772
 40
0.2048683351999249
 40
0.2415480066289482
 40
0.2797297732747614
 40
0.3189860860135745
 40
0.3588419471879218
 40
0.3987991551088711
 40
0.4383599195835882
 40
0.4770337582939804
 40
0.5143753471553558
 40
0.5499844314264588
 40
0.5835514860348392
 40
0.614865676746767
 40
0.6438638699043498
 40
0.6706584437684491
 40
0.6955779610931108
 40
0.7191870579340359
 40
0.7340115148500861
 40
0.7340115148500861
 40
0.7340115148500861
 40
0.7340115148500861
 10
50.9909448834
 20
45.6005663659
 30
0.0
 10
50.99249791502397
 20
45.60146609533124
 30
0.0
 10
51.00089861250577
 20
45.60602692723944
 30
0.0
 10
51.01767265515063
 20
45.61211322489459
 30
0.0
 10
51.04219951749033
 20
45.61506879809169
 30
0.0
 10
51.06838481049976
 20
45.61292002224859
 30
0.0
 10
51.09572831767692
 20
45.60578724108005
 30
0.0
 10
51.12375752010478
 20
45.59385392601352
 30
0.0
 10
51.15198129517594
 20
45.57736101049695
 30
0.0
 10
51.17989950395855
 20
45.55661850229758
 30
0.0
 10
51.20700563871636
 20
45.53201104709699
 30
0.0
 10
51.23280383695851
 20
45.50399263073084
 30
0.0
 10
51.25681708786622
 20
45.47308275650111
 30
0.0
 10
51.2786001029433
 20
45.43985497984987
 30
0.0
 10
51.29774819366649
 20
45.40492669871443
 30
0.0
 10
51.31390488815958
 20
45.36894809400402
 30
0.0
 10
51.3267705048013
 20
45.33258620415899
 30
0.0
 10
51.33610561385155
 20
45.29651600491421
 30
0.0
 10
51.34173662200211
 20
45.26140069819869
 30
0.0
 10
51.34355550639849
 20
45.22788407257225
 30
0.0
 10
51.34151827022158
 20
45.19657187956826
 30
0.0
 10
51.33563897590439
 20
45.16802789136597
 30
0.0
 10
51.3259782382127
 20
45.14276949878374
 30
0.0
 10
51.31264825001366
 20
45.1212898146789
 30
0.0
 10
51.29775494231257
 20
45.10604479592509
 30
0.0
 10
51.28714292406765
 20
45.09877192312949
 30
0.0
 10
51.2828669242
 20
45.0962952105
 30
0.0
 11
50.9909448834
 21
45.6005663659
 31
0.0
 11
50.99567741619999
 21
45.60313461739999
 31
0.0
 11
51.0175403644
 21
45.6111447661
 31
0.0
 11
51.0416512
 21
45.6142074534
 31
0.0
 11
51.0675551286
 21
45.6122651239
 31
0.0
 11
51.0947664667
 21
45.6053540076
 31
0.0
 11
51.122769511
 21
45.5936051776
 31
0.0
 11
51.15104087289999
 21
45.5772381667
 31
0.0
 11
51.1790439172
 21
45.55656364659999
 31
0.0
 11
51.2062552553
 21
45.5319680906
 31
0.0
 11
51.2321591839
 21
45.50391753289999
 31
0.0
 11
51.2562700195
 21
45.472938093
 31
0.0
 11
51.2781329677
 21
45.43961391009999
 31
0.0
 11
51.2973358212
 21
45.40457352079999
 31
0.0
 11
51.3135183776
 21
45.3684739508
 31
0.0
 11
51.3263740304
 21
45.3319993296
 31
0.0
 11
51.335662453
 21
45.2958313954
 31
0.0
 11
51.3412073369
 21
45.26065667229999
 31
0.0
 11
51.3429050934
 21
45.22713257979999
 31
0.0
 11
51.3407234688
 21
45.1958944772
 31
0.0
 11
51.3347035205
 21
45.1675280282
 31
0.0
 11
51.324958626
 21
45.1425683363
 31
0.0
 11
51.3116727097
 21
45.12148595569999
 31
0.0
 11
51.2950947795
 21
45.10467638449999
 31
0.0
 11
51.2828669242
 21
45.0962952105
 31
0.0
  0
SPLINE
  5
42E
330
1F
100
AcDbEntity
  8
0
  6
Continuous
100
AcDbSpline
210
0.0
220
0.0
230
1.0
 70
     8
 71
     3
 72
    10
 73
     6
 74
     4
 42
0.0000000001
 43
0.0000000001
 44
0.0000000001
 12
0.8653267825151187
 22
0.5012080999565272
 32
0.0
 13
0.5754683220511044
 23
0.8178240705162
 33
0.0
 40
0.0
 40
0.0
 40
0.0
 40
0.0
 40
0.0148244568595249
 40
0.0384335537004501
 40
0.0446242275244238
 40
0.0446242275244238
 40
0.0446242275244238
 40
0.0446242275244238
 10
51.22718922489999
 20
45.0640619734
 30
0.0
 10
51.23146522475225
 20
45.06653868601848
 30
0.0
 10
51.2420751504905
 20
45.07380887039144
 30
0.0
 10
51.2525757708416
 20
45.084560121584
 30
0.0
 10
51.25850540437404
 20
45.09252996094468
 30
0.0
 10
51.25969291659999
 20
45.0942175883
 30
0.0
 11
51.22718922489999
 21
45.0640619734
 31
0.0
 11
51.23941708020001
 21
45.07244314729999
 31
0.0
 11
51.25599501039999
 21
45.0892527185
 31
0.0
 11
51.25969291659999
 21
45.0942175883
 31
0.0
  0
SPLINE
  5
42F
330
1F
100
AcDbEntity
  8
0
  6
Continuous
100
AcDbSpline
210
0.0
220
0.0
230
1.0
 70
     8
 71
     3
 72
     8
 73
     4
 74
     2
 42
0.0000000001
 43
0.0000000001
 44
0.0000000001
 12
0.5754683168883909
 22
0.8178240741489839
 32
0.0
 13
0.5618414574076897
 23
0.8272449315275395
 33
0.0
 40
0.0
 40
0.0
 40
0.0
 40
0.0
 40
0.001946958931721
 40
0.001946958931721
 40
0.001946958931721
 40
0.001946958931721
 10
51.25969291659999
 20
45.0942175883
 30
0.0
 10
51.26006638765982
 20
45.09474834492857
 30
0.0
 10
51.26043543978543
 20
45.09528223776395
 30
0.0
 10
51.2608000672
 20
45.0958191084
 30
0.0
 11
51.25969291659999
 21
45.0942175883
 31
0.0
 11
51.2608000672
 21
45.0958191084
 31
0.0
  0
SPLINE
  5
430
330
1F
100
AcDbEntity
  8
0
  6
Continuous
100
AcDbSpline
210
0.0
220
0.0
230
1.0
 70
     8
 71
     3
 72
    15
 73
    11
 74
     9
 42
0.0000000001
 43
0.0000000001
 44
0.0000000001
 12
0.5618414496970649
 22
0.8272449367643785
 32
0.0
 13
-0.3620175081649997
 23
0.9321712953003887
 33
0.0
 40
0.0
 40
0.0
 40
0.0
 40
0.0
 40
0.0168118697312677
 40
0.0436064435953828
 40
0.0726046367529571
 40
0.1039188275646513
 40
0.137485882073158
 40
0.17309496644303
 40
0.2104365553044035
 40
0.2442866723291135
 40
0.2442866723291135
 40
0.2442866723291135
 40
0.2442866723291135
 10
51.2608000672
 20
45.0958191084
 30
0.0
 10
51.26394860228732
 20
45.10045495310424
 30
0.0
 10
51.27126863341475
 20
45.11306863592042
 30
0.0
 10
51.27996208510146
 20
45.13579633607153
 30
0.0
 10
51.28584032856197
 20
45.1643381347142
 30
0.0
 10
51.28787787598308
 20
45.19565099435371
 30
0.0
 10
51.28605891638696
 20
45.2291673831041
 30
0.0
 10
51.28042785978824
 20
45.26428291704887
 30
0.0
 10
51.27149643957888
 20
45.29879371857043
 30
0.0
 10
51.26369598643879
 20
45.321231653589
 30
0.0
 10
51.2596112081
 20
45.3317496894
 30
0.0
 11
51.2608000672
 21
45.0958191084
 31
0.0
 11
51.2692809267
 21
45.11033509909999
 31
0.0
 11
51.2790258212
 21
45.135294791
 31
0.0
 11
51.2850457695
 21
45.16366124
 31
0.0
 11
51.2872273941
 21
45.19489934270001
 31
0.0
 11
51.2855296376
 21
45.2284234351
 31
0.0
 11
51.2799847537
 21
45.2635981583
 31
0.0
 11
51.2706963311
 21
45.2997660925
 31
0.0
 11
51.2596112081
 21
45.3317496894
 31
0.0
  0
SPLINE
  5
431
330
1F
100
AcDbEntity
  8
0
  6
Continuous
100
AcDbSpline
210
0.0
220
0.0
230
1.0
 70
     8
 71
     3
 72
    16
 73
    12
 74
    10
 42
0.0000000001
 43
0.0000000001
 44
0.0000000001
 12
-0.3620175080825239
 22
0.932171295332419
 32
0.0
 13
-0.8651446325719579
 23
0.5015224468874071
 33
0.0
 40
0.0
 40
0.0
 40
0.0
 40
0.0
 40
0.0048274293508753
 40
0.0443881938255923
 40
0.0843454017465383
 40
0.1242012629208856
 40
0.1634575757386159
 40
0.201639342310962
 40
0.2383190137399906
 40
0.2731271488729325
 40
0.2895889197156293
 40
0.2895889197156293
 40
0.2895889197156293
 40
0.2895889197156293
 10
51.2596112081
 20
45.3317496894
 30
0.0
 10
51.25902867011865
 20
45.33324968642371
 30
0.0
 10
51.25360178864441
 20
45.34701452665308
 30
0.0
 10
51.24206990310613
 20
45.3726949565127
 30
0.0
 10
51.22292256993901
 20
45.40762133653102
 30
0.0
 10
51.20113931680355
 20
45.44084964387869
 30
0.0
 10
51.17712625752665
 20
45.47175929765187
 30
0.0
 10
51.15132754847431
 20
45.49977806127323
 30
0.0
 10
51.12422316223275
 20
45.52438440887773
 30
0.0
 10
51.10064366351998
 20
45.54190279353839
 30
0.0
 10
51.08611317699573
 20
45.55091703386895
 30
0.0
 10
51.0813659061
 20
45.5536690164
 30
0.0
 11
51.2596112081
 21
45.3317496894
 31
0.0
 11
51.2578406783
 21
45.3362407136
 31
0.0
 11
51.2416581219
 21
45.37234028359999
 31
0.0
 11
51.2224552684
 21
45.40738067289999
 31
0.0
 11
51.2005923202
 21
45.44070485579999
 31
0.0
 11
51.1764814846
 21
45.4716842958
 31
0.0
 11
51.150577556
 21
45.49973485339999
 31
0.0
 11
51.12336621789999
 21
45.52433040939999
 31
0.0
 11
51.09536317359999
 21
45.54500492949999
 31
0.0
 11
51.0813659061
 21
45.5536690164
 31
0.0
  0
SPLINE
  5
432
330
1F
100
AcDbEntity
  8
0
  6
Continuous
100
AcDbSpline
210
0.0
220
0.0
230
1.0
 70
     8
 71
     3
 72
    14
 73
    10
 74
     8
 42
0.0000000001
 43
0.0000000001
 44
0.0000000001
 12
-0.8651446323449416
 22
0.5015224472790183
 32
0.0
 13
-0.8652798801751069
 23
-0.501289067269727
 33
0.0
 40
0.0
 40
0.0
 40
0.0
 40
0.0
 40
0.0162198893057171
 40
0.0465877258509357
 40
0.0746629898693618
 40
0.1006396363270755
 40
0.1249442130039133
 40
0.1482283489034928
 40
0.1536128435381192
 40
0.1536128435381192
 40
0.1536128435381192
 40
0.1536128435381192
 10
51.0813659061
 20
45.5536690164
 30
0.0
 10
51.07668838937664
 20
45.55638056259307
 30
0.0
 10
51.06302297121953
 20
45.56377331164422
 30
0.0
 10
51.04004969113352
 20
45.57355449379296
 30
0.0
 10
51.01270733199362
 20
45.58068666833927
 30
0.0
 10
50.98652176481435
 20
45.58283558927239
 30
0.0
 10
50.96199496973055
 20
45.57987998029815
 30
0.0
 10
50.94522091236957
 20
45.57379369057955
 30
0.0
 10
50.93682021572409
 20
45.56923285823104
 30
0.0
 10
50.9352671841
 20
45.5683331288
 30
0.0
 11
51.0813659061
 21
45.5536690164
 31
0.0
 11
51.0670918117
 21
45.5613719404
 31
0.0
 11
51.0390887674
 21
45.5731207704
 31
0.0
 11
51.0118774293
 21
45.58003188669999
 31
0.0
 11
50.9859735007
 21
45.5819742163
 31
0.0
 11
50.9618626651
 21
45.57891152889999
 31
0.0
 11
50.93999971689999
 21
45.5709013803
 31
0.0
 11
50.9352671841
 21
45.5683331288
 31
0.0
  0
LINE
  5
433
330
1F
100
AcDbEntity
  8
0
  6
Continuous
100
AcDbLine
 10
69.45927039049999
 20
57.1569623476
 30
0.0
 11
69.37058336239999
 21
57.2673493906
 31
0.0
  0
LINE
  5
434
330
1F
100
AcDbEntity
  8
0
  6
Continuous
100
AcDbLine
 10
69.37058336239999
 20
57.2673493906
 30
0.0
 11
69.2818963344
 21
57.2596487029
 31
0.0
  0
LINE
  5
435
330
1F
100
AcDbEntity
  8
0
  6
Continuous
100
AcDbLine
 10
69.37058336239999
 20
57.2673493906
 30
0.0
 11
69.3195890027
 21
57.2378274579
 31
0.0
  0
LINE
  5
436
330
1F
100
AcDbEntity
  8
0
  6
Continuous
100
AcDbLine
 10
70.4315422146
 20
56.59408944369999
 30
0.0
 11
70.3428551866
 21
56.7044764867
 31
0.0
  0
LINE
  5
437
330
1F
100
AcDbEntity
  8
0
  6
Continuous
100
AcDbLine
 10
70.3428551866
 20
56.7044764867
 30
0.0
 11
70.2541681585
 21
56.696775799
 31
0.0
  0
LINE
  5
438
330
1F
100
AcDbEntity
  8
0
  6
Continuous
100
AcDbLine
 10
70.3428551866
 20
56.7044764867
 30
0.0
 11
70.29186082689999
 21
56.674954554
 31
0.0
  0
LINE
  5
439
330
1F
100
AcDbEntity
  8
0
  6
Continuous
100
AcDbLine
 10
50.14458939609999
 20
45.5747892692
 30
0.0
 11
49.96642075829999
 21
45.5593189005
 31
0.0
  0
LINE
  5
43A
330
1F
100
AcDbEntity
  8
0
  6
Continuous
100
AcDbLine
 10
49.96642075829999
 20
45.5593189005
 30
0.0
 11
49.8649611361
 21
45.68560374649999
 31
0.0
  0
LINE
  5
43B
330
1F
100
AcDbEntity
  8
0
  6
Continuous
100
AcDbLine
 10
49.8649611361
 20
45.68560374649999
 30
0.0
 11
49.78825212050001
 21
45.7810819871
 31
0.0
  0
LINE
  5
43C
330
1F
100
AcDbEntity
  8
0
  6
Continuous
100
AcDbLine
 10
49.78825212050001
 20
45.7810819871
 30
0.0
 11
49.78825212050001
 21
46.01831544239999
 31
0.0
  0
LINE
  5
43D
330
1F
100
AcDbEntity
  8
0
  6
Continuous
100
AcDbLine
 10
50.2871243063
 20
45.8945398117
 30
0.0
 11
50.2871243063
 21
45.6573063564
 31
0.0
  0
LINE
  5
43E
330
1F
100
AcDbEntity
  8
0
  6
Continuous
100
AcDbLine
 10
50.1089556685
 20
46.11630289829999
 30
0.0
 11
50.2871243063
 21
45.8945398117
 31
0.0
  0
LINE
  5
43F
330
1F
100
AcDbEntity
  8
0
  6
Continuous
100
AcDbLine
 10
49.9307870307
 20
46.10083252959999
 30
0.0
 11
50.1089556685
 21
46.11630289829999
 31
0.0
  0
LINE
  5
440
330
1F
100
AcDbEntity
  8
0
  6
Continuous
100
AcDbLine
 10
50.14458939609999
 20
45.5747892692
 30
0.0
 11
50.2871243063
 21
45.6573063564
 31
0.0
  0
LINE
  5
441
330
1F
100
AcDbEntity
  8
0
  6
Continuous
100
AcDbLine
 10
49.78825212050001
 20
46.01831544239999
 30
0.0
 11
49.9301820517
 21
46.10048229180001
 31
0.0
  0
LINE
  5
442
330
1F
100
AcDbEntity
  8
0
  6
Continuous
100
AcDbLine
 10
49.9301820517
 20
46.10048229180001
 30
0.0
 11
49.9307870307
 21
46.10083252959999
 31
0.0
  0
LINE
  5
443
330
1F
100
AcDbEntity
  8
0
  6
Continuous
100
AcDbLine
 10
50.14458939609999
 20
45.81202272459999
 30
0.0
 11
50.2871243063
 21
45.8945398117
 31
0.0
  0
LINE
  5
444
330
1F
100
AcDbEntity
  8
0
  6
Continuous
100
AcDbLine
 10
49.96642075829999
 20
46.0337858112
 30
0.0
 11
50.0638490288
 21
45.9125187114
 31
0.0
  0
LINE
  5
445
330
1F
100
AcDbEntity
  8
0
  6
Continuous
100
AcDbLine
 10
50.0638490288
 20
45.9125187114
 30
0.0
 11
50.14458939609999
 21
45.81202272459999
 31
0.0
  0
LINE
  5
446
330
1F
100
AcDbEntity
  8
0
  6
Continuous
100
AcDbLine
 10
50.14458939609999
 20
45.81202272459999
 30
0.0
 11
50.14458939609999
 21
45.5747892692
 31
0.0
  0
LINE
  5
447
330
1F
100
AcDbEntity
  8
0
  6
Continuous
100
AcDbLine
 10
49.96642075829999
 20
46.0337858112
 30
0.0
 11
50.1089556685
 21
46.11630289829999
 31
0.0
  0
LINE
  5
448
330
1F
100
AcDbEntity
  8
0
  6
Continuous
100
AcDbLine
 10
49.78825212050001
 20
46.01831544239999
 30
0.0
 11
49.96642075829999
 21
46.0337858112
 31
0.0
  0
LINE
  5
449
330
1F
100
AcDbEntity
  8
0
  6
Continuous
100
AcDbLine
 10
51.1168612202
 20
45.01191636529999
 30
0.0
 11
50.93869258239999
 21
44.99644599659999
 31
0.0
  0
LINE
  5
44A
330
1F
100
AcDbEntity
  8
0
  6
Continuous
100
AcDbLine
 10
50.93869258239999
 20
44.99644599659999
 30
0.0
 11
50.7605239446
 21
45.21820908319999
 31
0.0
  0
LINE
  5
44B
330
1F
100
AcDbEntity
  8
0
  6
Continuous
100
AcDbLine
 10
50.7605239446
 20
45.21820908319999
 30
0.0
 11
50.7605239446
 21
45.4554425385
 31
0.0
  0
LINE
  5
44C
330
1F
100
AcDbEntity
  8
0
  6
Continuous
100
AcDbLine
 10
51.25939613039999
 20
45.33166690779999
 30
0.0
 11
51.25939613039999
 21
45.0944334525
 31
0.0
  0
LINE
  5
44D
330
1F
100
AcDbEntity
  8
0
  6
Continuous
100
AcDbLine
 10
51.0812274926
 20
45.55342999439999
 30
0.0
 11
51.25939613039999
 21
45.33166690779999
 31
0.0
  0
LINE
  5
44E
330
1F
100
AcDbEntity
  8
0
  6
Continuous
100
AcDbLine
 10
50.9030588549
 20
45.53795962569999
 30
0.0
 11
51.0812274926
 21
45.55342999439999
 31
0.0
  0
LINE
  5
44F
330
1F
100
AcDbEntity
  8
0
  6
Continuous
100
AcDbLine
 10
51.1168612202
 20
45.01191636529999
 30
0.0
 11
51.25939613039999
 21
45.0944334525
 31
0.0
  0
LINE
  5
450
330
1F
100
AcDbEntity
  8
0
  6
Continuous
100
AcDbLine
 10
50.7605239446
 20
45.4554425385
 30
0.0
 11
50.9024538758
 21
45.53760938789999
 31
0.0
  0
LINE
  5
451
330
1F
100
AcDbEntity
  8
0
  6
Continuous
100
AcDbLine
 10
50.9024538758
 20
45.53760938789999
 30
0.0
 11
50.9030588549
 21
45.53795962569999
 31
0.0
  0
LINE
  5
452
330
1F
100
AcDbEntity
  8
0
  6
Continuous
100
AcDbLine
 10
51.1168612202
 20
45.2491498207
 30
0.0
 11
51.25939613039999
 21
45.33166690779999
 31
0.0
  0
LINE
  5
453
330
1F
100
AcDbEntity
  8
0
  6
Continuous
100
AcDbLine
 10
50.93869258239999
 20
45.4709129073
 30
0.0
 11
51.1168612202
 21
45.2491498207
 31
0.0
  0
LINE
  5
454
330
1F
100
AcDbEntity
  8
0
  6
Continuous
100
AcDbLine
 10
51.1168612202
 20
45.2491498207
 30
0.0
 11
51.1168612202
 21
45.01191636529999
 31
0.0
  0
LINE
  5
455
330
1F
100
AcDbEntity
  8
0
  6
Continuous
100
AcDbLine
 10
50.93869258239999
 20
45.4709129073
 30
0.0
 11
51.0812274926
 21
45.55342999439999
 31
0.0
  0
LINE
  5
456
330
1F
100
AcDbEntity
  8
0
  6
Continuous
100
AcDbLine
 10
50.7605239446
 20
45.4554425385
 30
0.0
 11
50.93869258239999
 21
45.4709129073
 31
0.0
  0
SPLINE
  5
457
330
1F
100
AcDbEntity
  8
0
  6
Continuous
100
AcDbSpline
210
0.0
220
0.0
230
1.0
 70
     8
 71
     3
 72
    15
 73
    11
 74
     9
 42
0.0000000001
 43
0.0000000001
 44
0.0000000001
 12
0.0
 22
1.0
 32
0.0
 13
-0.9996409955873236
 23
-0.0267932816426903
 33
0.0
 40
0.0
 40
0.0
 40
0.0
 40
0.0
 40
0.0373347375729371
 40
0.0782267520376614
 40
0.1210470272144839
 40
0.1638826183942052
 40
0.2048184344645956
 40
0.2422186848334191
 40
0.275054835277052
 40
0.2992088804311121
 40
0.2992088804311121
 40
0.2992088804311121
 40
0.2992088804311121
 10
71.63133458449999
 20
55.38946833869999
 30
0.0
 10
71.63133458449999
 20
55.40191325122431
 30
0.0
 10
71.62824836586262
 20
55.42801820092552
 30
0.0
 10
71.61647805304712
 20
55.46678023141445
 30
0.0
 10
71.59807743941801
 20
55.50492010722017
 30
0.0
 10
71.57424339836563
 20
55.53993192749213
 30
0.0
 10
71.54652041734791
 20
55.5695528715373
 30
0.0
 10
71.51665504939569
 20
55.59188363368497
 30
0.0
 10
71.48766276457705
 20
55.60492117821842
 30
0.0
 10
71.46855805811509
 20
55.60775659454487
 30
0.0
 10
71.4605096002
 20
55.6075408725
 30
0.0
 11
71.63133458449999
 21
55.38946833869999
 31
0.0
 11
71.62735906139999
 21
55.4265908096
 31
0.0
 11
71.6157034175
 21
55.4657865085
 31
0.0
 11
71.59716196560001
 21
55.50438431319999
 31
0.0
 11
71.57299827500001
 21
55.5397538471
 31
0.0
 11
71.5448590614
 21
55.569484735
 31
0.0
 11
71.5146619656
 21
55.5915508659
 31
0.0
 11
71.48446486979999
 21
55.6044484696
 31
0.0
 11
71.4605096002
 21
55.6075408725
 31
0.0
  0
LINE
  5
458
330
1F
100
AcDbEntity
  8
0
  6
Continuous
100
AcDbLine
 10
68.6862348408
 20
57.2565345064
 30
0.0
 11
68.6862348408
 21
57.3961523115
 31
0.0
  0
SPLINE
  5
459
330
1F
100
AcDbEntity
  8
0
  6
Continuous
100
AcDbSpline
210
0.0
220
0.0
230
1.0
 70
     8
 71
     3
 72
     8
 73
     4
 74
     2
 42
0.0000000001
 43
0.0000000001
 44
0.0000000001
 12
0.8670854039748125
 22
-0.4981595148281686
 32
0.0
 13
0.9522174485198549
 23
-0.3054209074938013
 33
0.0
 40
0.0
 40
0.0
 40
0.0
 40
0.0
 40
0.0273529039954662
 40
0.0273529039954662
 40
0.0273529039954662
 40
0.0273529039954662
 10
71.6035232281
 20
55.3733727906
 30
0.0
 10
71.61142899603693
 20
55.36883075413882
 30
0.0
 10
71.61978965018261
 20
55.36494327265363
 30
0.0
 10
71.628471621
 20
55.3621585564
 30
0.0
 11
71.6035232281
 21
55.3733727906
 31
0.0
 11
71.628471621
 21
55.3621585564
 31
0.0
  0
SPLINE
  5
45A
330
1F
100
AcDbEntity
  8
0
  6
Continuous
100
AcDbSpline
210
0.0
220
0.0
230
1.0
 70
     8
 71
     3
 72
    11
 73
     7
 74
     5
 42
0.0000000001
 43
0.0000000001
 44
0.0000000001
 12
-0.8654798255968282
 22
-0.5009437807627557
 32
0.0
 13
0.0
 23
-1.0
 33
0.0
 40
0.0
 40
0.0
 40
0.0
 40
0.0
 40
0.0082752927081993
 40
0.0258599280580595
 40
0.0455399940712451
 40
0.067911861803449
 40
0.067911861803449
 40
0.067911861803449
 40
0.067911861803449
 10
68.713032148
 20
57.45542956
 30
0.0
 10
68.71064478170338
 20
57.45404774119461
 30
0.0
 10
68.7035689957938
 20
57.44902577973692
 30
0.0
 10
68.69409242682849
 20
57.43670755536411
 30
0.0
 10
68.68750167738818
 20
57.41769617786646
 30
0.0
 10
68.6862348408
 20
57.40360960074406
 30
0.0
 10
68.6862348408
 20
57.3961523115
 30
0.0
 11
68.713032148
 21
57.45542956
 31
0.0
 11
68.70628973779999
 21
57.45063160479999
 31
0.0
 11
68.6953381669
 21
57.4368736073
 31
0.0
 11
68.6885395645
 21
57.4184051476
 31
0.0
 11
68.6862348408
 21
57.3961523115
 31
0.0
  0
SPLINE
  5
45B
330
1F
100
AcDbEntity
  8
0
  6
Continuous
100
AcDbSpline
210
0.0
220
0.0
230
1.0
 70
     8
 71
     3
 72
    11
 73
     7
 74
     5
 42
0.0000000001
 43
0.0000000001
 44
0.0000000001
 12
0.8654798252770872
 22
0.5009437813151717
 32
0.0
 13
0.8654345102918396
 23
-0.5010220637815505
 33
0.0
 40
0.0
 40
0.0
 40
0.0
 40
0.0
 40
0.0085856838621548
 40
0.0261988589050136
 40
0.0459248595826757
 40
0.0683471169726144
 40
0.0683471169726144
 40
0.0683471169726144
 40
0.0683471169726144
 10
68.80142049559999
 20
57.506599824
 30
0.0
 10
68.80389740765629
 20
57.50803347231302
 30
0.0
 10
68.81189678001475
 20
57.51168954375335
 30
0.0
 10
68.82743837479821
 20
57.51368763608276
 30
0.0
 10
68.84722674890887
 20
57.5098286095999
 30
0.0
 10
68.86007873821869
 20
57.50384964489072
 30
0.0
 10
68.86654706999999
 20
57.500104963
 30
0.0
 11
68.80142049559999
 21
57.506599824
 31
0.0
 11
68.80923346729999
 21
57.5101595207
 31
0.0
 11
68.8266627926
 21
57.51269773949999
 31
0.0
 11
68.8460920821
 21
57.5092892483
 31
0.0
 11
68.86654706999999
 21
57.500104963
 31
0.0
  0
LINE
  5
45C
330
1F
100
AcDbEntity
  8
0
  6
Continuous
100
AcDbLine
 10
68.8014142017
 20
57.5066119872
 30
0.0
 11
68.71302585409999
 21
57.45544172329999
 31
0.0
  0
SPLINE
  5
45D
330
1F
100
AcDbEntity
  8
0
  6
Continuous
100
AcDbSpline
210
0.0
220
0.0
230
1.0
 70
     8
 71
     3
 72
    19
 73
    15
 74
    13
 42
0.0000000001
 43
0.0000000001
 44
0.0000000001
 12
0.8654345102889166
 22
-0.501022063786599
 32
0.0
 13
-0.8653807963173068
 23
-0.5011148345092408
 33
0.0
 40
0.0
 40
0.0
 40
0.0
 40
0.0
 40
0.0838988638659058
 40
0.1744143162245512
 40
0.2696728102593658
 40
0.3673880877780995
 40
0.4650771601117452
 40
0.5602590826719691
 40
0.6506539008330967
 40
0.7343992065238158
 40
0.8103073388267738
 40
0.8781897136342912
 40
0.9392379176955646
 40
0.9956932008616316
 40
0.9956932008616316
 40
0.9956932008616316
 40
0.9956932008616316
 10
71.6030503132
 20
55.9158735898
 30
0.0
 10
71.62725330392119
 20
55.90186186249217
 30
0.0
 10
71.67505574114478
 20
55.86828593660193
 30
0.0
 10
71.74083306409724
 20
55.8066763058976
 30
0.0
 10
71.80145158723718
 20
55.73388844002546
 30
0.0
 10
71.85462754926788
 20
55.65265370441654
 30
0.0
 10
71.89838146264415
 20
55.56600581529312
 30
0.0
 10
71.93107318453404
 20
55.47718758233238
 30
0.0
 10
71.95148281673155
 20
55.38949993371133
 30
0.0
 10
71.95883380795987
 20
55.3061513930923
 30
0.0
 10
71.95277822809875
 20
55.2301166475354
 30
0.0
 10
71.93324724197951
 20
55.16403860219667
 30
0.0
 10
71.90050500637761
 20
55.11062834716867
 30
0.0
 10
71.86984325596752
 20
55.08489449039364
 30
0.0
 10
71.85355815
 20
55.0754642971
 30
0.0
 11
71.6030503132
 21
55.9158735898
 31
0.0
 11
71.67202515799999
 21
55.868108643
 31
0.0
 11
71.7383493383
 21
55.8065119692
 31
0.0
 11
71.7994740528
 21
55.7334506938
 31
0.0
 11
71.8530503132
 21
55.65173252090001
 31
0.0
 11
71.89701921380001
 21
55.5644978338
 31
0.0
 11
71.92969105439999
 21
55.4750990127
 31
0.0
 11
71.94981027459999
 21
55.38697160419999
 31
0.0
 11
71.9566037038
 21
55.3035022952
 31
0.0
 11
71.94981027459999
 21
55.2278987644
 31
0.0
 11
71.92969105439999
 21
55.163066413
 31
0.0
 11
71.89701921380001
 21
55.1114967121
 31
0.0
 11
71.85355815
 21
55.0754642971
 31
0.0
  0
LINE
  5
45E
330
1F
100
AcDbEntity
  8
0
  6
Continuous
100
AcDbLine
 10
68.86654706999999
 20
57.500104963
 30
0.0
 11
71.6030503132
 21
55.9158735898
 31
0.0
  0
SPLINE
  5
45F
330
1F
100
AcDbEntity
  8
0
  6
Continuous
100
AcDbSpline
210
0.0
220
0.0
230
1.0
 70
     8
 71
     3
 72
    11
 73
     7
 74
     5
 42
0.0000000001
 43
0.0000000001
 44
0.0000000001
 12
-0.8653807962702776
 22
-0.5011148345904559
 32
0.0
 13
-0.9873771611377518
 23
0.1583866839843359
 33
0.0
 40
0.0
 40
0.0
 40
0.0
 40
0.0
 40
0.0005862201021334
 40
0.0576643162596066
 40
0.118831836557263
 40
0.1337203047029961
 40
0.1337203047029961
 40
0.1337203047029961
 40
0.1337203047029961
 10
71.76516980239999
 20
55.0242940331
 30
0.0
 10
71.76500070119374
 20
55.0241961119035
 30
0.0
 10
71.74834991910582
 20
55.01459439411375
 30
0.0
 10
71.71026421326849
 20
55.00086881715381
 30
0.0
 10
71.66523089957024
 20
54.99986760813223
 30
0.0
 10
71.64009859250381
 20
55.00317438106693
 30
0.0
 10
71.6351984147
 20
55.00396042609999
 30
0.0
 11
71.76516980239999
 21
55.0242940331
 31
0.0
 11
71.76466196559999
 21
55.0240011922
 31
0.0
 11
71.71108570520001
 21
55.0043163406
 31
0.0
 11
71.64996099060001
 21
55.00202837109999
 31
0.0
 11
71.6351984147
 21
55.00396042609999
 31
0.0
  0
LINE
  5
460
330
1F
100
AcDbEntity
  8
0
  6
Continuous
100
AcDbLine
 10
71.7651729975
 20
55.024295832
 30
0.0
 11
71.8535613451
 21
55.07546609600001
 31
0.0
  0
SPLINE
  5
461
330
1F
100
AcDbEntity
  8
0
  6
Continuous
100
AcDbSpline
210
0.0
220
0.0
230
1.0
 70
     8
 71
     3
 72
     8
 73
     4
 74
     2
 42
0.0000000001
 43
0.0000000001
 44
0.0000000001
 12
-0.2091122206900383
 22
-0.9778916500093865
 32
0.0
 13
0.0
 23
-1.0
 33
0.0
 40
0.0
 40
0.0
 40
0.0
 40
0.0
 40
0.0273444897595875
 40
0.0273444897595875
 40
0.0273444897595875
 40
0.0273444897595875
 10
71.4890756982
 20
55.6029391616
 30
0.0
 10
71.48716967587424
 20
55.59402584553011
 30
0.0
 10
71.4863776943
 20
55.58484292951986
 30
0.0
 10
71.4863776943
 20
55.57572809959999
 30
0.0
 11
71.4890756982
 21
55.6029391616
 31
0.0
 11
71.4863776943
 21
55.57572809959999
 31
0.0
  0
SPLINE
  5
462
330
1F
100
AcDbEntity
  8
0
  6
Continuous
100
AcDbSpline
210
0.0
220
0.0
230
1.0
 70
     8
 71
     3
 72
     9
 73
     5
 74
     3
 42
0.0000000001
 43
0.0000000001
 44
0.0000000001
 12
0.5214618569783816
 22
0.8532745933851881
 32
0.0
 13
0.0
 23
1.0
 33
0.0
 40
0.0
 40
0.0
 40
0.0
 40
0.0
 40
0.0237196106094298
 40
0.0564811226942679
 40
0.0564811226942679
 40
0.0564811226942679
 40
0.0564811226942679
 10
71.6182156181
 20
55.3350624653
 30
0.0
 10
71.6223385754984
 20
55.34180891233267
 30
0.0
 10
71.62938705137297
 20
55.35958572892152
 30
0.0
 10
71.63133458449999
 20
55.37854783467172
 30
0.0
 10
71.63133458449999
 20
55.38946833869999
 30
0.0
 11
71.6182156181
 21
55.3350624653
 31
0.0
 11
71.62735906139999
 21
55.3569489308
 31
0.0
 11
71.63133458449999
 21
55.38946833869999
 31
0.0
  0
LINE
  5
463
330
1F
100
AcDbEntity
  8
0
  6
Continuous
100
AcDbLine
 10
68.86654706999999
 20
57.500104963
 30
0.0
 11
68.77815872239999
 21
57.448934699
 31
0.0
  0
LINE
  5
464
330
1F
100
AcDbEntity
  8
0
  6
Continuous
100
AcDbLine
 10
71.5146619656
 20
55.8647033258
 30
0.0
 11
71.6030503132
 21
55.9158735898
 31
0.0
  0
SPLINE
  5
465
330
1F
100
AcDbEntity
  8
0
  6
Continuous
100
AcDbSpline
210
0.0
220
0.0
230
1.0
 70
     8
 71
     3
 72
    11
 73
     7
 74
     5
 42
0.0000000001
 43
0.0000000001
 44
0.0000000001
 12
-0.8654345102918396
 22
0.5010220637815505
 32
0.0
 13
-0.8654798252770872
 23
-0.5009437813151717
 33
0.0
 40
0.0
 40
0.0
 40
0.0
 40
0.0
 40
0.0224222574811695
 40
0.0421482581588316
 40
0.0597614331027185
 40
0.0683471169648862
 40
0.0683471169648862
 40
0.0683471169648862
 40
0.0683471169648862
 10
68.77815872239999
 20
57.448934699
 30
0.0
 10
68.77169039059237
 20
57.45267938090595
 30
0.0
 10
68.75883840123198
 20
57.45865834557378
 30
0.0
 10
68.73905002713176
 20
57.46251737209012
 30
0.0
 10
68.72350843238414
 20
57.46051927973842
 30
0.0
 10
68.7155090600563
 20
57.45686320831303
 30
0.0
 10
68.713032148
 20
57.45542956
 30
0.0
 11
68.77815872239999
 21
57.448934699
 31
0.0
 11
68.75770373439999
 21
57.4581189843
 31
0.0
 11
68.7382744449
 21
57.4615274755
 31
0.0
 11
68.7208451197
 21
57.4589892567
 31
0.0
 11
68.713032148
 21
57.45542956
 31
0.0
  0
LINE
  5
466
330
1F
100
AcDbEntity
  8
0
  6
Continuous
100
AcDbLine
 10
68.77815872239999
 20
57.448934699
 30
0.0
 11
71.5146619656
 21
55.8647033258
 31
0.0
  0
SPLINE
  5
467
330
1F
100
AcDbEntity
  8
0
  6
Continuous
100
AcDbSpline
210
0.0
220
0.0
230
1.0
 70
     8
 71
     3
 72
    19
 73
    15
 74
    13
 42
0.0000000001
 43
0.0000000001
 44
0.0000000001
 12
0.8654345102889166
 22
-0.501022063786599
 32
0.0
 13
-0.8653807963173068
 23
-0.5011148345092408
 33
0.0
 40
0.0
 40
0.0
 40
0.0
 40
0.0
 40
0.0838988638089772
 40
0.17441431616241
 40
0.2696728101846992
 40
0.3673880877870554
 40
0.4650771601207011
 40
0.56025908268093
 40
0.650653900819783
 40
0.7343992065186285
 40
0.8103073388305222
 40
0.8781897136084101
 40
0.939237917669679
 40
0.995693200835746
 40
0.995693200835746
 40
0.995693200835746
 40
0.995693200835746
 10
71.5146619656
 20
55.8647033258
 30
0.0
 10
71.53886495630477
 20
55.85069159850169
 30
0.0
 10
71.58666739362637
 20
55.81711567277033
 30
0.0
 10
71.652444716309
 20
55.75550604181408
 30
0.0
 10
71.7130632397257
 20
55.68271817615928
 30
0.0
 10
71.7662392016271
 20
55.60148344041735
 30
0.0
 10
71.8099931150374
 20
55.51483555129708
 30
0.0
 10
71.84268483698321
 20
55.42601731834661
 30
0.0
 10
71.86309446894572
 20
55.33832966969338
 30
0.0
 10
71.87044546045237
 20
55.25498112908896
 30
0.0
 10
71.86438988032191
 20
55.17894638356179
 30
0.0
 10
71.84485889441392
 20
55.11286833817824
 30
0.0
 10
71.81211665876766
 20
55.05945808317115
 30
0.0
 10
71.78145490836752
 20
55.03372422639365
 30
0.0
 10
71.76516980239999
 20
55.0242940331
 30
0.0
 11
71.5146619656
 21
55.8647033258
 31
0.0
 11
71.58363681039999
 21
55.8169383791
 31
0.0
 11
71.64996099060001
 21
55.7553417052
 31
0.0
 11
71.71108570520001
 21
55.6822804299
 31
0.0
 11
71.76466196559999
 21
55.6005622569
 31
0.0
 11
71.8086308662
 21
55.51332756979999
 31
0.0
 11
71.8413027068
 21
55.42392874869999
 31
0.0
 11
71.86142192689999
 21
55.33580134020001
 31
0.0
 11
71.8682153562
 21
55.25233203119999
 31
0.0
 11
71.86142192689999
 21
55.1767285004
 31
0.0
 11
71.8413027068
 21
55.111896149
 31
0.0
 11
71.8086308662
 21
55.06032644810001
 31
0.0
 11
71.76516980239999
 21
55.0242940331
 31
0.0
  0
SPLINE
  5
468
330
1F
100
AcDbEntity
  8
0
  6
Continuous
100
AcDbSpline
210
0.0
220
0.0
230
1.0
 70
     8
 71
     3
 72
    16
 73
    12
 74
    10
 42
0.0000000001
 43
0.0000000001
 44
0.0000000001
 12
0.0
 22
1.0
 32
0.0
 13
-0.8653100033368984
 23
-0.5012370677883837
 33
0.0
 40
0.0
 40
0.0
 40
0.0
 40
0.0
 40
0.0373347376723703
 40
0.0782267520412412
 40
0.1210470272180762
 40
0.1638826183977837
 40
0.2048184344681689
 40
0.2422186848369966
 40
0.2750548352806295
 40
0.3033380204949833
 40
0.3287945880849583
 40
0.3287945880849583
 40
0.3287945880849583
 40
0.3287945880849583
 10
71.33081420249999
 20
55.2154894411
 30
0.0
 10
71.33081420249999
 20
55.22793435365745
 30
0.0
 10
71.3277279808191
 20
55.25403929954919
 30
0.0
 10
71.31595768311874
 20
55.29280134886472
 30
0.0
 10
71.29755701027342
 20
55.33094115106049
 30
0.0
 10
71.2737231887295
 20
55.36595324398091
 30
0.0
 10
71.24599944606996
 20
55.39557324201251
 30
0.0
 10
71.21613655728913
 20
55.41790708346548
 30
0.0
 10
71.18586834009682
 20
55.43150545066154
 30
0.0
 10
71.15669287432604
 20
55.43528745592871
 30
0.0
 10
71.13881744242874
 20
55.43008519563159
 30
0.0
 10
71.1314748349
 20
55.4258319372
 30
0.0
 11
71.33081420249999
 21
55.2154894411
 31
0.0
 11
71.32683867939999
 21
55.2526119121
 31
0.0
 11
71.3151830355
 21
55.2918076109
 31
0.0
 11
71.29664158359999
 21
55.33040541560001
 31
0.0
 11
71.272477893
 21
55.3657749495
 31
0.0
 11
71.2443386794
 21
55.39550583739999
 31
0.0
 11
71.2141415836
 21
55.4175719683
 31
0.0
 11
71.18394448779999
 21
55.430469572
 31
0.0
 11
71.1558052741
 21
55.433319698
 31
0.0
 11
71.1314748349
 21
55.4258319372
 31
0.0
  0
LINE
  5
469
330
1F
100
AcDbEntity
  8
0
  6
Continuous
100
AcDbLine
 10
71.2141415836
 20
54.875343951
 30
0.0
 11
70.0137833468
 21
55.5702618841
 31
0.0
  0
LINE
  5
46A
330
1F
100
AcDbEntity
  8
0
  6
Continuous
100
AcDbLine
 10
68.38571445879999
 20
57.1664233454
 30
0.0
 11
68.38571445879999
 21
57.2221734139
 31
0.0
  0
SPLINE
  5
46B
330
1F
100
AcDbEntity
  8
0
  6
Continuous
100
AcDbSpline
210
0.0
220
0.0
230
1.0
 70
     8
 71
     3
 72
    14
 73
    10
 74
     8
 42
0.0000000001
 43
0.0000000001
 44
0.0000000001
 12
0.0
 22
-1.0
 32
0.0
 13
0.9522174491032535
 23
-0.3054209056749269
 33
0.0
 40
0.0
 40
0.0
 40
0.0
 40
0.0
 40
0.0373347375729371
 40
0.0782267520376614
 40
0.12104702721449
 40
0.1638826183942114
 40
0.2048184344645869
 40
0.2422186848334145
 40
0.2701148212889151
 40
0.2701148212889151
 40
0.2701148212889151
 40
0.2701148212889151
 10
71.1858573123
 20
55.4017492021
 30
0.0
 10
71.1858573123
 20
55.38930428957569
 30
0.0
 10
71.18894353959515
 20
55.36319934053537
 30
0.0
 10
71.20071380966692
 20
55.32443730678354
 30
0.0
 10
71.21911459024085
 20
55.28629744372187
 30
0.0
 10
71.24294801272061
 20
55.25128557623
 30
0.0
 10
71.27067314000452
 20
55.22166479602413
 30
0.0
 10
71.29920474404205
 20
55.20032580706037
 30
0.0
 10
71.31909684303484
 20
55.19101967988703
 30
0.0
 10
71.327951239
 20
55.1881796588
 30
0.0
 11
71.1858573123
 21
55.4017492021
 31
0.0
 11
71.1898328354
 21
55.36462673119999
 31
0.0
 11
71.2014884793
 21
55.3254310323
 31
0.0
 11
71.2200299312
 21
55.2868332276
 31
0.0
 11
71.24419362180001
 21
55.25146369369999
 31
0.0
 11
71.27233283539999
 21
55.2217328058
 31
0.0
 11
71.3025299312
 21
55.19966667489999
 31
0.0
 11
71.327951239
 21
55.1881796588
 31
0.0
  0
SPLINE
  5
46C
330
1F
100
AcDbEntity
  8
0
  6
Continuous
100
AcDbSpline
210
0.0
220
0.0
230
1.0
 70
     8
 71
     3
 72
    11
 73
     7
 74
     5
 42
0.0000000001
 43
0.0000000001
 44
0.0000000001
 12
-0.8654798255968282
 22
-0.5009437807627557
 32
0.0
 13
0.0
 23
-1.0
 33
0.0
 40
0.0
 40
0.0
 40
0.0
 40
0.0
 40
0.0082752927081951
 40
0.0258599280580642
 40
0.0455399940712632
 40
0.0679118618034529
 40
0.0679118618034529
 40
0.0679118618034529
 40
0.0679118618034529
 10
68.41251176600001
 20
57.28145066239999
 30
0.0
 10
68.41012439970339
 20
57.28006884359461
 30
0.0
 10
68.40304861379379
 20
57.27504688213693
 30
0.0
 10
68.3935720448285
 20
57.26272865776415
 30
0.0
 10
68.38698129538818
 20
57.24371728026645
 30
0.0
 10
68.38571445879999
 20
57.22963070314406
 30
0.0
 10
68.38571445879999
 20
57.2221734139
 30
0.0
 11
68.41251176600001
 21
57.28145066239999
 31
0.0
 11
68.4057693558
 21
57.2766527072
 31
0.0
 11
68.3948177849
 21
57.2628947097
 31
0.0
 11
68.3880191825
 21
57.24442625
 31
0.0
 11
68.38571445879999
 21
57.2221734139
 31
0.0
  0
SPLINE
  5
46D
330
1F
100
AcDbEntity
  8
0
  6
Continuous
100
AcDbSpline
210
0.0
220
0.0
230
1.0
 70
     8
 71
     3
 72
    11
 73
     7
 74
     5
 42
0.0000000001
 43
0.0000000001
 44
0.0000000001
 12
0.8654798252770872
 22
0.5009437813151717
 32
0.0
 13
0.8654345102918396
 23
-0.5010220637815505
 33
0.0
 40
0.0
 40
0.0
 40
0.0
 40
0.0
 40
0.0085856839036234
 40
0.026198858932058
 40
0.0459248596097201
 40
0.0683471169996747
 40
0.0683471169996747
 40
0.0683471169996747
 40
0.0683471169996747
 10
68.50090011359999
 20
57.3326209264
 30
0.0
 10
68.50337702566825
 20
57.33405457471995
 30
0.0
 10
68.51137639795723
 20
57.33771064634732
 30
0.0
 10
68.52691799282363
 20
57.33970873840668
 30
0.0
 10
68.54670636690177
 20
57.33584971202568
 30
0.0
 10
68.5595583562187
 20
57.32987074729071
 30
0.0
 10
68.566026688
 20
57.3261260654
 30
0.0
 11
68.50090011359999
 21
57.3326209264
 31
0.0
 11
68.5087130853
 21
57.33618062319999
 31
0.0
 11
68.5261424106
 21
57.3387188419
 31
0.0
 11
68.5455717001
 21
57.3353103507
 31
0.0
 11
68.566026688
 21
57.3261260654
 31
0.0
  0
LINE
  5
46E
330
1F
100
AcDbEntity
  8
0
  6
Continuous
100
AcDbLine
 10
68.5008938197
 20
57.3326330897
 30
0.0
 11
68.41250547209999
 21
57.2814628257
 31
0.0
  0
SPLINE
  5
46F
330
1F
100
AcDbEntity
  8
0
  6
Continuous
100
AcDbSpline
210
0.0
220
0.0
230
1.0
 70
     8
 71
     3
 72
    19
 73
    15
 74
    13
 42
0.0000000001
 43
0.0000000001
 44
0.0000000001
 12
0.8654345102889166
 22
-0.501022063786599
 32
0.0
 13
-0.8653807963173068
 23
-0.5011148345092408
 33
0.0
 40
0.0
 40
0.0
 40
0.0
 40
0.0
 40
0.083898863808993
 40
0.1744143162356802
 40
0.2696728101938046
 40
0.3673880877961668
 40
0.4650771601298125
 40
0.560259082596104
 40
0.6506539007572315
 40
0.7343992065476228
 40
0.8103073388505739
 40
0.8781897136580981
 40
0.9392379177193715
 40
0.9956932008854385
 40
0.9956932008854385
 40
0.9956932008854385
 40
0.9956932008854385
 10
71.3025299312
 20
55.74189469220001
 30
0.0
 10
71.32673292190478
 20
55.7278829649017
 30
0.0
 10
71.37453535922368
 20
55.69430703913293
 30
0.0
 10
71.44031268201636
 20
55.63269740828435
 30
0.0
 10
71.50093120531107
 20
55.55990954251768
 30
0.0
 10
71.55410716723318
 20
55.47867480682414
 30
0.0
 10
71.59786108062554
 20
55.39202691772189
 30
0.0
 10
71.63055280255131
 20
55.30320868480503
 30
0.0
 10
71.65096243473818
 20
55.21552103617816
 30
0.0
 10
71.65831342595888
 20
55.13217249552551
 30
0.0
 10
71.65225784609958
 20
55.05613774993542
 30
0.0
 10
71.63272685997931
 20
54.99005970459666
 30
0.0
 10
71.59998462437767
 20
54.93664944956866
 30
0.0
 10
71.56932287396752
 20
54.91091559279364
 30
0.0
 10
71.553037768
 20
54.90148539949999
 30
0.0
 11
71.3025299312
 21
55.74189469220001
 31
0.0
 11
71.37150477600001
 21
55.6941297455
 31
0.0
 11
71.4378289563
 21
55.6325330716
 31
0.0
 11
71.4989536708
 21
55.5594717963
 31
0.0
 11
71.5525299312
 21
55.4777536233
 31
0.0
 11
71.59649883180001
 21
55.39051893619999
 31
0.0
 11
71.62917067239999
 21
55.3011201152
 31
0.0
 11
71.64928989259999
 21
55.2129927067
 31
0.0
 11
71.65608332179999
 21
55.1295233976
 31
0.0
 11
71.64928989259999
 21
55.0539198668
 31
0.0
 11
71.62917067239999
 21
54.9890875154
 31
0.0
 11
71.59649883180001
 21
54.9375178145
 31
0.0
 11
71.553037768
 21
54.90148539949999
 31
0.0
  0
LINE
  5
470
330
1F
100
AcDbEntity
  8
0
  6
Continuous
100
AcDbLine
 10
68.566026688
 20
57.3261260654
 30
0.0
 11
71.3025299312
 21
55.74189469220001
 31
0.0
  0
SPLINE
  5
471
330
1F
100
AcDbEntity
  8
0
  6
Continuous
100
AcDbSpline
210
0.0
220
0.0
230
1.0
 70
     8
 71
     3
 72
    12
 73
     8
 74
     6
 42
0.0000000001
 43
0.0000000001
 44
0.0000000001
 12
-0.8653807962593281
 22
-0.5011148346093651
 32
0.0
 13
-0.8654345102630008
 23
0.5010220638313646
 33
0.0
 40
0.0
 40
0.0
 40
0.0
 40
0.0
 40
0.0005862201021334
 40
0.0576643162596066
 40
0.118831836557277
 40
0.1868747698009143
 40
0.262952280779245
 40
0.262952280779245
 40
0.262952280779245
 40
0.262952280779245
 10
71.46464942039999
 20
54.8503151355
 30
0.0
 10
71.46448031919374
 20
54.85021721430349
 30
0.0
 10
71.44782957942101
 20
54.84061548794166
 30
0.0
 10
71.40972680559322
 20
54.82689336851911
 30
0.0
 10
71.34679809871221
 20
54.82547532683522
 30
0.0
 10
71.27971985850618
 20
54.84179119176521
 30
0.0
 10
71.23608828475184
 20
54.86263844714617
 30
0.0
 10
71.2141415836
 20
54.875343951
 30
0.0
 11
71.46464942039999
 21
54.8503151355
 31
0.0
 11
71.46414158359999
 21
54.8500222946
 31
0.0
 11
71.4105653232
 21
54.83033744300001
 31
0.0
 11
71.34944060859999
 21
54.8280494735
 31
0.0
 11
71.2831164284
 21
54.84324631149999
 31
0.0
 11
71.2141415836
 21
54.875343951
 31
0.0
  0
LINE
  5
472
330
1F
100
AcDbEntity
  8
0
  6
Continuous
100
AcDbLine
 10
71.4646526155
 20
54.8503169345
 30
0.0
 11
71.5530409631
 21
54.90148719850001
 31
0.0
  0
SPLINE
  5
473
330
1F
100
AcDbEntity
  8
0
  6
Continuous
100
AcDbSpline
210
0.0
220
0.0
230
1.0
 70
     8
 71
     3
 72
     8
 73
     4
 74
     2
 42
0.0000000001
 43
0.0000000001
 44
0.0000000001
 12
-0.2091122206900383
 22
-0.9778916500093865
 32
0.0
 13
0.0
 23
-1.0
 33
0.0
 40
0.0
 40
0.0
 40
0.0
 40
0.0
 40
0.0273444896600737
 40
0.0273444896600737
 40
0.0273444896600737
 40
0.0273444896600737
 10
71.18855531619999
 20
55.428960264
 30
0.0
 10
71.18664929388117
 20
55.42004694796254
 30
0.0
 10
71.1858573123
 20
55.41086403198669
 30
0.0
 10
71.1858573123
 20
55.4017492021
 30
0.0
 11
71.18855531619999
 21
55.428960264
 31
0.0
 11
71.1858573123
 21
55.4017492021
 31
0.0
  0
SPLINE
  5
474
330
1F
100
AcDbEntity
  8
0
  6
Continuous
100
AcDbSpline
210
0.0
220
0.0
230
1.0
 70
     8
 71
     3
 72
    10
 73
     6
 74
     4
 42
0.0000000001
 43
0.0000000001
 44
0.0000000001
 12
0.8653100033927232
 22
0.5012370676920104
 32
0.0
 13
0.0
 23
0.9999999999999998
 33
0.0
 40
0.0
 40
0.0
 40
0.0
 40
0.0
 40
0.0250552609858404
 40
0.0532750123342126
 40
0.0860365244190507
 40
0.0860365244190507
 40
0.0860365244190507
 40
0.0860365244190507
 10
71.2968083322
 20
55.14023644199999
 30
0.0
 10
71.30403518818956
 20
55.1444226505156
 30
0.0
 10
71.31737357274174
 20
55.1571497442883
 30
0.0
 10
71.32870517893623
 20
55.18409992178725
 30
0.0
 10
71.33081420249999
 20
55.20456893707172
 30
0.0
 10
71.33081420249999
 20
55.2154894411
 30
0.0
 11
71.2968083322
 21
55.14023644199999
 31
0.0
 11
71.3151830355
 21
55.1572698322
 31
0.0
 11
71.32683867939999
 21
55.1829700332
 31
0.0
 11
71.33081420249999
 21
55.2154894411
 31
0.0
  0
SPLINE
  5
475
330
1F
100
AcDbEntity
  8
0
  6
Continuous
100
AcDbSpline
210
0.0
220
0.0
230
1.0
 70
     8
 71
     3
 72
    16
 73
    12
 74
    10
 42
0.0000000001
 43
0.0000000001
 44
0.0000000001
 12
0.0
 22
-1.0
 32
0.0
 13
0.8653100033368984
 23
0.5012370677883837
 33
0.0
 40
0.0
 40
0.0
 40
0.0
 40
0.0
 40
0.0373347375729371
 40
0.0782267520376682
 40
0.1210470272144968
 40
0.163882618337801
 40
0.2048184344769227
 40
0.2422186848457462
 40
0.2750548352893791
 40
0.3033380204042543
 40
0.3287945879942271
 40
0.3287945879942271
 40
0.3287945879942271
 40
0.3287945879942271
 10
71.09746896469999
 20
55.35057893810001
 30
0.0
 10
71.09746896469999
 20
55.33813402557569
 30
0.0
 10
71.10055518641168
 20
55.31202907969199
 30
0.0
 10
71.11232548404919
 20
55.27326703035581
 30
0.0
 10
71.13072615695102
 20
55.23512722817912
 30
0.0
 10
71.1545599783514
 20
55.20011513515057
 30
0.0
 10
71.18228372113589
 20
55.17049513722285
 30
0.0
 10
71.21214660990552
 20
55.14816129572944
 30
0.0
 10
71.24241482707347
 20
55.13456292855415
 30
0.0
 10
71.27159029280632
 20
55.13078092327305
 30
0.0
 10
71.28946572467126
 20
55.13598318356841
 30
0.0
 10
71.2968083322
 20
55.14023644199999
 30
0.0
 11
71.09746896469999
 21
55.35057893810001
 31
0.0
 11
71.10144448779999
 21
55.31345646720001
 31
0.0
 11
71.11310013169999
 21
55.2742607683
 31
0.0
 11
71.1316415836
 21
55.2356629636
 31
0.0
 11
71.1558052741
 21
55.2002934297
 31
0.0
 11
71.18394448779999
 21
55.1705625418
 31
0.0
 11
71.2141415836
 21
55.1484964109
 31
0.0
 11
71.2443386794
 21
55.1355988072
 31
0.0
 11
71.272477893
 21
55.13274868119999
 31
0.0
 11
71.2968083322
 21
55.14023644199999
 31
0.0
  0
LINE
  5
476
330
1F
100
AcDbEntity
  8
0
  6
Continuous
100
AcDbLine
 10
68.566026688
 20
57.3261260654
 30
0.0
 11
68.47763834040001
 21
57.27495580140001
 31
0.0
  0
LINE
  5
477
330
1F
100
AcDbEntity
  8
0
  6
Continuous
100
AcDbLine
 10
71.2141415836
 20
55.6907244282
 30
0.0
 11
71.3025299312
 21
55.74189469220001
 31
0.0
  0
SPLINE
  5
478
330
1F
100
AcDbEntity
  8
0
  6
Continuous
100
AcDbSpline
210
0.0
220
0.0
230
1.0
 70
     8
 71
     3
 72
    11
 73
     7
 74
     5
 42
0.0000000001
 43
0.0000000001
 44
0.0000000001
 12
-0.8654345102918396
 22
0.5010220637815505
 32
0.0
 13
-0.8654798252770872
 23
-0.5009437813151717
 33
0.0
 40
0.0
 40
0.0
 40
0.0
 40
0.0
 40
0.0224222574811796
 40
0.0421482581761212
 40
0.059761433120008
 40
0.0683471170236243
 40
0.0683471170236243
 40
0.0683471170236243
 40
0.0683471170236243
 10
68.47763834040001
 20
57.27495580140001
 30
0.0
 10
68.47117000859238
 20
57.27870048330596
 30
0.0
 10
68.45831801921396
 20
57.2846794479418
 30
0.0
 10
68.4385296451573
 20
57.28853847459204
 30
0.0
 10
68.42298805033303
 20
57.28654038231216
 30
0.0
 10
68.41498867806826
 20
57.28288431071995
 30
0.0
 10
68.41251176600001
 20
57.28145066239999
 30
0.0
 11
68.47763834040001
 21
57.27495580140001
 31
0.0
 11
68.45718335239999
 21
57.2841400867
 31
0.0
 11
68.43775406289999
 21
57.287548578
 31
0.0
 11
68.4203247377
 21
57.2850103592
 31
0.0
 11
68.41251176600001
 21
57.28145066239999
 31
0.0
  0
LINE
  5
479
330
1F
100
AcDbEntity
  8
0
  6
Continuous
100
AcDbLine
 10
68.47763834040001
 20
57.27495580140001
 30
0.0
 11
71.2141415836
 21
55.6907244282
 31
0.0
  0
SPLINE
  5
47A
330
1F
100
AcDbEntity
  8
0
  6
Continuous
100
AcDbSpline
210
0.0
220
0.0
230
1.0
 70
     8
 71
     3
 72
    19
 73
    15
 74
    13
 42
0.0000000001
 43
0.0000000001
 44
0.0000000001
 12
0.8654345102889166
 22
-0.501022063786599
 32
0.0
 13
-0.8653807963173068
 23
-0.5011148345092408
 33
0.0
 40
0.0
 40
0.0
 40
0.0
 40
0.0
 40
0.083898863808993
 40
0.1744143161624001
 40
0.2696728101846983
 40
0.3673880877870487
 40
0.4650771601206944
 40
0.5602590825869991
 40
0.6506539007258553
 40
0.734399206524373
 40
0.8103073388362737
 40
0.8781897135186506
 40
0.9392379176643872
 40
0.9956932008304541
 40
0.9956932008304541
 40
0.9956932008304541
 40
0.9956932008304541
 10
71.2141415836
 20
55.6907244282
 30
0.0
 10
71.23834457430477
 20
55.67671270090169
 30
0.0
 10
71.28614701162636
 20
55.64313677517032
 30
0.0
 10
71.35192433430919
 20
55.58152714421416
 30
0.0
 10
71.41254285772491
 20
55.50873927855896
 30
0.0
 10
71.46571881963002
 20
55.42750454281846
 30
0.0
 10
71.50947273301243
 20
55.34085665372099
 30
0.0
 10
71.54216445500151
 20
55.25203842082068
 30
0.0
 10
71.5625740869539
 20
55.16435077215913
 30
0.0
 10
71.56992507844496
 20
55.08100223152483
 30
0.0
 10
71.56386949834612
 20
55.00496748598533
 30
0.0
 10
71.54433851236055
 20
54.93888944063868
 30
0.0
 10
71.51159627680532
 20
54.88547918558065
 30
0.0
 10
71.48093452636752
 20
54.85974532879365
 30
0.0
 10
71.46464942039999
 20
54.8503151355
 30
0.0
 11
71.2141415836
 21
55.6907244282
 31
0.0
 11
71.2831164284
 21
55.64295948149999
 31
0.0
 11
71.34944060859999
 21
55.5813628076
 31
0.0
 11
71.4105653232
 21
55.50830153229999
 31
0.0
 11
71.46414158359999
 21
55.4265833593
 31
0.0
 11
71.5081104842
 21
55.33934867220001
 31
0.0
 11
71.54078232479999
 21
55.2499498512
 31
0.0
 11
71.56090154489999
 21
55.16182244270001
 31
0.0
 11
71.5676949742
 21
55.0783531336
 31
0.0
 11
71.56090154489999
 21
55.00274960279999
 31
0.0
 11
71.54078232479999
 21
54.9379172515
 31
0.0
 11
71.5081104842
 21
54.8863475505
 31
0.0
 11
71.46464942039999
 21
54.8503151355
 31
0.0
  0
SPLINE
  5
47B
330
1F
100
AcDbEntity
  8
0
  6
Continuous
100
AcDbSpline
210
0.0
220
0.0
230
1.0
 70
     8
 71
     3
 72
    10
 73
     6
 74
     4
 42
0.0000000001
 43
0.0000000001
 44
0.0000000001
 12
-0.8653100033927232
 22
-0.5012370676920104
 32
0.0
 13
0.0
 23
-0.9999999999999998
 33
0.0
 40
0.0
 40
0.0
 40
0.0
 40
0.0
 40
0.0250552609125128
 40
0.0532750122608786
 40
0.0860365243457167
 40
0.0860365243457167
 40
0.0860365243457167
 40
0.0860365243457167
 10
71.1314748349
 20
55.4258319372
 30
0.0
 10
71.12424797893161
 20
55.42164572869666
 30
0.0
 10
71.11090959447071
 20
55.4089186348639
 30
0.0
 10
71.09957798825597
 20
55.38196845742149
 30
0.0
 10
71.09746896469999
 20
55.36149944212828
 30
0.0
 10
71.09746896469999
 20
55.35057893810001
 30
0.0
 11
71.1314748349
 21
55.4258319372
 31
0.0
 11
71.11310013169999
 21
55.40879854699999
 31
0.0
 11
71.10144448779999
 21
55.383098346
 31
0.0
 11
71.09746896469999
 21
55.35057893810001
 31
0.0
  0
SPLINE
  5
47C
330
1F
100
AcDbEntity
  8
0
  6
Continuous
100
AcDbSpline
210
0.0
220
0.0
230
1.0
 70
     8
 71
     3
 72
    16
 73
    12
 74
    10
 42
0.0000000001
 43
0.0000000001
 44
0.0000000001
 12
0.0
 22
1.0
 32
0.0
 13
-0.8653100033368984
 23
-0.5012370677883837
 33
0.0
 40
0.0
 40
0.0
 40
0.0
 40
0.0
 40
0.0373347375622893
 40
0.0782267520555156
 40
0.1210470271890492
 40
0.1638826183687607
 40
0.204818434439156
 40
0.2422186848079737
 40
0.2750548353435647
 40
0.3033380204584399
 40
0.3287945880778293
 40
0.3287945880778293
 40
0.3287945880778293
 40
0.3287945880778293
 10
52.71198554699999
 20
44.43657567189999
 30
0.0
 10
52.71198554699999
 20
44.44902058442075
 30
0.0
 10
52.70889932547774
 20
44.47512553034071
 30
0.0
 10
52.69712902757191
 20
44.51388757959021
 30
0.0
 10
52.67872835490713
 20
44.55202738188945
 30
0.0
 10
52.65489453331912
 20
44.58703947477812
 30
0.0
 10
52.62717079067133
 20
44.6166594728078
 30
0.0
 10
52.59730790186765
 20
44.63899331430224
 30
0.0
 10
52.56703968465796
 20
44.65259168141431
 30
0.0
 10
52.53786421887034
 20
44.65637368677721
 30
0.0
 10
52.51998878703722
 20
44.6511714263365
 30
0.0
 10
52.51264617949999
 20
44.6469181679
 30
0.0
 11
52.71198554699999
 21
44.43657567189999
 31
0.0
 11
52.70801002399999
 21
44.47369814279999
 31
0.0
 11
52.69635438
 21
44.51289384169999
 31
0.0
 11
52.6778129282
 21
44.5514916464
 31
0.0
 11
52.65364923759999
 21
44.5868611803
 31
0.0
 11
52.62551002399999
 21
44.6165920682
 31
0.0
 11
52.5953129282
 21
44.6386581991
 31
0.0
 11
52.5651158323
 21
44.6515558028
 31
0.0
 11
52.53697661869999
 21
44.6544059288
 31
0.0
 11
52.51264617949999
 21
44.6469181679
 31
0.0
  0
LINE
  5
47D
330
1F
100
AcDbEntity
  8
0
  6
Continuous
100
AcDbLine
 10
52.5953129282
 20
44.0964301818
 30
0.0
 11
51.02737961049999
 21
45.0041466842
 31
0.0
  0
LINE
  5
47E
330
1F
100
AcDbEntity
  8
0
  6
Continuous
100
AcDbLine
 10
50.8500055544
 20
45.10683303959999
 30
0.0
 11
50.0551077864
 21
45.5670195881
 31
0.0
  0
LINE
  5
47F
330
1F
100
AcDbEntity
  8
0
  6
Continuous
100
AcDbLine
 10
49.87773373020001
 20
45.6697059435
 30
0.0
 11
49.858809685
 21
45.6806615549
 31
0.0
  0
SPLINE
  5
480
330
1F
100
AcDbEntity
  8
0
  6
Continuous
100
AcDbSpline
210
0.0
220
0.0
230
1.0
 70
     8
 71
     3
 72
    14
 73
    10
 74
     8
 42
0.0000000001
 43
0.0000000001
 44
0.0000000001
 12
0.0
 22
-0.9999999999999998
 32
0.0
 13
0.8654345103148227
 23
-0.5010220637418504
 33
0.0
 40
0.0
 40
0.0
 40
0.0
 40
0.0
 40
0.0250277057427275
 40
0.0522311722725774
 40
0.0808479462029018
 40
0.1099586693219148
 40
0.1385929894132119
 40
0.1658297052367481
 40
0.1909024638263189
 40
0.1909024638263189
 40
0.1909024638263189
 40
0.1909024638263189
 10
49.7668858034
 20
45.83987809149999
 30
0.0
 10
49.7668858034
 20
45.83153552291909
 30
0.0
 10
49.76864658506318
 20
45.81410697118179
 30
0.0
 10
49.77553353581066
 20
45.78796379072641
 30
0.0
 10
49.78645824289657
 20
45.76175403678024
 30
0.0
 10
49.80089092729834
 20
45.73675707763841
 30
0.0
 10
49.81813624089443
 20
45.71417717053114
 30
0.0
 10
49.83735057519129
 20
45.69511360567051
 30
0.0
 10
49.85157674148259
 20
45.68484888998407
 30
0.0
 10
49.858809685
 20
45.6806615549
 30
0.0
 11
49.7668858034
 21
45.83987809149999
 31
0.0
 11
49.769190527
 21
45.8149567291
 31
0.0
 11
49.7759891295
 21
45.7886165014
 31
0.0
 11
49.7869407004
 21
45.7621782177
 31
0.0
 11
49.8014960823
 21
45.7369676037
 31
0.0
 11
49.81892540749999
 21
45.71424882489999
 31
0.0
 11
49.838354697
 21
45.6951610959
 31
0.0
 11
49.858809685
 21
45.6806615549
 31
0.0
  0
LINE
  5
481
330
1F
100
AcDbEntity
  8
0
  6
Continuous
100
AcDbLine
 10
49.7668858034
 20
45.83987809149999
 30
0.0
 11
49.7668858034
 21
46.4432596447
 31
0.0
  0
SPLINE
  5
482
330
1F
100
AcDbEntity
  8
0
  6
Continuous
100
AcDbSpline
210
0.0
220
0.0
230
1.0
 70
     8
 71
     3
 72
    11
 73
     7
 74
     5
 42
0.0000000001
 43
0.0000000001
 44
0.0000000001
 12
-0.8654798255968282
 22
-0.5009437807627557
 32
0.0
 13
0.0
 23
-1.0
 33
0.0
 40
0.0
 40
0.0
 40
0.0
 40
0.0
 40
0.0082752926267132
 40
0.0258599279765823
 40
0.0455399940243274
 40
0.0679118617462215
 40
0.0679118617462215
 40
0.0679118617462215
 40
0.0679118617462215
 10
49.7936831105
 20
46.50253689319999
 30
0.0
 10
49.79129574422689
 20
46.50115507440822
 30
0.0
 10
49.78421995840432
 20
46.49613311287057
 30
0.0
 10
49.77474338944855
 20
46.48381488856038
 30
0.0
 10
49.76815263981473
 20
46.46480351109397
 30
0.0
 10
49.7668858034
 20
46.45071693394063
 30
0.0
 10
49.7668858034
 20
46.4432596447
 30
0.0
 11
49.7936831105
 21
46.50253689319999
 31
0.0
 11
49.7869407004
 21
46.497738938
 31
0.0
 11
49.7759891295
 21
46.4839809405
 31
0.0
 11
49.769190527
 21
46.4655124808
 31
0.0
 11
49.7668858034
 21
46.4432596447
 31
0.0
  0
SPLINE
  5
483
330
1F
100
AcDbEntity
  8
0
  6
Continuous
100
AcDbSpline
210
0.0
220
0.0
230
1.0
 70
     8
 71
     3
 72
    11
 73
     7
 74
     5
 42
0.0000000001
 43
0.0000000001
 44
0.0000000001
 12
0.8654798252770872
 22
0.5009437813151717
 32
0.0
 13
0.8654345102918396
 23
-0.5010220637815505
 33
0.0
 40
0.0
 40
0.0
 40
0.0
 40
0.0
 40
0.0085856839531693
 40
0.0261988588970491
 40
0.0459248595919977
 40
0.0683471170731672
 40
0.0683471170731672
 40
0.0683471170731672
 40
0.0683471170731672
 10
49.9704598058
 20
46.60487742119999
 30
0.0
 10
49.97293671788256
 20
46.60631106952823
 30
0.0
 10
49.98093609027037
 20
46.60996714089081
 30
0.0
 10
49.99647768503638
 20
46.61196523333816
 30
0.0
 10
50.01626605912115
 20
46.608106206626
 30
0.0
 10
50.02911804849238
 20
46.60212724200595
 30
0.0
 10
50.0355863803
 20
46.5983825601
 30
0.0
 11
49.9704598058
 21
46.60487742119999
 31
0.0
 11
49.9782727776
 21
46.6084371179
 31
0.0
 11
49.99570210279999
 21
46.6109753367
 31
0.0
 11
50.0151313923
 21
46.60756684539999
 31
0.0
 11
50.0355863803
 21
46.5983825601
 31
0.0
  0
LINE
  5
484
330
1F
100
AcDbEntity
  8
0
  6
Continuous
100
AcDbLine
 10
49.970453512
 20
46.6048895844
 30
0.0
 11
49.7936768167
 21
46.5025490564
 31
0.0
  0
SPLINE
  5
485
330
1F
100
AcDbEntity
  8
0
  6
Continuous
100
AcDbSpline
210
0.0
220
0.0
230
1.0
 70
     8
 71
     3
 72
    19
 73
    15
 74
    13
 42
0.0000000001
 43
0.0000000001
 44
0.0000000001
 12
0.8654345102889166
 22
-0.501022063786599
 32
0.0
 13
-0.8653807963173068
 23
-0.5011148345092408
 33
0.0
 40
0.0
 40
0.0
 40
0.0
 40
0.0
 40
0.0838988639481192
 40
0.1744143162334945
 40
0.2696728102683092
 40
0.3673880878706753
 40
0.4650771601600213
 40
0.5602590827202635
 40
0.6506539008591181
 40
0.7343992065498443
 40
0.8103073389523958
 40
0.8781897136347637
 40
0.9392379177805199
 40
0.9956932008827555
 40
0.9956932008827555
 40
0.9956932008827555
 40
0.9956932008827555
 10
52.7720896234
 20
45.01415118699999
 30
0.0
 10
52.79629261414491
 20
45.00013945967845
 30
0.0
 10
52.84409505143938
 20
44.96656353387733
 30
0.0
 10
52.90987237428402
 20
44.90495390304906
 30
0.0
 10
52.97049089748757
 20
44.83216603722698
 30
0.0
 10
53.02366685938694
 20
44.75093130151898
 30
0.0
 10
53.06742077298706
 20
44.66428341250211
 30
0.0
 10
53.1001124948567
 20
44.57546517954159
 30
0.0
 10
53.12052212690388
 20
44.48777753089811
 30
0.0
 10
53.12787311816824
 20
44.40442899026074
 30
0.0
 10
53.12181753829697
 20
44.32839424470933
 30
0.0
 10
53.10228655224347
 20
44.26231619934875
 30
0.0
 10
53.06954431674479
 20
44.20890594426812
 30
0.0
 10
53.03888256624911
 20
44.18317208758298
 30
0.0
 10
53.02259746029999
 20
44.1737418943
 30
0.0
 11
52.7720896234
 21
45.01415118699999
 31
0.0
 11
52.8410644683
 21
44.9663862402
 31
0.0
 11
52.9073886485
 21
44.9047895664
 31
0.0
 11
52.968513363
 21
44.831728291
 31
0.0
 11
53.02208962339999
 21
44.75001011799999
 31
0.0
 11
53.0660585241
 21
44.66277543100001
 31
0.0
 11
53.0987303647
 21
44.57337660989999
 31
0.0
 11
53.1188495848
 21
44.4852492014
 31
0.0
 11
53.125643014
 21
44.4017798924
 31
0.0
 11
53.1188495848
 21
44.32617636149999
 31
0.0
 11
53.0987303647
 21
44.2613440102
 31
0.0
 11
53.0660585241
 21
44.20977430919999
 31
0.0
 11
53.02259746029999
 21
44.1737418943
 31
0.0
  0
LINE
  5
486
330
1F
100
AcDbEntity
  8
0
  6
Continuous
100
AcDbLine
 10
50.0355863803
 20
46.5983825601
 30
0.0
 11
52.7720896234
 21
45.01415118699999
 31
0.0
  0
SPLINE
  5
487
330
1F
100
AcDbEntity
  8
0
  6
Continuous
100
AcDbSpline
210
0.0
220
0.0
230
1.0
 70
     8
 71
     3
 72
    12
 73
     8
 74
     6
 42
0.0000000001
 43
0.0000000001
 44
0.0000000001
 12
-0.8653807963544535
 22
-0.5011148344450921
 32
0.0
 13
-0.8654345102630008
 23
0.5010220638313646
 33
0.0
 40
0.0
 40
0.0
 40
0.0
 40
0.0
 40
0.0005862201021396
 40
0.0576643163534726
 40
0.1188318365512109
 40
0.1868747697948536
 40
0.2629522807731842
 40
0.2629522807731842
 40
0.2629522807731842
 40
0.2629522807731842
 10
52.845820765
 20
44.0714013663
 30
0.0
 10
52.84565166379373
 20
44.07130344510352
 30
0.0
 10
52.82900092399477
 20
44.06170171872479
 30
0.0
 10
52.79089815015061
 20
44.04797959934838
 30
0.0
 10
52.72796944328154
 20
44.04656155763261
 30
0.0
 10
52.66089120310547
 20
44.06287742256872
 30
0.0
 10
52.61725962935185
 20
44.08372467794616
 30
0.0
 10
52.5953129282
 20
44.0964301818
 30
0.0
 11
52.845820765
 21
44.0714013663
 31
0.0
 11
52.84531292819999
 21
44.07110852539999
 31
0.0
 11
52.79173666770001
 21
44.0514236738
 31
0.0
 11
52.7306119532
 21
44.0491357043
 31
0.0
 11
52.664287773
 21
44.06433254229999
 31
0.0
 11
52.5953129282
 21
44.0964301818
 31
0.0
  0
LINE
  5
488
330
1F
100
AcDbEntity
  8
0
  6
Continuous
100
AcDbLine
 10
52.8458239601
 20
44.0714031652
 30
0.0
 11
53.0226006554
 21
44.1737436932
 31
0.0
  0
SPLINE
  5
489
330
1F
100
AcDbEntity
  8
0
  6
Continuous
100
AcDbSpline
210
0.0
220
0.0
230
1.0
 70
     8
 71
     3
 72
    10
 73
     6
 74
     4
 42
0.0000000001
 43
0.0000000001
 44
0.0000000001
 12
0.8653100033927232
 22
0.5012370676920104
 32
0.0
 13
0.0
 23
0.9999999999999998
 33
0.0
 40
0.0
 40
0.0
 40
0.0
 40
0.0
 40
0.0250552608445182
 40
0.0532750123252647
 40
0.0860365243979688
 40
0.0860365243979688
 40
0.0860365243979688
 40
0.0860365243979688
 10
52.67797967679999
 20
44.3613226728
 30
0.0
 10
52.6852065327488
 20
44.36550888129199
 30
0.0
 10
52.69854491726977
 20
44.37823597507045
 30
0.0
 10
52.70987652358433
 20
44.40518615252763
 30
0.0
 10
52.71198554699999
 20
44.42565516787576
 30
0.0
 10
52.71198554699999
 20
44.43657567189999
 30
0.0
 11
52.67797967679999
 21
44.3613226728
 31
0.0
 11
52.69635438
 21
44.3783560629
 31
0.0
 11
52.70801002399999
 21
44.40405626399999
 31
0.0
 11
52.71198554699999
 21
44.43657567189999
 31
0.0
  0
SPLINE
  5
48A
330
1F
100
AcDbEntity
  8
0
  6
Continuous
100
AcDbSpline
210
0.0
220
0.0
230
1.0
 70
     8
 71
     3
 72
    16
 73
    12
 74
    10
 42
0.0000000001
 43
0.0000000001
 44
0.0000000001
 12
0.0
 22
-1.0
 32
0.0
 13
0.8653100033368984
 23
0.5012370677883837
 33
0.0
 40
0.0
 40
0.0
 40
0.0
 40
0.0
 40
0.0373347375622886
 40
0.0782267519596634
 40
0.1210470271364954
 40
0.1638826183423674
 40
0.2048184343401285
 40
0.242218684848689
 40
0.275054835253036
 40
0.3033380203679183
 40
0.3287945879578932
 40
0.3287945879578932
 40
0.3287945879578932
 40
0.3287945879578932
 10
52.4786403093
 20
44.5716651688
 30
0.0
 10
52.4786403093
 20
44.55922025627923
 30
0.0
 10
52.48172653081733
 20
44.53311531039367
 30
0.0
 10
52.49349682871499
 20
44.49435326114712
 30
0.0
 10
52.51189750156583
 20
44.45621345896433
 30
0.0
 10
52.5357313228906
 20
44.42120136589386
 30
0.0
 10
52.56345506571793
 20
44.39158136798093
 30
0.0
 10
52.59331795443357
 20
44.36924752641635
 30
0.0
 10
52.62358617169804
 20
44.35564915937818
 30
0.0
 10
52.65276163740363
 20
44.35186715406692
 30
0.0
 10
52.67063706927125
 20
44.35706941436841
 30
0.0
 10
52.67797967679999
 20
44.3613226728
 30
0.0
 11
52.4786403093
 21
44.5716651688
 31
0.0
 11
52.4826158323
 21
44.53454269789999
 31
0.0
 11
52.4942714763
 21
44.4953469991
 31
0.0
 11
52.51281292819999
 21
44.4567491944
 31
0.0
 11
52.53697661869999
 21
44.42137966039999
 31
0.0
 11
52.5651158323
 21
44.3916487726
 31
0.0
 11
52.5953129282
 21
44.3695826416
 31
0.0
 11
52.62551002399999
 21
44.356685038
 31
0.0
 11
52.65364923759999
 21
44.35383491199999
 31
0.0
 11
52.67797967679999
 21
44.3613226728
 31
0.0
  0
LINE
  5
48B
330
1F
100
AcDbEntity
  8
0
  6
Continuous
100
AcDbLine
 10
50.0355863803
 20
46.5983825601
 30
0.0
 11
49.858809685
 21
46.4960420321
 31
0.0
  0
LINE
  5
48C
330
1F
100
AcDbEntity
  8
0
  6
Continuous
100
AcDbLine
 10
52.5953129282
 20
44.911810659
 30
0.0
 11
52.7720896234
 21
45.01415118699999
 31
0.0
  0
SPLINE
  5
48D
330
1F
100
AcDbEntity
  8
0
  6
Continuous
100
AcDbSpline
210
0.0
220
0.0
230
1.0
 70
     8
 71
     3
 72
    11
 73
     7
 74
     5
 42
0.0000000001
 43
0.0000000001
 44
0.0000000001
 12
-0.8654345102918396
 22
0.5010220637815505
 32
0.0
 13
-0.8654798252770872
 23
-0.5009437813151717
 33
0.0
 40
0.0
 40
0.0
 40
0.0
 40
0.0
 40
0.0224222575221279
 40
0.0421482581997983
 40
0.0597614331436861
 40
0.0683471170968425
 40
0.0683471170968425
 40
0.0683471170968425
 40
0.0683471170968425
 10
49.858809685
 20
46.4960420321
 30
0.0
 10
49.85234135318056
 20
46.49978671401279
 30
0.0
 10
49.83948936386298
 20
46.50576567879922
 30
0.0
 10
49.81970098972144
 20
46.5096247052978
 30
0.0
 10
49.80415939497153
 20
46.5076266128958
 30
0.0
 10
49.79616002258256
 20
46.50397054152821
 30
0.0
 10
49.7936831105
 20
46.50253689319999
 30
0.0
 11
49.858809685
 21
46.4960420321
 31
0.0
 11
49.838354697
 21
46.50522631749999
 31
0.0
 11
49.81892540749999
 21
46.5086348087
 31
0.0
 11
49.8014960823
 21
46.50609658989999
 31
0.0
 11
49.7936831105
 21
46.50253689319999
 31
0.0
  0
LINE
  5
48E
330
1F
100
AcDbEntity
  8
0
  6
Continuous
100
AcDbLine
 10
49.858809685
 20
46.4960420321
 30
0.0
 11
52.5953129282
 21
44.911810659
 31
0.0
  0
SPLINE
  5
48F
330
1F
100
AcDbEntity
  8
0
  6
Continuous
100
AcDbSpline
210
0.0
220
0.0
230
1.0
 70
     8
 71
     3
 72
    19
 73
    15
 74
    13
 42
0.0000000001
 43
0.0000000001
 44
0.0000000001
 12
0.8654345102889166
 22
-0.501022063786599
 32
0.0
 13
-0.8653807963173068
 23
-0.5011148345092408
 33
0.0
 40
0.0
 40
0.0
 40
0.0
 40
0.0
 40
0.0838988638659175
 40
0.1744143161512873
 40
0.2696728101861056
 40
0.3673880877596635
 40
0.4650771600933092
 40
0.5602590826535422
 40
0.6506539007923984
 40
0.7343992064831318
 40
0.8103073387860757
 40
0.878189713563961
 40
0.9392379177097074
 40
0.995693200811943
 40
0.995693200811943
 40
0.995693200811943
 40
0.995693200811943
 10
52.5953129282
 20
44.911810659
 30
0.0
 10
52.6195159189212
 20
44.89779893169218
 30
0.0
 10
52.66731835614041
 20
44.86422300583372
 30
0.0
 10
52.73309567900182
 20
44.80261337506391
 30
0.0
 10
52.79371420212764
 20
44.72982550919984
 30
0.0
 10
52.84689016428635
 20
44.64859077364859
 30
0.0
 10
52.89064407762716
 20
44.5619428844868
 30
0.0
 10
52.92333579957126
 20
44.47312465154879
 30
0.0
 10
52.94374543159753
 20
44.38543700289686
 30
0.0
 10
52.95109642287611
 20
44.30208846229263
 30
0.0
 10
52.94504084296971
 20
44.2260537167494
 30
0.0
 10
52.92550985696751
 20
44.15997567137428
 30
0.0
 10
52.89276762144297
 20
44.10656541626862
 30
0.0
 10
52.8621058709491
 20
44.08083155958298
 30
0.0
 10
52.845820765
 20
44.0714013663
 30
0.0
 11
52.5953129282
 21
44.911810659
 31
0.0
 11
52.664287773
 21
44.8640457122
 31
0.0
 11
52.7306119532
 21
44.8024490384
 31
0.0
 11
52.79173666770001
 21
44.729387763
 31
0.0
 11
52.84531292819999
 21
44.6476695901
 31
0.0
 11
52.8892818288
 21
44.56043490299999
 31
0.0
 11
52.92195366939999
 21
44.47103608189999
 31
0.0
 11
52.9420728895
 21
44.3829086734
 31
0.0
 11
52.94886631869999
 21
44.29943936439999
 31
0.0
 11
52.9420728895
 21
44.2238358336
 31
0.0
 11
52.92195366939999
 21
44.1590034822
 31
0.0
 11
52.8892818288
 21
44.1074337812
 31
0.0
 11
52.845820765
 21
44.0714013663
 31
0.0
  0
SPLINE
  5
490
330
1F
100
AcDbEntity
  8
0
  6
Continuous
100
AcDbSpline
210
0.0
220
0.0
230
1.0
 70
     8
 71
     3
 72
    10
 73
     6
 74
     4
 42
0.0000000001
 43
0.0000000001
 44
0.0000000001
 12
-0.8653100033927232
 22
-0.5012370676920104
 32
0.0
 13
0.0
 23
-0.9999999999999998
 33
0.0
 40
0.0
 40
0.0
 40
0.0
 40
0.0
 40
0.0250552608445178
 40
0.0532750122341875
 40
0.0860365244061535
 40
0.0860365244061535
 40
0.0860365244061535
 40
0.0860365244061535
 10
52.51264617949999
 20
44.6469181679
 30
0.0
 10
52.5054193235512
 20
44.642731959408
 30
0.0
 10
52.49208093906346
 20
44.63000486564716
 30
0.0
 10
52.48074933267548
 20
44.60305468821998
 30
0.0
 10
52.4786403093
 20
44.58258567285732
 30
0.0
 10
52.4786403093
 20
44.5716651688
 30
0.0
 11
52.51264617949999
 21
44.6469181679
 31
0.0
 11
52.4942714763
 21
44.62988477779999
 31
0.0
 11
52.4826158323
 21
44.6041845768
 31
0.0
 11
52.4786403093
 21
44.5716651688
 31
0.0
  0
SPLINE
  5
491
330
1F
100
AcDbEntity
  8
0
  6
Continuous
100
AcDbSpline
210
0.0
220
0.0
230
1.0
 70
     8
 71
     3
 72
     9
 73
     5
 74
     3
 42
0.0000000001
 43
0.0000000001
 44
0.0000000001
 12
0.8651663112014883
 22
0.5014850485926868
 32
0.0
 13
0.865434510480831
 23
-0.5010220634550983
 33
0.0
 40
0.0
 40
0.0
 40
0.0
 40
0.0
 40
0.0293325142608915
 40
0.0651642336512591
 40
0.0651642336512591
 40
0.0651642336512591
 40
0.0651642336512591
 10
68.411478285
 20
57.1813386095
 30
0.0
 10
68.41993745272046
 20
57.18624188194649
 30
0.0
 10
68.44308788862403
 20
57.18969802790965
 30
0.0
 10
68.46376613765656
 20
57.18106421296203
 30
0.0
 10
68.4741028065
 20
57.1750800523
 30
0.0
 11
68.411478285
 21
57.1813386095
 31
0.0
 11
68.44027805020001
 21
57.1869036717
 31
0.0
 11
68.4741028065
 21
57.1750800523
 31
0.0
  0
LINE
  5
492
330
1F
100
AcDbEntity
  8
0
  6
Continuous
100
AcDbLine
 10
68.41147504850001
 20
57.18133680640001
 30
0.0
 11
50.0833605637
 21
46.57072486939999
 31
0.0
  0
SPLINE
  5
493
330
1F
100
AcDbEntity
  8
0
  6
Continuous
100
AcDbSpline
210
0.0
220
0.0
230
1.0
 70
     8
 71
     3
 72
    16
 73
    12
 74
    10
 42
0.0000000001
 43
0.0000000001
 44
0.0000000001
 12
0.8654345102299522
 22
-0.5010220638884503
 32
0.0
 13
-0.004362259901537
 23
0.9999904852990109
 33
0.0
 40
0.0
 40
0.0
 40
0.0
 40
0.0
 40
0.0949882813588232
 40
0.1993457272122468
 40
0.3080322355974717
 40
0.4152553574341121
 40
0.5154696956420088
 40
0.6044230667950588
 40
0.6804657581595356
 40
0.7462579052583165
 40
0.7619999649419614
 40
0.7619999649419614
 40
0.7619999649419614
 40
0.7619999649419614
 10
59.83113662
 20
51.2503822063
 30
0.0
 10
59.85853866558512
 20
51.23451846470946
 30
0.0
 10
59.92041635565054
 20
51.20862254792136
 30
0.0
 10
60.02136696268557
 20
51.1874674592303
 30
0.0
 10
60.12852340360301
 20
51.18314016092463
 30
0.0
 10
60.23359547428786
 20
51.19601821417481
 30
0.0
 10
60.32863257452847
 20
51.22511061004174
 30
0.0
 10
60.40660457571998
 20
51.26850797768833
 30
0.0
 10
60.46200031645406
 20
51.323785908864
 30
0.0
 10
60.48253658695474
 20
51.37442671729417
 30
0.0
 10
60.48405689151858
 20
51.40163473909911
 30
0.0
 10
60.4840340012
 20
51.40688204239999
 30
0.0
 11
59.83113662
 21
51.2503822063
 31
0.0
 11
59.9182922264
 21
51.2126108697
 31
0.0
 11
60.0202987406
 21
51.1905848041
 31
0.0
 11
60.1288922014
 21
51.1860884304
 31
0.0
 11
60.2352750125
 21
51.1994860182
 31
0.0
 11
60.3308286713
 21
51.22969217439999
 31
0.0
 11
60.4078119885
 21
51.274259776
 31
0.0
 11
60.45998823359999
 21
51.329578221
 31
0.0
 11
60.4831303977
 21
51.39116593779999
 31
0.0
 11
60.4840340012
 21
51.40688204239999
 31
0.0
  0
LINE
  5
494
330
1F
100
AcDbEntity
  8
0
  6
Continuous
100
AcDbLine
 10
70.06509306409999
 20
56.2540153005
 30
0.0
 11
69.33085373850001
 21
56.6790851329
 31
0.0
  0
LINE
  5
495
330
1F
100
AcDbEntity
  8
0
  6
Continuous
100
AcDbLine
 10
69.33085373850001
 20
56.6790851329
 30
0.0
 11
68.4741028065
 21
57.1750800523
 31
0.0
  0
LINE
  5
496
330
1F
100
AcDbEntity
  8
0
  6
Continuous
100
AcDbLine
 10
70.1277208221
 20
55.6362231884
 30
0.0
 11
52.2759502773
 21
45.30137888149999
 31
0.0
  0
SPLINE
  5
497
330
1F
100
AcDbEntity
  8
0
  6
Continuous
100
AcDbSpline
210
0.0
220
0.0
230
1.0
 70
     8
 71
     3
 72
    11
 73
     7
 74
     5
 42
0.0000000001
 43
0.0000000001
 44
0.0000000001
 12
0.8654345102163778
 22
-0.5010220639118984
 32
0.0
 13
0.0
 23
-0.9999999999999998
 33
0.0
 40
0.0
 40
0.0
 40
0.0
 40
0.0
 40
0.0434926648442591
 40
0.091654495729226
 40
0.1397905005887548
 40
0.1832140858982181
 40
0.1832140858982181
 40
0.1832140858982181
 40
0.1832140858982181
 10
70.06509306409999
 20
56.2540153005
 30
0.0
 10
70.07763974846582
 20
56.24675170559823
 30
0.0
 10
70.10138130125439
 20
56.22674343625517
 30
0.0
 10
70.12909789302509
 20
56.18885888117575
 30
0.0
 10
70.1480421624768
 20
56.14593579342429
 30
0.0
 10
70.1534814118
 20
56.11539700523649
 30
0.0
 10
70.1534814118
 20
56.1009224768
 30
0.0
 11
70.06509306409999
 21
56.2540153005
 31
0.0
 11
70.0989178204
 21
56.2266748953
 31
0.0
 11
70.1275930641
 21
56.1879800332
 31
0.0
 11
70.14675324949999
 21
56.1438216562
 31
0.0
 11
70.1534814118
 21
56.1009224768
 31
0.0
  0
SPLINE
  5
498
330
1F
100
AcDbEntity
  8
0
  6
Continuous
100
AcDbSpline
210
0.0
220
0.0
230
1.0
 70
     8
 71
     3
 72
     9
 73
     5
 74
     3
 42
0.0000000001
 43
0.0000000001
 44
0.0000000001
 12
0.0
 22
-1.0
 32
0.0
 13
-0.8651663105021652
 23
-0.501485049799165
 33
0.0
 40
0.0
 40
0.0
 40
0.0
 40
0.0
 40
0.0357478387808894
 40
0.0647659185377752
 40
0.0647659185377752
 40
0.0647659185377752
 40
0.0647659185377752
 10
70.1534814118
 20
55.69323223819999
 30
0.0
 10
70.1534814118
 20
55.6813162919397
 30
0.0
 10
70.15059301062001
 20
55.65921267906752
 30
0.0
 10
70.13608607393371
 20
55.64107209635732
 30
0.0
 10
70.12771758560001
 20
55.6362213853
 30
0.0
 11
70.1534814118
 21
55.69323223819999
 31
0.0
 11
70.14675324949999
 21
55.6581232677
 31
0.0
 11
70.12771758560001
 21
55.6362213853
 31
0.0
  0
LINE
  5
499
330
1F
100
AcDbEntity
  8
0
  6
Continuous
100
AcDbLine
 10
70.1534814118
 20
55.69323223819999
 30
0.0
 11
70.1534814118
 21
56.1009224768
 31
0.0
  0
SPLINE
  5
49A
330
1F
100
AcDbEntity
  8
0
  6
Continuous
100
AcDbSpline
210
0.0
220
0.0
230
1.0
 70
     8
 71
     3
 72
    10
 73
     6
 74
     4
 42
0.0000000001
 43
0.0000000001
 44
0.0000000001
 12
0.0043622600083033
 22
-0.9999904852985451
 32
0.0
 13
0.8654345101955948
 23
-0.5010220639477975
 33
0.0
 40
0.0
 40
0.0
 40
0.0
 40
0.0
 40
0.0479419541329162
 40
0.1181909967432467
 40
0.2006690598012719
 40
0.2006690598012719
 40
0.2006690598012719
 40
0.2006690598012719
 10
59.71917592649999
 20
51.4070443858
 30
0.0
 10
59.7192456382564
 20
51.39106388647348
 30
0.0
 10
59.72668748449837
 20
51.35134698474955
 30
0.0
 10
59.765773574227
 20
51.29474810725251
 30
0.0
 10
59.8073434992985
 20
51.26415664942792
 30
0.0
 10
59.83113662
 20
51.2503822063
 30
0.0
 11
59.71917592649999
 21
51.4070443858
 31
0.0
 11
59.7278462876
 21
51.3598929722
 31
0.0
 11
59.7658927503
 21
51.30083880499999
 31
0.0
 11
59.83113662
 21
51.2503822063
 31
0.0
  0
LINE
  5
49B
330
1F
100
AcDbEntity
  8
0
  6
Continuous
100
AcDbLine
 10
51.71106846539999
 20
45.62840333899999
 30
0.0
 11
70.06509306409999
 21
56.2540153005
 31
0.0
  0
LINE
  5
49C
330
1F
100
AcDbEntity
  8
0
  6
Continuous
100
AcDbLine
 10
68.4741028065
 20
57.1750800523
 30
0.0
 11
68.4299090027
 21
57.1494951346
 31
0.0
  0
LINE
  5
49D
330
1F
100
AcDbEntity
  8
0
  6
Continuous
100
AcDbLine
 10
68.4299090027
 20
57.1494951346
 30
0.0
 11
50.1200782077
 21
46.5494680909
 31
0.0
  0
SPLINE
  5
49E
330
1F
100
AcDbEntity
  8
0
  6
Continuous
100
AcDbSpline
210
0.0
220
0.0
230
1.0
 70
     8
 71
     3
 72
    16
 73
    12
 74
    10
 42
0.0000000001
 43
0.0000000001
 44
0.0000000001
 12
-0.8654345102299522
 22
0.5010220638884503
 32
0.0
 13
0.004362259901537
 23
-0.9999904852990109
 33
0.0
 40
0.0
 40
0.0
 40
0.0
 40
0.0
 40
0.0949882812670675
 40
0.1993457271204911
 40
0.3080322355015789
 40
0.4152553574249491
 40
0.5154696955374901
 40
0.6044230666905462
 40
0.6804657581236384
 40
0.7462579052808528
 40
0.761999964964498
 40
0.761999964964498
 40
0.761999964964498
 40
0.761999964964498
 10
60.37207330760001
 20
51.56354422199999
 30
0.0
 10
60.34467126204135
 20
51.57940796357522
 30
0.0
 10
60.28279357202784
 20
51.60530388039292
 30
0.0
 10
60.18184296501341
 20
51.62645896911099
 30
0.0
 10
60.07468652407105
 20
51.63078626719553
 30
0.0
 10
59.96961445336762
 20
51.61790821419288
 30
0.0
 10
59.87457735313221
 20
51.58881581823504
 30
0.0
 10
59.79660535200385
 20
51.54541845057303
 30
0.0
 10
59.74120961106786
 20
51.49014051947894
 30
0.0
 10
59.72067334075854
 20
51.4394997109204
 30
0.0
 10
59.71915303618142
 20
51.41229168910088
 30
0.0
 10
59.71917592649999
 20
51.4070443858
 30
0.0
 11
60.37207330760001
 21
51.56354422199999
 31
0.0
 11
60.2849177013
 21
51.6013155586
 31
0.0
 11
60.1829111871
 21
51.6233416242
 31
0.0
 11
60.0743177263
 21
51.6278379978
 31
0.0
 11
59.9679349151
 21
51.6144404101
 31
0.0
 11
59.87238125640001
 21
51.5842342539
 31
0.0
 11
59.7953979392
 21
51.53966665229999
 31
0.0
 11
59.743221694
 21
51.48434820729999
 31
0.0
 11
59.72007953
 21
51.4227604904
 31
0.0
 11
59.71917592649999
 21
51.4070443858
 31
0.0
  0
LINE
  5
49F
330
1F
100
AcDbEntity
  8
0
  6
Continuous
100
AcDbLine
 10
51.88748417430001
 20
45.5262717952
 30
0.0
 11
70.1534814118
 21
56.1009224768
 31
0.0
  0
SPLINE
  5
4A0
330
1F
100
AcDbEntity
  8
0
  6
Continuous
100
AcDbSpline
210
0.0
220
0.0
230
1.0
 70
     8
 71
     3
 72
    10
 73
     6
 74
     4
 42
0.0000000001
 43
0.0000000001
 44
0.0000000001
 12
-0.0043622600083033
 22
0.9999904852985451
 32
0.0
 13
-0.8654345101955948
 23
0.5010220639477975
 33
0.0
 40
0.0
 40
0.0
 40
0.0
 40
0.0
 40
0.0479419542312678
 40
0.1181909968957624
 40
0.2006690599537763
 40
0.2006690599537763
 40
0.2006690599537763
 40
0.2006690599537763
 10
60.4840340012
 20
51.40688204239999
 30
0.0
 10
60.48396428944345
 20
51.42286254175929
 30
0.0
 10
60.47652244324293
 20
51.46257944355284
 30
0.0
 10
60.43743635334761
 20
51.51917832101231
 30
0.0
 10
60.3958664283015
 20
51.54976977887208
 30
0.0
 10
60.37207330760001
 20
51.56354422199999
 30
0.0
 11
60.4840340012
 21
51.40688204239999
 31
0.0
 11
60.47536364009999
 21
51.4540334561
 31
0.0
 11
60.4373171773
 21
51.5130876233
 31
0.0
 11
60.37207330760001
 21
51.56354422199999
 31
0.0
  0
LINE
  5
4A1
330
1F
100
AcDbEntity
  8
0
  6
Continuous
100
AcDbLine
 10
70.1534814118
 20
55.69323223819999
 30
0.0
 11
70.1094680997
 21
55.6677518117
 31
0.0
  0
LINE
  5
4A2
330
1F
100
AcDbEntity
  8
0
  6
Continuous
100
AcDbLine
 10
70.1094680997
 20
55.6677518117
 30
0.0
 11
52.2395936197
 21
45.3224266759
 31
0.0
  0
DIMENSION
  5
4A3
330
1F
100
AcDbEntity
  8
0
  6
Continuous
100
AcDbDimension
  2
*D2
 10
37.7967404067
 20
53.5432147355
 30
0.0
 11
24.6893891688
 21
53.5432147355
 31
0.0
 70
   160
  1
(<>)
 71
     5
 42
27.4416299213
  3
DIMSTYLE_1
100
AcDbAlignedDimension
 13
10.35511048539999
 23
47.08898486409999
 33
0.0
 14
37.7967404067
 24
47.08898486409999
 34
0.0
100
AcDbRotatedDimension
1001
ACAD
1000
DSTYLE
1002
{
1070
     3
1000
\X
1070
   147
1040
1.0
1070
   170
1070
     1
1070
   171
1070
     1
1002
}
  0
DIMENSION
  5
4A4
330
1F
100
AcDbEntity
  8
0
  6
Continuous
100
AcDbDimension
  2
*D3
 10
58.2772503683
 20
29.3624244245
 30
0.0
 11
54.7526625881
 21
29.3624244245
 31
0.0
 70
   160
  1
(<>)
 71
     5
 42
4.5
  3
DIMSTYLE_1
100
AcDbAlignedDimension
 13
62.7772503683
 23
26.05801050869999
 33
0.0
 14
58.2772503683
 24
25.6880105087
 34
0.0
 50
180.0
100
AcDbRotatedDimension
1001
ACAD
1000
DSTYLE
1002
{
1070
     3
1000
\X
1070
   147
1040
1.0
1070
   170
1070
     1
1070
   171
1070
     1
1002
}
  0
DIMENSION
  5
4A5
330
1F
100
AcDbEntity
  8
0
  6
Continuous
100
AcDbDimension
  2
*D4
 10
65.5174912194
 20
24.9380105087
 30
0.0
 11
68.7674912194
 21
27.43801050870001
 31
0.0
 70
   160
  1
(<>)
 71
     5
  3
DIMSTYLE_1
100
AcDbAlignedDimension
 13
62.8972503683
 23
25.9380105087
 33
0.0
 14
62.8972503683
 24
24.9380105087
 34
0.0
 50
270.0
100
AcDbRotatedDimension
1001
ACAD
1000
DSTYLE
1002
{
1070
     3
1000
\X
1070
   147
1040
1.0
1070
   170
1070
     1
1070
   171
1070
     1
1002
}
  0
DIMENSION
  5
4A6
330
1F
100
AcDbEntity
  8
0
  6
Continuous
100
AcDbDimension
  2
*D5
 10
41.04884681453333
 20
47.1495163602
 30
0.0
 11
44.2155134812
 21
48.7281824231
 31
0.0
 70
   160
  1
(<>)
 71
     5
 42
1.25
  3
DIMSTYLE_1
100
AcDbAlignedDimension
 13
25.033425446
 23
45.8995163602
 33
0.0
 14
37.6736541816
 24
47.1495163602
 34
0.0
 50
90.0
100
AcDbRotatedDimension
1001
ACAD
1000
DSTYLE
1002
{
1070
     3
1000
\X
1070
   147
1040
1.0
1070
   170
1070
     1
1070
   171
1070
     1
1002
}
  0
DIMENSION
  5
4A7
330
1F
100
AcDbEntity
  8
0
  6
Continuous
100
AcDbDimension
  2
*D6
 10
37.091425446
 20
50.0002586504
 30
0.0
 11
30.63982092479999
 21
50.0002586504
 31
0.0
 70
   160
  1
(<>)
 71
     5
 42
13.0905
  3
DIMSTYLE_1
100
AcDbAlignedDimension
 13
24.000925446
 23
46.9320163602
 33
0.0
 14
37.091425446
 24
47.2695163602
 34
0.0
100
AcDbRotatedDimension
1001
ACAD
1000
DSTYLE
1002
{
1070
     3
1000
\X
1070
   147
1040
1.0
1070
   170
1070
     1
1070
   171
1070
     1
1002
}
  0
LINE
  5
4A9
330
1F
100
AcDbEntity
  8
DEFAULT_1
  6
CENTER
100
AcDbLine
 10
24.000925446
 20
45.8995163602
 30
0.0
 11
24.783425446
 21
45.8995163602
 31
0.0
  0
LINE
  5
4AA
330
1F
100
AcDbEntity
  8
DEFAULT_1
  6
CENTER
100
AcDbLine
 10
24.000925446
 20
45.8995163602
 30
0.0
 11
23.21842544599999
 21
45.8995163602
 31
0.0
  0
LINE
  5
4AB
330
1F
100
AcDbEntity
  8
DEFAULT_1
  6
CENTER
100
AcDbLine
 10
24.000925446
 20
45.8995163602
 30
0.0
 11
24.000925446
 21
46.6820163602
 31
0.0
  0
LINE
  5
4AC
330
1F
100
AcDbEntity
  8
DEFAULT_1
  6
CENTER
100
AcDbLine
 10
24.000925446
 20
45.8995163602
 30
0.0
 11
24.000925446
 21
45.1170163602
 31
0.0
  0
LINE
  5
4AD
330
1F
100
AcDbEntity
  8
DEFAULT_1
  6
CENTER
100
AcDbLine
 10
58.7772503683
 20
25.43801050869999
 30
0.0
 11
59.3422503683
 21
25.43801050869999
 31
0.0
  0
LINE
  5
4AE
330
1F
100
AcDbEntity
  8
DEFAULT_1
  6
CENTER
100
AcDbLine
 10
58.7772503683
 20
25.43801050869999
 30
0.0
 11
58.2122503683
 21
25.43801050869999
 31
0.0
  0
LINE
  5
4AF
330
1F
100
AcDbEntity
  8
DEFAULT_1
  6
CENTER
100
AcDbLine
 10
58.7772503683
 20
25.43801050869999
 30
0.0
 11
58.7772503683
 21
26.00301050869999
 31
0.0
  0
LINE
  5
4B0
330
1F
100
AcDbEntity
  8
DEFAULT_1
  6
CENTER
100
AcDbLine
 10
58.7772503683
 20
25.43801050869999
 30
0.0
 11
58.7772503683
 21
24.8730105087
 31
0.0
  0
LINE
  5
4B1
330
1F
100
AcDbEntity
  8
0
  6
Continuous
100
AcDbLine
 10
85.4286792453
 20
66.7353773585
 30
0.0
 11
56.84867924529999
 21
66.7353773585
 31
0.0
  0
LINE
  5
4B2
330
1F
100
AcDbEntity
  8
0
  6
Continuous
100
AcDbLine
 10
85.3886792453
 20
66.7353773585
 30
0.0
 11
85.3886792453
 21
61.7353773585
 31
0.0
  0
LINE
  5
4B3
330
1F
100
AcDbEntity
  8
0
  6
Continuous
100
AcDbLine
 10
85.3886792453
 20
65.7353773585
 30
0.0
 11
56.8886792453
 21
65.7353773585
 31
0.0
  0
LINE
  5
4B4
330
1F
100
AcDbEntity
  8
0
  6
Continuous
100
AcDbLine
 10
85.3886792453
 20
64.7353773585
 30
0.0
 11
56.8886792453
 21
64.7353773585
 31
0.0
  0
LINE
  5
4B5
330
1F
100
AcDbEntity
  8
0
  6
Continuous
100
AcDbLine
 10
85.3886792453
 20
63.7353773585
 30
0.0
 11
56.8886792453
 21
63.7353773585
 31
0.0
  0
LINE
  5
4B6
330
1F
100
AcDbEntity
  8
0
  6
Continuous
100
AcDbLine
 10
85.3886792453
 20
62.7353773585
 30
0.0
 11
56.8886792453
 21
62.7353773585
 31
0.0
  0
LINE
  5
4B7
330
1F
100
AcDbEntity
  8
0
  6
Continuous
100
AcDbLine
 10
85.4286792453
 20
61.7353773585
 30
0.0
 11
56.84867924529999
 21
61.7353773585
 31
0.0
  0
LINE
  5
4B8
330
1F
100
AcDbEntity
  8
0
  6
Continuous
100
AcDbLine
 10
80.88867924529999
 20
65.7353773585
 30
0.0
 11
80.88867924529999
 21
61.7353773585
 31
0.0
  0
LINE
  5
4B9
330
1F
100
AcDbEntity
  8
0
  6
Continuous
100
AcDbLine
 10
78.8886792453
 20
65.7353773585
 30
0.0
 11
78.8886792453
 21
61.7353773585
 31
0.0
  0
LINE
  5
4BA
330
1F
100
AcDbEntity
  8
0
  6
Continuous
100
AcDbLine
 10
74.8886792453
 20
65.7353773585
 30
0.0
 11
74.8886792453
 21
61.7353773585
 31
0.0
  0
LINE
  5
4BB
330
1F
100
AcDbEntity
  8
0
  6
Continuous
100
AcDbLine
 10
58.8886792453
 20
65.7353773585
 30
0.0
 11
58.8886792453
 21
61.7353773585
 31
0.0
  0
LINE
  5
4BC
330
1F
100
AcDbEntity
  8
0
  6
Continuous
100
AcDbLine
 10
56.8886792453
 20
66.7353773585
 30
0.0
 11
56.8886792453
 21
61.7353773585
 31
0.0
  0
TEXT
  5
4BD
330
1F
100
AcDbEntity
  8
0
  6
Continuous
100
AcDbText
 10
69.47201257863333
 20
65.9853773585
 30
0.0
 40
0.5
  1
REVISIONS
 41
0.8
 72
     1
 11
71.1386792453
 21
65.9853773585
 31
0.0
100
AcDbText
  0
TEXT
  5
4BE
330
1F
100
AcDbEntity
  8
0
  6
Continuous
100
AcDbText
 10
81.18867924529999
 20
64.9853773585
 30
0.0
 40
0.5
  1
APPROVED DATE
 41
0.6
 72
     1
 11
83.13867924529999
 21
64.9853773585
 31
0.0
100
AcDbText
  0
TEXT
  5
4BF
330
1F
100
AcDbEntity
  8
0
  6
Continuous
100
AcDbText
 10
79.48867924529999
 20
64.9853773585
 30
0.0
 40
0.5
  1
CHK
 41
0.6
 72
     1
 11
79.8886792453
 21
64.9853773585
 31
0.0
100
AcDbText
  0
TEXT
  5
4C0
330
1F
100
AcDbEntity
  8
0
  6
Continuous
100
AcDbText
 10
75.73867924529999
 20
64.9853773585
 30
0.0
 40
0.5
  1
EFF DATE
 41
0.6
 72
     1
 11
76.8886792453
 21
64.9853773585
 31
0.0
100
AcDbText
  0
TEXT
  5
4C1
330
1F
100
AcDbEntity
  8
0
  6
Continuous
100
AcDbText
 10
65.38867924529999
 20
64.9853773585
 30
0.0
 40
0.5
  1
DESCRIPTION
 41
0.6
 72
     1
 11
66.8886792453
 21
64.9853773585
 31
0.0
100
AcDbText
  0
TEXT
  5
4C2
330
1F
100
AcDbEntity
  8
0
  6
Continuous
100
AcDbText
 10
57.43867924529999
 20
64.9853773585
 30
0.0
 40
0.5
  1
REV
 41
0.6
 72
     1
 11
57.88867924529999
 21
64.9853773585
 31
0.0
100
AcDbText
  0
TEXT
  5
4C3
330
1F
100
AcDbEntity
  8
0
  6
Continuous
100
AcDbText
 10
82.55534591196667
 20
63.9228773585
 30
0.0
 40
0.625
  1
B.H.
 41
0.8
 72
     1
 11
83.13867924529999
 21
63.9228773585
 31
0.0
100
AcDbText
  0
TEXT
  5
4C4
330
1F
100
AcDbEntity
  8
0
  6
Continuous
100
AcDbText
 10
75.26367924529999
 20
63.9228773585
 30
0.0
 40
0.625
  1
6-23-06
 41
0.8
 72
     1
 11
76.8886792453
 21
63.9228773585
 31
0.0
100
AcDbText
  0
TEXT
  5
4C5
330
1F
100
AcDbEntity
  8
0
  6
Continuous
100
AcDbText
 10
59.13867924529999
 20
63.9228773585
 30
0.0
 40
0.625
  1
RELEASE PER ECO 7292 JD
 41
0.8
100
AcDbText
  0
TEXT
  5
4C6
330
1F
100
AcDbEntity
  8
0
  6
Continuous
100
AcDbText
 10
57.72201257863333
 20
63.9228773585
 30
0.0
 40
0.625
  1
A
 41
0.8
 72
     1
 11
57.88867924529999
 21
63.9228773585
 31
0.0
100
AcDbText
  0
LINE
  5
4C7
330
1F
100
AcDbEntity
  8
DRW_FORMAT
  6
Continuous
100
AcDbLine
 10
85.4451145282
 20
1.2803622676
 30
0.0
 11
46.39334982229999
 21
1.2803622676
 31
0.0
  0
LINE
  5
4C8
330
1F
100
AcDbEntity
  8
DRW_FORMAT
  6
Continuous
100
AcDbLine
 10
85.4192321752
 20
1.2803622676
 30
0.0
 11
85.4192321752
 21
11.5303622676
 31
0.0
  0
LINE
  5
4C9
330
1F
100
AcDbEntity
  8
DRW_FORMAT
  6
Continuous
100
AcDbLine
 10
85.4192321752
 20
2.280362267599999
 30
0.0
 11
46.4192321752
 21
2.280362267599999
 31
0.0
  0
LINE
  5
4CA
330
1F
100
AcDbEntity
  8
DRW_FORMAT
  6
Continuous
100
AcDbLine
 10
65.4192321752
 20
3.780362267599999
 30
0.0
 11
55.4192321752
 21
3.780362267599999
 31
0.0
  0
LINE
  5
4CB
330
1F
100
AcDbEntity
  8
DRW_FORMAT
  6
Continuous
100
AcDbLine
 10
85.4192321752
 20
4.2803622676
 30
0.0
 11
65.4192321752
 21
4.2803622676
 31
0.0
  0
LINE
  5
4CC
330
1F
100
AcDbEntity
  8
DRW_FORMAT
  6
Continuous
100
AcDbLine
 10
55.4192321752
 20
4.2803622676
 30
0.0
 11
46.4192321752
 21
4.2803622676
 31
0.0
  0
LINE
  5
4CD
330
1F
100
AcDbEntity
  8
DRW_FORMAT
  6
Continuous
100
AcDbLine
 10
65.4192321752
 20
5.2803622676
 30
0.0
 11
55.4192321752
 21
5.2803622676
 31
0.0
  0
LINE
  5
4CE
330
1F
100
AcDbEntity
  8
DRW_FORMAT
  6
Continuous
100
AcDbLine
 10
55.4192321752
 20
6.2803622676
 30
0.0
 11
46.4192321752
 21
6.2803622676
 31
0.0
  0
LINE
  5
4CF
330
1F
100
AcDbEntity
  8
DRW_FORMAT
  6
Continuous
100
AcDbLine
 10
65.4192321752
 20
6.7803622676
 30
0.0
 11
55.4192321752
 21
6.7803622676
 31
0.0
  0
LINE
  5
4D0
330
1F
100
AcDbEntity
  8
DRW_FORMAT
  6
Continuous
100
AcDbLine
 10
65.4192321752
 20
8.280362267599999
 30
0.0
 11
55.4192321752
 21
8.280362267599999
 31
0.0
  0
LINE
  5
4D1
330
1F
100
AcDbEntity
  8
DRW_FORMAT
  6
Continuous
100
AcDbLine
 10
85.4192321752
 20
8.780362267599999
 30
0.0
 11
65.4192321752
 21
8.780362267599999
 31
0.0
  0
LINE
  5
4D2
330
1F
100
AcDbEntity
  8
DRW_FORMAT
  6
Continuous
100
AcDbLine
 10
65.4192321752
 20
9.530362267599999
 30
0.0
 11
55.4192321752
 21
9.530362267599999
 31
0.0
  0
LINE
  5
4D3
330
1F
100
AcDbEntity
  8
DRW_FORMAT
  6
Continuous
100
AcDbLine
 10
85.4451145282
 20
11.5303622676
 30
0.0
 11
46.39334982229999
 21
11.5303622676
 31
0.0
  0
LINE
  5
4D4
330
1F
100
AcDbEntity
  8
DRW_FORMAT
  6
Continuous
100
AcDbLine
 10
83.41923217520001
 20
2.280362267599999
 30
0.0
 11
83.41923217520001
 21
4.2803622676
 31
0.0
  0
LINE
  5
4D5
330
1F
100
AcDbEntity
  8
DRW_FORMAT
  6
Continuous
100
AcDbLine
 10
79.91923217520001
 20
1.2803622676
 30
0.0
 11
79.91923217520001
 21
2.280362267599999
 31
0.0
  0
LINE
  5
4D6
330
1F
100
AcDbEntity
  8
DRW_FORMAT
  6
Continuous
100
AcDbLine
 10
71.41923217520001
 20
2.280362267599999
 30
0.0
 11
71.41923217520001
 21
4.2803622676
 31
0.0
  0
LINE
  5
4D7
330
1F
100
AcDbEntity
  8
DRW_FORMAT
  6
Continuous
100
AcDbLine
 10
69.41923217520001
 20
1.2803622676
 30
0.0
 11
69.41923217520001
 21
2.280362267599999
 31
0.0
  0
LINE
  5
4D8
330
1F
100
AcDbEntity
  8
DRW_FORMAT
  6
Continuous
100
AcDbLine
 10
67.41923217520001
 20
2.280362267599999
 30
0.0
 11
67.41923217520001
 21
4.2803622676
 31
0.0
  0
LINE
  5
4D9
330
1F
100
AcDbEntity
  8
DRW_FORMAT
  6
Continuous
100
AcDbLine
 10
65.4192321752
 20
1.2803622676
 30
0.0
 11
65.4192321752
 21
11.5303622676
 31
0.0
  0
LINE
  5
4DA
330
1F
100
AcDbEntity
  8
DRW_FORMAT
  6
Continuous
100
AcDbLine
 10
62.4192321752
 20
2.280362267599999
 30
0.0
 11
62.4192321752
 21
9.530362267599999
 31
0.0
  0
LINE
  5
4DB
330
1F
100
AcDbEntity
  8
DRW_FORMAT
  6
Continuous
100
AcDbLine
 10
55.4192321752
 20
1.2803622676
 30
0.0
 11
55.4192321752
 21
11.5303622676
 31
0.0
  0
LINE
  5
4DC
330
1F
100
AcDbEntity
  8
DRW_FORMAT
  6
Continuous
100
AcDbLine
 10
46.4192321752
 20
1.2803622676
 30
0.0
 11
46.4192321752
 21
11.5303622676
 31
0.0
  0
MTEXT
  5
4DD
330
1F
100
AcDbEntity
  8
DRW_FORMAT
  6
Continuous
100
AcDbMText
 10
83.41923217520001
 20
2.030362267599999
 30
0.0
 40
0.5
 41
2.399999999999999
 71
     2
 72
     1
  1
1 of 1
 73
     1
 44
1.0
  0
MTEXT
  5
4DE
330
1F
100
AcDbEntity
  8
DRW_FORMAT
  6
Continuous
100
AcDbMText
 10
74.66923217520001
 20
1.980362267599999
 30
0.0
 40
0.4
 41
5.12
 71
     2
 72
     1
  1
RD-000370-01.A.4
 73
     1
 44
1.0
  0
TEXT
  5
4DF
330
1F
100
AcDbEntity
  8
DRW_FORMAT
  6
Continuous
100
AcDbText
 10
67.70256550853334
 20
1.530362267599999
 30
0.0
 40
0.5
  1
0.250
 41
0.8
 72
     2
 11
69.1692321752
 21
1.530362267599999
 31
0.0
100
AcDbText
  0
MTEXT
  5
4E0
330
1F
100
AcDbEntity
  8
DRW_FORMAT
  6
Continuous
100
AcDbMText
 10
60.4192321752
 20
1.980362267599999
 30
0.0
 40
0.4
 41
6.719999999999999
 71
     2
 72
     1
  1
CH-000504-XX.main.3.5
 73
     1
 44
1.0
  0
TEXT
  5
4E1
330
1F
100
AcDbEntity
  8
DRW_FORMAT
  6
Continuous
100
AcDbText
 10
46.98589884186666
 20
1.530362267599999
 30
0.0
 40
0.5
  1
DO NOT SCALE DRAWING
 41
0.8
 72
     1
 11
50.9192321752
 21
1.530362267599999
 31
0.0
100
AcDbText
  0
TEXT
  5
4E2
330
1F
100
AcDbEntity
  8
DRW_FORMAT
  6
Continuous
100
AcDbText
 10
80.1692321752
 20
1.850362267599999
 30
0.0
 40
0.36
  1
SHEET
 41
0.8
100
AcDbText
  0
TEXT
  5
4E3
330
1F
100
AcDbEntity
  8
DRW_FORMAT
  6
Continuous
100
AcDbText
 10
65.66923217520001
 20
1.850362267599999
 30
0.0
 40
0.36
  1
SCALE
 41
0.8
100
AcDbText
  0
TEXT
  5
4E4
330
1F
100
AcDbEntity
  8
DRW_FORMAT
  6
Continuous
100
AcDbText
 10
84.25256550853333
 20
2.717862267599999
 30
0.0
 40
0.625
  1
A
 41
0.8
 72
     1
 11
84.41923217520001
 21
2.717862267599999
 31
0.0
100
AcDbText
  0
TEXT
  5
4E5
330
1F
100
AcDbEntity
  8
DRW_FORMAT
  6
Continuous
100
AcDbText
 10
74.7942321752
 20
2.717862267599999
 30
0.0
 40
0.625
  1
RD-000370-01
 41
0.8
 72
     1
 11
77.41923217520001
 21
2.717862267599999
 31
0.0
100
AcDbText
  0
TEXT
  5
4E6
330
1F
100
AcDbEntity
  8
DRW_FORMAT
  6
Continuous
100
AcDbText
 10
68.18256550853334
 20
2.592862267599999
 30
0.0
 40
0.8
  1
00PW4
 41
0.8
 72
     2
 11
71.16923217520001
 21
2.592862267599999
 31
0.0
100
AcDbText
  0
TEXT
  5
4E7
330
1F
100
AcDbEntity
  8
DRW_FORMAT
  6
Continuous
100
AcDbText
 10
66.20589884186667
 20
2.630362267599999
 30
0.0
 40
0.8
  1
C
 41
0.8
 72
     1
 11
66.41923217520001
 21
2.630362267599999
 31
0.0
100
AcDbText
  0
MTEXT
  5
4E8
330
1F
100
AcDbEntity
  8
DRW_FORMAT
  6
Continuous
100
AcDbMText
 10
63.9192321752
 20
3.280362267599999
 30
0.0
 40
0.5
 41
3.0
 71
     2
 72
     1
  1
23-Jun-06 
  7
TEXTSTYLE_1
 73
     1
 44
1.0
  0
TEXT
  5
4E9
330
1F
100
AcDbEntity
  8
DRW_FORMAT
  6
Continuous
100
AcDbText
 10
56.9192321752
 20
2.467862267599999
 30
0.0
 40
0.625
  1
D. DELARM
 41
0.8
 72
     1
 11
58.9192321752
 21
2.467862267599999
 31
0.0
100
AcDbText
  0
TEXT
  5
4EA
330
1F
100
AcDbEntity
  8
DRW_FORMAT
  6
Continuous
100
AcDbText
 10
50.00256550853333
 20
2.717862267599999
 30
0.0
 40
0.625
  1
NONE
 41
0.8
 72
     1
 11
50.9192321752
 21
2.717862267599999
 31
0.0
100
AcDbText
  0
TEXT
  5
4EB
330
1F
100
AcDbEntity
  8
DRW_FORMAT
  6
Continuous
100
AcDbText
 10
55.6692321752
 20
3.350362267599999
 30
0.0
 40
0.36
  1
ISSUED
 41
0.8
100
AcDbText
  0
TEXT
  5
4EC
330
1F
100
AcDbEntity
  8
DRW_FORMAT
  6
Continuous
100
AcDbText
 10
83.9872321752
 20
3.850362267599999
 30
0.0
 40
0.36
  1
REV
 41
0.8
 72
     1
 11
84.41923217520001
 21
3.850362267599999
 31
0.0
100
AcDbText
  0
TEXT
  5
4ED
330
1F
100
AcDbEntity
  8
DRW_FORMAT
  6
Continuous
100
AcDbText
 10
71.6692321752
 20
3.850362267599999
 30
0.0
 40
0.36
  1
DWG NO.
 41
0.8
100
AcDbText
  0
TEXT
  5
4EE
330
1F
100
AcDbEntity
  8
DRW_FORMAT
  6
Continuous
100
AcDbText
 10
67.66923217520001
 20
3.850362267599999
 30
0.0
 40
0.36
  1
CAGE CODE
 41
0.8
100
AcDbText
  0
TEXT
  5
4EF
330
1F
100
AcDbEntity
  8
DRW_FORMAT
  6
Continuous
100
AcDbText
 10
65.9392321752
 20
3.850362267599999
 30
0.0
 40
0.36
  1
SIZE
 41
0.8
 72
     1
 11
66.41923217520001
 21
3.850362267599999
 31
0.0
100
AcDbText
  0
MTEXT
  5
4F0
330
1F
100
AcDbEntity
  8
DRW_FORMAT
  6
Continuous
100
AcDbMText
 10
63.9192321752
 20
4.7803622676
 30
0.0
 40
0.5
 41
3.0
 71
     2
 72
     1
  1
23-Jun-06 
  7
TEXTSTYLE_1
 73
     1
 44
1.0
  0
TEXT
  5
4F1
330
1F
100
AcDbEntity
  8
DRW_FORMAT
  6
Continuous
100
AcDbText
 10
57.00256550853334
 20
3.967862267599999
 30
0.0
 40
0.625
  1
A. RUTKIN
 41
0.8
 72
     1
 11
58.9192321752
 21
3.967862267599999
 31
0.0
100
AcDbText
  0
TEXT
  5
4F2
330
1F
100
AcDbEntity
  8
DRW_FORMAT
  6
Continuous
100
AcDbText
 10
46.66923217519999
 20
3.607862267599999
 30
0.0
 40
0.36
  1
FINISH
 41
0.8
100
AcDbText
  0
MTEXT
  5
4F3
330
1F
100
AcDbEntity
  8
DRW_FORMAT
  6
Continuous
100
AcDbMText
 10
75.4192321752
 20
8.1303622676
 30
0.0
 40
0.8
 41
18.55999999999999
 71
     2
 72
     1
  1
ASSY, PULL BACK BAR, PB2082-I\P \P 
 73
     1
 44
1.0
  0
TEXT
  5
4F4
330
1F
100
AcDbEntity
  8
DRW_FORMAT
  6
Continuous
100
AcDbText
 10
50.00256550853333
 20
4.7178622676
 30
0.0
 40
0.625
  1
NONE
 41
0.8
 72
     1
 11
50.9192321752
 21
4.7178622676
 31
0.0
100
AcDbText
  0
TEXT
  5
4F5
330
1F
100
AcDbEntity
  8
DRW_FORMAT
  6
Continuous
100
AcDbText
 10
55.6692321752
 20
4.850362267599999
 30
0.0
 40
0.36
  1
MFG ENG
 41
0.8
100
AcDbText
  0
TEXT
  5
4F6
330
1F
100
AcDbEntity
  8
DRW_FORMAT
  6
Continuous
100
AcDbText
 10
62.6442321752
 20
5.7803622676
 30
0.0
 40
0.5
  1
23-Jun-06
 41
0.6
 72
     1
 11
63.9192321752
 21
5.7803622676
 31
0.0
100
AcDbText
  0
TEXT
  5
4F7
330
1F
100
AcDbEntity
  8
DRW_FORMAT
  6
Continuous
100
AcDbText
 10
56.6692321752
 20
5.4678622676
 30
0.0
 40
0.625
  1
B. HAWKINS
 41
0.8
 72
     1
 11
58.9192321752
 21
5.4678622676
 31
0.0
100
AcDbText
  0
TEXT
  5
4F8
330
1F
100
AcDbEntity
  8
DRW_FORMAT
  6
Continuous
100
AcDbText
 10
46.66923217519999
 20
5.607862267599999
 30
0.0
 40
0.36
  1
MATERIAL
 41
0.8
100
AcDbText
  0
TEXT
  5
4F9
330
1F
100
AcDbEntity
  8
DRW_FORMAT
  6
Continuous
100
AcDbText
 10
55.6692321752
 20
6.350362267599999
 30
0.0
 40
0.36
  1
CHECKED
 41
0.8
100
AcDbText
  0
TEXT
  5
4FA
330
1F
100
AcDbEntity
  8
DRW_FORMAT
  6
Continuous
100
AcDbText
 10
47.84723217519999
 20
6.5928622676
 30
0.0
 40
0.36
  1
DEBURR EDGES .010 R MAX
 41
0.8
 72
     1
 11
50.9192321752
 21
6.5928622676
 31
0.0
100
AcDbText
  0
TEXT
  5
4FB
330
1F
100
AcDbEntity
  8
DRW_FORMAT
  6
Continuous
100
AcDbText
 10
62.6442321752
 20
7.2803622676
 30
0.0
 40
0.5
  1
23-Jun-06
 41
0.6
 72
     1
 11
63.9192321752
 21
7.2803622676
 31
0.0
100
AcDbText
  0
TEXT
  5
4FC
330
1F
100
AcDbEntity
  8
DRW_FORMAT
  6
Continuous
100
AcDbText
 10
56.9192321752
 20
6.9678622676
 30
0.0
 40
0.625
  1
J. DELARM
 41
0.8
 72
     1
 11
58.9192321752
 21
6.9678622676
 31
0.0
100
AcDbText
  0
TEXT
  5
4FD
330
1F
100
AcDbEntity
  8
DRW_FORMAT
  6
Continuous
100
AcDbText
 10
53.38423217518
 20
7.5928622676
 30
0.0
 40
0.36
  1
%%p1/2
 41
0.8916666667000001
 72
     1
 11
53.9192321752
 21
7.5928622676
 31
0.0
100
AcDbText
  0
TEXT
  5
4FE
330
1F
100
AcDbEntity
  8
DRW_FORMAT
  6
Continuous
100
AcDbText
 10
49.5092321752
 20
7.5928622676
 30
0.0
 40
0.36
  1
.XXX 
 41
0.8
 72
     1
 11
50.1332321752
 21
7.5928622676
 31
0.0
100
AcDbText
  0
TEXT
  5
4FF
330
1F
100
AcDbEntity
  8
DRW_FORMAT
  6
Continuous
100
AcDbText
 10
51.11523217522001
 20
7.5928622676
 30
0.0
 40
0.36
  1
%%p.010
 41
0.8733333332999999
 72
     1
 11
51.6392321752
 21
7.5928622676
 31
0.0
100
AcDbText
  0
TEXT
  5
500
330
1F
100
AcDbEntity
  8
DRW_FORMAT
  6
Continuous
100
AcDbText
 10
46.79723217520001
 20
7.5928622676
 30
0.0
 40
0.36
  1
.XX 
 41
0.8
 72
     1
 11
47.2772321752
 21
7.5928622676
 31
0.0
100
AcDbText
  0
TEXT
  5
501
330
1F
100
AcDbEntity
  8
DRW_FORMAT
  6
Continuous
100
AcDbText
 10
48.040482175183
 20
7.5928622676
 30
0.0
 40
0.36
  1
%%p.02
 41
0.8916666667000001
 72
     1
 11
48.4952321752
 21
7.5928622676
 31
0.0
100
AcDbText
  0
TEXT
  5
502
330
1F
100
AcDbEntity
  8
DRW_FORMAT
  6
Continuous
100
AcDbText
 10
55.6692321752
 20
7.850362267599999
 30
0.0
 40
0.36
  1
DRAWN
 41
0.8
100
AcDbText
  0
TEXT
  5
503
330
1F
100
AcDbEntity
  8
DRW_FORMAT
  6
Continuous
100
AcDbText
 10
63.3912321752
 20
8.725362267599999
 30
0.0
 40
0.36
  1
DATE
 41
0.8
 72
     1
 11
63.9192321752
 21
8.725362267599999
 31
0.0
100
AcDbText
  0
TEXT
  5
504
330
1F
100
AcDbEntity
  8
DRW_FORMAT
  6
Continuous
100
AcDbText
 10
57.6232321752
 20
8.725362267599999
 30
0.0
 40
0.36
  1
APPROVALS
 41
0.8
 72
     1
 11
58.9192321752
 21
8.725362267599999
 31
0.0
100
AcDbText
  0
TEXT
  5
505
330
1F
100
AcDbEntity
  8
DRW_FORMAT
  6
Continuous
100
AcDbText
 10
53.1032321752
 20
8.350362267599999
 30
0.0
 40
0.36
  1
ANGLES
 41
0.8
 72
     1
 11
53.9192321752
 21
8.350362267599999
 31
0.0
100
AcDbText
  0
TEXT
  5
506
330
1F
100
AcDbEntity
  8
DRW_FORMAT
  6
Continuous
100
AcDbText
 10
49.8632321752
 20
8.350362267599999
 30
0.0
 40
0.36
  1
DECIMALS
 41
0.8
 72
     1
 11
50.9192321752
 21
8.350362267599999
 31
0.0
100
AcDbText
  0
TEXT
  5
507
330
1F
100
AcDbEntity
  8
DRW_FORMAT
  6
Continuous
100
AcDbText
 10
46.8632321752
 20
8.350362267599999
 30
0.0
 40
0.36
  1
DECIMALS
 41
0.8
 72
     1
 11
47.91923217519999
 21
8.350362267599999
 31
0.0
100
AcDbText
  0
TEXT
  5
508
330
1F
100
AcDbEntity
  8
DRW_FORMAT
  6
Continuous
100
AcDbText
 10
72.66923217520001
 20
9.092862267599999
 30
0.0
 40
0.5
  1
COSTA MESA, CA  92626
 41
0.8
100
AcDbText
  0
TEXT
  5
509
330
1F
100
AcDbEntity
  8
DRW_FORMAT
  6
Continuous
100
AcDbText
 10
48.9032321752
 20
9.092862267599999
 30
0.0
 40
0.36
  1
TOLERANCES ARE:
 41
0.8
 72
     1
 11
50.9192321752
 21
9.092862267599999
 31
0.0
100
AcDbText
  0
TEXT
  5
50A
330
1F
100
AcDbEntity
  8
DRW_FORMAT
  6
Continuous
100
AcDbText
 10
72.66923217520001
 20
9.842862267599999
 30
0.0
 40
0.5
  1
1675 MACARTHUR BOULEVARD
 41
0.8
100
AcDbText
  0
TEXT
  5
50B
330
1F
100
AcDbEntity
  8
DRW_FORMAT
  6
Continuous
100
AcDbText
 10
72.66923217520001
 20
10.5928622676
 30
0.0
 40
0.625
  1
QSC AUDIO PRODUCTS, INC.
 41
0.8
100
AcDbText
  0
TEXT
  5
50C
330
1F
100
AcDbEntity
  8
DRW_FORMAT
  6
Continuous
100
AcDbText
 10
55.6692321752
 20
11.09286226759999
 30
0.0
 40
0.36
  1
CONTRACT NO.
 41
0.8
100
AcDbText
  0
MTEXT
  5
50D
330
1F
100
AcDbEntity
  8
DRW_FORMAT
  6
Continuous
100
AcDbMText
 10
50.9192321752
 20
10.96786226759999
 30
0.0
 40
0.36
 41
7.488
 71
     2
 72
     1
  1
UNLESS OTHERWISE SPECIFIED\PDIMENSIONS ARE IN INCHES.
 73
     1
 44
1.0
  0
LINE
  5
50E
330
1F
100
AcDbEntity
  8
DRW_FORMAT
  6
Continuous
100
AcDbLine
 10
85.4109608997
 20
26.3366669809
 30
0.0
 11
85.4109608997
 21
11.284902275
 31
0.0
  0
LINE
  5
50F
330
1F
100
AcDbEntity
  8
DRW_FORMAT
  6
Continuous
100
AcDbLine
 10
85.4109608997
 20
26.3107846279
 30
0.0
 11
86.91096089969999
 21
26.3107846279
 31
0.0
  0
LINE
  5
510
330
1F
100
AcDbEntity
  8
DRW_FORMAT
  6
Continuous
100
AcDbLine
 10
86.91096089969999
 20
26.3366669809
 30
0.0
 11
86.91096089969999
 21
11.284902275
 31
0.0
  0
LINE
  5
511
330
1F
100
AcDbEntity
  8
DRW_FORMAT
  6
Continuous
100
AcDbLine
 10
85.4109608997
 20
15.3107846279
 30
0.0
 11
86.91096089969999
 21
15.3107846279
 31
0.0
  0
LINE
  5
512
330
1F
100
AcDbEntity
  8
DRW_FORMAT
  6
Continuous
100
AcDbLine
 10
85.4109608997
 20
13.3107846279
 30
0.0
 11
86.91096089969999
 21
13.3107846279
 31
0.0
  0
LINE
  5
513
330
1F
100
AcDbEntity
  8
DRW_FORMAT
  6
Continuous
100
AcDbLine
 10
85.4109608997
 20
11.3107846279
 30
0.0
 11
86.91096089969999
 21
11.3107846279
 31
0.0
  0
TEXT
  5
514
330
1F
100
AcDbEntity
  8
DRW_FORMAT
  6
Continuous
100
AcDbText
 10
85.5509608997
 20
23.83478462789999
 30
0.0
 40
0.72
  1
RD-000370-01
 50
270.0
 41
0.8
 72
     1
 11
85.5509608997
 21
20.81078462789999
 31
0.0
100
AcDbText
  0
TEXT
  5
515
330
1F
100
AcDbEntity
  8
DRW_FORMAT
  6
Continuous
100
AcDbText
 10
85.66096089970001
 20
14.37745129456666
 30
0.0
 40
0.5
  1
1
 50
270.0
 41
0.8
 72
     1
 11
85.66096089970001
 21
14.3107846279
 31
0.0
100
AcDbText
  0
TEXT
  5
516
330
1F
100
AcDbEntity
  8
DRW_FORMAT
  6
Continuous
100
AcDbText
 10
85.59846089969999
 20
12.47745129456666
 30
0.0
 40
0.625
  1
A
 50
270.0
 41
0.8
 72
     1
 11
85.59846089969999
 21
12.3107846279
 31
0.0
100
AcDbText
  0
TEXT
  5
517
330
1F
100
AcDbEntity
  8
DRW_FORMAT
  6
Continuous
100
AcDbText
 10
86.4809608997
 20
26.0607846279
 30
0.0
 40
0.36
  1
DWG NO.
 50
270.0
 41
0.8
100
AcDbText
  0
TEXT
  5
518
330
1F
100
AcDbEntity
  8
DRW_FORMAT
  6
Continuous
100
AcDbText
 10
86.4809608997
 20
14.5507846279
 30
0.0
 40
0.36
  1
SH
 50
270.0
 41
0.8
 72
     1
 11
86.4809608997
 21
14.3107846279
 31
0.0
100
AcDbText
  0
TEXT
  5
519
330
1F
100
AcDbEntity
  8
DRW_FORMAT
  6
Continuous
100
AcDbText
 10
86.4809608997
 20
12.7427846279
 30
0.0
 40
0.36
  1
REV
 50
270.0
 41
0.8
 72
     1
 11
86.4809608997
 21
12.3107846279
 31
0.0
100
AcDbText
  0
TEXT
  5
51A
330
1F
100
AcDbEntity
  8
0
  6
Continuous
100
AcDbText
 10
2.586214834099999
 20
6.2227556763
 30
0.0
 40
0.625
  1
3. SHIPPING WEIGHT APPROX. 6 LB (2.7 KG). 
 41
0.8
100
AcDbText
  0
TEXT
  5
51B
330
1F
100
AcDbEntity
  8
0
  6
Continuous
100
AcDbText
 10
2.586214834099999
 20
4.9727556763
 30
0.0
 40
0.625
  1
2. NET WEIGHT APPROX. 6 LB (2.7 KG)
 41
0.8
100
AcDbText
  0
TEXT
  5
51C
330
1F
100
AcDbEntity
  8
0
  6
Continuous
100
AcDbText
 10
2.586214834099999
 20
3.722755676299999
 30
0.0
 40
0.625
  1
1. SYMBOL    INDICATES SUSPENSION POINT, %%c .33".
 41
0.8111111110999999
100
AcDbText
  0
TEXT
  5
51D
330
1F
100
AcDbEntity
  8
0
  6
Continuous
100
AcDbText
 10
2.586214834099999
 20
2.472755676299999
 30
0.0
 40
0.625
  1
NOTE:  UNLESS OTHERWISE SPECIFIED
 41
0.8
100
AcDbText
  0
TEXT
  5
51E
330
1F
100
AcDbEntity
  8
0
  6
Continuous
100
AcDbText
 10
60.97276448359999
 20
42.75787153649999
 30
0.0
 40
1.0
  1
PB2082-i
 41
0.8
100
AcDbText
  0
TEXT
  5
51F
330
1F
100
AcDbEntity
  8
0
  6
Continuous
100
AcDbText
 10
61.39429084100001
 20
4.755189024899999
 30
0.0
 40
0.36
  1
MKT
 41
0.8
100
AcDbText
  0
INSERT
  5
520
330
1F
100
AcDbEntity
  8
0
  6
Continuous
100
AcDbBlockReference
  2
PICK-POINT_BL1
 10
7.533641669120214
 20
4.057255691570759
 30
0.0
  0
INSERT
  5
521
330
1F
100
AcDbEntity
  8
0
  6
Continuous
100
AcDbBlockReference
  2
PICK-POINT_BL2
 10
58.7772503683
 20
25.43801050869999
 30
0.0
  0
DIMENSION
  5
59B
330
1F
100
AcDbEntity
  8
0
100
AcDbDimension
  2
*D10
 10
23.89064369443706
 20
46.26577335367891
 30
0.0
 11
28.64213723079055
 21
41.8326765885504
 31
0.0
 70
   163
  1
(<>)
 71
     5
 42
0.7650000000000077
  3
DIMSTYLE_1
100
AcDbDiametricDimension
 15
24.11120719756294
 25
45.53325936672108
 35
0.0
 40
0.0
1001
ACAD
1000
DSTYLE
1002
{
1070
     3
1000
\X
1070
   147
1040
1.0
1070
   170
1070
     1
1070
   171
1070
     1
1070
   288
1070
     1
1002
}
  0
ENDSEC
  0
SECTION
  2
OBJECTS
  0
DICTIONARY
  5
C
330
0
100
AcDbDictionary
281
     1
  3
ACAD_GROUP
350
D
  3
ACAD_LAYOUT
350
1A
  3
ACAD_MLINESTYLE
350
17
  3
ACAD_PLOTSETTINGS
350
19
  3
ACAD_PLOTSTYLENAME
350
E
  3
AcDbVariableDictionary
350
5AF
  0
DICTIONARY
  5
D
102
{ACAD_REACTORS
330
C
102
}
330
C
100
AcDbDictionary
281
     1
  0
DICTIONARY
  5
1A
102
{ACAD_REACTORS
330
C
102
}
330
C
100
AcDbDictionary
281
     1
  3
Layout1
350
1E
  3
Model
350
22
  0
DICTIONARY
  5
17
102
{ACAD_REACTORS
330
C
102
}
330
C
100
AcDbDictionary
281
     1
  3
Standard
350
18
  0
DICTIONARY
  5
19
102
{ACAD_REACTORS
330
C
102
}
330
C
100
AcDbDictionary
281
     1
  0
ACDBDICTIONARYWDFLT
  5
E
102
{ACAD_REACTORS
330
C
102
}
330
C
100
AcDbDictionary
281
     1
  3
Normal
350
F
100
AcDbDictionaryWithDefault
340
F
  0
DICTIONARY
  5
5AF
102
{ACAD_REACTORS
330
C
102
}
330
C
100
AcDbDictionary
281
     1
  3
DIMASSOC
350
5B0
  0
LAYOUT
  5
1E
102
{ACAD_REACTORS
330
1A
102
}
330
1A
100
AcDbPlotSettings
  1

  2

  4

  6

 40
0.0
 41
0.0
 42
0.0
 43
0.0
 44
0.0
 45
0.0
 46
0.0
 47
0.0
 48
0.0
 49
0.0
140
0.0
141
0.0
142
1.0
143
1.0
 70
     0
 72
     0
 73
     0
 74
     0
  7

 75
     0
147
1.0
148
0.0
149
0.0
100
AcDbLayout
  1
Layout1
 70
     1
 71
     1
 10
0.0
 20
0.0
 11
12.0
 21
9.0
 12
0.0
 22
0.0
 32
0.0
 14
1.000000000000000E+20
 24
1.000000000000000E+20
 34
1.000000000000000E+20
 15
-1.000000000000000E+20
 25
-1.000000000000000E+20
 35
-1.000000000000000E+20
146
0.0
 13
0.0
 23
0.0
 33
0.0
 16
1.0
 26
0.0
 36
0.0
 17
0.0
 27
1.0
 37
0.0
 76
     0
330
1B
  0
LAYOUT
  5
22
102
{ACAD_REACTORS
330
1A
102
}
330
1A
100
AcDbPlotSettings
  1

  2

  4

  6

 40
0.0
 41
0.0
 42
0.0
 43
0.0
 44
0.0
 45
0.0
 46
0.0
 47
0.0
 48
0.0
 49
0.0
140
0.0
141
0.0
142
1.0
143
1.0
 70
     0
 72
     0
 73
     0
 74
     0
  7

 75
     0
147
1.0
148
0.0
149
0.0
100
AcDbLayout
  1
Model
 70
     0
 71
     0
 10
0.0
 20
0.0
 11
0.0
 21
0.0
 12
0.0
 22
0.0
 32
0.0
 14
0.0
 24
0.0
 34
0.0
 15
0.0
 25
0.0
 35
0.0
146
0.0
 13
0.0
 23
0.0
 33
0.0
 16
0.0
 26
0.0
 36
0.0
 17
0.0
 27
0.0
 37
0.0
 76
     0
330
1F
  0
MLINESTYLE
  5
18
102
{ACAD_REACTORS
330
17
102
}
330
17
100
AcDbMlineStyle
  2
STANDARD
 70
     0
  3

 62
   256
 51
90.0
 52
90.0
 71
     2
 49
0.5
 62
   256
  6
BYLAYER
 49
-0.5
 62
   256
  6
BYLAYER
  0
ACDBPLACEHOLDER
  5
F
102
{ACAD_REACTORS
330
E
102
}
330
E
  0
DICTIONARYVAR
  5
5B0
102
{ACAD_REACTORS
330
5AF
102
}
330
5AF
100
DictionaryVariables
280
     0
  1
1
  0
ENDSEC
  0
EOF
