999
DXF file: Z:\L&T Project Work\3D speaker files\SC-414\dc-sc-414-2d-a.dxf
999
Pro/ENGINEER 2016130 by Parametric Technology Corporation
  0
SECTION
  2
HEADER
  9
$ACADVER
  1
AC1015
  9
$DWGCODEPAGE
  3
ANSI_1252
  9
$EXTMAX
 10
283.3333333333
 20
183.3333333333
 30
0.0
  9
$EXTMIN
 10
0.0
 20
0.0
 30
0.0
  9
$LIMMIN
 10
0.0
 20
0.0
  9
$LIMMAX
 10
283.3333333333
 20
183.3333333333
  9
$VIEWCTR
 10
141.6666666667
 20
91.6666666667
  9
$VIEWSIZE
 40
183.3333333333
  9
$CLAYER
  8
0
  9
$LTSCALE
 40
15.5833333333
  9
$CELTYPE
  6
BYLAYER
  9
$DIMSCALE
 40
1.0
  9
$DIMASZ
 40
1.5625
  9
$DIMEXO
 40
0.0625
  9
$DIMDLI
 40
10.7666666667
  9
$DIMEXE
 40
0.125
  9
$DIMCEN
 40
2.55
  9
$DIMLFAC
 40
1.0
  9
$DIMBLK
  1
_FILLED
  9
$DIMALT
 70
0
  9
$DIMALTF
 40
25.4
  9
$DIMTXT
 40
1.3020833333
  9
$DIMTOL
 70
1
  9
$DIMLIM
 70
0
  9
$DIMTFAC
 40
1.0
  9
$DIMTP
 40
0.01
  9
$DIMTM
 40
0.01
  9
$DIMGAP
 40
0.09
  9
$DIMDSEP
 70
46
  9
$AUNITS
 70
0
  9
$PDMODE
 70
3
  9
$PDSIZE
 40
0.3125
  9
$HANDSEED
  5
70A
  9
$TILEMODE
 70
1
  9
$MEASUREMENT
 70
0
  9
$INSUNITS
 70
1
  0
ENDSEC
  0
SECTION
  2
CLASSES
  0
CLASS
  1
ACDBDICTIONARYWDFLT
  2
AcDbDictionaryWithDefault
  3
AutoCAD 2000
 90
0
280
0
281
0
  0
CLASS
  1
ACDBPLACEHOLDER
  2
AcDbPlaceHolder
  3
AutoCAD 2000
 90
0
280
0
281
0
  0
CLASS
  1
LAYOUT
  2
AcDbLayout
  3
AutoCAD 2000
 90
0
280
0
281
0
  0
ENDSEC
  0
SECTION
  2
TABLES
  0
TABLE
  2
VPORT
  5
8
100
AcDbSymbolTable
 70
2
  0
VPORT
  5
1F4
100
AcDbSymbolTableRecord
100
AcDbViewportTableRecord
  2
*ACTIVE
 70
0
 10
0.0
 20
0.0
 11
1.0
 21
1.0
 12
141.6666666667
 22
91.6666666667
 13
0.0
 23
0.0
 14
1.0
 24
1.0
 15
0.0
 25
0.0
 16
0.0
 26
0.0
 36
1.0
 17
0.0
 27
0.0
 37
0.0
 40
183.3333333333
 41
1.5454545455
 42
50.0
 43
0.0
 44
0.0
 50
0.0
 51
0.0
 71
0
 72
100
 73
1
 74
1
 75
0
 76
0
 77
0
 78
0
  0
ENDTAB
  0
TABLE
  2
LTYPE
  5
5
100
AcDbSymbolTable
 70
6
  0
LTYPE
  5
14
100
AcDbSymbolTableRecord
100
AcDbLinetypeTableRecord
  2
BYBLOCK
 70
0
  3

 72
65
 73
0
 40
0.0
  0
LTYPE
  5
15
100
AcDbSymbolTableRecord
100
AcDbLinetypeTableRecord
  2
BYLAYER
 70
0
  3

 72
65
 73
0
 40
0.0
  0
LTYPE
  5
16
100
AcDbSymbolTableRecord
100
AcDbLinetypeTableRecord
  2
CONTINUOUS
 70
64
  3
Solid line
 72
65
 73
0
 40
0.0
  0
LTYPE
  5
1F5
100
AcDbSymbolTableRecord
100
AcDbLinetypeTableRecord
  2
CENTER
 70
64
  3
____ _ ____ _ ____ _ ____ _ ____ _ ____ _ ____
 72
65
 73
4
 40
0.6
 49
0.375
 74
0
 49
-0.075
 74
0
 49
0.075
 74
0
 49
-0.075
 74
0
  0
LTYPE
  5
1F6
100
AcDbSymbolTableRecord
100
AcDbLinetypeTableRecord
  2
HIDDEN
 70
64
  3
- - - - - - - - - - - - - - - - - - - -
 72
65
 73
2
 40
0.2
 49
0.1
 74
0
 49
-0.1
 74
0
  0
LTYPE
  5
1F7
100
AcDbSymbolTableRecord
100
AcDbLinetypeTableRecord
  2
PHANTOM
 70
64
  3
_____ _ _ _____ _ _ _____ _ _ _____
 72
65
 73
6
 40
0.8
 49
0.45
 74
0
 49
-0.05
 74
0
 49
0.1
 74
0
 49
-0.05
 74
0
 49
0.1
 74
0
 49
-0.05
 74
0
  0
LTYPE
  5
1F8
100
AcDbSymbolTableRecord
100
AcDbLinetypeTableRecord
  2
DOT
 70
64
  3
. . . . . . . . . . . . . . . . . . . .
 72
65
 73
2
 40
0.2
 49
0.1
 74
0
 49
-0.1
 74
0
  0
LTYPE
  5
1F9
100
AcDbSymbolTableRecord
100
AcDbLinetypeTableRecord
  2
DASHED
 70
64
  3
- - - - - - - - - - - - - - - - - - - -
 72
65
 73
2
 40
0.2
 49
0.1
 74
0
 49
-0.1
 74
0
  0
ENDTAB
  0
TABLE
  2
LAYER
  5
2
100
AcDbSymbolTable
 70
36
  0
LAYER
  5
10
100
AcDbSymbolTableRecord
100
AcDbLayerTableRecord
  2
0
 70
0
 62
7
  6
CONTINUOUS
370
-3
390
F
  0
LAYER
  5
1FA
100
AcDbSymbolTableRecord
100
AcDbLayerTableRecord
  2
DEFAULT_1
 70
0
 62
7
  6
CENTER
370
-3
390
F
  0
LAYER
  5
1FB
100
AcDbSymbolTableRecord
100
AcDbLayerTableRecord
  2
DEFAULT_2
 70
0
 62
8
  6
HIDDEN
370
-3
390
F
  0
LAYER
  5
1FC
100
AcDbSymbolTableRecord
100
AcDbLayerTableRecord
  2
DEFAULT_3
 70
0
 62
7
  6
PHANTOM
370
-3
390
F
  0
LAYER
  5
1FD
100
AcDbSymbolTableRecord
100
AcDbLayerTableRecord
  2
1_ALL_PLANES
 70
0
 62
7
  6
CONTINUOUS
370
-3
390
F
  0
LAYER
  5
1FE
100
AcDbSymbolTableRecord
100
AcDbLayerTableRecord
  2
1__DEF_PLANES
 70
0
 62
7
  6
CONTINUOUS
370
-3
390
F
  0
LAYER
  5
1FF
100
AcDbSymbolTableRecord
100
AcDbLayerTableRecord
  2
2_ALL_CSYS
 70
0
 62
7
  6
CONTINUOUS
370
-3
390
F
  0
LAYER
  5
200
100
AcDbSymbolTableRecord
100
AcDbLayerTableRecord
  2
2__DEF_CSYS
 70
0
 62
7
  6
CONTINUOUS
370
-3
390
F
  0
LAYER
  5
201
100
AcDbSymbolTableRecord
100
AcDbLayerTableRecord
  2
3_ALL_AXES
 70
0
 62
7
  6
CONTINUOUS
370
-3
390
F
  0
LAYER
  5
202
100
AcDbSymbolTableRecord
100
AcDbLayerTableRecord
  2
3_AXES_OTHER
 70
0
 62
7
  6
CONTINUOUS
370
-3
390
F
  0
LAYER
  5
203
100
AcDbSymbolTableRecord
100
AcDbLayerTableRecord
  2
3_HOLES
 70
0
 62
7
  6
CONTINUOUS
370
-3
390
F
  0
LAYER
  5
204
100
AcDbSymbolTableRecord
100
AcDbLayerTableRecord
  2
4_ALL_POINTS
 70
0
 62
7
  6
CONTINUOUS
370
-3
390
F
  0
LAYER
  5
205
100
AcDbSymbolTableRecord
100
AcDbLayerTableRecord
  2
5_ALL_CURVES
 70
0
 62
7
  6
CONTINUOUS
370
-3
390
F
  0
LAYER
  5
206
100
AcDbSymbolTableRecord
100
AcDbLayerTableRecord
  2
6_ALL_SURFS
 70
0
 62
7
  6
CONTINUOUS
370
-3
390
F
  0
LAYER
  5
207
100
AcDbSymbolTableRecord
100
AcDbLayerTableRecord
  2
6_COPYGEOM
 70
0
 62
7
  6
CONTINUOUS
370
-3
390
F
  0
LAYER
  5
208
100
AcDbSymbolTableRecord
100
AcDbLayerTableRecord
  2
7_ALL_ROUNDS
 70
0
 62
7
  6
CONTINUOUS
370
-3
390
F
  0
LAYER
  5
209
100
AcDbSymbolTableRecord
100
AcDbLayerTableRecord
  2
7_MERGES
 70
0
 62
7
  6
CONTINUOUS
370
-3
390
F
  0
LAYER
  5
20A
100
AcDbSymbolTableRecord
100
AcDbLayerTableRecord
  2
8_GDT
 70
0
 62
7
  6
CONTINUOUS
370
-3
390
F
  0
LAYER
  5
20B
100
AcDbSymbolTableRecord
100
AcDbLayerTableRecord
  2
8_SET_DATUMS
 70
0
 62
7
  6
CONTINUOUS
370
-3
390
F
  0
LAYER
  5
20C
100
AcDbSymbolTableRecord
100
AcDbLayerTableRecord
  2
9_COSMETICS
 70
0
 62
7
  6
CONTINUOUS
370
-3
390
F
  0
LAYER
  5
20D
100
AcDbSymbolTableRecord
100
AcDbLayerTableRecord
  2
9_THREADS
 70
0
 62
7
  6
CONTINUOUS
370
-3
390
F
  0
ENDTAB
  0
TABLE
  2
STYLE
  5
3
100
AcDbSymbolTable
 70
1
  0
STYLE
  5
11
100
AcDbSymbolTableRecord
100
AcDbTextStyleTableRecord
  2
STANDARD
 70
0
 40
0.0
 41
0.8
 50
0.0
 71
0
 42
0.2
  3
txt
  4

  0
STYLE
  5
20E
100
AcDbSymbolTableRecord
100
AcDbTextStyleTableRecord
  2
TEXTSTYLE_1
 70
0
 40
0.0
 41
0.8
 50
0.0
 71
0
 42
0.2
  3
gdt
  4

  0
ENDTAB
  0
TABLE
  2
VIEW
  5
6
100
AcDbSymbolTable
 70
0
  0
ENDTAB
  0
TABLE
  2
UCS
  5
7
100
AcDbSymbolTable
 70
0
  0
ENDTAB
  0
TABLE
  2
APPID
  5
9
100
AcDbSymbolTable
 70
1
  0
APPID
  5
20F
100
AcDbSymbolTableRecord
100
AcDbRegAppTableRecord
  2
ACAD
 70
0
  0
ENDTAB
  0
TABLE
  2
BLOCK_RECORD
  5
1
100
AcDbSymbolTable
 70
0
  0
BLOCK_RECORD
  5
210
100
AcDbSymbolTableRecord
100
AcDbBlockTableRecord
  2
*Model_Space
  0
BLOCK_RECORD
  5
211
100
AcDbSymbolTableRecord
100
AcDbBlockTableRecord
  2
*Paper_Space
  0
BLOCK_RECORD
  5
212
100
AcDbSymbolTableRecord
100
AcDbBlockTableRecord
  2
_FILLED
  0
BLOCK_RECORD
  5
213
100
AcDbSymbolTableRecord
100
AcDbBlockTableRecord
  2
*D0
  0
BLOCK_RECORD
  5
214
100
AcDbSymbolTableRecord
100
AcDbBlockTableRecord
  2
*D1
  0
BLOCK_RECORD
  5
215
100
AcDbSymbolTableRecord
100
AcDbBlockTableRecord
  2
*D2
  0
BLOCK_RECORD
  5
216
100
AcDbSymbolTableRecord
100
AcDbBlockTableRecord
  2
*D3
  0
BLOCK_RECORD
  5
217
100
AcDbSymbolTableRecord
100
AcDbBlockTableRecord
  2
*D4
  0
BLOCK_RECORD
  5
218
100
AcDbSymbolTableRecord
100
AcDbBlockTableRecord
  2
*D5
  0
BLOCK_RECORD
  5
219
100
AcDbSymbolTableRecord
100
AcDbBlockTableRecord
  2
*D6
  0
BLOCK_RECORD
  5
21A
100
AcDbSymbolTableRecord
100
AcDbBlockTableRecord
  2
*D7
  0
BLOCK_RECORD
  5
21B
100
AcDbSymbolTableRecord
100
AcDbBlockTableRecord
  2
*D8
  0
BLOCK_RECORD
  5
21C
100
AcDbSymbolTableRecord
100
AcDbBlockTableRecord
  2
*D9
  0
BLOCK_RECORD
  5
21D
100
AcDbSymbolTableRecord
100
AcDbBlockTableRecord
  2
*D10
  0
BLOCK_RECORD
  5
21E
100
AcDbSymbolTableRecord
100
AcDbBlockTableRecord
  2
RD010411_BL0
  0
ENDTAB
  0
TABLE
  2
DIMSTYLE
  5
A
100
AcDbSymbolTable
 70
1
100
AcDbDimStyleTable
 71
0
  0
DIMSTYLE
105
21F
100
AcDbSymbolTableRecord
100
AcDbDimStyleTableRecord
  2
STANDARD
 70
0
  3

  4

 40
1.0
 41
1.5625
 42
0.0625
 43
0.38
 44
0.125
 45
0.0
 46
0.0
 47
0.01
 48
0.01
140
1.3020833333
141
0.09
142
0.0
143
25.4
144
1.0
145
0.0
146
1.0
147
0.09
 71
1.0
 72
0.0
 73
1
 74
1
 75
0
 76
0
 77
0
 78
4
170
0
171
2
172
0
173
0
174
0
175
0
176
0
177
0
178
0
270
2
271
3
272
3
273
2
274
2
275
0
280
0
281
0
282
0
283
1
284
4
285
0
286
0
287
3
288
0
340
11
278
46
341
212
342
212
343
212
344
212
  0
DIMSTYLE
105
220
100
AcDbSymbolTableRecord
100
AcDbDimStyleTableRecord
  2
DIMSTYLE_1
 70
0
  3

  4

 40
1.0
 41
1.5625
 42
0.0625
 43
0.38
 44
0.125
 45
0.0
 46
0.0
 47
0.01
 48
0.01
140
1.3020833333
141
0.09
142
0.0
143
25.4
144
1.0
145
0.0
146
1.0
147
0.078125
 71
0.0
 72
0.0
 73
1
 74
1
 75
0
 76
0
 77
0
 78
4
170
0
171
2
172
0
173
0
174
0
175
0
176
0
177
0
178
0
270
2
271
1
272
1
273
2
274
2
275
0
280
0
281
0
282
0
283
1
284
4
285
0
286
0
287
3
288
0
340
11
278
46
341
212
342
212
343
212
344
212
  0
ENDTAB
  0
ENDSEC
  0
SECTION
  2
BLOCKS
  0
BLOCK
  5
20
100
AcDbEntity
  8
0
100
AcDbBlockBegin
  2
*Model_Space
 70
0
 10
0.0
 20
0.0
 30
0.0
  3
*Model_Space
  1

  0
ENDBLK
  5
21
100
AcDbEntity
  8
0
100
AcDbBlockEnd
  0
BLOCK
  5
1C
100
AcDbEntity
  8
0
100
AcDbBlockBegin
  2
*Paper_Space
 70
0
 10
0.0
 20
0.0
 30
0.0
  3
*Paper_Space
  1

  0
ENDBLK
  5
1D
100
AcDbEntity
  8
0
100
AcDbBlockEnd
  0
BLOCK
  5
221
100
AcDbEntity
  8
0
100
AcDbBlockBegin
 62
7
  6
CONTINUOUS
  2
RD010411_BL0
 70
64
 10
240.7401691567
 20
22.5092555431
  3
RD010411_BL0
  1

  0
ARC
  5
222
100
AcDbEntity
  8
0
100
AcDbCircle
 62
7
  6
CONTINUOUS
 10
246.1748489037
 20
23.3457301892
 40
0.1030959439
100
AcDbArc
 50
270.0
 51
360.0
  0
LINE
  5
223
100
AcDbEntity
  8
0
100
AcDbLine
 62
7
  6
CONTINUOUS
 10
246.2779448476
 20
23.3457301892
 11
246.2779448476
 21
23.5519929325
  0
ARC
  5
224
100
AcDbEntity
  8
0
100
AcDbCircle
 62
7
  6
CONTINUOUS
 10
246.1748489037
 20
23.5519929325
 40
0.1030959439
100
AcDbArc
 50
0.0
 51
90.0
  0
LINE
  5
225
100
AcDbEntity
  8
0
100
AcDbLine
 62
7
  6
CONTINUOUS
 10
246.1748489037
 20
23.6550888764
 11
243.4032378019
 21
23.6550888764
  0
SPLINE
  5
226
100
AcDbEntity
  8
0
100
AcDbSpline
 62
7
  6
CONTINUOUS
 70
0
 71
3
 72
13
 73
9
 74
0
 42
0.0000001
 43
0.0000001
 44
0.0000000001
 40
0.0
 40
0.0
 40
0.0
 40
0.0
 40
0.1310616762
 40
0.2699656353
 40
0.4157607805
 40
0.5899807757
 40
0.76586761
 40
0.9948829976
 40
0.9948829976
 40
0.9948829976
 40
0.9948829976
 10
243.4032378019
 20
23.6550888764
 30
0.0
 10
243.3449760143
 20
23.6507495
 30
0.0
 10
243.2249662545
 20
23.6418110943
 30
0.0
 10
243.0623291309
 20
23.5410318622
 30
0.0
 10
242.9455750839
 20
23.3718416828
 30
0.0
 10
242.8696555702
 20
23.164959336
 30
0.0
 10
242.826893065
 20
22.9120631045
 30
0.0
 10
242.8229557945
 20
22.7333621863
 30
0.0
 10
242.820915199
 20
22.6322744832
 30
0.0
  0
LINE
  5
227
100
AcDbEntity
  8
0
100
AcDbLine
 62
7
  6
CONTINUOUS
 10
242.820915199
 20
22.6322744832
 11
242.8210961435
 21
22.6165875756
  0
SPLINE
  5
228
100
AcDbEntity
  8
0
100
AcDbSpline
 62
7
  6
CONTINUOUS
 70
0
 71
3
 72
13
 73
9
 74
0
 42
0.0000001
 43
0.0000001
 44
0.0000000001
 40
0.0
 40
0.0
 40
0.0
 40
0.0
 40
0.2222860645
 40
0.3981728988
 40
0.572392894
 40
0.7181880393
 40
0.8570919984
 40
0.9881536746
 40
0.9881536746
 40
0.9881536746
 40
0.9881536746
 10
242.8210961435
 20
22.6165875756
 30
0.0
 10
242.823096522
 20
22.5184715037
 30
0.0
 10
242.8273890802
 20
22.3427731708
 30
0.0
 10
242.8696555353
 20
22.0928084645
 30
0.0
 10
242.9455759578
 20
21.8859492556
 30
0.0
 10
243.0623263631
 20
21.7166872723
 30
0.0
 10
243.2249758995
 20
21.6161489452
 30
0.0
 10
243.3449564007
 20
21.6066432851
 30
0.0
 10
243.4032378019
 20
21.6023024494
 30
0.0
  0
LINE
  5
229
100
AcDbEntity
  8
0
100
AcDbLine
 62
7
  6
CONTINUOUS
 10
243.4032378019
 20
21.6023024494
 11
246.1750739209
 21
21.6083522637
  0
ARC
  5
22A
100
AcDbEntity
  8
0
100
AcDbCircle
 62
7
  6
CONTINUOUS
 10
246.1748489037
 20
21.7114479618
 40
0.1030959436
100
AcDbArc
 50
270.125053868
 51
360.0
  0
LINE
  5
22B
100
AcDbEntity
  8
0
100
AcDbLine
 62
7
  6
CONTINUOUS
 10
246.2779448476
 20
21.7114479618
 11
246.2779448476
 21
21.9096577889
  0
ARC
  5
22C
100
AcDbEntity
  8
0
100
AcDbCircle
 62
7
  6
CONTINUOUS
 10
246.1748489037
 20
21.9096577889
 40
0.1030959439
100
AcDbArc
 50
0.0
 51
90.0
  0
LINE
  5
22D
100
AcDbEntity
  8
0
100
AcDbLine
 62
7
  6
CONTINUOUS
 10
246.1748489037
 20
22.0127537328
 11
243.7991993771
 21
22.0127537328
  0
LINE
  5
22E
100
AcDbEntity
  8
0
100
AcDbLine
 62
7
  6
CONTINUOUS
 10
243.6961034332
 20
22.1158496767
 11
243.6961034332
 21
23.1395383014
  0
ARC
  5
22F
100
AcDbEntity
  8
0
100
AcDbCircle
 62
7
  6
CONTINUOUS
 10
243.799199378
 20
23.1395383014
 40
0.1030959439
100
AcDbArc
 50
90.0
 51
180.0
  0
LINE
  5
230
100
AcDbEntity
  8
0
100
AcDbLine
 62
7
  6
CONTINUOUS
 10
243.7991993771
 20
23.2426342453
 11
246.1748489037
 21
23.2426342453
  0
LINE
  5
231
100
AcDbEntity
  8
0
100
AcDbLine
 62
7
  6
CONTINUOUS
 10
239.5632052751
 20
22.4205258382
 11
241.5433047269
 21
22.4205258382
  0
ARC
  5
232
100
AcDbEntity
  8
0
100
AcDbCircle
 62
7
  6
CONTINUOUS
 10
241.5433047267
 20
22.3174298945
 40
0.1030959439
100
AcDbArc
 50
0.0
 51
90.0
  0
LINE
  5
233
100
AcDbEntity
  8
0
100
AcDbLine
 62
7
  6
CONTINUOUS
 10
241.6464006708
 20
22.3174298943
 11
241.6464006708
 21
22.1069186258
  0
LINE
  5
234
100
AcDbEntity
  8
0
100
AcDbLine
 62
7
  6
CONTINUOUS
 10
241.5433047269
 20
22.0038226819
 11
239.2351368946
 21
22.0038226819
  0
ARC
  5
235
100
AcDbEntity
  8
0
100
AcDbCircle
 62
7
  6
CONTINUOUS
 10
239.2351368946
 20
21.900726738
 40
0.1030959439
100
AcDbArc
 50
90.0
 51
180.0
  0
LINE
  5
236
100
AcDbEntity
  8
0
100
AcDbLine
 62
7
  6
CONTINUOUS
 10
239.1320409507
 20
21.900726738
 11
239.1320409507
 21
21.7053973528
  0
ARC
  5
237
100
AcDbEntity
  8
0
100
AcDbCircle
 62
7
  6
CONTINUOUS
 10
239.2351368946
 20
21.7053973528
 40
0.1030959439
100
AcDbArc
 50
180.0
 51
270.0
  0
LINE
  5
238
100
AcDbEntity
  8
0
100
AcDbLine
 62
7
  6
CONTINUOUS
 10
239.2351368946
 20
21.6023014089
 11
242.1006095367
 21
21.6023014089
  0
SPLINE
  5
239
100
AcDbEntity
  8
0
100
AcDbSpline
 62
7
  6
CONTINUOUS
 70
0
 71
3
 72
13
 73
9
 74
0
 42
0.0000001
 43
0.0000001
 44
0.0000000001
 40
0.0
 40
0.0
 40
0.0
 40
0.0
 40
0.1604571392
 40
0.3334692485
 40
0.4767982758
 40
0.6242014838
 40
0.7505998515
 40
1.0
 40
1.0
 40
1.0
 40
1.0
 10
242.1006095367
 20
21.6023014089
 30
0.0
 10
242.1489217632
 20
21.6046275564
 30
0.0
 10
242.2493264049
 20
21.6094618584
 30
0.0
 10
242.3843422076
 20
21.6680795284
 30
0.0
 10
242.4860810631
 20
21.7666109391
 30
0.0
 10
242.5434149095
 20
21.8795733948
 30
0.0
 10
242.5873719144
 20
22.0311136866
 30
0.0
 10
242.5891556915
 20
22.1445192519
 30
0.0
 10
242.590339501
 20
22.2197812958
 30
0.0
  0
SPLINE
  5
23A
100
AcDbEntity
  8
0
100
AcDbSpline
 62
7
  6
CONTINUOUS
 70
0
 71
3
 72
13
 73
9
 74
0
 42
0.0000001
 43
0.0000001
 44
0.0000000001
 40
0.0
 40
0.0
 40
0.0
 40
0.0
 40
0.2494001485
 40
0.3757985162
 40
0.5232017242
 40
0.6665307515
 40
0.8395428608
 40
1.0
 40
1.0
 40
1.0
 40
1.0
 10
242.590339501
 20
22.2197812958
 30
0.0
 10
242.5891556915
 20
22.2950433412
 30
0.0
 10
242.5873719144
 20
22.4084489049
 30
0.0
 10
242.5434149095
 20
22.5599891983
 30
0.0
 10
242.4860810631
 20
22.672951654
 30
0.0
 10
242.3843422076
 20
22.7714830631
 30
0.0
 10
242.2493264049
 20
22.8301007331
 30
0.0
 10
242.1489217632
 20
22.8349350367
 30
0.0
 10
242.1006095367
 20
22.8372611826
 30
0.0
  0
LINE
  5
23B
100
AcDbEntity
  8
0
100
AcDbLine
 62
7
  6
CONTINUOUS
 10
242.1006095367
 20
22.8372611826
 11
240.1469034999
 21
22.8372611826
  0
LINE
  5
23C
100
AcDbEntity
  8
0
100
AcDbLine
 62
7
  6
CONTINUOUS
 10
240.043807556
 20
22.9403571265
 11
240.043807556
 21
23.1354249953
  0
ARC
  5
23D
100
AcDbEntity
  8
0
100
AcDbCircle
 62
7
  6
CONTINUOUS
 10
240.146903499
 20
23.1354249953
 40
0.1030959439
100
AcDbArc
 50
90.0
 51
180.0
  0
LINE
  5
23E
100
AcDbEntity
  8
0
100
AcDbLine
 62
7
  6
CONTINUOUS
 10
240.1469034999
 20
23.2385209392
 11
242.4582043307
 21
23.2385209392
  0
ARC
  5
23F
100
AcDbEntity
  8
0
100
AcDbCircle
 62
7
  6
CONTINUOUS
 10
242.4582043307
 20
23.3416168831
 40
0.1030959439
100
AcDbArc
 50
270.0
 51
360.0
  0
LINE
  5
240
100
AcDbEntity
  8
0
100
AcDbLine
 62
7
  6
CONTINUOUS
 10
242.5613002746
 20
23.3416168831
 11
242.5613002746
 21
23.5519929325
  0
ARC
  5
241
100
AcDbEntity
  8
0
100
AcDbCircle
 62
7
  6
CONTINUOUS
 10
242.4582043307
 20
23.5519929325
 40
0.1030959439
100
AcDbArc
 50
0.0
 51
90.0
  0
LINE
  5
242
100
AcDbEntity
  8
0
100
AcDbLine
 62
7
  6
CONTINUOUS
 10
242.4582043307
 20
23.6550888764
 11
239.5632052751
 21
23.6550888764
  0
SPLINE
  5
243
100
AcDbEntity
  8
0
100
AcDbSpline
 62
7
  6
CONTINUOUS
 70
0
 71
3
 72
13
 73
9
 74
0
 42
0.0000001
 43
0.0000001
 44
0.0000000001
 40
0.0
 40
0.0
 40
0.0
 40
0.0
 40
0.1133740464
 40
0.2392044088
 40
0.3655787964
 40
0.4912154373
 40
0.7445390876
 40
1.0
 40
1.0
 40
1.0
 40
1.0
 10
239.5632052751
 20
23.6550888764
 30
0.0
 10
239.5301333905
 20
23.653459932
 30
0.0
 10
239.4603560414
 20
23.6500230701
 30
0.0
 10
239.3567086912
 20
23.6190563381
 30
0.0
 10
239.2639860359
 20
23.5565248621
 30
0.0
 10
239.1692690166
 20
23.4413394976
 30
0.0
 10
239.1096670594
 20
23.2605138006
 30
0.0
 10
239.1032032181
 20
23.1122504435
 30
0.0
 10
239.0999577229
 20
23.0378073573
 30
0.0
  0
SPLINE
  5
244
100
AcDbEntity
  8
0
100
AcDbSpline
 62
7
  6
CONTINUOUS
 70
0
 71
3
 72
13
 73
9
 74
0
 42
0.0000001
 43
0.0000001
 44
0.0000000001
 40
0.0
 40
0.0
 40
0.0
 40
0.0
 40
0.2554609124
 40
0.5087845627
 40
0.6344212036
 40
0.7607955912
 40
0.8866259536
 40
1.0
 40
1.0
 40
1.0
 40
1.0
 10
239.0999577229
 20
23.0378073573
 30
0.0
 10
239.1032032181
 20
22.9633642711
 30
0.0
 10
239.1096670594
 20
22.8151009125
 30
0.0
 10
239.1692690166
 20
22.634275217
 30
0.0
 10
239.2639860359
 20
22.5190898525
 30
0.0
 10
239.3567086912
 20
22.4565583765
 30
0.0
 10
239.4603560414
 20
22.4255916445
 30
0.0
 10
239.5301333905
 20
22.4221547826
 30
0.0
 10
239.5632052751
 20
22.4205258382
 30
0.0
  0
LINE
  5
245
100
AcDbEntity
  8
0
100
AcDbLine
 62
7
  6
CONTINUOUS
 10
235.7539233817
 20
21.6023014089
 11
237.3558191889
 21
21.6023014089
  0
LINE
  5
246
100
AcDbEntity
  8
0
100
AcDbLine
 62
7
  6
CONTINUOUS
 10
237.3558191889
 20
21.6023014089
 11
237.3558191889
 21
21.4030744959
  0
ARC
  5
247
100
AcDbEntity
  8
0
100
AcDbCircle
 62
7
  6
CONTINUOUS
 10
237.395471475
 20
21.4030744959
 40
0.0396522861
100
AcDbArc
 50
180.0
 51
270.0
  0
LINE
  5
248
100
AcDbEntity
  8
0
100
AcDbLine
 62
7
  6
CONTINUOUS
 10
237.395471475
 20
21.3634222098
 11
238.0128978995
 21
21.3634222098
  0
ARC
  5
249
100
AcDbEntity
  8
0
100
AcDbCircle
 62
7
  6
CONTINUOUS
 10
238.0128978995
 20
21.4030744959
 40
0.0396522861
100
AcDbArc
 50
270.0
 51
360.0
  0
LINE
  5
24A
100
AcDbEntity
  8
0
100
AcDbLine
 62
7
  6
CONTINUOUS
 10
238.0525501856
 20
21.4030744959
 11
238.0525501856
 21
21.6023014089
  0
LINE
  5
24B
100
AcDbEntity
  8
0
100
AcDbLine
 62
7
  6
CONTINUOUS
 10
238.0525501856
 20
21.6023014089
 11
238.3675428552
 21
21.6023014089
  0
SPLINE
  5
24C
100
AcDbEntity
  8
0
100
AcDbSpline
 62
7
  6
CONTINUOUS
 70
0
 71
3
 72
12
 73
8
 74
0
 42
0.0000001
 43
0.0000001
 44
0.0000000001
 40
0.0
 40
0.0
 40
0.0
 40
0.0
 40
0.2415790084
 40
0.4893269843
 40
0.7378634303
 40
0.8656387112
 40
1.0
 40
1.0
 40
1.0
 40
1.0
 10
238.3675428552
 20
21.6023014089
 30
0.0
 10
238.4240241441
 20
21.6040573485
 30
0.0
 10
238.538429031
 20
21.6076140682
 30
0.0
 10
238.7058486455
 20
21.6673203553
 30
0.0
 10
238.8075258734
 20
21.7800300245
 30
0.0
 10
238.8523214845
 20
21.8926478337
 30
0.0
 10
238.853128767
 20
21.9543396313
 30
0.0
 10
238.8535425497
 20
21.9859605118
 30
0.0
  0
LINE
  5
24D
100
AcDbEntity
  8
0
100
AcDbLine
 62
7
  6
CONTINUOUS
 10
238.8535425497
 20
21.9859605118
 11
238.8535425497
 21
23.2690220994
  0
SPLINE
  5
24E
100
AcDbEntity
  8
0
100
AcDbSpline
 62
7
  6
CONTINUOUS
 70
0
 71
3
 72
12
 73
8
 74
0
 42
0.0000001
 43
0.0000001
 44
0.0000000001
 40
0.0
 40
0.0
 40
0.0
 40
0.0
 40
0.1343612888
 40
0.2621365697
 40
0.5106730157
 40
0.7584209916
 40
1.0
 40
1.0
 40
1.0
 40
1.0
 10
238.8535425497
 20
23.2690220994
 30
0.0
 10
238.853128767
 20
23.3006429816
 30
0.0
 10
238.8523214845
 20
23.3623347791
 30
0.0
 10
238.8075258734
 20
23.4749525883
 30
0.0
 10
238.7058486455
 20
23.5876622575
 30
0.0
 10
238.538429031
 20
23.647368543
 30
0.0
 10
238.4240241441
 20
23.6509252627
 30
0.0
 10
238.3675428552
 20
23.6526812023
 30
0.0
  0
LINE
  5
24F
100
AcDbEntity
  8
0
100
AcDbLine
 62
7
  6
CONTINUOUS
 10
238.3675428552
 20
23.6526812023
 11
235.7539233817
 21
23.6526812023
  0
SPLINE
  5
250
100
AcDbEntity
  8
0
100
AcDbSpline
 62
7
  6
CONTINUOUS
 70
0
 71
3
 72
12
 73
8
 74
0
 42
0.0000001
 43
0.0000001
 44
0.0000000001
 40
0.0
 40
0.0
 40
0.0
 40
0.0
 40
0.1341799809
 40
0.290831959
 40
0.5815217441
 40
0.760783857
 40
1.0
 40
1.0
 40
1.0
 40
1.0
 10
235.7539233817
 20
23.6526812023
 30
0.0
 10
235.6969157007
 20
23.6429380488
 30
0.0
 10
235.5733528915
 20
23.6218199898
 30
0.0
 10
235.3653547326
 20
23.4664250485
 30
0.0
 10
235.2668362486
 20
23.2049886646
 30
0.0
 10
235.2091939645
 20
22.9086264282
 30
0.0
 10
235.2048669389
 20
22.7293730394
 30
0.0
 10
235.2023934658
 20
22.6269058174
 30
0.0
  0
SPLINE
  5
251
100
AcDbEntity
  8
0
100
AcDbSpline
 62
7
  6
CONTINUOUS
 70
0
 71
3
 72
12
 73
8
 74
0
 42
0.0000001
 43
0.0000001
 44
0.0000000001
 40
0.0
 40
0.0
 40
0.0
 40
0.0
 40
0.2392679579
 40
0.4185688994
 40
0.7093216488
 40
0.8660075581
 40
1.0
 40
1.0
 40
1.0
 40
1.0
 10
235.2023934658
 20
22.6269058174
 30
0.0
 10
235.2048679271
 20
22.5244425892
 30
0.0
 10
235.2091966799
 20
22.3451961871
 30
0.0
 10
235.2668265258
 20
22.0487836589
 30
0.0
 10
235.365405202
 20
21.7875906687
 30
0.0
 10
235.5731868055
 20
21.6316911283
 30
0.0
 10
235.6968972434
 20
21.6115744751
 30
0.0
 10
235.7539233817
 20
21.6023014089
 30
0.0
  0
LINE
  5
252
100
AcDbEntity
  8
0
100
AcDbLine
 62
7
  6
CONTINUOUS
 10
238.32559293
 20
22.1301871535
 11
238.32559293
 21
23.1582121395
  0
ARC
  5
253
100
AcDbEntity
  8
0
100
AcDbCircle
 62
7
  6
CONTINUOUS
 10
236.1626767891
 20
22.1301871535
 40
0.1030959439
100
AcDbArc
 50
180.0
 51
270.0
  0
LINE
  5
254
100
AcDbEntity
  8
0
100
AcDbLine
 62
7
  6
CONTINUOUS
 10
236.1626767891
 20
22.0270912096
 11
237.3468008982
 21
22.0270912096
  0
LINE
  5
255
100
AcDbEntity
  8
0
100
AcDbLine
 62
7
  6
CONTINUOUS
 10
237.3468008982
 20
22.0270912096
 11
237.3468008982
 21
22.2257008301
  0
ARC
  5
256
100
AcDbEntity
  8
0
100
AcDbCircle
 62
7
  6
CONTINUOUS
 10
237.386453185
 20
22.2257008301
 40
0.0396522861
100
AcDbArc
 50
90.0
 51
180.0
  0
LINE
  5
257
100
AcDbEntity
  8
0
100
AcDbLine
 62
7
  6
CONTINUOUS
 10
237.3864531843
 20
22.2653531162
 11
238.000733065
 21
22.2653531162
  0
ARC
  5
258
100
AcDbEntity
  8
0
100
AcDbCircle
 62
7
  6
CONTINUOUS
 10
238.0007330635
 20
22.2257008316
 40
0.0396522861
100
AcDbArc
 50
0.0
 51
90.0
  0
LINE
  5
259
100
AcDbEntity
  8
0
100
AcDbLine
 62
7
  6
CONTINUOUS
 10
238.0403853511
 20
22.0270912096
 11
238.2224969861
 21
22.0270912096
  0
ARC
  5
25A
100
AcDbEntity
  8
0
100
AcDbCircle
 62
7
  6
CONTINUOUS
 10
238.2224969861
 20
22.1301871535
 40
0.1030959439
100
AcDbArc
 50
270.0
 51
360.0
  0
LINE
  5
25B
100
AcDbEntity
  8
0
100
AcDbLine
 62
7
  6
CONTINUOUS
 10
238.0403853511
 20
22.0270912096
 11
238.0403853511
 21
22.2257008301
  0
LINE
  5
25C
100
AcDbEntity
  8
0
100
AcDbLine
 62
7
  6
CONTINUOUS
 10
236.0595808452
 20
22.1301871535
 11
236.0595808452
 21
23.1582121395
  0
ARC
  5
25D
100
AcDbEntity
  8
0
100
AcDbCircle
 62
7
  6
CONTINUOUS
 10
236.1626767905
 20
23.1582121395
 40
0.1030959439
100
AcDbArc
 50
90.0
 51
180.0
  0
LINE
  5
25E
100
AcDbEntity
  8
0
100
AcDbLine
 62
7
  6
CONTINUOUS
 10
236.1626767891
 20
23.2613080834
 11
238.2224969861
 21
23.2613080834
  0
ARC
  5
25F
100
AcDbEntity
  8
0
100
AcDbCircle
 62
7
  6
CONTINUOUS
 10
238.222496987
 20
23.1582121386
 40
0.1030959439
100
AcDbArc
 50
0.0000000277
 51
90.0000000277
  0
ARC
  5
260
100
AcDbEntity
  8
0
100
AcDbCircle
 62
7
  6
CONTINUOUS
 10
240.1469034999
 20
22.9403571265
 40
0.1030959439
100
AcDbArc
 50
180.0
 51
270.0
  0
ARC
  5
261
100
AcDbEntity
  8
0
100
AcDbCircle
 62
7
  6
CONTINUOUS
 10
241.5433047269
 20
22.1069186258
 40
0.1030959439
100
AcDbArc
 50
270.0
 51
360.0
  0
ARC
  5
262
100
AcDbEntity
  8
0
100
AcDbCircle
 62
7
  6
CONTINUOUS
 10
243.7991993771
 20
22.1158496767
 40
0.1030959439
100
AcDbArc
 50
180.0
 51
270.0
  0
ENDBLK
  5
263
100
AcDbEntity
  8
0
  6
BYBLOCK
 62
0
100
AcDbBlockEnd
  0
BLOCK
  5
264
100
AcDbEntity
  8
0
100
AcDbBlockBegin
  2
_FILLED
 70
64
 10
0.0
 20
0.0
  3
_FILLED
  1

  0
SOLID
  5
265
100
AcDbEntity
  8
0
  6
BYBLOCK
 62
0
100
AcDbTrace
 10
0.0
 20
0.0
 11
-1.0
 21
0.1666666667
 12
-1.0
 22
-0.1666666667
 13
-1.0
 23
-0.1666666667
  0
ENDBLK
  5
266
100
AcDbEntity
  8
0
  6
BYBLOCK
 62
0
100
AcDbBlockEnd
  0
BLOCK
  5
267
100
AcDbEntity
  8
0
100
AcDbBlockBegin
 62
2
  6
CONTINUOUS
  2
*D0
 70
65
 10
0.0
 20
0.0
  3
*D0
  1

  0
MTEXT
  5
268
100
AcDbEntity
  8
0
100
AcDbMText
 62
2
  6
CONTINUOUS
  7
STANDARD
 71
2
 72
1
 10
117.1911489661
 20
85.9261783654
 30
0.0
 11
1.0
 21
0.0
 31
0.0
 44
0.9
  1
1493,6\P[58.8]
 40
1.3020833333
 41
8.2310267857
  0
LINE
  5
269
100
AcDbEntity
  8
0
100
AcDbLine
 62
2
  6
CONTINUOUS
 10
99.4077942556
 20
53.8365152806
 11
118.2328156327
 21
53.8365152806
  0
LINE
  5
26A
100
AcDbEntity
  8
0
100
AcDbLine
 62
2
  6
CONTINUOUS
 10
100.7077942556
 20
112.6402588125
 11
118.2328156327
 21
112.6402588125
  0
LINE
  5
26B
100
AcDbEntity
  8
0
100
AcDbLine
 62
2
  6
CONTINUOUS
 10
117.1911489661
 20
53.8365152806
 11
117.1911489661
 21
82.0199283654
  0
LINE
  5
26C
100
AcDbEntity
  8
0
100
AcDbLine
 62
2
  6
CONTINUOUS
 10
117.1911489661
 20
112.6402588125
 11
117.1911489661
 21
86.5772200321
  0
INSERT
  5
26D
100
AcDbEntity
  8
0
100
AcDbBlockReference
 62
2
  6
CONTINUOUS
  2
_FILLED
 10
117.1911489661
 20
53.8365152806
 41
1.5625
 42
1.5625
 43
1.5625
 50
270.0
  0
INSERT
  5
26E
100
AcDbEntity
  8
0
100
AcDbBlockReference
 62
2
  6
CONTINUOUS
  2
_FILLED
 10
117.1911489661
 20
112.6402588125
 41
1.5625
 42
1.5625
 43
1.5625
 50
90.0
  0
ENDBLK
  5
26F
100
AcDbEntity
  8
0
  6
BYBLOCK
 62
0
100
AcDbBlockEnd
  0
BLOCK
  5
270
100
AcDbEntity
  8
0
100
AcDbBlockBegin
 62
2
  6
CONTINUOUS
  2
*D1
 70
65
 10
0.0
 20
0.0
  3
*D1
  1

  0
MTEXT
  5
271
100
AcDbEntity
  8
0
100
AcDbMText
 62
2
  6
CONTINUOUS
  7
STANDARD
 71
2
 72
1
 10
84.989212149
 20
118.9783988873
 30
0.0
 11
1.0
 21
0.0
 31
0.0
 44
0.9
  1
762\P[30.0]
 40
1.3020833333
 41
7.2544642857
  0
LINE
  5
272
100
AcDbEntity
  8
0
100
AcDbLine
 62
2
  6
CONTINUOUS
 10
70.2619609223
 20
112.637400238
 11
70.2619609223
 21
119.3690238873
  0
LINE
  5
273
100
AcDbEntity
  8
0
100
AcDbLine
 62
2
  6
CONTINUOUS
 10
100.2619609223
 20
112.637400238
 11
100.2619609223
 21
119.3690238873
  0
LINE
  5
274
100
AcDbEntity
  8
0
100
AcDbLine
 62
2
  6
CONTINUOUS
 10
70.2619609223
 20
118.3273572207
 11
82.803572268
 21
118.3273572207
  0
LINE
  5
275
100
AcDbEntity
  8
0
100
AcDbLine
 62
2
  6
CONTINUOUS
 10
100.2619609223
 20
118.3273572207
 11
88.9419651252
 21
118.3273572207
  0
INSERT
  5
276
100
AcDbEntity
  8
0
100
AcDbBlockReference
 62
2
  6
CONTINUOUS
  2
_FILLED
 10
70.2619609223
 20
118.3273572207
 41
1.5625
 42
1.5625
 43
1.5625
 50
180.0
  0
INSERT
  5
277
100
AcDbEntity
  8
0
100
AcDbBlockReference
 62
2
  6
CONTINUOUS
  2
_FILLED
 10
100.2619609223
 20
118.3273572207
 41
1.5625
 42
1.5625
 43
1.5625
  0
ENDBLK
  5
278
100
AcDbEntity
  8
0
  6
BYBLOCK
 62
0
100
AcDbBlockEnd
  0
BLOCK
  5
279
100
AcDbEntity
  8
0
100
AcDbBlockBegin
 62
2
  6
CONTINUOUS
  2
*D2
 70
65
 10
0.0
 20
0.0
  3
*D2
  1

  0
MTEXT
  5
27A
100
AcDbEntity
  8
0
100
AcDbMText
 62
2
  6
CONTINUOUS
  7
STANDARD
 71
2
 72
1
 10
110.2576963482
 20
158.0363573975
 30
0.0
 11
1.0
 21
0.0
 31
0.0
 44
0.9
  1
514,4\P[20.3]
 40
1.3020833333
 41
7.2544642857
  0
LINE
  5
27B
100
AcDbEntity
  8
0
100
AcDbLine
 62
2
  6
CONTINUOUS
 10
100.7077942556
 20
146.3818154762
 11
111.4853749196
 21
146.3818154762
  0
LINE
  5
27C
100
AcDbEntity
  8
0
100
AcDbLine
 62
2
  6
CONTINUOUS
 10
100.7827942556
 20
166.6318154762
 11
111.4853749196
 21
166.6318154762
  0
LINE
  5
27D
100
AcDbEntity
  8
0
100
AcDbLine
 62
2
  6
CONTINUOUS
 10
110.443708253
 20
146.3818154762
 11
110.443708253
 21
154.1301073975
  0
LINE
  5
27E
100
AcDbEntity
  8
0
100
AcDbLine
 62
2
  6
CONTINUOUS
 10
110.443708253
 20
166.6318154762
 11
110.443708253
 21
158.6873990642
  0
INSERT
  5
27F
100
AcDbEntity
  8
0
100
AcDbBlockReference
 62
2
  6
CONTINUOUS
  2
_FILLED
 10
110.443708253
 20
146.3818154762
 41
1.5625
 42
1.5625
 43
1.5625
 50
270.0
  0
INSERT
  5
280
100
AcDbEntity
  8
0
100
AcDbBlockReference
 62
2
  6
CONTINUOUS
  2
_FILLED
 10
110.443708253
 20
166.6318154762
 41
1.5625
 42
1.5625
 43
1.5625
 50
90.0
  0
ENDBLK
  5
281
100
AcDbEntity
  8
0
  6
BYBLOCK
 62
0
100
AcDbBlockEnd
  0
BLOCK
  5
282
100
AcDbEntity
  8
0
100
AcDbBlockBegin
 62
2
  6
CONTINUOUS
  2
*D3
 70
65
 10
0.0
 20
0.0
  3
*D3
  1

  0
MTEXT
  5
283
100
AcDbEntity
  8
0
100
AcDbMText
 62
2
  6
CONTINUOUS
  7
STANDARD
 71
2
 72
1
 10
85.3421402302
 20
173.5709627673
 30
0.0
 11
1.0
 21
0.0
 31
0.0
 44
0.9
  1
549,5\P[21.6]
 40
1.3020833333
 41
6.9754464286
  0
LINE
  5
284
100
AcDbEntity
  8
0
100
AcDbLine
 62
2
  6
CONTINUOUS
 10
74.4442627124
 20
167.0066488095
 11
74.4442627124
 21
173.9615877673
  0
LINE
  5
285
100
AcDbEntity
  8
0
100
AcDbLine
 62
2
  6
CONTINUOUS
 10
96.0796591322
 20
167.0066488095
 11
96.0796591322
 21
173.9615877673
  0
LINE
  5
286
100
AcDbEntity
  8
0
100
AcDbLine
 62
2
  6
CONTINUOUS
 10
74.4442627124
 20
172.9199211007
 11
82.365949754
 21
172.9199211007
  0
LINE
  5
287
100
AcDbEntity
  8
0
100
AcDbLine
 62
2
  6
CONTINUOUS
 10
96.0796591322
 20
172.9199211007
 11
88.3183307064
 21
172.9199211007
  0
INSERT
  5
288
100
AcDbEntity
  8
0
100
AcDbBlockReference
 62
2
  6
CONTINUOUS
  2
_FILLED
 10
74.4442627124
 20
172.9199211007
 41
1.5625
 42
1.5625
 43
1.5625
 50
180.0
  0
INSERT
  5
289
100
AcDbEntity
  8
0
100
AcDbBlockReference
 62
2
  6
CONTINUOUS
  2
_FILLED
 10
96.0796591322
 20
172.9199211007
 41
1.5625
 42
1.5625
 43
1.5625
  0
ENDBLK
  5
28A
100
AcDbEntity
  8
0
  6
BYBLOCK
 62
0
100
AcDbBlockEnd
  0
BLOCK
  5
28B
100
AcDbEntity
  8
0
100
AcDbBlockBegin
 62
2
  6
CONTINUOUS
  2
*D4
 70
65
 10
0.0
 20
0.0
  3
*D4
  1

  0
MTEXT
  5
28C
100
AcDbEntity
  8
0
100
AcDbMText
 62
2
  6
CONTINUOUS
  7
STANDARD
 71
2
 72
1
 10
200.4285328634
 20
94.9725620933
 30
0.0
 11
1.0
 21
0.0
 31
0.0
 44
0.9
  1
1004,6\P[39.6]
 40
1.3020833333
 41
8.3705357143
  0
LINE
  5
28D
100
AcDbEntity
  8
0
100
AcDbLine
 62
2
  6
CONTINUOUS
 10
181.2616517857
 20
73.0904522885
 11
201.4701995301
 21
73.0904522885
  0
LINE
  5
28E
100
AcDbEntity
  8
0
100
AcDbLine
 62
2
  6
CONTINUOUS
 10
161.2616517857
 20
112.6402588125
 11
201.4701995301
 21
112.6402588125
  0
LINE
  5
28F
100
AcDbEntity
  8
0
100
AcDbLine
 62
2
  6
CONTINUOUS
 10
200.4285328634
 20
73.0904522885
 11
200.4285328634
 21
91.0663120933
  0
LINE
  5
290
100
AcDbEntity
  8
0
100
AcDbLine
 62
2
  6
CONTINUOUS
 10
200.4285328634
 20
112.6402588125
 11
200.4285328634
 21
95.6236037599
  0
INSERT
  5
291
100
AcDbEntity
  8
0
100
AcDbBlockReference
 62
2
  6
CONTINUOUS
  2
_FILLED
 10
200.4285328634
 20
73.0904522885
 41
1.5625
 42
1.5625
 43
1.5625
 50
270.0
  0
INSERT
  5
292
100
AcDbEntity
  8
0
100
AcDbBlockReference
 62
2
  6
CONTINUOUS
  2
_FILLED
 10
200.4285328634
 20
112.6402588125
 41
1.5625
 42
1.5625
 43
1.5625
 50
90.0
  0
ENDBLK
  5
293
100
AcDbEntity
  8
0
  6
BYBLOCK
 62
0
100
AcDbBlockEnd
  0
BLOCK
  5
294
100
AcDbEntity
  8
0
100
AcDbBlockBegin
 62
2
  6
CONTINUOUS
  2
*D5
 70
65
 10
0.0
 20
0.0
  3
*D5
  1

  0
MTEXT
  5
295
100
AcDbEntity
  8
0
100
AcDbMText
 62
2
  6
CONTINUOUS
  7
STANDARD
 71
2
 72
1
 10
200.4285328634
 20
65.4775604917
 30
0.0
 11
1.0
 21
0.0
 31
0.0
 44
0.9
  1
489,1\P[19.3]
 40
1.3020833333
 41
6.8359375
  0
LINE
  5
296
100
AcDbEntity
  8
0
100
AcDbLine
 62
2
  6
CONTINUOUS
 10
181.2616517857
 20
73.0904522885
 11
201.4701995301
 21
73.0904522885
  0
LINE
  5
297
100
AcDbEntity
  8
0
100
AcDbLine
 62
2
  6
CONTINUOUS
 10
179.3866517857
 20
53.8365152806
 11
201.4701995301
 21
53.8365152806
  0
LINE
  5
298
100
AcDbEntity
  8
0
100
AcDbLine
 62
2
  6
CONTINUOUS
 10
200.4285328634
 20
73.0904522885
 11
200.4285328634
 21
66.1286021583
  0
LINE
  5
299
100
AcDbEntity
  8
0
100
AcDbLine
 62
2
  6
CONTINUOUS
 10
200.4285328634
 20
53.8365152806
 11
200.4285328634
 21
61.5713104917
  0
INSERT
  5
29A
100
AcDbEntity
  8
0
100
AcDbBlockReference
 62
2
  6
CONTINUOUS
  2
_FILLED
 10
200.4285328634
 20
73.0904522885
 41
1.5625
 42
1.5625
 43
1.5625
 50
90.0
  0
INSERT
  5
29B
100
AcDbEntity
  8
0
100
AcDbBlockReference
 62
2
  6
CONTINUOUS
  2
_FILLED
 10
200.4285328634
 20
53.8365152806
 41
1.5625
 42
1.5625
 43
1.5625
 50
270.0
  0
ENDBLK
  5
29C
100
AcDbEntity
  8
0
  6
BYBLOCK
 62
0
100
AcDbBlockEnd
  0
BLOCK
  5
29D
100
AcDbEntity
  8
0
100
AcDbBlockBegin
 62
2
  6
CONTINUOUS
  2
*D6
 70
65
 10
0.0
 20
0.0
  3
*D6
  1

  0
MTEXT
  5
29E
100
AcDbEntity
  8
0
100
AcDbMText
 62
2
  6
CONTINUOUS
  7
STANDARD
 71
2
 72
1
 10
193.0010334048
 20
61.0705625197
 30
0.0
 11
1.0
 21
0.0
 31
0.0
 44
0.9
  1
265,4\P[10.5]
 40
1.3020833333
 41
7.1149553571
  0
LINE
  5
29F
100
AcDbEntity
  8
0
100
AcDbLine
 62
2
  6
CONTINUOUS
 10
179.3866517857
 20
53.8365152806
 11
194.0427000715
 21
53.8365152806
  0
LINE
  5
2A0
100
AcDbEntity
  8
0
100
AcDbLine
 62
2
  6
CONTINUOUS
 10
177.0616517857
 20
64.2865152806
 11
194.0427000715
 21
64.2865152806
  0
LINE
  5
2A1
100
AcDbEntity
  8
0
100
AcDbLine
 62
2
  6
CONTINUOUS
 10
193.0010334048
 20
53.8365152806
 11
193.0010334048
 21
57.1643125197
  0
LINE
  5
2A2
100
AcDbEntity
  8
0
100
AcDbLine
 62
2
  6
CONTINUOUS
 10
193.0010334048
 20
64.2865152806
 11
193.0010334048
 21
61.7216041864
  0
INSERT
  5
2A3
100
AcDbEntity
  8
0
100
AcDbBlockReference
 62
2
  6
CONTINUOUS
  2
_FILLED
 10
193.0010334048
 20
53.8365152806
 41
1.5625
 42
1.5625
 43
1.5625
 50
270.0
  0
INSERT
  5
2A4
100
AcDbEntity
  8
0
100
AcDbBlockReference
 62
2
  6
CONTINUOUS
  2
_FILLED
 10
193.0010334048
 20
64.2865152806
 41
1.5625
 42
1.5625
 43
1.5625
 50
90.0
  0
ENDBLK
  5
2A5
100
AcDbEntity
  8
0
  6
BYBLOCK
 62
0
100
AcDbBlockEnd
  0
BLOCK
  5
2A6
100
AcDbEntity
  8
0
100
AcDbBlockBegin
 62
2
  6
CONTINUOUS
  2
*D7
 70
65
 10
0.0
 20
0.0
  3
*D7
  1

  0
MTEXT
  5
2A7
100
AcDbEntity
  8
0
100
AcDbMText
 62
2
  6
CONTINUOUS
  7
STANDARD
 71
2
 72
1
 10
155.4834129537
 20
69.3009391819
 30
0.0
 11
1.0
 21
0.0
 31
0.0
 44
0.9
  1
180,3\P[7.1]
 40
1.3020833333
 41
6.6964285714
  0
LINE
  5
2A8
100
AcDbEntity
  8
0
100
AcDbLine
 62
2
  6
CONTINUOUS
 10
171.349985119
 20
71.3865152806
 11
154.4417462871
 21
71.3865152806
  0
LINE
  5
2A9
100
AcDbEntity
  8
0
100
AcDbLine
 62
2
  6
CONTINUOUS
 10
171.349985119
 20
64.2865152806
 11
154.4417462871
 21
64.2865152806
  0
LINE
  5
2AA
100
AcDbEntity
  8
0
100
AcDbLine
 62
2
  6
CONTINUOUS
 10
155.4834129537
 20
71.3865152806
 11
155.4834129537
 21
75.5531819473
  0
LINE
  5
2AB
100
AcDbEntity
  8
0
100
AcDbLine
 62
2
  6
CONTINUOUS
 10
155.4834129537
 20
64.2865152806
 11
155.4834129537
 21
60.119848614
  0
INSERT
  5
2AC
100
AcDbEntity
  8
0
100
AcDbBlockReference
 62
2
  6
CONTINUOUS
  2
_FILLED
 10
155.4834129537
 20
71.3865152806
 41
1.5625
 42
1.5625
 43
1.5625
 50
270.0
  0
INSERT
  5
2AD
100
AcDbEntity
  8
0
100
AcDbBlockReference
 62
2
  6
CONTINUOUS
  2
_FILLED
 10
155.4834129537
 20
64.2865152806
 41
1.5625
 42
1.5625
 43
1.5625
 50
90.0
  0
ENDBLK
  5
2AE
100
AcDbEntity
  8
0
  6
BYBLOCK
 62
0
100
AcDbBlockEnd
  0
BLOCK
  5
2AF
100
AcDbEntity
  8
0
100
AcDbBlockBegin
 62
2
  6
CONTINUOUS
  2
*D8
 70
65
 10
0.0
 20
0.0
  3
*D8
  1

  0
MTEXT
  5
2B0
100
AcDbEntity
  8
0
100
AcDbMText
 62
2
  6
CONTINUOUS
  7
STANDARD
 71
1
 72
1
 10
179.233994736
 20
51.3444314358
 30
0.0
 11
1.0
 21
0.0
 31
0.0
 44
0.9
  1
128,3\P[5.1]
 40
1.3020833333
 41
6.6964285714
  0
LINE
  5
2B1
100
AcDbEntity
  8
0
100
AcDbLine
 62
2
  6
CONTINUOUS
 10
171.6808184524
 20
63.9556819473
 11
171.6808184524
 21
49.6517231025
  0
LINE
  5
2B2
100
AcDbEntity
  8
0
100
AcDbLine
 62
2
  6
CONTINUOUS
 10
176.7308184524
 20
63.9556819473
 11
176.7308184524
 21
49.6517231025
  0
LINE
  5
2B3
100
AcDbEntity
  8
0
100
AcDbLine
 62
2
  6
CONTINUOUS
 10
171.6808184524
 20
50.6933897691
 11
174.2058184524
 21
50.6933897691
  0
LINE
  5
2B4
100
AcDbEntity
  8
0
100
AcDbLine
 62
2
  6
CONTINUOUS
 10
176.7308184524
 20
50.6933897691
 11
174.2058184524
 21
50.6933897691
  0
LINE
  5
2B5
100
AcDbEntity
  8
0
100
AcDbLine
 62
2
  6
CONTINUOUS
 10
174.2058184524
 20
50.6933897691
 11
178.5829530693
 21
50.6933897691
  0
INSERT
  5
2B6
100
AcDbEntity
  8
0
100
AcDbBlockReference
 62
2
  6
CONTINUOUS
  2
_FILLED
 10
171.6808184524
 20
50.6933897691
 41
1.5625
 42
1.5625
 43
1.5625
 50
180.0
  0
INSERT
  5
2B7
100
AcDbEntity
  8
0
100
AcDbBlockReference
 62
2
  6
CONTINUOUS
  2
_FILLED
 10
176.7308184524
 20
50.6933897691
 41
1.5625
 42
1.5625
 43
1.5625
  0
ENDBLK
  5
2B8
100
AcDbEntity
  8
0
  6
BYBLOCK
 62
0
100
AcDbBlockEnd
  0
BLOCK
  5
2B9
100
AcDbEntity
  8
0
100
AcDbBlockBegin
 62
2
  6
CONTINUOUS
  2
*D9
 70
65
 10
0.0
 20
0.0
  3
*D9
  1

  0
MTEXT
  5
2BA
100
AcDbEntity
  8
0
100
AcDbMText
 62
2
  6
CONTINUOUS
  7
STANDARD
 71
2
 72
1
 10
165.5245009644
 20
51.3444314358
 30
0.0
 11
1.0
 21
0.0
 31
0.0
 44
0.9
  1
285\P[11.2]
 40
1.3020833333
 41
6.5569196429
  0
LINE
  5
2BB
100
AcDbEntity
  8
0
100
AcDbLine
 62
2
  6
CONTINUOUS
 10
171.6808184524
 20
63.9556819473
 11
171.6808184524
 21
49.6517231025
  0
LINE
  5
2BC
100
AcDbEntity
  8
0
100
AcDbLine
 62
2
  6
CONTINUOUS
 10
160.4608184524
 20
55.3816268292
 11
160.4608184524
 21
49.6517231025
  0
LINE
  5
2BD
100
AcDbEntity
  8
0
100
AcDbLine
 62
2
  6
CONTINUOUS
 10
171.6808184524
 20
50.6933897691
 11
169.0587271548
 21
50.6933897691
  0
LINE
  5
2BE
100
AcDbEntity
  8
0
100
AcDbLine
 62
2
  6
CONTINUOUS
 10
160.4608184524
 20
50.6933897691
 11
163.3853640596
 21
50.6933897691
  0
INSERT
  5
2BF
100
AcDbEntity
  8
0
100
AcDbBlockReference
 62
2
  6
CONTINUOUS
  2
_FILLED
 10
171.6808184524
 20
50.6933897691
 41
1.5625
 42
1.5625
 43
1.5625
  0
INSERT
  5
2C0
100
AcDbEntity
  8
0
100
AcDbBlockReference
 62
2
  6
CONTINUOUS
  2
_FILLED
 10
160.4608184524
 20
50.6933897691
 41
1.5625
 42
1.5625
 43
1.5625
 50
180.0
  0
ENDBLK
  5
2C1
100
AcDbEntity
  8
0
  6
BYBLOCK
 62
0
100
AcDbBlockEnd
  0
BLOCK
  5
2C2
100
AcDbEntity
  8
0
100
AcDbBlockBegin
 62
2
  6
CONTINUOUS
  2
*D10
 70
65
 10
0.0
 20
0.0
  3
*D10
  1

  0
MTEXT
  5
2C3
100
AcDbEntity
  8
0
100
AcDbMText
 62
2
  6
CONTINUOUS
  7
STANDARD
 71
1
 72
1
 10
189.1743693195
 20
51.1750648738
 30
0.0
 11
1.0
 21
0.0
 31
0.0
 44
0.9
  1
19,1\P[.8]
 40
1.3020833333
 41
4.8828125
  0
LINE
  5
2C4
100
AcDbEntity
  8
0
100
AcDbLine
 62
2
  6
CONTINUOUS
 10
181.2616517857
 20
54.5865152806
 11
188.1327026528
 21
54.5865152806
  0
LINE
  5
2C5
100
AcDbEntity
  8
0
100
AcDbLine
 62
2
  6
CONTINUOUS
 10
179.3866517857
 20
53.8365152806
 11
188.1327026528
 21
53.8365152806
  0
LINE
  5
2C6
100
AcDbEntity
  8
0
100
AcDbLine
 62
2
  6
CONTINUOUS
 10
187.0910359861
 20
54.5865152806
 11
187.0910359861
 21
58.7531819473
  0
LINE
  5
2C7
100
AcDbEntity
  8
0
100
AcDbLine
 62
2
  6
CONTINUOUS
 10
187.0910359861
 20
53.8365152806
 11
187.0910359861
 21
50.5240232071
  0
LINE
  5
2C8
100
AcDbEntity
  8
0
100
AcDbLine
 62
2
  6
CONTINUOUS
 10
187.0910359861
 20
50.5240232071
 11
188.5233276528
 21
50.5240232071
  0
INSERT
  5
2C9
100
AcDbEntity
  8
0
100
AcDbBlockReference
 62
2
  6
CONTINUOUS
  2
_FILLED
 10
187.0910359861
 20
54.5865152806
 41
1.5625
 42
1.5625
 43
1.5625
 50
270.0
  0
INSERT
  5
2CA
100
AcDbEntity
  8
0
100
AcDbBlockReference
 62
2
  6
CONTINUOUS
  2
_FILLED
 10
187.0910359861
 20
53.8365152806
 41
1.5625
 42
1.5625
 43
1.5625
 50
90.0
  0
ENDBLK
  5
2CB
100
AcDbEntity
  8
0
  6
BYBLOCK
 62
0
100
AcDbBlockEnd
  0
ENDSEC
  0
SECTION
  2
ENTITIES
  0
MTEXT
  5
2CC
100
AcDbEntity
  8
0
100
AcDbMText
 62
2
  6
CONTINUOUS
  7
STANDARD
 71
1
 72
1
 10
20.5242312061
 20
3.040972363
 30
0.0
 11
1.0
 21
0.0
 31
0.0
 44
0.9
  1
8
 40
1.3020833333
 41
1.5345982143
  0
MTEXT
  5
2CD
100
AcDbEntity
  8
0
100
AcDbMText
 62
2
  6
CONTINUOUS
  7
STANDARD
 71
1
 72
1
 10
54.3783978728
 20
3.040972363
 30
0.0
 11
1.0
 21
0.0
 31
0.0
 44
0.9
  1
7
 40
1.3020833333
 41
1.5345982143
  0
MTEXT
  5
2CE
100
AcDbEntity
  8
0
100
AcDbMText
 62
2
  6
CONTINUOUS
  7
STANDARD
 71
1
 72
1
 10
88.2325645394
 20
3.040972363
 30
0.0
 11
1.0
 21
0.0
 31
0.0
 44
0.9
  1
6
 40
1.3020833333
 41
1.5345982143
  0
MTEXT
  5
2CF
100
AcDbEntity
  8
0
100
AcDbMText
 62
2
  6
CONTINUOUS
  7
STANDARD
 71
1
 72
1
 10
122.0867312061
 20
3.040972363
 30
0.0
 11
1.0
 21
0.0
 31
0.0
 44
0.9
  1
5
 40
1.3020833333
 41
1.3950892857
  0
MTEXT
  5
2D0
100
AcDbEntity
  8
0
100
AcDbMText
 62
2
  6
CONTINUOUS
  7
STANDARD
 71
1
 72
1
 10
155.9408978728
 20
3.040972363
 30
0.0
 11
1.0
 21
0.0
 31
0.0
 44
0.9
  1
4
 40
1.3020833333
 41
1.5345982143
  0
MTEXT
  5
2D1
100
AcDbEntity
  8
0
100
AcDbMText
 62
2
  6
CONTINUOUS
  7
STANDARD
 71
1
 72
1
 10
189.7950645394
 20
3.040972363
 30
0.0
 11
1.0
 21
0.0
 31
0.0
 44
0.9
  1
3
 40
1.3020833333
 41
1.3950892857
  0
MTEXT
  5
2D2
100
AcDbEntity
  8
0
100
AcDbMText
 62
2
  6
CONTINUOUS
  7
STANDARD
 71
1
 72
1
 10
223.6492312061
 20
3.040972363
 30
0.0
 11
1.0
 21
0.0
 31
0.0
 44
0.9
  1
2
 40
1.3020833333
 41
1.5345982143
  0
MTEXT
  5
2D3
100
AcDbEntity
  8
0
100
AcDbMText
 62
2
  6
CONTINUOUS
  7
STANDARD
 71
1
 72
1
 10
257.5033978728
 20
3.040972363
 30
0.0
 11
1.0
 21
0.0
 31
0.0
 44
0.9
  1
1
 40
1.3020833333
 41
1.1160714286
  0
MTEXT
  5
2D4
100
AcDbEntity
  8
0
100
AcDbMText
 62
2
  6
CONTINUOUS
  7
STANDARD
 71
1
 72
1
 10
20.5242312061
 20
182.2076390296
 30
0.0
 11
1.0
 21
0.0
 31
0.0
 44
0.9
  1
8
 40
1.3020833333
 41
1.9066220238
  0
MTEXT
  5
2D5
100
AcDbEntity
  8
0
100
AcDbMText
 62
2
  6
CONTINUOUS
  7
STANDARD
 71
1
 72
1
 10
54.3783978728
 20
182.2076390296
 30
0.0
 11
1.0
 21
0.0
 31
0.0
 44
0.9
  1
7
 40
1.3020833333
 41
1.5345982143
  0
MTEXT
  5
2D6
100
AcDbEntity
  8
0
100
AcDbMText
 62
2
  6
CONTINUOUS
  7
STANDARD
 71
1
 72
1
 10
88.2325645394
 20
182.2076390296
 30
0.0
 11
1.0
 21
0.0
 31
0.0
 44
0.9
  1
6
 40
1.3020833333
 41
1.5345982143
  0
MTEXT
  5
2D7
100
AcDbEntity
  8
0
100
AcDbMText
 62
2
  6
CONTINUOUS
  7
STANDARD
 71
1
 72
1
 10
122.0867312061
 20
182.2076390296
 30
0.0
 11
1.0
 21
0.0
 31
0.0
 44
0.9
  1
5
 40
1.3020833333
 41
1.3950892857
  0
MTEXT
  5
2D8
100
AcDbEntity
  8
0
100
AcDbMText
 62
2
  6
CONTINUOUS
  7
STANDARD
 71
1
 72
1
 10
155.9408978728
 20
182.2076390296
 30
0.0
 11
1.0
 21
0.0
 31
0.0
 44
0.9
  1
4
 40
1.3020833333
 41
1.5345982143
  0
MTEXT
  5
2D9
100
AcDbEntity
  8
0
100
AcDbMText
 62
2
  6
CONTINUOUS
  7
STANDARD
 71
1
 72
1
 10
189.7950645394
 20
182.2076390296
 30
0.0
 11
1.0
 21
0.0
 31
0.0
 44
0.9
  1
3
 40
1.3020833333
 41
1.3950892857
  0
MTEXT
  5
2DA
100
AcDbEntity
  8
0
100
AcDbMText
 62
2
  6
CONTINUOUS
  7
STANDARD
 71
1
 72
1
 10
223.6492312061
 20
182.2076390296
 30
0.0
 11
1.0
 21
0.0
 31
0.0
 44
0.9
  1
2
 40
1.3020833333
 41
1.5345982143
  0
MTEXT
  5
2DB
100
AcDbEntity
  8
0
100
AcDbMText
 62
2
  6
CONTINUOUS
  7
STANDARD
 71
1
 72
1
 10
257.5033978728
 20
182.2076390296
 30
0.0
 11
1.0
 21
0.0
 31
0.0
 44
0.9
  1
1
 40
1.3020833333
 41
1.1160714286
  0
MTEXT
  5
2DC
100
AcDbEntity
  8
0
100
AcDbMText
 62
2
  6
CONTINUOUS
  7
STANDARD
 71
1
 72
1
 10
1.6518275773
 20
26.8290829103
 30
0.0
 11
1.0
 21
0.0
 31
0.0
 44
0.9
  1
A
 40
1.3020833333
 41
1.6741071429
  0
MTEXT
  5
2DD
100
AcDbEntity
  8
0
100
AcDbMText
 62
2
  6
CONTINUOUS
  7
STANDARD
 71
1
 72
1
 10
1.6518275773
 20
70.5790829103
 30
0.0
 11
1.0
 21
0.0
 31
0.0
 44
0.9
  1
B
 40
1.3020833333
 41
1.5345982143
  0
MTEXT
  5
2DE
100
AcDbEntity
  8
0
100
AcDbMText
 62
2
  6
CONTINUOUS
  7
STANDARD
 71
1
 72
1
 10
1.6518275773
 20
114.3290829103
 30
0.0
 11
1.0
 21
0.0
 31
0.0
 44
0.9
  1
C
 40
1.3020833333
 41
1.6276041667
  0
MTEXT
  5
2DF
100
AcDbEntity
  8
0
100
AcDbMText
 62
2
  6
CONTINUOUS
  7
STANDARD
 71
1
 72
1
 10
1.6518275773
 20
158.0790829103
 30
0.0
 11
1.0
 21
0.0
 31
0.0
 44
0.9
  1
D
 40
1.3020833333
 41
1.7671130952
  0
MTEXT
  5
2E0
100
AcDbEntity
  8
0
100
AcDbMText
 62
2
  6
CONTINUOUS
  7
STANDARD
 71
1
 72
1
 10
276.6518275773
 20
26.8290829103
 30
0.0
 11
1.0
 21
0.0
 31
0.0
 44
0.9
  1
A
 40
1.3020833333
 41
1.6741071429
  0
MTEXT
  5
2E1
100
AcDbEntity
  8
0
100
AcDbMText
 62
2
  6
CONTINUOUS
  7
STANDARD
 71
1
 72
1
 10
276.6518275773
 20
70.5790829103
 30
0.0
 11
1.0
 21
0.0
 31
0.0
 44
0.9
  1
B
 40
1.3020833333
 41
1.5345982143
  0
MTEXT
  5
2E2
100
AcDbEntity
  8
0
100
AcDbMText
 62
2
  6
CONTINUOUS
  7
STANDARD
 71
1
 72
1
 10
276.6518275773
 20
114.3290829103
 30
0.0
 11
1.0
 21
0.0
 31
0.0
 44
0.9
  1
C
 40
1.3020833333
 41
1.6276041667
  0
MTEXT
  5
2E3
100
AcDbEntity
  8
0
100
AcDbMText
 62
2
  6
CONTINUOUS
  7
STANDARD
 71
1
 72
1
 10
276.6518275773
 20
158.0790829103
 30
0.0
 11
1.0
 21
0.0
 31
0.0
 44
0.9
  1
D
 40
1.3020833333
 41
1.7671130952
  0
MTEXT
  5
2E4
100
AcDbEntity
  8
0
100
AcDbMText
 62
5
  6
CONTINUOUS
  7
STANDARD
 71
1
 72
1
 10
4.7190800883
 20
178.8015176282
 30
0.0
 11
1.0
 21
0.0
 31
0.0
 44
0.9
  1
THIS DOCUMENT CONTAINS PROPRIETARY INFORMATION\PWHICH IS THE PROPERTY OF QSC, LLC, THAT MAY NOT BE\PDISCLOSED, REPRODUCED OR USED WITHOUT EXPRESS\PWRITTEN CONSENT FROM QSC, LLC.
 40
0.625
 41
37.03125
  0
MTEXT
  5
2E5
100
AcDbEntity
  8
0
100
AcDbMText
 62
2
  6
CONTINUOUS
  7
STANDARD
 71
2
 72
1
 10
202.0776175448
 20
24.8188122108
 30
0.0
 11
1.0
 21
0.0
 31
0.0
 44
0.9
  1
UNLESS OTHERWISE SPECIFIED\PDIMENSIONS IN MILLIMETERS [IN]
 40
0.8333333333
 41
27.380952381
  0
MTEXT
  5
2E6
100
AcDbEntity
  8
0
100
AcDbMText
 62
2
  6
CONTINUOUS
  7
STANDARD
 71
2
 72
1
 10
201.9578939931
 20
21.5998791551
 30
0.0
 11
1.0
 21
0.0
 31
0.0
 44
0.9
  1
TOLERANCES ARE:
 40
0.75
 41
12.8839285714
  0
MTEXT
  5
2E7
100
AcDbEntity
  8
0
100
AcDbMText
 62
2
  6
CONTINUOUS
  7
STANDARD
 71
2
 72
1
 10
195.8273053405
 20
19.6975464395
 30
0.0
 11
1.0
 21
0.0
 31
0.0
 44
0.9
  1
DECIMALS\P.X\Fgdt;{\Fgdt;`}\Ftxt;.5[.02]
 40
0.75
 41
7.7410714286
  0
MTEXT
  5
2E8
100
AcDbEntity
  8
0
100
AcDbMText
 62
2
  6
CONTINUOUS
  7
STANDARD
 71
2
 72
1
 10
203.125
 20
19.6458333333
 30
0.0
 11
1.0
 21
0.0
 31
0.0
 44
0.9
  1
DECIMALS\P.XX\Fgdt;{\Fgdt;`}\Ftxt;.25[.010]
 40
0.75
 41
10.2321428571
  0
MTEXT
  5
2E9
100
AcDbEntity
  8
0
100
AcDbMText
 62
2
  6
CONTINUOUS
  7
STANDARD
 71
2
 72
1
 10
209.4108082865
 20
19.6875057886
 30
0.0
 11
1.0
 21
0.0
 31
0.0
 44
0.9
  1
ANGLES\P\Fgdt;{\Fgdt;`}\Ftxt; 1/2
 40
0.75
 41
5.3571428571
  0
MTEXT
  5
2EA
100
AcDbEntity
  8
0
100
AcDbMText
 62
2
  6
CONTINUOUS
  7
STANDARD
 71
2
 72
1
 10
202.0833333333
 20
16.5208333333
 30
0.0
 11
1.0
 21
0.0
 31
0.0
 44
0.9
  1
DEBURR EDGES .25 [.010] R MAX
 40
0.75
 41
24.5089285714
  0
MTEXT
  5
2EB
100
AcDbEntity
  8
0
100
AcDbMText
 62
2
  6
CONTINUOUS
  7
STANDARD
 71
2
 72
1
 10
195.49103734
 20
14.0518326464
 30
0.0
 11
1.0
 21
0.0
 31
0.0
 44
0.9
  1
MATERIAL
 40
0.75
 41
7.2053571429
  0
MTEXT
  5
2EC
100
AcDbEntity
  8
0
100
AcDbMText
 62
2
  6
CONTINUOUS
  7
STANDARD
 71
2
 72
1
 10
194.6928309669
 20
8.9762218912
 30
0.0
 11
1.0
 21
0.0
 31
0.0
 44
0.9
  1
FINISH
 40
0.75
 41
5.1160714286
  0
MTEXT
  5
2ED
100
AcDbEntity
  8
0
100
AcDbMText
 62
2
  6
CONTINUOUS
  7
STANDARD
 71
2
 72
1
 10
252.24826929
 20
5.6741880145
 30
0.0
 11
1.0
 21
0.0
 31
0.0
 44
0.9
  1
DO NOT SCALE DRAWING
 40
1.0416666667
 41
25.9672619048
  0
MTEXT
  5
2EE
100
AcDbEntity
  8
0
100
AcDbMText
 62
2
  6
CONTINUOUS
  7
STANDARD
 71
2
 72
1
 10
214.3419720356
 20
25.0744676512
 30
0.0
 11
1.0
 21
0.0
 31
0.0
 44
0.9
  1
DESIGNER
 40
0.75
 41
7.0982142857
  0
MTEXT
  5
2EF
100
AcDbEntity
  8
0
100
AcDbMText
 62
2
  6
CONTINUOUS
  7
STANDARD
 71
2
 72
1
 10
214.0486774927
 20
20.8049998782
 30
0.0
 11
1.0
 21
0.0
 31
0.0
 44
0.9
  1
ENGINEER
 40
0.75
 41
6.8839285714
  0
MTEXT
  5
2F0
100
AcDbEntity
  8
0
100
AcDbMText
 62
2
  6
CONTINUOUS
  7
STANDARD
 71
2
 72
1
 10
217.2486898092
 20
16.4552094114
 30
0.0
 11
1.0
 21
0.0
 31
0.0
 44
0.9
  1
TECHNICAL DIRECTOR
 40
0.75
 41
16.0178571429
  0
MTEXT
  5
2F1
100
AcDbEntity
  8
0
100
AcDbMText
 62
2
  6
CONTINUOUS
  7
STANDARD
 71
2
 72
1
 10
218.3596773248
 20
12.1025993981
 30
0.0
 11
1.0
 21
0.0
 31
0.0
 44
0.9
  1
MANUFACTURING ENGINEER
 40
0.75
 41
19.3928571429
  0
MTEXT
  5
2F2
100
AcDbEntity
  8
0
100
AcDbMText
 62
2
  6
CONTINUOUS
  7
STANDARD
 71
2
 72
1
 10
216.3043625031
 20
5.6333539071
 30
0.0
 11
1.0
 21
0.0
 31
0.0
 44
0.9
  1
MODEL INFO:
 40
0.75
 41
9.1875
  0
MTEXT
  5
2F3
100
AcDbEntity
  8
0
100
AcDbMText
 62
2
  6
CONTINUOUS
  7
STANDARD
 71
2
 72
1
 10
215.5320907774
 20
7.6530086792
 30
0.0
 11
1.0
 21
0.0
 31
0.0
 44
0.9
  1
DRAWING INFO:
 40
0.75
 41
11.6785714286
  0
MTEXT
  5
2F4
100
AcDbEntity
  8
0
100
AcDbMText
 62
2
  6
CONTINUOUS
  7
STANDARD
 71
2
 72
1
 10
235.3280381782
 20
5.5585027519
 30
0.0
 11
1.0
 21
0.0
 31
0.0
 44
0.9
  1
SCALE:
 40
0.75
 41
4.9285714286
  0
MTEXT
  5
2F5
100
AcDbEntity
  8
0
100
AcDbMText
 62
2
  6
CONTINUOUS
  7
STANDARD
 71
2
 72
1
 10
263.4686894524
 20
5.5723407209
 30
0.0
 11
1.0
 21
0.0
 31
0.0
 44
0.9
  1
SHEET
 40
0.75
 41
4.5535714286
  0
MTEXT
  5
2F6
100
AcDbEntity
  8
0
100
AcDbMText
 62
2
  6
CONTINUOUS
  7
STANDARD
 71
2
 72
1
 10
235.3498287565
 20
10.086080561
 30
0.0
 11
1.0
 21
0.0
 31
0.0
 44
0.9
  1
SIZE
 40
0.75
 41
3.5089285714
  0
MTEXT
  5
2F7
100
AcDbEntity
  8
0
100
AcDbMText
 62
2
  6
CONTINUOUS
  7
STANDARD
 71
2
 72
1
 10
241.5308134056
 20
10.0951370259
 30
0.0
 11
1.0
 21
0.0
 31
0.0
 44
0.9
  1
CAGE CODE
 40
0.75
 41
8.3303571429
  0
MTEXT
  5
2F8
100
AcDbEntity
  8
0
100
AcDbMText
 62
2
  6
CONTINUOUS
  7
STANDARD
 71
2
 72
1
 10
249.5079145669
 20
10.0777747143
 30
0.0
 11
1.0
 21
0.0
 31
0.0
 44
0.9
  1
DRAWING NO.
 40
0.75
 41
10.3928571429
  0
MTEXT
  5
2F9
100
AcDbEntity
  8
0
100
AcDbMText
 62
2
  6
CONTINUOUS
  7
STANDARD
 71
2
 72
1
 10
273.017772162
 20
10.0889492224
 30
0.0
 11
1.0
 21
0.0
 31
0.0
 44
0.9
  1
REV
 40
0.75
 41
2.8392857143
  0
MTEXT
  5
2FA
100
AcDbEntity
  8
0
100
AcDbMText
 62
2
  6
CONTINUOUS
  7
STANDARD
 71
2
 72
1
 10
253.4761791705
 20
24.9459816888
 30
0.0
 11
1.0
 21
0.0
 31
0.0
 44
0.9
  1
QSC, LLC
 40
1.3020833333
 41
11.9977678571
  0
MTEXT
  5
2FB
100
AcDbEntity
  8
0
100
AcDbMText
 62
2
  6
CONTINUOUS
  7
STANDARD
 71
1
 72
1
 10
249.267770115
 20
22.9524180324
 30
0.0
 11
1.0
 21
0.0
 31
0.0
 44
0.9
  1
1675 MACARTHUR BOULEVARD\PCOSTA MESA, CA  92626
 40
1.0416666667
 41
29.8735119048
  0
MTEXT
  5
2FC
100
AcDbEntity
  8
0
100
AcDbMText
 62
2
  6
CONTINUOUS
  7
STANDARD
 71
1
 72
1
 10
238.5842374076
 20
8.3023040981
 30
0.0
 11
1.0
 21
0.0
 31
0.0
 44
0.9
  1
00PW4
 40
1.3020833333
 41
9.1610863095
  0
INSERT
  5
2FD
100
AcDbEntity
  8
0
100
AcDbBlockReference
 62
7
  6
CONTINUOUS
  2
RD010411_BL0
 10
240.7401691567
 20
22.5092555431
  0
DIMENSION
  5
2FE
100
AcDbEntity
  8
0
100
AcDbDimension
 62
2
  6
CONTINUOUS
  2
*D0
 10
117.1911489661
 20
112.6402588125
 11
117.1911489661
 21
84.2985741988
 70
160
 71
2
 42
1493.6150857101
  3
DIMSTYLE_1
100
AcDbAlignedDimension
 13
99.3452942556
 23
53.8365152806
 14
100.6452942556
 24
112.6402588125
 50
90.0
100
AcDbRotatedDimension
  0
DIMENSION
  5
2FF
100
AcDbEntity
  8
0
100
AcDbDimension
 62
2
  6
CONTINUOUS
  2
*D1
 10
100.2619609223
 20
118.3273572207
 11
85.8727686966
 21
117.3507947207
 70
160
 71
2
 42
762.0
  3
DIMSTYLE_1
100
AcDbAlignedDimension
 13
70.2619609223
 23
112.574900238
 14
100.2619609223
 24
112.574900238
100
AcDbRotatedDimension
  0
DIMENSION
  5
300
100
AcDbEntity
  8
0
100
AcDbDimension
 62
2
  6
CONTINUOUS
  2
*D2
 10
110.443708253
 20
166.6318154762
 11
110.443708253
 21
156.4087532308
 70
160
 71
2
 42
514.35
  3
DIMSTYLE_1
100
AcDbAlignedDimension
 13
100.6452942556
 23
146.3818154762
 14
100.7202942556
 24
166.6318154762
 50
90.0
100
AcDbRotatedDimension
  0
DIMENSION
  5
301
100
AcDbEntity
  8
0
100
AcDbDimension
 62
2
  6
CONTINUOUS
  2
*D3
 10
96.0796591322
 20
172.9199211007
 11
85.3421402302
 21
171.9433586007
 70
160
 71
2
 42
549.5390690651
  3
DIMSTYLE_1
100
AcDbAlignedDimension
 13
74.4442627124
 23
166.9441488095
 14
96.0796591322
 24
166.9441488095
100
AcDbRotatedDimension
  0
DIMENSION
  5
302
100
AcDbEntity
  8
0
100
AcDbDimension
 62
2
  6
CONTINUOUS
  2
*D4
 10
200.4285328634
 20
112.6402588125
 11
200.4285328634
 21
93.3449579266
 70
160
 71
2
 42
1004.5650857101
  3
DIMSTYLE_1
100
AcDbAlignedDimension
 13
181.1991517857
 23
73.0904522885
 14
161.1991517857
 24
112.6402588125
 50
90.0
100
AcDbRotatedDimension
  0
DIMENSION
  5
303
100
AcDbEntity
  8
0
100
AcDbDimension
 62
2
  6
CONTINUOUS
  2
*D5
 10
200.4285328634
 20
53.8365152806
 11
200.4285328634
 21
63.849956325
 70
160
 71
2
 42
489.05
  3
DIMSTYLE_1
100
AcDbAlignedDimension
 13
181.1991517857
 23
73.0904522885
 14
179.3241517857
 24
53.8365152806
 50
270.0
100
AcDbRotatedDimension
  0
DIMENSION
  5
304
100
AcDbEntity
  8
0
100
AcDbDimension
 62
2
  6
CONTINUOUS
  2
*D6
 10
193.0010334048
 20
64.2865152806
 11
193.0010334048
 21
59.4429583531
 70
160
 71
2
 42
265.43
  3
DIMSTYLE_1
100
AcDbAlignedDimension
 13
179.3241517857
 23
53.8365152806
 14
176.9991517857
 24
64.2865152806
 50
90.0
100
AcDbRotatedDimension
  0
DIMENSION
  5
305
100
AcDbEntity
  8
0
100
AcDbDimension
 62
2
  6
CONTINUOUS
  2
*D7
 10
155.4834129537
 20
64.2865152806
 11
155.4834129537
 21
67.6733350152
 70
160
 71
2
 42
180.34
  3
DIMSTYLE_1
100
AcDbAlignedDimension
 13
171.412485119
 23
71.3865152806
 14
171.412485119
 24
64.2865152806
 50
270.0
100
AcDbRotatedDimension
  0
DIMENSION
  5
306
100
AcDbEntity
  8
0
100
AcDbDimension
 62
2
  6
CONTINUOUS
  2
*D8
 10
176.7308184524
 20
50.6933897691
 11
181.4661375931
 21
49.7168272691
 70
160
 71
1
 42
128.27
  3
DIMSTYLE_1
100
AcDbAlignedDimension
 13
171.6808184524
 23
64.0181819473
 14
176.7308184524
 24
64.0181819473
100
AcDbRotatedDimension
  0
DIMENSION
  5
307
100
AcDbEntity
  8
0
100
AcDbDimension
 62
2
  6
CONTINUOUS
  2
*D9
 10
160.4608184524
 20
50.6933897691
 11
166.2220456072
 21
49.7168272691
 70
160
 71
2
 42
284.988
  3
DIMSTYLE_1
100
AcDbAlignedDimension
 13
171.6808184524
 23
64.0181819473
 14
160.4608184524
 24
55.4441268292
 50
180.0
100
AcDbRotatedDimension
  0
DIMENSION
  5
308
100
AcDbEntity
  8
0
100
AcDbDimension
 62
2
  6
CONTINUOUS
  2
*D10
 10
187.0910359861
 20
53.8365152806
 11
190.8019734861
 21
49.5474607071
 70
160
 71
1
 42
19.05
  3
DIMSTYLE_1
100
AcDbAlignedDimension
 13
181.1991517857
 23
54.5865152806
 14
179.3241517857
 24
53.8365152806
 50
270.0
100
AcDbRotatedDimension
  0
LINE
  5
309
100
AcDbEntity
  8
0
100
AcDbLine
 62
2
  6
CONTINUOUS
 10
192.7083333333
 20
14.5833333333
 11
211.4583333333
 21
14.5833333333
  0
LINE
  5
30A
100
AcDbEntity
  8
0
100
AcDbLine
 62
2
  6
CONTINUOUS
 10
192.7083333333
 20
14.5833333333
 11
192.7083333333
 21
9.375
  0
LINE
  5
30B
100
AcDbEntity
  8
0
100
AcDbLine
 62
2
  6
CONTINUOUS
 10
192.7083333333
 20
9.375
 11
211.4583333333
 21
9.375
  0
LINE
  5
30C
100
AcDbEntity
  8
0
100
AcDbLine
 62
2
  6
CONTINUOUS
 10
211.4583333333
 20
14.5833333333
 11
211.4583333333
 21
9.375
  0
LINE
  5
30D
100
AcDbEntity
  8
0
100
AcDbLine
 62
2
  6
CONTINUOUS
 10
192.7083333333
 20
9.375
 11
211.4583333333
 21
9.375
  0
LINE
  5
30E
100
AcDbEntity
  8
0
100
AcDbLine
 62
2
  6
CONTINUOUS
 10
192.7083333333
 20
9.375
 11
192.7083333333
 21
4.1666666667
  0
LINE
  5
30F
100
AcDbEntity
  8
0
100
AcDbLine
 62
2
  6
CONTINUOUS
 10
192.7083333333
 20
4.1666666667
 11
211.4583333333
 21
4.1666666667
  0
LINE
  5
310
100
AcDbEntity
  8
0
100
AcDbLine
 62
2
  6
CONTINUOUS
 10
211.4583333333
 20
9.375
 11
211.4583333333
 21
4.1666666667
  0
LINE
  5
311
100
AcDbEntity
  8
0
100
AcDbLine
 62
2
  6
CONTINUOUS
 10
211.4559248804
 20
25.5145534538
 11
233.3309248804
 21
25.5145534538
  0
LINE
  5
312
100
AcDbEntity
  8
0
100
AcDbLine
 62
2
  6
CONTINUOUS
 10
211.4559248804
 20
25.5145534538
 11
211.4559248804
 21
21.2645534538
  0
LINE
  5
313
100
AcDbEntity
  8
0
100
AcDbLine
 62
2
  6
CONTINUOUS
 10
211.4559248804
 20
21.2645534538
 11
233.3309248804
 21
21.2645534538
  0
LINE
  5
314
100
AcDbEntity
  8
0
100
AcDbLine
 62
2
  6
CONTINUOUS
 10
233.3309248804
 20
25.5145534538
 11
233.3309248804
 21
21.2645534538
  0
MTEXT
  5
315
100
AcDbEntity
  8
0
100
AcDbMText
 62
2
  6
CONTINUOUS
  7
STANDARD
 71
1
 72
1
 10
211.9767582137
 20
23.2176784538
 30
0.0
 11
1.0
 21
0.0
 31
0.0
 44
0.9
  1
ENGINEERING SERVICES
 40
1.3020833333
 41
29.7154017857
  0
LINE
  5
316
100
AcDbEntity
  8
0
100
AcDbLine
 62
2
  6
CONTINUOUS
 10
211.4583333333
 20
21.2178044868
 11
233.3333333333
 21
21.2178044868
  0
LINE
  5
317
100
AcDbEntity
  8
0
100
AcDbLine
 62
2
  6
CONTINUOUS
 10
211.4583333333
 20
21.2178044868
 11
211.4583333333
 21
16.9678044868
  0
LINE
  5
318
100
AcDbEntity
  8
0
100
AcDbLine
 62
2
  6
CONTINUOUS
 10
211.4583333333
 20
16.9678044868
 11
233.3333333333
 21
16.9678044868
  0
LINE
  5
319
100
AcDbEntity
  8
0
100
AcDbLine
 62
2
  6
CONTINUOUS
 10
233.3333333333
 20
21.2178044868
 11
233.3333333333
 21
16.9678044868
  0
LINE
  5
31A
100
AcDbEntity
  8
0
100
AcDbLine
 62
2
  6
CONTINUOUS
 10
211.4583333333
 20
16.8649959296
 11
233.3333333333
 21
16.8649959296
  0
LINE
  5
31B
100
AcDbEntity
  8
0
100
AcDbLine
 62
2
  6
CONTINUOUS
 10
211.4583333333
 20
16.8649959296
 11
211.4583333333
 21
12.6149959296
  0
LINE
  5
31C
100
AcDbEntity
  8
0
100
AcDbLine
 62
2
  6
CONTINUOUS
 10
211.4583333333
 20
12.6149959296
 11
233.3333333333
 21
12.6149959296
  0
LINE
  5
31D
100
AcDbEntity
  8
0
100
AcDbLine
 62
2
  6
CONTINUOUS
 10
233.3333333333
 20
16.8649959296
 11
233.3333333333
 21
12.6149959296
  0
LINE
  5
31E
100
AcDbEntity
  8
0
100
AcDbLine
 62
2
  6
CONTINUOUS
 10
211.4583333333
 20
12.4997133506
 11
233.3333333333
 21
12.4997133506
  0
LINE
  5
31F
100
AcDbEntity
  8
0
100
AcDbLine
 62
2
  6
CONTINUOUS
 10
211.4583333333
 20
12.4997133506
 11
211.4583333333
 21
8.2497133506
  0
LINE
  5
320
100
AcDbEntity
  8
0
100
AcDbLine
 62
2
  6
CONTINUOUS
 10
211.4583333333
 20
8.2497133506
 11
233.3333333333
 21
8.2497133506
  0
LINE
  5
321
100
AcDbEntity
  8
0
100
AcDbLine
 62
2
  6
CONTINUOUS
 10
233.3333333333
 20
12.4997133506
 11
233.3333333333
 21
8.2497133506
  0
LINE
  5
322
100
AcDbEntity
  8
0
100
AcDbLine
 62
2
  6
CONTINUOUS
 10
211.4583333333
 20
8.3333333333
 11
233.3333333333
 21
8.3333333333
  0
LINE
  5
323
100
AcDbEntity
  8
0
100
AcDbLine
 62
2
  6
CONTINUOUS
 10
211.4583333333
 20
8.3333333333
 11
211.4583333333
 21
6.25
  0
LINE
  5
324
100
AcDbEntity
  8
0
100
AcDbLine
 62
2
  6
CONTINUOUS
 10
211.4583333333
 20
6.25
 11
233.3333333333
 21
6.25
  0
LINE
  5
325
100
AcDbEntity
  8
0
100
AcDbLine
 62
2
  6
CONTINUOUS
 10
233.3333333333
 20
8.3333333333
 11
233.3333333333
 21
6.25
  0
MTEXT
  5
326
100
AcDbEntity
  8
0
100
AcDbMText
 62
2
  6
CONTINUOUS
  7
STANDARD
 71
3
 72
1
 10
232.8125
 20
7.6510416667
 30
0.0
 11
1.0
 21
0.0
 31
0.0
 44
0.9
  1
DC-SC-414-2D\H0.9166666667;. 
 40
0.75
 41
12.5803571429
  0
LINE
  5
327
100
AcDbEntity
  8
0
100
AcDbLine
 62
2
  6
CONTINUOUS
 10
211.4583333333
 20
6.25
 11
233.3333333333
 21
6.25
  0
LINE
  5
328
100
AcDbEntity
  8
0
100
AcDbLine
 62
2
  6
CONTINUOUS
 10
211.4583333333
 20
6.25
 11
211.4583333333
 21
4.1666666667
  0
LINE
  5
329
100
AcDbEntity
  8
0
100
AcDbLine
 62
2
  6
CONTINUOUS
 10
211.4583333333
 20
4.1666666667
 11
233.3333333333
 21
4.1666666667
  0
LINE
  5
32A
100
AcDbEntity
  8
0
100
AcDbLine
 62
2
  6
CONTINUOUS
 10
233.3333333333
 20
6.25
 11
233.3333333333
 21
4.1666666667
  0
MTEXT
  5
32B
100
AcDbEntity
  8
0
100
AcDbMText
 62
2
  6
CONTINUOUS
  7
STANDARD
 71
3
 72
1
 10
232.8125
 20
5.5677083333
 30
0.0
 11
1.0
 21
0.0
 31
0.0
 44
0.9
  1
DC-SC-414-3D\H0.9166666667;.A.0
 40
0.75
 41
14.4642857143
  0
LINE
  5
32C
100
AcDbEntity
  8
0
100
AcDbLine
 62
2
  6
CONTINUOUS
 10
233.3333333333
 20
19.7916666667
 11
275.0
 21
19.7916666667
  0
LINE
  5
32D
100
AcDbEntity
  8
0
100
AcDbLine
 62
2
  6
CONTINUOUS
 10
233.3333333333
 20
19.7916666667
 11
233.3333333333
 21
10.4166666667
  0
LINE
  5
32E
100
AcDbEntity
  8
0
100
AcDbLine
 62
2
  6
CONTINUOUS
 10
233.3333333333
 20
10.4166666667
 11
275.0
 21
10.4166666667
  0
LINE
  5
32F
100
AcDbEntity
  8
0
100
AcDbLine
 62
2
  6
CONTINUOUS
 10
275.0
 20
19.7916666667
 11
275.0
 21
10.4166666667
  0
MTEXT
  5
330
100
AcDbEntity
  8
0
100
AcDbMText
 62
2
  6
CONTINUOUS
  7
STANDARD
 71
2
 72
1
 10
254.1666666667
 20
21.6041666667
 30
0.0
 11
1.0
 21
0.0
 31
0.0
 44
1.02
  1
 \P \PSPEAKER, FINISHED, SC-414\P \P 
 40
1.6666666667
 41
46.4880952381
  0
LINE
  5
331
100
AcDbEntity
  8
0
100
AcDbLine
 62
2
  6
CONTINUOUS
 10
233.3424358578
 20
10.3995038958
 11
237.5091025245
 21
10.3995038958
  0
LINE
  5
332
100
AcDbEntity
  8
0
100
AcDbLine
 62
2
  6
CONTINUOUS
 10
233.3424358578
 20
10.3995038958
 11
233.3424358578
 21
6.2328372291
  0
LINE
  5
333
100
AcDbEntity
  8
0
100
AcDbLine
 62
2
  6
CONTINUOUS
 10
233.3424358578
 20
6.2328372291
 11
237.5091025245
 21
6.2328372291
  0
LINE
  5
334
100
AcDbEntity
  8
0
100
AcDbLine
 62
2
  6
CONTINUOUS
 10
237.5091025245
 20
10.3995038958
 11
237.5091025245
 21
6.2328372291
  0
MTEXT
  5
335
100
AcDbEntity
  8
0
100
AcDbMText
 62
2
  6
CONTINUOUS
  7
STANDARD
 71
2
 72
1
 10
235.4257691912
 20
8.5505455624
 30
0.0
 11
1.0
 21
0.0
 31
0.0
 44
0.9
  1
D
 40
1.6666666667
 41
2.7380952381
  0
LINE
  5
336
100
AcDbEntity
  8
0
100
AcDbLine
 62
2
  6
CONTINUOUS
 10
245.8376458133
 20
10.3747882427
 11
270.8376458133
 21
10.3747882427
  0
LINE
  5
337
100
AcDbEntity
  8
0
100
AcDbLine
 62
2
  6
CONTINUOUS
 10
245.8376458133
 20
10.3747882427
 11
245.8376458133
 21
6.208121576
  0
LINE
  5
338
100
AcDbEntity
  8
0
100
AcDbLine
 62
2
  6
CONTINUOUS
 10
245.8376458133
 20
6.208121576
 11
270.8376458133
 21
6.208121576
  0
LINE
  5
339
100
AcDbEntity
  8
0
100
AcDbLine
 62
2
  6
CONTINUOUS
 10
270.8376458133
 20
10.3747882427
 11
270.8376458133
 21
6.208121576
  0
MTEXT
  5
33A
100
AcDbEntity
  8
0
100
AcDbMText
 62
2
  6
CONTINUOUS
  7
STANDARD
 71
2
 72
1
 10
258.3376458133
 20
8.442496576
 30
0.0
 11
1.0
 21
0.0
 31
0.0
 44
0.9
  1
DC-SC-414-2D
 40
1.5833333333
 41
22.619047619
  0
LINE
  5
33B
100
AcDbEntity
  8
0
100
AcDbLine
 62
2
  6
CONTINUOUS
 10
270.8224991356
 20
10.4023985218
 11
274.9891658022
 21
10.4023985218
  0
LINE
  5
33C
100
AcDbEntity
  8
0
100
AcDbLine
 62
2
  6
CONTINUOUS
 10
270.8224991356
 20
10.4023985218
 11
270.8224991356
 21
6.2357318552
  0
LINE
  5
33D
100
AcDbEntity
  8
0
100
AcDbLine
 62
2
  6
CONTINUOUS
 10
270.8224991356
 20
6.2357318552
 11
274.9891658022
 21
6.2357318552
  0
LINE
  5
33E
100
AcDbEntity
  8
0
100
AcDbLine
 62
2
  6
CONTINUOUS
 10
274.9891658022
 20
10.4023985218
 11
274.9891658022
 21
6.2357318552
  0
MTEXT
  5
33F
100
AcDbEntity
  8
0
100
AcDbMText
 62
2
  6
CONTINUOUS
  7
STANDARD
 71
2
 72
1
 10
272.9058324689
 20
8.3867735218
 30
0.0
 11
1.0
 21
0.0
 31
0.0
 44
0.9
  1
 A 
 40
1.5
 41
5.8928571429
  0
LINE
  5
340
100
AcDbEntity
  8
0
100
AcDbLine
 62
2
  6
CONTINUOUS
 10
261.4635051614
 20
6.1910740302
 11
275.0051718281
 21
6.1910740302
  0
LINE
  5
341
100
AcDbEntity
  8
0
100
AcDbLine
 62
2
  6
CONTINUOUS
 10
261.4635051614
 20
6.1910740302
 11
261.4635051614
 21
4.1077406969
  0
LINE
  5
342
100
AcDbEntity
  8
0
100
AcDbLine
 62
2
  6
CONTINUOUS
 10
261.4635051614
 20
4.1077406969
 11
275.0051718281
 21
4.1077406969
  0
LINE
  5
343
100
AcDbEntity
  8
0
100
AcDbLine
 62
2
  6
CONTINUOUS
 10
275.0051718281
 20
6.1910740302
 11
275.0051718281
 21
4.1077406969
  0
MTEXT
  5
344
100
AcDbEntity
  8
0
100
AcDbMText
 62
2
  6
CONTINUOUS
  7
STANDARD
 71
3
 72
1
 10
274.4843384948
 20
5.9254490302
 30
0.0
 11
1.0
 21
0.0
 31
0.0
 44
0.9
  1
1 OF 1
 40
1.1666666667
 41
7.7083333333
  0
LINE
  5
345
100
AcDbEntity
  8
0
100
AcDbLine
 62
2
  6
CONTINUOUS
 10
233.3188317675
 20
6.2401934742
 11
243.2188317675
 21
6.2401934742
  0
LINE
  5
346
100
AcDbEntity
  8
0
100
AcDbLine
 62
2
  6
CONTINUOUS
 10
233.3188317675
 20
6.2401934742
 11
233.3188317675
 21
4.1243080576
  0
LINE
  5
347
100
AcDbEntity
  8
0
100
AcDbLine
 62
2
  6
CONTINUOUS
 10
233.3188317675
 20
4.1243080576
 11
243.2188317675
 21
4.1243080576
  0
LINE
  5
348
100
AcDbEntity
  8
0
100
AcDbLine
 62
2
  6
CONTINUOUS
 10
243.2188317675
 20
6.2401934742
 11
243.2188317675
 21
4.1243080576
  0
MTEXT
  5
349
100
AcDbEntity
  8
0
100
AcDbMText
 62
2
  6
CONTINUOUS
  7
STANDARD
 71
3
 72
1
 10
242.6979984342
 20
5.7753497242
 30
0.0
 11
1.0
 21
0.0
 31
0.0
 44
0.9
  1
0.120
 40
1.0
 41
5.5357142857
  0
LWPOLYLINE
  5
34A
100
AcDbEntity
  8
0
100
AcDbPolyline
 62
2
  6
CONTINUOUS
 90
2
 70
0
 43
0.1666666667
 10
274.9895739804
 20
179.083775457
 10
190.9687406471
 20
179.083775457
  0
LWPOLYLINE
  5
34B
100
AcDbEntity
  8
0
100
AcDbPolyline
 62
2
  6
CONTINUOUS
 90
2
 70
0
 43
0.1666666667
 10
274.9062406471
 20
179.083775457
 10
274.9062406471
 20
166.0629421237
  0
LWPOLYLINE
  5
34C
100
AcDbEntity
  8
0
100
AcDbPolyline
 62
2
  6
CONTINUOUS
 90
2
 70
0
 43
0.1666666667
 10
274.9062406471
 20
176.4796087904
 10
191.0520739804
 20
176.4796087904
  0
LWPOLYLINE
  5
34D
100
AcDbEntity
  8
0
100
AcDbPolyline
 62
2
  6
CONTINUOUS
 90
2
 70
0
 43
0.1666666667
 10
274.9062406471
 20
173.8754421237
 10
191.0520739804
 20
173.8754421237
  0
LWPOLYLINE
  5
34E
100
AcDbEntity
  8
0
100
AcDbPolyline
 62
2
  6
CONTINUOUS
 90
2
 70
0
 43
0.1666666667
 10
274.9062406471
 20
171.271275457
 10
191.0520739804
 20
171.271275457
  0
LWPOLYLINE
  5
34F
100
AcDbEntity
  8
0
100
AcDbPolyline
 62
2
  6
CONTINUOUS
 90
2
 70
0
 43
0.1666666667
 10
274.9062406471
 20
168.6671087904
 10
191.0520739804
 20
168.6671087904
  0
LWPOLYLINE
  5
350
100
AcDbEntity
  8
0
100
AcDbPolyline
 62
2
  6
CONTINUOUS
 90
2
 70
0
 43
0.1666666667
 10
274.9895739804
 20
166.0629421237
 10
190.9687406471
 20
166.0629421237
  0
LWPOLYLINE
  5
351
100
AcDbEntity
  8
0
100
AcDbPolyline
 62
2
  6
CONTINUOUS
 90
2
 70
0
 43
0.1666666667
 10
264.4895739804
 20
176.4796087904
 10
264.4895739804
 20
166.0629421237
  0
LWPOLYLINE
  5
352
100
AcDbEntity
  8
0
100
AcDbPolyline
 62
2
  6
CONTINUOUS
 90
2
 70
0
 43
0.1666666667
 10
260.3229073138
 20
176.4796087904
 10
260.3229073138
 20
166.0629421237
  0
LWPOLYLINE
  5
353
100
AcDbEntity
  8
0
100
AcDbPolyline
 62
2
  6
CONTINUOUS
 90
2
 70
0
 43
0.1666666667
 10
195.2187406471
 20
176.4796087904
 10
195.2187406471
 20
166.0629421237
  0
LWPOLYLINE
  5
354
100
AcDbEntity
  8
0
100
AcDbPolyline
 62
2
  6
CONTINUOUS
 90
2
 70
0
 43
0.1666666667
 10
191.0520739804
 20
179.083775457
 10
191.0520739804
 20
166.0629421237
  0
MTEXT
  5
355
100
AcDbEntity
  8
0
100
AcDbMText
 62
2
  6
CONTINUOUS
  7
STANDARD
 71
2
 72
1
 10
232.9791573138
 20
178.4327337904
 30
0.0
 11
1.0
 21
0.0
 31
0.0
 44
0.9
  1
REVISIONS
 40
1.3020833333
 41
13.5788690476
  0
MTEXT
  5
356
100
AcDbEntity
  8
0
100
AcDbMText
 62
2
  6
CONTINUOUS
  7
STANDARD
 71
2
 72
1
 10
269.6979073138
 20
175.8285671237
 30
0.0
 11
1.0
 21
0.0
 31
0.0
 44
0.9
  1
 DATE 
 40
1.3020833333
 41
9.9516369048
  0
MTEXT
  5
357
100
AcDbEntity
  8
0
100
AcDbMText
 62
2
  6
CONTINUOUS
  7
STANDARD
 71
2
 72
1
 10
262.4062406471
 20
175.8285671237
 30
0.0
 11
1.0
 21
0.0
 31
0.0
 44
0.9
  1
BY
 40
1.3020833333
 41
3.5807291667
  0
MTEXT
  5
358
100
AcDbEntity
  8
0
100
AcDbMText
 62
2
  6
CONTINUOUS
  7
STANDARD
 71
2
 72
1
 10
227.7708239804
 20
175.8285671237
 30
0.0
 11
1.0
 21
0.0
 31
0.0
 44
0.9
  1
DESCRIPTION
 40
1.3020833333
 41
17.0200892857
  0
MTEXT
  5
359
100
AcDbEntity
  8
0
100
AcDbMText
 62
2
  6
CONTINUOUS
  7
STANDARD
 71
2
 72
1
 10
193.1354073138
 20
175.8285671237
 30
0.0
 11
1.0
 21
0.0
 31
0.0
 44
0.9
  1
REV
 40
1.3020833333
 41
4.9293154762
  0
MTEXT
  5
35A
100
AcDbEntity
  8
0
100
AcDbMText
 62
2
  6
CONTINUOUS
  7
STANDARD
 71
2
 72
1
 10
269.6979073138
 20
173.224400457
 30
0.0
 11
1.0
 21
0.0
 31
0.0
 44
0.9
  1
3-OCT-16
 40
1.3020833333
 41
12.0442708333
  0
MTEXT
  5
35B
100
AcDbEntity
  8
0
100
AcDbMText
 62
2
  6
CONTINUOUS
  7
STANDARD
 71
2
 72
1
 10
262.4062406471
 20
173.224400457
 30
0.0
 11
1.0
 21
0.0
 31
0.0
 44
0.9
  1
SS
 40
1.3020833333
 41
3.4412202381
  0
MTEXT
  5
35C
100
AcDbEntity
  8
0
100
AcDbMText
 62
2
  6
CONTINUOUS
  7
STANDARD
 71
1
 72
1
 10
195.7395739804
 20
173.224400457
 30
0.0
 11
1.0
 21
0.0
 31
0.0
 44
0.9
  1
RELEASE FOR SALES AND MARKETING
 40
1.3020833333
 41
47.3400297619
  0
MTEXT
  5
35D
100
AcDbEntity
  8
0
100
AcDbMText
 62
2
  6
CONTINUOUS
  7
STANDARD
 71
2
 72
1
 10
193.1354073138
 20
173.224400457
 30
0.0
 11
1.0
 21
0.0
 31
0.0
 44
0.9
  1
A
 40
1.3020833333
 41
2.0461309524
  0
MTEXT
  5
35E
100
AcDbEntity
  8
0
100
AcDbMText
 62
2
  6
CONTINUOUS
  7
STANDARD
 71
1
 72
1
 10
79.2070779762
 20
45.3659059524
 30
0.0
 11
1.0
 21
0.0
 31
0.0
 44
0.9
  1
FRONT
 40
2.5
 41
15.4464285714
  0
MTEXT
  5
35F
100
AcDbEntity
  8
0
100
AcDbMText
 62
2
  6
CONTINUOUS
  7
STANDARD
 71
1
 72
1
 10
168.0101463248
 20
42.2127453371
 30
0.0
 11
1.0
 21
0.0
 31
0.0
 44
0.9
  1
RIGHT
 40
2.5
 41
15.1785714286
  0
MTEXT
  5
360
100
AcDbEntity
  8
0
100
AcDbMText
 62
2
  6
CONTINUOUS
  7
STANDARD
 71
1
 72
1
 10
8.2769789914
 20
18.4717740276
 30
0.0
 11
1.0
 21
0.0
 31
0.0
 44
0.9
  1
  \P 3. DIMENSIONS ARE IN MILLIMETERS [INCH].\P 2. TOLERANCES (MM): X\Fgdt;{\Fgdt;`}\Ftxt; 3, ANGLES: \Fgdt;{\Fgdt;`}\Ftxt;1\Fgdt;{\Fgdt;~}\Ftxt;. \P 1. NET WEIGHT APPROX. 167 LBS (76.5 KG)\P \PNOTE: UNLESS OTHERWISE SPECIFIED
 40
1.3020833333
 41
58.7797619048
  0
MTEXT
  5
361
100
AcDbEntity
  8
0
100
AcDbMText
 62
2
  6
CONTINUOUS
  7
STANDARD
 71
1
 72
1
 10
82.4713283918
 20
143.3569480514
 30
0.0
 11
1.0
 21
0.0
 31
0.0
 44
0.9
  1
TOP
 40
2.5
 41
9.8214285714
  0
LINE
  5
362
100
AcDbEntity
  8
DEFAULT_3
100
AcDbLine
 62
7
  6
PHANTOM
 10
0.0
 20
-0.0
 11
0.0
 21
183.3333333333
  0
LWPOLYLINE
  5
363
100
AcDbEntity
  8
0
100
AcDbPolyline
 62
7
  6
CONTINUOUS
 90
2
 70
0
 43
0.1666666736
 10
2.187189351
 20
90.2612092555
 10
2.187189351
 20
93.0721240778
  0
LWPOLYLINE
  5
364
100
AcDbEntity
  8
0
100
AcDbPolyline
 62
7
  6
CONTINUOUS
 90
2
 70
0
 43
0.250000002
 10
4.1666666667
 20
179.1666666667
 10
4.1666666667
 20
4.1666666667
  0
LWPOLYLINE
  5
365
100
AcDbEntity
  8
0
100
AcDbPolyline
 62
7
  6
CONTINUOUS
 90
2
 70
0
 43
0.250000002
 10
29.6875
 20
179.1666666667
 10
29.6875
 20
175.0
  0
LWPOLYLINE
  5
366
100
AcDbEntity
  8
0
100
AcDbPolyline
 62
7
  6
CONTINUOUS
 90
2
 70
0
 43
0.1666666736
 10
38.0208333333
 20
4.1666666667
 10
38.0208333333
 20
-0.0
  0
LWPOLYLINE
  5
367
100
AcDbEntity
  8
0
100
AcDbPolyline
 62
7
  6
CONTINUOUS
 90
2
 70
0
 43
0.1666666736
 10
38.0208333333
 20
179.1666666667
 10
38.0208333333
 20
183.3333333333
  0
LINE
  5
368
100
AcDbEntity
  8
0
100
AcDbLine
 62
7
  6
CONTINUOUS
 10
192.8292113458
 20
4.3379341716
 11
211.4069188557
 21
9.3951989937
  0
LINE
  5
369
100
AcDbEntity
  8
0
100
AcDbLine
 62
7
  6
CONTINUOUS
 10
192.6227923735
 20
9.601617966
 11
211.2004998833
 21
14.6588827882
  0
LINE
  5
36A
100
AcDbEntity
  8
DEFAULT_3
100
AcDbLine
 62
7
  6
PHANTOM
 10
0.0
 20
-0.0
 11
283.3333333333
 21
-0.0
  0
LWPOLYLINE
  5
36B
100
AcDbEntity
  8
0
100
AcDbPolyline
 62
7
  6
CONTINUOUS
 90
2
 70
0
 43
0.1666666736
 10
138.1778759222
 20
2.187189351
 10
140.9887907445
 20
2.187189351
  0
LWPOLYLINE
  5
36C
100
AcDbEntity
  8
0
100
AcDbPolyline
 62
7
  6
CONTINUOUS
 90
2
 70
0
 43
0.1666666736
 10
4.1666666667
 20
91.6666666667
 10
2.187189351
 20
90.2612092555
  0
LWPOLYLINE
  5
36D
100
AcDbEntity
  8
0
100
AcDbPolyline
 62
7
  6
CONTINUOUS
 90
2
 70
0
 43
0.250000002
 10
4.1666666667
 20
4.1666666667
 10
275.0
 20
4.1666666667
  0
LWPOLYLINE
  5
36E
100
AcDbEntity
  8
0
100
AcDbPolyline
 62
7
  6
CONTINUOUS
 90
2
 70
0
 43
0.1666666736
 10
211.4583333333
 20
6.25
 10
275.0
 20
6.25
  0
LWPOLYLINE
  5
36F
100
AcDbEntity
  8
0
100
AcDbPolyline
 62
7
  6
CONTINUOUS
 90
2
 70
0
 43
0.1666666736
 10
211.4583333333
 20
8.3333333333
 10
233.3333333333
 20
8.3333333333
  0
LWPOLYLINE
  5
370
100
AcDbEntity
  8
0
100
AcDbPolyline
 62
7
  6
CONTINUOUS
 90
2
 70
0
 43
0.1666666736
 10
211.4583333333
 20
9.375
 10
192.7083333333
 20
9.375
  0
LWPOLYLINE
  5
371
100
AcDbEntity
  8
0
100
AcDbPolyline
 62
7
  6
CONTINUOUS
 90
2
 70
0
 43
0.1666666736
 10
233.3333333333
 20
10.4166666667
 10
275.0
 20
10.4166666667
  0
LWPOLYLINE
  5
372
100
AcDbEntity
  8
0
100
AcDbPolyline
 62
7
  6
CONTINUOUS
 90
2
 70
0
 43
0.1666666736
 10
211.5130784727
 20
12.5977945415
 10
233.3880784727
 20
12.5977945415
  0
LWPOLYLINE
  5
373
100
AcDbEntity
  8
0
100
AcDbPolyline
 62
7
  6
CONTINUOUS
 90
2
 70
0
 43
0.1666666736
 10
4.1666666667
 20
91.6666666667
 10
2.187189351
 20
93.0721240778
  0
LWPOLYLINE
  5
374
100
AcDbEntity
  8
0
100
AcDbPolyline
 62
7
  6
CONTINUOUS
 90
2
 70
0
 43
0.1666666736
 10
71.875
 20
4.1666666667
 10
71.875
 20
-0.0
  0
LWPOLYLINE
  5
375
100
AcDbEntity
  8
0
100
AcDbPolyline
 62
7
  6
CONTINUOUS
 90
2
 70
0
 43
0.1666666736
 10
71.875
 20
179.1666666667
 10
71.875
 20
183.3333333333
  0
LWPOLYLINE
  5
376
100
AcDbEntity
  8
0
100
AcDbPolyline
 62
7
  6
CONTINUOUS
 90
2
 70
0
 43
0.1666666736
 10
192.7083333333
 20
14.5833333333
 10
211.4583333333
 20
14.5833333333
  0
LWPOLYLINE
  5
377
100
AcDbEntity
  8
0
100
AcDbPolyline
 62
7
  6
CONTINUOUS
 90
2
 70
0
 43
0.1666666736
 10
211.5245258927
 20
16.8826586286
 10
233.3995258927
 20
16.8826586286
  0
LWPOLYLINE
  5
378
100
AcDbEntity
  8
0
100
AcDbPolyline
 62
7
  6
CONTINUOUS
 90
2
 70
0
 43
0.1666666736
 10
233.3333333333
 20
19.7916666667
 10
275.0
 20
19.7916666667
  0
LWPOLYLINE
  5
379
100
AcDbEntity
  8
0
100
AcDbPolyline
 62
7
  6
CONTINUOUS
 90
2
 70
0
 43
0.1666666736
 10
211.4583333333
 20
21.312748571
 10
233.3333333333
 20
21.312748571
  0
LWPOLYLINE
  5
37A
100
AcDbEntity
  8
0
100
AcDbPolyline
 62
7
  6
CONTINUOUS
 90
2
 70
0
 43
0.1666666736
 10
192.7083333333
 20
25.5208333333
 10
275.0
 20
25.5208333333
  0
LWPOLYLINE
  5
37B
100
AcDbEntity
  8
0
100
AcDbPolyline
 62
7
  6
CONTINUOUS
 90
2
 70
0
 43
0.1666666736
 10
139.5833333333
 20
179.1666666667
 10
140.9887907445
 20
181.1461439823
  0
LWPOLYLINE
  5
37C
100
AcDbEntity
  8
0
100
AcDbPolyline
 62
7
  6
CONTINUOUS
 90
2
 70
0
 43
0.1666666736
 10
139.5833333333
 20
4.1666666667
 10
140.9887907445
 20
2.187189351
  0
LWPOLYLINE
  5
37D
100
AcDbEntity
  8
0
100
AcDbPolyline
 62
7
  6
CONTINUOUS
 90
2
 70
0
 43
0.1666666736
 10
4.1666666667
 20
47.9166666667
 10
0.0
 20
47.9166666667
  0
LWPOLYLINE
  5
37E
100
AcDbEntity
  8
0
100
AcDbPolyline
 62
7
  6
CONTINUOUS
 90
2
 70
0
 43
0.1666666736
 10
275.0549487571
 20
47.9236753411
 10
279.2216154237
 20
47.9236753411
  0
LWPOLYLINE
  5
37F
100
AcDbEntity
  8
0
100
AcDbPolyline
 62
7
  6
CONTINUOUS
 90
2
 70
0
 43
0.1666666736
 10
105.7291666667
 20
4.1666666667
 10
105.7291666667
 20
-0.0
  0
LWPOLYLINE
  5
380
100
AcDbEntity
  8
0
100
AcDbPolyline
 62
7
  6
CONTINUOUS
 90
2
 70
0
 43
0.1666666736
 10
105.7291666667
 20
179.1666666667
 10
105.7291666667
 20
183.3333333333
  0
LINE
  5
381
100
AcDbEntity
  8
0
100
AcDbLine
 62
7
  6
CONTINUOUS
 10
192.7260018596
 20
25.4958788356
 11
211.2004998833
 21
14.6588827882
  0
LWPOLYLINE
  5
382
100
AcDbEntity
  8
0
100
AcDbPolyline
 62
7
  6
CONTINUOUS
 90
2
 70
0
 43
0.1666666736
 10
139.5833333333
 20
4.1666666667
 10
139.5833333333
 20
-0.0
  0
LWPOLYLINE
  5
383
100
AcDbEntity
  8
0
100
AcDbPolyline
 62
7
  6
CONTINUOUS
 90
2
 70
0
 43
0.1666666736
 10
139.5833333333
 20
179.1666666667
 10
139.5833333333
 20
183.3333333333
  0
LWPOLYLINE
  5
384
100
AcDbEntity
  8
0
100
AcDbPolyline
 62
7
  6
CONTINUOUS
 90
2
 70
0
 43
0.1666666736
 10
4.1666666667
 20
91.6666666667
 10
-0.0
 20
91.6666666667
  0
LWPOLYLINE
  5
385
100
AcDbEntity
  8
0
100
AcDbPolyline
 62
7
  6
CONTINUOUS
 90
2
 70
0
 43
0.1666666736
 10
275.0089945496
 20
91.6779983179
 10
279.1756612163
 20
91.6779983179
  0
LWPOLYLINE
  5
386
100
AcDbEntity
  8
0
100
AcDbPolyline
 62
7
  6
CONTINUOUS
 90
2
 70
0
 43
0.1666666736
 10
173.4375
 20
4.1666666667
 10
173.4375
 20
-0.0
  0
LWPOLYLINE
  5
387
100
AcDbEntity
  8
0
100
AcDbPolyline
 62
7
  6
CONTINUOUS
 90
2
 70
0
 43
0.1666666736
 10
173.4375
 20
179.1666666667
 10
173.4375
 20
183.3333333333
  0
LWPOLYLINE
  5
388
100
AcDbEntity
  8
0
100
AcDbPolyline
 62
7
  6
CONTINUOUS
 90
2
 70
0
 43
0.1666666736
 10
139.5833333333
 20
4.1666666667
 10
138.1778759222
 20
2.187189351
  0
LWPOLYLINE
  5
389
100
AcDbEntity
  8
0
100
AcDbPolyline
 62
7
  6
CONTINUOUS
 90
2
 70
0
 43
0.1666666736
 10
4.1666666667
 20
135.4166666667
 10
0.0
 20
135.4166666667
  0
LWPOLYLINE
  5
38A
100
AcDbEntity
  8
0
100
AcDbPolyline
 62
7
  6
CONTINUOUS
 90
2
 70
0
 43
0.1666666736
 10
275.0
 20
135.4166666667
 10
279.1666666667
 20
135.4166666667
  0
LWPOLYLINE
  5
38B
100
AcDbEntity
  8
0
100
AcDbPolyline
 62
7
  6
CONTINUOUS
 90
2
 70
0
 43
0.1666666736
 10
139.5833333333
 20
179.1666666667
 10
138.1778759222
 20
181.1461439823
  0
LWPOLYLINE
  5
38C
100
AcDbEntity
  8
0
100
AcDbPolyline
 62
7
  6
CONTINUOUS
 90
2
 70
0
 43
0.1666666736
 10
192.7083333333
 20
4.1666666667
 10
192.7083333333
 20
25.5208333333
  0
LWPOLYLINE
  5
38D
100
AcDbEntity
  8
0
100
AcDbPolyline
 62
7
  6
CONTINUOUS
 90
2
 70
0
 43
0.1666666736
 10
207.2916666667
 20
4.1666666667
 10
207.2916666667
 20
-0.0
  0
LWPOLYLINE
  5
38E
100
AcDbEntity
  8
0
100
AcDbPolyline
 62
7
  6
CONTINUOUS
 90
2
 70
0
 43
0.1666666736
 10
207.2916666667
 20
179.1666666667
 10
207.2916666667
 20
183.3333333333
  0
LWPOLYLINE
  5
38F
100
AcDbEntity
  8
0
100
AcDbPolyline
 62
7
  6
CONTINUOUS
 90
2
 70
0
 43
0.1666666736
 10
211.4583333333
 20
4.1666666667
 10
211.4583333333
 20
25.5208333333
  0
LWPOLYLINE
  5
390
100
AcDbEntity
  8
0
100
AcDbPolyline
 62
7
  6
CONTINUOUS
 90
2
 70
0
 43
0.1666666736
 10
275.0089945496
 20
91.6779983179
 10
276.9884718653
 20
93.083455729
  0
LWPOLYLINE
  5
391
100
AcDbEntity
  8
0
100
AcDbPolyline
 62
7
  6
CONTINUOUS
 90
2
 70
0
 43
0.1666666736
 10
275.0089945496
 20
91.6779983179
 10
276.9884718653
 20
90.2725409068
  0
LWPOLYLINE
  5
392
100
AcDbEntity
  8
0
100
AcDbPolyline
 62
7
  6
CONTINUOUS
 90
2
 70
0
 43
0.250000002
 10
29.6875
 20
175.0
 10
4.1666666667
 20
175.0
  0
LWPOLYLINE
  5
393
100
AcDbEntity
  8
0
100
AcDbPolyline
 62
7
  6
CONTINUOUS
 90
2
 70
0
 43
0.250000002
 10
275.0
 20
179.1666666667
 10
4.1666666667
 20
179.1666666667
  0
LWPOLYLINE
  5
394
100
AcDbEntity
  8
0
100
AcDbPolyline
 62
7
  6
CONTINUOUS
 90
2
 70
0
 43
0.1666666736
 10
138.1778759222
 20
181.1461439823
 10
140.9887907445
 20
181.1461439823
  0
LWPOLYLINE
  5
395
100
AcDbEntity
  8
0
100
AcDbPolyline
 62
7
  6
CONTINUOUS
 90
2
 70
0
 43
0.1666666736
 10
233.3333333333
 20
4.1666666667
 10
233.3333333333
 20
25.5208333333
  0
LWPOLYLINE
  5
396
100
AcDbEntity
  8
0
100
AcDbPolyline
 62
7
  6
CONTINUOUS
 90
2
 70
0
 43
0.1666666736
 10
237.5
 20
6.25
 10
237.5
 20
10.4166666667
  0
LWPOLYLINE
  5
397
100
AcDbEntity
  8
0
100
AcDbPolyline
 62
7
  6
CONTINUOUS
 90
2
 70
0
 43
0.1666666736
 10
241.1458333333
 20
4.1666666667
 10
241.1458333333
 20
-0.0
  0
LWPOLYLINE
  5
398
100
AcDbEntity
  8
0
100
AcDbPolyline
 62
7
  6
CONTINUOUS
 90
2
 70
0
 43
0.1666666736
 10
241.1458333333
 20
179.1666666667
 10
241.1458333333
 20
183.3333333333
  0
LINE
  5
399
100
AcDbEntity
  8
0
100
AcDbLine
 62
7
  6
CONTINUOUS
 10
192.7260018596
 20
14.555673302
 11
211.3037093695
 21
25.3926693494
  0
LINE
  5
39A
100
AcDbEntity
  8
DEFAULT_3
100
AcDbLine
 62
7
  6
PHANTOM
 10
0.0
 20
183.3333333333
 11
283.3333333333
 21
183.3333333333
  0
LWPOLYLINE
  5
39B
100
AcDbEntity
  8
0
100
AcDbPolyline
 62
7
  6
CONTINUOUS
 90
2
 70
0
 43
0.1666666736
 10
243.1969080546
 20
4.2062512963
 10
243.1969080546
 20
6.2895846296
  0
LWPOLYLINE
  5
39C
100
AcDbEntity
  8
0
100
AcDbPolyline
 62
7
  6
CONTINUOUS
 90
2
 70
0
 43
0.1666666736
 10
245.8333333333
 20
6.25
 10
245.8333333333
 20
10.4166666667
  0
LWPOLYLINE
  5
39D
100
AcDbEntity
  8
0
100
AcDbPolyline
 62
7
  6
CONTINUOUS
 90
2
 70
0
 43
0.1666666736
 10
261.4583333333
 20
4.1666666667
 10
261.4583333333
 20
6.25
  0
LWPOLYLINE
  5
39E
100
AcDbEntity
  8
0
100
AcDbPolyline
 62
7
  6
CONTINUOUS
 90
2
 70
0
 43
0.1666666736
 10
270.8333333333
 20
6.25
 10
270.8333333333
 20
10.4166666667
  0
LWPOLYLINE
  5
39F
100
AcDbEntity
  8
0
100
AcDbPolyline
 62
7
  6
CONTINUOUS
 90
2
 70
0
 43
0.250000002
 10
275.0
 20
179.1666666667
 10
275.0
 20
4.1666666667
  0
LWPOLYLINE
  5
3A0
100
AcDbEntity
  8
0
100
AcDbPolyline
 62
7
  6
CONTINUOUS
 90
2
 70
0
 43
0.1666666736
 10
276.9884718653
 20
90.2725409068
 10
276.9884718653
 20
93.083455729
  0
LINE
  5
3A1
100
AcDbEntity
  8
DEFAULT_3
100
AcDbLine
 62
7
  6
PHANTOM
 10
283.3333333333
 20
-0.0
 11
283.3333333333
 21
183.3333333333
  0
LINE
  5
3A2
100
AcDbEntity
  8
7_ALL_ROUNDS
100
AcDbLine
 62
7
  6
CONTINUOUS
 10
98.8869609223
 20
53.8365152806
 11
97.6369609223
 21
53.8365152806
  0
LINE
  5
3A3
100
AcDbEntity
  8
7_ALL_ROUNDS
100
AcDbLine
 62
7
  6
CONTINUOUS
 10
72.8869609223
 20
53.8365152806
 11
71.6369609223
 21
53.8365152806
  0
LINE
  5
3A4
100
AcDbEntity
  8
7_ALL_ROUNDS
100
AcDbLine
 62
7
  6
CONTINUOUS
 10
99.0119609223
 20
53.9615152806
 11
97.5119609223
 21
53.9615152806
  0
LINE
  5
3A5
100
AcDbEntity
  8
7_ALL_ROUNDS
100
AcDbLine
 62
7
  6
CONTINUOUS
 10
73.0119609223
 20
53.9615152806
 11
71.5119609223
 21
53.9615152806
  0
LINE
  5
3A6
100
AcDbEntity
  8
0
100
AcDbLine
 62
7
  6
CONTINUOUS
 10
70.2619609223
 20
54.5865152806
 11
100.2619609223
 21
54.5865152806
  0
LINE
  5
3A7
100
AcDbEntity
  8
0
100
AcDbLine
 62
7
  6
CONTINUOUS
 10
71.0119609223
 20
55.3365152806
 11
99.5119609223
 21
55.3365152806
  0
LINE
  5
3A8
100
AcDbEntity
  8
0
100
AcDbLine
 62
7
  6
CONTINUOUS
 10
95.7619609223
 20
110.6402456601
 11
85.8364942546
 21
107.4250123263
  0
LINE
  5
3A9
100
AcDbEntity
  8
0
100
AcDbLine
 62
7
  6
CONTINUOUS
 10
71.7619609223
 20
99.0402456601
 11
84.582230082
 21
106.6380973546
  0
LINE
  5
3AA
100
AcDbEntity
  8
5_ALL_CURVES
100
AcDbLine
 62
4
  6
CONTINUOUS
 10
71.4390804775
 20
98.7902456601
 11
74.5683908223
 21
110.8902456601
  0
LINE
  5
3AB
100
AcDbEntity
  8
0
100
AcDbLine
 62
7
  6
CONTINUOUS
 10
71.7619609223
 20
99.0402456601
 11
74.7619609223
 21
110.6402456601
  0
LINE
  5
3AC
100
AcDbEntity
  8
5_ALL_CURVES
100
AcDbLine
 62
4
  6
CONTINUOUS
 10
71.7619609223
 20
99.0402456601
 11
74.7619609223
 21
110.6402456601
  0
LINE
  5
3AD
100
AcDbEntity
  8
0
100
AcDbLine
 62
7
  6
CONTINUOUS
 10
70.2619609223
 20
54.5865152806
 11
70.2619609223
 21
73.0904522885
  0
LINE
  5
3AE
100
AcDbEntity
  8
7_ALL_ROUNDS
100
AcDbLine
 62
7
  6
CONTINUOUS
 10
70.2619609223
 20
74.477273533
 11
70.2619609223
 21
112.1165669046
  0
LINE
  5
3AF
100
AcDbEntity
  8
0
100
AcDbLine
 62
7
  6
CONTINUOUS
 10
70.3369609223
 20
112.6402588125
 11
70.3369609223
 21
97.0402588125
  0
LINE
  5
3B0
100
AcDbEntity
  8
0
100
AcDbLine
 62
7
  6
CONTINUOUS
 10
71.0119609223
 20
72.3404522885
 11
71.0119609223
 21
55.3365152806
  0
LINE
  5
3B1
100
AcDbEntity
  8
0
100
AcDbLine
 62
7
  6
CONTINUOUS
 10
71.0879609223
 20
96.8475669046
 11
71.0879609223
 21
97.0402588125
  0
LINE
  5
3B2
100
AcDbEntity
  8
0
100
AcDbLine
 62
7
  6
CONTINUOUS
 10
71.1879609223
 20
73.977273533
 11
71.1879609223
 21
73.7784830837
  0
LINE
  5
3B3
100
AcDbEntity
  8
0
100
AcDbLine
 62
7
  6
CONTINUOUS
 10
71.2639609223
 20
73.977273533
 11
71.2639609223
 21
73.7784830837
  0
LINE
  5
3B4
100
AcDbEntity
  8
0
100
AcDbLine
 62
7
  6
CONTINUOUS
 10
71.3239609223
 20
73.0904522885
 11
71.3239609223
 21
73.977273533
  0
LINE
  5
3B5
100
AcDbEntity
  8
7_ALL_ROUNDS
100
AcDbLine
 62
7
  6
CONTINUOUS
 10
71.5119609223
 20
54.5865152806
 11
71.5119609223
 21
53.9615152806
  0
LINE
  5
3B6
100
AcDbEntity
  8
5_ALL_CURVES
100
AcDbLine
 62
4
  6
CONTINUOUS
 10
72.9125696088
 20
94.6845902509
 11
70.7592608471
 21
75.9859522885
  0
LINE
  5
3B7
100
AcDbEntity
  8
5_ALL_CURVES
100
AcDbLine
 62
4
  6
CONTINUOUS
 10
73.1354321894
 20
94.4345902509
 11
71.0397027222
 21
76.2359522885
  0
LINE
  5
3B8
100
AcDbEntity
  8
7_ALL_ROUNDS
100
AcDbLine
 62
7
  6
CONTINUOUS
 10
71.6300818478
 20
81.3626142692
 11
72.6377708767
 21
90.1130603801
  0
LINE
  5
3B9
100
AcDbEntity
  8
7_ALL_ROUNDS
100
AcDbLine
 62
7
  6
CONTINUOUS
 10
73.0119609223
 20
54.5865152806
 11
73.0119609223
 21
53.9615152806
  0
LINE
  5
3BA
100
AcDbEntity
  8
0
100
AcDbLine
 62
7
  6
CONTINUOUS
 10
99.5119609223
 20
72.3404522885
 11
71.0119609223
 21
72.3404522885
  0
LINE
  5
3BB
100
AcDbEntity
  8
0
100
AcDbLine
 62
7
  6
CONTINUOUS
 10
70.2619609223
 20
73.0904522885
 11
100.2619609223
 21
73.0904522885
  0
LINE
  5
3BC
100
AcDbEntity
  8
0
100
AcDbLine
 62
7
  6
CONTINUOUS
 10
71.1879609223
 20
73.7782471975
 11
71.2639609223
 21
73.7782471975
  0
LINE
  5
3BD
100
AcDbEntity
  8
0
100
AcDbLine
 62
7
  6
CONTINUOUS
 10
99.2599609223
 20
73.7782471975
 11
99.3359609223
 21
73.7782471975
  0
LINE
  5
3BE
100
AcDbEntity
  8
7_ALL_ROUNDS
100
AcDbLine
 62
7
  6
CONTINUOUS
 10
70.7619609223
 20
73.977273533
 11
99.7619609223
 21
73.977273533
  0
LINE
  5
3BF
100
AcDbEntity
  8
5_ALL_CURVES
100
AcDbLine
 62
4
  6
CONTINUOUS
 10
70.7592608471
 20
75.9859522885
 11
99.7646609975
 21
75.9859522885
  0
LINE
  5
3C0
100
AcDbEntity
  8
7_ALL_ROUNDS
100
AcDbLine
 62
7
  6
CONTINUOUS
 10
93.9028535096
 20
76.2359523004
 11
76.6210684148
 21
76.2359522938
  0
LINE
  5
3C1
100
AcDbEntity
  8
5_ALL_CURVES
100
AcDbLine
 62
4
  6
CONTINUOUS
 10
71.0397027222
 20
76.2359522885
 11
99.4842191224
 21
76.2359522885
  0
LINE
  5
3C2
100
AcDbEntity
  8
5_ALL_CURVES
100
AcDbLine
 62
4
  6
CONTINUOUS
 10
83.0032778732
 20
89.0163997585
 11
82.9965194171
 21
89.0098733339
  0
LINE
  5
3C3
100
AcDbEntity
  8
5_ALL_CURVES
100
AcDbLine
 62
4
  6
CONTINUOUS
 10
83.49215668
 20
89.4039294725
 11
83.4832301328
 21
89.3981350859
  0
LINE
  5
3C4
100
AcDbEntity
  8
0
100
AcDbLine
 62
7
  6
CONTINUOUS
 10
82.6729648593
 20
97.0402588125
 11
82.6729648593
 21
96.8475669046
  0
LINE
  5
3C5
100
AcDbEntity
  8
0
100
AcDbLine
 62
7
  6
CONTINUOUS
 10
87.8509569853
 20
97.0402588125
 11
87.8509569853
 21
96.8475669046
  0
LINE
  5
3C6
100
AcDbEntity
  8
0
100
AcDbLine
 62
7
  6
CONTINUOUS
 10
87.9369609223
 20
96.8610584369
 11
87.9369609223
 21
96.8475669046
  0
LINE
  5
3C7
100
AcDbEntity
  8
0
100
AcDbLine
 62
7
  6
CONTINUOUS
 10
87.9369609223
 20
97.0402588125
 11
87.9369609223
 21
96.984159406
  0
LINE
  5
3C8
100
AcDbEntity
  8
0
100
AcDbLine
 62
7
  6
CONTINUOUS
 10
88.1819609223
 20
97.0402588125
 11
88.1819609223
 21
97.0015242238
  0
LINE
  5
3C9
100
AcDbEntity
  8
0
100
AcDbLine
 62
7
  6
CONTINUOUS
 10
88.5919609223
 20
96.8610584369
 11
88.5919609223
 21
97.0402588125
  0
LINE
  5
3CA
100
AcDbEntity
  8
5_ALL_CURVES
100
AcDbLine
 62
4
  6
CONTINUOUS
 10
85.2674165685
 20
89.9260740171
 11
85.2563114262
 21
89.9260736872
  0
LINE
  5
3CB
100
AcDbEntity
  8
5_ALL_CURVES
100
AcDbLine
 62
4
  6
CONTINUOUS
 10
87.0405233449
 20
89.3982447606
 11
87.0316088275
 21
89.4040305842
  0
LINE
  5
3CC
100
AcDbEntity
  8
5_ALL_CURVES
100
AcDbLine
 62
4
  6
CONTINUOUS
 10
87.5272731132
 20
89.0099985639
 11
87.5204938662
 21
89.0165442815
  0
LINE
  5
3CD
100
AcDbEntity
  8
5_ALL_CURVES
100
AcDbLine
 62
4
  6
CONTINUOUS
 10
73.1354321894
 20
94.4345902509
 11
97.3884896552
 21
94.4345902509
  0
LINE
  5
3CE
100
AcDbEntity
  8
7_ALL_ROUNDS
100
AcDbLine
 62
7
  6
CONTINUOUS
 10
78.13528192
 20
94.434590247
 11
92.3886399287
 21
94.4345902467
  0
LINE
  5
3CF
100
AcDbEntity
  8
7_ALL_ROUNDS
100
AcDbLine
 62
7
  6
CONTINUOUS
 10
97.5119609223
 20
54.5865152806
 11
97.5119609223
 21
53.9615152806
  0
LINE
  5
3D0
100
AcDbEntity
  8
5_ALL_CURVES
100
AcDbLine
 62
4
  6
CONTINUOUS
 10
72.9125696088
 20
94.6845902509
 11
97.6113522358
 21
94.6845902509
  0
LINE
  5
3D1
100
AcDbEntity
  8
5_ALL_CURVES
100
AcDbLine
 62
4
  6
CONTINUOUS
 10
97.3884896552
 20
94.4345902509
 11
99.4842191224
 21
76.2359522885
  0
LINE
  5
3D2
100
AcDbEntity
  8
7_ALL_ROUNDS
100
AcDbLine
 62
7
  6
CONTINUOUS
 10
97.8861509684
 20
90.1130603779
 11
98.8938400002
 21
81.3626141297
  0
LINE
  5
3D3
100
AcDbEntity
  8
7_ALL_ROUNDS
100
AcDbLine
 62
7
  6
CONTINUOUS
 10
99.0119609223
 20
54.5865152806
 11
99.0119609223
 21
53.9615152806
  0
LINE
  5
3D4
100
AcDbEntity
  8
0
100
AcDbLine
 62
7
  6
CONTINUOUS
 10
99.1999609223
 20
73.0904522885
 11
99.1999609223
 21
73.977273533
  0
LINE
  5
3D5
100
AcDbEntity
  8
0
100
AcDbLine
 62
7
  6
CONTINUOUS
 10
99.2599609223
 20
73.977273533
 11
99.2599609223
 21
73.7784830837
  0
LINE
  5
3D6
100
AcDbEntity
  8
0
100
AcDbLine
 62
7
  6
CONTINUOUS
 10
99.3359609223
 20
73.977273533
 11
99.3359609223
 21
73.7784830837
  0
LINE
  5
3D7
100
AcDbEntity
  8
0
100
AcDbLine
 62
7
  6
CONTINUOUS
 10
99.4359609223
 20
96.8475669046
 11
99.4359609223
 21
97.0402588125
  0
LINE
  5
3D8
100
AcDbEntity
  8
0
100
AcDbLine
 62
7
  6
CONTINUOUS
 10
99.5119609223
 20
55.3365152806
 11
99.5119609223
 21
72.3404522885
  0
LINE
  5
3D9
100
AcDbEntity
  8
0
100
AcDbLine
 62
7
  6
CONTINUOUS
 10
100.1869609223
 20
97.0402588125
 11
100.1869609223
 21
112.6402588125
  0
LINE
  5
3DA
100
AcDbEntity
  8
0
100
AcDbLine
 62
7
  6
CONTINUOUS
 10
100.2619609223
 20
54.5865152806
 11
100.2619609223
 21
73.0904522885
  0
LINE
  5
3DB
100
AcDbEntity
  8
7_ALL_ROUNDS
100
AcDbLine
 62
7
  6
CONTINUOUS
 10
100.2619609223
 20
74.477273533
 11
100.2619609223
 21
112.1165669046
  0
LINE
  5
3DC
100
AcDbEntity
  8
7_ALL_ROUNDS
100
AcDbLine
 62
7
  6
CONTINUOUS
 10
99.7619609223
 20
96.8475669046
 11
70.7619609223
 21
96.8475669046
  0
LINE
  5
3DD
100
AcDbEntity
  8
0
100
AcDbLine
 62
7
  6
CONTINUOUS
 10
88.5919609223
 20
96.8610584369
 11
87.9369609223
 21
96.8610584369
  0
LINE
  5
3DE
100
AcDbEntity
  8
0
100
AcDbLine
 62
7
  6
CONTINUOUS
 10
87.9369609223
 20
96.984159406
 11
88.5919609223
 21
96.984159406
  0
LINE
  5
3DF
100
AcDbEntity
  8
0
100
AcDbLine
 62
7
  6
CONTINUOUS
 10
87.9369609223
 20
97.0015242238
 11
88.1819609223
 21
97.0015242238
  0
LINE
  5
3E0
100
AcDbEntity
  8
0
100
AcDbLine
 62
7
  6
CONTINUOUS
 10
70.3369609223
 20
97.0402588125
 11
100.1869609223
 21
97.0402588125
  0
LINE
  5
3E1
100
AcDbEntity
  8
5_ALL_CURVES
100
AcDbLine
 62
4
  6
CONTINUOUS
 10
99.0848413671
 20
98.7902456601
 11
71.4390804775
 21
98.7902456601
  0
LINE
  5
3E2
100
AcDbEntity
  8
5_ALL_CURVES
100
AcDbLine
 62
4
  6
CONTINUOUS
 10
97.6113522358
 20
94.6845902509
 11
99.7646609975
 21
75.9859522885
  0
LINE
  5
3E3
100
AcDbEntity
  8
0
100
AcDbLine
 62
7
  6
CONTINUOUS
 10
98.7619609223
 20
99.0402456601
 11
71.7619609223
 21
99.0402456601
  0
LINE
  5
3E4
100
AcDbEntity
  8
5_ALL_CURVES
100
AcDbLine
 62
4
  6
CONTINUOUS
 10
98.7619609223
 20
99.0402456601
 11
71.7619609223
 21
99.0402456601
  0
LINE
  5
3E5
100
AcDbEntity
  8
0
100
AcDbLine
 62
7
  6
CONTINUOUS
 10
95.7619609223
 20
110.6402456601
 11
98.7619609223
 21
99.0402456601
  0
LINE
  5
3E6
100
AcDbEntity
  8
5_ALL_CURVES
100
AcDbLine
 62
4
  6
CONTINUOUS
 10
95.7619609223
 20
110.6402456601
 11
98.7619609223
 21
99.0402456601
  0
LINE
  5
3E7
100
AcDbEntity
  8
5_ALL_CURVES
100
AcDbLine
 62
4
  6
CONTINUOUS
 10
95.9555310223
 20
110.8902456601
 11
99.0848413671
 21
98.7902456601
  0
LINE
  5
3E8
100
AcDbEntity
  8
0
100
AcDbLine
 62
7
  6
CONTINUOUS
 10
98.7619609223
 20
99.0402456601
 11
85.9416917626
 21
106.6380973546
  0
LINE
  5
3E9
100
AcDbEntity
  8
0
100
AcDbLine
 62
7
  6
CONTINUOUS
 10
74.7619609223
 20
110.6402456601
 11
84.68742759
 21
107.4250123263
  0
LINE
  5
3EA
100
AcDbEntity
  8
0
100
AcDbLine
 62
7
  6
CONTINUOUS
 10
74.7619609223
 20
110.6402456601
 11
95.7619609223
 21
110.6402456601
  0
LINE
  5
3EB
100
AcDbEntity
  8
5_ALL_CURVES
100
AcDbLine
 62
4
  6
CONTINUOUS
 10
74.7619609223
 20
110.6402456601
 11
95.7619609223
 21
110.6402456601
  0
LINE
  5
3EC
100
AcDbEntity
  8
5_ALL_CURVES
100
AcDbLine
 62
4
  6
CONTINUOUS
 10
74.5683908223
 20
110.8902456601
 11
95.9555310223
 21
110.8902456601
  0
LINE
  5
3ED
100
AcDbEntity
  8
0
100
AcDbLine
 62
7
  6
CONTINUOUS
 10
70.3369609223
 20
112.1165669046
 11
70.2619609223
 21
112.1165669046
  0
LINE
  5
3EE
100
AcDbEntity
  8
0
100
AcDbLine
 62
7
  6
CONTINUOUS
 10
100.1869609223
 20
112.1165669046
 11
100.2619609223
 21
112.1165669046
  0
LINE
  5
3EF
100
AcDbEntity
  8
0
100
AcDbLine
 62
7
  6
CONTINUOUS
 10
100.1869609223
 20
112.6402588125
 11
70.3369609223
 21
112.6402588125
  0
LINE
  5
3F0
100
AcDbEntity
  8
7_ALL_ROUNDS
100
AcDbLine
 62
7
  6
CONTINUOUS
 10
70.2619609223
 20
146.3818154762
 11
70.2619609223
 21
147.4578154762
  0
LINE
  5
3F1
100
AcDbEntity
  8
0
100
AcDbLine
 62
7
  6
CONTINUOUS
 10
70.2619609223
 20
147.4578154762
 11
70.2619609223
 21
166.6318154762
  0
LINE
  5
3F2
100
AcDbEntity
  8
7_ALL_ROUNDS
100
AcDbLine
 62
7
  6
CONTINUOUS
 10
70.3369609223
 20
147.4578154762
 11
70.3369609223
 21
146.7078154762
  0
LINE
  5
3F3
100
AcDbEntity
  8
0
100
AcDbLine
 62
7
  6
CONTINUOUS
 10
70.3369609223
 20
146.3818154762
 11
70.3369609223
 21
146.6318154762
  0
LINE
  5
3F4
100
AcDbEntity
  8
7_ALL_ROUNDS
100
AcDbLine
 62
7
  6
CONTINUOUS
 10
70.4219609223
 20
146.6318154762
 11
70.4219609223
 21
146.7078154762
  0
LINE
  5
3F5
100
AcDbEntity
  8
7_ALL_ROUNDS
100
AcDbLine
 62
7
  6
CONTINUOUS
 10
70.7619609223
 20
146.6318154762
 11
70.7619609223
 21
146.7078154762
  0
LINE
  5
3F6
100
AcDbEntity
  8
0
100
AcDbLine
 62
7
  6
CONTINUOUS
 10
71.0879609223
 20
146.6318154762
 11
71.0879609223
 21
146.7078154762
  0
LINE
  5
3F7
100
AcDbEntity
  8
0
100
AcDbLine
 62
7
  6
CONTINUOUS
 10
71.1879609223
 20
147.9807765269
 11
71.1879609223
 21
146.7078154762
  0
LINE
  5
3F8
100
AcDbEntity
  8
0
100
AcDbLine
 62
7
  6
CONTINUOUS
 10
71.2639609223
 20
147.9807765269
 11
71.2639609223
 21
146.6318154762
  0
LINE
  5
3F9
100
AcDbEntity
  8
0
100
AcDbLine
 62
7
  6
CONTINUOUS
 10
71.3239609223
 20
148.5440801834
 11
71.3239609223
 21
146.8068154762
  0
LINE
  5
3FA
100
AcDbEntity
  8
0
100
AcDbLine
 62
7
  6
CONTINUOUS
 10
71.4029609223
 20
148.5372617909
 11
71.4029609223
 21
146.8858154762
  0
LINE
  5
3FB
100
AcDbEntity
  8
0
100
AcDbLine
 62
7
  6
CONTINUOUS
 10
74.4442627124
 20
166.4858154762
 11
71.3239609223
 21
148.5440801834
  0
LINE
  5
3FC
100
AcDbEntity
  8
0
100
AcDbLine
 62
7
  6
CONTINUOUS
 10
74.5107093893
 20
166.4068154762
 11
71.4029609223
 21
148.5372617909
  0
LINE
  5
3FD
100
AcDbEntity
  8
0
100
AcDbLine
 62
7
  6
CONTINUOUS
 10
92.8869609223
 20
146.3518154762
 11
77.6369609223
 21
146.3518154762
  0
LINE
  5
3FE
100
AcDbEntity
  8
7_ALL_ROUNDS
100
AcDbLine
 62
7
  6
CONTINUOUS
 10
100.2619609223
 20
146.3818154762
 11
100.1664694195
 21
146.3818154762
  0
LINE
  5
3FF
100
AcDbEntity
  8
0
100
AcDbLine
 62
7
  6
CONTINUOUS
 10
100.1869609223
 20
146.3818154762
 11
70.3369609223
 21
146.3818154762
  0
LINE
  5
400
100
AcDbEntity
  8
7_ALL_ROUNDS
100
AcDbLine
 62
7
  6
CONTINUOUS
 10
70.2864326642
 20
146.3818154762
 11
70.2619609223
 21
146.3818154762
  0
LINE
  5
401
100
AcDbEntity
  8
0
100
AcDbLine
 62
7
  6
CONTINUOUS
 10
70.2619609223
 20
146.6318154762
 11
100.2619609223
 21
146.6318154762
  0
LINE
  5
402
100
AcDbEntity
  8
0
100
AcDbLine
 62
7
  6
CONTINUOUS
 10
71.1879609223
 20
146.7078154762
 11
71.0879609223
 21
146.7078154762
  0
LINE
  5
403
100
AcDbEntity
  8
7_ALL_ROUNDS
100
AcDbLine
 62
7
  6
CONTINUOUS
 10
70.3369609223
 20
146.7078154762
 11
71.0879609223
 21
146.7078154762
  0
LINE
  5
404
100
AcDbEntity
  8
0
100
AcDbLine
 62
7
  6
CONTINUOUS
 10
99.3359609223
 20
146.7078154762
 11
99.4359609223
 21
146.7078154762
  0
LINE
  5
405
100
AcDbEntity
  8
7_ALL_ROUNDS
100
AcDbLine
 62
7
  6
CONTINUOUS
 10
99.4359609223
 20
146.7078154762
 11
100.1869609223
 21
146.7078154762
  0
LINE
  5
406
100
AcDbEntity
  8
0
100
AcDbLine
 62
7
  6
CONTINUOUS
 10
71.3239609223
 20
146.8068154762
 11
71.7604750479
 21
146.8068154762
  0
LINE
  5
407
100
AcDbEntity
  8
0
100
AcDbLine
 62
7
  6
CONTINUOUS
 10
98.7634433194
 20
146.8068154762
 11
99.1999609223
 21
146.8068154762
  0
LINE
  5
408
100
AcDbEntity
  8
0
100
AcDbLine
 62
7
  6
CONTINUOUS
 10
71.4029609223
 20
146.8858154762
 11
71.8445940204
 21
146.8858154762
  0
LINE
  5
409
100
AcDbEntity
  8
0
100
AcDbLine
 62
7
  6
CONTINUOUS
 10
98.6793227713
 20
146.8858154762
 11
99.1209609223
 21
146.8858154762
  0
LINE
  5
40A
100
AcDbEntity
  8
7_ALL_ROUNDS
100
AcDbLine
 62
7
  6
CONTINUOUS
 10
100.2619609223
 20
146.9578154762
 11
100.1869609223
 21
146.9578154762
  0
LINE
  5
40B
100
AcDbEntity
  8
7_ALL_ROUNDS
100
AcDbLine
 62
7
  6
CONTINUOUS
 10
70.3369609223
 20
146.9578154762
 11
70.2619609223
 21
146.9578154762
  0
LINE
  5
40C
100
AcDbEntity
  8
0
100
AcDbLine
 62
7
  6
CONTINUOUS
 10
71.2639609223
 20
147.0928152016
 11
71.1879609223
 21
147.0928152016
  0
LINE
  5
40D
100
AcDbEntity
  8
0
100
AcDbLine
 62
7
  6
CONTINUOUS
 10
99.2599609223
 20
147.0928152016
 11
99.3359609223
 21
147.0928152016
  0
LINE
  5
40E
100
AcDbEntity
  8
7_ALL_ROUNDS
100
AcDbLine
 62
7
  6
CONTINUOUS
 10
100.2619609223
 20
147.4578154762
 11
100.1869609223
 21
147.4578154762
  0
LINE
  5
40F
100
AcDbEntity
  8
7_ALL_ROUNDS
100
AcDbLine
 62
7
  6
CONTINUOUS
 10
70.3369609223
 20
147.4578154762
 11
70.2619609223
 21
147.4578154762
  0
LINE
  5
410
100
AcDbEntity
  8
0
100
AcDbLine
 62
7
  6
CONTINUOUS
 10
71.2639609223
 20
147.8989032886
 11
71.1879609223
 21
147.8989032886
  0
LINE
  5
411
100
AcDbEntity
  8
0
100
AcDbLine
 62
7
  6
CONTINUOUS
 10
99.2599609223
 20
147.8989032886
 11
99.3359609223
 21
147.8989032886
  0
LINE
  5
412
100
AcDbEntity
  8
0
100
AcDbLine
 62
7
  6
CONTINUOUS
 10
71.1879609223
 20
147.9810295657
 11
71.2639609223
 21
147.9810295657
  0
LINE
  5
413
100
AcDbEntity
  8
0
100
AcDbLine
 62
7
  6
CONTINUOUS
 10
99.2599609223
 20
147.9810295657
 11
99.3359609223
 21
147.9810295657
  0
LINE
  5
414
100
AcDbEntity
  8
0
100
AcDbLine
 62
7
  6
CONTINUOUS
 10
77.6369609223
 20
146.3818154762
 11
77.6369609223
 21
146.3518154762
  0
LINE
  5
415
100
AcDbEntity
  8
0
100
AcDbLine
 62
7
  6
CONTINUOUS
 10
78.7619609223
 20
156.2584059978
 11
78.7619609223
 21
156.6319790096
  0
LINE
  5
416
100
AcDbEntity
  8
0
100
AcDbLine
 62
7
  6
CONTINUOUS
 10
79.5119609221
 20
157.7626050835
 11
79.5119609221
 21
158.1143147593
  0
LINE
  5
417
100
AcDbEntity
  8
0
100
AcDbLine
 62
7
  6
CONTINUOUS
 10
79.6739296677
 20
156.6319790096
 11
79.6739296677
 21
157.6548008645
  0
LINE
  5
418
100
AcDbEntity
  8
0
100
AcDbLine
 62
7
  6
CONTINUOUS
 10
80.0161977003
 20
161.0432405138
 11
79.862224768
 21
158.1164726063
  0
LINE
  5
419
100
AcDbEntity
  8
0
100
AcDbLine
 62
7
  6
CONTINUOUS
 10
88.7563037279
 20
163.3490962388
 11
88.8046550121
 21
163.3666276998
  0
LINE
  5
41A
100
AcDbEntity
  8
0
100
AcDbLine
 62
7
  6
CONTINUOUS
 10
88.7563037279
 20
163.3386375497
 11
88.8080065572
 21
163.3573842313
  0
LINE
  5
41B
100
AcDbEntity
  8
0
100
AcDbLine
 62
7
  6
CONTINUOUS
 10
88.7563037279
 20
163.3044724986
 11
88.8046550121
 21
163.3220039595
  0
LINE
  5
41C
100
AcDbEntity
  8
0
100
AcDbLine
 62
7
  6
CONTINUOUS
 10
88.7563037279
 20
163.2940138094
 11
88.8080065572
 21
163.312760491
  0
LINE
  5
41D
100
AcDbEntity
  8
0
100
AcDbLine
 62
7
  6
CONTINUOUS
 10
88.7563037279
 20
163.2598487583
 11
88.8047388008
 21
163.2774105997
  0
LINE
  5
41E
100
AcDbEntity
  8
0
100
AcDbLine
 62
7
  6
CONTINUOUS
 10
88.7563037279
 20
163.2493900691
 11
88.8080903458
 21
163.2681671313
  0
LINE
  5
41F
100
AcDbEntity
  8
0
100
AcDbLine
 62
7
  6
CONTINUOUS
 10
88.7563037279
 20
163.215225018
 11
88.8190387262
 21
163.237971801
  0
LINE
  5
420
100
AcDbEntity
  8
0
100
AcDbLine
 62
7
  6
CONTINUOUS
 10
88.7563037279
 20
163.2047663289
 11
88.8223902712
 21
163.2287283325
  0
LINE
  5
421
100
AcDbEntity
  8
0
100
AcDbLine
 62
7
  6
CONTINUOUS
 10
88.7563037279
 20
163.1706012777
 11
88.8302251893
 21
163.1974041069
  0
LINE
  5
422
100
AcDbEntity
  8
0
100
AcDbLine
 62
7
  6
CONTINUOUS
 10
88.7563037279
 20
163.1604040558
 11
88.8384434066
 21
163.1901866891
  0
LINE
  5
423
100
AcDbEntity
  8
0
100
AcDbLine
 62
7
  6
CONTINUOUS
 10
80.6480656758
 20
156.2776156135
 11
80.6480656758
 21
157.4082416874
  0
LINE
  5
424
100
AcDbEntity
  8
0
100
AcDbLine
 62
7
  6
CONTINUOUS
 10
80.6960969305
 20
157.4082416874
 11
80.6960969305
 21
157.7599513632
  0
LINE
  5
425
100
AcDbEntity
  8
0
100
AcDbLine
 62
7
  6
CONTINUOUS
 10
81.4053100258
 20
156.2334690026
 11
81.4053100258
 21
157.3640950766
  0
LINE
  5
426
100
AcDbEntity
  8
0
100
AcDbLine
 62
7
  6
CONTINUOUS
 10
81.5646878778
 20
157.378796366
 11
81.5646878778
 21
157.7305060418
  0
LINE
  5
427
100
AcDbEntity
  8
0
100
AcDbLine
 62
7
  6
CONTINUOUS
 10
81.8319609223
 20
157.3859024243
 11
81.8319609223
 21
157.3072030431
  0
LINE
  5
428
100
AcDbEntity
  8
0
100
AcDbLine
 62
7
  6
CONTINUOUS
 10
81.8886798336
 20
157.2885995832
 11
81.8886798336
 21
157.3672989644
  0
LINE
  5
429
100
AcDbEntity
  8
0
100
AcDbLine
 62
7
  6
CONTINUOUS
 10
82.0171762868
 20
156.1411027887
 11
82.0171762868
 21
157.2717288627
  0
LINE
  5
42A
100
AcDbEntity
  8
0
100
AcDbLine
 62
7
  6
CONTINUOUS
 10
82.0259609223
 20
154.8063167314
 11
82.0259609223
 21
154.8853167314
  0
LINE
  5
42B
100
AcDbEntity
  8
0
100
AcDbLine
 62
7
  6
CONTINUOUS
 10
82.2019609223
 20
156.5431208122
 11
82.2019609223
 21
157.3309670146
  0
LINE
  5
42C
100
AcDbEntity
  8
0
100
AcDbLine
 62
7
  6
CONTINUOUS
 10
82.3819609223
 20
157.5730524565
 11
82.3819609223
 21
157.3309670146
  0
LINE
  5
42D
100
AcDbEntity
  8
0
100
AcDbLine
 62
7
  6
CONTINUOUS
 10
82.3819609223
 20
156.3742532858
 11
82.3819609223
 21
155.981780393
  0
LINE
  5
42E
100
AcDbEntity
  8
0
100
AcDbLine
 62
7
  6
CONTINUOUS
 10
82.6729648593
 20
155.7671725247
 11
82.6729648593
 21
155.2559058735
  0
LINE
  5
42F
100
AcDbEntity
  8
0
100
AcDbLine
 62
7
  6
CONTINUOUS
 10
82.7619609223
 20
158.7616407467
 11
82.7619609223
 21
157.8180708101
  0
LINE
  5
430
100
AcDbEntity
  8
0
100
AcDbLine
 62
7
  6
CONTINUOUS
 10
82.8471841516
 20
157.5730524565
 11
82.8471841516
 21
157.8942217815
  0
LWPOLYLINE
  5
431
100
AcDbEntity
  8
0
100
AcDbPolyline
 62
7
  6
CONTINUOUS
 90
3
 70
0
 10
81.2885716491
 20
155.8107897528
 10
80.4700643931
 20
155.0133025874
 10
79.3392373482
 20
153.9292765362
  0
LINE
  5
432
100
AcDbEntity
  8
0
100
AcDbLine
 62
7
  6
CONTINUOUS
 10
71.6068635503
 20
146.6318154725
 11
71.6854839479
 21
146.7060410458
  0
LINE
  5
433
100
AcDbEntity
  8
7_ALL_ROUNDS
100
AcDbLine
 62
7
  6
CONTINUOUS
 10
78.6831309054
 20
153.3106798245
 11
71.5741355517
 21
146.6318154762
  0
LINE
  5
434
100
AcDbEntity
  8
0
100
AcDbLine
 62
7
  6
CONTINUOUS
 10
78.6828917504
 20
153.3104501908
 11
79.3392373482
 21
153.9292765362
  0
LINE
  5
435
100
AcDbEntity
  8
0
100
AcDbLine
 62
7
  6
CONTINUOUS
 10
82.026255458
 20
154.8063167314
 11
82.103821182
 21
154.8063167314
  0
LINE
  5
436
100
AcDbEntity
  8
0
100
AcDbLine
 62
7
  6
CONTINUOUS
 10
82.026255458
 20
154.8853167314
 11
82.2038288252
 21
154.8853167314
  0
LINE
  5
437
100
AcDbEntity
  8
0
100
AcDbLine
 62
7
  6
CONTINUOUS
 10
74.815041335
 20
146.6318154762
 11
83.6330322269
 21
155.569553731
  0
LINE
  5
438
100
AcDbEntity
  8
0
100
AcDbLine
 62
7
  6
CONTINUOUS
 10
71.7680247993
 20
146.6416616299
 11
83.1613193791
 21
155.6416764589
  0
LINE
  5
439
100
AcDbEntity
  8
0
100
AcDbLine
 62
7
  6
CONTINUOUS
 10
88.595218636
 20
156.1544585231
 11
89.1186118188
 21
156.2334690026
  0
LINE
  5
43A
100
AcDbEntity
  8
0
100
AcDbLine
 62
7
  6
CONTINUOUS
 10
87.8509569853
 20
155.6697707449
 11
87.7619609223
 21
155.6697707449
  0
LINE
  5
43B
100
AcDbEntity
  8
0
100
AcDbLine
 62
7
  6
CONTINUOUS
 10
88.5919609223
 20
156.089214675
 11
88.1419609223
 21
156.089214675
  0
LINE
  5
43C
100
AcDbEntity
  8
0
100
AcDbLine
 62
7
  6
CONTINUOUS
 10
81.4053100258
 20
156.2334690026
 11
82.0171762868
 21
156.1411027887
  0
LINE
  5
43D
100
AcDbEntity
  8
7_ALL_ROUNDS
100
AcDbLine
 62
7
  6
CONTINUOUS
 10
89.4006344365
 20
163.1901866891
 11
89.4246643445
 21
163.2410123121
  0
LINE
  5
43E
100
AcDbEntity
  8
0
100
AcDbLine
 62
7
  6
CONTINUOUS
 10
88.5962522167
 20
157.2826568638
 11
88.635242011
 21
157.2885995832
  0
LINE
  5
43F
100
AcDbEntity
  8
0
100
AcDbLine
 62
7
  6
CONTINUOUS
 10
88.5974624479
 20
157.3615407051
 11
88.635242011
 21
157.3672989644
  0
LINE
  5
440
100
AcDbEntity
  8
0
100
AcDbLine
 62
7
  6
CONTINUOUS
 10
88.6771563554
 20
157.2974537656
 11
89.1186118188
 21
157.3640950766
  0
LINE
  5
441
100
AcDbEntity
  8
0
100
AcDbLine
 62
7
  6
CONTINUOUS
 10
89.8211400621
 20
157.4597665141
 11
89.8278249141
 21
157.4606338095
  0
LINE
  5
442
100
AcDbEntity
  8
0
100
AcDbLine
 62
7
  6
CONTINUOUS
 10
89.835185276
 20
157.458833828
 11
89.8424510044
 21
157.4596667517
  0
LINE
  5
443
100
AcDbEntity
  8
0
100
AcDbLine
 62
7
  6
CONTINUOUS
 10
88.5988232172
 20
157.747103333
 11
88.5919609223
 21
157.7466124945
  0
LINE
  5
444
100
AcDbEntity
  8
0
100
AcDbLine
 62
7
  6
CONTINUOUS
 10
88.6144524106
 20
157.7453834862
 11
88.607457535
 21
157.7449014465
  0
LINE
  5
445
100
AcDbEntity
  8
0
100
AcDbLine
 62
7
  6
CONTINUOUS
 10
88.3219609223
 20
156.7785801021
 11
88.5919609223
 21
156.7785801021
  0
LINE
  5
446
100
AcDbEntity
  8
0
100
AcDbLine
 62
7
  6
CONTINUOUS
 10
88.5919609223
 20
156.8002861243
 11
88.3219609223
 21
156.8002861243
  0
LINE
  5
447
100
AcDbEntity
  8
0
100
AcDbLine
 62
7
  6
CONTINUOUS
 10
88.3219609223
 20
156.8654041909
 11
88.5919609223
 21
156.8654041909
  0
LINE
  5
448
100
AcDbEntity
  8
0
100
AcDbLine
 62
7
  6
CONTINUOUS
 10
88.5919609223
 20
156.8871102131
 11
88.3219609223
 21
156.8871102131
  0
LINE
  5
449
100
AcDbEntity
  8
0
100
AcDbLine
 62
7
  6
CONTINUOUS
 10
88.3219609223
 20
156.9522282797
 11
88.5919609223
 21
156.9522282797
  0
LINE
  5
44A
100
AcDbEntity
  8
0
100
AcDbLine
 62
7
  6
CONTINUOUS
 10
88.5919609223
 20
156.973934302
 11
88.3219609223
 21
156.973934302
  0
LINE
  5
44B
100
AcDbEntity
  8
0
100
AcDbLine
 62
7
  6
CONTINUOUS
 10
88.3219609223
 20
157.0446959344
 11
88.5919609223
 21
157.0446959344
  0
LINE
  5
44C
100
AcDbEntity
  8
0
100
AcDbLine
 62
7
  6
CONTINUOUS
 10
88.5919609223
 20
157.0664019566
 11
88.3219609223
 21
157.0664019566
  0
LINE
  5
44D
100
AcDbEntity
  8
0
100
AcDbLine
 62
7
  6
CONTINUOUS
 10
88.3219609223
 20
157.137163589
 11
88.5919609223
 21
157.137163589
  0
LINE
  5
44E
100
AcDbEntity
  8
0
100
AcDbLine
 62
7
  6
CONTINUOUS
 10
88.5919609223
 20
157.1588696112
 11
88.3219609223
 21
157.1588696112
  0
LINE
  5
44F
100
AcDbEntity
  8
0
100
AcDbLine
 62
7
  6
CONTINUOUS
 10
88.3219609223
 20
157.2239876778
 11
88.5919609223
 21
157.2239876778
  0
LINE
  5
450
100
AcDbEntity
  8
0
100
AcDbLine
 62
7
  6
CONTINUOUS
 10
88.5919609223
 20
157.2456937
 11
88.3219609223
 21
157.2456937
  0
LINE
  5
451
100
AcDbEntity
  8
0
100
AcDbLine
 62
7
  6
CONTINUOUS
 10
88.3219609223
 20
157.3108117666
 11
88.5919609223
 21
157.3108117666
  0
LINE
  5
452
100
AcDbEntity
  8
0
100
AcDbLine
 62
7
  6
CONTINUOUS
 10
88.5919609223
 20
157.3325177888
 11
88.3219609223
 21
157.3325177888
  0
LINE
  5
453
100
AcDbEntity
  8
0
100
AcDbLine
 62
7
  6
CONTINUOUS
 10
88.5919609223
 20
157.3976358555
 11
88.3219609223
 21
157.3976358555
  0
LINE
  5
454
100
AcDbEntity
  8
0
100
AcDbLine
 62
7
  6
CONTINUOUS
 10
88.5919609223
 20
157.4193418777
 11
88.2601655653
 21
157.4193418777
  0
LINE
  5
455
100
AcDbEntity
  8
0
100
AcDbLine
 62
7
  6
CONTINUOUS
 10
88.1755392502
 20
157.4844599443
 11
88.5919609223
 21
157.4844599443
  0
LINE
  5
456
100
AcDbEntity
  8
0
100
AcDbLine
 62
7
  6
CONTINUOUS
 10
88.5919609223
 20
157.5061659665
 11
88.1419609223
 21
157.5061659665
  0
LINE
  5
457
100
AcDbEntity
  8
0
100
AcDbLine
 62
7
  6
CONTINUOUS
 10
88.1419609223
 20
157.5712840331
 11
88.5919609223
 21
157.5712840331
  0
LINE
  5
458
100
AcDbEntity
  8
0
100
AcDbLine
 62
7
  6
CONTINUOUS
 10
88.5919609223
 20
157.5929900553
 11
88.1419609223
 21
157.5929900553
  0
LINE
  5
459
100
AcDbEntity
  8
0
100
AcDbLine
 62
7
  6
CONTINUOUS
 10
88.0785402709
 20
157.6637516877
 11
88.5919609223
 21
157.6637516877
  0
LINE
  5
45A
100
AcDbEntity
  8
0
100
AcDbLine
 62
7
  6
CONTINUOUS
 10
88.5919609223
 20
157.6854577099
 11
88.063362523
 21
157.6854577099
  0
LINE
  5
45B
100
AcDbEntity
  8
0
100
AcDbLine
 62
7
  6
CONTINUOUS
 10
87.9369609223
 20
157.7562193423
 11
88.5919609223
 21
157.7562193423
  0
LINE
  5
45C
100
AcDbEntity
  8
0
100
AcDbLine
 62
7
  6
CONTINUOUS
 10
88.5919609223
 20
157.7779253646
 11
87.9369609223
 21
157.7779253646
  0
LINE
  5
45D
100
AcDbEntity
  8
0
100
AcDbLine
 62
7
  6
CONTINUOUS
 10
87.9369609223
 20
157.8430434312
 11
88.5919609223
 21
157.8430434312
  0
LINE
  5
45E
100
AcDbEntity
  8
0
100
AcDbLine
 62
7
  6
CONTINUOUS
 10
80.6814708402
 20
157.4596667517
 11
80.6887365686
 21
157.458833828
  0
LINE
  5
45F
100
AcDbEntity
  8
0
100
AcDbLine
 62
7
  6
CONTINUOUS
 10
80.6960969305
 20
157.4606338095
 11
80.7027817825
 21
157.4597665141
  0
LINE
  5
460
100
AcDbEntity
  8
0
100
AcDbLine
 62
7
  6
CONTINUOUS
 10
81.4053100258
 20
157.3640950766
 11
81.8467654892
 21
157.2974537656
  0
LINE
  5
461
100
AcDbEntity
  8
0
100
AcDbLine
 62
7
  6
CONTINUOUS
 10
82.2019609223
 20
157.2408501236
 11
81.8886798336
 21
157.2885995832
  0
LINE
  5
462
100
AcDbEntity
  8
0
100
AcDbLine
 62
7
  6
CONTINUOUS
 10
82.2002602056
 20
157.3198087234
 11
81.8886798336
 21
157.3672989644
  0
LINE
  5
463
100
AcDbEntity
  8
0
100
AcDbLine
 62
7
  6
CONTINUOUS
 10
98.7558970453
 20
146.6416616299
 11
87.3626024655
 21
155.6416764589
  0
LINE
  5
464
100
AcDbEntity
  8
0
100
AcDbLine
 62
7
  6
CONTINUOUS
 10
95.7088805096
 20
146.6318154762
 11
86.8908896177
 21
155.569553731
  0
LINE
  5
465
100
AcDbEntity
  8
0
100
AcDbLine
 62
7
  6
CONTINUOUS
 10
87.676737693
 20
157.5730524565
 11
87.676737693
 21
157.8942217815
  0
LINE
  5
466
100
AcDbEntity
  8
0
100
AcDbLine
 62
7
  6
CONTINUOUS
 10
87.7619609223
 20
155.7367620394
 11
87.7619609223
 21
155.6697707449
  0
LINE
  5
467
100
AcDbEntity
  8
0
100
AcDbLine
 62
7
  6
CONTINUOUS
 10
87.7619609223
 20
157.8180708101
 11
87.7619609223
 21
158.7616407467
  0
LINE
  5
468
100
AcDbEntity
  8
7_ALL_ROUNDS
100
AcDbLine
 62
7
  6
CONTINUOUS
 10
89.4246643445
 20
163.4192458061
 11
89.4303760677
 21
163.4447143189
  0
LINE
  5
469
100
AcDbEntity
  8
7_ALL_ROUNDS
100
AcDbLine
 62
7
  6
CONTINUOUS
 10
89.4246643445
 20
163.3746220658
 11
89.4303760677
 21
163.4000905786
  0
LINE
  5
46A
100
AcDbEntity
  8
7_ALL_ROUNDS
100
AcDbLine
 62
7
  6
CONTINUOUS
 10
89.4246643445
 20
163.3299983255
 11
89.4303760677
 21
163.3554668384
  0
LINE
  5
46B
100
AcDbEntity
  8
7_ALL_ROUNDS
100
AcDbLine
 62
7
  6
CONTINUOUS
 10
89.4246643445
 20
163.2853745852
 11
89.4303760677
 21
163.3108430981
  0
LINE
  5
46C
100
AcDbEntity
  8
0
100
AcDbLine
 62
7
  6
CONTINUOUS
 10
88.5919609223
 20
157.8647494534
 11
87.9369609223
 21
157.8647494534
  0
LINE
  5
46D
100
AcDbEntity
  8
0
100
AcDbLine
 62
7
  6
CONTINUOUS
 10
87.9369609223
 20
157.92986752
 11
88.5919609223
 21
157.92986752
  0
LINE
  5
46E
100
AcDbEntity
  8
0
100
AcDbLine
 62
7
  6
CONTINUOUS
 10
87.7619609223
 20
157.9515735422
 11
88.5919609223
 21
157.9515735422
  0
LINE
  5
46F
100
AcDbEntity
  8
0
100
AcDbLine
 62
7
  6
CONTINUOUS
 10
87.7619609223
 20
158.7616407467
 11
87.5837779637
 21
158.7616407467
  0
LINE
  5
470
100
AcDbEntity
  8
0
100
AcDbLine
 62
7
  6
CONTINUOUS
 10
82.9401438809
 20
158.7616407467
 11
82.7619609223
 21
158.7616407467
  0
LINE
  5
471
100
AcDbEntity
  8
7_ALL_ROUNDS
100
AcDbLine
 62
7
  6
CONTINUOUS
 10
98.9497863057
 20
146.6318154762
 11
91.8501212036
 21
153.3019222512
  0
LWPOLYLINE
  5
472
100
AcDbEntity
  8
0
100
AcDbPolyline
 62
7
  6
CONTINUOUS
 90
4
 70
0
 10
91.8501501694
 20
153.3018946025
 10
91.1880709085
 20
153.926061982
 10
90.0558832568
 20
155.0113439125
 10
89.2353555358
 20
155.8107901771
  0
LINE
  5
473
100
AcDbEntity
  8
0
100
AcDbLine
 62
7
  6
CONTINUOUS
 10
98.9170583114
 20
146.6318154308
 11
98.8384593269
 21
146.706009376
  0
LINE
  5
474
100
AcDbEntity
  8
0
100
AcDbLine
 62
7
  6
CONTINUOUS
 10
87.8509569853
 20
155.6697707449
 11
87.8509569853
 21
155.2559058735
  0
LINE
  5
475
100
AcDbEntity
  8
7_ALL_ROUNDS
100
AcDbLine
 62
7
  6
CONTINUOUS
 10
87.8509569853
 20
155.6697707449
 11
87.8509569853
 21
155.7671725247
  0
LINE
  5
476
100
AcDbEntity
  8
0
100
AcDbLine
 62
7
  6
CONTINUOUS
 10
87.9369609223
 20
157.92986752
 11
87.9369609223
 21
157.8647494534
  0
LINE
  5
477
100
AcDbEntity
  8
0
100
AcDbLine
 62
7
  6
CONTINUOUS
 10
87.9369609223
 20
157.8430434312
 11
87.9369609223
 21
157.7779253646
  0
LINE
  5
478
100
AcDbEntity
  8
0
100
AcDbLine
 62
7
  6
CONTINUOUS
 10
88.1419609223
 20
155.981780393
 11
88.1419609223
 21
156.3742532858
  0
LINE
  5
479
100
AcDbEntity
  8
0
100
AcDbLine
 62
7
  6
CONTINUOUS
 10
88.1419609223
 20
157.3309670146
 11
88.1419609223
 21
157.5730524565
  0
LINE
  5
47A
100
AcDbEntity
  8
0
100
AcDbLine
 62
7
  6
CONTINUOUS
 10
88.3219609223
 20
156.5431208122
 11
88.3219609223
 21
157.3309670146
  0
LINE
  5
47B
100
AcDbEntity
  8
0
100
AcDbLine
 62
7
  6
CONTINUOUS
 10
88.5919609223
 20
156.089214675
 11
88.5919609223
 21
157.9515735422
  0
LINE
  5
47C
100
AcDbEntity
  8
0
100
AcDbLine
 62
7
  6
CONTINUOUS
 10
88.6306344365
 20
163.1565661789
 11
88.6306344365
 21
163.3690617414
  0
LINE
  5
47D
100
AcDbEntity
  8
0
100
AcDbLine
 62
7
  6
CONTINUOUS
 10
88.635242011
 20
157.2885995832
 11
88.635242011
 21
157.3672989644
  0
LINE
  5
47E
100
AcDbEntity
  8
0
100
AcDbLine
 62
7
  6
CONTINUOUS
 10
88.6919609223
 20
157.3072030431
 11
88.6919609223
 21
157.3859024243
  0
LINE
  5
47F
100
AcDbEntity
  8
0
100
AcDbLine
 62
7
  6
CONTINUOUS
 10
88.7563037279
 20
163.2047663289
 11
88.7563037279
 21
163.1706012777
  0
LINE
  5
480
100
AcDbEntity
  8
0
100
AcDbLine
 62
7
  6
CONTINUOUS
 10
88.7563037279
 20
163.2493900691
 11
88.7563037279
 21
163.215225018
  0
LINE
  5
481
100
AcDbEntity
  8
0
100
AcDbLine
 62
7
  6
CONTINUOUS
 10
88.7563037279
 20
163.2940138094
 11
88.7563037279
 21
163.266480825
  0
LINE
  5
482
100
AcDbEntity
  8
0
100
AcDbLine
 62
7
  6
CONTINUOUS
 10
88.7563037279
 20
163.1604040558
 11
88.7563037279
 21
163.1070779096
  0
LINE
  5
483
100
AcDbEntity
  8
0
100
AcDbLine
 62
7
  6
CONTINUOUS
 10
88.7563037279
 20
163.3108430981
 11
88.7563037279
 21
163.3386375497
  0
LINE
  5
484
100
AcDbEntity
  8
0
100
AcDbLine
 62
7
  6
CONTINUOUS
 10
88.9592339668
 20
157.378796366
 11
88.9592339668
 21
157.7305060418
  0
LINE
  5
485
100
AcDbEntity
  8
7_ALL_ROUNDS
100
AcDbLine
 62
7
  6
CONTINUOUS
 10
89.4246643445
 20
163.2410123121
 11
89.4303760677
 21
163.266480825
  0
LINE
  5
486
100
AcDbEntity
  8
0
100
AcDbLine
 62
7
  6
CONTINUOUS
 10
89.1186118188
 20
156.2334690026
 11
89.1186118188
 21
157.3640950766
  0
LINE
  5
487
100
AcDbEntity
  8
0
100
AcDbLine
 62
7
  6
CONTINUOUS
 10
89.4649651452
 20
163.345094819
 11
89.4649651452
 21
163.310843068
  0
LINE
  5
488
100
AcDbEntity
  8
0
100
AcDbLine
 62
7
  6
CONTINUOUS
 10
89.4649651452
 20
163.177058547
 11
89.4649651452
 21
163.2112235981
  0
LINE
  5
489
100
AcDbEntity
  8
0
100
AcDbLine
 62
7
  6
CONTINUOUS
 10
89.4649651452
 20
163.2216822873
 11
89.4649651452
 21
163.2558473384
  0
LINE
  5
48A
100
AcDbEntity
  8
0
100
AcDbLine
 62
7
  6
CONTINUOUS
 10
89.4649651452
 20
163.2664807949
 11
89.4649651452
 21
163.3004710787
  0
LINE
  5
48B
100
AcDbEntity
  8
0
100
AcDbLine
 62
7
  6
CONTINUOUS
 10
89.4649651452
 20
162.7063587734
 11
89.4649651452
 21
163.1668613251
  0
LINE
  5
48C
100
AcDbEntity
  8
0
100
AcDbLine
 62
7
  6
CONTINUOUS
 10
89.8278249141
 20
157.4082416874
 11
89.8278249141
 21
157.7599513632
  0
LINE
  5
48D
100
AcDbEntity
  8
0
100
AcDbLine
 62
7
  6
CONTINUOUS
 10
89.8758561688
 20
156.2776156135
 11
89.8758561688
 21
157.4082416874
  0
LINE
  5
48E
100
AcDbEntity
  8
7_ALL_ROUNDS
100
AcDbLine
 62
7
  6
CONTINUOUS
 10
88.8087017755
 20
163.266480825
 11
88.8144134987
 21
163.2410123121
  0
LINE
  5
48F
100
AcDbEntity
  8
7_ALL_ROUNDS
100
AcDbLine
 62
7
  6
CONTINUOUS
 10
88.8087017755
 20
163.3108430981
 11
88.8144134987
 21
163.2853745852
  0
LINE
  5
490
100
AcDbEntity
  8
7_ALL_ROUNDS
100
AcDbLine
 62
7
  6
CONTINUOUS
 10
88.8087017755
 20
163.3554668384
 11
88.8144134987
 21
163.3299983255
  0
LINE
  5
491
100
AcDbEntity
  8
7_ALL_ROUNDS
100
AcDbLine
 62
7
  6
CONTINUOUS
 10
88.8087017755
 20
163.4000905786
 11
88.8144134987
 21
163.3746220658
  0
LINE
  5
492
100
AcDbEntity
  8
7_ALL_ROUNDS
100
AcDbLine
 62
7
  6
CONTINUOUS
 10
88.8087017755
 20
163.4447143189
 11
88.8144134987
 21
163.4192458061
  0
LINE
  5
493
100
AcDbEntity
  8
0
100
AcDbLine
 62
7
  6
CONTINUOUS
 10
90.5077241443
 20
161.0432405138
 11
90.6616970766
 21
158.1164726063
  0
LINE
  5
494
100
AcDbEntity
  8
0
100
AcDbLine
 62
7
  6
CONTINUOUS
 10
90.8499921769
 20
156.6319790096
 11
90.8499921769
 21
157.6548008645
  0
LINE
  5
495
100
AcDbEntity
  8
0
100
AcDbLine
 62
7
  6
CONTINUOUS
 10
91.0119609225
 20
157.7626050835
 11
91.0119609225
 21
158.1143147593
  0
LINE
  5
496
100
AcDbEntity
  8
7_ALL_ROUNDS
100
AcDbLine
 62
7
  6
CONTINUOUS
 10
88.8144134987
 20
163.2410123121
 11
88.8384434066
 21
163.1901866891
  0
LINE
  5
497
100
AcDbEntity
  8
0
100
AcDbLine
 62
7
  6
CONTINUOUS
 10
91.7619609223
 20
156.2584059978
 11
91.7619609223
 21
156.6319790096
  0
LINE
  5
498
100
AcDbEntity
  8
0
100
AcDbLine
 62
7
  6
CONTINUOUS
 10
89.6912010635
 20
162.7017562209
 11
89.4649651452
 21
162.7017562209
  0
LINE
  5
499
100
AcDbEntity
  8
7_ALL_ROUNDS
100
AcDbLine
 62
7
  6
CONTINUOUS
 10
89.3703836712
 20
163.3262524768
 11
88.868694172
 21
163.3262524768
  0
LINE
  5
49A
100
AcDbEntity
  8
7_ALL_ROUNDS
100
AcDbLine
 62
7
  6
CONTINUOUS
 10
89.3703836712
 20
163.3364496987
 11
88.868694172
 21
163.3364496987
  0
LINE
  5
49B
100
AcDbEntity
  8
7_ALL_ROUNDS
100
AcDbLine
 62
7
  6
CONTINUOUS
 10
89.3703836712
 20
163.3706147498
 11
88.868694172
 21
163.3706147498
  0
LINE
  5
49C
100
AcDbEntity
  8
7_ALL_ROUNDS
100
AcDbLine
 62
7
  6
CONTINUOUS
 10
89.3703836712
 20
163.381073439
 11
88.868694172
 21
163.381073439
  0
LINE
  5
49D
100
AcDbEntity
  8
7_ALL_ROUNDS
100
AcDbLine
 62
7
  6
CONTINUOUS
 10
89.3703836712
 20
163.4152384901
 11
88.868694172
 21
163.4152384901
  0
LINE
  5
49E
100
AcDbEntity
  8
7_ALL_ROUNDS
100
AcDbLine
 62
7
  6
CONTINUOUS
 10
89.3703836712
 20
163.4256971793
 11
88.868694172
 21
163.4256971793
  0
LINE
  5
49F
100
AcDbEntity
  8
7_ALL_ROUNDS
100
AcDbLine
 62
7
  6
CONTINUOUS
 10
89.3703836712
 20
163.4598622304
 11
88.868694172
 21
163.4598622304
  0
LINE
  5
4A0
100
AcDbEntity
  8
7_ALL_ROUNDS
100
AcDbLine
 62
7
  6
CONTINUOUS
 10
89.3703836712
 20
163.4703209195
 11
88.868694172
 21
163.4703209195
  0
LINE
  5
4A1
100
AcDbEntity
  8
7_ALL_ROUNDS
100
AcDbLine
 62
7
  6
CONTINUOUS
 10
88.868694172
 20
163.5044859707
 11
89.3703836712
 21
163.5044859707
  0
LINE
  5
4A2
100
AcDbEntity
  8
7_ALL_ROUNDS
100
AcDbLine
 62
7
  6
CONTINUOUS
 10
88.868694172
 20
163.5149446598
 11
89.3703836712
 21
163.5149446598
  0
LINE
  5
4A3
100
AcDbEntity
  8
0
100
AcDbLine
 62
7
  6
CONTINUOUS
 10
86.9499609223
 20
163.8268154762
 11
83.5739609223
 21
163.8268154762
  0
LINE
  5
4A4
100
AcDbEntity
  8
0
100
AcDbLine
 62
7
  6
CONTINUOUS
 10
92.8869609223
 20
146.3818154762
 11
92.8869609223
 21
146.3518154762
  0
LINE
  5
4A5
100
AcDbEntity
  8
0
100
AcDbLine
 62
7
  6
CONTINUOUS
 10
89.4649651452
 20
163.1668613251
 11
89.4006344365
 21
163.1901866891
  0
LINE
  5
4A6
100
AcDbEntity
  8
0
100
AcDbLine
 62
7
  6
CONTINUOUS
 10
89.4649651452
 20
163.177058547
 11
89.4088526539
 21
163.1974041069
  0
LINE
  5
4A7
100
AcDbEntity
  8
0
100
AcDbLine
 62
7
  6
CONTINUOUS
 10
89.4649651452
 20
163.2112235981
 11
89.4166943016
 21
163.2287258925
  0
LINE
  5
4A8
100
AcDbEntity
  8
0
100
AcDbLine
 62
7
  6
CONTINUOUS
 10
89.4649651452
 20
163.2216822873
 11
89.4200458467
 21
163.2379693609
  0
LINE
  5
4A9
100
AcDbEntity
  8
0
100
AcDbLine
 62
7
  6
CONTINUOUS
 10
89.4649651452
 20
163.2558473384
 11
89.4309942271
 21
163.2681646912
  0
LINE
  5
4AA
100
AcDbEntity
  8
0
100
AcDbLine
 62
7
  6
CONTINUOUS
 10
89.4649651452
 20
163.2663060276
 11
89.4343457721
 21
163.2774081596
  0
LINE
  5
4AB
100
AcDbEntity
  8
0
100
AcDbLine
 62
7
  6
CONTINUOUS
 10
89.4649651452
 20
163.3004710787
 11
89.4310780157
 21
163.312758051
  0
LINE
  5
4AC
100
AcDbEntity
  8
0
100
AcDbLine
 62
7
  6
CONTINUOUS
 10
89.4649651452
 20
163.3109297679
 11
89.4344295607
 21
163.3220015194
  0
LINE
  5
4AD
100
AcDbEntity
  8
0
100
AcDbLine
 62
7
  6
CONTINUOUS
 10
89.4649651452
 20
163.345094819
 11
89.4310780157
 21
163.3573817912
  0
LINE
  5
4AE
100
AcDbEntity
  8
0
100
AcDbLine
 62
7
  6
CONTINUOUS
 10
89.4649651452
 20
163.3555535081
 11
89.4344295607
 21
163.3666252597
  0
LINE
  5
4AF
100
AcDbEntity
  8
0
100
AcDbLine
 62
7
  6
CONTINUOUS
 10
89.6912010635
 20
162.7017562209
 11
89.835965403
 21
162.6293844617
  0
LINE
  5
4B0
100
AcDbEntity
  8
0
100
AcDbLine
 62
7
  6
CONTINUOUS
 10
96.0132124553
 20
166.4068154762
 11
74.5107093893
 21
166.4068154762
  0
LINE
  5
4B1
100
AcDbEntity
  8
0
100
AcDbLine
 62
7
  6
CONTINUOUS
 10
96.0796591322
 20
166.4858154762
 11
74.4442627124
 21
166.4858154762
  0
LINE
  5
4B2
100
AcDbEntity
  8
0
100
AcDbLine
 62
7
  6
CONTINUOUS
 10
70.2619609223
 20
166.6318154762
 11
100.2619609223
 21
166.6318154762
  0
LINE
  5
4B3
100
AcDbEntity
  8
0
100
AcDbLine
 62
7
  6
CONTINUOUS
 10
99.1209609223
 20
148.5372617909
 11
96.0132124553
 21
166.4068154762
  0
LINE
  5
4B4
100
AcDbEntity
  8
0
100
AcDbLine
 62
7
  6
CONTINUOUS
 10
99.1999609223
 20
148.5440801834
 11
96.0796591322
 21
166.4858154762
  0
LINE
  5
4B5
100
AcDbEntity
  8
0
100
AcDbLine
 62
7
  6
CONTINUOUS
 10
99.1209609223
 20
146.8858154762
 11
99.1209609223
 21
148.5372617909
  0
LINE
  5
4B6
100
AcDbEntity
  8
0
100
AcDbLine
 62
7
  6
CONTINUOUS
 10
99.1999609223
 20
146.8068154762
 11
99.1999609223
 21
148.5440801834
  0
LINE
  5
4B7
100
AcDbEntity
  8
0
100
AcDbLine
 62
7
  6
CONTINUOUS
 10
99.2599609223
 20
146.6318154762
 11
99.2599609223
 21
147.9807765269
  0
LINE
  5
4B8
100
AcDbEntity
  8
0
100
AcDbLine
 62
7
  6
CONTINUOUS
 10
99.3359609223
 20
147.9807765269
 11
99.3359609223
 21
146.7078154762
  0
LINE
  5
4B9
100
AcDbEntity
  8
0
100
AcDbLine
 62
7
  6
CONTINUOUS
 10
99.4359609223
 20
146.6318154762
 11
99.4359609223
 21
146.7078154762
  0
LINE
  5
4BA
100
AcDbEntity
  8
7_ALL_ROUNDS
100
AcDbLine
 62
7
  6
CONTINUOUS
 10
99.7619609223
 20
146.7078154762
 11
99.7619609223
 21
146.6318154762
  0
LINE
  5
4BB
100
AcDbEntity
  8
7_ALL_ROUNDS
100
AcDbLine
 62
7
  6
CONTINUOUS
 10
100.1019609223
 20
146.7078154762
 11
100.1019609223
 21
146.6318154762
  0
LINE
  5
4BC
100
AcDbEntity
  8
0
100
AcDbLine
 62
7
  6
CONTINUOUS
 10
100.1869609223
 20
146.3818154762
 11
100.1869609223
 21
146.6318154762
  0
LINE
  5
4BD
100
AcDbEntity
  8
7_ALL_ROUNDS
100
AcDbLine
 62
7
  6
CONTINUOUS
 10
100.1869609223
 20
146.7078154762
 11
100.1869609223
 21
147.4578154762
  0
LINE
  5
4BE
100
AcDbEntity
  8
7_ALL_ROUNDS
100
AcDbLine
 62
7
  6
CONTINUOUS
 10
100.2619609223
 20
146.3818154762
 11
100.2619609223
 21
147.4578154762
  0
LINE
  5
4BF
100
AcDbEntity
  8
0
100
AcDbLine
 62
7
  6
CONTINUOUS
 10
100.2619609223
 20
147.4578154762
 11
100.2619609223
 21
166.6318154762
  0
LINE
  5
4C0
100
AcDbEntity
  8
7_ALL_ROUNDS
100
AcDbLine
 62
7
  6
CONTINUOUS
 10
178.8658184524
 20
53.8365152806
 11
177.6158184524
 21
53.8365152806
  0
LINE
  5
4C1
100
AcDbEntity
  8
7_ALL_ROUNDS
100
AcDbLine
 62
7
  6
CONTINUOUS
 10
163.6158184524
 20
53.8365152806
 11
162.3658184524
 21
53.8365152806
  0
LINE
  5
4C2
100
AcDbEntity
  8
7_ALL_ROUNDS
100
AcDbLine
 62
7
  6
CONTINUOUS
 10
178.9908184524
 20
53.9615152806
 11
177.4908184524
 21
53.9615152806
  0
LINE
  5
4C3
100
AcDbEntity
  8
7_ALL_ROUNDS
100
AcDbLine
 62
7
  6
CONTINUOUS
 10
163.7408184524
 20
53.9615152806
 11
162.2408184524
 21
53.9615152806
  0
LINE
  5
4C4
100
AcDbEntity
  8
0
100
AcDbLine
 62
7
  6
CONTINUOUS
 10
180.7408184524
 20
54.5865152806
 11
160.4908184524
 21
54.5865152806
  0
LINE
  5
4C5
100
AcDbEntity
  8
0
100
AcDbLine
 62
7
  6
CONTINUOUS
 10
160.4908184524
 20
55.9024601625
 11
160.4608184524
 21
55.9024601625
  0
LINE
  5
4C6
100
AcDbEntity
  8
0
100
AcDbLine
 62
7
  6
CONTINUOUS
 10
161.5668184524
 20
99.5289481373
 11
170.2896148952
 21
105.5173787513
  0
LINE
  5
4C7
100
AcDbEntity
  8
7_ALL_ROUNDS
100
AcDbLine
 62
7
  6
CONTINUOUS
 10
171.8708184524
 20
64.2865152806
 11
176.5408184524
 21
64.2865152806
  0
LINE
  5
4C8
100
AcDbEntity
  8
5_ALL_CURVES
100
AcDbLine
 62
4
  6
CONTINUOUS
 10
171.6808184524
 20
64.2865152806
 11
176.7308184524
 21
64.2865152806
  0
LINE
  5
4C9
100
AcDbEntity
  8
7_ALL_ROUNDS
100
AcDbLine
 62
7
  6
CONTINUOUS
 10
176.5088184524
 20
64.3258853594
 11
171.9028184524
 21
64.3258853594
  0
LINE
  5
4CA
100
AcDbEntity
  8
5_ALL_CURVES
100
AcDbLine
 62
4
  6
CONTINUOUS
 10
171.7158184524
 20
64.3258853594
 11
176.6958184524
 21
64.3258853594
  0
LINE
  5
4CB
100
AcDbEntity
  8
7_ALL_ROUNDS
100
AcDbLine
 62
7
  6
CONTINUOUS
 10
172.574617665
 20
64.997184572
 11
175.8370192398
 21
64.997184572
  0
LINE
  5
4CC
100
AcDbEntity
  8
0
100
AcDbLine
 62
7
  6
CONTINUOUS
 10
172.6156606571
 20
69.0820664617
 11
175.8056606571
 21
69.0820664617
  0
LINE
  5
4CD
100
AcDbEntity
  8
0
100
AcDbLine
 62
7
  6
CONTINUOUS
 10
172.7406606571
 20
69.1820664617
 11
173.1156527831
 21
69.1820664617
  0
LINE
  5
4CE
100
AcDbEntity
  8
0
100
AcDbLine
 62
7
  6
CONTINUOUS
 10
173.2406527831
 20
69.1820664617
 11
173.6156527831
 21
69.1820664617
  0
LINE
  5
4CF
100
AcDbEntity
  8
0
100
AcDbLine
 62
7
  6
CONTINUOUS
 10
173.7406527831
 20
69.1820664617
 11
174.1481527831
 21
69.1820664617
  0
LINE
  5
4D0
100
AcDbEntity
  8
0
100
AcDbLine
 62
7
  6
CONTINUOUS
 10
174.2731527831
 20
69.1820664617
 11
174.6806527831
 21
69.1820664617
  0
LINE
  5
4D1
100
AcDbEntity
  8
0
100
AcDbLine
 62
7
  6
CONTINUOUS
 10
174.8056527831
 20
69.1820664617
 11
175.1806527831
 21
69.1820664617
  0
LINE
  5
4D2
100
AcDbEntity
  8
0
100
AcDbLine
 62
7
  6
CONTINUOUS
 10
175.3056527831
 20
69.1820664617
 11
175.6806606571
 21
69.1820664617
  0
LINE
  5
4D3
100
AcDbEntity
  8
0
100
AcDbLine
 62
7
  6
CONTINUOUS
 10
172.7406606571
 20
69.6820664617
 11
173.1156527831
 21
69.6820664617
  0
LINE
  5
4D4
100
AcDbEntity
  8
0
100
AcDbLine
 62
7
  6
CONTINUOUS
 10
173.2406527831
 20
69.6820664617
 11
173.6156527831
 21
69.6820664617
  0
LINE
  5
4D5
100
AcDbEntity
  8
0
100
AcDbLine
 62
7
  6
CONTINUOUS
 10
173.7406527831
 20
69.6820664617
 11
174.1481527831
 21
69.6820664617
  0
LINE
  5
4D6
100
AcDbEntity
  8
0
100
AcDbLine
 62
7
  6
CONTINUOUS
 10
174.2731527831
 20
69.6820664617
 11
174.6806527831
 21
69.6820664617
  0
LINE
  5
4D7
100
AcDbEntity
  8
0
100
AcDbLine
 62
7
  6
CONTINUOUS
 10
174.8056527831
 20
69.6820664617
 11
175.1806527831
 21
69.6820664617
  0
LINE
  5
4D8
100
AcDbEntity
  8
0
100
AcDbLine
 62
7
  6
CONTINUOUS
 10
175.3056527831
 20
69.6820664617
 11
175.6806606571
 21
69.6820664617
  0
LINE
  5
4D9
100
AcDbEntity
  8
0
100
AcDbLine
 62
7
  6
CONTINUOUS
 10
172.6156606571
 20
69.7820664617
 11
175.8056606571
 21
69.7820664617
  0
LINE
  5
4DA
100
AcDbEntity
  8
7_ALL_ROUNDS
100
AcDbLine
 62
7
  6
CONTINUOUS
 10
175.8370192398
 20
70.6758459893
 11
172.574617665
 21
70.6758459893
  0
LINE
  5
4DB
100
AcDbEntity
  8
0
100
AcDbLine
 62
7
  6
CONTINUOUS
 10
160.4608184524
 20
55.9025934369
 11
160.4608184524
 21
71.1523268881
  0
LINE
  5
4DC
100
AcDbEntity
  8
0
100
AcDbLine
 62
7
  6
CONTINUOUS
 10
160.4908184524
 20
54.5865152806
 11
160.4908184524
 21
73.0904522885
  0
LINE
  5
4DD
100
AcDbEntity
  8
7_ALL_ROUNDS
100
AcDbLine
 62
7
  6
CONTINUOUS
 10
160.4908184524
 20
73.977273533
 11
160.4908184524
 21
96.8475669046
  0
LINE
  5
4DE
100
AcDbEntity
  8
0
100
AcDbLine
 62
7
  6
CONTINUOUS
 10
160.4908184524
 20
97.0402588125
 11
160.4908184524
 21
112.6402588125
  0
LINE
  5
4DF
100
AcDbEntity
  8
0
100
AcDbLine
 62
7
  6
CONTINUOUS
 10
160.4908184524
 20
71.1524601625
 11
160.4608184524
 21
71.1524601625
  0
LINE
  5
4E0
100
AcDbEntity
  8
5_ALL_CURVES
100
AcDbLine
 62
4
  6
CONTINUOUS
 10
176.6958184524
 20
71.3471452019
 11
171.7158184524
 21
71.3471452019
  0
LINE
  5
4E1
100
AcDbEntity
  8
7_ALL_ROUNDS
100
AcDbLine
 62
7
  6
CONTINUOUS
 10
171.9028184524
 20
71.3471452019
 11
176.5088184524
 21
71.3471452019
  0
LINE
  5
4E2
100
AcDbEntity
  8
7_ALL_ROUNDS
100
AcDbLine
 62
7
  6
CONTINUOUS
 10
176.5408184524
 20
71.3865152806
 11
171.8708184524
 21
71.3865152806
  0
LINE
  5
4E3
100
AcDbEntity
  8
5_ALL_CURVES
100
AcDbLine
 62
4
  6
CONTINUOUS
 10
176.7308184524
 20
71.3865152806
 11
171.6808184524
 21
71.3865152806
  0
LINE
  5
4E4
100
AcDbEntity
  8
0
100
AcDbLine
 62
7
  6
CONTINUOUS
 10
160.4908184524
 20
73.0904522885
 11
180.7408184524
 21
73.0904522885
  0
LINE
  5
4E5
100
AcDbEntity
  8
0
100
AcDbLine
 62
7
  6
CONTINUOUS
 10
162.0079062648
 20
74.5518642786
 11
161.5668184524
 21
75.2225632327
  0
LINE
  5
4E6
100
AcDbEntity
  8
7_ALL_ROUNDS
100
AcDbLine
 62
7
  6
CONTINUOUS
 10
160.7408184524
 20
112.1165669046
 11
160.7408184524
 21
96.3475669046
  0
LINE
  5
4E7
100
AcDbEntity
  8
7_ALL_ROUNDS
100
AcDbLine
 62
7
  6
CONTINUOUS
 10
160.7408184524
 20
74.4775669046
 11
160.7408184524
 21
73.977273533
  0
LINE
  5
4E8
100
AcDbEntity
  8
0
100
AcDbLine
 62
7
  6
CONTINUOUS
 10
160.7408184524
 20
112.1165669046
 11
160.7408184524
 21
112.6402588125
  0
LINE
  5
4E9
100
AcDbEntity
  8
7_ALL_ROUNDS
100
AcDbLine
 62
7
  6
CONTINUOUS
 10
160.8168184524
 20
112.4565669046
 11
160.8168184524
 21
112.1165669046
  0
LINE
  5
4EA
100
AcDbEntity
  8
7_ALL_ROUNDS
100
AcDbLine
 62
7
  6
CONTINUOUS
 10
160.8168184524
 20
74.4775669046
 11
160.8168184524
 21
73.977273533
  0
LINE
  5
4EB
100
AcDbEntity
  8
0
100
AcDbLine
 62
7
  6
CONTINUOUS
 10
160.9158184524
 20
73.0904522885
 11
160.9158184524
 21
73.977273533
  0
LINE
  5
4EC
100
AcDbEntity
  8
7_ALL_ROUNDS
100
AcDbLine
 62
7
  6
CONTINUOUS
 10
161.5668184524
 20
74.9775669046
 11
161.5668184524
 21
111.6165669046
  0
LINE
  5
4ED
100
AcDbEntity
  8
0
100
AcDbLine
 62
7
  6
CONTINUOUS
 10
162.2408184524
 20
54.5865152806
 11
162.2408184524
 21
53.9615152806
  0
LINE
  5
4EE
100
AcDbEntity
  8
7_ALL_ROUNDS
100
AcDbLine
 62
7
  6
CONTINUOUS
 10
160.4908184524
 20
73.977273533
 11
160.8168184524
 21
73.977273533
  0
LINE
  5
4EF
100
AcDbEntity
  8
0
100
AcDbLine
 62
7
  6
CONTINUOUS
 10
160.8168184524
 20
73.977273533
 11
161.1918488744
 21
73.977273533
  0
LINE
  5
4F0
100
AcDbEntity
  8
0
100
AcDbLine
 62
7
  6
CONTINUOUS
 10
162.0374531419
 20
74.074704257
 11
180.5948184524
 21
74.074704257
  0
LINE
  5
4F1
100
AcDbEntity
  8
7_ALL_ROUNDS
100
AcDbLine
 62
7
  6
CONTINUOUS
 10
177.4358184524
 20
74.2994522885
 11
168.8358184524
 21
74.2994522885
  0
LINE
  5
4F2
100
AcDbEntity
  8
7_ALL_ROUNDS
100
AcDbLine
 62
7
  6
CONTINUOUS
 10
160.4908184524
 20
74.477273533
 11
161.0668184524
 21
74.4775669046
  0
LINE
  5
4F3
100
AcDbEntity
  8
0
100
AcDbLine
 62
7
  6
CONTINUOUS
 10
162.6530831596
 20
73.0904522885
 11
162.6530831596
 21
74.074704257
  0
LINE
  5
4F4
100
AcDbEntity
  8
0
100
AcDbLine
 62
7
  6
CONTINUOUS
 10
163.7408184524
 20
54.5865152806
 11
163.7408184524
 21
53.9615152806
  0
LINE
  5
4F5
100
AcDbEntity
  8
0
100
AcDbLine
 62
7
  6
CONTINUOUS
 10
171.5244952157
 20
95.0988417023
 11
171.5831155127
 21
95.2598996446
  0
LINE
  5
4F6
100
AcDbEntity
  8
7_ALL_ROUNDS
100
AcDbLine
 62
7
  6
CONTINUOUS
 10
175.6073503695
 20
81.881024742
 11
172.6939406977
 21
81.4715717149
  0
LINE
  5
4F7
100
AcDbEntity
  8
0
100
AcDbLine
 62
7
  6
CONTINUOUS
 10
172.4381203876
 20
80.3447806401
 11
170.9339213018
 21
80.2131802724
  0
LINE
  5
4F8
100
AcDbEntity
  8
0
100
AcDbLine
 62
7
  6
CONTINUOUS
 10
171.2926397983
 20
80.4156515628
 11
172.4232658723
 21
80.514568527
  0
LINE
  5
4F9
100
AcDbEntity
  8
0
100
AcDbLine
 62
7
  6
CONTINUOUS
 10
172.3727535805
 20
81.0919266634
 11
172.7244632563
 21
81.1226972729
  0
LINE
  5
4FA
100
AcDbEntity
  8
0
100
AcDbLine
 62
7
  6
CONTINUOUS
 10
169.1311510468
 20
79.0617099104
 11
173.226748591
 21
74.2994522885
  0
LINE
  5
4FB
100
AcDbEntity
  8
7_ALL_ROUNDS
100
AcDbLine
 62
7
  6
CONTINUOUS
 10
174.7817866719
 20
74.2994522885
 11
170.5678245833
 21
79.19934122
  0
LINE
  5
4FC
100
AcDbEntity
  8
0
100
AcDbLine
 62
7
  6
CONTINUOUS
 10
170.9339058604
 20
80.2133567691
 11
169.8009120876
 21
93.1635348509
  0
LINE
  5
4FD
100
AcDbEntity
  8
7_ALL_ROUNDS
100
AcDbLine
 62
7
  6
CONTINUOUS
 10
169.2827754215
 20
79.5846926841
 11
169.2827754215
 21
79.1921086553
  0
LINE
  5
4FE
100
AcDbEntity
  8
0
100
AcDbLine
 62
7
  6
CONTINUOUS
 10
161.5668184524
 20
76.7485226736
 11
170.6724540736
 21
83.2017643667
  0
LINE
  5
4FF
100
AcDbEntity
  8
0
100
AcDbLine
 62
7
  6
CONTINUOUS
 10
171.1695773443
 20
81.8222618487
 11
172.3002034183
 21
81.9211788129
  0
LINE
  5
500
100
AcDbEntity
  8
0
100
AcDbLine
 62
7
  6
CONTINUOUS
 10
171.1431094529
 20
82.1247912317
 11
172.2737355269
 21
82.2237081959
  0
LINE
  5
501
100
AcDbEntity
  8
0
100
AcDbLine
 62
7
  6
CONTINUOUS
 10
172.2695493272
 20
82.2715566771
 11
172.621259003
 21
82.3023272866
  0
LINE
  5
502
100
AcDbEntity
  8
0
100
AcDbLine
 62
7
  6
CONTINUOUS
 10
172.193846638
 20
83.1368423736
 11
172.5455563138
 21
83.1676129831
  0
LINE
  5
503
100
AcDbEntity
  8
0
100
AcDbLine
 62
7
  6
CONTINUOUS
 10
171.0521206546
 20
83.1647979547
 11
172.1827467286
 21
83.2637149189
  0
LINE
  5
504
100
AcDbEntity
  8
0
100
AcDbLine
 62
7
  6
CONTINUOUS
 10
171.2926397983
 20
80.4156515628
 11
170.2501057649
 21
92.331870092
  0
LINE
  5
505
100
AcDbEntity
  8
0
100
AcDbLine
 62
7
  6
CONTINUOUS
 10
171.2822980149
 20
93.5558908129
 11
172.4381131252
 21
80.3448636498
  0
LINE
  5
506
100
AcDbEntity
  8
0
100
AcDbLine
 62
7
  6
CONTINUOUS
 10
171.360997396
 20
93.5627761165
 11
171.5303896809
 21
91.6266134408
  0
LINE
  5
507
100
AcDbEntity
  8
0
100
AcDbLine
 62
7
  6
CONTINUOUS
 10
171.7221907762
 20
92.578724142
 11
172.7244446948
 21
81.1229094323
  0
LINE
  5
508
100
AcDbEntity
  8
7_ALL_ROUNDS
100
AcDbLine
 62
7
  6
CONTINUOUS
 10
171.6808184524
 20
71.1965152806
 11
171.6808184524
 21
64.4765152806
  0
LINE
  5
509
100
AcDbEntity
  8
5_ALL_CURVES
100
AcDbLine
 62
4
  6
CONTINUOUS
 10
171.6808184524
 20
71.3865152806
 11
171.6808184524
 21
64.2865152806
  0
LINE
  5
50A
100
AcDbEntity
  8
5_ALL_CURVES
100
AcDbLine
 62
4
  6
CONTINUOUS
 10
171.7158184524
 20
71.3471452019
 11
171.7158184524
 21
64.3258853594
  0
LINE
  5
50B
100
AcDbEntity
  8
7_ALL_ROUNDS
100
AcDbLine
 62
7
  6
CONTINUOUS
 10
171.7158184524
 20
64.5128853594
 11
171.7158184524
 21
71.1601452019
  0
LINE
  5
50C
100
AcDbEntity
  8
7_ALL_ROUNDS
100
AcDbLine
 62
7
  6
CONTINUOUS
 10
172.387117665
 20
70.4883459893
 11
172.387117665
 21
65.184684572
  0
LINE
  5
50D
100
AcDbEntity
  8
0
100
AcDbLine
 62
7
  6
CONTINUOUS
 10
172.6156606571
 20
69.7820664617
 11
172.6156606571
 21
69.0820664617
  0
LINE
  5
50E
100
AcDbEntity
  8
0
100
AcDbLine
 62
7
  6
CONTINUOUS
 10
172.7406606571
 20
69.7820664617
 11
172.7406606571
 21
69.0820664617
  0
LINE
  5
50F
100
AcDbEntity
  8
7_ALL_ROUNDS
100
AcDbLine
 62
7
  6
CONTINUOUS
 10
169.8424030536
 20
80.6625943667
 11
169.7351177108
 21
80.5703277105
  0
LINE
  5
510
100
AcDbEntity
  8
0
100
AcDbLine
 62
7
  6
CONTINUOUS
 10
169.2827754215
 20
79.1921086553
 11
169.1311510468
 21
79.0617099104
  0
LINE
  5
511
100
AcDbEntity
  8
0
100
AcDbLine
 62
7
  6
CONTINUOUS
 10
177.4747429378
 20
86.1056731549
 11
176.810759197
 21
86.0475821049
  0
LINE
  5
512
100
AcDbEntity
  8
0
100
AcDbLine
 62
7
  6
CONTINUOUS
 10
167.5168568493
 20
102.5437432881
 11
169.1779753169
 21
93.1230723228
  0
LINE
  5
513
100
AcDbEntity
  8
0
100
AcDbLine
 62
7
  6
CONTINUOUS
 10
168.3191572656
 20
101.6504907805
 11
169.6272412803
 21
94.2319776895
  0
LINE
  5
514
100
AcDbEntity
  8
0
100
AcDbLine
 62
7
  6
CONTINUOUS
 10
173.1156527831
 20
69.7820664617
 11
173.1156527831
 21
69.0820664617
  0
LINE
  5
515
100
AcDbEntity
  8
0
100
AcDbLine
 62
7
  6
CONTINUOUS
 10
173.2406527831
 20
69.7820664617
 11
173.2406527831
 21
69.0820664617
  0
LINE
  5
516
100
AcDbEntity
  8
0
100
AcDbLine
 62
7
  6
CONTINUOUS
 10
173.6156527831
 20
69.7820664617
 11
173.6156527831
 21
69.0820664617
  0
LINE
  5
517
100
AcDbEntity
  8
0
100
AcDbLine
 62
7
  6
CONTINUOUS
 10
173.7406527831
 20
69.7820664617
 11
173.7406527831
 21
69.0820664617
  0
LINE
  5
518
100
AcDbEntity
  8
0
100
AcDbLine
 62
7
  6
CONTINUOUS
 10
174.1481527831
 20
69.7820664617
 11
174.1481527831
 21
69.0820664617
  0
LINE
  5
519
100
AcDbEntity
  8
0
100
AcDbLine
 62
7
  6
CONTINUOUS
 10
174.2731527831
 20
69.7820664617
 11
174.2731527831
 21
69.0820664617
  0
LINE
  5
51A
100
AcDbEntity
  8
0
100
AcDbLine
 62
7
  6
CONTINUOUS
 10
174.6806527831
 20
69.7820664617
 11
174.6806527831
 21
69.0820664617
  0
LINE
  5
51B
100
AcDbEntity
  8
0
100
AcDbLine
 62
7
  6
CONTINUOUS
 10
174.8056527831
 20
69.7820664617
 11
174.8056527831
 21
69.0820664617
  0
LINE
  5
51C
100
AcDbEntity
  8
7_ALL_ROUNDS
100
AcDbLine
 62
7
  6
CONTINUOUS
 10
177.4878818483
 20
86.2272810412
 11
177.623947636
 21
86.2391852551
  0
LINE
  5
51D
100
AcDbEntity
  8
0
100
AcDbLine
 62
7
  6
CONTINUOUS
 10
176.8003005079
 20
86.1671254686
 11
177.4878818483
 21
86.2272810412
  0
LINE
  5
51E
100
AcDbEntity
  8
0
100
AcDbLine
 62
7
  6
CONTINUOUS
 10
176.9492329705
 20
86.3006137512
 11
177.4774231592
 21
86.3468244049
  0
LINE
  5
51F
100
AcDbEntity
  8
7_ALL_ROUNDS
100
AcDbLine
 62
7
  6
CONTINUOUS
 10
177.4774231592
 20
86.3468244049
 11
177.6134889469
 21
86.3587286188
  0
LINE
  5
520
100
AcDbEntity
  8
7_ALL_ROUNDS
100
AcDbLine
 62
7
  6
CONTINUOUS
 10
177.443258108
 20
86.7373327266
 11
177.5793238957
 21
86.7492369405
  0
LINE
  5
521
100
AcDbEntity
  8
0
100
AcDbLine
 62
7
  6
CONTINUOUS
 10
176.9150679193
 20
86.6911220729
 11
177.443258108
 21
86.7373327266
  0
LINE
  5
522
100
AcDbEntity
  8
0
100
AcDbLine
 62
7
  6
CONTINUOUS
 10
176.9046092302
 20
86.8106654367
 11
177.4327994189
 21
86.8568760904
  0
LINE
  5
523
100
AcDbEntity
  8
7_ALL_ROUNDS
100
AcDbLine
 62
7
  6
CONTINUOUS
 10
177.4327994189
 20
86.8568760904
 11
177.5688652066
 21
86.8687803043
  0
LINE
  5
524
100
AcDbEntity
  8
7_ALL_ROUNDS
100
AcDbLine
 62
7
  6
CONTINUOUS
 10
177.3986343678
 20
87.247384412
 11
177.5347001554
 21
87.2592886259
  0
LINE
  5
525
100
AcDbEntity
  8
0
100
AcDbLine
 62
7
  6
CONTINUOUS
 10
176.870444179
 20
87.2011737583
 11
177.3986343678
 21
87.247384412
  0
LINE
  5
526
100
AcDbEntity
  8
0
100
AcDbLine
 62
7
  6
CONTINUOUS
 10
176.8599854899
 20
87.3207171221
 11
177.3881756786
 21
87.3669277758
  0
LINE
  5
527
100
AcDbEntity
  8
7_ALL_ROUNDS
100
AcDbLine
 62
7
  6
CONTINUOUS
 10
177.3881756786
 20
87.3669277758
 11
177.5242414663
 21
87.3788319897
  0
LINE
  5
528
100
AcDbEntity
  8
7_ALL_ROUNDS
100
AcDbLine
 62
7
  6
CONTINUOUS
 10
177.3540106275
 20
87.7574360974
 11
177.4900764152
 21
87.7693403113
  0
LINE
  5
529
100
AcDbEntity
  8
0
100
AcDbLine
 62
7
  6
CONTINUOUS
 10
176.8258204387
 20
87.7112254437
 11
177.3540106275
 21
87.7574360974
  0
LINE
  5
52A
100
AcDbEntity
  8
0
100
AcDbLine
 62
7
  6
CONTINUOUS
 10
176.8153617496
 20
87.8307688075
 11
177.3435519383
 21
87.8769794612
  0
LINE
  5
52B
100
AcDbEntity
  8
7_ALL_ROUNDS
100
AcDbLine
 62
7
  6
CONTINUOUS
 10
177.3435519383
 20
87.8769794612
 11
177.479617726
 21
87.8888836751
  0
LINE
  5
52C
100
AcDbEntity
  8
7_ALL_ROUNDS
100
AcDbLine
 62
7
  6
CONTINUOUS
 10
169.7787737211
 20
102.9425802608
 11
169.9123091698
 21
102.1852630986
  0
LINE
  5
52D
100
AcDbEntity
  8
7_ALL_ROUNDS
100
AcDbLine
 62
7
  6
CONTINUOUS
 10
171.3072172733
 20
94.274346131
 11
171.3294168335
 21
94.1484461691
  0
LINE
  5
52E
100
AcDbEntity
  8
0
100
AcDbLine
 62
7
  6
CONTINUOUS
 10
171.4082528473
 20
93.7013449169
 11
171.4398921887
 21
93.5219092954
  0
LINE
  5
52F
100
AcDbEntity
  8
0
100
AcDbLine
 62
7
  6
CONTINUOUS
 10
170.1982176512
 20
102.5286270555
 11
170.7521553379
 21
99.3870903234
  0
LINE
  5
530
100
AcDbEntity
  8
0
100
AcDbLine
 62
7
  6
CONTINUOUS
 10
170.8172734045
 20
99.017787416
 11
171.3712110913
 21
95.8762506839
  0
LINE
  5
531
100
AcDbEntity
  8
0
100
AcDbLine
 62
7
  6
CONTINUOUS
 10
170.3184044487
 20
102.4228909041
 11
170.3835225153
 21
102.0535879968
  0
LINE
  5
532
100
AcDbEntity
  8
0
100
AcDbLine
 62
7
  6
CONTINUOUS
 10
170.4052285375
 20
101.9304870276
 11
170.4703466041
 21
101.5611841203
  0
LINE
  5
533
100
AcDbEntity
  8
0
100
AcDbLine
 62
7
  6
CONTINUOUS
 10
170.4920526263
 20
101.4380831511
 11
170.5628142587
 21
101.0367739918
  0
LINE
  5
534
100
AcDbEntity
  8
0
100
AcDbLine
 62
7
  6
CONTINUOUS
 10
170.584520281
 20
100.9136730227
 11
170.6552819134
 21
100.5123638633
  0
LINE
  5
535
100
AcDbEntity
  8
0
100
AcDbLine
 62
7
  6
CONTINUOUS
 10
170.6769879356
 20
100.3892628942
 11
170.7421060022
 21
100.0199599868
  0
LINE
  5
536
100
AcDbEntity
  8
0
100
AcDbLine
 62
7
  6
CONTINUOUS
 10
170.7638120244
 20
99.8968590177
 11
170.828930091
 21
99.5275561103
  0
LINE
  5
537
100
AcDbEntity
  8
0
100
AcDbLine
 62
7
  6
CONTINUOUS
 10
170.9374602021
 20
98.9120512647
 11
171.0025782687
 21
98.5427483573
  0
LINE
  5
538
100
AcDbEntity
  8
0
100
AcDbLine
 62
7
  6
CONTINUOUS
 10
171.0242842909
 20
98.4196473882
 11
171.0894023575
 21
98.0503444808
  0
LINE
  5
539
100
AcDbEntity
  8
0
100
AcDbLine
 62
7
  6
CONTINUOUS
 10
171.1111083797
 20
97.9272435116
 11
171.1818700121
 21
97.5259343523
  0
LINE
  5
53A
100
AcDbEntity
  8
0
100
AcDbLine
 62
7
  6
CONTINUOUS
 10
171.2035760343
 20
97.4028333832
 11
171.2743376667
 21
97.0015242238
  0
LINE
  5
53B
100
AcDbEntity
  8
0
100
AcDbLine
 62
7
  6
CONTINUOUS
 10
171.2960436889
 20
96.8784232547
 11
171.3611617556
 21
96.5091203473
  0
LINE
  5
53C
100
AcDbEntity
  8
0
100
AcDbLine
 62
7
  6
CONTINUOUS
 10
171.3828677778
 20
96.3860193782
 11
171.4479858444
 21
96.0167164708
  0
LINE
  5
53D
100
AcDbEntity
  8
0
100
AcDbLine
 62
7
  6
CONTINUOUS
 10
171.9403897209
 20
96.1035405596
 11
171.8752716543
 21
96.472843467
  0
LINE
  5
53E
100
AcDbEntity
  8
0
100
AcDbLine
 62
7
  6
CONTINUOUS
 10
171.8535656321
 20
96.5959444361
 11
171.7884475654
 21
96.9652473435
  0
LINE
  5
53F
100
AcDbEntity
  8
0
100
AcDbLine
 62
7
  6
CONTINUOUS
 10
171.7667415432
 20
97.0883483126
 11
171.6959799108
 21
97.489657472
  0
LINE
  5
540
100
AcDbEntity
  8
0
100
AcDbLine
 62
7
  6
CONTINUOUS
 10
171.6742738886
 20
97.6127584411
 11
171.6035122562
 21
98.0140676005
  0
LINE
  5
541
100
AcDbEntity
  8
0
100
AcDbLine
 62
7
  6
CONTINUOUS
 10
171.581806234
 20
98.1371685696
 11
171.5166881674
 21
98.506471477
  0
LINE
  5
542
100
AcDbEntity
  8
0
100
AcDbLine
 62
7
  6
CONTINUOUS
 10
171.4949821452
 20
98.6295724461
 11
171.4298640786
 21
98.9988753535
  0
LINE
  5
543
100
AcDbEntity
  8
0
100
AcDbLine
 62
7
  6
CONTINUOUS
 10
171.3213339675
 20
99.6143801991
 11
171.2562159009
 21
99.9836831065
  0
LINE
  5
544
100
AcDbEntity
  8
0
100
AcDbLine
 62
7
  6
CONTINUOUS
 10
171.2345098787
 20
100.1067840756
 11
171.1693918121
 21
100.476086983
  0
LINE
  5
545
100
AcDbEntity
  8
0
100
AcDbLine
 62
7
  6
CONTINUOUS
 10
171.1476857899
 20
100.5991879521
 11
171.0769241575
 21
101.0004971115
  0
LINE
  5
546
100
AcDbEntity
  8
0
100
AcDbLine
 62
7
  6
CONTINUOUS
 10
171.0552181352
 20
101.1235980806
 11
170.9844565029
 21
101.52490724
  0
LINE
  5
547
100
AcDbEntity
  8
0
100
AcDbLine
 62
7
  6
CONTINUOUS
 10
170.9627504806
 20
101.6480082091
 11
170.897632414
 21
102.0173111165
  0
LINE
  5
548
100
AcDbEntity
  8
0
100
AcDbLine
 62
7
  6
CONTINUOUS
 10
170.8759263918
 20
102.1404120856
 11
170.8108083252
 21
102.509714993
  0
LINE
  5
549
100
AcDbEntity
  8
0
100
AcDbLine
 62
7
  6
CONTINUOUS
 10
169.5907163995
 20
109.4810290837
 11
170.5908503389
 21
103.808987656
  0
LINE
  5
54A
100
AcDbEntity
  8
0
100
AcDbLine
 62
7
  6
CONTINUOUS
 10
172.0605765184
 20
95.9978044083
 11
171.5066388317
 21
99.1393411404
  0
LINE
  5
54B
100
AcDbEntity
  8
0
100
AcDbLine
 62
7
  6
CONTINUOUS
 10
171.441520765
 20
99.5086440478
 11
170.8875830783
 21
102.6501807799
  0
LINE
  5
54C
100
AcDbEntity
  8
0
100
AcDbLine
 62
7
  6
CONTINUOUS
 10
170.5074720291
 20
105.2665993011
 11
170.8829297491
 21
103.1372727594
  0
LINE
  5
54D
100
AcDbEntity
  8
0
100
AcDbLine
 62
7
  6
CONTINUOUS
 10
172.5440482167
 20
93.7166017941
 11
172.7928439104
 21
92.3056112998
  0
LINE
  5
54E
100
AcDbEntity
  8
0
100
AcDbLine
 62
7
  6
CONTINUOUS
 10
170.5852718416
 20
105.2803175072
 11
172.8706437229
 21
92.3193295058
  0
LINE
  5
54F
100
AcDbEntity
  8
0
100
AcDbLine
 62
7
  6
CONTINUOUS
 10
170.1208026331
 20
109.7572598396
 11
171.1834449437
 21
103.7307158226
  0
LINE
  5
550
100
AcDbEntity
  8
7_ALL_ROUNDS
100
AcDbLine
 62
7
  6
CONTINUOUS
 10
175.6073503695
 20
81.881024742
 11
174.6929439779
 21
92.3327376242
  0
LINE
  5
551
100
AcDbEntity
  8
0
100
AcDbLine
 62
7
  6
CONTINUOUS
 10
176.810759197
 20
86.0475821049
 11
176.6015854144
 21
88.4384493803
  0
LINE
  5
552
100
AcDbEntity
  8
0
100
AcDbLine
 62
7
  6
CONTINUOUS
 10
175.1806527831
 20
69.7820664617
 11
175.1806527831
 21
69.0820664617
  0
LINE
  5
553
100
AcDbEntity
  8
0
100
AcDbLine
 62
7
  6
CONTINUOUS
 10
175.3056527831
 20
69.7820664617
 11
175.3056527831
 21
69.0820664617
  0
LINE
  5
554
100
AcDbEntity
  8
0
100
AcDbLine
 62
7
  6
CONTINUOUS
 10
175.6806606571
 20
69.7820664617
 11
175.6806606571
 21
69.0820664617
  0
LINE
  5
555
100
AcDbEntity
  8
0
100
AcDbLine
 62
7
  6
CONTINUOUS
 10
175.8056606571
 20
69.7820664617
 11
175.8056606571
 21
69.0820664617
  0
LINE
  5
556
100
AcDbEntity
  8
7_ALL_ROUNDS
100
AcDbLine
 62
7
  6
CONTINUOUS
 10
176.0245192398
 20
65.184684572
 11
176.0245192398
 21
70.4883459893
  0
LINE
  5
557
100
AcDbEntity
  8
7_ALL_ROUNDS
100
AcDbLine
 62
7
  6
CONTINUOUS
 10
176.6958184524
 20
71.1601452019
 11
176.6958184524
 21
64.5128853594
  0
LINE
  5
558
100
AcDbEntity
  8
5_ALL_CURVES
100
AcDbLine
 62
4
  6
CONTINUOUS
 10
176.6958184524
 20
64.3258853594
 11
176.6958184524
 21
71.3471452019
  0
LINE
  5
559
100
AcDbEntity
  8
7_ALL_ROUNDS
100
AcDbLine
 62
7
  6
CONTINUOUS
 10
176.7308184524
 20
64.4765152806
 11
176.7308184524
 21
71.1965152806
  0
LINE
  5
55A
100
AcDbEntity
  8
5_ALL_CURVES
100
AcDbLine
 62
4
  6
CONTINUOUS
 10
176.7308184524
 20
64.2865152806
 11
176.7308184524
 21
71.3865152806
  0
LINE
  5
55B
100
AcDbEntity
  8
7_ALL_ROUNDS
100
AcDbLine
 62
7
  6
CONTINUOUS
 10
177.3093868872
 20
88.2674877829
 11
177.4454526749
 21
88.2793919968
  0
LINE
  5
55C
100
AcDbEntity
  8
0
100
AcDbLine
 62
7
  6
CONTINUOUS
 10
176.7811966985
 20
88.2212771292
 11
177.3093868872
 21
88.2674877829
  0
LINE
  5
55D
100
AcDbEntity
  8
0
100
AcDbLine
 62
7
  6
CONTINUOUS
 10
176.6116083249
 20
88.32388699
 11
177.2991896653
 21
88.3840425625
  0
LINE
  5
55E
100
AcDbEntity
  8
7_ALL_ROUNDS
100
AcDbLine
 62
7
  6
CONTINUOUS
 10
177.2991896653
 20
88.3840425625
 11
177.435255453
 21
88.3959467764
  0
LINE
  5
55F
100
AcDbEntity
  8
0
100
AcDbLine
 62
7
  6
CONTINUOUS
 10
176.6015854144
 20
88.4384493803
 11
177.2655691551
 21
88.4965404303
  0
LINE
  5
560
100
AcDbEntity
  8
0
100
AcDbLine
 62
7
  6
CONTINUOUS
 10
170.0623638743
 20
90.1751272533
 11
161.5668184524
 21
94.1776520323
  0
LINE
  5
561
100
AcDbEntity
  8
0
100
AcDbLine
 62
7
  6
CONTINUOUS
 10
170.9086488355
 20
109.8961783817
 11
171.9712911461
 21
103.8696343648
  0
LINE
  5
562
100
AcDbEntity
  8
0
100
AcDbLine
 62
7
  6
CONTINUOUS
 10
171.181988463
 20
109.7616132821
 11
172.1821224024
 21
104.0895718544
  0
LINE
  5
563
100
AcDbEntity
  8
0
100
AcDbLine
 62
7
  6
CONTINUOUS
 10
171.583903172
 20
109.3603142713
 11
172.4225463434
 21
104.6041325001
  0
LINE
  5
564
100
AcDbEntity
  8
0
100
AcDbLine
 62
7
  6
CONTINUOUS
 10
176.7811966985
 20
88.2212771292
 11
176.8153617496
 21
87.8307688075
  0
LINE
  5
565
100
AcDbEntity
  8
0
100
AcDbLine
 62
7
  6
CONTINUOUS
 10
176.8258204387
 20
87.7112254437
 11
176.8599854899
 21
87.3207171221
  0
LINE
  5
566
100
AcDbEntity
  8
0
100
AcDbLine
 62
7
  6
CONTINUOUS
 10
176.870444179
 20
87.2011737583
 11
176.9046092302
 21
86.8106654367
  0
LINE
  5
567
100
AcDbEntity
  8
0
100
AcDbLine
 62
7
  6
CONTINUOUS
 10
176.9150679193
 20
86.6911220729
 11
176.9492329705
 21
86.3006137512
  0
LINE
  5
568
100
AcDbEntity
  8
0
100
AcDbLine
 62
7
  6
CONTINUOUS
 10
177.000359532
 20
88.2404513926
 11
177.0345245832
 21
87.8499430709
  0
LINE
  5
569
100
AcDbEntity
  8
0
100
AcDbLine
 62
7
  6
CONTINUOUS
 10
177.0449832723
 20
87.7303997071
 11
177.0791483235
 21
87.3398913855
  0
LINE
  5
56A
100
AcDbEntity
  8
0
100
AcDbLine
 62
7
  6
CONTINUOUS
 10
177.0896070126
 20
87.2203480217
 11
177.1237720638
 21
86.8298397001
  0
LINE
  5
56B
100
AcDbEntity
  8
0
100
AcDbLine
 62
7
  6
CONTINUOUS
 10
177.1342307529
 20
86.7102963363
 11
177.1683958041
 21
86.3197880146
  0
LINE
  5
56C
100
AcDbEntity
  8
0
100
AcDbLine
 62
7
  6
CONTINUOUS
 10
177.4645564843
 20
86.2252403362
 11
177.4540977952
 21
86.3447837
  0
LINE
  5
56D
100
AcDbEntity
  8
0
100
AcDbLine
 62
7
  6
CONTINUOUS
 10
177.419932744
 20
86.7352920217
 11
177.4094740549
 21
86.8548353854
  0
LINE
  5
56E
100
AcDbEntity
  8
0
100
AcDbLine
 62
7
  6
CONTINUOUS
 10
177.3753090038
 20
87.2453437071
 11
177.3648503146
 21
87.3648870709
  0
LINE
  5
56F
100
AcDbEntity
  8
0
100
AcDbLine
 62
7
  6
CONTINUOUS
 10
177.3306852635
 20
87.7553953925
 11
177.3202265743
 21
87.8749387563
  0
LINE
  5
570
100
AcDbEntity
  8
0
100
AcDbLine
 62
7
  6
CONTINUOUS
 10
177.2860615232
 20
88.2654470779
 11
177.2758643013
 21
88.3820018576
  0
LINE
  5
571
100
AcDbEntity
  8
0
100
AcDbLine
 62
7
  6
CONTINUOUS
 10
177.3435519383
 20
87.8769794612
 11
177.3540106275
 21
87.7574360974
  0
LINE
  5
572
100
AcDbEntity
  8
0
100
AcDbLine
 62
7
  6
CONTINUOUS
 10
177.3881756786
 20
87.3669277758
 11
177.3986343678
 21
87.247384412
  0
LINE
  5
573
100
AcDbEntity
  8
0
100
AcDbLine
 62
7
  6
CONTINUOUS
 10
177.4327994189
 20
86.8568760904
 11
177.443258108
 21
86.7373327266
  0
LINE
  5
574
100
AcDbEntity
  8
0
100
AcDbLine
 62
7
  6
CONTINUOUS
 10
177.4774231592
 20
86.3468244049
 11
177.4878818483
 21
86.2272810412
  0
LINE
  5
575
100
AcDbEntity
  8
0
100
AcDbLine
 62
7
  6
CONTINUOUS
 10
177.3093868872
 20
88.2674877829
 11
177.2991896653
 21
88.3840425625
  0
LINE
  5
576
100
AcDbEntity
  8
7_ALL_ROUNDS
100
AcDbLine
 62
7
  6
CONTINUOUS
 10
177.3500152883
 20
88.3884892284
 11
177.3602125102
 21
88.2719344487
  0
LINE
  5
577
100
AcDbEntity
  8
7_ALL_ROUNDS
100
AcDbLine
 62
7
  6
CONTINUOUS
 10
177.3943775614
 20
87.881426127
 11
177.4048362505
 21
87.7618827633
  0
LINE
  5
578
100
AcDbEntity
  8
7_ALL_ROUNDS
100
AcDbLine
 62
7
  6
CONTINUOUS
 10
177.4390013017
 20
87.3713744416
 11
177.4494599908
 21
87.2518310778
  0
LINE
  5
579
100
AcDbEntity
  8
7_ALL_ROUNDS
100
AcDbLine
 62
7
  6
CONTINUOUS
 10
177.483625042
 20
86.8613227562
 11
177.4940837311
 21
86.7417793924
  0
LINE
  5
57A
100
AcDbEntity
  8
7_ALL_ROUNDS
100
AcDbLine
 62
7
  6
CONTINUOUS
 10
177.5282487822
 20
86.3512710708
 11
177.5387074714
 21
86.231727707
  0
LINE
  5
57B
100
AcDbEntity
  8
7_ALL_ROUNDS
100
AcDbLine
 62
7
  6
CONTINUOUS
 10
177.7399244029
 20
84.0451085118
 11
177.548544715
 21
86.2325883543
  0
LINE
  5
57C
100
AcDbEntity
  8
7_ALL_ROUNDS
100
AcDbLine
 62
7
  6
CONTINUOUS
 10
177.5380860258
 20
86.3521317181
 11
177.5039209747
 21
86.7426400397
  0
LINE
  5
57D
100
AcDbEntity
  8
7_ALL_ROUNDS
100
AcDbLine
 62
7
  6
CONTINUOUS
 10
177.4934622855
 20
86.8621834035
 11
177.4592972344
 21
87.2526917251
  0
LINE
  5
57E
100
AcDbEntity
  8
7_ALL_ROUNDS
100
AcDbLine
 62
7
  6
CONTINUOUS
 10
177.4488385453
 20
87.3722350889
 11
177.4146734941
 21
87.7627434106
  0
LINE
  5
57F
100
AcDbEntity
  8
7_ALL_ROUNDS
100
AcDbLine
 62
7
  6
CONTINUOUS
 10
177.404214805
 20
87.8822867743
 11
177.3700497538
 21
88.272795096
  0
LINE
  5
580
100
AcDbEntity
  8
7_ALL_ROUNDS
100
AcDbLine
 62
7
  6
CONTINUOUS
 10
177.3598525319
 20
88.3893498757
 11
177.1689086228
 21
90.5718487441
  0
LINE
  5
581
100
AcDbEntity
  8
7_ALL_ROUNDS
100
AcDbLine
 62
7
  6
CONTINUOUS
 10
177.435255453
 20
88.3959467764
 11
177.4454526749
 21
88.2793919968
  0
LINE
  5
582
100
AcDbEntity
  8
7_ALL_ROUNDS
100
AcDbLine
 62
7
  6
CONTINUOUS
 10
177.479617726
 20
87.8888836751
 11
177.4900764152
 21
87.7693403113
  0
LINE
  5
583
100
AcDbEntity
  8
7_ALL_ROUNDS
100
AcDbLine
 62
7
  6
CONTINUOUS
 10
177.5242414663
 20
87.3788319897
 11
177.5347001554
 21
87.2592886259
  0
LINE
  5
584
100
AcDbEntity
  8
7_ALL_ROUNDS
100
AcDbLine
 62
7
  6
CONTINUOUS
 10
177.5688652066
 20
86.8687803043
 11
177.5793238957
 21
86.7492369405
  0
LINE
  5
585
100
AcDbEntity
  8
7_ALL_ROUNDS
100
AcDbLine
 62
7
  6
CONTINUOUS
 10
177.6134889469
 20
86.3587286188
 11
177.623947636
 21
86.2391852551
  0
LINE
  5
586
100
AcDbEntity
  8
0
100
AcDbLine
 62
7
  6
CONTINUOUS
 10
177.4908184524
 20
54.5865152806
 11
177.4908184524
 21
53.9615152806
  0
LINE
  5
587
100
AcDbEntity
  8
0
100
AcDbLine
 62
7
  6
CONTINUOUS
 10
178.9908184524
 20
54.5865152806
 11
178.9908184524
 21
53.9615152806
  0
LINE
  5
588
100
AcDbEntity
  8
0
100
AcDbLine
 62
7
  6
CONTINUOUS
 10
172.8706437229
 20
92.3193295058
 11
172.7928439104
 21
92.3056112998
  0
LINE
  5
589
100
AcDbEntity
  8
0
100
AcDbLine
 62
7
  6
CONTINUOUS
 10
170.4298433169
 20
90.2774604724
 11
171.5604693908
 21
90.3763774365
  0
LINE
  5
58A
100
AcDbEntity
  8
0
100
AcDbLine
 62
7
  6
CONTINUOUS
 10
171.5493694814
 20
90.5032499818
 11
171.9010791572
 21
90.5340205912
  0
LINE
  5
58B
100
AcDbEntity
  8
0
100
AcDbLine
 62
7
  6
CONTINUOUS
 10
171.4736667922
 20
91.3685356783
 11
171.825376468
 21
91.3993062878
  0
LINE
  5
58C
100
AcDbEntity
  8
0
100
AcDbLine
 62
7
  6
CONTINUOUS
 10
170.3388545186
 20
91.3174671954
 11
171.4694805926
 21
91.4163841595
  0
LINE
  5
58D
100
AcDbEntity
  8
0
100
AcDbLine
 62
7
  6
CONTINUOUS
 10
171.4516902997
 20
91.6197281372
 11
171.5303896809
 21
91.6266134408
  0
LINE
  5
58E
100
AcDbEntity
  8
0
100
AcDbLine
 62
7
  6
CONTINUOUS
 10
177.3083325163
 20
88.2672911042
 11
177.310761938
 21
88.2542672615
  0
LINE
  5
58F
100
AcDbEntity
  8
0
100
AcDbLine
 62
7
  6
CONTINUOUS
 10
177.3094045224
 20
88.2674802208
 11
177.3116962194
 21
88.2544305897
  0
LINE
  5
590
100
AcDbEntity
  8
0
100
AcDbLine
 62
7
  6
CONTINUOUS
 10
180.5948184524
 20
73.0904522885
 11
180.5948184524
 21
74.074704257
  0
LINE
  5
591
100
AcDbEntity
  8
0
100
AcDbLine
 62
7
  6
CONTINUOUS
 10
180.7408184524
 20
73.0904522885
 11
180.7408184524
 21
54.5865152806
  0
LINE
  5
592
100
AcDbEntity
  8
0
100
AcDbLine
 62
7
  6
CONTINUOUS
 10
169.1779753169
 20
93.1230723228
 11
171.2876200555
 21
93.49505961
  0
LINE
  5
593
100
AcDbEntity
  8
0
100
AcDbLine
 62
7
  6
CONTINUOUS
 10
171.3657170506
 20
93.5088302173
 11
172.5440482167
 21
93.7166017941
  0
LINE
  5
594
100
AcDbEntity
  8
0
100
AcDbLine
 62
7
  6
CONTINUOUS
 10
171.3976025594
 20
92.237953838
 11
171.4763019406
 21
92.2448391417
  0
LINE
  5
595
100
AcDbEntity
  8
0
100
AcDbLine
 62
7
  6
CONTINUOUS
 10
170.2501057649
 20
92.331870092
 11
171.3807318389
 21
92.4307870561
  0
LINE
  5
596
100
AcDbEntity
  8
0
100
AcDbLine
 62
7
  6
CONTINUOUS
 10
171.44916192
 20
92.5550509956
 11
171.7221722147
 21
92.5789363015
  0
LINE
  5
597
100
AcDbEntity
  8
0
100
AcDbLine
 62
7
  6
CONTINUOUS
 10
171.3050957319
 20
93.2953117153
 11
169.8008966461
 21
93.1637113476
  0
LINE
  5
598
100
AcDbEntity
  8
0
100
AcDbLine
 62
7
  6
CONTINUOUS
 10
171.2822980149
 20
93.5558908129
 11
171.360997396
 21
93.5627761165
  0
LINE
  5
599
100
AcDbEntity
  8
7_ALL_ROUNDS
100
AcDbLine
 62
7
  6
CONTINUOUS
 10
174.6929439779
 20
92.3327376242
 11
171.7526947733
 21
92.2300618595
  0
LINE
  5
59A
100
AcDbEntity
  8
7_ALL_ROUNDS
100
AcDbLine
 62
7
  6
CONTINUOUS
 10
169.6272412803
 20
94.2319776895
 11
171.0176032906
 21
94.4771360249
  0
LINE
  5
59B
100
AcDbEntity
  8
0
100
AcDbLine
 62
7
  6
CONTINUOUS
 10
171.3712110913
 20
95.8762506839
 11
172.0605765184
 21
95.9978044083
  0
LINE
  5
59C
100
AcDbEntity
  8
0
100
AcDbLine
 62
7
  6
CONTINUOUS
 10
171.3495050691
 20
95.999351653
 11
172.0388704962
 21
96.1209053774
  0
LINE
  5
59D
100
AcDbEntity
  8
0
100
AcDbLine
 62
7
  6
CONTINUOUS
 10
171.2843870025
 20
96.3686545604
 11
171.9737524296
 21
96.4902082848
  0
LINE
  5
59E
100
AcDbEntity
  8
0
100
AcDbLine
 62
7
  6
CONTINUOUS
 10
171.2626809803
 20
96.4917555295
 11
171.9520464074
 21
96.6133092539
  0
LINE
  5
59F
100
AcDbEntity
  8
0
100
AcDbLine
 62
7
  6
CONTINUOUS
 10
171.1975629136
 20
96.8610584369
 11
171.8869283407
 21
96.9826121613
  0
LINE
  5
5A0
100
AcDbEntity
  8
0
100
AcDbLine
 62
7
  6
CONTINUOUS
 10
171.1758568914
 20
96.984159406
 11
171.8652223185
 21
97.1057131304
  0
LINE
  5
5A1
100
AcDbEntity
  8
0
100
AcDbLine
 62
7
  6
CONTINUOUS
 10
171.105095259
 20
97.3854685654
 11
171.7944606861
 21
97.5070222898
  0
LINE
  5
5A2
100
AcDbEntity
  8
0
100
AcDbLine
 62
7
  6
CONTINUOUS
 10
171.0833892368
 20
97.5085695345
 11
171.7727546639
 21
97.6301232589
  0
LINE
  5
5A3
100
AcDbEntity
  8
0
100
AcDbLine
 62
7
  6
CONTINUOUS
 10
171.0126276044
 20
97.9098786939
 11
171.7019930315
 21
98.0314324182
  0
LINE
  5
5A4
100
AcDbEntity
  8
0
100
AcDbLine
 62
7
  6
CONTINUOUS
 10
170.9909215822
 20
98.032979663
 11
171.6802870093
 21
98.1545333874
  0
LINE
  5
5A5
100
AcDbEntity
  8
7_ALL_ROUNDS
100
AcDbLine
 62
7
  6
CONTINUOUS
 10
160.4908184524
 20
96.3475669046
 11
160.7408184524
 21
96.3475669046
  0
LINE
  5
5A6
100
AcDbEntity
  8
7_ALL_ROUNDS
100
AcDbLine
 62
7
  6
CONTINUOUS
 10
160.4908184524
 20
96.8475669046
 11
160.7408184524
 21
96.8475669046
  0
LINE
  5
5A7
100
AcDbEntity
  8
0
100
AcDbLine
 62
7
  6
CONTINUOUS
 10
160.4908184524
 20
97.0402588125
 11
160.7408184524
 21
97.0402588125
  0
LINE
  5
5A8
100
AcDbEntity
  8
0
100
AcDbLine
 62
7
  6
CONTINUOUS
 10
170.9258035156
 20
98.4022825704
 11
171.6151689427
 21
98.5238362948
  0
LINE
  5
5A9
100
AcDbEntity
  8
0
100
AcDbLine
 62
7
  6
CONTINUOUS
 10
170.9040974934
 20
98.5253835395
 11
171.5934629205
 21
98.6469372639
  0
LINE
  5
5AA
100
AcDbEntity
  8
0
100
AcDbLine
 62
7
  6
CONTINUOUS
 10
170.8389794268
 20
98.8946864469
 11
171.5283448539
 21
99.0162401713
  0
LINE
  5
5AB
100
AcDbEntity
  8
0
100
AcDbLine
 62
7
  6
CONTINUOUS
 10
170.8172734045
 20
99.017787416
 11
171.5066388317
 21
99.1393411404
  0
LINE
  5
5AC
100
AcDbEntity
  8
0
100
AcDbLine
 62
7
  6
CONTINUOUS
 10
170.7521553379
 20
99.3870903234
 11
171.441520765
 21
99.5086440478
  0
LINE
  5
5AD
100
AcDbEntity
  8
0
100
AcDbLine
 62
7
  6
CONTINUOUS
 10
170.7304493157
 20
99.5101912925
 11
171.4198147428
 21
99.6317450169
  0
LINE
  5
5AE
100
AcDbEntity
  8
0
100
AcDbLine
 62
7
  6
CONTINUOUS
 10
170.6653312491
 20
99.8794941999
 11
171.3546966762
 21
100.0010479243
  0
LINE
  5
5AF
100
AcDbEntity
  8
0
100
AcDbLine
 62
7
  6
CONTINUOUS
 10
170.6436252269
 20
100.002595169
 11
171.332990654
 21
100.1241488934
  0
LINE
  5
5B0
100
AcDbEntity
  8
0
100
AcDbLine
 62
7
  6
CONTINUOUS
 10
170.5785071603
 20
100.3718980764
 11
171.2678725874
 21
100.4934518008
  0
LINE
  5
5B1
100
AcDbEntity
  8
0
100
AcDbLine
 62
7
  6
CONTINUOUS
 10
170.556801138
 20
100.4949990455
 11
171.2461665652
 21
100.6165527699
  0
LINE
  5
5B2
100
AcDbEntity
  8
0
100
AcDbLine
 62
7
  6
CONTINUOUS
 10
170.4860395056
 20
100.8963082049
 11
171.1754049328
 21
101.0178619293
  0
LINE
  5
5B3
100
AcDbEntity
  8
0
100
AcDbLine
 62
7
  6
CONTINUOUS
 10
170.4643334834
 20
101.019409174
 11
171.1536989105
 21
101.1409628984
  0
LINE
  5
5B4
100
AcDbEntity
  8
0
100
AcDbLine
 62
7
  6
CONTINUOUS
 10
170.393571851
 20
101.4207183334
 11
171.0829372781
 21
101.5422720577
  0
LINE
  5
5B5
100
AcDbEntity
  8
0
100
AcDbLine
 62
7
  6
CONTINUOUS
 10
170.3718658288
 20
101.5438193025
 11
171.0612312559
 21
101.6653730269
  0
LINE
  5
5B6
100
AcDbEntity
  8
0
100
AcDbLine
 62
7
  6
CONTINUOUS
 10
170.3067477622
 20
101.9131222099
 11
170.9961131893
 21
102.0346759342
  0
LINE
  5
5B7
100
AcDbEntity
  8
7_ALL_ROUNDS
100
AcDbLine
 62
7
  6
CONTINUOUS
 10
169.7095192759
 20
101.8956491159
 11
168.3191572656
 21
101.6504907805
  0
LINE
  5
5B8
100
AcDbEntity
  8
0
100
AcDbLine
 62
7
  6
CONTINUOUS
 10
170.28504174
 20
102.036223179
 11
170.9744071671
 21
102.1577769034
  0
LINE
  5
5B9
100
AcDbEntity
  8
0
100
AcDbLine
 62
7
  6
CONTINUOUS
 10
170.2199236734
 20
102.4055260864
 11
170.9092891005
 21
102.5270798107
  0
LINE
  5
5BA
100
AcDbEntity
  8
0
100
AcDbLine
 62
7
  6
CONTINUOUS
 10
170.1982176512
 20
102.5286270555
 11
170.8875830783
 21
102.6501807799
  0
LINE
  5
5BB
100
AcDbEntity
  8
0
100
AcDbLine
 62
7
  6
CONTINUOUS
 10
170.8829297491
 20
103.1372727594
 11
167.5168568493
 21
102.5437432881
  0
LINE
  5
5BC
100
AcDbEntity
  8
0
100
AcDbLine
 62
7
  6
CONTINUOUS
 10
171.1834872121
 20
103.7304761069
 11
171.9713334145
 21
103.869394649
  0
LINE
  5
5BD
100
AcDbEntity
  8
0
100
AcDbLine
 62
7
  6
CONTINUOUS
 10
170.5908901209
 20
103.8087620412
 11
170.7592922466
 21
103.8384558796
  0
LINE
  5
5BE
100
AcDbEntity
  8
0
100
AcDbLine
 62
7
  6
CONTINUOUS
 10
170.8370920591
 20
103.8521740856
 11
171.1522305401
 21
103.9077415024
  0
LINE
  5
5BF
100
AcDbEntity
  8
0
100
AcDbLine
 62
7
  6
CONTINUOUS
 10
171.9400767425
 20
104.0466600446
 11
172.1821621844
 21
104.0893462396
  0
LINE
  5
5C0
100
AcDbEntity
  8
0
100
AcDbLine
 62
7
  6
CONTINUOUS
 10
172.4225463434
 20
104.6041325001
 11
172.1013770184
 21
104.5475016827
  0
LINE
  5
5C1
100
AcDbEntity
  8
0
100
AcDbLine
 62
7
  6
CONTINUOUS
 10
170.5074720291
 20
105.2665993011
 11
170.5852718416
 21
105.2803175072
  0
LINE
  5
5C2
100
AcDbEntity
  8
0
100
AcDbLine
 62
7
  6
CONTINUOUS
 10
161.5668184524
 20
110.5334221033
 11
169.8919518432
 21
107.7726379884
  0
LINE
  5
5C3
100
AcDbEntity
  8
0
100
AcDbLine
 62
7
  6
CONTINUOUS
 10
171.583903172
 20
109.3603142713
 11
171.262733847
 21
109.3036834539
  0
LINE
  5
5C4
100
AcDbEntity
  8
0
100
AcDbLine
 62
7
  6
CONTINUOUS
 10
169.5906766175
 20
109.4812546985
 11
170.1520170367
 21
109.5802341598
  0
LINE
  5
5C5
100
AcDbEntity
  8
0
100
AcDbLine
 62
7
  6
CONTINUOUS
 10
170.9398632391
 20
109.7191527019
 11
171.181948681
 21
109.761838897
  0
LINE
  5
5C6
100
AcDbEntity
  8
0
100
AcDbLine
 62
7
  6
CONTINUOUS
 10
170.1207603648
 20
109.7574995553
 11
170.9086065672
 21
109.8964180975
  0
LINE
  5
5C7
100
AcDbEntity
  8
7_ALL_ROUNDS
100
AcDbLine
 62
7
  6
CONTINUOUS
 10
161.0668184524
 20
112.1165669046
 11
160.7408184524
 21
112.1165669046
  0
LINE
  5
5C8
100
AcDbEntity
  8
7_ALL_ROUNDS
100
AcDbLine
 62
7
  6
CONTINUOUS
 10
160.8168184524
 20
112.4565669046
 11
160.7408184524
 21
112.4565669046
  0
LINE
  5
5C9
100
AcDbEntity
  8
0
100
AcDbLine
 62
7
  6
CONTINUOUS
 10
160.4908184524
 20
112.6402588125
 11
160.7408184524
 21
112.6402588125
  0
CIRCLE
  5
5CA
100
AcDbEntity
  8
7_ALL_ROUNDS
100
AcDbCircle
 62
7
  6
CONTINUOUS
 10
74.7619609223
 20
59.7154522885
 40
2.3937007874
  0
CIRCLE
  5
5CB
100
AcDbEntity
  8
7_ALL_ROUNDS
100
AcDbCircle
 62
7
  6
CONTINUOUS
 10
74.7619609223
 20
59.7154522885
 40
2.0
  0
ARC
  5
5CC
100
AcDbEntity
  8
7_ALL_ROUNDS
100
AcDbCircle
 62
7
  6
CONTINUOUS
 10
70.7619609223
 20
74.477273533
 40
0.5
100
AcDbArc
 50
180.0
 51
270.0
  0
ARC
  5
5CD
100
AcDbEntity
  8
7_ALL_ROUNDS
100
AcDbCircle
 62
7
  6
CONTINUOUS
 10
72.8869609223
 20
53.9615152806
 40
0.125
100
AcDbArc
 50
269.9999999992
 51
360.0
  0
ARC
  5
5CE
100
AcDbEntity
  8
7_ALL_ROUNDS
100
AcDbCircle
 62
7
  6
CONTINUOUS
 10
71.6369609223
 20
53.9615152806
 40
0.125
100
AcDbArc
 50
180.0
 51
270.0000000008
  0
CIRCLE
  5
5CF
100
AcDbEntity
  8
0
100
AcDbCircle
 62
7
  6
CONTINUOUS
 10
70.7619609223
 20
81.9775669046
 40
0.11
  0
CIRCLE
  5
5D0
100
AcDbEntity
  8
0
100
AcDbCircle
 62
7
  6
CONTINUOUS
 10
70.7619609223
 20
74.8575669046
 40
0.11
  0
ARC
  5
5D1
100
AcDbEntity
  8
0
100
AcDbCircle
 62
7
  6
CONTINUOUS
 10
85.2619608892
 20
86.7073380691
 40
3.2568262285
100
AcDbArc
 50
215.0234292715
 51
324.9773735058
  0
ARC
  5
5D2
100
AcDbEntity
  8
7_ALL_ROUNDS
100
AcDbCircle
 62
7
  6
CONTINUOUS
 10
70.7619609223
 20
96.3475669046
 40
0.5
100
AcDbArc
 50
90.0
 51
180.0
  0
CIRCLE
  5
5D3
100
AcDbEntity
  8
0
100
AcDbCircle
 62
7
  6
CONTINUOUS
 10
70.7619609223
 20
96.2175669046
 40
0.11
  0
CIRCLE
  5
5D4
100
AcDbEntity
  8
0
100
AcDbCircle
 62
7
  6
CONTINUOUS
 10
70.7619609223
 20
89.0975669046
 40
0.11
  0
CIRCLE
  5
5D5
100
AcDbEntity
  8
0
100
AcDbCircle
 62
7
  6
CONTINUOUS
 10
70.7619609223
 20
111.9575669046
 40
0.11
  0
CIRCLE
  5
5D6
100
AcDbEntity
  8
0
100
AcDbCircle
 62
7
  6
CONTINUOUS
 10
70.7619609223
 20
107.1575669046
 40
0.11
  0
CIRCLE
  5
5D7
100
AcDbEntity
  8
0
100
AcDbCircle
 62
7
  6
CONTINUOUS
 10
70.7619609223
 20
102.3575669046
 40
0.11
  0
CIRCLE
  5
5D8
100
AcDbEntity
  8
0
100
AcDbCircle
 62
7
  6
CONTINUOUS
 10
70.7619609223
 20
97.5575669046
 40
0.11
  0
CIRCLE
  5
5D9
100
AcDbEntity
  8
0
100
AcDbCircle
 62
7
  6
CONTINUOUS
 10
85.2619609223
 20
63.5274601625
 40
7.625
  0
CIRCLE
  5
5DA
100
AcDbEntity
  8
0
100
AcDbCircle
 62
7
  6
CONTINUOUS
 10
85.2619609223
 20
63.5274601625
 40
5.0735365854
  0
CIRCLE
  5
5DB
100
AcDbEntity
  8
7_ALL_ROUNDS
100
AcDbCircle
 62
7
  6
CONTINUOUS
 10
95.7619609223
 20
68.5904522885
 40
2.3937007874
  0
CIRCLE
  5
5DC
100
AcDbEntity
  8
7_ALL_ROUNDS
100
AcDbCircle
 62
7
  6
CONTINUOUS
 10
95.7619609223
 20
68.5904522885
 40
2.0
  0
CIRCLE
  5
5DD
100
AcDbEntity
  8
0
100
AcDbCircle
 62
7
  6
CONTINUOUS
 10
85.2619609223
 20
63.5274601625
 40
2.0
  0
ARC
  5
5DE
100
AcDbEntity
  8
7_ALL_ROUNDS
100
AcDbCircle
 62
7
  6
CONTINUOUS
 10
99.7619609223
 20
74.477273533
 40
0.5
100
AcDbArc
 50
270.0
 51
360.0
  0
ARC
  5
5DF
100
AcDbEntity
  8
7_ALL_ROUNDS
100
AcDbCircle
 62
7
  6
CONTINUOUS
 10
98.8869609223
 20
53.9615152806
 40
0.125
100
AcDbArc
 50
269.9999999992
 51
360.0
  0
ARC
  5
5E0
100
AcDbEntity
  8
7_ALL_ROUNDS
100
AcDbCircle
 62
7
  6
CONTINUOUS
 10
97.6369609223
 20
53.9615152806
 40
0.125
100
AcDbArc
 50
180.0
 51
270.0000000008
  0
CIRCLE
  5
5E1
100
AcDbEntity
  8
0
100
AcDbCircle
 62
7
  6
CONTINUOUS
 10
99.7619609223
 20
81.9775669046
 40
0.11
  0
CIRCLE
  5
5E2
100
AcDbEntity
  8
0
100
AcDbCircle
 62
7
  6
CONTINUOUS
 10
99.7619609223
 20
74.8575669046
 40
0.11
  0
ARC
  5
5E3
100
AcDbEntity
  8
0
100
AcDbCircle
 62
7
  6
CONTINUOUS
 10
85.2619610642
 20
86.6695531126
 40
3.256826619
100
AcDbArc
 50
35.0269522234
 51
144.9764891407
  0
ARC
  5
5E4
100
AcDbEntity
  8
7_ALL_ROUNDS
100
AcDbCircle
 62
7
  6
CONTINUOUS
 10
99.7619609223
 20
96.3475669046
 40
0.5
100
AcDbArc
 50
0.0
 51
90.0
  0
CIRCLE
  5
5E5
100
AcDbEntity
  8
0
100
AcDbCircle
 62
7
  6
CONTINUOUS
 10
99.7619609223
 20
96.2175669046
 40
0.11
  0
CIRCLE
  5
5E6
100
AcDbEntity
  8
0
100
AcDbCircle
 62
7
  6
CONTINUOUS
 10
99.7619609223
 20
89.0975669046
 40
0.11
  0
CIRCLE
  5
5E7
100
AcDbEntity
  8
0
100
AcDbCircle
 62
7
  6
CONTINUOUS
 10
99.7619609223
 20
111.9575669046
 40
0.11
  0
CIRCLE
  5
5E8
100
AcDbEntity
  8
0
100
AcDbCircle
 62
7
  6
CONTINUOUS
 10
99.7619609223
 20
107.1575669046
 40
0.11
  0
CIRCLE
  5
5E9
100
AcDbEntity
  8
0
100
AcDbCircle
 62
7
  6
CONTINUOUS
 10
99.7619609223
 20
102.3575669046
 40
0.11
  0
CIRCLE
  5
5EA
100
AcDbEntity
  8
0
100
AcDbCircle
 62
7
  6
CONTINUOUS
 10
99.7619609223
 20
97.5575669046
 40
0.11
  0
ARC
  5
5EB
100
AcDbEntity
  8
0
100
AcDbCircle
 62
7
  6
CONTINUOUS
 10
76.2619609223
 20
148.4568154762
 40
18.166
100
AcDbArc
 50
8.286392693
 51
15.0
  0
ARC
  5
5EC
100
AcDbEntity
  8
0
100
AcDbCircle
 62
7
  6
CONTINUOUS
 10
76.2619609223
 20
148.4568154762
 40
18.166
100
AcDbArc
 50
60.3018233717
 51
75.0
  0
ARC
  5
5ED
100
AcDbEntity
  8
0
100
AcDbCircle
 62
7
  6
CONTINUOUS
 10
76.2619609223
 20
148.4568154762
 40
17.834
100
AcDbArc
 50
9.6046149051
 51
15.0
  0
ARC
  5
5EE
100
AcDbEntity
  8
0
100
AcDbCircle
 62
7
  6
CONTINUOUS
 10
76.2619609223
 20
148.4568154762
 40
17.834
100
AcDbArc
 50
59.6916110943
 51
75.0
  0
ARC
  5
5EF
100
AcDbEntity
  8
0
100
AcDbCircle
 62
7
  6
CONTINUOUS
 10
85.2584288449
 20
148.1637468826
 40
15.5884389813
100
AcDbArc
 50
78.9147499075
 51
89.9870177423
  0
ARC
  5
5F0
100
AcDbEntity
  8
0
100
AcDbCircle
 62
7
  6
CONTINUOUS
 10
82.3357980231
 20
171.8609138175
 40
14.4959551419
100
AcDbArc
 50
263.273121606
 51
263.4469353088
  0
ARC
  5
5F1
100
AcDbEntity
  8
0
100
AcDbCircle
 62
7
  6
CONTINUOUS
 10
85.2581248254
 20
150.2171873536
 40
8.1618422517
100
AcDbArc
 50
75.866039171
 51
89.9730707646
  0
ARC
  5
5F2
100
AcDbEntity
  8
0
100
AcDbCircle
 62
7
  6
CONTINUOUS
 10
83.5975231888
 20
155.0363744636
 40
2.9076851312
100
AcDbArc
 50
105.0274330074
 51
105.2800671919
  0
ARC
  5
5F3
100
AcDbEntity
  8
0
100
AcDbCircle
 62
7
  6
CONTINUOUS
 10
80.4613852902
 20
155.7643665416
 40
2.5923721263
100
AcDbArc
 50
103.5995286903
 51
104.4033983116
  0
ARC
  5
5F4
100
AcDbEntity
  8
0
100
AcDbCircle
 62
7
  6
CONTINUOUS
 10
82.7717380948
 20
156.7046723034
 40
0.8951672327
100
AcDbArc
 50
115.3196105732
 51
117.1844572107
  0
CIRCLE
  5
5F5
100
AcDbEntity
  8
0
100
AcDbCircle
 62
7
  6
CONTINUOUS
 10
72.2619609223
 20
164.1318154762
 40
0.875
  0
CIRCLE
  5
5F6
100
AcDbEntity
  8
0
100
AcDbCircle
 62
7
  6
CONTINUOUS
 10
72.2619609223
 20
164.1318154762
 40
0.815
  0
ARC
  5
5F7
100
AcDbEntity
  8
0
100
AcDbCircle
 62
7
  6
CONTINUOUS
 10
80.9207037341
 20
165.8434803494
 40
0.166
100
AcDbArc
 50
75.0
 51
255.0
  0
ARC
  5
5F8
100
AcDbEntity
  8
0
100
AcDbCircle
 62
7
  6
CONTINUOUS
 10
76.8752960491
 20
153.115558288
 40
0.166
100
AcDbArc
 50
344.9999999999
 51
165.0
  0
ARC
  5
5F9
100
AcDbEntity
  8
0
100
AcDbCircle
 62
7
  6
CONTINUOUS
 10
83.5739609223
 20
163.7328154762
 40
0.094
100
AcDbArc
 50
90.0
 51
238.402493022
  0
ARC
  5
5FA
100
AcDbEntity
  8
0
100
AcDbCircle
 62
7
  6
CONTINUOUS
 10
84.3693996596
 20
196.9837877941
 40
39.6260915778
100
AcDbArc
 50
266.7510540441
 51
266.8693548032
  0
ARC
  5
5FB
100
AcDbEntity
  8
0
100
AcDbCircle
 62
7
  6
CONTINUOUS
 10
84.1234060799
 20
192.8902010032
 40
35.2526763327
100
AcDbArc
 50
265.8376838907
 51
267.1685063966
  0
ARC
  5
5FC
100
AcDbEntity
  8
0
100
AcDbCircle
 62
7
  6
CONTINUOUS
 10
83.9002111133
 20
189.3379953271
 40
32.0444233373
100
AcDbArc
 50
265.8203528912
 51
266.2961451443
  0
ARC
  5
5FD
100
AcDbEntity
  8
0
100
AcDbCircle
 62
7
  6
CONTINUOUS
 10
82.5370722994
 20
173.9881243368
 40
16.2828259525
100
AcDbArc
 50
263.4728003658
 51
264.0820660221
  0
ARC
  5
5FE
100
AcDbEntity
  8
0
100
AcDbCircle
 62
7
  6
CONTINUOUS
 10
94.2619609223
 20
148.4568154762
 40
18.166
100
AcDbArc
 50
105.0
 51
119.6981766283
  0
ARC
  5
5FF
100
AcDbEntity
  8
0
100
AcDbCircle
 62
7
  6
CONTINUOUS
 10
94.2619609223
 20
148.4568154762
 40
18.166
100
AcDbArc
 50
165.0
 51
171.713635101
  0
ARC
  5
600
100
AcDbEntity
  8
0
100
AcDbCircle
 62
7
  6
CONTINUOUS
 10
94.2619609223
 20
148.4568154762
 40
17.834
100
AcDbArc
 50
105.0
 51
120.3083889057
  0
ARC
  5
601
100
AcDbEntity
  8
0
100
AcDbCircle
 62
7
  6
CONTINUOUS
 10
94.2619609223
 20
148.4568154762
 40
17.834
100
AcDbArc
 50
165.0
 51
170.3953947642
  0
ARC
  5
602
100
AcDbEntity
  8
0
100
AcDbCircle
 62
7
  6
CONTINUOUS
 10
85.2654929997
 20
148.1637468826
 40
15.5884389813
100
AcDbArc
 50
90.0129822577
 51
101.0852500925
  0
ARC
  5
603
100
AcDbEntity
  8
0
100
AcDbCircle
 62
7
  6
CONTINUOUS
 10
88.1879577233
 20
171.8623469601
 40
14.497397877
100
AcDbArc
 50
276.5530704534
 51
276.7261600147
  0
ARC
  5
604
100
AcDbEntity
  8
0
100
AcDbCircle
 62
7
  6
CONTINUOUS
 10
85.2657970192
 20
150.2171873536
 40
8.1618422517
100
AcDbArc
 50
90.0269292354
 51
104.133960829
  0
ARC
  5
605
100
AcDbEntity
  8
0
100
AcDbCircle
 62
7
  6
CONTINUOUS
 10
86.9263986579
 20
155.0363744714
 40
2.9076851231
100
AcDbArc
 50
74.7199328076
 51
74.9725669928
  0
ARC
  5
606
100
AcDbEntity
  8
0
100
AcDbCircle
 62
7
  6
CONTINUOUS
 10
87.7903827101
 20
160.8105751517
 40
2.689775115
100
AcDbArc
 50
70.1630138743
 51
71.7968375269
  0
ARC
  5
607
100
AcDbEntity
  8
0
100
AcDbCircle
 62
7
  6
CONTINUOUS
 10
87.7913822739
 20
160.6043233443
 40
2.6866871197
100
AcDbArc
 50
69.3332670358
 51
71.7976212987
  0
ARC
  5
608
100
AcDbEntity
  8
0
100
AcDbCircle
 62
7
  6
CONTINUOUS
 10
87.7941146079
 20
160.8209647492
 40
2.6787356148
100
AcDbArc
 50
69.0888878275
 51
70.1626886278
  0
ARC
  5
609
100
AcDbEntity
  8
0
100
AcDbCircle
 62
7
  6
CONTINUOUS
 10
87.7958040705
 20
160.6162536933
 40
2.6739639083
100
AcDbArc
 50
68.9123625249
 51
69.3316953955
  0
ARC
  5
60A
100
AcDbEntity
  8
0
100
AcDbCircle
 62
7
  6
CONTINUOUS
 10
87.7984166937
 20
160.6229942334
 40
2.6667347642
100
AcDbArc
 50
67.9232130457
 51
68.912629865
  0
ARC
  5
60B
100
AcDbEntity
  8
0
100
AcDbCircle
 62
7
  6
CONTINUOUS
 10
90.0625365544
 20
155.7643665416
 40
2.5923721262
100
AcDbArc
 50
75.5966016884
 51
76.4004713097
  0
ARC
  5
60C
100
AcDbEntity
  8
7_ALL_ROUNDS
100
AcDbCircle
 62
7
  6
CONTINUOUS
 10
87.9842811026
 20
160.9098431578
 40
2.5269664895
100
AcDbArc
 50
3.0260234434
 51
42.8816036629
  0
ARC
  5
60D
100
AcDbEntity
  8
0
100
AcDbCircle
 62
7
  6
CONTINUOUS
 10
87.8695054511
 20
160.747553045
 40
2.5226708685
100
AcDbArc
 50
47.6984559535
 51
50.7668632285
  0
ARC
  5
60E
100
AcDbEntity
  8
0
100
AcDbCircle
 62
7
  6
CONTINUOUS
 10
87.8706069592
 20
160.9579658025
 40
2.5210133679
100
AcDbArc
 50
48.3032191154
 51
50.7649950211
  0
ARC
  5
60F
100
AcDbEntity
  8
0
100
AcDbCircle
 62
7
  6
CONTINUOUS
 10
87.8722558028
 20
160.9598159248
 40
2.5185351351
100
AcDbArc
 50
47.612631165
 51
48.3032298376
  0
ARC
  5
610
100
AcDbEntity
  8
0
100
AcDbCircle
 62
7
  6
CONTINUOUS
 10
87.8805932558
 20
160.7596106591
 40
2.5062904501
100
AcDbArc
 50
43.7449117077
 51
47.7004109747
  0
ARC
  5
611
100
AcDbEntity
  8
0
100
AcDbCircle
 62
7
  6
CONTINUOUS
 10
87.8807873072
 20
160.9689809969
 40
2.5060143546
100
AcDbArc
 50
43.7447329172
 51
47.6154402718
  0
ARC
  5
612
100
AcDbEntity
  8
0
100
AcDbCircle
 62
7
  6
CONTINUOUS
 10
88.4774184938
 20
156.3038984208
 40
1.1119433067
100
AcDbArc
 50
83.1560610365
 51
83.7323943327
  0
ARC
  5
613
100
AcDbEntity
  8
0
100
AcDbCircle
 62
7
  6
CONTINUOUS
 10
87.7521837498
 20
156.7046723034
 40
0.8951672327
100
AcDbArc
 50
62.8155427893
 51
64.6803894269
  0
CIRCLE
  5
614
100
AcDbEntity
  8
0
100
AcDbCircle
 62
7
  6
CONTINUOUS
 10
98.2619609223
 20
164.1318154762
 40
0.875
  0
CIRCLE
  5
615
100
AcDbEntity
  8
0
100
AcDbCircle
 62
7
  6
CONTINUOUS
 10
98.2619609223
 20
164.1318154762
 40
0.815
  0
ARC
  5
616
100
AcDbEntity
  8
0
100
AcDbCircle
 62
7
  6
CONTINUOUS
 10
93.6486257955
 20
153.115558288
 40
0.166
100
AcDbArc
 50
15.0
 51
195.0000000001
  0
ARC
  5
617
100
AcDbEntity
  8
0
100
AcDbCircle
 62
7
  6
CONTINUOUS
 10
89.6032181105
 20
165.8434803494
 40
0.166
100
AcDbArc
 50
285.0
 51
105.0
  0
ARC
  5
618
100
AcDbEntity
  8
0
100
AcDbCircle
 62
7
  6
CONTINUOUS
 10
86.9499609223
 20
163.7328154762
 40
0.094
100
AcDbArc
 50
301.6162723997
 51
90.0
  0
ARC
  5
619
100
AcDbEntity
  8
0
100
AcDbCircle
 62
7
  6
CONTINUOUS
 10
86.5793994445
 20
190.3287161949
 40
32.6849647015
100
AcDbArc
 50
273.5579006714
 51
274.1754746819
  0
ARC
  5
61A
100
AcDbEntity
  8
0
100
AcDbCircle
 62
7
  6
CONTINUOUS
 10
86.6237111517
 20
189.3379895304
 40
32.0444175254
100
AcDbArc
 50
273.7038577118
 51
274.1796471144
  0
ARC
  5
61B
100
AcDbEntity
  8
0
100
AcDbCircle
 62
7
  6
CONTINUOUS
 10
85.2619609223
 20
173.3178427788
 40
17.3061716615
100
AcDbArc
 50
268.0755250822
 51
271.9244749178
  0
ARC
  5
61C
100
AcDbEntity
  8
0
100
AcDbCircle
 62
7
  6
CONTINUOUS
 10
87.9868495452
 20
173.9881243368
 40
16.2828259525
100
AcDbArc
 50
275.9179339779
 51
276.5271996342
  0
ARC
  5
61D
100
AcDbEntity
  8
7_ALL_ROUNDS
100
AcDbCircle
 62
7
  6
CONTINUOUS
 10
161.0668184524
 20
74.9775669046
 40
0.5
100
AcDbArc
 50
270.0
 51
360.0
  0
ARC
  5
61E
100
AcDbEntity
  8
0
100
AcDbCircle
 62
7
  6
CONTINUOUS
 10
161.5907559866
 20
74.2775237529
 40
0.4992765553
100
AcDbArc
 50
216.9681197022
 51
33.331077468
  0
ARC
  5
61F
100
AcDbEntity
  8
7_ALL_ROUNDS
100
AcDbCircle
 62
7
  6
CONTINUOUS
 10
168.8358184524
 20
73.9874522885
 40
0.312
100
AcDbArc
 50
90.0
 51
163.4148165404
  0
CIRCLE
  5
620
100
AcDbEntity
  8
0
100
AcDbCircle
 62
7
  6
CONTINUOUS
 10
161.5907559866
 20
74.2775237529
 40
0.1825
  0
ARC
  5
621
100
AcDbEntity
  8
7_ALL_ROUNDS
100
AcDbCircle
 62
7
  6
CONTINUOUS
 10
163.6158184524
 20
53.9615152806
 40
0.125
100
AcDbArc
 50
270.0
 51
360.0
  0
ARC
  5
622
100
AcDbEntity
  8
7_ALL_ROUNDS
100
AcDbCircle
 62
7
  6
CONTINUOUS
 10
162.3658184524
 20
53.9615152806
 40
0.125
100
AcDbArc
 50
180.0
 51
270.0
  0
ARC
  5
623
100
AcDbEntity
  8
7_ALL_ROUNDS
100
AcDbCircle
 62
7
  6
CONTINUOUS
 10
162.3091051089
 20
85.9834355614
 40
15.5520833333
100
AcDbArc
 50
352.8403473747
 51
17.1596526253
  0
ARC
  5
624
100
AcDbEntity
  8
0
100
AcDbCircle
 62
7
  6
CONTINUOUS
 10
164.910624016
 20
86.2045710203
 40
12.5703858418
100
AcDbArc
 50
2.9778054621
 51
4.7798098374
  0
ARC
  5
625
100
AcDbEntity
  8
0
100
AcDbCircle
 62
7
  6
CONTINUOUS
 10
164.9340387915
 20
86.2201007459
 40
12.5457024
100
AcDbArc
 50
5.263247685
 51
7.0344819173
  0
ARC
  5
626
100
AcDbEntity
  8
0
100
AcDbCircle
 62
7
  6
CONTINUOUS
 10
166.5607049973
 20
86.2892566307
 40
10.918115132
100
AcDbArc
 50
2.1432405203
 51
2.3688718051
  0
ARC
  5
627
100
AcDbEntity
  8
0
100
AcDbCircle
 62
7
  6
CONTINUOUS
 10
167.5632303538
 20
86.5633603075
 40
9.8941097383
100
AcDbArc
 50
7.6989772644
 51
9.4744667292
  0
ARC
  5
628
100
AcDbEntity
  8
0
100
AcDbCircle
 62
7
  6
CONTINUOUS
 10
167.6998402424
 20
86.3272549266
 40
9.7783568039
100
AcDbArc
 50
0.4399575328
 51
2.1703670129
  0
ARC
  5
629
100
AcDbEntity
  8
0
100
AcDbCircle
 62
7
  6
CONTINUOUS
 10
168.6463346458
 20
86.7398306363
 40
8.7967325877
100
AcDbArc
 50
9.5019827698
 51
9.9144511983
  0
ARC
  5
62A
100
AcDbEntity
  8
0
100
AcDbCircle
 62
7
  6
CONTINUOUS
 10
168.7439063987
 20
86.3392739034
 40
8.7342300552
100
AcDbArc
 50
0.0345233206
 51
0.4137072403
  0
ARC
  5
62B
100
AcDbEntity
  8
0
100
AcDbCircle
 62
7
  6
CONTINUOUS
 10
164.3570742904
 20
105.6340007597
 40
8.1309573895
100
AcDbArc
 50
352.7233626954
 51
27.2766373046
  0
ARC
  5
62C
100
AcDbEntity
  8
0
100
AcDbCircle
 62
7
  6
CONTINUOUS
 10
169.8966782314
 20
86.3306159974
 40
7.5814025072
100
AcDbArc
 50
358.2997648222
 51
359.2575559686
  0
ARC
  5
62D
100
AcDbEntity
  8
0
100
AcDbCircle
 62
7
  6
CONTINUOUS
 10
169.870297727
 20
86.9648561455
 40
7.5522245891
100
AcDbArc
 50
10.832894886
 51
11.7014649673
  0
ARC
  5
62E
100
AcDbEntity
  8
7_ALL_ROUNDS
100
AcDbCircle
 62
7
  6
CONTINUOUS
 10
161.0668184524
 20
111.6165669046
 40
0.5
100
AcDbArc
 50
0.0
 51
90.0
  0
ARC
  5
62F
100
AcDbEntity
  8
7_ALL_ROUNDS
100
AcDbCircle
 62
7
  6
CONTINUOUS
 10
169.6661072315
 20
102.1418510542
 40
0.25
100
AcDbArc
 50
280.0
 51
10.0
  0
CIRCLE
  5
630
100
AcDbEntity
  8
0
100
AcDbCircle
 62
7
  6
CONTINUOUS
 10
169.7130470356
 20
102.5166968151
 40
0.0925
  0
CIRCLE
  5
631
100
AcDbEntity
  8
0
100
AcDbCircle
 62
7
  6
CONTINUOUS
 10
168.0763309579
 20
101.7203863049
 40
0.0925
  0
CIRCLE
  5
632
100
AcDbEntity
  8
0
100
AcDbCircle
 62
7
  6
CONTINUOUS
 10
168.7492176464
 20
97.904256262
 40
0.0925
  0
CIRCLE
  5
633
100
AcDbEntity
  8
0
100
AcDbCircle
 62
7
  6
CONTINUOUS
 10
169.4221043348
 20
94.0881262191
 40
0.0925
  0
ARC
  5
634
100
AcDbEntity
  8
7_ALL_ROUNDS
100
AcDbCircle
 62
7
  6
CONTINUOUS
 10
171.8708184524
 20
64.4765152806
 40
0.19
100
AcDbArc
 50
180.0
 51
270.0
  0
ARC
  5
635
100
AcDbEntity
  8
7_ALL_ROUNDS
100
AcDbCircle
 62
7
  6
CONTINUOUS
 10
172.574617665
 20
65.184684572
 40
0.1875
100
AcDbArc
 50
180.0
 51
270.0
  0
ARC
  5
636
100
AcDbEntity
  8
7_ALL_ROUNDS
100
AcDbCircle
 62
7
  6
CONTINUOUS
 10
171.9028184524
 20
64.5128853594
 40
0.187
100
AcDbArc
 50
180.0
 51
270.0
  0
ARC
  5
637
100
AcDbEntity
  8
7_ALL_ROUNDS
100
AcDbCircle
 62
7
  6
CONTINUOUS
 10
170.5827754215
 20
79.5846926841
 40
1.3
100
AcDbArc
 50
130.695918265
 51
180.0
  0
ARC
  5
638
100
AcDbEntity
  8
7_ALL_ROUNDS
100
AcDbCircle
 62
7
  6
CONTINUOUS
 10
171.022733057
 20
79.5905678558
 40
0.6
100
AcDbArc
 50
140.9542109377
 51
220.695918265
  0
ARC
  5
639
100
AcDbEntity
  8
7_ALL_ROUNDS
100
AcDbCircle
 62
7
  6
CONTINUOUS
 10
170.1684255922
 20
80.2835035741
 40
0.5000005247
100
AcDbArc
 50
320.9542109377
 51
130.695918265
  0
ARC
  5
63A
100
AcDbEntity
  8
7_ALL_ROUNDS
100
AcDbCircle
 62
7
  6
CONTINUOUS
 10
171.8708184524
 20
71.1965152806
 40
0.19
100
AcDbArc
 50
90.0
 51
180.0
  0
ARC
  5
63B
100
AcDbEntity
  8
7_ALL_ROUNDS
100
AcDbCircle
 62
7
  6
CONTINUOUS
 10
172.574617665
 20
70.4883459893
 40
0.1875
100
AcDbArc
 50
90.0
 51
180.0
  0
ARC
  5
63C
100
AcDbEntity
  8
7_ALL_ROUNDS
100
AcDbCircle
 62
7
  6
CONTINUOUS
 10
171.9028184524
 20
71.1601452019
 40
0.187
100
AcDbArc
 50
90.0
 51
180.0
  0
CIRCLE
  5
63D
100
AcDbEntity
  8
0
100
AcDbCircle
 62
7
  6
CONTINUOUS
 10
170.1684255922
 20
80.2835035741
 40
0.1615
  0
CIRCLE
  5
63E
100
AcDbEntity
  8
0
100
AcDbCircle
 62
7
  6
CONTINUOUS
 10
172.9281567201
 20
69.4320664617
 40
0.0835
  0
ARC
  5
63F
100
AcDbEntity
  8
7_ALL_ROUNDS
100
AcDbCircle
 62
7
  6
CONTINUOUS
 10
176.5408184524
 20
64.4765152806
 40
0.19
100
AcDbArc
 50
270.0
 51
360.0
  0
ARC
  5
640
100
AcDbEntity
  8
7_ALL_ROUNDS
100
AcDbCircle
 62
7
  6
CONTINUOUS
 10
175.8370192398
 20
65.184684572
 40
0.1875
100
AcDbArc
 50
270.0
 51
360.0
  0
ARC
  5
641
100
AcDbEntity
  8
7_ALL_ROUNDS
100
AcDbCircle
 62
7
  6
CONTINUOUS
 10
176.5088184524
 20
64.5128853594
 40
0.187
100
AcDbArc
 50
270.0
 51
360.0
  0
ARC
  5
642
100
AcDbEntity
  8
7_ALL_ROUNDS
100
AcDbCircle
 62
7
  6
CONTINUOUS
 10
178.8658184524
 20
53.9615152806
 40
0.125
100
AcDbArc
 50
270.0
 51
360.0
  0
ARC
  5
643
100
AcDbEntity
  8
7_ALL_ROUNDS
100
AcDbCircle
 62
7
  6
CONTINUOUS
 10
177.6158184524
 20
53.9615152806
 40
0.125
100
AcDbArc
 50
180.0
 51
270.0
  0
ARC
  5
644
100
AcDbEntity
  8
7_ALL_ROUNDS
100
AcDbCircle
 62
7
  6
CONTINUOUS
 10
177.4358184524
 20
73.9874522885
 40
0.312
100
AcDbArc
 50
16.5851834596
 51
90.0
  0
ARC
  5
645
100
AcDbEntity
  8
7_ALL_ROUNDS
100
AcDbCircle
 62
7
  6
CONTINUOUS
 10
176.5408184524
 20
71.1965152806
 40
0.19
100
AcDbArc
 50
0.0
 51
90.0
  0
ARC
  5
646
100
AcDbEntity
  8
7_ALL_ROUNDS
100
AcDbCircle
 62
7
  6
CONTINUOUS
 10
175.8370192398
 20
70.4883459893
 40
0.1875
100
AcDbArc
 50
0.0
 51
90.0
  0
ARC
  5
647
100
AcDbEntity
  8
7_ALL_ROUNDS
100
AcDbCircle
 62
7
  6
CONTINUOUS
 10
176.5088184524
 20
71.1601452019
 40
0.187
100
AcDbArc
 50
0.0
 51
90.0
  0
CIRCLE
  5
648
100
AcDbEntity
  8
0
100
AcDbCircle
 62
7
  6
CONTINUOUS
 10
175.4931567201
 20
69.4320664617
 40
0.0835
  0
ARC
  5
649
100
AcDbEntity
  8
7_ALL_ROUNDS
100
AcDbCircle
 62
7
  6
CONTINUOUS
 10
171.0610153351
 20
94.2309340866
 40
0.25
100
AcDbArc
 50
10.0
 51
100.0
  0
ARC
  5
64A
100
AcDbEntity
  8
0
100
AcDbCircle
 62
7
  6
CONTINUOUS
 10
171.3688348404
 20
93.924895543
 40
0.2269992548
100
AcDbArc
 50
280.0
 51
100.0
  0
CIRCLE
  5
64B
100
AcDbEntity
  8
0
100
AcDbCircle
 62
7
  6
CONTINUOUS
 10
171.4682933357
 20
95.2104945065
 40
0.185
  0
CIRCLE
  5
64C
100
AcDbEntity
  8
0
100
AcDbCircle
 62
7
  6
CONTINUOUS
 10
171.5748046605
 20
96.7371838454
 40
0.135
  0
CIRCLE
  5
64D
100
AcDbEntity
  8
0
100
AcDbCircle
 62
7
  6
CONTINUOUS
 10
171.4851587888
 20
97.2455908479
 40
0.135
  0
CIRCLE
  5
64E
100
AcDbEntity
  8
0
100
AcDbCircle
 62
7
  6
CONTINUOUS
 10
171.3926911342
 20
97.7700009764
 40
0.135
  0
CIRCLE
  5
64F
100
AcDbEntity
  8
0
100
AcDbCircle
 62
7
  6
CONTINUOUS
 10
171.3030452625
 20
98.2784079789
 40
0.135
  0
CIRCLE
  5
650
100
AcDbEntity
  8
0
100
AcDbCircle
 62
7
  6
CONTINUOUS
 10
170.9557489071
 20
100.2480234849
 40
0.135
  0
CIRCLE
  5
651
100
AcDbEntity
  8
0
100
AcDbCircle
 62
7
  6
CONTINUOUS
 10
170.8661030354
 20
100.7564304874
 40
0.135
  0
CIRCLE
  5
652
100
AcDbEntity
  8
0
100
AcDbCircle
 62
7
  6
CONTINUOUS
 10
170.7736353808
 20
101.2808406159
 40
0.135
  0
CIRCLE
  5
653
100
AcDbEntity
  8
0
100
AcDbCircle
 62
7
  6
CONTINUOUS
 10
170.6839895091
 20
101.7892476184
 40
0.135
  0
ARC
  5
654
100
AcDbEntity
  8
0
100
AcDbCircle
 62
7
  6
CONTINUOUS
 10
171.4682933357
 20
95.2104945065
 40
0.125
100
AcDbArc
 50
23.2810120025
 51
296.7189879976
  0
CIRCLE
  5
655
100
AcDbEntity
  8
0
100
AcDbCircle
 62
7
  6
CONTINUOUS
 10
171.2326236385
 20
93.8987496537
 40
0.0925
  0
CIRCLE
  5
656
100
AcDbEntity
  8
0
100
AcDbCircle
 62
7
  6
CONTINUOUS
 10
171.6616287493
 20
96.2447799689
 40
0.0835
  0
CIRCLE
  5
657
100
AcDbEntity
  8
0
100
AcDbCircle
 62
7
  6
CONTINUOUS
 10
171.2162211736
 20
98.7708118554
 40
0.0835
  0
CIRCLE
  5
658
100
AcDbEntity
  8
0
100
AcDbCircle
 62
7
  6
CONTINUOUS
 10
171.042572996
 20
99.7556196084
 40
0.0835
  0
CIRCLE
  5
659
100
AcDbEntity
  8
0
100
AcDbCircle
 62
7
  6
CONTINUOUS
 10
170.5971654202
 20
102.2816514949
 40
0.0835
  0
CIRCLE
  5
65A
100
AcDbEntity
  8
0
100
AcDbCircle
 62
7
  6
CONTINUOUS
 10
171.8206780685
 20
95.0822369527
 40
0.059
  0
ARC
  5
65B
100
AcDbEntity
  8
7_ALL_ROUNDS
100
AcDbCircle
 62
7
  6
CONTINUOUS
 10
174.7801927197
 20
89.8342605567
 40
2.5
100
AcDbArc
 50
17.1596526252
 51
91.9999999999
  0
ARC
  5
65C
100
AcDbEntity
  8
7_ALL_ROUNDS
100
AcDbCircle
 62
7
  6
CONTINUOUS
 10
175.2594176171
 20
84.3566949138
 40
2.5
100
AcDbArc
 50
278.0000000001
 51
352.8403473748
  0
SPLINE
  5
65D
100
AcDbEntity
  8
0
100
AcDbSpline
 62
7
  6
CONTINUOUS
 70
0
 71
3
 72
8
 73
4
 74
0
 42
0.0000001
 43
0.0000001
 44
0.0000000001
 40
0.0
 40
0.0
 40
0.0
 40
0.0
 40
1.0
 40
1.0
 40
1.0
 40
1.0
 10
88.5119609223
 20
86.68844581
 30
0.0
 10
88.5119609223
 20
87.3351347625
 30
0.0
 10
88.299418254
 20
88.0088125271
 30
0.0
 10
87.9288737507
 20
88.5388157086
 30
0.0
  0
SPLINE
  5
65E
100
AcDbEntity
  8
0
100
AcDbSpline
 62
7
  6
CONTINUOUS
 70
0
 71
3
 72
8
 73
4
 74
0
 42
0.0000001
 43
0.0000001
 44
0.0000000001
 40
0.0
 40
0.0
 40
0.0
 40
0.0
 40
1.0
 40
1.0
 40
1.0
 40
1.0
 10
82.5949361089
 20
88.5386555221
 30
0.0
 10
82.2244594583
 20
88.0086807314
 30
0.0
 10
82.0119609223
 20
87.3350726169
 30
0.0
 10
82.0119609223
 20
86.68844581
 30
0.0
  0
SPLINE
  5
65F
100
AcDbEntity
  8
0
100
AcDbSpline
 62
7
  6
CONTINUOUS
 70
0
 71
3
 72
15
 73
11
 74
0
 42
0.0000001
 43
0.0000001
 44
0.0000000001
 40
0.0
 40
0.0
 40
0.0
 40
0.0
 40
0.2454793942
 40
0.4909010939
 40
0.6136887244
 40
0.7368392193
 40
0.7989078908
 40
0.8620198317
 40
0.9280385839
 40
1.0
 40
1.0
 40
1.0
 40
1.0
 10
97.8861509304
 20
90.113060708
 30
0.0
 10
97.079837179
 20
89.9115560363
 30
0.0
 10
95.4662167954
 20
89.5134289029
 30
0.0
 10
93.4435663981
 20
89.0372562238
 30
0.0
 10
91.8161863982
 20
88.6920193368
 30
0.0
 10
90.7899168926
 20
88.5044527948
 30
0.0
 10
89.9556789718
 20
88.3973863249
 30
0.0
 10
89.3089042133
 20
88.3569735991
 30
0.0
 10
88.6262089187
 20
88.3967584778
 30
0.0
 10
88.170225501
 20
88.5041631159
 30
0.0
 10
87.9290325455
 20
88.5385885579
 30
0.0
  0
SPLINE
  5
660
100
AcDbEntity
  8
0
100
AcDbSpline
 62
7
  6
CONTINUOUS
 70
0
 71
3
 72
16
 73
12
 74
0
 42
0.0000001
 43
0.0000001
 44
0.0000000001
 40
0.0
 40
0.0
 40
0.0
 40
0.0
 40
0.2486926349
 40
0.3728691587
 40
0.4968733758
 40
0.6206348361
 40
0.7440889567
 40
0.8057867469
 40
0.8678433676
 40
0.931691489
 40
1.0
 40
1.0
 40
1.0
 40
1.0
 10
98.8938400281
 20
81.3626138874
 30
0.0
 10
98.0065716538
 20
81.7329701582
 30
0.0
 10
96.6749631781
 20
82.2851603062
 30
0.0
 10
94.8948256349
 20
83.0070596757
 30
0.0
 10
93.5577640548
 20
83.5363558883
 30
0.0
 10
92.2156711723
 20
84.0446266557
 30
0.0
 10
91.0868208436
 20
84.436572647
 30
0.0
 10
90.1670529885
 20
84.6972412415
 30
0.0
 10
89.4555887133
 20
84.84530221
 30
0.0
 10
88.702686821
 20
84.8900059296
 30
0.0
 10
88.1930602001
 20
84.8438128951
 30
0.0
 10
87.9290325455
 20
84.8383030622
 30
0.0
  0
SPLINE
  5
661
100
AcDbEntity
  8
0
100
AcDbSpline
 62
7
  6
CONTINUOUS
 70
0
 71
3
 72
8
 73
4
 74
0
 42
0.0000001
 43
0.0000001
 44
0.0000000001
 40
0.0
 40
0.0
 40
0.0
 40
0.0
 40
1.0
 40
1.0
 40
1.0
 40
1.0
 10
87.9290143663
 20
84.8382770553
 30
0.0
 10
88.2994736692
 20
85.368244586
 30
0.0
 10
88.5119609223
 20
86.0418348925
 30
0.0
 10
88.5119609223
 20
86.68844581
 30
0.0
  0
SPLINE
  5
662
100
AcDbEntity
  8
0
100
AcDbSpline
 62
7
  6
CONTINUOUS
 70
0
 71
3
 72
15
 73
11
 74
0
 42
0.0000001
 43
0.0000001
 44
0.0000000001
 40
0.0
 40
0.0
 40
0.0
 40
0.0
 40
0.2463665789
 40
0.3687412925
 40
0.4902639797
 40
0.6105120591
 40
0.7289651221
 40
0.7880374267
 40
0.8497610903
 40
1.0
 40
1.0
 40
1.0
 40
1.0
 10
78.1352819708
 20
94.434590247
 30
0.0
 10
78.5946561998
 20
94.0101707454
 30
0.0
 10
79.2802899976
 20
93.3728031225
 30
0.0
 10
80.1814552908
 20
92.5144040153
 30
0.0
 10
80.8418737094
 20
91.8673473942
 30
0.0
 10
81.476736229
 20
91.2094006147
 30
0.0
 10
81.9693399294
 20
90.6333821762
 30
0.0
 10
82.2925419108
 20
90.1162340814
 30
0.0
 10
82.5228603394
 20
89.4598658549
 30
0.0
 10
82.4941849746
 20
88.9064491711
 30
0.0
 10
82.5948892991
 20
88.5385885579
 30
0.0
  0
SPLINE
  5
663
100
AcDbEntity
  8
0
100
AcDbSpline
 62
7
  6
CONTINUOUS
 70
0
 71
3
 72
15
 73
11
 74
0
 42
0.0000001
 43
0.0000001
 44
0.0000000001
 40
0.0
 40
0.0
 40
0.0
 40
0.0
 40
0.2463666559
 40
0.3687414052
 40
0.4902641371
 40
0.6105122631
 40
0.7289653681
 40
0.7880377069
 40
0.8497614227
 40
1.0
 40
1.0
 40
1.0
 40
1.0
 10
92.3886398734
 20
94.4345902467
 30
0.0
 10
91.9292654338
 20
94.0101705772
 30
0.0
 10
91.2436313407
 20
93.3728027213
 30
0.0
 10
90.3424656743
 20
92.5144031353
 30
0.0
 10
89.6820472277
 20
91.8673461597
 30
0.0
 10
89.0471824722
 20
91.2094001705
 30
0.0
 10
88.5545839465
 20
90.6333784577
 30
0.0
 10
88.2313725874
 20
90.1162344923
 30
0.0
 10
88.0010728441
 20
89.4598606636
 30
0.0
 10
88.0296860331
 20
88.9064622556
 30
0.0
 10
87.9290325455
 20
88.5385885579
 30
0.0
  0
SPLINE
  5
664
100
AcDbEntity
  8
0
100
AcDbSpline
 62
7
  6
CONTINUOUS
 70
0
 71
3
 72
16
 73
12
 74
0
 42
0.0000001
 43
0.0000001
 44
0.0000000001
 40
0.0
 40
0.0
 40
0.0
 40
0.0
 40
0.2486925086
 40
0.3728689685
 40
0.4968731186
 40
0.6206345101
 40
0.7440885682
 40
0.8057863744
 40
0.8678430106
 40
0.9316911392
 40
1.0
 40
1.0
 40
1.0
 40
1.0
 10
71.6300818032
 20
81.3626138819
 30
0.0
 10
72.5173504913
 20
81.7329693876
 30
0.0
 10
73.8489585674
 20
82.2851603914
 30
0.0
 10
75.6290961636
 20
83.0070597498
 30
0.0
 10
76.9661576734
 20
83.5363554274
 30
0.0
 10
78.3082511788
 20
84.0446266408
 30
0.0
 10
79.437100148
 20
84.4365697437
 30
0.0
 10
80.3568699716
 20
84.6972486964
 30
0.0
 10
81.068323404
 20
84.8453008987
 30
0.0
 10
81.8212379006
 20
84.8902166285
 30
0.0
 10
82.3308503993
 20
84.8433234452
 30
0.0
 10
82.5948892991
 20
84.8383030622
 30
0.0
  0
SPLINE
  5
665
100
AcDbEntity
  8
0
100
AcDbSpline
 62
7
  6
CONTINUOUS
 70
0
 71
3
 72
15
 73
11
 74
0
 42
0.0000001
 43
0.0000001
 44
0.0000000001
 40
0.0
 40
0.0
 40
0.0
 40
0.0
 40
0.2454793131
 40
0.4909009317
 40
0.6136885218
 40
0.7368389644
 40
0.79890763
 40
0.8620195141
 40
0.9280379833
 40
1.0
 40
1.0
 40
1.0
 40
1.0
 10
72.6377709144
 20
90.1130607079
 30
0.0
 10
73.4440845652
 20
89.9115560813
 30
0.0
 10
75.0577047568
 20
89.5134289951
 30
0.0
 10
77.0803548157
 20
89.0372563775
 30
0.0
 10
78.7077347562
 20
88.6920197247
 30
0.0
 10
79.7340037171
 20
88.5044530709
 30
0.0
 10
80.568242027
 20
88.3973854141
 30
0.0
 10
81.2150142287
 20
88.3569798056
 30
0.0
 10
81.8977156682
 20
88.3967181716
 30
0.0
 10
82.3536907895
 20
88.5041873015
 30
0.0
 10
82.5948892991
 20
88.5385885579
 30
0.0
  0
SPLINE
  5
666
100
AcDbEntity
  8
0
100
AcDbSpline
 62
7
  6
CONTINUOUS
 70
0
 71
3
 72
8
 73
4
 74
0
 42
0.0000001
 43
0.0000001
 44
0.0000000001
 40
0.0
 40
0.0
 40
0.0
 40
0.0
 40
1.0
 40
1.0
 40
1.0
 40
1.0
 10
82.0119609223
 20
86.68844581
 30
0.0
 10
82.0119609223
 20
86.0418203955
 30
0.0
 10
82.2244584696
 20
85.3682138416
 30
0.0
 10
82.5949335999
 20
84.8382396871
 30
0.0
  0
SPLINE
  5
667
100
AcDbEntity
  8
0
100
AcDbSpline
 62
7
  6
CONTINUOUS
 70
0
 71
3
 72
14
 73
10
 74
0
 42
0.0000001
 43
0.0000001
 44
0.0000000001
 40
0.0
 40
0.0
 40
0.0
 40
0.0
 40
0.2467892632
 40
0.36977781
 40
0.4923559854
 40
0.6143580059
 40
0.7356494511
 40
0.8580240272
 40
1.0
 40
1.0
 40
1.0
 40
1.0
 10
76.6210684819
 20
76.2359522938
 30
0.0
 10
77.2053808237
 20
76.8875912807
 30
0.0
 10
78.0786301188
 20
77.865949307
 30
0.0
 10
79.2303749947
 20
79.1786180907
 30
0.0
 10
80.0803767978
 20
80.1664444959
 30
0.0
 10
80.9098222469
 20
81.1665759715
 30
0.0
 10
81.6945909433
 20
82.1922222223
 30
0.0
 10
82.4132225682
 20
83.3916007759
 30
0.0
 10
82.4502952476
 20
84.3559889903
 30
0.0
 10
82.5948892991
 20
84.8383030622
 30
0.0
  0
SPLINE
  5
668
100
AcDbEntity
  8
0
100
AcDbSpline
 62
7
  6
CONTINUOUS
 70
0
 71
3
 72
14
 73
10
 74
0
 42
0.0000001
 43
0.0000001
 44
0.0000000001
 40
0.0
 40
0.0
 40
0.0
 40
0.0
 40
0.2467914789
 40
0.3697811311
 40
0.4923603233
 40
0.6143633129
 40
0.7356556183
 40
0.8580294292
 40
1.0
 40
1.0
 40
1.0
 40
1.0
 10
93.9028533568
 20
76.2359523004
 30
0.0
 10
93.3185343506
 20
76.8875976554
 30
0.0
 10
92.4452772518
 20
77.8659677755
 30
0.0
 10
91.2935202182
 20
79.1786483086
 30
0.0
 10
90.4435068049
 20
80.1664864686
 30
0.0
 10
89.6140893968
 20
81.1666405875
 30
0.0
 10
88.8292027353
 20
82.1922567811
 30
0.0
 10
88.1110072229
 20
83.3917376157
 30
0.0
 10
88.0725680477
 20
84.355692099
 30
0.0
 10
87.9290325455
 20
84.8383030622
 30
0.0
  0
SPLINE
  5
669
100
AcDbEntity
  8
7_ALL_ROUNDS
100
AcDbSpline
 62
7
  6
CONTINUOUS
 70
0
 71
3
 72
11
 73
7
 74
0
 42
0.0000001
 43
0.0000001
 44
0.0000000001
 40
0.0
 40
0.0
 40
0.0
 40
0.0
 40
0.250629736
 40
0.5005673847
 40
0.7500430076
 40
1.0
 40
1.0
 40
1.0
 40
1.0
 10
76.6210684148
 20
76.2359522938
 30
0.0
 10
75.9434591028
 20
76.2359522252
 30
0.0
 10
74.5761512275
 20
76.4399125343
 30
0.0
 10
72.7731658026
 20
77.5035345152
 30
0.0
 10
71.6579708274
 20
79.2943711099
 30
0.0
 10
71.5527695822
 20
80.691260737
 30
0.0
 10
71.6300818478
 20
81.3626142692
 30
0.0
  0
SPLINE
  5
66A
100
AcDbEntity
  8
7_ALL_ROUNDS
100
AcDbSpline
 62
7
  6
CONTINUOUS
 70
0
 71
3
 72
11
 73
7
 74
0
 42
0.0000001
 43
0.0000001
 44
0.0000000001
 40
0.0
 40
0.0
 40
0.0
 40
0.0
 40
0.2495548013
 40
0.4993374078
 40
0.7495187856
 40
1.0
 40
1.0
 40
1.0
 40
1.0
 10
72.6377708767
 20
90.1130603801
 30
0.0
 10
72.7103057265
 20
90.7429303261
 30
0.0
 10
73.1321984985
 20
91.9886475999
 30
0.0
 10
74.4682895674
 20
93.4150628896
 30
0.0
 10
76.2181182243
 20
94.2586082346
 30
0.0
 10
77.4988955328
 20
94.43459019
 30
0.0
 10
78.13528192
 20
94.434590247
 30
0.0
  0
SPLINE
  5
66B
100
AcDbEntity
  8
7_ALL_ROUNDS
100
AcDbSpline
 62
7
  6
CONTINUOUS
 70
0
 71
3
 72
11
 73
7
 74
0
 42
0.0000001
 43
0.0000001
 44
0.0000000001
 40
0.0
 40
0.0
 40
0.0
 40
0.0
 40
0.2504811531
 40
0.5006624973
 40
0.750445091
 40
1.0
 40
1.0
 40
1.0
 40
1.0
 10
92.3886399287
 20
94.4345902467
 30
0.0
 10
93.0250261608
 20
94.4345901899
 30
0.0
 10
94.305803221
 20
94.2586083016
 30
0.0
 10
96.0556317069
 20
93.4150632832
 30
0.0
 10
97.3917231398
 20
91.9886481224
 30
0.0
 10
97.8136160867
 20
90.7429305963
 30
0.0
 10
97.8861509684
 20
90.1130603779
 30
0.0
  0
SPLINE
  5
66C
100
AcDbEntity
  8
7_ALL_ROUNDS
100
AcDbSpline
 62
7
  6
CONTINUOUS
 70
0
 71
3
 72
11
 73
7
 74
0
 42
0.0000001
 43
0.0000001
 44
0.0000000001
 40
0.0
 40
0.0
 40
0.0
 40
0.0
 40
0.2499567044
 40
0.4994324988
 40
0.7493703428
 40
1.0
 40
1.0
 40
1.0
 40
1.0
 10
98.8938400002
 20
81.3626141297
 30
0.0
 10
98.9711519924
 20
80.6912613737
 30
0.0
 10
98.8659511705
 20
79.2943722933
 30
0.0
 10
97.7507568103
 20
77.5035349952
 30
0.0
 10
95.947770728
 20
76.439912367
 30
0.0
 10
94.5804625848
 20
76.2359523588
 30
0.0
 10
93.9028535096
 20
76.2359523004
 30
0.0
  0
SPLINE
  5
66D
100
AcDbEntity
  8
0
100
AcDbSpline
 62
7
  6
CONTINUOUS
 70
0
 71
3
 72
15
 73
11
 74
0
 42
0.0000001
 43
0.0000001
 44
0.0000000001
 40
0.0
 40
0.0
 40
0.0
 40
0.0
 40
0.1247875078
 40
0.2496935842
 40
0.3747826285
 40
0.5
 40
0.6252173715
 40
0.7503064158
 40
0.8752124922
 40
1.0
 40
1.0
 40
1.0
 40
1.0
 10
82.0121239688
 20
86.6888237087
 30
0.0
 10
82.0163471878
 20
86.2703074216
 30
0.0
 10
82.1920512748
 20
85.4254480997
 30
0.0
 10
82.9173409231
 20
84.3608904536
 30
0.0
 10
83.9946351211
 20
83.6496111188
 30
0.0
 10
85.2619609223
 20
83.4003965258
 30
0.0
 10
86.5292867235
 20
83.6496111188
 30
0.0
 10
87.6065809216
 20
84.3608904536
 30
0.0
 10
88.3318705698
 20
85.4254480997
 30
0.0
 10
88.5075746568
 20
86.2703074216
 30
0.0
 10
88.5117978758
 20
86.6888237087
 30
0.0
  0
SPLINE
  5
66E
100
AcDbEntity
  8
0
100
AcDbSpline
 62
7
  6
CONTINUOUS
 70
0
 71
3
 72
9
 73
5
 74
0
 42
0.0000001
 43
0.0000001
 44
0.0000000001
 40
0.0
 40
0.0
 40
0.0
 40
0.0
 40
0.4994610948
 40
1.0
 40
1.0
 40
1.0
 40
1.0
 10
85.9416919977
 20
106.6380978512
 30
0.0
 10
86.0006799999
 20
106.762676456
 30
0.0
 10
86.0476275541
 20
107.0526353087
 30
0.0
 10
85.9260824195
 20
107.3198673312
 30
0.0
 10
85.8364942738
 20
107.4250123038
 30
0.0
  0
SPLINE
  5
66F
100
AcDbEntity
  8
0
100
AcDbSpline
 62
7
  6
CONTINUOUS
 70
0
 71
3
 72
11
 73
7
 74
0
 42
0.0000001
 43
0.0000001
 44
0.0000000001
 40
0.0
 40
0.0
 40
0.0
 40
0.0
 40
0.2490732692
 40
0.4999999999
 40
0.7509267307
 40
1.0
 40
1.0
 40
1.0
 40
1.0
 10
84.5822298339
 20
106.6380978786
 30
0.0
 10
84.6415938742
 20
106.5127250934
 30
0.0
 10
84.8386887784
 20
106.2913244424
 30
0.0
 10
85.2619609062
 20
106.1716498587
 30
0.0
 10
85.685233039
 20
106.2913244254
 30
0.0
 10
85.8823279521
 20
106.5127250684
 30
0.0
 10
85.9416919977
 20
106.6380978512
 30
0.0
  0
SPLINE
  5
670
100
AcDbEntity
  8
0
100
AcDbSpline
 62
7
  6
CONTINUOUS
 70
0
 71
3
 72
9
 73
5
 74
0
 42
0.0000001
 43
0.0000001
 44
0.0000000001
 40
0.0
 40
0.0
 40
0.0
 40
0.0
 40
0.5005389053
 40
1.0
 40
1.0
 40
1.0
 40
1.0
 10
84.6874275714
 20
107.4250123044
 30
0.0
 10
84.5978394286
 20
107.3198673355
 30
0.0
 10
84.4762942957
 20
107.0526353246
 30
0.0
 10
84.523241839
 20
106.7626764817
 30
0.0
 10
84.5822298339
 20
106.6380978786
 30
0.0
  0
SPLINE
  5
671
100
AcDbEntity
  8
0
100
AcDbSpline
 62
7
  6
CONTINUOUS
 70
0
 71
3
 72
9
 73
5
 74
0
 42
0.0000001
 43
0.0000001
 44
0.0000000001
 40
0.0
 40
0.0
 40
0.0
 40
0.0
 40
0.5
 40
1.0
 40
1.0
 40
1.0
 40
1.0
 10
85.8364942738
 20
107.4250123038
 30
0.0
 10
85.6998190088
 20
107.5854209926
 30
0.0
 10
85.2619609228
 20
107.7922819568
 30
0.0
 10
84.8241028366
 20
107.5854209931
 30
0.0
 10
84.6874275714
 20
107.4250123044
 30
0.0
  0
SPLINE
  5
672
100
AcDbEntity
  8
5_ALL_CURVES
100
AcDbSpline
 62
4
  6
CONTINUOUS
 70
0
 71
3
 72
51
 73
47
 74
0
 42
0.0000001
 43
0.0000001
 44
0.0000000001
 40
0.0
 40
0.0
 40
0.0
 40
0.0
 40
0.0625
 40
0.09375
 40
0.109375
 40
0.125
 40
0.140625
 40
0.15625
 40
0.1875
 40
0.21875
 40
0.234375
 40
0.25
 40
0.265625
 40
0.28125
 40
0.3125
 40
0.34375
 40
0.359375
 40
0.375
 40
0.390625
 40
0.40625
 40
0.4375
 40
0.46875
 40
0.484375
 40
0.5
 40
0.515625
 40
0.53125
 40
0.5625
 40
0.59375
 40
0.609375
 40
0.625
 40
0.640625
 40
0.65625
 40
0.6875
 40
0.71875
 40
0.734375
 40
0.75
 40
0.765625
 40
0.78125
 40
0.8125
 40
0.84375
 40
0.859375
 40
0.875
 40
0.890625
 40
0.90625
 40
0.9375
 40
1.0
 40
1.0
 40
1.0
 40
1.0
 10
85.8364942546
 20
107.4250123263
 30
0.0
 10
85.8170068447
 20
107.4434161715
 30
0.0
 10
85.7876800558
 20
107.4709162058
 30
0.0
 10
85.753800328
 20
107.5033696465
 30
0.0
 10
85.7339621132
 20
107.5213858022
 30
0.0
 10
85.7204228889
 20
107.5363781881
 30
0.0
 10
85.7017651024
 20
107.5457138312
 30
0.0
 10
85.6786804196
 20
107.560148351
 30
0.0
 10
85.6491782279
 20
107.5774308898
 30
0.0
 10
85.6200209313
 20
107.5952721277
 30
0.0
 10
85.5963844163
 20
107.608812729
 30
0.0
 10
85.5793821263
 20
107.6208301275
 30
0.0
 10
85.5596347902
 20
107.6257659304
 30
0.0
 10
85.5342673706
 20
107.6348320437
 30
0.0
 10
85.502202998
 20
107.645230854
 30
0.0
 10
85.4703560653
 20
107.6562586863
 30
0.0
 10
85.4446407418
 20
107.6643183643
 30
0.0
 10
85.4259371175
 20
107.6722734731
 30
0.0
 10
85.4050209083
 20
107.6729684746
 30
0.0
 10
85.3779047588
 20
107.6764430077
 30
0.0
 10
85.3437500636
 20
107.6798274589
 30
0.0
 10
85.3096682396
 20
107.6838619406
 30
0.0
 10
85.2824354963
 20
107.686296425
 30
0.0
 10
85.2618690684
 20
107.6901115729
 30
0.0
 10
85.2418537641
 20
107.6863661327
 30
0.0
 10
85.214972462
 20
107.6840249591
 30
0.0
 10
85.1814497485
 20
107.6801043623
 30
0.0
 10
85.1478541655
 20
107.6768443512
 30
0.0
 10
85.1210894547
 20
107.6734462405
 30
0.0
 10
85.1007243763
 20
107.6728716114
 30
0.0
 10
85.0814696016
 20
107.6647962177
 30
0.0
 10
85.0554029705
 20
107.656659534
 30
0.0
 10
85.0229959083
 20
107.6455117815
 30
0.0
 10
84.9903759371
 20
107.6349834855
 30
0.0
 10
84.9646499603
 20
107.6258556714
 30
0.0
 10
84.9443732225
 20
107.6207536687
 30
0.0
 10
84.9278405058
 20
107.6090288232
 30
0.0
 10
84.9044824617
 20
107.5957190594
 30
0.0
 10
84.8757830176
 20
107.5782137348
 30
0.0
 10
84.8467341567
 20
107.5612766854
 30
0.0
 10
84.8239351796
 20
107.5470576814
 30
0.0
 10
84.8057252621
 20
107.5380605564
 30
0.0
 10
84.7917380273
 20
107.5227296018
 30
0.0
 10
84.7716150461
 20
107.5044982632
 30
0.0
 10
84.7370904547
 20
107.471557514
 30
0.0
 10
84.7072611618
 20
107.4436777541
 30
0.0
 10
84.6874275857
 20
107.4250123213
 30
0.0
  0
SPLINE
  5
673
100
AcDbEntity
  8
5_ALL_CURVES
100
AcDbSpline
 62
4
  6
CONTINUOUS
 70
0
 71
3
 72
29
 73
25
 74
0
 42
0.0000001
 43
0.0000001
 44
0.0000000001
 40
0.0
 40
0.0
 40
0.0
 40
0.0
 40
0.0625
 40
0.125
 40
0.15625
 40
0.1875
 40
0.25
 40
0.3125
 40
0.34375
 40
0.375
 40
0.4375
 40
0.46875
 40
0.5
 40
0.53125
 40
0.5625
 40
0.625
 40
0.65625
 40
0.6875
 40
0.75
 40
0.8125
 40
0.84375
 40
0.875
 40
0.9375
 40
1.0
 40
1.0
 40
1.0
 40
1.0
 10
87.9290325455
 20
84.8383030622
 30
0.0
 10
87.9514726467
 20
84.8742854763
 30
0.0
 10
87.996557196
 20
84.9461384113
 30
0.0
 10
88.0518911472
 20
85.0365140463
 30
0.0
 10
88.0983039528
 20
85.1076396753
 30
0.0
 10
88.1369515684
 20
85.1830172474
 30
0.0
 10
88.1823407146
 20
85.2789120581
 30
0.0
 10
88.2296254275
 20
85.3734984976
 30
0.0
 10
88.2652401364
 20
85.4509694638
 30
0.0
 10
88.2934189914
 20
85.534578471
 30
0.0
 10
88.3241110927
 20
85.6164532263
 30
0.0
 10
88.3528403454
 20
85.6989272065
 30
0.0
 10
88.3777625846
 20
85.7607192686
 30
0.0
 10
88.3901650493
 20
85.8224654106
 30
0.0
 10
88.4112206188
 20
85.9047365679
 30
0.0
 10
88.4302020381
 20
85.9874417575
 30
0.0
 10
88.4520166958
 20
86.0688876243
 30
0.0
 10
88.4652639334
 20
86.1547920723
 30
0.0
 10
88.4786109478
 20
86.2637241027
 30
0.0
 10
88.4942066562
 20
86.3720159164
 30
0.0
 10
88.5038559834
 20
86.4589447111
 30
0.0
 10
88.504068545
 20
86.5465021622
 30
0.0
 10
88.5075936561
 20
86.6557318415
 30
0.0
 10
88.5094204013
 20
86.7431817593
 30
0.0
 10
88.5104579419
 20
86.7868984464
 30
0.0
  0
SPLINE
  5
674
100
AcDbEntity
  8
5_ALL_CURVES
100
AcDbSpline
 62
4
  6
CONTINUOUS
 70
0
 71
3
 72
13
 73
9
 74
0
 42
0.0000001
 43
0.0000001
 44
0.0000000001
 40
0.0
 40
0.0
 40
0.0
 40
0.0
 40
0.5
 40
0.625
 40
0.75
 40
0.8125
 40
0.875
 40
1.0
 40
1.0
 40
1.0
 40
1.0
 10
88.5104579404
 20
86.7868984963
 30
0.0
 10
88.5064319393
 20
86.8772183175
 30
0.0
 10
88.4998892274
 20
86.9902995194
 30
0.0
 10
88.4823472726
 20
87.124492852
 30
0.0
 10
88.4737834503
 20
87.1809256684
 30
0.0
 10
88.4671496256
 20
87.2244405398
 30
0.0
 10
88.4581419044
 20
87.2737082186
 30
0.0
 10
88.4508107421
 20
87.311961231
 30
0.0
 10
88.4460511609
 20
87.3371738497
 30
0.0
  0
SPLINE
  5
675
100
AcDbEntity
  8
5_ALL_CURVES
100
AcDbSpline
 62
4
  6
CONTINUOUS
 70
0
 71
3
 72
17
 73
13
 74
0
 42
0.0000001
 43
0.0000001
 44
0.0000000001
 40
0.0
 40
0.0
 40
0.0
 40
0.0
 40
0.125
 40
0.1875
 40
0.25
 40
0.375
 40
0.4375
 40
0.5
 40
0.625
 40
0.75
 40
0.875
 40
1.0
 40
1.0
 40
1.0
 40
1.0
 10
88.4460511599
 20
87.3371738543
 30
0.0
 10
88.4405446515
 20
87.3620023536
 30
0.0
 10
88.4325193257
 20
87.3988613401
 30
0.0
 10
88.4208811442
 20
87.4495417051
 30
0.0
 10
88.406262563
 20
87.5052700709
 30
0.0
 10
88.3921454582
 20
87.5596698817
 30
0.0
 10
88.375895564
 20
87.6134857892
 30
0.0
 10
88.3598717657
 20
87.6693192022
 30
0.0
 10
88.3408122846
 20
87.7247095567
 30
0.0
 10
88.312775968
 20
87.8039719834
 30
0.0
 10
88.2825286587
 20
87.8835948806
 30
0.0
 10
88.2603688955
 20
87.936506625
 30
0.0
 10
88.2495383752
 20
87.9629837707
 30
0.0
  0
SPLINE
  5
676
100
AcDbEntity
  8
5_ALL_CURVES
100
AcDbSpline
 62
4
  6
CONTINUOUS
 70
0
 71
3
 72
16
 73
12
 74
0
 42
0.0000001
 43
0.0000001
 44
0.0000000001
 40
0.0
 40
0.0
 40
0.0
 40
0.0
 40
0.125
 40
0.1875
 40
0.25
 40
0.375
 40
0.4375
 40
0.5
 40
0.625
 40
0.75
 40
1.0
 40
1.0
 40
1.0
 40
1.0
 10
88.2495383805
 20
87.9629837582
 30
0.0
 10
88.2391230511
 20
87.9861977759
 30
0.0
 10
88.2238072885
 20
88.0206899742
 30
0.0
 10
88.2021573455
 20
88.0679948848
 30
0.0
 10
88.1765669177
 20
88.119646133
 30
0.0
 10
88.1517376077
 20
88.1700961835
 30
0.0
 10
88.1249338612
 20
88.2195477786
 30
0.0
 10
88.0979558462
 20
88.2710153386
 30
0.0
 10
88.0680083866
 20
88.321478121
 30
0.0
 10
88.0104360662
 20
88.417302546
 30
0.0
 10
87.9616839981
 20
88.4900311686
 30
0.0
 10
87.9290325541
 20
88.5385885455
 30
0.0
  0
SPLINE
  5
677
100
AcDbEntity
  8
5_ALL_CURVES
100
AcDbSpline
 62
4
  6
CONTINUOUS
 70
0
 71
3
 72
77
 73
73
 74
0
 42
0.0000001
 43
0.0000001
 44
0.0000000001
 40
0.0
 40
0.0
 40
0.0
 40
0.0
 40
0.0625
 40
0.078125
 40
0.09375
 40
0.1015625
 40
0.109375
 40
0.1171875
 40
0.125
 40
0.140625
 40
0.15625
 40
0.171875
 40
0.1875
 40
0.203125
 40
0.2109375
 40
0.21875
 40
0.234375
 40
0.25
 40
0.28125
 40
0.3125
 40
0.3203125
 40
0.328125
 40
0.33203125
 40
0.3359375
 40
0.34375
 40
0.359375
 40
0.375
 40
0.390625
 40
0.40625
 40
0.421875
 40
0.4296875
 40
0.4375
 40
0.4453125
 40
0.44921875
 40
0.453125
 40
0.46875
 40
0.5
 40
0.53125
 40
0.546875
 40
0.55078125
 40
0.5546875
 40
0.5625
 40
0.5703125
 40
0.578125
 40
0.59375
 40
0.609375
 40
0.625
 40
0.640625
 40
0.65625
 40
0.6640625
 40
0.66796875
 40
0.671875
 40
0.6796875
 40
0.6875
 40
0.71875
 40
0.75
 40
0.765625
 40
0.78125
 40
0.7890625
 40
0.796875
 40
0.8125
 40
0.828125
 40
0.84375
 40
0.859375
 40
0.875
 40
0.8828125
 40
0.890625
 40
0.8984375
 40
0.90625
 40
0.921875
 40
0.9375
 40
1.0
 40
1.0
 40
1.0
 40
1.0
 10
82.5948892991
 20
84.8383030622
 30
0.0
 10
82.6797720399
 20
84.7408612227
 30
0.0
 10
82.7857857426
 20
84.6189629007
 30
0.0
 10
82.9132713559
 20
84.4729729823
 30
0.0
 10
82.9660314679
 20
84.4117597591
 30
0.0
 10
83.0090739851
 20
84.363682191
 30
0.0
 10
83.0390679265
 20
84.3251754378
 30
0.0
 10
83.0777964398
 20
84.2960164879
 30
0.0
 10
83.1296589146
 20
84.2573781871
 30
0.0
 10
83.1944090685
 20
84.2089963168
 30
0.0
 10
83.2721466771
 20
84.1509807964
 30
0.0
 10
83.3498592936
 20
84.0929287713
 30
0.0
 10
83.4276344544
 20
84.0349800411
 30
0.0
 10
83.4922594343
 20
83.9863755368
 30
0.0
 10
83.544378516
 20
83.9481936358
 30
0.0
 10
83.5949713296
 20
83.9074560416
 30
0.0
 10
83.669135485
 20
83.8748246195
 30
0.0
 10
83.7866141045
 20
83.8206358186
 30
0.0
 10
83.9338312151
 20
83.7534888367
 30
0.0
 10
84.066330837
 20
83.6931619249
 30
0.0
 10
84.1544724628
 20
83.6524738542
 30
0.0
 10
84.1915160599
 20
83.6362747707
 30
0.0
 10
84.2204070759
 20
83.6215522466
 30
0.0
 10
84.2520192025
 20
83.6132793281
 30
0.0
 10
84.3086049451
 20
83.6017987796
 30
0.0
 10
84.3887805356
 20
83.5838316247
 30
0.0
 10
84.4852745963
 20
83.5629392008
 30
0.0
 10
84.581693144
 20
83.5418803231
 30
0.0
 10
84.6781303917
 20
83.5208190986
 30
0.0
 10
84.7584953588
 20
83.5034146124
 30
0.0
 10
84.8227765569
 20
83.4891405148
 30
0.0
 10
84.8710194259
 20
83.4793985468
 30
0.0
 10
84.9111197383
 20
83.4682142683
 30
0.0
 10
84.9435452775
 20
83.4696349352
 30
0.0
 10
84.9920949257
 20
83.469101523
 30
0.0
 10
85.0973364941
 20
83.4695142509
 30
0.0
 10
85.2592222346
 20
83.4689932404
 30
0.0
 10
85.4210807227
 20
83.4692353253
 30
0.0
 10
85.5263577192
 20
83.4686560291
 30
0.0
 10
85.5748726206
 20
83.4690955637
 30
0.0
 10
85.6074003561
 20
83.4676546225
 30
0.0
 10
85.6467137573
 20
83.4785047262
 30
0.0
 10
85.6942720016
 20
83.4879333588
 30
0.0
 10
85.7575496269
 20
83.5017590456
 30
0.0
 10
85.836691505
 20
83.5186135585
 30
0.0
 10
85.9316465461
 20
83.5390101678
 30
0.0
 10
86.0265906831
 20
83.5594061546
 30
0.0
 10
86.1215936494
 20
83.5796334377
 30
0.0
 10
86.200575777
 20
83.5970523712
 30
0.0
 10
86.2562302516
 20
83.6081374176
 30
0.0
 10
86.2874597941
 20
83.6162026542
 30
0.0
 10
86.3165314635
 20
83.6307864708
 30
0.0
 10
86.3536083909
 20
83.6467886227
 30
0.0
 10
86.4419881663
 20
83.6870231881
 30
0.0
 10
86.574782495
 20
83.7466654518
 30
0.0
 10
86.7223413193
 20
83.8130393408
 30
0.0
 10
86.8401257671
 20
83.8666440451
 30
0.0
 10
86.9143927911
 20
83.8988306488
 30
0.0
 10
86.9661140886
 20
83.9401506422
 30
0.0
 10
87.0191789304
 20
83.9787510692
 30
0.0
 10
87.0850488031
 20
84.0279349625
 30
0.0
 10
87.1642909954
 20
84.0865548582
 30
0.0
 10
87.2434776947
 20
84.1452844839
 30
0.0
 10
87.3226880211
 20
84.2039759654
 30
0.0
 10
87.3886641136
 20
84.2529212392
 30
0.0
 10
87.441511205
 20
84.2920108363
 30
0.0
 10
87.4809673788
 20
84.3215064763
 30
0.0
 10
87.5111275175
 20
84.3602568128
 30
0.0
 10
87.5545877249
 20
84.4086916767
 30
0.0
 10
87.6078029029
 20
84.4703404013
 30
0.0
 10
87.7364360425
 20
84.6173847048
 30
0.0
 10
87.8433915983
 20
84.7401592898
 30
0.0
 10
87.9290324356
 20
84.8383029049
 30
0.0
  0
SPLINE
  5
678
100
AcDbEntity
  8
5_ALL_CURVES
100
AcDbSpline
 62
4
  6
CONTINUOUS
 70
0
 71
3
 72
18
 73
14
 74
0
 42
0.0000001
 43
0.0000001
 44
0.0000000001
 40
0.0
 40
0.0
 40
0.0
 40
0.0
 40
0.125
 40
0.1875
 40
0.25
 40
0.3125
 40
0.375
 40
0.4375
 40
0.5
 40
0.5625
 40
0.625
 40
0.75
 40
1.0
 40
1.0
 40
1.0
 40
1.0
 10
82.5948892991
 20
88.5385885579
 30
0.0
 10
82.5806342149
 20
88.5174963354
 30
0.0
 10
82.5593923081
 20
88.4862995221
 30
0.0
 10
82.5305068876
 20
88.4429376896
 30
0.0
 10
82.5078648416
 20
88.4062706869
 30
0.0
 10
82.4846458045
 20
88.3699475746
 30
0.0
 10
82.4647127124
 20
88.3363945293
 30
0.0
 10
82.4455904463
 20
88.3031703503
 30
0.0
 10
82.4266277386
 20
88.2717371518
 30
0.0
 10
82.4062159711
 20
88.2328111652
 30
0.0
 10
82.3792742338
 20
88.1836854761
 30
0.0
 10
82.3343213999
 20
88.0947962014
 30
0.0
 10
82.2997249639
 20
88.0192460106
 30
0.0
 10
82.2769356395
 20
87.9689044477
 30
0.0
  0
SPLINE
  5
679
100
AcDbEntity
  8
5_ALL_CURVES
100
AcDbSpline
 62
4
  6
CONTINUOUS
 70
0
 71
3
 72
17
 73
13
 74
0
 42
0.0000001
 43
0.0000001
 44
0.0000000001
 40
0.0
 40
0.0
 40
0.0
 40
0.0
 40
0.125
 40
0.1875
 40
0.25
 40
0.375
 40
0.4375
 40
0.5
 40
0.625
 40
0.75
 40
0.875
 40
1.0
 40
1.0
 40
1.0
 40
1.0
 10
82.2769356407
 20
87.9689044503
 30
0.0
 10
82.26721042
 20
87.9453952137
 30
0.0
 10
82.2526503713
 20
87.9105797455
 30
0.0
 10
82.233125844
 20
87.8623655739
 30
0.0
 10
82.213151041
 20
87.8083121901
 30
0.0
 10
82.1935269044
 20
87.7556345157
 30
0.0
 10
82.1759879125
 20
87.7022217437
 30
0.0
 10
82.1571059524
 20
87.6472820741
 30
0.0
 10
82.1409693324
 20
87.5909780908
 30
0.0
 10
82.1185035264
 20
87.5099720187
 30
0.0
 10
82.0976467735
 20
87.4274186671
 30
0.0
 10
82.0854812556
 20
87.3714079623
 30
0.0
 10
82.0791811237
 20
87.343524502
 30
0.0
  0
SPLINE
  5
67A
100
AcDbEntity
  8
5_ALL_CURVES
100
AcDbSpline
 62
4
  6
CONTINUOUS
 70
0
 71
3
 72
15
 73
11
 74
0
 42
0.0000001
 43
0.0000001
 44
0.0000000001
 40
0.0
 40
0.0
 40
0.0
 40
0.0
 40
0.25
 40
0.375
 40
0.4375
 40
0.5
 40
0.625
 40
0.75
 40
0.875
 40
1.0
 40
1.0
 40
1.0
 40
1.0
 10
82.0791811231
 20
87.3435244992
 30
0.0
 10
82.0706212128
 20
87.2991316683
 30
0.0
 10
82.0579985703
 20
87.2323939851
 30
0.0
 10
82.0457868043
 20
87.1544733121
 30
0.0
 10
82.0399033206
 20
87.1092572117
 30
0.0
 10
82.0336963801
 20
87.0660799878
 30
0.0
 10
82.0269952956
 20
86.9976793865
 30
0.0
 10
82.0210816515
 20
86.9297908663
 30
0.0
 10
82.0165522605
 20
86.8612180417
 30
0.0
 10
82.0145806919
 20
86.8113233964
 30
0.0
 10
82.0134639044
 20
86.7868985024
 30
0.0
  0
SPLINE
  5
67B
100
AcDbEntity
  8
5_ALL_CURVES
100
AcDbSpline
 62
4
  6
CONTINUOUS
 70
0
 71
3
 72
29
 73
25
 74
0
 42
0.0000001
 43
0.0000001
 44
0.0000000001
 40
0.0
 40
0.0
 40
0.0
 40
0.0
 40
0.0625
 40
0.125
 40
0.15625
 40
0.1875
 40
0.25
 40
0.3125
 40
0.34375
 40
0.375
 40
0.4375
 40
0.46875
 40
0.5
 40
0.53125
 40
0.5625
 40
0.625
 40
0.65625
 40
0.6875
 40
0.75
 40
0.8125
 40
0.84375
 40
0.875
 40
0.9375
 40
1.0
 40
1.0
 40
1.0
 40
1.0
 10
82.0134639043
 20
86.7868984963
 30
0.0
 10
82.0143970528
 20
86.7445475456
 30
0.0
 10
82.0160308286
 20
86.6598281741
 30
0.0
 10
82.0192356545
 20
86.5540163103
 30
0.0
 10
82.0193580423
 20
86.469183383
 30
0.0
 10
82.0283162371
 20
86.3850143207
 30
0.0
 10
82.0428774371
 20
86.2799908851
 30
0.0
 10
82.0551334419
 20
86.1750319111
 30
0.0
 10
82.0677799489
 20
86.0907597101
 30
0.0
 10
82.0900205787
 20
86.005392304
 30
0.0
 10
82.1092051058
 20
85.9201099805
 30
0.0
 10
82.1303623489
 20
85.8353938128
 30
0.0
 10
82.143368236
 20
85.7700731372
 30
0.0
 10
82.1668359459
 20
85.711603583
 30
0.0
 10
82.1943097236
 20
85.6312329549
 30
0.0
 10
82.2237588693
 20
85.5516274188
 30
0.0
 10
82.2501442874
 20
85.4715350238
 30
0.0
 10
82.2861507917
 20
85.3923699417
 30
0.0
 10
82.3347001306
 20
85.2938618562
 30
0.0
 10
82.3810148429
 20
85.1946664079
 30
0.0
 10
82.4205967496
 20
85.1166011064
 30
0.0
 10
82.4684279246
 20
85.0431442526
 30
0.0
 10
82.5253676395
 20
84.9497314519
 30
0.0
 10
82.5717877555
 20
84.875486311
 30
0.0
 10
82.5948892704
 20
84.8383031031
 30
0.0
  0
SPLINE
  5
67C
100
AcDbEntity
  8
5_ALL_CURVES
100
AcDbSpline
 62
4
  6
CONTINUOUS
 70
0
 71
3
 72
27
 73
23
 74
0
 42
0.0000001
 43
0.0000001
 44
0.0000000001
 40
0.0
 40
0.0
 40
0.0
 40
0.0
 40
0.125
 40
0.15625
 40
0.1875
 40
0.25
 40
0.3125
 40
0.34375
 40
0.375
 40
0.4375
 40
0.46875
 40
0.5
 40
0.53125
 40
0.5625
 40
0.625
 40
0.65625
 40
0.6875
 40
0.75
 40
0.8125
 40
0.84375
 40
0.875
 40
1.0
 40
1.0
 40
1.0
 40
1.0
 10
85.9416917626
 20
106.6380973546
 30
0.0
 10
85.9535300556
 20
106.6708380655
 30
0.0
 10
85.9673423308
 20
106.7120104352
 30
0.0
 10
85.9868738344
 20
106.760677836
 30
0.0
 10
85.9935870536
 20
106.7947002479
 30
0.0
 10
85.9995136015
 20
106.8378017458
 30
0.0
 10
86.0070864619
 20
106.8806490802
 30
0.0
 10
86.011165581
 20
106.9150781537
 30
0.0
 10
86.0085831484
 20
106.9498816237
 30
0.0
 10
86.0081656585
 20
106.9846151789
 30
0.0
 10
86.0062495043
 20
107.0192776809
 30
0.0
 10
86.007143439
 20
107.0455576318
 30
0.0
 10
85.9994625041
 20
107.0707408118
 30
0.0
 10
85.9923240776
 20
107.1047353995
 30
0.0
 10
85.98371847
 20
107.1384214429
 30
0.0
 10
85.9771872907
 20
107.1727203584
 30
0.0
 10
85.9643146399
 20
107.2049791781
 30
0.0
 10
85.9458669676
 20
107.244514094
 30
0.0
 10
85.9289986162
 20
107.2846458191
 30
0.0
 10
85.9135990521
 20
107.3159497442
 30
0.0
 10
85.8813459226
 20
107.3589676785
 30
0.0
 10
85.8568521124
 20
107.3958414658
 30
0.0
 10
85.836494249
 20
107.4250123329
 30
0.0
  0
SPLINE
  5
67D
100
AcDbEntity
  8
5_ALL_CURVES
100
AcDbSpline
 62
4
  6
CONTINUOUS
 70
0
 71
3
 72
39
 73
35
 74
0
 42
0.0000001
 43
0.0000001
 44
0.0000000001
 40
0.0
 40
0.0
 40
0.0
 40
0.0
 40
0.0625
 40
0.09375
 40
0.109375
 40
0.125
 40
0.15625
 40
0.1875
 40
0.21875
 40
0.25
 40
0.28125
 40
0.3125
 40
0.375
 40
0.40625
 40
0.4375
 40
0.453125
 40
0.46875
 40
0.5
 40
0.53125
 40
0.546875
 40
0.5625
 40
0.59375
 40
0.625
 40
0.6875
 40
0.71875
 40
0.75
 40
0.78125
 40
0.8125
 40
0.84375
 40
0.875
 40
0.890625
 40
0.90625
 40
0.9375
 40
1.0
 40
1.0
 40
1.0
 40
1.0
 10
84.582230082
 20
106.6380973546
 30
0.0
 10
84.6003760285
 20
106.6082383112
 30
0.0
 10
84.6288672989
 20
106.5643874438
 30
0.0
 10
84.6576538873
 20
106.5099461565
 30
0.0
 10
84.6828447115
 20
106.485278456
 30
0.0
 10
84.706494519
 20
106.4594694966
 30
0.0
 10
84.7366877223
 20
106.4277157302
 30
0.0
 10
84.7722025605
 20
106.3888874213
 30
0.0
 10
84.8174369876
 20
106.3609235539
 30
0.0
 10
84.8598849079
 20
106.3297410055
 30
0.0
 10
84.9037592664
 20
106.3005687395
 30
0.0
 10
84.9701091499
 20
106.2755999416
 30
0.0
 10
85.03347399
 20
106.2444751931
 30
0.0
 10
85.103539735
 20
106.2325187335
 30
0.0
 10
85.1466929575
 20
106.2240530758
 30
0.0
 10
85.1810711927
 20
106.2148713665
 30
0.0
 10
85.2165370935
 20
106.2161206863
 30
0.0
 10
85.2606582795
 20
106.2152259256
 30
0.0
 10
85.3047823682
 20
106.2159690089
 30
0.0
 10
85.3402436246
 20
106.2145977784
 30
0.0
 10
85.374654195
 20
106.2236612525
 30
0.0
 10
85.417837161
 20
106.2319785139
 30
0.0
 10
85.4879448597
 20
106.2436940431
 30
0.0
 10
85.5514196298
 20
106.2746007659
 30
0.0
 10
85.6178576241
 20
106.2993413535
 30
0.0
 10
85.6618350767
 20
106.3283625349
 30
0.0
 10
85.7043934139
 20
106.3593992867
 30
0.0
 10
85.7497261272
 20
106.3872063156
 30
0.0
 10
85.7853804518
 20
106.4259166655
 30
0.0
 10
85.8156795666
 20
106.4575528734
 30
0.0
 10
85.8394338747
 20
106.4833080534
 30
0.0
 10
85.8646583756
 20
106.5077763123
 30
0.0
 10
85.8942129494
 20
106.5633275629
 30
0.0
 10
85.9231855957
 20
106.607765836
 30
0.0
 10
85.94169177
 20
106.6380973702
 30
0.0
  0
SPLINE
  5
67E
100
AcDbEntity
  8
5_ALL_CURVES
100
AcDbSpline
 62
4
  6
CONTINUOUS
 70
0
 71
3
 72
27
 73
23
 74
0
 42
0.0000001
 43
0.0000001
 44
0.0000000001
 40
0.0
 40
0.0
 40
0.0
 40
0.0
 40
0.125
 40
0.15625
 40
0.1875
 40
0.25
 40
0.3125
 40
0.34375
 40
0.375
 40
0.4375
 40
0.46875
 40
0.5
 40
0.53125
 40
0.5625
 40
0.625
 40
0.65625
 40
0.6875
 40
0.75
 40
0.8125
 40
0.84375
 40
0.875
 40
1.0
 40
1.0
 40
1.0
 40
1.0
 10
84.68742759
 20
107.4250123263
 30
0.0
 10
84.6673880336
 20
107.396404655
 30
0.0
 10
84.6432258179
 20
107.3601557692
 30
0.0
 10
84.6115694696
 20
107.3181249963
 30
0.0
 10
84.5961435083
 20
107.2869729822
 30
0.0
 10
84.5790913227
 20
107.2468507323
 30
0.0
 10
84.5605157184
 20
107.2073936092
 30
0.0
 10
84.547527227
 20
107.1751773923
 30
0.0
 10
84.5408749047
 20
107.1409015933
 30
0.0
 10
84.5321497826
 20
107.1072451425
 30
0.0
 10
84.5248909328
 20
107.0732753338
 30
0.0
 10
84.5171207784
 20
107.0481187029
 30
0.0
 10
84.5179215563
 20
107.0218358485
 30
0.0
 10
84.5158825698
 20
106.9871801061
 30
0.0
 10
84.5153418606
 20
106.9524484293
 30
0.0
 10
84.5126363375
 20
106.9176535083
 30
0.0
 10
84.5165923667
 20
106.8832128098
 30
0.0
 10
84.5240212094
 20
106.8403229416
 30
0.0
 10
84.529767697
 20
106.7972591484
 30
0.0
 10
84.5364154945
 20
106.7630967299
 30
0.0
 10
84.5562640068
 20
106.7133236927
 30
0.0
 10
84.5702323462
 20
106.6714631954
 30
0.0
 10
84.5822300857
 20
106.6380973467
 30
0.0
  0
SPLINE
  5
67F
100
AcDbEntity
  8
5_ALL_CURVES
100
AcDbSpline
 62
4
  6
CONTINUOUS
 70
0
 71
3
 72
11
 73
7
 74
0
 42
0.0000001
 43
0.0000001
 44
0.0000000001
 40
0.0
 40
0.0
 40
0.0
 40
0.0
 40
0.5
 40
0.75
 40
0.875
 40
1.0
 40
1.0
 40
1.0
 40
1.0
 10
87.9290325455
 20
88.5385885579
 30
0.0
 10
87.8693801311
 20
88.6211315801
 30
0.0
 10
87.7775456547
 20
88.7439602458
 30
0.0
 10
87.6585481099
 20
88.875481797
 30
0.0
 10
87.5872489887
 20
88.9504924433
 30
0.0
 10
87.5468710485
 20
88.9903600382
 30
0.0
 10
87.5272731259
 20
89.0099985517
 30
0.0
  0
SPLINE
  5
680
100
AcDbEntity
  8
5_ALL_CURVES
100
AcDbSpline
 62
4
  6
CONTINUOUS
 70
0
 71
3
 72
9
 73
5
 74
0
 42
0.0000001
 43
0.0000001
 44
0.0000000001
 40
0.0
 40
0.0
 40
0.0
 40
0.0
 40
0.5
 40
1.0
 40
1.0
 40
1.0
 40
1.0
 10
87.520493866
 20
89.0165442817
 30
0.0
 10
87.4459727416
 20
89.0860677832
 30
0.0
 10
87.2945430328
 20
89.2229414184
 30
0.0
 10
87.1271015736
 20
89.3398494587
 30
0.0
 10
87.0405233373
 20
89.3982447656
 30
0.0
  0
SPLINE
  5
681
100
AcDbEntity
  8
5_ALL_CURVES
100
AcDbSpline
 62
4
  6
CONTINUOUS
 70
0
 71
3
 72
9
 73
5
 74
0
 42
0.0000001
 43
0.0000001
 44
0.0000000001
 40
0.0
 40
0.0
 40
0.0
 40
0.0
 40
0.5
 40
1.0
 40
1.0
 40
1.0
 40
1.0
 10
87.0316088276
 20
89.4040305841
 30
0.0
 10
86.9451112074
 20
89.4580650695
 30
0.0
 10
86.770190055
 20
89.5635457527
 30
0.0
 10
86.5833877647
 20
89.646377716
 30
0.0
 10
86.4843160439
 20
89.6883564196
 30
0.0
  0
SPLINE
  5
682
100
AcDbEntity
  8
5_ALL_CURVES
100
AcDbSpline
 62
4
  6
CONTINUOUS
 70
0
 71
3
 72
13
 73
9
 74
0
 42
0.0000001
 43
0.0000001
 44
0.0000000001
 40
0.0
 40
0.0
 40
0.0
 40
0.0
 40
0.5
 40
0.625
 40
0.75
 40
0.8125
 40
0.875
 40
1.0
 40
1.0
 40
1.0
 40
1.0
 10
86.484316066
 20
89.6883564107
 30
0.0
 10
86.3891234971
 20
89.7251251339
 30
0.0
 10
86.2691914931
 20
89.7694242409
 30
0.0
 10
86.1220180693
 20
89.8106488669
 30
0.0
 10
86.0596735122
 20
89.8265797527
 30
0.0
 10
86.0113403834
 20
89.8388766601
 30
0.0
 10
85.9568306924
 20
89.8508737849
 30
0.0
 10
85.9145328267
 20
89.8597593661
 30
0.0
 10
85.8866488267
 20
89.8657080341
 30
0.0
  0
SPLINE
  5
683
100
AcDbEntity
  8
5_ALL_CURVES
100
AcDbSpline
 62
4
  6
CONTINUOUS
 70
0
 71
3
 72
12
 73
8
 74
0
 42
0.0000001
 43
0.0000001
 44
0.0000000001
 40
0.0
 40
0.0
 40
0.0
 40
0.0
 40
0.5
 40
0.625
 40
0.75
 40
0.875
 40
1.0
 40
1.0
 40
1.0
 40
1.0
 10
85.8866488347
 20
89.8657080326
 30
0.0
 10
85.7861591501
 20
89.8836874996
 30
0.0
 10
85.6602238734
 20
89.9044141552
 30
0.0
 10
85.5073480304
 20
89.9167643299
 30
0.0
 10
85.4313470879
 20
89.9215388845
 30
0.0
 10
85.3532975193
 20
89.9248564658
 30
0.0
 10
85.2955689125
 20
89.9255408922
 30
0.0
 10
85.2674165543
 20
89.9260740172
 30
0.0
  0
SPLINE
  5
684
100
AcDbEntity
  8
5_ALL_CURVES
100
AcDbSpline
 62
4
  6
CONTINUOUS
 70
0
 71
3
 72
9
 73
5
 74
0
 42
0.0000001
 43
0.0000001
 44
0.0000000001
 40
0.0
 40
0.0
 40
0.0
 40
0.0
 40
0.5
 40
1.0
 40
1.0
 40
1.0
 40
1.0
 10
85.2563114265
 20
89.9260736872
 30
0.0
 10
85.1542294014
 20
89.9242993336
 30
0.0
 10
84.9498703163
 20
89.9175346593
 30
0.0
 10
84.747969738
 20
89.8853327027
 30
0.0
 10
84.6441816677
 20
89.8670483029
 30
0.0
  0
SPLINE
  5
685
100
AcDbEntity
  8
5_ALL_CURVES
100
AcDbSpline
 62
4
  6
CONTINUOUS
 70
0
 71
3
 72
14
 73
10
 74
0
 42
0.0000001
 43
0.0000001
 44
0.0000000001
 40
0.0
 40
0.0
 40
0.0
 40
0.0
 40
0.25
 40
0.5
 40
0.625
 40
0.6875
 40
0.75
 40
0.875
 40
1.0
 40
1.0
 40
1.0
 40
1.0
 10
84.6441816869
 20
89.8670483066
 30
0.0
 10
84.5942222559
 20
89.8565985458
 30
0.0
 10
84.4945169154
 20
89.8352403789
 30
0.0
 10
84.3705883364
 20
89.8030452177
 30
0.0
 10
84.2860570693
 20
89.7763570155
 30
0.0
 10
84.2363760834
 20
89.7606553412
 30
0.0
 10
84.1817024582
 20
89.7414282376
 30
0.0
 10
84.1163131362
 20
89.7184788697
 30
0.0
 10
84.0678433489
 20
89.6992748437
 30
0.0
 10
84.0431282465
 20
89.6897783972
 30
0.0
  0
SPLINE
  5
686
100
AcDbEntity
  8
5_ALL_CURVES
100
AcDbSpline
 62
4
  6
CONTINUOUS
 70
0
 71
3
 72
12
 73
8
 74
0
 42
0.0000001
 43
0.0000001
 44
0.0000000001
 40
0.0
 40
0.0
 40
0.0
 40
0.0
 40
0.5
 40
0.625
 40
0.75
 40
0.875
 40
1.0
 40
1.0
 40
1.0
 40
1.0
 10
84.0431282557
 20
89.6897784009
 30
0.0
 10
83.9490954293
 20
89.6501586491
 30
0.0
 10
83.8322337109
 20
89.5989888465
 30
0.0
 10
83.697421279
 20
89.5261580947
 30
0.0
 10
83.6311094674
 20
89.4887817614
 30
0.0
 10
83.5640337276
 20
89.4491694108
 30
0.0
 10
83.5158246993
 20
89.4186683807
 30
0.0
 10
83.4921566686
 20
89.4039294651
 30
0.0
  0
SPLINE
  5
687
100
AcDbEntity
  8
5_ALL_CURVES
100
AcDbSpline
 62
4
  6
CONTINUOUS
 70
0
 71
3
 72
9
 73
5
 74
0
 42
0.0000001
 43
0.0000001
 44
0.0000000001
 40
0.0
 40
0.0
 40
0.0
 40
0.0
 40
0.5
 40
1.0
 40
1.0
 40
1.0
 40
1.0
 10
83.4832301326
 20
89.3981350857
 30
0.0
 10
83.3986693125
 20
89.3411393404
 30
0.0
 10
83.2311463839
 20
89.2243471838
 30
0.0
 10
83.0796212816
 20
89.0875783582
 30
0.0
 10
83.0032778901
 20
89.0163997747
 30
0.0
  0
SPLINE
  5
688
100
AcDbEntity
  8
5_ALL_CURVES
100
AcDbSpline
 62
4
  6
CONTINUOUS
 70
0
 71
3
 72
11
 73
7
 74
0
 42
0.0000001
 43
0.0000001
 44
0.0000000001
 40
0.0
 40
0.0
 40
0.0
 40
0.0
 40
0.5
 40
0.75
 40
0.875
 40
1.0
 40
1.0
 40
1.0
 40
1.0
 10
82.9965194172
 20
89.009873334
 30
0.0
 10
82.924440941
 20
88.9378393947
 30
0.0
 10
82.8176870714
 20
88.8276398467
 30
0.0
 10
82.7067146251
 20
88.6893047487
 30
0.0
 10
82.6440055467
 20
88.6070708748
 30
0.0
 10
82.6111350604
 20
88.5610034688
 30
0.0
 10
82.5948893106
 20
88.5385885744
 30
0.0
  0
SPLINE
  5
689
100
AcDbEntity
  8
7_ALL_ROUNDS
100
AcDbSpline
 62
7
  6
CONTINUOUS
 70
0
 71
3
 72
9
 73
5
 74
0
 42
0.0000001
 43
0.0000001
 44
0.0000000001
 40
0.0
 40
0.0
 40
0.0
 40
0.0
 40
0.4985865063
 40
1.0
 40
1.0
 40
1.0
 40
1.0
 10
88.8180288679
 20
163.3086964483
 30
0.0
 10
88.8207031053
 20
163.3128959621
 30
0.0
 10
88.8272920471
 20
163.3205777869
 30
0.0
 10
88.8355337599
 20
163.3263930675
 30
0.0
 10
88.8399269027
 20
163.3287950762
 30
0.0
  0
SPLINE
  5
68A
100
AcDbEntity
  8
7_ALL_ROUNDS
100
AcDbSpline
 62
7
  6
CONTINUOUS
 70
0
 71
3
 72
9
 73
5
 74
0
 42
0.0000001
 43
0.0000001
 44
0.0000000001
 40
0.0
 40
0.0
 40
0.0
 40
0.0
 40
0.5065613894
 40
1.0
 40
1.0
 40
1.0
 40
1.0
 10
88.8399269027
 20
163.3287950762
 30
0.0
 10
88.8443711746
 20
163.3312250405
 30
0.0
 10
88.8537323906
 20
163.3350182644
 30
0.0
 10
88.8637601864
 20
163.3364496987
 30
0.0
 10
88.868694172
 20
163.3364496987
 30
0.0
  0
SPLINE
  5
68B
100
AcDbEntity
  8
7_ALL_ROUNDS
100
AcDbSpline
 62
7
  6
CONTINUOUS
 70
0
 71
3
 72
9
 73
5
 74
0
 42
0.0000001
 43
0.0000001
 44
0.0000000001
 40
0.0
 40
0.0
 40
0.0
 40
0.0
 40
0.4985865063
 40
1.0
 40
1.0
 40
1.0
 40
1.0
 10
88.8180288679
 20
163.3533201885
 30
0.0
 10
88.8207031053
 20
163.3575197024
 30
0.0
 10
88.8272920471
 20
163.3652015272
 30
0.0
 10
88.8355337599
 20
163.3710168078
 30
0.0
 10
88.8399269027
 20
163.3734188165
 30
0.0
  0
SPLINE
  5
68C
100
AcDbEntity
  8
7_ALL_ROUNDS
100
AcDbSpline
 62
7
  6
CONTINUOUS
 70
0
 71
3
 72
9
 73
5
 74
0
 42
0.0000001
 43
0.0000001
 44
0.0000000001
 40
0.0
 40
0.0
 40
0.0
 40
0.0
 40
0.5030856554
 40
1.0
 40
1.0
 40
1.0
 40
1.0
 10
88.8399269027
 20
163.3734188165
 30
0.0
 10
88.8427134417
 20
163.3749423935
 30
0.0
 10
88.8484815982
 20
163.3775691648
 30
0.0
 10
88.8545768867
 20
163.3793151785
 30
0.0
 10
88.8576511864
 20
163.379938745
 30
0.0
  0
SPLINE
  5
68D
100
AcDbEntity
  8
7_ALL_ROUNDS
100
AcDbSpline
 62
7
  6
CONTINUOUS
 70
0
 71
3
 72
9
 73
5
 74
0
 42
0.0000001
 43
0.0000001
 44
0.0000000001
 40
0.0
 40
0.0
 40
0.0
 40
0.0
 40
0.5031990754
 40
1.0
 40
1.0
 40
1.0
 40
1.0
 10
88.8576511864
 20
163.379938745
 30
0.0
 10
88.8594783326
 20
163.3803093488
 30
0.0
 10
88.8631463335
 20
163.3808753809
 30
0.0
 10
88.8668535247
 20
163.381073439
 30
0.0
 10
88.868694172
 20
163.381073439
 30
0.0
  0
SPLINE
  5
68E
100
AcDbEntity
  8
7_ALL_ROUNDS
100
AcDbSpline
 62
7
  6
CONTINUOUS
 70
0
 71
3
 72
9
 73
5
 74
0
 42
0.0000001
 43
0.0000001
 44
0.0000000001
 40
0.0
 40
0.0
 40
0.0
 40
0.0
 40
0.4985865063
 40
1.0
 40
1.0
 40
1.0
 40
1.0
 10
88.8180288679
 20
163.3979439288
 30
0.0
 10
88.8207031053
 20
163.4021434426
 30
0.0
 10
88.8272920471
 20
163.4098252675
 30
0.0
 10
88.8355337599
 20
163.4156405481
 30
0.0
 10
88.8399269027
 20
163.4180425568
 30
0.0
  0
SPLINE
  5
68F
100
AcDbEntity
  8
7_ALL_ROUNDS
100
AcDbSpline
 62
7
  6
CONTINUOUS
 70
0
 71
3
 72
9
 73
5
 74
0
 42
0.0000001
 43
0.0000001
 44
0.0000000001
 40
0.0
 40
0.0
 40
0.0
 40
0.0
 40
0.5030856554
 40
1.0
 40
1.0
 40
1.0
 40
1.0
 10
88.8399269027
 20
163.4180425568
 30
0.0
 10
88.8427134417
 20
163.4195661338
 30
0.0
 10
88.8484815982
 20
163.4221929051
 30
0.0
 10
88.8545768867
 20
163.4239389188
 30
0.0
 10
88.8576511864
 20
163.4245624853
 30
0.0
  0
SPLINE
  5
690
100
AcDbEntity
  8
7_ALL_ROUNDS
100
AcDbSpline
 62
7
  6
CONTINUOUS
 70
0
 71
3
 72
9
 73
5
 74
0
 42
0.0000001
 43
0.0000001
 44
0.0000000001
 40
0.0
 40
0.0
 40
0.0
 40
0.0
 40
0.5031990754
 40
1.0
 40
1.0
 40
1.0
 40
1.0
 10
88.8576511864
 20
163.4245624853
 30
0.0
 10
88.8594783326
 20
163.4249330891
 30
0.0
 10
88.8631463335
 20
163.4254991212
 30
0.0
 10
88.8668535247
 20
163.4256971793
 30
0.0
 10
88.868694172
 20
163.4256971793
 30
0.0
  0
SPLINE
  5
691
100
AcDbEntity
  8
7_ALL_ROUNDS
100
AcDbSpline
 62
7
  6
CONTINUOUS
 70
0
 71
3
 72
9
 73
5
 74
0
 42
0.0000001
 43
0.0000001
 44
0.0000000001
 40
0.0
 40
0.0
 40
0.0
 40
0.0
 40
0.4985865063
 40
1.0
 40
1.0
 40
1.0
 40
1.0
 10
88.8180288679
 20
163.4425676691
 30
0.0
 10
88.8207031053
 20
163.4467671829
 30
0.0
 10
88.8272920471
 20
163.4544490077
 30
0.0
 10
88.8355337599
 20
163.4602642884
 30
0.0
 10
88.8399269027
 20
163.4626662971
 30
0.0
  0
SPLINE
  5
692
100
AcDbEntity
  8
7_ALL_ROUNDS
100
AcDbSpline
 62
7
  6
CONTINUOUS
 70
0
 71
3
 72
9
 73
5
 74
0
 42
0.0000001
 43
0.0000001
 44
0.0000000001
 40
0.0
 40
0.0
 40
0.0
 40
0.0
 40
0.5030856554
 40
1.0
 40
1.0
 40
1.0
 40
1.0
 10
88.8399269027
 20
163.4626662971
 30
0.0
 10
88.8427134417
 20
163.4641898741
 30
0.0
 10
88.8484815982
 20
163.4668166454
 30
0.0
 10
88.8545768867
 20
163.4685626591
 30
0.0
 10
88.8576511864
 20
163.4691862256
 30
0.0
  0
SPLINE
  5
693
100
AcDbEntity
  8
7_ALL_ROUNDS
100
AcDbSpline
 62
7
  6
CONTINUOUS
 70
0
 71
3
 72
9
 73
5
 74
0
 42
0.0000001
 43
0.0000001
 44
0.0000000001
 40
0.0
 40
0.0
 40
0.0
 40
0.0
 40
0.5031990754
 40
1.0
 40
1.0
 40
1.0
 40
1.0
 10
88.8576511864
 20
163.4691862256
 30
0.0
 10
88.8594783326
 20
163.4695568294
 30
0.0
 10
88.8631463335
 20
163.4701228615
 30
0.0
 10
88.8668535247
 20
163.4703209195
 30
0.0
 10
88.868694172
 20
163.4703209195
 30
0.0
  0
SPLINE
  5
694
100
AcDbEntity
  8
7_ALL_ROUNDS
100
AcDbSpline
 62
7
  6
CONTINUOUS
 70
0
 71
3
 72
9
 73
5
 74
0
 42
0.0000001
 43
0.0000001
 44
0.0000000001
 40
0.0
 40
0.0
 40
0.0
 40
0.0
 40
0.4985865063
 40
1.0
 40
1.0
 40
1.0
 40
1.0
 10
88.8180288679
 20
163.4871914094
 30
0.0
 10
88.8207031053
 20
163.4913909232
 30
0.0
 10
88.8272920471
 20
163.499072748
 30
0.0
 10
88.8355337599
 20
163.5048880286
 30
0.0
 10
88.8399269027
 20
163.5072900374
 30
0.0
  0
SPLINE
  5
695
100
AcDbEntity
  8
7_ALL_ROUNDS
100
AcDbSpline
 62
7
  6
CONTINUOUS
 70
0
 71
3
 72
9
 73
5
 74
0
 42
0.0000001
 43
0.0000001
 44
0.0000000001
 40
0.0
 40
0.0
 40
0.0
 40
0.0
 40
0.5030856554
 40
1.0
 40
1.0
 40
1.0
 40
1.0
 10
88.8399269027
 20
163.5072900374
 30
0.0
 10
88.8427134417
 20
163.5088136144
 30
0.0
 10
88.8484815982
 20
163.5114403857
 30
0.0
 10
88.8545768867
 20
163.5131863994
 30
0.0
 10
88.8576511864
 20
163.5138099659
 30
0.0
  0
SPLINE
  5
696
100
AcDbEntity
  8
7_ALL_ROUNDS
100
AcDbSpline
 62
7
  6
CONTINUOUS
 70
0
 71
3
 72
9
 73
5
 74
0
 42
0.0000001
 43
0.0000001
 44
0.0000000001
 40
0.0
 40
0.0
 40
0.0
 40
0.0
 40
0.5031990754
 40
1.0
 40
1.0
 40
1.0
 40
1.0
 10
88.8576511864
 20
163.5138099659
 30
0.0
 10
88.8594783326
 20
163.5141805697
 30
0.0
 10
88.8631463335
 20
163.5147466018
 30
0.0
 10
88.8668535247
 20
163.5149446598
 30
0.0
 10
88.868694172
 20
163.5149446598
 30
0.0
  0
SPLINE
  5
697
100
AcDbEntity
  8
0
100
AcDbSpline
 62
7
  6
CONTINUOUS
 70
0
 71
3
 72
9
 73
5
 74
0
 42
0.0000001
 43
0.0000001
 44
0.0000000001
 40
0.0
 40
0.0
 40
0.0
 40
0.0
 40
0.2752389263
 40
1.0
 40
1.0
 40
1.0
 40
1.0
 10
81.8319565124
 20
157.3859023593
 30
0.0
 10
81.8320010508
 20
157.3982875256
 30
0.0
 10
81.8987549667
 20
157.401681058
 30
0.0
 10
81.9306706704
 20
157.4101209769
 30
0.0
 10
81.9631689025
 20
157.4128536138
 30
0.0
  0
SPLINE
  5
698
100
AcDbEntity
  8
0
100
AcDbSpline
 62
7
  6
CONTINUOUS
 70
0
 71
3
 72
8
 73
4
 74
0
 42
0.0000001
 43
0.0000001
 44
0.0000000001
 40
0.0
 40
0.0
 40
0.0
 40
0.0
 40
1.0
 40
1.0
 40
1.0
 40
1.0
 10
81.9631689025
 20
157.4128536138
 30
0.0
 10
82.0165378074
 20
157.4173411759
 30
0.0
 10
82.0700801085
 20
157.4198012504
 30
0.0
 10
82.1236138788
 20
157.4213867047
 30
0.0
  0
SPLINE
  5
699
100
AcDbEntity
  8
0
100
AcDbSpline
 62
7
  6
CONTINUOUS
 70
0
 71
3
 72
9
 73
5
 74
0
 42
0.0000001
 43
0.0000001
 44
0.0000000001
 40
0.0
 40
0.0
 40
0.0
 40
0.0
 40
0.2795210285
 40
1.0
 40
1.0
 40
1.0
 40
1.0
 10
88.6919653322
 20
157.3859023593
 30
0.0
 10
88.6919365494
 20
157.3939062344
 30
0.0
 10
88.6517140574
 20
157.4005351451
 30
0.0
 10
88.6304068453
 20
157.4054571891
 30
0.0
 10
88.6099236831
 20
157.4079184804
 30
0.0
  0
SPLINE
  5
69A
100
AcDbEntity
  8
7_ALL_ROUNDS
100
AcDbSpline
 62
7
  6
CONTINUOUS
 70
0
 71
3
 72
11
 73
7
 74
0
 42
0.0000001
 43
0.0000001
 44
0.0000000001
 40
0.0
 40
0.0
 40
0.0
 40
0.0
 40
0.2670215044
 40
0.5325728672
 40
0.7885852923
 40
1.0
 40
1.0
 40
1.0
 40
1.0
 10
80.0161977003
 20
161.0432405138
 30
0.0
 10
80.0328340558
 20
161.3594698064
 30
0.0
 10
80.1881573407
 20
161.9901934308
 30
0.0
 10
80.7438827726
 20
162.7687072375
 30
0.0
 10
81.4841267631
 20
163.2594273755
 30
0.0
 10
82.0222816482
 20
163.4130780167
 30
0.0
 10
82.2683141001
 20
163.461339782
 30
0.0
  0
SPLINE
  5
69B
100
AcDbEntity
  8
7_ALL_ROUNDS
100
AcDbSpline
 62
7
  6
CONTINUOUS
 70
0
 71
3
 72
9
 73
5
 74
0
 42
0.0000001
 43
0.0000001
 44
0.0000000001
 40
0.0
 40
0.0
 40
0.0
 40
0.0
 40
0.7359953492
 40
1.0
 40
1.0
 40
1.0
 40
1.0
 10
88.2556077445
 20
163.461339782
 30
0.0
 10
88.3486953712
 20
163.4430796982
 30
0.0
 10
88.4745224247
 20
163.4144633623
 30
0.0
 10
88.5984258953
 20
163.3789037466
 30
0.0
 10
88.6309858408
 20
163.3690191118
 30
0.0
  0
SPLINE
  5
69C
100
AcDbEntity
  8
0
100
AcDbSpline
 62
7
  6
CONTINUOUS
 70
0
 71
3
 72
9
 73
5
 74
0
 42
0.0000001
 43
0.0000001
 44
0.0000000001
 40
0.0
 40
0.0
 40
0.0
 40
0.0
 40
0.1735291224
 40
1.0
 40
1.0
 40
1.0
 40
1.0
 10
79.5119767281
 20
157.7626050835
 30
0.0
 10
79.5119767281
 20
157.7547254655
 30
0.0
 10
79.5263609747
 20
157.7095117203
 30
0.0
 10
79.5736494324
 20
157.6876188145
 30
0.0
 10
79.6075888169
 20
157.671603168
 30
0.0
  0
SPLINE
  5
69D
100
AcDbEntity
  8
0
100
AcDbSpline
 62
7
  6
CONTINUOUS
 70
0
 71
3
 72
9
 73
5
 74
0
 42
0.0000001
 43
0.0000001
 44
0.0000000001
 40
0.0
 40
0.0
 40
0.0
 40
0.0
 40
0.3751514048
 40
1.0
 40
1.0
 40
1.0
 40
1.0
 10
79.6075888169
 20
157.671603168
 30
0.0
 10
79.7266506159
 20
157.6154191293
 30
0.0
 10
80.0745602343
 20
157.5412958489
 30
0.0
 10
80.4200214607
 20
157.4904399045
 30
0.0
 10
80.6377905883
 20
157.4647516126
 30
0.0
  0
SPLINE
  5
69E
100
AcDbEntity
  8
0
100
AcDbSpline
 62
7
  6
CONTINUOUS
 70
0
 71
3
 72
9
 73
5
 74
0
 42
0.0000001
 43
0.0000001
 44
0.0000000001
 40
0.0
 40
0.0
 40
0.0
 40
0.0
 40
0.3168719156
 40
1.0
 40
1.0
 40
1.0
 40
1.0
 10
91.0119443638
 20
158.1143147593
 30
0.0
 10
91.0119443638
 20
158.1516275542
 30
0.0
 10
90.8874156035
 20
158.2298019121
 30
0.0
 10
90.7852910095
 20
158.2552329174
 30
0.0
 10
90.7073822123
 20
158.2752562879
 30
0.0
  0
SPLINE
  5
69F
100
AcDbEntity
  8
0
100
AcDbSpline
 62
7
  6
CONTINUOUS
 70
0
 71
3
 72
9
 73
5
 74
0
 42
0.0000001
 43
0.0000001
 44
0.0000000001
 40
0.0
 40
0.0
 40
0.0
 40
0.0
 40
0.2751048528
 40
1.0
 40
1.0
 40
1.0
 40
1.0
 10
89.8278199878
 20
157.7599513654
 30
0.0
 10
89.8279161729
 20
157.775221687
 30
0.0
 10
89.7447488636
 20
157.7783405347
 30
0.0
 10
89.7057820604
 20
157.7888719487
 30
0.0
 10
89.6656720889
 20
157.792076181
 30
0.0
  0
SPLINE
  5
6A0
100
AcDbEntity
  8
0
100
AcDbSpline
 62
7
  6
CONTINUOUS
 70
0
 71
3
 72
9
 73
5
 74
0
 42
0.0000001
 43
0.0000001
 44
0.0000000001
 40
0.0
 40
0.0
 40
0.0
 40
0.0
 40
0.3016693513
 40
1.0
 40
1.0
 40
1.0
 40
1.0
 10
89.8758281339
 20
157.4082417094
 30
0.0
 10
89.8758391675
 20
157.4129568749
 30
0.0
 10
89.8574321119
 20
157.4215234658
 30
0.0
 10
89.8444241118
 20
157.4243681532
 30
0.0
 10
89.8337406241
 20
157.4266048203
 30
0.0
  0
SPLINE
  5
6A1
100
AcDbEntity
  8
0
100
AcDbSpline
 62
7
  6
CONTINUOUS
 70
0
 71
3
 72
9
 73
5
 74
0
 42
0.0000001
 43
0.0000001
 44
0.0000000001
 40
0.0
 40
0.0
 40
0.0
 40
0.0
 40
0.3295747539
 40
1.0
 40
1.0
 40
1.0
 40
1.0
 10
82.8471841516
 20
157.8942217815
 30
0.0
 10
82.8471841516
 20
157.949341036
 30
0.0
 10
83.0156261935
 20
158.068141682
 30
0.0
 10
83.164054581
 20
158.1045234691
 30
0.0
 10
83.2727732784
 20
158.1319479884
 30
0.0
  0
SPLINE
  5
6A2
100
AcDbEntity
  8
0
100
AcDbSpline
 62
7
  6
CONTINUOUS
 70
0
 71
3
 72
9
 73
5
 74
0
 42
0.0000001
 43
0.0000001
 44
0.0000000001
 40
0.0
 40
0.0
 40
0.0
 40
0.0
 40
0.3295747539
 40
1.0
 40
1.0
 40
1.0
 40
1.0
 10
87.676737693
 20
157.8942217815
 30
0.0
 10
87.676737693
 20
157.949341036
 30
0.0
 10
87.5082956511
 20
158.068141682
 30
0.0
 10
87.3598672636
 20
158.1045234691
 30
0.0
 10
87.2511485662
 20
158.1319479884
 30
0.0
  0
SPLINE
  5
6A3
100
AcDbEntity
  8
0
100
AcDbSpline
 62
7
  6
CONTINUOUS
 70
0
 71
3
 72
9
 73
5
 74
0
 42
0.0000001
 43
0.0000001
 44
0.0000000001
 40
0.0
 40
0.0
 40
0.0
 40
0.0
 40
0.288312999
 40
1.0
 40
1.0
 40
1.0
 40
1.0
 10
82.0934609223
 20
157.3884299408
 30
0.0
 10
82.0934609223
 20
157.3750529999
 30
0.0
 10
82.1672774697
 20
157.3848571637
 30
0.0
 10
82.1983925508
 20
157.3745246401
 30
0.0
 10
82.2314085787
 20
157.3739906431
 30
0.0
  0
SPLINE
  5
6A4
100
AcDbEntity
  8
0
100
AcDbSpline
 62
7
  6
CONTINUOUS
 70
0
 71
3
 72
9
 73
5
 74
0
 42
0.0000001
 43
0.0000001
 44
0.0000000001
 40
0.0
 40
0.0
 40
0.0
 40
0.0
 40
0.5737708411
 40
1.0
 40
1.0
 40
1.0
 40
1.0
 10
81.8886798336
 20
157.2885995832
 30
0.0
 10
81.8805744515
 20
157.2898349837
 30
0.0
 10
81.8664909314
 20
157.2922547665
 30
0.0
 10
81.8525604759
 20
157.2955790966
 30
0.0
 10
81.8467654892
 20
157.2974537656
 30
0.0
  0
SPLINE
  5
6A5
100
AcDbEntity
  8
0
100
AcDbSpline
 62
7
  6
CONTINUOUS
 70
0
 71
3
 72
9
 73
5
 74
0
 42
0.0000001
 43
0.0000001
 44
0.0000000001
 40
0.0
 40
0.0
 40
0.0
 40
0.0
 40
0.5319896325
 40
1.0
 40
1.0
 40
1.0
 40
1.0
 10
88.635242011
 20
157.2885995832
 30
0.0
 10
88.6396233486
 20
157.2892673749
 30
0.0
 10
88.6478463074
 20
157.2906090874
 30
0.0
 10
88.656029511
 20
157.2921801032
 30
0.0
 10
88.6598431629
 20
157.292991118
 30
0.0
  0
SPLINE
  5
6A6
100
AcDbEntity
  8
0
100
AcDbSpline
 62
7
  6
CONTINUOUS
 70
0
 71
3
 72
9
 73
5
 74
0
 42
0.0000001
 43
0.0000001
 44
0.0000000001
 40
0.0
 40
0.0
 40
0.0
 40
0.0
 40
0.5433667686
 40
1.0
 40
1.0
 40
1.0
 40
1.0
 10
88.6598431629
 20
157.292991118
 30
0.0
 10
88.6630116329
 20
157.2936649277
 30
0.0
 10
88.6688230079
 20
157.2950011823
 30
0.0
 10
88.6745662569
 20
157.2966158729
 30
0.0
 10
88.6771563554
 20
157.2974537656
 30
0.0
  0
SPLINE
  5
6A7
100
AcDbEntity
  8
0
100
AcDbSpline
 62
7
  6
CONTINUOUS
 70
0
 71
3
 72
9
 73
5
 74
0
 42
0.0000001
 43
0.0000001
 44
0.0000000001
 40
0.0
 40
0.0
 40
0.0
 40
0.0
 40
0.244966142
 40
1.0
 40
1.0
 40
1.0
 40
1.0
 10
87.5837779637
 20
158.7616407467
 30
0.0
 10
87.2054774874
 20
158.7332804524
 30
0.0
 10
85.6589223974
 20
158.6511966629
 30
0.0
 10
84.1061403965
 20
158.6742287385
 30
0.0
 10
82.9401438809
 20
158.7616407467
 30
0.0
  0
SPLINE
  5
6A8
100
AcDbEntity
  8
0
100
AcDbSpline
 62
7
  6
CONTINUOUS
 70
0
 71
3
 72
13
 73
9
 74
0
 42
0.0000001
 43
0.0000001
 44
0.0000000001
 40
0.0
 40
0.0
 40
0.0
 40
0.0
 40
0.0267734826
 40
0.0816496221
 40
0.1677175044
 40
0.2840800918
 40
0.5985142002
 40
1.0
 40
1.0
 40
1.0
 40
1.0
 10
91.7619609223
 20
156.2584059978
 30
0.0
 10
91.7619609223
 20
156.2229206497
 30
0.0
 10
91.6568553296
 20
156.1441954587
 30
0.0
 10
91.456129111
 20
156.0841048586
 30
0.0
 10
91.1169355859
 20
156.0066507058
 30
0.0
 10
90.4423078631
 20
155.908188317
 30
0.0
 10
89.3406789145
 20
155.8077632429
 30
0.0
 10
88.3937351307
 20
155.7594153476
 30
0.0
 10
87.8619936945
 20
155.7391913216
 30
0.0
  0
SPLINE
  5
6A9
100
AcDbEntity
  8
0
100
AcDbSpline
 62
7
  6
CONTINUOUS
 70
0
 71
3
 72
13
 73
9
 74
0
 42
0.0000001
 43
0.0000001
 44
0.0000000001
 40
0.0
 40
0.0
 40
0.0
 40
0.0
 40
0.4014605475
 40
0.7159049263
 40
0.8322765816
 40
0.9183519568
 40
0.9732312311
 40
1.0
 40
1.0
 40
1.0
 40
1.0
 10
82.665597727
 20
155.7390518716
 30
0.0
 10
82.1333980543
 20
155.759259347
 30
0.0
 10
81.1855988148
 20
155.8075911697
 30
0.0
 10
80.0829514077
 20
155.90803036
 30
0.0
 10
79.4076624919
 20
156.0065251205
 30
0.0
 10
79.0681122296
 20
156.0840160063
 30
0.0
 10
78.867200944
 20
156.1441285808
 30
0.0
 10
78.7619609223
 20
156.2228941749
 30
0.0
 10
78.7619609223
 20
156.2584059978
 30
0.0
  0
SPLINE
  5
6AA
100
AcDbEntity
  8
0
100
AcDbSpline
 62
7
  6
CONTINUOUS
 70
0
 71
3
 72
10
 73
6
 74
0
 42
0.0000001
 43
0.0000001
 44
0.0000000001
 40
0.0
 40
0.0
 40
0.0
 40
0.0
 40
0.708844492
 40
0.9020708133
 40
1.0
 40
1.0
 40
1.0
 40
1.0
 10
90.8614218337
 20
156.9196721225
 30
0.0
 10
91.0874675238
 20
156.8862547583
 30
0.0
 10
91.3827856132
 20
156.8323743198
 30
0.0
 10
91.6763882016
 20
156.7358585878
 30
0.0
 10
91.7619609223
 20
156.6635473723
 30
0.0
 10
91.7619609223
 20
156.6319790096
 30
0.0
  0
SPLINE
  5
6AB
100
AcDbEntity
  8
0
100
AcDbSpline
 62
7
  6
CONTINUOUS
 70
0
 71
3
 72
10
 73
6
 74
0
 42
0.0000001
 43
0.0000001
 44
0.0000000001
 40
0.0
 40
0.0
 40
0.0
 40
0.0
 40
0.0979291867
 40
0.291155508
 40
1.0
 40
1.0
 40
1.0
 40
1.0
 10
78.7619609223
 20
156.6319790096
 30
0.0
 10
78.7619609223
 20
156.6635473723
 30
0.0
 10
78.847533643
 20
156.7358585878
 30
0.0
 10
79.1411362314
 20
156.8323743198
 30
0.0
 10
79.4364543208
 20
156.8862547583
 30
0.0
 10
79.6625000109
 20
156.9196721225
 30
0.0
  0
SPLINE
  5
6AC
100
AcDbEntity
  8
0
100
AcDbSpline
 62
7
  6
CONTINUOUS
 70
0
 71
3
 72
17
 73
13
 74
0
 42
0.0000001
 43
0.0000001
 44
0.0000000001
 40
0.0
 40
0.0
 40
0.0
 40
0.0
 40
0.0187587811
 40
0.0503474853
 40
0.1582322758
 40
0.3155533434
 40
0.5
 40
0.6844466566
 40
0.8417677242
 40
0.9496525147
 40
0.9812412189
 40
1.0
 40
1.0
 40
1.0
 40
1.0
 10
82.3819609223
 20
155.981780393
 30
0.0
 10
82.3819609223
 20
155.9443949687
 30
0.0
 10
82.4524942162
 20
155.8545935029
 30
0.0
 10
82.7373011779
 20
155.7252945096
 30
0.0
 10
83.3227790408
 20
155.5968344394
 30
0.0
 10
84.212303094
 20
155.5038607553
 30
0.0
 10
85.2619609223
 20
155.4697065974
 30
0.0
 10
86.3116187506
 20
155.5038607553
 30
0.0
 10
87.2011428038
 20
155.5968344394
 30
0.0
 10
87.7866206667
 20
155.7252945096
 30
0.0
 10
88.0714276284
 20
155.8545935029
 30
0.0
 10
88.1419609223
 20
155.9443949687
 30
0.0
 10
88.1419609223
 20
155.981780393
 30
0.0
  0
SPLINE
  5
6AD
100
AcDbEntity
  8
0
100
AcDbSpline
 62
7
  6
CONTINUOUS
 70
0
 71
3
 72
9
 73
5
 74
0
 42
0.0000001
 43
0.0000001
 44
0.0000000001
 40
0.0
 40
0.0
 40
0.0
 40
0.0
 40
0.3350896497
 40
1.0
 40
1.0
 40
1.0
 40
1.0
 10
88.1419609223
 20
157.5730524565
 30
0.0
 10
88.1419609223
 20
157.633277791
 30
0.0
 10
87.9689403062
 20
157.7671056981
 30
0.0
 10
87.8079613791
 20
157.8097753433
 30
0.0
 10
87.692682642
 20
157.8412704821
 30
0.0
  0
SPLINE
  5
6AE
100
AcDbEntity
  8
0
100
AcDbSpline
 62
7
  6
CONTINUOUS
 70
0
 71
3
 72
9
 73
5
 74
0
 42
0.0000001
 43
0.0000001
 44
0.0000000001
 40
0.0
 40
0.0
 40
0.0
 40
0.0
 40
0.6649103503
 40
1.0
 40
1.0
 40
1.0
 40
1.0
 10
82.8312392026
 20
157.8412704821
 30
0.0
 10
82.7159604656
 20
157.8097753433
 30
0.0
 10
82.5549815384
 20
157.7671056981
 30
0.0
 10
82.3819609223
 20
157.633277791
 30
0.0
 10
82.3819609223
 20
157.5730524565
 30
0.0
  0
SPLINE
  5
6AF
100
AcDbEntity
  8
0
100
AcDbSpline
 62
7
  6
CONTINUOUS
 70
0
 71
3
 72
9
 73
5
 74
0
 42
0.0000001
 43
0.0000001
 44
0.0000000001
 40
0.0
 40
0.0
 40
0.0
 40
0.0
 40
0.1981466254
 40
1.0
 40
1.0
 40
1.0
 40
1.0
 10
82.2019609223
 20
156.5431208122
 30
0.0
 10
82.2019609223
 20
156.5311257167
 30
0.0
 10
82.2150980232
 20
156.4702709259
 30
0.0
 10
82.2690823559
 20
156.4291904768
 30
0.0
 10
82.3100418912
 20
156.403140896
 30
0.0
  0
SPLINE
  5
6B0
100
AcDbEntity
  8
0
100
AcDbSpline
 62
7
  6
CONTINUOUS
 70
0
 71
3
 72
9
 73
5
 74
0
 42
0.0000001
 43
0.0000001
 44
0.0000000001
 40
0.0
 40
0.0
 40
0.0
 40
0.0
 40
0.3812217673
 40
1.0
 40
1.0
 40
1.0
 40
1.0
 10
82.3100418912
 20
156.403140896
 30
0.0
 10
82.4768175324
 20
156.2970743717
 30
0.0
 10
82.9961505873
 20
156.1752283232
 30
0.0
 10
83.5042790761
 20
156.1036506454
 30
0.0
 10
83.8237256739
 20
156.0741130828
 30
0.0
  0
SPLINE
  5
6B1
100
AcDbEntity
  8
0
100
AcDbSpline
 62
7
  6
CONTINUOUS
 70
0
 71
3
 72
9
 73
5
 74
0
 42
0.0000001
 43
0.0000001
 44
0.0000000001
 40
0.0
 40
0.0
 40
0.0
 40
0.0
 40
0.239766796
 40
1.0
 40
1.0
 40
1.0
 40
1.0
 10
83.8237256739
 20
156.0741130828
 30
0.0
 10
83.892066998
 20
156.0677939166
 30
0.0
 10
84.1773181202
 20
156.043824619
 30
0.0
 10
84.4632904934
 20
156.0287425061
 30
0.0
 10
84.6807831896
 20
156.021432457
 30
0.0
  0
SPLINE
  5
6B2
100
AcDbEntity
  8
0
100
AcDbSpline
 62
7
  6
CONTINUOUS
 70
0
 71
3
 72
9
 73
5
 74
0
 42
0.0000001
 43
0.0000001
 44
0.0000000001
 40
0.0
 40
0.0
 40
0.0
 40
0.0
 40
0.258917843
 40
1.0
 40
1.0
 40
1.0
 40
1.0
 10
85.843138655
 20
156.021432457
 30
0.0
 10
85.9172113263
 20
156.0239220802
 30
0.0
 10
86.2032255175
 20
156.0354464204
 30
0.0
 10
86.4889645707
 20
156.0545815973
 30
0.0
 10
86.7001961707
 20
156.0741130828
 30
0.0
  0
SPLINE
  5
6B3
100
AcDbEntity
  8
0
100
AcDbSpline
 62
7
  6
CONTINUOUS
 70
0
 71
3
 72
9
 73
5
 74
0
 42
0.0000001
 43
0.0000001
 44
0.0000000001
 40
0.0
 40
0.0
 40
0.0
 40
0.0
 40
0.6187782327
 40
1.0
 40
1.0
 40
1.0
 40
1.0
 10
86.7001961707
 20
156.0741130828
 30
0.0
 10
87.0196427685
 20
156.1036506454
 30
0.0
 10
87.5277712573
 20
156.1752283232
 30
0.0
 10
88.0471043122
 20
156.2970743717
 30
0.0
 10
88.2138799534
 20
156.403140896
 30
0.0
  0
SPLINE
  5
6B4
100
AcDbEntity
  8
0
100
AcDbSpline
 62
7
  6
CONTINUOUS
 70
0
 71
3
 72
9
 73
5
 74
0
 42
0.0000001
 43
0.0000001
 44
0.0000000001
 40
0.0
 40
0.0
 40
0.0
 40
0.0
 40
0.3239201103
 40
1.0
 40
1.0
 40
1.0
 40
1.0
 10
88.2138799534
 20
156.403140896
 30
0.0
 10
88.2303011026
 20
156.4135844728
 30
0.0
 10
88.2784338602
 20
156.4471394833
 30
0.0
 10
88.3219609223
 20
156.502502617
 30
0.0
 10
88.3219609223
 20
156.5431208122
 30
0.0
  0
SPLINE
  5
6B5
100
AcDbEntity
  8
0
100
AcDbSpline
 62
7
  6
CONTINUOUS
 70
0
 71
3
 72
9
 73
5
 74
0
 42
0.0000001
 43
0.0000001
 44
0.0000000001
 40
0.0
 40
0.0
 40
0.0
 40
0.0
 40
0.1981466254
 40
1.0
 40
1.0
 40
1.0
 40
1.0
 10
88.3219609223
 20
157.3309670146
 30
0.0
 10
88.3219609223
 20
157.3429621101
 30
0.0
 10
88.3088238214
 20
157.403816901
 30
0.0
 10
88.2548394887
 20
157.44489735
 30
0.0
 10
88.2138799534
 20
157.4709469308
 30
0.0
  0
SPLINE
  5
6B6
100
AcDbEntity
  8
0
100
AcDbSpline
 62
7
  6
CONTINUOUS
 70
0
 71
3
 72
8
 73
4
 74
0
 42
0.0000001
 43
0.0000001
 44
0.0000000001
 40
0.0
 40
0.0
 40
0.0
 40
0.0
 40
1.0
 40
1.0
 40
1.0
 40
1.0
 10
88.2138799534
 20
157.4709469308
 30
0.0
 10
88.1968137521
 20
157.48180075
 30
0.0
 10
88.1791336201
 20
157.4917110796
 30
0.0
 10
88.1611468402
 20
157.5009596668
 30
0.0
  0
SPLINE
  5
6B7
100
AcDbEntity
  8
0
100
AcDbSpline
 62
7
  6
CONTINUOUS
 70
0
 71
3
 72
8
 73
4
 74
0
 42
0.0000001
 43
0.0000001
 44
0.0000000001
 40
0.0
 40
0.0
 40
0.0
 40
0.0
 40
1.0
 40
1.0
 40
1.0
 40
1.0
 10
82.3627750044
 20
157.5009596668
 30
0.0
 10
82.3447882245
 20
157.4917110796
 30
0.0
 10
82.3271080925
 20
157.48180075
 30
0.0
 10
82.3100418912
 20
157.4709469308
 30
0.0
  0
SPLINE
  5
6B8
100
AcDbEntity
  8
0
100
AcDbSpline
 62
7
  6
CONTINUOUS
 70
0
 71
3
 72
9
 73
5
 74
0
 42
0.0000001
 43
0.0000001
 44
0.0000000001
 40
0.0
 40
0.0
 40
0.0
 40
0.0
 40
0.3239201103
 40
1.0
 40
1.0
 40
1.0
 40
1.0
 10
82.3100418912
 20
157.4709469308
 30
0.0
 10
82.2936207421
 20
157.4605033541
 30
0.0
 10
82.2454879844
 20
157.4269483435
 30
0.0
 10
82.2019609223
 20
157.3715852099
 30
0.0
 10
82.2019609223
 20
157.3309670146
 30
0.0
  0
SPLINE
  5
6B9
100
AcDbEntity
  8
0
100
AcDbSpline
 62
7
  6
CONTINUOUS
 70
0
 71
3
 72
9
 73
5
 74
0
 42
0.0000001
 43
0.0000001
 44
0.0000000001
 40
0.0
 40
0.0
 40
0.0
 40
0.0
 40
0.6069276783
 40
1.0
 40
1.0
 40
1.0
 40
1.0
 10
80.6901812205
 20
157.4266048203
 30
0.0
 10
80.6824429401
 20
157.4249847541
 30
0.0
 10
80.669828171
 20
157.4219269577
 30
0.0
 10
80.6573935357
 20
157.4174521984
 30
0.0
 10
80.6530823775
 20
157.4146897113
 30
0.0
  0
SPLINE
  5
6BA
100
AcDbEntity
  8
0
100
AcDbSpline
 62
7
  6
CONTINUOUS
 70
0
 71
3
 72
9
 73
5
 74
0
 42
0.0000001
 43
0.0000001
 44
0.0000000001
 40
0.0
 40
0.0
 40
0.0
 40
0.0
 40
0.5878067115
 40
1.0
 40
1.0
 40
1.0
 40
1.0
 10
80.6530823775
 20
157.4146897113
 30
0.0
 10
80.6516966476
 20
157.4138017687
 30
0.0
 10
80.6493965291
 20
157.4121383758
 30
0.0
 10
80.6480910101
 20
157.409395813
 30
0.0
 10
80.6480937107
 20
157.4082417094
 30
0.0
  0
SPLINE
  5
6BB
100
AcDbEntity
  8
0
100
AcDbSpline
 62
7
  6
CONTINUOUS
 70
0
 71
3
 72
8
 73
4
 74
0
 42
0.0000001
 43
0.0000001
 44
0.0000000001
 40
0.0
 40
0.0
 40
0.0
 40
0.0
 40
1.0
 40
1.0
 40
1.0
 40
1.0
 10
89.4650377197
 20
162.7015604889
 30
0.0
 10
89.2657937701
 20
162.8642546072
 30
0.0
 10
89.0390759482
 20
162.9975254509
 30
0.0
 10
88.8007059006
 20
163.0942066177
 30
0.0
  0
SPLINE
  5
6BC
100
AcDbEntity
  8
0
100
AcDbSpline
 62
7
  6
CONTINUOUS
 70
0
 71
3
 72
11
 73
7
 74
0
 42
0.0000001
 43
0.0000001
 44
0.0000000001
 40
0.0
 40
0.0
 40
0.0
 40
0.0
 40
0.1487046765
 40
0.5
 40
0.8512953235
 40
1.0
 40
1.0
 40
1.0
 40
1.0
 10
81.0955969305
 20
157.7599513632
 30
0.0
 10
81.0955969305
 20
157.7499196789
 30
0.0
 10
81.1489171965
 20
157.7588322154
 30
0.0
 10
81.1960969305
 20
157.7458244155
 30
0.0
 10
81.2432766645
 20
157.7588322154
 30
0.0
 10
81.2965969305
 20
157.7499196789
 30
0.0
 10
81.2965969305
 20
157.7599513632
 30
0.0
  0
SPLINE
  5
6BD
100
AcDbEntity
  8
0
100
AcDbSpline
 62
7
  6
CONTINUOUS
 70
0
 71
3
 72
9
 73
5
 74
0
 42
0.0000001
 43
0.0000001
 44
0.0000000001
 40
0.0
 40
0.0
 40
0.0
 40
0.0
 40
0.62485477
 40
1.0
 40
1.0
 40
1.0
 40
1.0
 10
89.8859536369
 20
157.4647306616
 30
0.0
 10
90.1037621912
 20
157.4904208126
 30
0.0
 10
90.449282192
 20
157.5412815325
 30
0.0
 10
90.7972529872
 20
157.6154105213
 30
0.0
 10
90.9163330277
 20
157.671603168
 30
0.0
  0
SPLINE
  5
6BE
100
AcDbEntity
  8
0
100
AcDbSpline
 62
7
  6
CONTINUOUS
 70
0
 71
3
 72
9
 73
5
 74
0
 42
0.0000001
 43
0.0000001
 44
0.0000000001
 40
0.0
 40
0.0
 40
0.0
 40
0.0
 40
0.3529569158
 40
1.0
 40
1.0
 40
1.0
 40
1.0
 10
90.9163330277
 20
157.671603168
 30
0.0
 10
90.9306491221
 20
157.6783587857
 30
0.0
 10
90.9685956371
 20
157.6979505742
 30
0.0
 10
91.0119451165
 20
157.7335854152
 30
0.0
 10
91.0119451165
 20
157.7626050835
 30
0.0
  0
SPLINE
  5
6BF
100
AcDbEntity
  8
0
100
AcDbSpline
 62
7
  6
CONTINUOUS
 70
0
 71
3
 72
11
 73
7
 74
0
 42
0.0000001
 43
0.0000001
 44
0.0000000001
 40
0.0
 40
0.0
 40
0.0
 40
0.0
 40
0.1487046765
 40
0.5
 40
0.8512953235
 40
1.0
 40
1.0
 40
1.0
 40
1.0
 10
89.2273249141
 20
157.7599513632
 30
0.0
 10
89.2273249141
 20
157.7499196789
 30
0.0
 10
89.2806451801
 20
157.7588322154
 30
0.0
 10
89.3278249141
 20
157.7458244155
 30
0.0
 10
89.3750046481
 20
157.7588322154
 30
0.0
 10
89.4283249141
 20
157.7499196789
 30
0.0
 10
89.4283249141
 20
157.7599513632
 30
0.0
  0
SPLINE
  5
6C0
100
AcDbEntity
  8
0
100
AcDbSpline
 62
7
  6
CONTINUOUS
 70
0
 71
3
 72
9
 73
5
 74
0
 42
0.0000001
 43
0.0000001
 44
0.0000000001
 40
0.0
 40
0.0
 40
0.0
 40
0.0
 40
0.7248951472
 40
1.0
 40
1.0
 40
1.0
 40
1.0
 10
80.8582497557
 20
157.792076181
 30
0.0
 10
80.8181397842
 20
157.7888719487
 30
0.0
 10
80.779172981
 20
157.7783405347
 30
0.0
 10
80.6960056717
 20
157.775221687
 30
0.0
 10
80.6961018568
 20
157.7599513654
 30
0.0
  0
SPLINE
  5
6C1
100
AcDbEntity
  8
0
100
AcDbSpline
 62
7
  6
CONTINUOUS
 70
0
 71
3
 72
9
 73
5
 74
0
 42
0.0000001
 43
0.0000001
 44
0.0000000001
 40
0.0
 40
0.0
 40
0.0
 40
0.0
 40
0.6831280844
 40
1.0
 40
1.0
 40
1.0
 40
1.0
 10
79.8165396323
 20
158.2752562879
 30
0.0
 10
79.7386308351
 20
158.2552329174
 30
0.0
 10
79.6365062411
 20
158.2298019121
 30
0.0
 10
79.5119774809
 20
158.1516275542
 30
0.0
 10
79.5119774809
 20
158.1143147593
 30
0.0
  0
SPLINE
  5
6C2
100
AcDbEntity
  8
7_ALL_ROUNDS
100
AcDbSpline
 62
7
  6
CONTINUOUS
 70
0
 71
3
 72
9
 73
5
 74
0
 42
0.0000001
 43
0.0000001
 44
0.0000000001
 40
0.0
 40
0.0
 40
0.0
 40
0.0
 40
0.5008726361
 40
1.0
 40
1.0
 40
1.0
 40
1.0
 10
89.4300937158
 20
163.4447131559
 30
0.0
 10
89.4300704332
 20
163.4503226091
 30
0.0
 10
89.4285683746
 20
163.4615638363
 30
0.0
 10
89.4240515393
 20
163.4720176157
 30
0.0
 10
89.4210489753
 20
163.4767327203
 30
0.0
  0
SPLINE
  5
6C3
100
AcDbEntity
  8
7_ALL_ROUNDS
100
AcDbSpline
 62
7
  6
CONTINUOUS
 70
0
 71
3
 72
9
 73
5
 74
0
 42
0.0000001
 43
0.0000001
 44
0.0000000001
 40
0.0
 40
0.0
 40
0.0
 40
0.0
 40
0.4985865063
 40
1.0
 40
1.0
 40
1.0
 40
1.0
 10
89.4210489753
 20
163.4767327203
 30
0.0
 10
89.4183747379
 20
163.4809322341
 30
0.0
 10
89.4117857961
 20
163.4886140589
 30
0.0
 10
89.4035440832
 20
163.4944293395
 30
0.0
 10
89.3991509405
 20
163.4968313482
 30
0.0
  0
SPLINE
  5
6C4
100
AcDbEntity
  8
7_ALL_ROUNDS
100
AcDbSpline
 62
7
  6
CONTINUOUS
 70
0
 71
3
 72
9
 73
5
 74
0
 42
0.0000001
 43
0.0000001
 44
0.0000000001
 40
0.0
 40
0.0
 40
0.0
 40
0.0
 40
0.5065613894
 40
1.0
 40
1.0
 40
1.0
 40
1.0
 10
89.3991509405
 20
163.4968313482
 30
0.0
 10
89.3947066686
 20
163.4992613125
 30
0.0
 10
89.3853454526
 20
163.5030545364
 30
0.0
 10
89.3753176568
 20
163.5044859707
 30
0.0
 10
89.3703836712
 20
163.5044859707
 30
0.0
  0
SPLINE
  5
6C5
100
AcDbEntity
  8
0
100
AcDbSpline
 62
7
  6
CONTINUOUS
 70
0
 71
3
 72
11
 73
7
 74
0
 42
0.0000001
 43
0.0000001
 44
0.0000000001
 40
0.0
 40
0.0
 40
0.0
 40
0.0
 40
0.1606744027
 40
0.3298098751
 40
0.601186649
 40
1.0
 40
1.0
 40
1.0
 40
1.0
 10
89.835971123
 20
162.629384502
 30
0.0
 10
89.8444833678
 20
162.6202120697
 30
0.0
 10
89.8586402266
 20
162.5933543845
 30
0.0
 10
89.8271451119
 20
162.5510025496
 30
0.0
 10
89.7700145633
 20
162.5207280433
 30
0.0
 10
89.720769191
 20
162.50209435
 30
0.0
 10
89.6912010634
 20
162.4925824383
 30
0.0
  0
SPLINE
  5
6C6
100
AcDbEntity
  8
7_ALL_ROUNDS
100
AcDbSpline
 62
7
  6
CONTINUOUS
 70
0
 71
3
 72
9
 73
5
 74
0
 42
0.0000001
 43
0.0000001
 44
0.0000000001
 40
0.0
 40
0.0
 40
0.0
 40
0.0
 40
0.5008726361
 40
1.0
 40
1.0
 40
1.0
 40
1.0
 10
89.4300937158
 20
163.4000894156
 30
0.0
 10
89.4300704332
 20
163.4056988688
 30
0.0
 10
89.4285683746
 20
163.416940096
 30
0.0
 10
89.4240515393
 20
163.4273938754
 30
0.0
 10
89.4210489753
 20
163.43210898
 30
0.0
  0
SPLINE
  5
6C7
100
AcDbEntity
  8
7_ALL_ROUNDS
100
AcDbSpline
 62
7
  6
CONTINUOUS
 70
0
 71
3
 72
9
 73
5
 74
0
 42
0.0000001
 43
0.0000001
 44
0.0000000001
 40
0.0
 40
0.0
 40
0.0
 40
0.0
 40
0.4985865063
 40
1.0
 40
1.0
 40
1.0
 40
1.0
 10
89.4210489753
 20
163.43210898
 30
0.0
 10
89.4183747379
 20
163.4363084938
 30
0.0
 10
89.4117857961
 20
163.4439903186
 30
0.0
 10
89.4035440832
 20
163.4498055992
 30
0.0
 10
89.3991509405
 20
163.452207608
 30
0.0
  0
SPLINE
  5
6C8
100
AcDbEntity
  8
7_ALL_ROUNDS
100
AcDbSpline
 62
7
  6
CONTINUOUS
 70
0
 71
3
 72
9
 73
5
 74
0
 42
0.0000001
 43
0.0000001
 44
0.0000000001
 40
0.0
 40
0.0
 40
0.0
 40
0.0
 40
0.5065613894
 40
1.0
 40
1.0
 40
1.0
 40
1.0
 10
89.3991509405
 20
163.452207608
 30
0.0
 10
89.3947066686
 20
163.4546375722
 30
0.0
 10
89.3853454526
 20
163.4584307961
 30
0.0
 10
89.3753176568
 20
163.4598622304
 30
0.0
 10
89.3703836712
 20
163.4598622304
 30
0.0
  0
SPLINE
  5
6C9
100
AcDbEntity
  8
0
100
AcDbSpline
 62
7
  6
CONTINUOUS
 70
0
 71
3
 72
11
 73
7
 74
0
 42
0.0000001
 43
0.0000001
 44
0.0000000001
 40
0.0
 40
0.0
 40
0.0
 40
0.0
 40
0.080372912
 40
0.276668244
 40
0.5879492823
 40
1.0
 40
1.0
 40
1.0
 40
1.0
 10
90.6616969016
 20
158.1164726062
 30
0.0
 10
90.6646701424
 20
158.0601258998
 30
0.0
 10
90.4204596911
 20
157.966545827
 30
0.0
 10
90.0698817437
 20
157.8943037536
 30
0.0
 10
89.4001569482
 20
157.8048901759
 30
0.0
 10
88.903042223
 20
157.7653048852
 30
0.0
 10
88.6144524106
 20
157.7453834862
 30
0.0
  0
SPLINE
  5
6CA
100
AcDbEntity
  8
7_ALL_ROUNDS
100
AcDbSpline
 62
7
  6
CONTINUOUS
 70
0
 71
3
 72
8
 73
4
 74
0
 42
0.0000001
 43
0.0000001
 44
0.0000000001
 40
0.0
 40
0.0
 40
0.0
 40
0.0
 40
1.0
 40
1.0
 40
1.0
 40
1.0
 10
88.868694172
 20
163.3706147498
 30
0.0
 10
88.8405317881
 20
163.3706147498
 30
0.0
 10
88.8091010169
 20
163.3390040764
 30
0.0
 10
88.8089841274
 20
163.310841935
 30
0.0
  0
SPLINE
  5
6CB
100
AcDbEntity
  8
0
100
AcDbSpline
 62
7
  6
CONTINUOUS
 70
0
 71
3
 72
17
 73
13
 74
0
 42
0.0000001
 43
0.0000001
 44
0.0000000001
 40
0.0
 40
0.0
 40
0.0
 40
0.0
 40
0.0187595412
 40
0.0503463941
 40
0.1582336726
 40
0.3155536018
 40
0.5
 40
0.6844463982
 40
0.8417663274
 40
0.9496536059
 40
0.9812404588
 40
1.0
 40
1.0
 40
1.0
 40
1.0
 10
82.3819609223
 20
157.3309670146
 30
0.0
 10
82.3819609223
 20
157.2935800053
 30
0.0
 10
82.4524769508
 20
157.2037698697
 30
0.0
 10
82.7373120803
 20
157.0744962909
 30
0.0
 10
83.3227691858
 20
156.9460146002
 30
0.0
 10
84.212307261
 20
156.8530533835
 30
0.0
 10
85.2619609223
 20
156.8188829532
 30
0.0
 10
86.3116145836
 20
156.8530533835
 30
0.0
 10
87.2011526588
 20
156.9460146002
 30
0.0
 10
87.7866097643
 20
157.0744962909
 30
0.0
 10
88.0714448938
 20
157.2037698697
 30
0.0
 10
88.1419609223
 20
157.2935800053
 30
0.0
 10
88.1419609223
 20
157.3309670146
 30
0.0
  0
SPLINE
  5
6CC
100
AcDbEntity
  8
7_ALL_ROUNDS
100
AcDbSpline
 62
7
  6
CONTINUOUS
 70
0
 71
3
 72
8
 73
4
 74
0
 42
0.0000001
 43
0.0000001
 44
0.0000000001
 40
0.0
 40
0.0
 40
0.0
 40
0.0
 40
1.0
 40
1.0
 40
1.0
 40
1.0
 10
88.868694172
 20
163.4152384901
 30
0.0
 10
88.8405317881
 20
163.4152384901
 30
0.0
 10
88.8091010169
 20
163.3836278167
 30
0.0
 10
88.8089841274
 20
163.3554656753
 30
0.0
  0
SPLINE
  5
6CD
100
AcDbEntity
  8
7_ALL_ROUNDS
100
AcDbSpline
 62
7
  6
CONTINUOUS
 70
0
 71
3
 72
14
 73
10
 74
0
 42
0.0000001
 43
0.0000001
 44
0.0000000001
 40
0.0
 40
0.0
 40
0.0
 40
0.0
 40
0.0248254706
 40
0.0828641783
 40
0.1751610144
 40
0.2987666798
 40
0.4491408018
 40
0.6205990087
 40
1.0
 40
1.0
 40
1.0
 40
1.0
 10
90.5077239743
 20
161.0432405137
 30
0.0
 10
90.5100379219
 20
160.9993882207
 30
0.0
 10
90.3381739763
 20
160.9147945201
 30
0.0
 10
90.068780207
 20
160.8548407617
 30
0.0
 10
89.5725355593
 20
160.7741235647
 30
0.0
 10
88.9348493621
 20
160.7114769188
 30
0.0
 10
88.1462076094
 20
160.655575344
 30
0.0
 10
86.9080805752
 20
160.5996048008
 30
0.0
 10
85.9330760833
 20
160.5839410017
 30
0.0
 10
85.2619609223
 20
160.5839410017
 30
0.0
  0
SPLINE
  5
6CE
100
AcDbEntity
  8
7_ALL_ROUNDS
100
AcDbSpline
 62
7
  6
CONTINUOUS
 70
0
 71
3
 72
18
 73
14
 74
0
 42
0.0000001
 43
0.0000001
 44
0.0000000001
 40
0.0
 40
0.0
 40
0.0
 40
0.0
 40
0.0401401745
 40
0.067590293
 40
0.0830448641
 40
0.0930018558
 40
0.1115185181
 40
0.1424329589
 40
0.1860022273
 40
0.2418193359
 40
0.3869162657
 40
0.5692769994
 40
1.0
 40
1.0
 40
1.0
 40
1.0
 10
88.2556034754
 20
163.4613396167
 30
0.0
 10
88.3032453919
 20
163.4519921507
 30
0.0
 10
88.3856960564
 20
163.4342392894
 30
0.0
 10
88.4738771117
 20
163.4026333147
 30
0.0
 10
88.5427282851
 20
163.3689912484
 30
0.0
 10
88.527755795
 20
163.3074718961
 30
0.0
 10
88.4539271976
 20
163.2821196224
 30
0.0
 10
88.350507519
 20
163.2467405712
 30
0.0
 10
88.1938525031
 20
163.217037129
 30
0.0
 10
87.9023900029
 20
163.1725064871
 30
0.0
 10
87.4399676229
 20
163.1287897818
 30
0.0
 10
86.5249084455
 20
163.0737231915
 30
0.0
 10
85.7829280597
 20
163.0599056466
 30
0.0
 10
85.2619609223
 20
163.0599056466
 30
0.0
  0
SPLINE
  5
6CF
100
AcDbEntity
  8
7_ALL_ROUNDS
100
AcDbSpline
 62
7
  6
CONTINUOUS
 70
0
 71
3
 72
8
 73
4
 74
0
 42
0.0000001
 43
0.0000001
 44
0.0000000001
 40
0.0
 40
0.0
 40
0.0
 40
0.0
 40
1.0
 40
1.0
 40
1.0
 40
1.0
 10
88.868694172
 20
163.4598622304
 30
0.0
 10
88.8405317881
 20
163.4598622304
 30
0.0
 10
88.8091010169
 20
163.428251557
 30
0.0
 10
88.8089841274
 20
163.4000894156
 30
0.0
  0
SPLINE
  5
6D0
100
AcDbEntity
  8
0
100
AcDbSpline
 62
7
  6
CONTINUOUS
 70
0
 71
3
 72
13
 73
9
 74
0
 42
0.0000001
 43
0.0000001
 44
0.0000000001
 40
0.0
 40
0.0
 40
0.0
 40
0.0
 40
0.0295041897
 40
0.1050647904
 40
0.2220717375
 40
0.3705235405
 40
0.7076959034
 40
1.0
 40
1.0
 40
1.0
 40
1.0
 10
80.6961018568
 20
157.7599513654
 30
0.0
 10
80.696155999
 20
157.7513557503
 30
0.0
 10
80.7382159532
 20
157.7433146952
 30
0.0
 10
80.791356685
 20
157.7326256214
 30
0.0
 10
80.8959424299
 20
157.7245955382
 30
0.0
 10
81.0686081504
 20
157.7160659177
 30
0.0
 10
81.2968321694
 20
157.7153495094
 30
0.0
 10
81.4799100523
 20
157.7224447868
 30
0.0
 10
81.5646878778
 20
157.7305060418
 30
0.0
  0
SPLINE
  5
6D1
100
AcDbEntity
  8
0
100
AcDbSpline
 62
7
  6
CONTINUOUS
 70
0
 71
3
 72
9
 73
5
 74
0
 42
0.0000001
 43
0.0000001
 44
0.0000000001
 40
0.0
 40
0.0
 40
0.0
 40
0.0
 40
0.3445526853
 40
1.0
 40
1.0
 40
1.0
 40
1.0
 10
80.69612153
 20
157.4082417175
 30
0.0
 10
80.6961310062
 20
157.4060442197
 30
0.0
 10
80.7016116389
 20
157.4008775232
 30
0.0
 10
80.7073573645
 20
157.3989388895
 30
0.0
 10
80.7113087432
 20
157.3975743039
 30
0.0
  0
SPLINE
  5
6D2
100
AcDbEntity
  8
7_ALL_ROUNDS
100
AcDbSpline
 62
7
  6
CONTINUOUS
 70
0
 71
3
 72
8
 73
4
 74
0
 42
0.0000001
 43
0.0000001
 44
0.0000000001
 40
0.0
 40
0.0
 40
0.0
 40
0.0
 40
1.0
 40
1.0
 40
1.0
 40
1.0
 10
88.868694172
 20
163.5044859707
 30
0.0
 10
88.8405317881
 20
163.5044859707
 30
0.0
 10
88.8091010169
 20
163.4728752973
 30
0.0
 10
88.8089841274
 20
163.4447131559
 30
0.0
  0
SPLINE
  5
6D3
100
AcDbEntity
  8
0
100
AcDbSpline
 62
7
  6
CONTINUOUS
 70
0
 71
3
 72
11
 73
7
 74
0
 42
0.0000001
 43
0.0000001
 44
0.0000000001
 40
0.0
 40
0.0
 40
0.0
 40
0.0
 40
0.0899407604
 40
0.2834240786
 40
0.5885207799
 40
1.0
 40
1.0
 40
1.0
 40
1.0
 10
79.5119774809
 20
158.1143147593
 30
0.0
 10
79.5119774809
 20
158.077291119
 30
0.0
 10
79.6343752196
 20
157.9999434497
 30
0.0
 10
79.8509358238
 20
157.9420996865
 30
0.0
 10
80.2279664031
 20
157.8663178306
 30
0.0
 10
80.5178417264
 20
157.8301235917
 30
0.0
 10
80.686124134
 20
157.8108436046
 30
0.0
  0
SPLINE
  5
6D4
100
AcDbEntity
  8
7_ALL_ROUNDS
100
AcDbSpline
 62
7
  6
CONTINUOUS
 70
0
 71
3
 72
8
 73
4
 74
0
 42
0.0000001
 43
0.0000001
 44
0.0000000001
 40
0.0
 40
0.0
 40
0.0
 40
0.0
 40
1.0
 40
1.0
 40
1.0
 40
1.0
 10
89.4300937158
 20
163.266479662
 30
0.0
 10
89.4300098586
 20
163.2866833416
 30
0.0
 10
89.4168780529
 20
163.3089053218
 30
0.0
 10
89.3991509405
 20
163.3185978543
 30
0.0
  0
SPLINE
  5
6D5
100
AcDbEntity
  8
7_ALL_ROUNDS
100
AcDbSpline
 62
7
  6
CONTINUOUS
 70
0
 71
3
 72
9
 73
5
 74
0
 42
0.0000001
 43
0.0000001
 44
0.0000000001
 40
0.0
 40
0.0
 40
0.0
 40
0.0
 40
0.5065613894
 40
1.0
 40
1.0
 40
1.0
 40
1.0
 10
89.3991509405
 20
163.3185978543
 30
0.0
 10
89.3947066686
 20
163.3210278186
 30
0.0
 10
89.3853454526
 20
163.3248210425
 30
0.0
 10
89.3753176568
 20
163.3262524768
 30
0.0
 10
89.3703836712
 20
163.3262524768
 30
0.0
  0
SPLINE
  5
6D6
100
AcDbEntity
  8
0
100
AcDbSpline
 62
7
  6
CONTINUOUS
 70
0
 71
3
 72
9
 73
5
 74
0
 42
0.0000001
 43
0.0000001
 44
0.0000000001
 40
0.0
 40
0.0
 40
0.0
 40
0.0
 40
0.2827913698
 40
1.0
 40
1.0
 40
1.0
 40
1.0
 10
80.6480937107
 20
157.4082417094
 30
0.0
 10
80.6481134572
 20
157.3998031207
 30
0.0
 10
80.6887182145
 20
157.390675189
 30
0.0
 10
80.7114819496
 20
157.3856712381
 30
0.0
 10
80.7326826591
 20
157.3827442798
 30
0.0
  0
SPLINE
  5
6D7
100
AcDbEntity
  8
0
100
AcDbSpline
 62
7
  6
CONTINUOUS
 70
0
 71
3
 72
9
 73
5
 74
0
 42
0.0000001
 43
0.0000001
 44
0.0000000001
 40
0.0
 40
0.0
 40
0.0
 40
0.0
 40
0.1915015109
 40
1.0
 40
1.0
 40
1.0
 40
1.0
 10
80.7326826591
 20
157.3827442798
 30
0.0
 10
80.7752551314
 20
157.3768667478
 30
0.0
 10
80.9990902085
 20
157.3584154574
 30
0.0
 10
81.2239863028
 20
157.3575677079
 30
0.0
 10
81.4053100258
 20
157.3640950766
 30
0.0
  0
SPLINE
  5
6D8
100
AcDbEntity
  8
0
100
AcDbSpline
 62
7
  6
CONTINUOUS
 70
0
 71
3
 72
13
 73
9
 74
0
 42
0.0000001
 43
0.0000001
 44
0.0000000001
 40
0.0
 40
0.0
 40
0.0
 40
0.0
 40
0.0263175329
 40
0.0911397977
 40
0.193044277
 40
0.3264159759
 40
0.6548587191
 40
1.0
 40
1.0
 40
1.0
 40
1.0
 10
80.6480769382
 20
156.2776156381
 30
0.0
 10
80.6480985501
 20
156.2709208519
 30
0.0
 10
80.6779270894
 20
156.2616771048
 30
0.0
 10
80.7194579159
 20
156.2531042197
 30
0.0
 10
80.7988508034
 20
156.2440612561
 30
0.0
 10
80.9400622646
 20
156.234025059
 30
0.0
 10
81.1465060201
 20
156.2283971174
 30
0.0
 10
81.3175676286
 20
156.2303104144
 30
0.0
 10
81.4053100258
 20
156.2334690026
 30
0.0
  0
SPLINE
  5
6D9
100
AcDbEntity
  8
0
100
AcDbSpline
 62
7
  6
CONTINUOUS
 70
0
 71
3
 72
11
 73
7
 74
0
 42
0.0000001
 43
0.0000001
 44
0.0000000001
 40
0.0
 40
0.0
 40
0.0
 40
0.0
 40
0.2488452017
 40
0.4982817681
 40
0.7488868378
 40
1.0
 40
1.0
 40
1.0
 40
1.0
 10
75.6298088913
 20
149.6923244531
 30
0.0
 10
76.1370605108
 20
150.2109718896
 30
0.0
 10
77.1533734278
 20
151.2486144589
 30
0.0
 10
78.6849494786
 20
152.8058602358
 30
0.0
 10
80.2338493001
 20
154.3490638633
 30
0.0
 10
81.3023050818
 20
155.3610937963
 30
0.0
 10
81.903762149
 20
155.7784495252
 30
0.0
  0
SPLINE
  5
6DA
100
AcDbEntity
  8
0
100
AcDbSpline
 62
7
  6
CONTINUOUS
 70
0
 71
3
 72
11
 73
7
 74
0
 42
0.0000001
 43
0.0000001
 44
0.0000000001
 40
0.0
 40
0.0
 40
0.0
 40
0.0
 40
0.093382294
 40
0.2865284135
 40
0.5898243878
 40
1.0
 40
1.0
 40
1.0
 40
1.0
 10
79.6739452539
 20
156.6319790096
 30
0.0
 10
79.6739452539
 20
156.6005414573
 30
0.0
 10
79.769030271
 20
156.5314614193
 30
0.0
 10
79.9480528226
 20
156.4790669985
 30
0.0
 10
80.2524134654
 20
156.4110384953
 30
0.0
 10
80.488469613
 20
156.3778865972
 30
0.0
 10
80.6254123156
 20
156.3601433306
 30
0.0
  0
LINE
  5
6DB
100
AcDbEntity
  8
0
100
AcDbLine
 62
7
  6
CONTINUOUS
 10
80.6254123156
 20
156.3601433306
 11
80.6361062654
 21
156.3587628332
  0
SPLINE
  5
6DC
100
AcDbEntity
  8
7_ALL_ROUNDS
100
AcDbSpline
 62
7
  6
CONTINUOUS
 70
0
 71
3
 72
8
 73
4
 74
0
 42
0.0000001
 43
0.0000001
 44
0.0000000001
 40
0.0
 40
0.0
 40
0.0
 40
0.0
 40
1.0
 40
1.0
 40
1.0
 40
1.0
 10
88.868694172
 20
163.3262524768
 30
0.0
 10
88.8405317881
 20
163.3262524768
 30
0.0
 10
88.8091010169
 20
163.2946418033
 30
0.0
 10
88.8089841274
 20
163.266479662
 30
0.0
  0
SPLINE
  5
6DD
100
AcDbEntity
  8
0
100
AcDbSpline
 62
7
  6
CONTINUOUS
 70
0
 71
3
 72
9
 73
5
 74
0
 42
0.0000001
 43
0.0000001
 44
0.0000000001
 40
0.0
 40
0.0
 40
0.0
 40
0.0
 40
0.2489275358
 40
1.0
 40
1.0
 40
1.0
 40
1.0
 10
71.6854625577
 20
146.706009431
 30
0.0
 10
72.2660440253
 20
147.254059021
 30
0.0
 10
74.5985798963
 20
149.4554824163
 30
0.0
 10
76.925979684
 20
151.6623697246
 30
0.0
 10
78.6829047049
 20
153.3104635332
 30
0.0
  0
SPLINE
  5
6DE
100
AcDbEntity
  8
0
100
AcDbSpline
 62
7
  6
CONTINUOUS
 70
0
 71
3
 72
9
 73
5
 74
0
 42
0.0000001
 43
0.0000001
 44
0.0000000001
 40
0.0
 40
0.0
 40
0.0
 40
0.0
 40
0.4114408178
 40
1.0
 40
1.0
 40
1.0
 40
1.0
 10
81.8886798336
 20
157.3672989644
 30
0.0
 10
81.8805304437
 20
157.3685410724
 30
0.0
 10
81.864083623
 20
157.3730134974
 30
0.0
 10
81.8319141066
 20
157.3741102389
 30
0.0
 10
81.8319565124
 20
157.3859023593
 30
0.0
  0
SPLINE
  5
6DF
100
AcDbEntity
  8
0
100
AcDbSpline
 62
7
  6
CONTINUOUS
 70
0
 71
3
 72
9
 73
5
 74
0
 42
0.0000001
 43
0.0000001
 44
0.0000000001
 40
0.0
 40
0.0
 40
0.0
 40
0.0
 40
0.2489309481
 40
1.0
 40
1.0
 40
1.0
 40
1.0
 10
98.8384593269
 20
146.706009376
 30
0.0
 10
98.2586245028
 20
147.2533542126
 30
0.0
 10
95.9291249704
 20
149.4519216403
 30
0.0
 10
93.6047113003
 20
151.6558992277
 30
0.0
 10
91.8501377278
 20
153.301907593
 30
0.0
  0
SPLINE
  5
6E0
100
AcDbEntity
  8
0
100
AcDbSpline
 62
7
  6
CONTINUOUS
 70
0
 71
3
 72
11
 73
7
 74
0
 42
0.0000001
 43
0.0000001
 44
0.0000000001
 40
0.0
 40
0.0
 40
0.0
 40
0.0
 40
0.2488452105
 40
0.4982817853
 40
0.748886864
 40
1.0
 40
1.0
 40
1.0
 40
1.0
 10
94.8941130708
 20
149.6923243327
 30
0.0
 10
94.3868616789
 20
150.2109715381
 30
0.0
 10
93.3705493192
 20
151.248613789
 30
0.0
 10
91.8389734944
 20
152.8058582108
 30
0.0
 10
90.2900761648
 20
154.349063536
 30
0.0
 10
89.2216167859
 20
155.3610869696
 30
0.0
 10
88.6201629043
 20
155.7784465359
 30
0.0
  0
SPLINE
  5
6E1
100
AcDbEntity
  8
0
100
AcDbSpline
 62
7
  6
CONTINUOUS
 70
0
 71
3
 72
9
 73
5
 74
0
 42
0.0000001
 43
0.0000001
 44
0.0000000001
 40
0.0
 40
0.0
 40
0.0
 40
0.0
 40
0.2717506469
 40
1.0
 40
1.0
 40
1.0
 40
1.0
 10
88.2874892847
 20
154.9104989743
 30
0.0
 10
88.2743891664
 20
154.9862910446
 30
0.0
 10
88.2341561683
 20
155.2666838177
 30
0.0
 10
88.2234754768
 20
155.5500670443
 30
0.0
 10
88.2000155756
 20
155.7548501802
 30
0.0
  0
SPLINE
  5
6E2
100
AcDbEntity
  8
0
100
AcDbSpline
 62
7
  6
CONTINUOUS
 70
0
 71
3
 72
9
 73
5
 74
0
 42
0.0000001
 43
0.0000001
 44
0.0000000001
 40
0.0
 40
0.0
 40
0.0
 40
0.0
 40
0.2717495775
 40
1.0
 40
1.0
 40
1.0
 40
1.0
 10
82.2364321643
 20
154.9104939069
 30
0.0
 10
82.2495322436
 20
154.9862860685
 30
0.0
 10
82.2897607681
 20
155.266680856
 30
0.0
 10
82.3004541043
 20
155.5500640791
 30
0.0
 10
82.3239070301
 20
155.75484936
 30
0.0
  0
LINE
  5
6E3
100
AcDbEntity
  8
0
100
AcDbLine
 62
7
  6
CONTINUOUS
 10
89.8878155792
 20
156.3587628332
 11
89.898509529
 21
156.3601433306
  0
SPLINE
  5
6E4
100
AcDbEntity
  8
0
100
AcDbSpline
 62
7
  6
CONTINUOUS
 70
0
 71
3
 72
11
 73
7
 74
0
 42
0.0000001
 43
0.0000001
 44
0.0000000001
 40
0.0
 40
0.0
 40
0.0
 40
0.0
 40
0.4101756122
 40
0.7134715865
 40
0.906617706
 40
1.0
 40
1.0
 40
1.0
 40
1.0
 10
89.898509529
 20
156.3601433306
 30
0.0
 10
90.0354522316
 20
156.3778865972
 30
0.0
 10
90.2715083792
 20
156.4110384953
 30
0.0
 10
90.575869022
 20
156.4790669985
 30
0.0
 10
90.7548915736
 20
156.5314614193
 30
0.0
 10
90.8499765907
 20
156.6005414573
 30
0.0
 10
90.8499765907
 20
156.6319790096
 30
0.0
  0
SPLINE
  5
6E5
100
AcDbEntity
  8
0
100
AcDbSpline
 62
7
  6
CONTINUOUS
 70
0
 71
3
 72
8
 73
4
 74
0
 42
0.0000001
 43
0.0000001
 44
0.0000000001
 40
0.0
 40
0.0
 40
0.0
 40
0.0
 40
1.0
 40
1.0
 40
1.0
 40
1.0
 10
82.2521140513
 20
157.4030900444
 30
0.0
 10
82.2273048981
 20
157.4029610485
 30
0.0
 10
82.2024891524
 20
157.4023931709
 30
0.0
 10
82.1777109223
 20
157.401148167
 30
0.0
  0
SPLINE
  5
6E6
100
AcDbEntity
  8
0
100
AcDbSpline
 62
7
  6
CONTINUOUS
 70
0
 71
3
 72
9
 73
5
 74
0
 42
0.0000001
 43
0.0000001
 44
0.0000000001
 40
0.0
 40
0.0
 40
0.0
 40
0.0
 40
0.7228317099
 40
1.0
 40
1.0
 40
1.0
 40
1.0
 10
82.1777109223
 20
157.401148167
 30
0.0
 10
82.1571005616
 20
157.4001125814
 30
0.0
 10
82.1375990032
 20
157.3941973908
 30
0.0
 10
82.0934609223
 20
157.3963429099
 30
0.0
 10
82.0934609223
 20
157.3884299408
 30
0.0
  0
SPLINE
  5
6E7
100
AcDbEntity
  8
7_ALL_ROUNDS
100
AcDbSpline
 62
7
  6
CONTINUOUS
 70
0
 71
3
 72
9
 73
5
 74
0
 42
0.0000001
 43
0.0000001
 44
0.0000000001
 40
0.0
 40
0.0
 40
0.0
 40
0.0
 40
0.5008726361
 40
1.0
 40
1.0
 40
1.0
 40
1.0
 10
89.4300937158
 20
163.310841935
 30
0.0
 10
89.4300704332
 20
163.3164513882
 30
0.0
 10
89.4285683746
 20
163.3276926154
 30
0.0
 10
89.4240515393
 20
163.3381463949
 30
0.0
 10
89.4210489753
 20
163.3428614994
 30
0.0
  0
SPLINE
  5
6E8
100
AcDbEntity
  8
7_ALL_ROUNDS
100
AcDbSpline
 62
7
  6
CONTINUOUS
 70
0
 71
3
 72
9
 73
5
 74
0
 42
0.0000001
 43
0.0000001
 44
0.0000000001
 40
0.0
 40
0.0
 40
0.0
 40
0.0
 40
0.4985865063
 40
1.0
 40
1.0
 40
1.0
 40
1.0
 10
89.4210489753
 20
163.3428614994
 30
0.0
 10
89.4183747379
 20
163.3470610132
 30
0.0
 10
89.4117857961
 20
163.354742838
 30
0.0
 10
89.4035440832
 20
163.3605581187
 30
0.0
 10
89.3991509405
 20
163.3629601274
 30
0.0
  0
SPLINE
  5
6E9
100
AcDbEntity
  8
7_ALL_ROUNDS
100
AcDbSpline
 62
7
  6
CONTINUOUS
 70
0
 71
3
 72
9
 73
5
 74
0
 42
0.0000001
 43
0.0000001
 44
0.0000000001
 40
0.0
 40
0.0
 40
0.0
 40
0.0
 40
0.5065613894
 40
1.0
 40
1.0
 40
1.0
 40
1.0
 10
89.3991509405
 20
163.3629601274
 30
0.0
 10
89.3947066686
 20
163.3653900917
 30
0.0
 10
89.3853454526
 20
163.3691833155
 30
0.0
 10
89.3753176568
 20
163.3706147498
 30
0.0
 10
89.3703836712
 20
163.3706147498
 30
0.0
  0
SPLINE
  5
6EA
100
AcDbEntity
  8
0
100
AcDbSpline
 62
7
  6
CONTINUOUS
 70
0
 71
3
 72
9
 73
5
 74
0
 42
0.0000001
 43
0.0000001
 44
0.0000000001
 40
0.0
 40
0.0
 40
0.0
 40
0.0
 40
0.4114408178
 40
1.0
 40
1.0
 40
1.0
 40
1.0
 10
88.635242011
 20
157.3672989644
 30
0.0
 10
88.6433914009
 20
157.3685410724
 30
0.0
 10
88.6598382217
 20
157.3730134974
 30
0.0
 10
88.692007738
 20
157.3741102389
 30
0.0
 10
88.6919653322
 20
157.3859023593
 30
0.0
  0
SPLINE
  5
6EB
100
AcDbEntity
  8
0
100
AcDbSpline
 62
7
  6
CONTINUOUS
 70
0
 71
3
 72
11
 73
7
 74
0
 42
0.0000001
 43
0.0000001
 44
0.0000000001
 40
0.0
 40
0.0
 40
0.0
 40
0.0
 40
0.0976680439
 40
0.3141679464
 40
0.629849849
 40
1.0
 40
1.0
 40
1.0
 40
1.0
 10
82.8472060786
 20
157.5730524565
 30
0.0
 10
82.8472060786
 20
157.4917228855
 30
0.0
 10
83.1548786809
 20
157.3494032918
 30
0.0
 10
83.6160868124
 20
157.2580520517
 30
0.0
 10
84.3895235664
 20
157.1693037359
 30
0.0
 10
84.9537316204
 20
157.1537308708
 30
0.0
 10
85.2619609223
 20
157.1537308708
 30
0.0
  0
SPLINE
  5
6EC
100
AcDbEntity
  8
0
100
AcDbSpline
 62
7
  6
CONTINUOUS
 70
0
 71
3
 72
11
 73
7
 74
0
 42
0.0000001
 43
0.0000001
 44
0.0000000001
 40
0.0
 40
0.0
 40
0.0
 40
0.0
 40
0.0847846823
 40
0.2797168754
 40
0.5879902171
 40
1.0
 40
1.0
 40
1.0
 40
1.0
 10
91.7619609223
 20
156.6319790096
 30
0.0
 10
91.7619609223
 20
156.5773110554
 30
0.0
 10
91.5524893785
 20
156.4775199683
 30
0.0
 10
91.2209631944
 20
156.4007883045
 30
0.0
 10
90.6173679469
 20
156.3034492235
 30
0.0
 10
90.1615405396
 20
156.2582591499
 30
0.0
 10
89.8969201643
 20
156.2348017954
 30
0.0
  0
SPLINE
  5
6ED
100
AcDbEntity
  8
0
100
AcDbSpline
 62
7
  6
CONTINUOUS
 70
0
 71
3
 72
9
 73
5
 74
0
 42
0.0000001
 43
0.0000001
 44
0.0000000001
 40
0.0
 40
0.0
 40
0.0
 40
0.0
 40
0.2309026424
 40
1.0
 40
1.0
 40
1.0
 40
1.0
 10
89.8969201643
 20
156.2348017954
 30
0.0
 10
89.7971049128
 20
156.2259536418
 30
0.0
 10
89.3646004805
 20
156.1901373686
 30
0.0
 10
88.9313938253
 20
156.1631512161
 30
0.0
 10
88.598075095
 20
156.1457757577
 30
0.0
  0
SPLINE
  5
6EE
100
AcDbEntity
  8
0
100
AcDbSpline
 62
7
  6
CONTINUOUS
 70
0
 71
3
 72
17
 73
13
 74
0
 42
0.0000001
 43
0.0000001
 44
0.0000000001
 40
0.0
 40
0.0
 40
0.0
 40
0.0
 40
0.0187587811
 40
0.0503474853
 40
0.1582322758
 40
0.3155533434
 40
0.5
 40
0.6844466566
 40
0.8417677242
 40
0.9496525147
 40
0.9812412189
 40
1.0
 40
1.0
 40
1.0
 40
1.0
 10
82.3819609223
 20
157.5730524565
 30
0.0
 10
82.3819609223
 20
157.5356670322
 30
0.0
 10
82.4524942162
 20
157.4458655664
 30
0.0
 10
82.7373011779
 20
157.316566573
 30
0.0
 10
83.3227790408
 20
157.1881065029
 30
0.0
 10
84.212303094
 20
157.0951328187
 30
0.0
 10
85.2619609223
 20
157.0609786609
 30
0.0
 10
86.3116187506
 20
157.0951328187
 30
0.0
 10
87.2011428038
 20
157.1881065029
 30
0.0
 10
87.7866206667
 20
157.316566573
 30
0.0
 10
88.0714276284
 20
157.4458655664
 30
0.0
 10
88.1419609223
 20
157.5356670322
 30
0.0
 10
88.1419609223
 20
157.5730524565
 30
0.0
  0
SPLINE
  5
6EF
100
AcDbEntity
  8
0
100
AcDbSpline
 62
7
  6
CONTINUOUS
 70
0
 71
3
 72
13
 73
9
 74
0
 42
0.0000001
 43
0.0000001
 44
0.0000000001
 40
0.0
 40
0.0
 40
0.0
 40
0.0
 40
0.3451412809
 40
0.6735840241
 40
0.806955723
 40
0.9088602023
 40
0.9736824671
 40
1.0
 40
1.0
 40
1.0
 40
1.0
 10
89.1186118188
 20
156.2334690026
 30
0.0
 10
89.206354216
 20
156.2303104144
 30
0.0
 10
89.3774158245
 20
156.2283971174
 30
0.0
 10
89.58385958
 20
156.234025059
 30
0.0
 10
89.7250710412
 20
156.2440612561
 30
0.0
 10
89.8044639287
 20
156.2531042197
 30
0.0
 10
89.8459947552
 20
156.2616771048
 30
0.0
 10
89.8758232945
 20
156.2709208519
 30
0.0
 10
89.8758449064
 20
156.2776156381
 30
0.0
  0
SPLINE
  5
6F0
100
AcDbEntity
  8
0
100
AcDbSpline
 62
7
  6
CONTINUOUS
 70
0
 71
3
 72
11
 73
7
 74
0
 42
0.0000001
 43
0.0000001
 44
0.0000000001
 40
0.0
 40
0.0
 40
0.0
 40
0.0
 40
0.370150151
 40
0.6858320536
 40
0.9023319561
 40
1.0
 40
1.0
 40
1.0
 40
1.0
 10
85.2619609223
 20
157.1537308708
 30
0.0
 10
85.5701902242
 20
157.1537308708
 30
0.0
 10
86.1343982782
 20
157.1693037359
 30
0.0
 10
86.9078350322
 20
157.2580520517
 30
0.0
 10
87.3690431637
 20
157.3494032918
 30
0.0
 10
87.676715766
 20
157.4917228855
 30
0.0
 10
87.676715766
 20
157.5730524565
 30
0.0
  0
SPLINE
  5
6F1
100
AcDbEntity
  8
0
100
AcDbSpline
 62
7
  6
CONTINUOUS
 70
0
 71
3
 72
17
 73
13
 74
0
 42
0.0000001
 43
0.0000001
 44
0.0000000001
 40
0.0
 40
0.0
 40
0.0
 40
0.0
 40
0.0187587811
 40
0.0503474853
 40
0.1582322758
 40
0.3155533434
 40
0.5
 40
0.6844466566
 40
0.8417677242
 40
0.9496525147
 40
0.9812412189
 40
1.0
 40
1.0
 40
1.0
 40
1.0
 10
82.2019609223
 20
157.3309670146
 30
0.0
 10
82.2019609223
 20
157.2912450013
 30
0.0
 10
82.2769025471
 20
157.1958309439
 30
0.0
 10
82.5795099439
 20
157.0584507635
 30
0.0
 10
83.2015801732
 20
156.9219619389
 30
0.0
 10
84.1466994798
 20
156.8231773995
 30
0.0
 10
85.2619609223
 20
156.7868886068
 30
0.0
 10
86.3772223648
 20
156.8231773995
 30
0.0
 10
87.3223416714
 20
156.9219619389
 30
0.0
 10
87.9444119007
 20
157.0584507635
 30
0.0
 10
88.2470192975
 20
157.1958309439
 30
0.0
 10
88.3219609223
 20
157.2912450013
 30
0.0
 10
88.3219609223
 20
157.3309670146
 30
0.0
  0
SPLINE
  5
6F2
100
AcDbEntity
  8
0
100
AcDbSpline
 62
7
  6
CONTINUOUS
 70
0
 71
3
 72
11
 73
7
 74
0
 42
0.0000001
 43
0.0000001
 44
0.0000000001
 40
0.0
 40
0.0
 40
0.0
 40
0.0
 40
0.3701576749
 40
0.6858312909
 40
0.9023184663
 40
1.0
 40
1.0
 40
1.0
 40
1.0
 10
85.2619609223
 20
157.4749001958
 30
0.0
 10
85.5701978153
 20
157.4749001958
 30
0.0
 10
86.1344024241
 20
157.4904826493
 30
0.0
 10
86.9078488048
 20
157.5791986365
 30
0.0
 10
87.3690172349
 20
157.6706096338
 30
0.0
 10
87.676737693
 20
157.8128806275
 30
0.0
 10
87.676737693
 20
157.8942217815
 30
0.0
  0
SPLINE
  5
6F3
100
AcDbEntity
  8
0
100
AcDbSpline
 62
7
  6
CONTINUOUS
 70
0
 71
3
 72
11
 73
7
 74
0
 42
0.0000001
 43
0.0000001
 44
0.0000000001
 40
0.0
 40
0.0
 40
0.0
 40
0.0
 40
0.3701576749
 40
0.6858312909
 40
0.9023184663
 40
1.0
 40
1.0
 40
1.0
 40
1.0
 10
85.2619609223
 20
157.4749001958
 30
0.0
 10
84.9537240293
 20
157.4749001958
 30
0.0
 10
84.3895194205
 20
157.4904826493
 30
0.0
 10
83.6160730398
 20
157.5791986365
 30
0.0
 10
83.1549046097
 20
157.6706096338
 30
0.0
 10
82.8471841516
 20
157.8128806275
 30
0.0
 10
82.8471841516
 20
157.8942217815
 30
0.0
  0
SPLINE
  5
6F4
100
AcDbEntity
  8
0
100
AcDbSpline
 62
7
  6
CONTINUOUS
 70
0
 71
3
 72
9
 73
5
 74
0
 42
0.0000001
 43
0.0000001
 44
0.0000000001
 40
0.0
 40
0.0
 40
0.0
 40
0.0
 40
0.2687193121
 40
1.0
 40
1.0
 40
1.0
 40
1.0
 10
82.0171762868
 20
156.1411027887
 30
0.0
 10
81.8925245997
 20
156.1473617759
 30
0.0
 10
81.428750384
 20
156.1724726511
 30
0.0
 10
80.9653238853
 20
156.2048111196
 30
0.0
 10
80.6270016803
 20
156.2348017954
 30
0.0
  0
SPLINE
  5
6F5
100
AcDbEntity
  8
0
100
AcDbSpline
 62
7
  6
CONTINUOUS
 70
0
 71
3
 72
11
 73
7
 74
0
 42
0.0000001
 43
0.0000001
 44
0.0000000001
 40
0.0
 40
0.0
 40
0.0
 40
0.0
 40
0.4120097829
 40
0.7202831246
 40
0.9152153177
 40
1.0
 40
1.0
 40
1.0
 40
1.0
 10
80.6270016803
 20
156.2348017954
 30
0.0
 10
80.362381305
 20
156.2582591499
 30
0.0
 10
79.9065538977
 20
156.3034492235
 30
0.0
 10
79.3029586502
 20
156.4007883045
 30
0.0
 10
78.9714324661
 20
156.4775199683
 30
0.0
 10
78.7619609223
 20
156.5773110554
 30
0.0
 10
78.7619609223
 20
156.6319790096
 30
0.0
  0
SPLINE
  5
6F6
100
AcDbEntity
  8
7_ALL_ROUNDS
100
AcDbSpline
 62
7
  6
CONTINUOUS
 70
0
 71
3
 72
9
 73
5
 74
0
 42
0.0000001
 43
0.0000001
 44
0.0000000001
 40
0.0
 40
0.0
 40
0.0
 40
0.0
 40
0.5008726361
 40
1.0
 40
1.0
 40
1.0
 40
1.0
 10
89.4300937158
 20
163.3554656753
 30
0.0
 10
89.4300704332
 20
163.3610751285
 30
0.0
 10
89.4285683746
 20
163.3723163557
 30
0.0
 10
89.4240515393
 20
163.3827701352
 30
0.0
 10
89.4210489753
 20
163.3874852397
 30
0.0
  0
SPLINE
  5
6F7
100
AcDbEntity
  8
7_ALL_ROUNDS
100
AcDbSpline
 62
7
  6
CONTINUOUS
 70
0
 71
3
 72
9
 73
5
 74
0
 42
0.0000001
 43
0.0000001
 44
0.0000000001
 40
0.0
 40
0.0
 40
0.0
 40
0.0
 40
0.4985865063
 40
1.0
 40
1.0
 40
1.0
 40
1.0
 10
89.4210489753
 20
163.3874852397
 30
0.0
 10
89.4183747379
 20
163.3916847535
 30
0.0
 10
89.4117857961
 20
163.3993665783
 30
0.0
 10
89.4035440832
 20
163.4051818589
 30
0.0
 10
89.3991509405
 20
163.4075838677
 30
0.0
  0
SPLINE
  5
6F8
100
AcDbEntity
  8
7_ALL_ROUNDS
100
AcDbSpline
 62
7
  6
CONTINUOUS
 70
0
 71
3
 72
9
 73
5
 74
0
 42
0.0000001
 43
0.0000001
 44
0.0000000001
 40
0.0
 40
0.0
 40
0.0
 40
0.0
 40
0.5065613894
 40
1.0
 40
1.0
 40
1.0
 40
1.0
 10
89.3991509405
 20
163.4075838677
 30
0.0
 10
89.3947066686
 20
163.4100138319
 30
0.0
 10
89.3853454526
 20
163.4138070558
 30
0.0
 10
89.3753176568
 20
163.4152384901
 30
0.0
 10
89.3703836712
 20
163.4152384901
 30
0.0
  0
SPLINE
  5
6F9
100
AcDbEntity
  8
0
100
AcDbSpline
 62
7
  6
CONTINUOUS
 70
0
 71
3
 72
10
 73
6
 74
0
 42
0.0000001
 43
0.0000001
 44
0.0000000001
 40
0.0
 40
0.0
 40
0.0
 40
0.0
 40
0.6205333354
 40
0.8643027542
 40
1.0
 40
1.0
 40
1.0
 40
1.0
 10
89.1186118188
 20
157.3640950766
 30
0.0
 10
89.2730280491
 20
157.3585363353
 30
0.0
 10
89.4894346941
 20
157.3572439333
 30
0.0
 10
89.7361970419
 20
157.3765224604
 30
0.0
 10
89.832017452
 20
157.385516214
 30
0.0
 10
89.863373951
 20
157.3981055513
 30
0.0
  0
SPLINE
  5
6FA
100
AcDbEntity
  8
0
100
AcDbSpline
 62
7
  6
CONTINUOUS
 70
0
 71
3
 72
9
 73
5
 74
0
 42
0.0000001
 43
0.0000001
 44
0.0000000001
 40
0.0
 40
0.0
 40
0.0
 40
0.0
 40
0.639517769
 40
1.0
 40
1.0
 40
1.0
 40
1.0
 10
89.863373951
 20
157.3981055513
 30
0.0
 10
89.866654409
 20
157.3994226241
 30
0.0
 10
89.8716447363
 20
157.401439558
 30
0.0
 10
89.8758234712
 20
157.4062491234
 30
0.0
 10
89.8758281339
 20
157.4082417094
 30
0.0
  0
SPLINE
  5
6FB
100
AcDbEntity
  8
7_ALL_ROUNDS
100
AcDbSpline
 62
7
  6
CONTINUOUS
 70
0
 71
3
 72
14
 73
10
 74
0
 42
0.0000001
 43
0.0000001
 44
0.0000000001
 40
0.0
 40
0.0
 40
0.0
 40
0.0
 40
0.3794009918
 40
0.5508591988
 40
0.7012333229
 40
0.8248389861
 40
0.9171358227
 40
0.97517453
 40
1.0
 40
1.0
 40
1.0
 40
1.0
 10
85.2619609223
 20
160.5839410017
 30
0.0
 10
84.5908457604
 20
160.5839410017
 30
0.0
 10
83.6158412674
 20
160.5996048008
 30
0.0
 10
82.3777142286
 20
160.6555753444
 30
0.0
 10
81.5890724754
 20
160.7114769194
 30
0.0
 10
80.9513862786
 20
160.7741235656
 30
0.0
 10
80.4551416316
 20
160.8548407629
 30
0.0
 10
80.1857478687
 20
160.9147945203
 30
0.0
 10
80.0138839193
 20
160.999388222
 30
0.0
 10
80.0161978704
 20
161.0432405137
 30
0.0
  0
SPLINE
  5
6FC
100
AcDbEntity
  8
7_ALL_ROUNDS
100
AcDbSpline
 62
7
  6
CONTINUOUS
 70
0
 71
3
 72
18
 73
14
 74
0
 42
0.0000001
 43
0.0000001
 44
0.0000000001
 40
0.0
 40
0.0
 40
0.0
 40
0.0
 40
0.4307229986
 40
0.6130837341
 40
0.7581806634
 40
0.8139977722
 40
0.8575670409
 40
0.8884814822
 40
0.9069981447
 40
0.9169551361
 40
0.9324097074
 40
0.9598598257
 40
1.0
 40
1.0
 40
1.0
 40
1.0
 10
85.2619609223
 20
163.0599056466
 30
0.0
 10
84.7409937874
 20
163.0599056466
 30
0.0
 10
83.9990134019
 20
163.0737231916
 30
0.0
 10
83.0839542257
 20
163.1287897815
 30
0.0
 10
82.6215318438
 20
163.1725064869
 30
0.0
 10
82.330069344
 20
163.2170371285
 30
0.0
 10
82.1734143262
 20
163.2467405711
 30
0.0
 10
82.0699946487
 20
163.2821196231
 30
0.0
 10
81.9961660464
 20
163.3074718944
 30
0.0
 10
81.9811935624
 20
163.3689912477
 30
0.0
 10
82.0500447324
 20
163.4026333145
 30
0.0
 10
82.1382257888
 20
163.43423929
 30
0.0
 10
82.2206764523
 20
163.4519921509
 30
0.0
 10
82.2683183686
 20
163.4613396168
 30
0.0
  0
LINE
  5
6FD
100
AcDbEntity
  8
0
100
AcDbLine
 62
7
  6
CONTINUOUS
 10
82.2053045909
 20
157.4168340793
 11
82.2586380398
 21
157.4139519633
  0
SPLINE
  5
6FE
100
AcDbEntity
  8
0
100
AcDbSpline
 62
7
  6
CONTINUOUS
 70
0
 71
3
 72
11
 73
7
 74
0
 42
0.0000001
 43
0.0000001
 44
0.0000000001
 40
0.0
 40
0.0
 40
0.0
 40
0.0
 40
0.1487046765
 40
0.5
 40
0.8512953235
 40
1.0
 40
1.0
 40
1.0
 40
1.0
 10
81.2965969305
 20
157.7599513632
 30
0.0
 10
81.2965969305
 20
157.7699830475
 30
0.0
 10
81.2432766645
 20
157.761070511
 30
0.0
 10
81.1960969305
 20
157.7740783109
 30
0.0
 10
81.1489171965
 20
157.761070511
 30
0.0
 10
81.0955969305
 20
157.7699830475
 30
0.0
 10
81.0955969305
 20
157.7599513632
 30
0.0
  0
SPLINE
  5
6FF
100
AcDbEntity
  8
0
100
AcDbSpline
 62
7
  6
CONTINUOUS
 70
0
 71
3
 72
11
 73
7
 74
0
 42
0.0000001
 43
0.0000001
 44
0.0000000001
 40
0.0
 40
0.0
 40
0.0
 40
0.0
 40
0.1487046765
 40
0.5
 40
0.8512953235
 40
1.0
 40
1.0
 40
1.0
 40
1.0
 10
89.4283249141
 20
157.7599513632
 30
0.0
 10
89.4283249141
 20
157.7699830475
 30
0.0
 10
89.3750046481
 20
157.761070511
 30
0.0
 10
89.3278249141
 20
157.7740783109
 30
0.0
 10
89.2806451801
 20
157.761070511
 30
0.0
 10
89.2273249141
 20
157.7699830475
 30
0.0
 10
89.2273249141
 20
157.7599513632
 30
0.0
  0
SPLINE
  5
700
100
AcDbEntity
  8
0
100
AcDbSpline
 62
7
  6
CONTINUOUS
 70
0
 71
3
 72
12
 73
8
 74
0
 42
0.0000001
 43
0.0000001
 44
0.0000000001
 40
0.0
 40
0.0
 40
0.0
 40
0.0
 40
0.4074287187
 40
0.72020926
 40
0.9187996718
 40
0.9725590066
 40
1.0
 40
1.0
 40
1.0
 40
1.0
 10
82.4965572031
 20
157.7100951996
 30
0.0
 10
82.1304465254
 20
157.7291177386
 30
0.0
 10
81.4820902395
 20
157.772409843
 30
0.0
 10
80.6646961831
 20
157.8569411757
 30
0.0
 10
80.154647066
 20
157.9543331518
 30
0.0
 10
79.9247697848
 20
158.031878259
 30
0.0
 10
79.8609238636
 20
158.0918154918
 30
0.0
 10
79.862224943
 20
158.1164726062
 30
0.0
  0
SPLINE
  5
701
100
AcDbEntity
  8
0
100
AcDbSpline
 62
7
  6
CONTINUOUS
 70
0
 71
3
 72
13
 73
9
 74
0
 42
0.0000001
 43
0.0000001
 44
0.0000000001
 40
0.0
 40
0.0
 40
0.0
 40
0.0
 40
0.2923040966
 40
0.6294764595
 40
0.7779282625
 40
0.8949352096
 40
0.9704958103
 40
1.0
 40
1.0
 40
1.0
 40
1.0
 10
88.9592339668
 20
157.7305060418
 30
0.0
 10
89.0440117923
 20
157.7224447868
 30
0.0
 10
89.2270896753
 20
157.7153495094
 30
0.0
 10
89.4553136942
 20
157.7160659177
 30
0.0
 10
89.6279794147
 20
157.7245955382
 30
0.0
 10
89.7325651596
 20
157.7326256214
 30
0.0
 10
89.7857058914
 20
157.7433146952
 30
0.0
 10
89.8277658456
 20
157.7513557503
 30
0.0
 10
89.8278199878
 20
157.7599513654
 30
0.0
  0
LINE
  5
702
100
AcDbEntity
  8
0
100
AcDbLine
 62
7
  6
CONTINUOUS
 10
82.3819671159
 20
157.680563417
 11
82.451945157
 21
157.6770896761
  0
SPLINE
  5
703
100
AcDbEntity
  8
0
100
AcDbSpline
 62
7
  6
CONTINUOUS
 70
0
 71
3
 72
11
 73
7
 74
0
 42
0.0000001
 43
0.0000001
 44
0.0000000001
 40
0.0
 40
0.0
 40
0.0
 40
0.0
 40
0.4114792201
 40
0.7165759214
 40
0.9100592396
 40
1.0
 40
1.0
 40
1.0
 40
1.0
 10
89.8377977106
 20
157.8108436046
 30
0.0
 10
90.0060801182
 20
157.8301235917
 30
0.0
 10
90.2959554415
 20
157.8663178306
 30
0.0
 10
90.6729860208
 20
157.9420996865
 30
0.0
 10
90.889546625
 20
157.9999434497
 30
0.0
 10
91.0119443638
 20
158.077291119
 30
0.0
 10
91.0119443638
 20
158.1143147593
 30
0.0
  0
SPLINE
  5
704
100
AcDbEntity
  8
0
100
AcDbSpline
 62
7
  6
CONTINUOUS
 70
0
 71
3
 72
14
 73
10
 74
0
 42
0.0000001
 43
0.0000001
 44
0.0000000001
 40
0.0
 40
0.0
 40
0.0
 40
0.0
 40
0.2410025889
 40
0.4839316098
 40
0.6070099016
 40
0.7326526599
 40
0.8639709137
 40
0.9321171096
 40
1.0
 40
1.0
 40
1.0
 40
1.0
 10
161.5666893309
 20
76.8159499878
 30
0.0
 10
162.3316093038
 20
77.4058587874
 30
0.0
 10
163.8679817416
 20
78.5899642545
 30
0.0
 10
165.7948717563
 20
80.0749402859
 30
0.0
 10
167.3492178472
 20
81.2871613109
 30
0.0
 10
168.5346222087
 20
82.2411790478
 30
0.0
 10
169.5144097534
 20
83.1106422272
 30
0.0
 10
170.159675422
 20
83.9722471827
 30
0.0
 10
170.4179317276
 20
84.453695319
 30
0.0
 10
170.5417267608
 20
84.6959843892
 30
0.0
  0
SPLINE
  5
705
100
AcDbEntity
  8
0
100
AcDbSpline
 62
7
  6
CONTINUOUS
 70
0
 71
3
 72
15
 73
11
 74
0
 42
0.0000001
 43
0.0000001
 44
0.0000000001
 40
0.0
 40
0.0
 40
0.0
 40
0.0
 40
0.2592436024
 40
0.5175453117
 40
0.645796686
 40
0.7723979611
 40
0.8343011538
 40
0.8941407803
 40
0.9501302242
 40
1.0
 40
1.0
 40
1.0
 40
1.0
 10
161.5667396525
 20
81.5478096629
 30
0.0
 10
162.3195987303
 20
81.8971725511
 30
0.0
 10
163.8252363972
 20
82.5887953101
 30
0.0
 10
165.7158934028
 20
83.4263536071
 30
0.0
 10
167.2363412621
 20
84.0486269596
 30
0.0
 10
168.1889956261
 20
84.3986596876
 30
0.0
 10
168.9532543165
 20
84.6194760125
 30
0.0
 10
169.5126363539
 20
84.7304590101
 30
0.0
 10
170.045889696
 20
84.7517887416
 30
0.0
 10
170.3823106608
 20
84.7047791761
 30
0.0
 10
170.5417267608
 20
84.6959843893
 30
0.0
  0
SPLINE
  5
706
100
AcDbEntity
  8
0
100
AcDbSpline
 62
7
  6
CONTINUOUS
 70
0
 71
3
 72
15
 73
11
 74
0
 42
0.0000001
 43
0.0000001
 44
0.0000000001
 40
0.0
 40
0.0
 40
0.0
 40
0.0
 40
0.2588175682
 40
0.5166925738
 40
0.6447642286
 40
0.7713018423
 40
0.8332926753
 40
0.8933955203
 40
0.9498713559
 40
1.0
 40
1.0
 40
1.0
 40
1.0
 10
161.5668050946
 20
89.9462240825
 30
0.0
 10
162.3045493158
 20
89.7666780694
 30
0.0
 10
163.7786749485
 20
89.4137868814
 30
0.0
 10
165.6240949119
 20
88.9976887776
 30
0.0
 10
167.0990823898
 20
88.7061903504
 30
0.0
 10
168.0162816261
 20
88.5569838953
 30
0.0
 10
168.7427551949
 20
88.4852423047
 30
0.0
 10
169.2668404856
 20
88.4764583119
 30
0.0
 10
169.7568703349
 20
88.5321829298
 30
0.0
 10
170.0507462548
 20
88.6439691885
 30
0.0
 10
170.1930911872
 20
88.6809072306
 30
0.0
  0
SPLINE
  5
707
100
AcDbEntity
  8
0
100
AcDbSpline
 62
7
  6
CONTINUOUS
 70
0
 71
3
 72
14
 73
10
 74
0
 42
0.0000001
 43
0.0000001
 44
0.0000000001
 40
0.0
 40
0.0
 40
0.0
 40
0.0
 40
0.2414031916
 40
0.4849718823
 40
0.6086051284
 40
0.735108408
 40
0.8665074297
 40
0.9333922193
 40
1.0
 40
1.0
 40
1.0
 40
1.0
 10
161.566705297
 20
94.1208220828
 30
0.0
 10
162.2998578666
 20
93.7366473707
 30
0.0
 10
163.7726189971
 20
92.964531642
 30
0.0
 10
165.6193835418
 20
91.9932764764
 30
0.0
 10
167.1082889362
 20
91.1869780055
 30
0.0
 10
168.2444064437
 20
90.5405159532
 30
0.0
 10
169.1651497808
 20
89.9006530412
 30
0.0
 10
169.7913231566
 20
89.2376469932
 30
0.0
 10
170.0588479298
 20
88.8656681637
 30
0.0
 10
170.1930911871
 20
88.6809072309
 30
0.0
  0
ENDSEC
  0
SECTION
  2
OBJECTS
  0
DICTIONARY
  5
C
100
AcDbDictionary
280
0
281
1
  3
ACAD_GROUP
350
D
  3
ACAD_MLINESTYLE
350
17
  3
ACAD_LAYOUT
350
1A
  3
ACAD_PLOTSETTINGS
350
19
  3
ACAD_PLOTSTYLENAME
350
E
  0
DICTIONARY
  5
D
102
{ACAD_REACTORS
330
C
102
}
100
AcDbDictionary
280
0
281
1
  0
ACDBDICTIONARYWDFLT
  5
E
102
{ACAD_REACTORS
330
C
102
}
100
AcDbDictionary
281
1
  3
Normal
350
F
100
AcDbDictionaryWithDefault
340
F
  0
DICTIONARY
  5
17
102
{ACAD_REACTORS
330
C
102
}
100
AcDbDictionary
280
0
281
1
  3
Standard
350
18
  0
DICTIONARY
  5
19
102
{ACAD_REACTORS
330
C
102
}
100
AcDbDictionary
281
1
  0
DICTIONARY
  5
1A
102
{ACAD_REACTORS
330
C
102
}
100
AcDbDictionary
281
1
  3
Model
350
708
  3
Layout1
350
709
  0
ACDBPLACEHOLDER
  5
F
102
{ACAD_REACTORS
330
E
102
}
  0
MLINESTYLE
  5
18
102
{ACAD_REACTORS
330
17
102
}
100
AcDbMlineStyle
  2
STANDARD
 70
0
  3

 62
256
 51
90.0
 52
90.0
 71
2
 49
0.5
 62
256
  6
BYLAYER
 49
-0.5
 62
256
  6
BYLAYER
  0
LAYOUT
  5
708
102
{ACAD_REACTORS
330
1A
102
}
100
AcDbPlotSettings
  1

  2
none_device
  4
ANSI_D_(34.00_x_22.00_Inches)
  6

 40
0.0
 41
0.0
 42
0.0
 43
0.0
 44
863.6
 45
558.8
 46
0.0
 47
0.0
 48
0.0
 49
0.0
140
0.0
141
0.0
142
1.0
143
1.0
 70
1024
 72
0
 73
0
 74
0
  7

 75
0
147
1.0
148
0.0
149
0.0
100
AcDbLayout
  1
Model
 70
0
 71
0
 10
0.0
 20
0.0
 11
34.0
 21
22.0
 12
0.0
 22
0.0
 32
0.0
 14
0.0
 24
0.0
 34
0.0
 15
0.0
 25
0.0
 35
0.0
146
0.0
 13
0.0
 23
0.0
 33
0.0
 16
1.0
 26
0.0
 36
0.0
 17
0.0
 27
1.0
 37
0.0
 76
0
330
210
345
0
346
0
  0
LAYOUT
  5
709
102
{ACAD_REACTORS
330
1A
102
}
100
AcDbPlotSettings
  1

  2
none_device
  4
ANSI_D_(34.00_x_22.00_Inches)
  6

 40
0.0
 41
0.0
 42
0.0
 43
0.0
 44
863.6
 45
558.8
 46
0.0
 47
0.0
 48
0.0
 49
0.0
140
0.0
141
0.0
142
1.0
143
1.0
 70
0
 72
0
 73
0
 74
0
  7

 75
0
147
1.0
148
0.0
149
0.0
100
AcDbLayout
  1
Layout1
 70
0
 71
1
 10
0.0
 20
0.0
 11
34.0
 21
22.0
 12
0.0
 22
0.0
 32
0.0
 14
0.0
 24
0.0
 34
0.0
 15
0.0
 25
0.0
 35
0.0
146
0.0
 13
0.0
 23
0.0
 33
0.0
 16
1.0
 26
0.0
 36
0.0
 17
0.0
 27
1.0
 37
0.0
 76
0
330
211
345
0
346
0
  0
ENDSEC
  0
EOF
