999
DXF file: Z:\L&T Project Work\3D speaker files\SC-433C-SC-434\rd-000402-2d-A.dxf
999
Pro/ENGINEER 2016130 by Parametric Technology Corporation
  0
SECTION
  2
HEADER
  9
$ACADVER
  1
AC1015
  9
$DWGCODEPAGE
  3
ANSI_1252
  9
$EXTMAX
 10
283.3333333333
 20
183.3333333333
 30
0.0
  9
$EXTMIN
 10
0.0
 20
0.0
 30
0.0
  9
$LIMMIN
 10
0.0
 20
0.0
  9
$LIMMAX
 10
283.3333333333
 20
183.3333333333
  9
$VIEWCTR
 10
141.6666666667
 20
91.6666666667
  9
$VIEWSIZE
 40
183.3333333333
  9
$CLAYER
  8
0
  9
$LTSCALE
 40
15.5833333333
  9
$CELTYPE
  6
BYLAYER
  9
$DIMSCALE
 40
1.0
  9
$DIMASZ
 40
1.5625
  9
$DIMEXO
 40
0.0625
  9
$DIMDLI
 40
10.7666666667
  9
$DIMEXE
 40
0.125
  9
$DIMCEN
 40
2.55
  9
$DIMLFAC
 40
1.0
  9
$DIMBLK
  1
_FILLED
  9
$DIMALT
 70
0
  9
$DIMALTF
 40
25.4
  9
$DIMTXT
 40
1.3020833333
  9
$DIMTOL
 70
1
  9
$DIMLIM
 70
0
  9
$DIMTFAC
 40
1.0
  9
$DIMTP
 40
0.01
  9
$DIMTM
 40
0.01
  9
$DIMGAP
 40
0.09
  9
$DIMDSEP
 70
46
  9
$AUNITS
 70
0
  9
$PDMODE
 70
3
  9
$PDSIZE
 40
0.3125
  9
$HANDSEED
  5
706
  9
$TILEMODE
 70
1
  9
$MEASUREMENT
 70
0
  9
$INSUNITS
 70
1
  0
ENDSEC
  0
SECTION
  2
CLASSES
  0
CLASS
  1
ACDBDICTIONARYWDFLT
  2
AcDbDictionaryWithDefault
  3
AutoCAD 2000
 90
0
280
0
281
0
  0
CLASS
  1
ACDBPLACEHOLDER
  2
AcDbPlaceHolder
  3
AutoCAD 2000
 90
0
280
0
281
0
  0
CLASS
  1
LAYOUT
  2
AcDbLayout
  3
AutoCAD 2000
 90
0
280
0
281
0
  0
ENDSEC
  0
SECTION
  2
TABLES
  0
TABLE
  2
VPORT
  5
8
100
AcDbSymbolTable
 70
2
  0
VPORT
  5
1F4
100
AcDbSymbolTableRecord
100
AcDbViewportTableRecord
  2
*ACTIVE
 70
0
 10
0.0
 20
0.0
 11
1.0
 21
1.0
 12
141.6666666667
 22
91.6666666667
 13
0.0
 23
0.0
 14
1.0
 24
1.0
 15
0.0
 25
0.0
 16
0.0
 26
0.0
 36
1.0
 17
0.0
 27
0.0
 37
0.0
 40
183.3333333333
 41
1.5454545455
 42
50.0
 43
0.0
 44
0.0
 50
0.0
 51
0.0
 71
0
 72
100
 73
1
 74
1
 75
0
 76
0
 77
0
 78
0
  0
ENDTAB
  0
TABLE
  2
LTYPE
  5
5
100
AcDbSymbolTable
 70
6
  0
LTYPE
  5
14
100
AcDbSymbolTableRecord
100
AcDbLinetypeTableRecord
  2
BYBLOCK
 70
0
  3

 72
65
 73
0
 40
0.0
  0
LTYPE
  5
15
100
AcDbSymbolTableRecord
100
AcDbLinetypeTableRecord
  2
BYLAYER
 70
0
  3

 72
65
 73
0
 40
0.0
  0
LTYPE
  5
16
100
AcDbSymbolTableRecord
100
AcDbLinetypeTableRecord
  2
CONTINUOUS
 70
64
  3
Solid line
 72
65
 73
0
 40
0.0
  0
LTYPE
  5
1F5
100
AcDbSymbolTableRecord
100
AcDbLinetypeTableRecord
  2
CENTER
 70
64
  3
____ _ ____ _ ____ _ ____ _ ____ _ ____ _ ____
 72
65
 73
4
 40
0.6
 49
0.375
 74
0
 49
-0.075
 74
0
 49
0.075
 74
0
 49
-0.075
 74
0
  0
LTYPE
  5
1F6
100
AcDbSymbolTableRecord
100
AcDbLinetypeTableRecord
  2
HIDDEN
 70
64
  3
- - - - - - - - - - - - - - - - - - - -
 72
65
 73
2
 40
0.2
 49
0.1
 74
0
 49
-0.1
 74
0
  0
LTYPE
  5
1F7
100
AcDbSymbolTableRecord
100
AcDbLinetypeTableRecord
  2
PHANTOM
 70
64
  3
_____ _ _ _____ _ _ _____ _ _ _____
 72
65
 73
6
 40
0.8
 49
0.45
 74
0
 49
-0.05
 74
0
 49
0.1
 74
0
 49
-0.05
 74
0
 49
0.1
 74
0
 49
-0.05
 74
0
  0
LTYPE
  5
1F8
100
AcDbSymbolTableRecord
100
AcDbLinetypeTableRecord
  2
DOT
 70
64
  3
. . . . . . . . . . . . . . . . . . . .
 72
65
 73
2
 40
0.2
 49
0.1
 74
0
 49
-0.1
 74
0
  0
LTYPE
  5
1F9
100
AcDbSymbolTableRecord
100
AcDbLinetypeTableRecord
  2
DASHED
 70
64
  3
- - - - - - - - - - - - - - - - - - - -
 72
65
 73
2
 40
0.2
 49
0.1
 74
0
 49
-0.1
 74
0
  0
ENDTAB
  0
TABLE
  2
LAYER
  5
2
100
AcDbSymbolTable
 70
36
  0
LAYER
  5
10
100
AcDbSymbolTableRecord
100
AcDbLayerTableRecord
  2
0
 70
0
 62
7
  6
CONTINUOUS
370
-3
390
F
  0
LAYER
  5
1FA
100
AcDbSymbolTableRecord
100
AcDbLayerTableRecord
  2
DEFAULT_1
 70
0
 62
7
  6
CENTER
370
-3
390
F
  0
LAYER
  5
1FB
100
AcDbSymbolTableRecord
100
AcDbLayerTableRecord
  2
DEFAULT_2
 70
0
 62
8
  6
HIDDEN
370
-3
390
F
  0
LAYER
  5
1FC
100
AcDbSymbolTableRecord
100
AcDbLayerTableRecord
  2
DEFAULT_3
 70
0
 62
7
  6
PHANTOM
370
-3
390
F
  0
LAYER
  5
1FD
100
AcDbSymbolTableRecord
100
AcDbLayerTableRecord
  2
1_ALL_PLANES
 70
0
 62
7
  6
CONTINUOUS
370
-3
390
F
  0
LAYER
  5
1FE
100
AcDbSymbolTableRecord
100
AcDbLayerTableRecord
  2
1__DEF_PLANES
 70
0
 62
7
  6
CONTINUOUS
370
-3
390
F
  0
LAYER
  5
1FF
100
AcDbSymbolTableRecord
100
AcDbLayerTableRecord
  2
2_ALL_CSYS
 70
0
 62
7
  6
CONTINUOUS
370
-3
390
F
  0
LAYER
  5
200
100
AcDbSymbolTableRecord
100
AcDbLayerTableRecord
  2
2__DEF_CSYS
 70
0
 62
7
  6
CONTINUOUS
370
-3
390
F
  0
LAYER
  5
201
100
AcDbSymbolTableRecord
100
AcDbLayerTableRecord
  2
3_ALL_AXES
 70
0
 62
7
  6
CONTINUOUS
370
-3
390
F
  0
LAYER
  5
202
100
AcDbSymbolTableRecord
100
AcDbLayerTableRecord
  2
3_AXES_OTHER
 70
0
 62
7
  6
CONTINUOUS
370
-3
390
F
  0
LAYER
  5
203
100
AcDbSymbolTableRecord
100
AcDbLayerTableRecord
  2
3_HOLES
 70
0
 62
7
  6
CONTINUOUS
370
-3
390
F
  0
LAYER
  5
204
100
AcDbSymbolTableRecord
100
AcDbLayerTableRecord
  2
4_ALL_POINTS
 70
0
 62
7
  6
CONTINUOUS
370
-3
390
F
  0
LAYER
  5
205
100
AcDbSymbolTableRecord
100
AcDbLayerTableRecord
  2
5_ALL_CURVES
 70
0
 62
7
  6
CONTINUOUS
370
-3
390
F
  0
LAYER
  5
206
100
AcDbSymbolTableRecord
100
AcDbLayerTableRecord
  2
6_ALL_SURFS
 70
0
 62
7
  6
CONTINUOUS
370
-3
390
F
  0
LAYER
  5
207
100
AcDbSymbolTableRecord
100
AcDbLayerTableRecord
  2
6_COPYGEOM
 70
0
 62
7
  6
CONTINUOUS
370
-3
390
F
  0
LAYER
  5
208
100
AcDbSymbolTableRecord
100
AcDbLayerTableRecord
  2
7_ALL_ROUNDS
 70
0
 62
7
  6
CONTINUOUS
370
-3
390
F
  0
LAYER
  5
209
100
AcDbSymbolTableRecord
100
AcDbLayerTableRecord
  2
7_MERGES
 70
0
 62
7
  6
CONTINUOUS
370
-3
390
F
  0
LAYER
  5
20A
100
AcDbSymbolTableRecord
100
AcDbLayerTableRecord
  2
8_GDT
 70
0
 62
7
  6
CONTINUOUS
370
-3
390
F
  0
LAYER
  5
20B
100
AcDbSymbolTableRecord
100
AcDbLayerTableRecord
  2
8_SET_DATUMS
 70
0
 62
7
  6
CONTINUOUS
370
-3
390
F
  0
LAYER
  5
20C
100
AcDbSymbolTableRecord
100
AcDbLayerTableRecord
  2
9_COSMETICS
 70
0
 62
7
  6
CONTINUOUS
370
-3
390
F
  0
LAYER
  5
20D
100
AcDbSymbolTableRecord
100
AcDbLayerTableRecord
  2
9_THREADS
 70
0
 62
7
  6
CONTINUOUS
370
-3
390
F
  0
ENDTAB
  0
TABLE
  2
STYLE
  5
3
100
AcDbSymbolTable
 70
1
  0
STYLE
  5
11
100
AcDbSymbolTableRecord
100
AcDbTextStyleTableRecord
  2
STANDARD
 70
0
 40
0.0
 41
0.8
 50
0.0
 71
0
 42
0.2
  3
txt
  4

  0
STYLE
  5
20E
100
AcDbSymbolTableRecord
100
AcDbTextStyleTableRecord
  2
TEXTSTYLE_1
 70
0
 40
0.0
 41
0.8
 50
0.0
 71
0
 42
0.2
  3
gdt
  4

  0
ENDTAB
  0
TABLE
  2
VIEW
  5
6
100
AcDbSymbolTable
 70
0
  0
ENDTAB
  0
TABLE
  2
UCS
  5
7
100
AcDbSymbolTable
 70
0
  0
ENDTAB
  0
TABLE
  2
APPID
  5
9
100
AcDbSymbolTable
 70
1
  0
APPID
  5
20F
100
AcDbSymbolTableRecord
100
AcDbRegAppTableRecord
  2
ACAD
 70
0
  0
ENDTAB
  0
TABLE
  2
BLOCK_RECORD
  5
1
100
AcDbSymbolTable
 70
0
  0
BLOCK_RECORD
  5
210
100
AcDbSymbolTableRecord
100
AcDbBlockTableRecord
  2
*Model_Space
  0
BLOCK_RECORD
  5
211
100
AcDbSymbolTableRecord
100
AcDbBlockTableRecord
  2
*Paper_Space
  0
BLOCK_RECORD
  5
212
100
AcDbSymbolTableRecord
100
AcDbBlockTableRecord
  2
_FILLED
  0
BLOCK_RECORD
  5
213
100
AcDbSymbolTableRecord
100
AcDbBlockTableRecord
  2
*D0
  0
BLOCK_RECORD
  5
214
100
AcDbSymbolTableRecord
100
AcDbBlockTableRecord
  2
*D1
  0
BLOCK_RECORD
  5
215
100
AcDbSymbolTableRecord
100
AcDbBlockTableRecord
  2
*D2
  0
BLOCK_RECORD
  5
216
100
AcDbSymbolTableRecord
100
AcDbBlockTableRecord
  2
*D3
  0
BLOCK_RECORD
  5
217
100
AcDbSymbolTableRecord
100
AcDbBlockTableRecord
  2
*D4
  0
BLOCK_RECORD
  5
218
100
AcDbSymbolTableRecord
100
AcDbBlockTableRecord
  2
*D5
  0
BLOCK_RECORD
  5
219
100
AcDbSymbolTableRecord
100
AcDbBlockTableRecord
  2
*D6
  0
BLOCK_RECORD
  5
21A
100
AcDbSymbolTableRecord
100
AcDbBlockTableRecord
  2
*D7
  0
BLOCK_RECORD
  5
21B
100
AcDbSymbolTableRecord
100
AcDbBlockTableRecord
  2
*D8
  0
BLOCK_RECORD
  5
21C
100
AcDbSymbolTableRecord
100
AcDbBlockTableRecord
  2
*D9
  0
BLOCK_RECORD
  5
21D
100
AcDbSymbolTableRecord
100
AcDbBlockTableRecord
  2
RD010411_BL0
  0
ENDTAB
  0
TABLE
  2
DIMSTYLE
  5
A
100
AcDbSymbolTable
 70
1
100
AcDbDimStyleTable
 71
0
  0
DIMSTYLE
105
21E
100
AcDbSymbolTableRecord
100
AcDbDimStyleTableRecord
  2
STANDARD
 70
0
  3

  4

 40
1.0
 41
1.5625
 42
0.0625
 43
0.38
 44
0.125
 45
0.0
 46
0.0
 47
0.01
 48
0.01
140
1.3020833333
141
0.09
142
0.0
143
25.4
144
1.0
145
0.0
146
1.0
147
0.09
 71
1.0
 72
0.0
 73
1
 74
1
 75
0
 76
0
 77
0
 78
4
170
0
171
2
172
0
173
0
174
0
175
0
176
0
177
0
178
0
270
2
271
3
272
3
273
2
274
2
275
0
280
0
281
0
282
0
283
1
284
4
285
0
286
0
287
3
288
0
340
11
278
46
341
212
342
212
343
212
344
212
  0
DIMSTYLE
105
21F
100
AcDbSymbolTableRecord
100
AcDbDimStyleTableRecord
  2
DIMSTYLE_1
 70
0
  3

  4

 40
1.0
 41
1.5625
 42
0.0625
 43
0.38
 44
0.125
 45
0.0
 46
0.0
 47
0.01
 48
0.01
140
1.3020833333
141
0.09
142
0.0
143
25.4
144
1.0
145
0.0
146
1.0
147
0.078125
 71
0.0
 72
0.0
 73
1
 74
1
 75
0
 76
0
 77
0
 78
4
170
0
171
2
172
0
173
0
174
0
175
0
176
0
177
0
178
0
270
2
271
1
272
1
273
2
274
2
275
0
280
0
281
0
282
0
283
1
284
4
285
0
286
0
287
3
288
0
340
11
278
46
341
212
342
212
343
212
344
212
  0
ENDTAB
  0
ENDSEC
  0
SECTION
  2
BLOCKS
  0
BLOCK
  5
20
100
AcDbEntity
  8
0
100
AcDbBlockBegin
  2
*Model_Space
 70
0
 10
0.0
 20
0.0
 30
0.0
  3
*Model_Space
  1

  0
ENDBLK
  5
21
100
AcDbEntity
  8
0
100
AcDbBlockEnd
  0
BLOCK
  5
1C
100
AcDbEntity
  8
0
100
AcDbBlockBegin
  2
*Paper_Space
 70
0
 10
0.0
 20
0.0
 30
0.0
  3
*Paper_Space
  1

  0
ENDBLK
  5
1D
100
AcDbEntity
  8
0
100
AcDbBlockEnd
  0
BLOCK
  5
220
100
AcDbEntity
  8
0
100
AcDbBlockBegin
 62
7
  6
CONTINUOUS
  2
RD010411_BL0
 70
64
 10
240.7401691567
 20
22.5092555431
  3
RD010411_BL0
  1

  0
ARC
  5
221
100
AcDbEntity
  8
0
100
AcDbCircle
 62
7
  6
CONTINUOUS
 10
246.1748489037
 20
23.3457301892
 40
0.1030959439
100
AcDbArc
 50
270.0
 51
360.0
  0
LINE
  5
222
100
AcDbEntity
  8
0
100
AcDbLine
 62
7
  6
CONTINUOUS
 10
246.2779448476
 20
23.3457301892
 11
246.2779448476
 21
23.5519929325
  0
ARC
  5
223
100
AcDbEntity
  8
0
100
AcDbCircle
 62
7
  6
CONTINUOUS
 10
246.1748489037
 20
23.5519929325
 40
0.1030959439
100
AcDbArc
 50
0.0
 51
90.0
  0
LINE
  5
224
100
AcDbEntity
  8
0
100
AcDbLine
 62
7
  6
CONTINUOUS
 10
246.1748489037
 20
23.6550888764
 11
243.4032378019
 21
23.6550888764
  0
SPLINE
  5
225
100
AcDbEntity
  8
0
100
AcDbSpline
 62
7
  6
CONTINUOUS
 70
0
 71
3
 72
13
 73
9
 74
0
 42
0.0000001
 43
0.0000001
 44
0.0000000001
 40
0.0
 40
0.0
 40
0.0
 40
0.0
 40
0.1310616762
 40
0.2699656353
 40
0.4157607805
 40
0.5899807757
 40
0.76586761
 40
0.9948829976
 40
0.9948829976
 40
0.9948829976
 40
0.9948829976
 10
243.4032378019
 20
23.6550888764
 30
0.0
 10
243.3449760143
 20
23.6507495
 30
0.0
 10
243.2249662545
 20
23.6418110943
 30
0.0
 10
243.0623291309
 20
23.5410318622
 30
0.0
 10
242.9455750839
 20
23.3718416828
 30
0.0
 10
242.8696555702
 20
23.164959336
 30
0.0
 10
242.826893065
 20
22.9120631045
 30
0.0
 10
242.8229557945
 20
22.7333621863
 30
0.0
 10
242.820915199
 20
22.6322744832
 30
0.0
  0
LINE
  5
226
100
AcDbEntity
  8
0
100
AcDbLine
 62
7
  6
CONTINUOUS
 10
242.820915199
 20
22.6322744832
 11
242.8210961435
 21
22.6165875756
  0
SPLINE
  5
227
100
AcDbEntity
  8
0
100
AcDbSpline
 62
7
  6
CONTINUOUS
 70
0
 71
3
 72
13
 73
9
 74
0
 42
0.0000001
 43
0.0000001
 44
0.0000000001
 40
0.0
 40
0.0
 40
0.0
 40
0.0
 40
0.2222860645
 40
0.3981728988
 40
0.572392894
 40
0.7181880393
 40
0.8570919984
 40
0.9881536746
 40
0.9881536746
 40
0.9881536746
 40
0.9881536746
 10
242.8210961435
 20
22.6165875756
 30
0.0
 10
242.823096522
 20
22.5184715037
 30
0.0
 10
242.8273890802
 20
22.3427731708
 30
0.0
 10
242.8696555353
 20
22.0928084645
 30
0.0
 10
242.9455759578
 20
21.8859492556
 30
0.0
 10
243.0623263631
 20
21.7166872723
 30
0.0
 10
243.2249758995
 20
21.6161489452
 30
0.0
 10
243.3449564007
 20
21.6066432851
 30
0.0
 10
243.4032378019
 20
21.6023024494
 30
0.0
  0
LINE
  5
228
100
AcDbEntity
  8
0
100
AcDbLine
 62
7
  6
CONTINUOUS
 10
243.4032378019
 20
21.6023024494
 11
246.1750739209
 21
21.6083522637
  0
ARC
  5
229
100
AcDbEntity
  8
0
100
AcDbCircle
 62
7
  6
CONTINUOUS
 10
246.1748489037
 20
21.7114479618
 40
0.1030959436
100
AcDbArc
 50
270.125053868
 51
360.0
  0
LINE
  5
22A
100
AcDbEntity
  8
0
100
AcDbLine
 62
7
  6
CONTINUOUS
 10
246.2779448476
 20
21.7114479618
 11
246.2779448476
 21
21.9096577889
  0
ARC
  5
22B
100
AcDbEntity
  8
0
100
AcDbCircle
 62
7
  6
CONTINUOUS
 10
246.1748489037
 20
21.9096577889
 40
0.1030959439
100
AcDbArc
 50
0.0
 51
90.0
  0
LINE
  5
22C
100
AcDbEntity
  8
0
100
AcDbLine
 62
7
  6
CONTINUOUS
 10
246.1748489037
 20
22.0127537328
 11
243.7991993771
 21
22.0127537328
  0
LINE
  5
22D
100
AcDbEntity
  8
0
100
AcDbLine
 62
7
  6
CONTINUOUS
 10
243.6961034332
 20
22.1158496767
 11
243.6961034332
 21
23.1395383014
  0
ARC
  5
22E
100
AcDbEntity
  8
0
100
AcDbCircle
 62
7
  6
CONTINUOUS
 10
243.799199378
 20
23.1395383014
 40
0.1030959439
100
AcDbArc
 50
90.0
 51
180.0
  0
LINE
  5
22F
100
AcDbEntity
  8
0
100
AcDbLine
 62
7
  6
CONTINUOUS
 10
243.7991993771
 20
23.2426342453
 11
246.1748489037
 21
23.2426342453
  0
LINE
  5
230
100
AcDbEntity
  8
0
100
AcDbLine
 62
7
  6
CONTINUOUS
 10
239.5632052751
 20
22.4205258382
 11
241.5433047269
 21
22.4205258382
  0
ARC
  5
231
100
AcDbEntity
  8
0
100
AcDbCircle
 62
7
  6
CONTINUOUS
 10
241.5433047267
 20
22.3174298945
 40
0.1030959439
100
AcDbArc
 50
0.0
 51
90.0
  0
LINE
  5
232
100
AcDbEntity
  8
0
100
AcDbLine
 62
7
  6
CONTINUOUS
 10
241.6464006708
 20
22.3174298943
 11
241.6464006708
 21
22.1069186258
  0
LINE
  5
233
100
AcDbEntity
  8
0
100
AcDbLine
 62
7
  6
CONTINUOUS
 10
241.5433047269
 20
22.0038226819
 11
239.2351368946
 21
22.0038226819
  0
ARC
  5
234
100
AcDbEntity
  8
0
100
AcDbCircle
 62
7
  6
CONTINUOUS
 10
239.2351368946
 20
21.900726738
 40
0.1030959439
100
AcDbArc
 50
90.0
 51
180.0
  0
LINE
  5
235
100
AcDbEntity
  8
0
100
AcDbLine
 62
7
  6
CONTINUOUS
 10
239.1320409507
 20
21.900726738
 11
239.1320409507
 21
21.7053973528
  0
ARC
  5
236
100
AcDbEntity
  8
0
100
AcDbCircle
 62
7
  6
CONTINUOUS
 10
239.2351368946
 20
21.7053973528
 40
0.1030959439
100
AcDbArc
 50
180.0
 51
270.0
  0
LINE
  5
237
100
AcDbEntity
  8
0
100
AcDbLine
 62
7
  6
CONTINUOUS
 10
239.2351368946
 20
21.6023014089
 11
242.1006095367
 21
21.6023014089
  0
SPLINE
  5
238
100
AcDbEntity
  8
0
100
AcDbSpline
 62
7
  6
CONTINUOUS
 70
0
 71
3
 72
13
 73
9
 74
0
 42
0.0000001
 43
0.0000001
 44
0.0000000001
 40
0.0
 40
0.0
 40
0.0
 40
0.0
 40
0.1604571392
 40
0.3334692485
 40
0.4767982758
 40
0.6242014838
 40
0.7505998515
 40
1.0
 40
1.0
 40
1.0
 40
1.0
 10
242.1006095367
 20
21.6023014089
 30
0.0
 10
242.1489217632
 20
21.6046275564
 30
0.0
 10
242.2493264049
 20
21.6094618584
 30
0.0
 10
242.3843422076
 20
21.6680795284
 30
0.0
 10
242.4860810631
 20
21.7666109391
 30
0.0
 10
242.5434149095
 20
21.8795733948
 30
0.0
 10
242.5873719144
 20
22.0311136866
 30
0.0
 10
242.5891556915
 20
22.1445192519
 30
0.0
 10
242.590339501
 20
22.2197812958
 30
0.0
  0
SPLINE
  5
239
100
AcDbEntity
  8
0
100
AcDbSpline
 62
7
  6
CONTINUOUS
 70
0
 71
3
 72
13
 73
9
 74
0
 42
0.0000001
 43
0.0000001
 44
0.0000000001
 40
0.0
 40
0.0
 40
0.0
 40
0.0
 40
0.2494001485
 40
0.3757985162
 40
0.5232017242
 40
0.6665307515
 40
0.8395428608
 40
1.0
 40
1.0
 40
1.0
 40
1.0
 10
242.590339501
 20
22.2197812958
 30
0.0
 10
242.5891556915
 20
22.2950433412
 30
0.0
 10
242.5873719144
 20
22.4084489049
 30
0.0
 10
242.5434149095
 20
22.5599891983
 30
0.0
 10
242.4860810631
 20
22.672951654
 30
0.0
 10
242.3843422076
 20
22.7714830631
 30
0.0
 10
242.2493264049
 20
22.8301007331
 30
0.0
 10
242.1489217632
 20
22.8349350367
 30
0.0
 10
242.1006095367
 20
22.8372611826
 30
0.0
  0
LINE
  5
23A
100
AcDbEntity
  8
0
100
AcDbLine
 62
7
  6
CONTINUOUS
 10
242.1006095367
 20
22.8372611826
 11
240.1469034999
 21
22.8372611826
  0
LINE
  5
23B
100
AcDbEntity
  8
0
100
AcDbLine
 62
7
  6
CONTINUOUS
 10
240.043807556
 20
22.9403571265
 11
240.043807556
 21
23.1354249953
  0
ARC
  5
23C
100
AcDbEntity
  8
0
100
AcDbCircle
 62
7
  6
CONTINUOUS
 10
240.146903499
 20
23.1354249953
 40
0.1030959439
100
AcDbArc
 50
90.0
 51
180.0
  0
LINE
  5
23D
100
AcDbEntity
  8
0
100
AcDbLine
 62
7
  6
CONTINUOUS
 10
240.1469034999
 20
23.2385209392
 11
242.4582043307
 21
23.2385209392
  0
ARC
  5
23E
100
AcDbEntity
  8
0
100
AcDbCircle
 62
7
  6
CONTINUOUS
 10
242.4582043307
 20
23.3416168831
 40
0.1030959439
100
AcDbArc
 50
270.0
 51
360.0
  0
LINE
  5
23F
100
AcDbEntity
  8
0
100
AcDbLine
 62
7
  6
CONTINUOUS
 10
242.5613002746
 20
23.3416168831
 11
242.5613002746
 21
23.5519929325
  0
ARC
  5
240
100
AcDbEntity
  8
0
100
AcDbCircle
 62
7
  6
CONTINUOUS
 10
242.4582043307
 20
23.5519929325
 40
0.1030959439
100
AcDbArc
 50
0.0
 51
90.0
  0
LINE
  5
241
100
AcDbEntity
  8
0
100
AcDbLine
 62
7
  6
CONTINUOUS
 10
242.4582043307
 20
23.6550888764
 11
239.5632052751
 21
23.6550888764
  0
SPLINE
  5
242
100
AcDbEntity
  8
0
100
AcDbSpline
 62
7
  6
CONTINUOUS
 70
0
 71
3
 72
13
 73
9
 74
0
 42
0.0000001
 43
0.0000001
 44
0.0000000001
 40
0.0
 40
0.0
 40
0.0
 40
0.0
 40
0.1133740464
 40
0.2392044088
 40
0.3655787964
 40
0.4912154373
 40
0.7445390876
 40
1.0
 40
1.0
 40
1.0
 40
1.0
 10
239.5632052751
 20
23.6550888764
 30
0.0
 10
239.5301333905
 20
23.653459932
 30
0.0
 10
239.4603560414
 20
23.6500230701
 30
0.0
 10
239.3567086912
 20
23.6190563381
 30
0.0
 10
239.2639860359
 20
23.5565248621
 30
0.0
 10
239.1692690166
 20
23.4413394976
 30
0.0
 10
239.1096670594
 20
23.2605138006
 30
0.0
 10
239.1032032181
 20
23.1122504435
 30
0.0
 10
239.0999577229
 20
23.0378073573
 30
0.0
  0
SPLINE
  5
243
100
AcDbEntity
  8
0
100
AcDbSpline
 62
7
  6
CONTINUOUS
 70
0
 71
3
 72
13
 73
9
 74
0
 42
0.0000001
 43
0.0000001
 44
0.0000000001
 40
0.0
 40
0.0
 40
0.0
 40
0.0
 40
0.2554609124
 40
0.5087845627
 40
0.6344212036
 40
0.7607955912
 40
0.8866259536
 40
1.0
 40
1.0
 40
1.0
 40
1.0
 10
239.0999577229
 20
23.0378073573
 30
0.0
 10
239.1032032181
 20
22.9633642711
 30
0.0
 10
239.1096670594
 20
22.8151009125
 30
0.0
 10
239.1692690166
 20
22.634275217
 30
0.0
 10
239.2639860359
 20
22.5190898525
 30
0.0
 10
239.3567086912
 20
22.4565583765
 30
0.0
 10
239.4603560414
 20
22.4255916445
 30
0.0
 10
239.5301333905
 20
22.4221547826
 30
0.0
 10
239.5632052751
 20
22.4205258382
 30
0.0
  0
LINE
  5
244
100
AcDbEntity
  8
0
100
AcDbLine
 62
7
  6
CONTINUOUS
 10
235.7539233817
 20
21.6023014089
 11
237.3558191889
 21
21.6023014089
  0
LINE
  5
245
100
AcDbEntity
  8
0
100
AcDbLine
 62
7
  6
CONTINUOUS
 10
237.3558191889
 20
21.6023014089
 11
237.3558191889
 21
21.4030744959
  0
ARC
  5
246
100
AcDbEntity
  8
0
100
AcDbCircle
 62
7
  6
CONTINUOUS
 10
237.395471475
 20
21.4030744959
 40
0.0396522861
100
AcDbArc
 50
180.0
 51
270.0
  0
LINE
  5
247
100
AcDbEntity
  8
0
100
AcDbLine
 62
7
  6
CONTINUOUS
 10
237.395471475
 20
21.3634222098
 11
238.0128978995
 21
21.3634222098
  0
ARC
  5
248
100
AcDbEntity
  8
0
100
AcDbCircle
 62
7
  6
CONTINUOUS
 10
238.0128978995
 20
21.4030744959
 40
0.0396522861
100
AcDbArc
 50
270.0
 51
360.0
  0
LINE
  5
249
100
AcDbEntity
  8
0
100
AcDbLine
 62
7
  6
CONTINUOUS
 10
238.0525501856
 20
21.4030744959
 11
238.0525501856
 21
21.6023014089
  0
LINE
  5
24A
100
AcDbEntity
  8
0
100
AcDbLine
 62
7
  6
CONTINUOUS
 10
238.0525501856
 20
21.6023014089
 11
238.3675428552
 21
21.6023014089
  0
SPLINE
  5
24B
100
AcDbEntity
  8
0
100
AcDbSpline
 62
7
  6
CONTINUOUS
 70
0
 71
3
 72
12
 73
8
 74
0
 42
0.0000001
 43
0.0000001
 44
0.0000000001
 40
0.0
 40
0.0
 40
0.0
 40
0.0
 40
0.2415790084
 40
0.4893269843
 40
0.7378634303
 40
0.8656387112
 40
1.0
 40
1.0
 40
1.0
 40
1.0
 10
238.3675428552
 20
21.6023014089
 30
0.0
 10
238.4240241441
 20
21.6040573485
 30
0.0
 10
238.538429031
 20
21.6076140682
 30
0.0
 10
238.7058486455
 20
21.6673203553
 30
0.0
 10
238.8075258734
 20
21.7800300245
 30
0.0
 10
238.8523214845
 20
21.8926478337
 30
0.0
 10
238.853128767
 20
21.9543396313
 30
0.0
 10
238.8535425497
 20
21.9859605118
 30
0.0
  0
LINE
  5
24C
100
AcDbEntity
  8
0
100
AcDbLine
 62
7
  6
CONTINUOUS
 10
238.8535425497
 20
21.9859605118
 11
238.8535425497
 21
23.2690220994
  0
SPLINE
  5
24D
100
AcDbEntity
  8
0
100
AcDbSpline
 62
7
  6
CONTINUOUS
 70
0
 71
3
 72
12
 73
8
 74
0
 42
0.0000001
 43
0.0000001
 44
0.0000000001
 40
0.0
 40
0.0
 40
0.0
 40
0.0
 40
0.1343612888
 40
0.2621365697
 40
0.5106730157
 40
0.7584209916
 40
1.0
 40
1.0
 40
1.0
 40
1.0
 10
238.8535425497
 20
23.2690220994
 30
0.0
 10
238.853128767
 20
23.3006429816
 30
0.0
 10
238.8523214845
 20
23.3623347791
 30
0.0
 10
238.8075258734
 20
23.4749525883
 30
0.0
 10
238.7058486455
 20
23.5876622575
 30
0.0
 10
238.538429031
 20
23.647368543
 30
0.0
 10
238.4240241441
 20
23.6509252627
 30
0.0
 10
238.3675428552
 20
23.6526812023
 30
0.0
  0
LINE
  5
24E
100
AcDbEntity
  8
0
100
AcDbLine
 62
7
  6
CONTINUOUS
 10
238.3675428552
 20
23.6526812023
 11
235.7539233817
 21
23.6526812023
  0
SPLINE
  5
24F
100
AcDbEntity
  8
0
100
AcDbSpline
 62
7
  6
CONTINUOUS
 70
0
 71
3
 72
12
 73
8
 74
0
 42
0.0000001
 43
0.0000001
 44
0.0000000001
 40
0.0
 40
0.0
 40
0.0
 40
0.0
 40
0.1341799809
 40
0.290831959
 40
0.5815217441
 40
0.760783857
 40
1.0
 40
1.0
 40
1.0
 40
1.0
 10
235.7539233817
 20
23.6526812023
 30
0.0
 10
235.6969157007
 20
23.6429380488
 30
0.0
 10
235.5733528915
 20
23.6218199898
 30
0.0
 10
235.3653547326
 20
23.4664250485
 30
0.0
 10
235.2668362486
 20
23.2049886646
 30
0.0
 10
235.2091939645
 20
22.9086264282
 30
0.0
 10
235.2048669389
 20
22.7293730394
 30
0.0
 10
235.2023934658
 20
22.6269058174
 30
0.0
  0
SPLINE
  5
250
100
AcDbEntity
  8
0
100
AcDbSpline
 62
7
  6
CONTINUOUS
 70
0
 71
3
 72
12
 73
8
 74
0
 42
0.0000001
 43
0.0000001
 44
0.0000000001
 40
0.0
 40
0.0
 40
0.0
 40
0.0
 40
0.2392679579
 40
0.4185688994
 40
0.7093216488
 40
0.8660075581
 40
1.0
 40
1.0
 40
1.0
 40
1.0
 10
235.2023934658
 20
22.6269058174
 30
0.0
 10
235.2048679271
 20
22.5244425892
 30
0.0
 10
235.2091966799
 20
22.3451961871
 30
0.0
 10
235.2668265258
 20
22.0487836589
 30
0.0
 10
235.365405202
 20
21.7875906687
 30
0.0
 10
235.5731868055
 20
21.6316911283
 30
0.0
 10
235.6968972434
 20
21.6115744751
 30
0.0
 10
235.7539233817
 20
21.6023014089
 30
0.0
  0
LINE
  5
251
100
AcDbEntity
  8
0
100
AcDbLine
 62
7
  6
CONTINUOUS
 10
238.32559293
 20
22.1301871535
 11
238.32559293
 21
23.1582121395
  0
ARC
  5
252
100
AcDbEntity
  8
0
100
AcDbCircle
 62
7
  6
CONTINUOUS
 10
236.1626767891
 20
22.1301871535
 40
0.1030959439
100
AcDbArc
 50
180.0
 51
270.0
  0
LINE
  5
253
100
AcDbEntity
  8
0
100
AcDbLine
 62
7
  6
CONTINUOUS
 10
236.1626767891
 20
22.0270912096
 11
237.3468008982
 21
22.0270912096
  0
LINE
  5
254
100
AcDbEntity
  8
0
100
AcDbLine
 62
7
  6
CONTINUOUS
 10
237.3468008982
 20
22.0270912096
 11
237.3468008982
 21
22.2257008301
  0
ARC
  5
255
100
AcDbEntity
  8
0
100
AcDbCircle
 62
7
  6
CONTINUOUS
 10
237.386453185
 20
22.2257008301
 40
0.0396522861
100
AcDbArc
 50
90.0
 51
180.0
  0
LINE
  5
256
100
AcDbEntity
  8
0
100
AcDbLine
 62
7
  6
CONTINUOUS
 10
237.3864531843
 20
22.2653531162
 11
238.000733065
 21
22.2653531162
  0
ARC
  5
257
100
AcDbEntity
  8
0
100
AcDbCircle
 62
7
  6
CONTINUOUS
 10
238.0007330635
 20
22.2257008316
 40
0.0396522861
100
AcDbArc
 50
0.0
 51
90.0
  0
LINE
  5
258
100
AcDbEntity
  8
0
100
AcDbLine
 62
7
  6
CONTINUOUS
 10
238.0403853511
 20
22.0270912096
 11
238.2224969861
 21
22.0270912096
  0
ARC
  5
259
100
AcDbEntity
  8
0
100
AcDbCircle
 62
7
  6
CONTINUOUS
 10
238.2224969861
 20
22.1301871535
 40
0.1030959439
100
AcDbArc
 50
270.0
 51
360.0
  0
LINE
  5
25A
100
AcDbEntity
  8
0
100
AcDbLine
 62
7
  6
CONTINUOUS
 10
238.0403853511
 20
22.0270912096
 11
238.0403853511
 21
22.2257008301
  0
LINE
  5
25B
100
AcDbEntity
  8
0
100
AcDbLine
 62
7
  6
CONTINUOUS
 10
236.0595808452
 20
22.1301871535
 11
236.0595808452
 21
23.1582121395
  0
ARC
  5
25C
100
AcDbEntity
  8
0
100
AcDbCircle
 62
7
  6
CONTINUOUS
 10
236.1626767905
 20
23.1582121395
 40
0.1030959439
100
AcDbArc
 50
90.0
 51
180.0
  0
LINE
  5
25D
100
AcDbEntity
  8
0
100
AcDbLine
 62
7
  6
CONTINUOUS
 10
236.1626767891
 20
23.2613080834
 11
238.2224969861
 21
23.2613080834
  0
ARC
  5
25E
100
AcDbEntity
  8
0
100
AcDbCircle
 62
7
  6
CONTINUOUS
 10
238.222496987
 20
23.1582121386
 40
0.1030959439
100
AcDbArc
 50
0.0000000277
 51
90.0000000277
  0
ARC
  5
25F
100
AcDbEntity
  8
0
100
AcDbCircle
 62
7
  6
CONTINUOUS
 10
240.1469034999
 20
22.9403571265
 40
0.1030959439
100
AcDbArc
 50
180.0
 51
270.0
  0
ARC
  5
260
100
AcDbEntity
  8
0
100
AcDbCircle
 62
7
  6
CONTINUOUS
 10
241.5433047269
 20
22.1069186258
 40
0.1030959439
100
AcDbArc
 50
270.0
 51
360.0
  0
ARC
  5
261
100
AcDbEntity
  8
0
100
AcDbCircle
 62
7
  6
CONTINUOUS
 10
243.7991993771
 20
22.1158496767
 40
0.1030959439
100
AcDbArc
 50
180.0
 51
270.0
  0
ENDBLK
  5
262
100
AcDbEntity
  8
0
  6
BYBLOCK
 62
0
100
AcDbBlockEnd
  0
BLOCK
  5
263
100
AcDbEntity
  8
0
100
AcDbBlockBegin
  2
_FILLED
 70
64
 10
0.0
 20
0.0
  3
_FILLED
  1

  0
SOLID
  5
264
100
AcDbEntity
  8
0
  6
BYBLOCK
 62
0
100
AcDbTrace
 10
0.0
 20
0.0
 11
-1.0
 21
0.1666666667
 12
-1.0
 22
-0.1666666667
 13
-1.0
 23
-0.1666666667
  0
ENDBLK
  5
265
100
AcDbEntity
  8
0
  6
BYBLOCK
 62
0
100
AcDbBlockEnd
  0
BLOCK
  5
266
100
AcDbEntity
  8
0
100
AcDbBlockBegin
 62
2
  6
CONTINUOUS
  2
*D0
 70
65
 10
0.0
 20
0.0
  3
*D0
  1

  0
MTEXT
  5
267
100
AcDbEntity
  8
0
100
AcDbMText
 62
2
  6
CONTINUOUS
  7
STANDARD
 71
2
 72
1
 10
117.1911025006
 20
87.0908612175
 30
0.0
 11
1.0
 21
0.0
 31
0.0
 44
0.9
  1
2347,7\P[92.4]
 40
1.3020833333
 41
8.6495535714
  0
LINE
  5
268
100
AcDbEntity
  8
0
100
AcDbLine
 62
2
  6
CONTINUOUS
 10
99.4077942556
 20
37.0235231547
 11
118.2327691672
 21
37.0235231547
  0
LINE
  5
269
100
AcDbEntity
  8
0
100
AcDbLine
 62
2
  6
CONTINUOUS
 10
100.7077942556
 20
129.4532509385
 11
118.2327691672
 21
129.4532509385
  0
LINE
  5
26A
100
AcDbEntity
  8
0
100
AcDbLine
 62
2
  6
CONTINUOUS
 10
117.1911025006
 20
37.0235231547
 11
117.1911025006
 21
83.1846112175
  0
LINE
  5
26B
100
AcDbEntity
  8
0
100
AcDbLine
 62
2
  6
CONTINUOUS
 10
117.1911025006
 20
129.4532509385
 11
117.1911025006
 21
87.7419028842
  0
INSERT
  5
26C
100
AcDbEntity
  8
0
100
AcDbBlockReference
 62
2
  6
CONTINUOUS
  2
_FILLED
 10
117.1911025006
 20
37.0235231547
 41
1.5625
 42
1.5625
 43
1.5625
 50
270.0
  0
INSERT
  5
26D
100
AcDbEntity
  8
0
100
AcDbBlockReference
 62
2
  6
CONTINUOUS
  2
_FILLED
 10
117.1911025006
 20
129.4532509385
 41
1.5625
 42
1.5625
 43
1.5625
 50
90.0
  0
ENDBLK
  5
26E
100
AcDbEntity
  8
0
  6
BYBLOCK
 62
0
100
AcDbBlockEnd
  0
BLOCK
  5
26F
100
AcDbEntity
  8
0
100
AcDbBlockBegin
 62
2
  6
CONTINUOUS
  2
*D1
 70
65
 10
0.0
 20
0.0
  3
*D1
  1

  0
MTEXT
  5
270
100
AcDbEntity
  8
0
100
AcDbMText
 62
2
  6
CONTINUOUS
  7
STANDARD
 71
2
 72
1
 10
84.989212149
 20
135.7913910133
 30
0.0
 11
1.0
 21
0.0
 31
0.0
 44
0.9
  1
762\P[30.0]
 40
1.3020833333
 41
7.2544642857
  0
LINE
  5
271
100
AcDbEntity
  8
0
100
AcDbLine
 62
2
  6
CONTINUOUS
 10
70.2619609223
 20
129.4503923639
 11
70.2619609223
 21
136.1820160133
  0
LINE
  5
272
100
AcDbEntity
  8
0
100
AcDbLine
 62
2
  6
CONTINUOUS
 10
100.2619609223
 20
129.4503923639
 11
100.2619609223
 21
136.1820160133
  0
LINE
  5
273
100
AcDbEntity
  8
0
100
AcDbLine
 62
2
  6
CONTINUOUS
 10
70.2619609223
 20
135.1403493467
 11
82.803572268
 21
135.1403493467
  0
LINE
  5
274
100
AcDbEntity
  8
0
100
AcDbLine
 62
2
  6
CONTINUOUS
 10
100.2619609223
 20
135.1403493467
 11
88.9419651252
 21
135.1403493467
  0
INSERT
  5
275
100
AcDbEntity
  8
0
100
AcDbBlockReference
 62
2
  6
CONTINUOUS
  2
_FILLED
 10
70.2619609223
 20
135.1403493467
 41
1.5625
 42
1.5625
 43
1.5625
 50
180.0
  0
INSERT
  5
276
100
AcDbEntity
  8
0
100
AcDbBlockReference
 62
2
  6
CONTINUOUS
  2
_FILLED
 10
100.2619609223
 20
135.1403493467
 41
1.5625
 42
1.5625
 43
1.5625
  0
ENDBLK
  5
277
100
AcDbEntity
  8
0
  6
BYBLOCK
 62
0
100
AcDbBlockEnd
  0
BLOCK
  5
278
100
AcDbEntity
  8
0
100
AcDbBlockBegin
 62
2
  6
CONTINUOUS
  2
*D2
 70
65
 10
0.0
 20
0.0
  3
*D2
  1

  0
MTEXT
  5
279
100
AcDbEntity
  8
0
100
AcDbMText
 62
2
  6
CONTINUOUS
  7
STANDARD
 71
2
 72
1
 10
110.2576498827
 20
158.0363573975
 30
0.0
 11
1.0
 21
0.0
 31
0.0
 44
0.9
  1
514,4\P[20.3]
 40
1.3020833333
 41
7.2544642857
  0
LINE
  5
27A
100
AcDbEntity
  8
0
100
AcDbLine
 62
2
  6
CONTINUOUS
 10
100.7077942556
 20
146.3818154762
 11
111.4853284541
 21
146.3818154762
  0
LINE
  5
27B
100
AcDbEntity
  8
0
100
AcDbLine
 62
2
  6
CONTINUOUS
 10
100.7827942556
 20
166.6318154762
 11
111.4853284541
 21
166.6318154762
  0
LINE
  5
27C
100
AcDbEntity
  8
0
100
AcDbLine
 62
2
  6
CONTINUOUS
 10
110.4436617875
 20
146.3818154762
 11
110.4436617875
 21
154.1301073975
  0
LINE
  5
27D
100
AcDbEntity
  8
0
100
AcDbLine
 62
2
  6
CONTINUOUS
 10
110.4436617875
 20
166.6318154762
 11
110.4436617875
 21
158.6873990642
  0
INSERT
  5
27E
100
AcDbEntity
  8
0
100
AcDbBlockReference
 62
2
  6
CONTINUOUS
  2
_FILLED
 10
110.4436617875
 20
146.3818154762
 41
1.5625
 42
1.5625
 43
1.5625
 50
270.0
  0
INSERT
  5
27F
100
AcDbEntity
  8
0
100
AcDbBlockReference
 62
2
  6
CONTINUOUS
  2
_FILLED
 10
110.4436617875
 20
166.6318154762
 41
1.5625
 42
1.5625
 43
1.5625
 50
90.0
  0
ENDBLK
  5
280
100
AcDbEntity
  8
0
  6
BYBLOCK
 62
0
100
AcDbBlockEnd
  0
BLOCK
  5
281
100
AcDbEntity
  8
0
100
AcDbBlockBegin
 62
2
  6
CONTINUOUS
  2
*D3
 70
65
 10
0.0
 20
0.0
  3
*D3
  1

  0
MTEXT
  5
282
100
AcDbEntity
  8
0
100
AcDbMText
 62
2
  6
CONTINUOUS
  7
STANDARD
 71
2
 72
1
 10
85.3421402302
 20
173.5709627673
 30
0.0
 11
1.0
 21
0.0
 31
0.0
 44
0.9
  1
549,5\P[21.6]
 40
1.3020833333
 41
6.9754464286
  0
LINE
  5
283
100
AcDbEntity
  8
0
100
AcDbLine
 62
2
  6
CONTINUOUS
 10
74.4442627124
 20
167.0066488095
 11
74.4442627124
 21
173.9615877673
  0
LINE
  5
284
100
AcDbEntity
  8
0
100
AcDbLine
 62
2
  6
CONTINUOUS
 10
96.0796591322
 20
167.0066488095
 11
96.0796591322
 21
173.9615877673
  0
LINE
  5
285
100
AcDbEntity
  8
0
100
AcDbLine
 62
2
  6
CONTINUOUS
 10
74.4442627124
 20
172.9199211007
 11
82.365949754
 21
172.9199211007
  0
LINE
  5
286
100
AcDbEntity
  8
0
100
AcDbLine
 62
2
  6
CONTINUOUS
 10
96.0796591322
 20
172.9199211007
 11
88.3183307064
 21
172.9199211007
  0
INSERT
  5
287
100
AcDbEntity
  8
0
100
AcDbBlockReference
 62
2
  6
CONTINUOUS
  2
_FILLED
 10
74.4442627124
 20
172.9199211007
 41
1.5625
 42
1.5625
 43
1.5625
 50
180.0
  0
INSERT
  5
288
100
AcDbEntity
  8
0
100
AcDbBlockReference
 62
2
  6
CONTINUOUS
  2
_FILLED
 10
96.0796591322
 20
172.9199211007
 41
1.5625
 42
1.5625
 43
1.5625
  0
ENDBLK
  5
289
100
AcDbEntity
  8
0
  6
BYBLOCK
 62
0
100
AcDbBlockEnd
  0
BLOCK
  5
28A
100
AcDbEntity
  8
0
100
AcDbBlockBegin
 62
2
  6
CONTINUOUS
  2
*D4
 70
65
 10
0.0
 20
0.0
  3
*D4
  1

  0
MTEXT
  5
28B
100
AcDbEntity
  8
0
100
AcDbMText
 62
2
  6
CONTINUOUS
  7
STANDARD
 71
2
 72
1
 10
200.4285328634
 20
111.7855542192
 30
0.0
 11
1.0
 21
0.0
 31
0.0
 44
0.9
  1
1004,6\P[39.6]
 40
1.3020833333
 41
8.3705357143
  0
LINE
  5
28C
100
AcDbEntity
  8
0
100
AcDbLine
 62
2
  6
CONTINUOUS
 10
181.2616517857
 20
89.9034444145
 11
201.4701995301
 21
89.9034444145
  0
LINE
  5
28D
100
AcDbEntity
  8
0
100
AcDbLine
 62
2
  6
CONTINUOUS
 10
161.2616517857
 20
129.4532509385
 11
201.4701995301
 21
129.4532509385
  0
LINE
  5
28E
100
AcDbEntity
  8
0
100
AcDbLine
 62
2
  6
CONTINUOUS
 10
200.4285328634
 20
89.9034444145
 11
200.4285328634
 21
107.8793042192
  0
LINE
  5
28F
100
AcDbEntity
  8
0
100
AcDbLine
 62
2
  6
CONTINUOUS
 10
200.4285328634
 20
129.4532509385
 11
200.4285328634
 21
112.4365958859
  0
INSERT
  5
290
100
AcDbEntity
  8
0
100
AcDbBlockReference
 62
2
  6
CONTINUOUS
  2
_FILLED
 10
200.4285328634
 20
89.9034444145
 41
1.5625
 42
1.5625
 43
1.5625
 50
270.0
  0
INSERT
  5
291
100
AcDbEntity
  8
0
100
AcDbBlockReference
 62
2
  6
CONTINUOUS
  2
_FILLED
 10
200.4285328634
 20
129.4532509385
 41
1.5625
 42
1.5625
 43
1.5625
 50
90.0
  0
ENDBLK
  5
292
100
AcDbEntity
  8
0
  6
BYBLOCK
 62
0
100
AcDbBlockEnd
  0
BLOCK
  5
293
100
AcDbEntity
  8
0
100
AcDbBlockBegin
 62
2
  6
CONTINUOUS
  2
*D5
 70
65
 10
0.0
 20
0.0
  3
*D5
  1

  0
MTEXT
  5
294
100
AcDbEntity
  8
0
100
AcDbMText
 62
2
  6
CONTINUOUS
  7
STANDARD
 71
2
 72
1
 10
200.4285328634
 20
67.8580292127
 30
0.0
 11
1.0
 21
0.0
 31
0.0
 44
0.9
  1
1343,2\P[52.9]
 40
1.3020833333
 41
8.0915178571
  0
LINE
  5
295
100
AcDbEntity
  8
0
100
AcDbLine
 62
2
  6
CONTINUOUS
 10
181.2616517857
 20
89.9034444145
 11
201.4701995301
 21
89.9034444145
  0
LINE
  5
296
100
AcDbEntity
  8
0
100
AcDbLine
 62
2
  6
CONTINUOUS
 10
179.3866517857
 20
37.0235231547
 11
201.4701995301
 21
37.0235231547
  0
LINE
  5
297
100
AcDbEntity
  8
0
100
AcDbLine
 62
2
  6
CONTINUOUS
 10
200.4285328634
 20
89.9034444145
 11
200.4285328634
 21
68.5090708793
  0
LINE
  5
298
100
AcDbEntity
  8
0
100
AcDbLine
 62
2
  6
CONTINUOUS
 10
200.4285328634
 20
37.0235231547
 11
200.4285328634
 21
63.9517792127
  0
INSERT
  5
299
100
AcDbEntity
  8
0
100
AcDbBlockReference
 62
2
  6
CONTINUOUS
  2
_FILLED
 10
200.4285328634
 20
89.9034444145
 41
1.5625
 42
1.5625
 43
1.5625
 50
90.0
  0
INSERT
  5
29A
100
AcDbEntity
  8
0
100
AcDbBlockReference
 62
2
  6
CONTINUOUS
  2
_FILLED
 10
200.4285328634
 20
37.0235231547
 41
1.5625
 42
1.5625
 43
1.5625
 50
270.0
  0
ENDBLK
  5
29B
100
AcDbEntity
  8
0
  6
BYBLOCK
 62
0
100
AcDbBlockEnd
  0
BLOCK
  5
29C
100
AcDbEntity
  8
0
100
AcDbBlockBegin
 62
2
  6
CONTINUOUS
  2
*D6
 70
65
 10
0.0
 20
0.0
  3
*D6
  1

  0
MTEXT
  5
29D
100
AcDbEntity
  8
0
100
AcDbMText
 62
2
  6
CONTINUOUS
  7
STANDARD
 71
2
 72
1
 10
189.3955929286
 20
63.9620732377
 30
0.0
 11
1.0
 21
0.0
 31
0.0
 44
0.9
  1
915,2\P[36.0]
 40
1.3020833333
 41
7.2544642857
  0
LINE
  5
29E
100
AcDbEntity
  8
0
100
AcDbLine
 62
2
  6
CONTINUOUS
 10
179.3866517857
 20
37.0235231547
 11
190.6232715
 21
37.0235231547
  0
LINE
  5
29F
100
AcDbEntity
  8
0
100
AcDbLine
 62
2
  6
CONTINUOUS
 10
177.0616517857
 20
73.0534444145
 11
190.6232715
 21
73.0534444145
  0
LINE
  5
2A0
100
AcDbEntity
  8
0
100
AcDbLine
 62
2
  6
CONTINUOUS
 10
189.5816048334
 20
37.0235231547
 11
189.5816048334
 21
60.0558232377
  0
LINE
  5
2A1
100
AcDbEntity
  8
0
100
AcDbLine
 62
2
  6
CONTINUOUS
 10
189.5816048334
 20
73.0534444145
 11
189.5816048334
 21
64.6131149044
  0
INSERT
  5
2A2
100
AcDbEntity
  8
0
100
AcDbBlockReference
 62
2
  6
CONTINUOUS
  2
_FILLED
 10
189.5816048334
 20
37.0235231547
 41
1.5625
 42
1.5625
 43
1.5625
 50
270.0
  0
INSERT
  5
2A3
100
AcDbEntity
  8
0
100
AcDbBlockReference
 62
2
  6
CONTINUOUS
  2
_FILLED
 10
189.5816048334
 20
73.0534444145
 41
1.5625
 42
1.5625
 43
1.5625
 50
90.0
  0
ENDBLK
  5
2A4
100
AcDbEntity
  8
0
  6
BYBLOCK
 62
0
100
AcDbBlockEnd
  0
BLOCK
  5
2A5
100
AcDbEntity
  8
0
100
AcDbBlockBegin
 62
2
  6
CONTINUOUS
  2
*D7
 70
65
 10
0.0
 20
0.0
  3
*D7
  1

  0
MTEXT
  5
2A6
100
AcDbEntity
  8
0
100
AcDbMText
 62
2
  6
CONTINUOUS
  7
STANDARD
 71
2
 72
1
 10
155.4834129537
 20
78.0678683157
 30
0.0
 11
1.0
 21
0.0
 31
0.0
 44
0.9
  1
180,3\P[7.1]
 40
1.3020833333
 41
6.6964285714
  0
LINE
  5
2A7
100
AcDbEntity
  8
0
100
AcDbLine
 62
2
  6
CONTINUOUS
 10
171.349985119
 20
80.1534444145
 11
154.4417462871
 21
80.1534444145
  0
LINE
  5
2A8
100
AcDbEntity
  8
0
100
AcDbLine
 62
2
  6
CONTINUOUS
 10
171.349985119
 20
73.0534444145
 11
154.4417462871
 21
73.0534444145
  0
LINE
  5
2A9
100
AcDbEntity
  8
0
100
AcDbLine
 62
2
  6
CONTINUOUS
 10
155.4834129537
 20
80.1534444145
 11
155.4834129537
 21
84.3201110812
  0
LINE
  5
2AA
100
AcDbEntity
  8
0
100
AcDbLine
 62
2
  6
CONTINUOUS
 10
155.4834129537
 20
73.0534444145
 11
155.4834129537
 21
68.8867777478
  0
INSERT
  5
2AB
100
AcDbEntity
  8
0
100
AcDbBlockReference
 62
2
  6
CONTINUOUS
  2
_FILLED
 10
155.4834129537
 20
80.1534444145
 41
1.5625
 42
1.5625
 43
1.5625
 50
270.0
  0
INSERT
  5
2AC
100
AcDbEntity
  8
0
100
AcDbBlockReference
 62
2
  6
CONTINUOUS
  2
_FILLED
 10
155.4834129537
 20
73.0534444145
 41
1.5625
 42
1.5625
 43
1.5625
 50
90.0
  0
ENDBLK
  5
2AD
100
AcDbEntity
  8
0
  6
BYBLOCK
 62
0
100
AcDbBlockEnd
  0
BLOCK
  5
2AE
100
AcDbEntity
  8
0
100
AcDbBlockBegin
 62
2
  6
CONTINUOUS
  2
*D8
 70
65
 10
0.0
 20
0.0
  3
*D8
  1

  0
MTEXT
  5
2AF
100
AcDbEntity
  8
0
100
AcDbMText
 62
2
  6
CONTINUOUS
  7
STANDARD
 71
1
 72
1
 10
179.233994736
 20
34.5314393098
 30
0.0
 11
1.0
 21
0.0
 31
0.0
 44
0.9
  1
128,3\P[5.1]
 40
1.3020833333
 41
6.6964285714
  0
LINE
  5
2B0
100
AcDbEntity
  8
0
100
AcDbLine
 62
2
  6
CONTINUOUS
 10
171.6808184524
 20
72.7226110812
 11
171.6808184524
 21
32.8387309765
  0
LINE
  5
2B1
100
AcDbEntity
  8
0
100
AcDbLine
 62
2
  6
CONTINUOUS
 10
176.7308184524
 20
72.7226110812
 11
176.7308184524
 21
32.8387309765
  0
LINE
  5
2B2
100
AcDbEntity
  8
0
100
AcDbLine
 62
2
  6
CONTINUOUS
 10
171.6808184524
 20
33.8803976431
 11
174.2058184524
 21
33.8803976431
  0
LINE
  5
2B3
100
AcDbEntity
  8
0
100
AcDbLine
 62
2
  6
CONTINUOUS
 10
176.7308184524
 20
33.8803976431
 11
174.2058184524
 21
33.8803976431
  0
LINE
  5
2B4
100
AcDbEntity
  8
0
100
AcDbLine
 62
2
  6
CONTINUOUS
 10
174.2058184524
 20
33.8803976431
 11
178.5829530693
 21
33.8803976431
  0
INSERT
  5
2B5
100
AcDbEntity
  8
0
100
AcDbBlockReference
 62
2
  6
CONTINUOUS
  2
_FILLED
 10
171.6808184524
 20
33.8803976431
 41
1.5625
 42
1.5625
 43
1.5625
 50
180.0
  0
INSERT
  5
2B6
100
AcDbEntity
  8
0
100
AcDbBlockReference
 62
2
  6
CONTINUOUS
  2
_FILLED
 10
176.7308184524
 20
33.8803976431
 41
1.5625
 42
1.5625
 43
1.5625
  0
ENDBLK
  5
2B7
100
AcDbEntity
  8
0
  6
BYBLOCK
 62
0
100
AcDbBlockEnd
  0
BLOCK
  5
2B8
100
AcDbEntity
  8
0
100
AcDbBlockBegin
 62
2
  6
CONTINUOUS
  2
*D9
 70
65
 10
0.0
 20
0.0
  3
*D9
  1

  0
MTEXT
  5
2B9
100
AcDbEntity
  8
0
100
AcDbMText
 62
2
  6
CONTINUOUS
  7
STANDARD
 71
2
 72
1
 10
165.5245009644
 20
34.5314393098
 30
0.0
 11
1.0
 21
0.0
 31
0.0
 44
0.9
  1
285\P[11.2]
 40
1.3020833333
 41
6.5569196429
  0
LINE
  5
2BA
100
AcDbEntity
  8
0
100
AcDbLine
 62
2
  6
CONTINUOUS
 10
171.6808184524
 20
72.7226110812
 11
171.6808184524
 21
32.8387309765
  0
LINE
  5
2BB
100
AcDbEntity
  8
0
100
AcDbLine
 62
2
  6
CONTINUOUS
 10
160.4608184524
 20
38.5686347032
 11
160.4608184524
 21
32.8387309765
  0
LINE
  5
2BC
100
AcDbEntity
  8
0
100
AcDbLine
 62
2
  6
CONTINUOUS
 10
171.6808184524
 20
33.8803976431
 11
169.0587271548
 21
33.8803976431
  0
LINE
  5
2BD
100
AcDbEntity
  8
0
100
AcDbLine
 62
2
  6
CONTINUOUS
 10
160.4608184524
 20
33.8803976431
 11
163.3853640596
 21
33.8803976431
  0
INSERT
  5
2BE
100
AcDbEntity
  8
0
100
AcDbBlockReference
 62
2
  6
CONTINUOUS
  2
_FILLED
 10
171.6808184524
 20
33.8803976431
 41
1.5625
 42
1.5625
 43
1.5625
  0
INSERT
  5
2BF
100
AcDbEntity
  8
0
100
AcDbBlockReference
 62
2
  6
CONTINUOUS
  2
_FILLED
 10
160.4608184524
 20
33.8803976431
 41
1.5625
 42
1.5625
 43
1.5625
 50
180.0
  0
ENDBLK
  5
2C0
100
AcDbEntity
  8
0
  6
BYBLOCK
 62
0
100
AcDbBlockEnd
  0
ENDSEC
  0
SECTION
  2
ENTITIES
  0
MTEXT
  5
2C1
100
AcDbEntity
  8
0
100
AcDbMText
 62
2
  6
CONTINUOUS
  7
STANDARD
 71
1
 72
1
 10
20.5242312061
 20
3.040972363
 30
0.0
 11
1.0
 21
0.0
 31
0.0
 44
0.9
  1
8
 40
1.3020833333
 41
1.5345982143
  0
MTEXT
  5
2C2
100
AcDbEntity
  8
0
100
AcDbMText
 62
2
  6
CONTINUOUS
  7
STANDARD
 71
1
 72
1
 10
54.3783978728
 20
3.040972363
 30
0.0
 11
1.0
 21
0.0
 31
0.0
 44
0.9
  1
7
 40
1.3020833333
 41
1.5345982143
  0
MTEXT
  5
2C3
100
AcDbEntity
  8
0
100
AcDbMText
 62
2
  6
CONTINUOUS
  7
STANDARD
 71
1
 72
1
 10
88.2325645394
 20
3.040972363
 30
0.0
 11
1.0
 21
0.0
 31
0.0
 44
0.9
  1
6
 40
1.3020833333
 41
1.5345982143
  0
MTEXT
  5
2C4
100
AcDbEntity
  8
0
100
AcDbMText
 62
2
  6
CONTINUOUS
  7
STANDARD
 71
1
 72
1
 10
122.0867312061
 20
3.040972363
 30
0.0
 11
1.0
 21
0.0
 31
0.0
 44
0.9
  1
5
 40
1.3020833333
 41
1.3950892857
  0
MTEXT
  5
2C5
100
AcDbEntity
  8
0
100
AcDbMText
 62
2
  6
CONTINUOUS
  7
STANDARD
 71
1
 72
1
 10
155.9408978728
 20
3.040972363
 30
0.0
 11
1.0
 21
0.0
 31
0.0
 44
0.9
  1
4
 40
1.3020833333
 41
1.5345982143
  0
MTEXT
  5
2C6
100
AcDbEntity
  8
0
100
AcDbMText
 62
2
  6
CONTINUOUS
  7
STANDARD
 71
1
 72
1
 10
189.7950645394
 20
3.040972363
 30
0.0
 11
1.0
 21
0.0
 31
0.0
 44
0.9
  1
3
 40
1.3020833333
 41
1.3950892857
  0
MTEXT
  5
2C7
100
AcDbEntity
  8
0
100
AcDbMText
 62
2
  6
CONTINUOUS
  7
STANDARD
 71
1
 72
1
 10
223.6492312061
 20
3.040972363
 30
0.0
 11
1.0
 21
0.0
 31
0.0
 44
0.9
  1
2
 40
1.3020833333
 41
1.5345982143
  0
MTEXT
  5
2C8
100
AcDbEntity
  8
0
100
AcDbMText
 62
2
  6
CONTINUOUS
  7
STANDARD
 71
1
 72
1
 10
257.5033978728
 20
3.040972363
 30
0.0
 11
1.0
 21
0.0
 31
0.0
 44
0.9
  1
1
 40
1.3020833333
 41
1.1160714286
  0
MTEXT
  5
2C9
100
AcDbEntity
  8
0
100
AcDbMText
 62
2
  6
CONTINUOUS
  7
STANDARD
 71
1
 72
1
 10
20.5242312061
 20
182.2076390296
 30
0.0
 11
1.0
 21
0.0
 31
0.0
 44
0.9
  1
8
 40
1.3020833333
 41
1.9066220238
  0
MTEXT
  5
2CA
100
AcDbEntity
  8
0
100
AcDbMText
 62
2
  6
CONTINUOUS
  7
STANDARD
 71
1
 72
1
 10
54.3783978728
 20
182.2076390296
 30
0.0
 11
1.0
 21
0.0
 31
0.0
 44
0.9
  1
7
 40
1.3020833333
 41
1.5345982143
  0
MTEXT
  5
2CB
100
AcDbEntity
  8
0
100
AcDbMText
 62
2
  6
CONTINUOUS
  7
STANDARD
 71
1
 72
1
 10
88.2325645394
 20
182.2076390296
 30
0.0
 11
1.0
 21
0.0
 31
0.0
 44
0.9
  1
6
 40
1.3020833333
 41
1.5345982143
  0
MTEXT
  5
2CC
100
AcDbEntity
  8
0
100
AcDbMText
 62
2
  6
CONTINUOUS
  7
STANDARD
 71
1
 72
1
 10
122.0867312061
 20
182.2076390296
 30
0.0
 11
1.0
 21
0.0
 31
0.0
 44
0.9
  1
5
 40
1.3020833333
 41
1.3950892857
  0
MTEXT
  5
2CD
100
AcDbEntity
  8
0
100
AcDbMText
 62
2
  6
CONTINUOUS
  7
STANDARD
 71
1
 72
1
 10
155.9408978728
 20
182.2076390296
 30
0.0
 11
1.0
 21
0.0
 31
0.0
 44
0.9
  1
4
 40
1.3020833333
 41
1.5345982143
  0
MTEXT
  5
2CE
100
AcDbEntity
  8
0
100
AcDbMText
 62
2
  6
CONTINUOUS
  7
STANDARD
 71
1
 72
1
 10
189.7950645394
 20
182.2076390296
 30
0.0
 11
1.0
 21
0.0
 31
0.0
 44
0.9
  1
3
 40
1.3020833333
 41
1.3950892857
  0
MTEXT
  5
2CF
100
AcDbEntity
  8
0
100
AcDbMText
 62
2
  6
CONTINUOUS
  7
STANDARD
 71
1
 72
1
 10
223.6492312061
 20
182.2076390296
 30
0.0
 11
1.0
 21
0.0
 31
0.0
 44
0.9
  1
2
 40
1.3020833333
 41
1.5345982143
  0
MTEXT
  5
2D0
100
AcDbEntity
  8
0
100
AcDbMText
 62
2
  6
CONTINUOUS
  7
STANDARD
 71
1
 72
1
 10
257.5033978728
 20
182.2076390296
 30
0.0
 11
1.0
 21
0.0
 31
0.0
 44
0.9
  1
1
 40
1.3020833333
 41
1.1160714286
  0
MTEXT
  5
2D1
100
AcDbEntity
  8
0
100
AcDbMText
 62
2
  6
CONTINUOUS
  7
STANDARD
 71
1
 72
1
 10
1.6518275773
 20
26.8290829103
 30
0.0
 11
1.0
 21
0.0
 31
0.0
 44
0.9
  1
A
 40
1.3020833333
 41
1.6741071429
  0
MTEXT
  5
2D2
100
AcDbEntity
  8
0
100
AcDbMText
 62
2
  6
CONTINUOUS
  7
STANDARD
 71
1
 72
1
 10
1.6518275773
 20
70.5790829103
 30
0.0
 11
1.0
 21
0.0
 31
0.0
 44
0.9
  1
B
 40
1.3020833333
 41
1.5345982143
  0
MTEXT
  5
2D3
100
AcDbEntity
  8
0
100
AcDbMText
 62
2
  6
CONTINUOUS
  7
STANDARD
 71
1
 72
1
 10
1.6518275773
 20
114.3290829103
 30
0.0
 11
1.0
 21
0.0
 31
0.0
 44
0.9
  1
C
 40
1.3020833333
 41
1.6276041667
  0
MTEXT
  5
2D4
100
AcDbEntity
  8
0
100
AcDbMText
 62
2
  6
CONTINUOUS
  7
STANDARD
 71
1
 72
1
 10
1.6518275773
 20
158.0790829103
 30
0.0
 11
1.0
 21
0.0
 31
0.0
 44
0.9
  1
D
 40
1.3020833333
 41
1.7671130952
  0
MTEXT
  5
2D5
100
AcDbEntity
  8
0
100
AcDbMText
 62
2
  6
CONTINUOUS
  7
STANDARD
 71
1
 72
1
 10
276.6518275773
 20
26.8290829103
 30
0.0
 11
1.0
 21
0.0
 31
0.0
 44
0.9
  1
A
 40
1.3020833333
 41
1.6741071429
  0
MTEXT
  5
2D6
100
AcDbEntity
  8
0
100
AcDbMText
 62
2
  6
CONTINUOUS
  7
STANDARD
 71
1
 72
1
 10
276.6518275773
 20
70.5790829103
 30
0.0
 11
1.0
 21
0.0
 31
0.0
 44
0.9
  1
B
 40
1.3020833333
 41
1.5345982143
  0
MTEXT
  5
2D7
100
AcDbEntity
  8
0
100
AcDbMText
 62
2
  6
CONTINUOUS
  7
STANDARD
 71
1
 72
1
 10
276.6518275773
 20
114.3290829103
 30
0.0
 11
1.0
 21
0.0
 31
0.0
 44
0.9
  1
C
 40
1.3020833333
 41
1.6276041667
  0
MTEXT
  5
2D8
100
AcDbEntity
  8
0
100
AcDbMText
 62
2
  6
CONTINUOUS
  7
STANDARD
 71
1
 72
1
 10
276.6518275773
 20
158.0790829103
 30
0.0
 11
1.0
 21
0.0
 31
0.0
 44
0.9
  1
D
 40
1.3020833333
 41
1.7671130952
  0
MTEXT
  5
2D9
100
AcDbEntity
  8
0
100
AcDbMText
 62
5
  6
CONTINUOUS
  7
STANDARD
 71
1
 72
1
 10
4.7190800883
 20
178.8015176282
 30
0.0
 11
1.0
 21
0.0
 31
0.0
 44
0.9
  1
THIS DOCUMENT CONTAINS PROPRIETARY INFORMATION\PWHICH IS THE PROPERTY OF QSC, LLC, THAT MAY NOT BE\PDISCLOSED, REPRODUCED OR USED WITHOUT EXPRESS\PWRITTEN CONSENT FROM QSC, LLC.
 40
0.625
 41
37.03125
  0
MTEXT
  5
2DA
100
AcDbEntity
  8
0
100
AcDbMText
 62
2
  6
CONTINUOUS
  7
STANDARD
 71
2
 72
1
 10
202.0776175448
 20
24.8188122108
 30
0.0
 11
1.0
 21
0.0
 31
0.0
 44
0.9
  1
UNLESS OTHERWISE SPECIFIED\PDIMENSIONS IN MILLIMETERS [IN]
 40
0.8333333333
 41
27.380952381
  0
MTEXT
  5
2DB
100
AcDbEntity
  8
0
100
AcDbMText
 62
2
  6
CONTINUOUS
  7
STANDARD
 71
2
 72
1
 10
201.9578939931
 20
21.5998791551
 30
0.0
 11
1.0
 21
0.0
 31
0.0
 44
0.9
  1
TOLERANCES ARE:
 40
0.75
 41
12.8839285714
  0
MTEXT
  5
2DC
100
AcDbEntity
  8
0
100
AcDbMText
 62
2
  6
CONTINUOUS
  7
STANDARD
 71
2
 72
1
 10
195.8273053405
 20
19.6975464395
 30
0.0
 11
1.0
 21
0.0
 31
0.0
 44
0.9
  1
DECIMALS\P.X\Fgdt;{\Fgdt;`}\Ftxt;.5[.02]
 40
0.75
 41
7.7410714286
  0
MTEXT
  5
2DD
100
AcDbEntity
  8
0
100
AcDbMText
 62
2
  6
CONTINUOUS
  7
STANDARD
 71
2
 72
1
 10
203.125
 20
19.6458333333
 30
0.0
 11
1.0
 21
0.0
 31
0.0
 44
0.9
  1
DECIMALS\P.XX\Fgdt;{\Fgdt;`}\Ftxt;.25[.010]
 40
0.75
 41
10.2321428571
  0
MTEXT
  5
2DE
100
AcDbEntity
  8
0
100
AcDbMText
 62
2
  6
CONTINUOUS
  7
STANDARD
 71
2
 72
1
 10
209.4108082865
 20
19.6875057886
 30
0.0
 11
1.0
 21
0.0
 31
0.0
 44
0.9
  1
ANGLES\P\Fgdt;{\Fgdt;`}\Ftxt; 1/2
 40
0.75
 41
5.3571428571
  0
MTEXT
  5
2DF
100
AcDbEntity
  8
0
100
AcDbMText
 62
2
  6
CONTINUOUS
  7
STANDARD
 71
2
 72
1
 10
202.0833333333
 20
16.5208333333
 30
0.0
 11
1.0
 21
0.0
 31
0.0
 44
0.9
  1
DEBURR EDGES .25 [.010] R MAX
 40
0.75
 41
24.5089285714
  0
MTEXT
  5
2E0
100
AcDbEntity
  8
0
100
AcDbMText
 62
2
  6
CONTINUOUS
  7
STANDARD
 71
2
 72
1
 10
195.49103734
 20
14.0518326464
 30
0.0
 11
1.0
 21
0.0
 31
0.0
 44
0.9
  1
MATERIAL
 40
0.75
 41
7.2053571429
  0
MTEXT
  5
2E1
100
AcDbEntity
  8
0
100
AcDbMText
 62
2
  6
CONTINUOUS
  7
STANDARD
 71
2
 72
1
 10
194.6928309669
 20
8.9762218912
 30
0.0
 11
1.0
 21
0.0
 31
0.0
 44
0.9
  1
FINISH
 40
0.75
 41
5.1160714286
  0
MTEXT
  5
2E2
100
AcDbEntity
  8
0
100
AcDbMText
 62
2
  6
CONTINUOUS
  7
STANDARD
 71
2
 72
1
 10
252.24826929
 20
5.6741880145
 30
0.0
 11
1.0
 21
0.0
 31
0.0
 44
0.9
  1
DO NOT SCALE DRAWING
 40
1.0416666667
 41
25.9672619048
  0
MTEXT
  5
2E3
100
AcDbEntity
  8
0
100
AcDbMText
 62
2
  6
CONTINUOUS
  7
STANDARD
 71
2
 72
1
 10
214.3419720356
 20
25.0744676512
 30
0.0
 11
1.0
 21
0.0
 31
0.0
 44
0.9
  1
DESIGNER
 40
0.75
 41
7.0982142857
  0
MTEXT
  5
2E4
100
AcDbEntity
  8
0
100
AcDbMText
 62
2
  6
CONTINUOUS
  7
STANDARD
 71
2
 72
1
 10
214.0486774927
 20
20.8049998782
 30
0.0
 11
1.0
 21
0.0
 31
0.0
 44
0.9
  1
ENGINEER
 40
0.75
 41
6.8839285714
  0
MTEXT
  5
2E5
100
AcDbEntity
  8
0
100
AcDbMText
 62
2
  6
CONTINUOUS
  7
STANDARD
 71
2
 72
1
 10
217.2486898092
 20
16.4552094114
 30
0.0
 11
1.0
 21
0.0
 31
0.0
 44
0.9
  1
TECHNICAL DIRECTOR
 40
0.75
 41
16.0178571429
  0
MTEXT
  5
2E6
100
AcDbEntity
  8
0
100
AcDbMText
 62
2
  6
CONTINUOUS
  7
STANDARD
 71
2
 72
1
 10
218.3596773248
 20
12.1025993981
 30
0.0
 11
1.0
 21
0.0
 31
0.0
 44
0.9
  1
MANUFACTURING ENGINEER
 40
0.75
 41
19.3928571429
  0
MTEXT
  5
2E7
100
AcDbEntity
  8
0
100
AcDbMText
 62
2
  6
CONTINUOUS
  7
STANDARD
 71
2
 72
1
 10
216.3043625031
 20
5.6333539071
 30
0.0
 11
1.0
 21
0.0
 31
0.0
 44
0.9
  1
MODEL INFO:
 40
0.75
 41
9.1875
  0
MTEXT
  5
2E8
100
AcDbEntity
  8
0
100
AcDbMText
 62
2
  6
CONTINUOUS
  7
STANDARD
 71
2
 72
1
 10
215.5320907774
 20
7.6530086792
 30
0.0
 11
1.0
 21
0.0
 31
0.0
 44
0.9
  1
DRAWING INFO:
 40
0.75
 41
11.6785714286
  0
MTEXT
  5
2E9
100
AcDbEntity
  8
0
100
AcDbMText
 62
2
  6
CONTINUOUS
  7
STANDARD
 71
2
 72
1
 10
235.3280381782
 20
5.5585027519
 30
0.0
 11
1.0
 21
0.0
 31
0.0
 44
0.9
  1
SCALE:
 40
0.75
 41
4.9285714286
  0
MTEXT
  5
2EA
100
AcDbEntity
  8
0
100
AcDbMText
 62
2
  6
CONTINUOUS
  7
STANDARD
 71
2
 72
1
 10
263.4686894524
 20
5.5723407209
 30
0.0
 11
1.0
 21
0.0
 31
0.0
 44
0.9
  1
SHEET
 40
0.75
 41
4.5535714286
  0
MTEXT
  5
2EB
100
AcDbEntity
  8
0
100
AcDbMText
 62
2
  6
CONTINUOUS
  7
STANDARD
 71
2
 72
1
 10
235.3498287565
 20
10.086080561
 30
0.0
 11
1.0
 21
0.0
 31
0.0
 44
0.9
  1
SIZE
 40
0.75
 41
3.5089285714
  0
MTEXT
  5
2EC
100
AcDbEntity
  8
0
100
AcDbMText
 62
2
  6
CONTINUOUS
  7
STANDARD
 71
2
 72
1
 10
241.5308134056
 20
10.0951370259
 30
0.0
 11
1.0
 21
0.0
 31
0.0
 44
0.9
  1
CAGE CODE
 40
0.75
 41
8.3303571429
  0
MTEXT
  5
2ED
100
AcDbEntity
  8
0
100
AcDbMText
 62
2
  6
CONTINUOUS
  7
STANDARD
 71
2
 72
1
 10
249.5079145669
 20
10.0777747143
 30
0.0
 11
1.0
 21
0.0
 31
0.0
 44
0.9
  1
DRAWING NO.
 40
0.75
 41
10.3928571429
  0
MTEXT
  5
2EE
100
AcDbEntity
  8
0
100
AcDbMText
 62
2
  6
CONTINUOUS
  7
STANDARD
 71
2
 72
1
 10
273.017772162
 20
10.0889492224
 30
0.0
 11
1.0
 21
0.0
 31
0.0
 44
0.9
  1
REV
 40
0.75
 41
2.8392857143
  0
MTEXT
  5
2EF
100
AcDbEntity
  8
0
100
AcDbMText
 62
2
  6
CONTINUOUS
  7
STANDARD
 71
2
 72
1
 10
253.4761791705
 20
24.9459816888
 30
0.0
 11
1.0
 21
0.0
 31
0.0
 44
0.9
  1
QSC, LLC
 40
1.3020833333
 41
11.9977678571
  0
MTEXT
  5
2F0
100
AcDbEntity
  8
0
100
AcDbMText
 62
2
  6
CONTINUOUS
  7
STANDARD
 71
1
 72
1
 10
249.267770115
 20
22.9524180324
 30
0.0
 11
1.0
 21
0.0
 31
0.0
 44
0.9
  1
1675 MACARTHUR BOULEVARD\PCOSTA MESA, CA  92626
 40
1.0416666667
 41
29.8735119048
  0
MTEXT
  5
2F1
100
AcDbEntity
  8
0
100
AcDbMText
 62
2
  6
CONTINUOUS
  7
STANDARD
 71
1
 72
1
 10
238.5842374076
 20
8.3023040981
 30
0.0
 11
1.0
 21
0.0
 31
0.0
 44
0.9
  1
00PW4
 40
1.3020833333
 41
9.1610863095
  0
INSERT
  5
2F2
100
AcDbEntity
  8
0
100
AcDbBlockReference
 62
7
  6
CONTINUOUS
  2
RD010411_BL0
 10
240.7401691567
 20
22.5092555431
  0
DIMENSION
  5
2F3
100
AcDbEntity
  8
0
100
AcDbDimension
 62
2
  6
CONTINUOUS
  2
*D0
 10
117.1911025006
 20
129.4532509385
 11
117.1911025006
 21
85.4632570508
 70
160
 71
2
 42
2347.7150857101
  3
DIMSTYLE_1
100
AcDbAlignedDimension
 13
99.3452942556
 23
37.0235231547
 14
100.6452942556
 24
129.4532509385
 50
90.0
100
AcDbRotatedDimension
  0
DIMENSION
  5
2F4
100
AcDbEntity
  8
0
100
AcDbDimension
 62
2
  6
CONTINUOUS
  2
*D1
 10
100.2619609223
 20
135.1403493467
 11
85.8727686966
 21
134.1637868467
 70
160
 71
2
 42
762.0
  3
DIMSTYLE_1
100
AcDbAlignedDimension
 13
70.2619609223
 23
129.3878923639
 14
100.2619609223
 24
129.3878923639
100
AcDbRotatedDimension
  0
DIMENSION
  5
2F5
100
AcDbEntity
  8
0
100
AcDbDimension
 62
2
  6
CONTINUOUS
  2
*D2
 10
110.4436617875
 20
166.6318154762
 11
110.4436617875
 21
156.4087532308
 70
160
 71
2
 42
514.35
  3
DIMSTYLE_1
100
AcDbAlignedDimension
 13
100.6452942556
 23
146.3818154762
 14
100.7202942556
 24
166.6318154762
 50
90.0
100
AcDbRotatedDimension
  0
DIMENSION
  5
2F6
100
AcDbEntity
  8
0
100
AcDbDimension
 62
2
  6
CONTINUOUS
  2
*D3
 10
96.0796591322
 20
172.9199211007
 11
85.3421402302
 21
171.9433586007
 70
160
 71
2
 42
549.5390690651
  3
DIMSTYLE_1
100
AcDbAlignedDimension
 13
74.4442627124
 23
166.9441488095
 14
96.0796591322
 24
166.9441488095
100
AcDbRotatedDimension
  0
DIMENSION
  5
2F7
100
AcDbEntity
  8
0
100
AcDbDimension
 62
2
  6
CONTINUOUS
  2
*D4
 10
200.4285328634
 20
129.4532509385
 11
200.4285328634
 21
110.1579500526
 70
160
 71
2
 42
1004.5650857101
  3
DIMSTYLE_1
100
AcDbAlignedDimension
 13
181.1991517857
 23
89.9034444145
 14
161.1991517857
 24
129.4532509385
 50
90.0
100
AcDbRotatedDimension
  0
DIMENSION
  5
2F8
100
AcDbEntity
  8
0
100
AcDbDimension
 62
2
  6
CONTINUOUS
  2
*D5
 10
200.4285328634
 20
37.0235231547
 11
200.4285328634
 21
66.230425046
 70
160
 71
2
 42
1343.15
  3
DIMSTYLE_1
100
AcDbAlignedDimension
 13
181.1991517857
 23
89.9034444145
 14
179.3241517857
 24
37.0235231547
 50
270.0
100
AcDbRotatedDimension
  0
DIMENSION
  5
2F9
100
AcDbEntity
  8
0
100
AcDbDimension
 62
2
  6
CONTINUOUS
  2
*D6
 10
189.5816048334
 20
73.0534444145
 11
189.5816048334
 21
62.3344690711
 70
160
 71
2
 42
915.16
  3
DIMSTYLE_1
100
AcDbAlignedDimension
 13
179.3241517857
 23
37.0235231547
 14
176.9991517857
 24
73.0534444145
 50
90.0
100
AcDbRotatedDimension
  0
DIMENSION
  5
2FA
100
AcDbEntity
  8
0
100
AcDbDimension
 62
2
  6
CONTINUOUS
  2
*D7
 10
155.4834129537
 20
73.0534444145
 11
155.4834129537
 21
76.4402641491
 70
160
 71
2
 42
180.34
  3
DIMSTYLE_1
100
AcDbAlignedDimension
 13
171.412485119
 23
80.1534444145
 14
171.412485119
 24
73.0534444145
 50
270.0
100
AcDbRotatedDimension
  0
DIMENSION
  5
2FB
100
AcDbEntity
  8
0
100
AcDbDimension
 62
2
  6
CONTINUOUS
  2
*D8
 10
176.7308184524
 20
33.8803976431
 11
181.4661375931
 21
32.9038351431
 70
160
 71
1
 42
128.27
  3
DIMSTYLE_1
100
AcDbAlignedDimension
 13
171.6808184524
 23
72.7851110812
 14
176.7308184524
 24
72.7851110812
100
AcDbRotatedDimension
  0
DIMENSION
  5
2FC
100
AcDbEntity
  8
0
100
AcDbDimension
 62
2
  6
CONTINUOUS
  2
*D9
 10
160.4608184524
 20
33.8803976431
 11
166.2220456072
 21
32.9038351431
 70
160
 71
2
 42
284.988
  3
DIMSTYLE_1
100
AcDbAlignedDimension
 13
171.6808184524
 23
72.7851110812
 14
160.4608184524
 24
38.6311347032
 50
180.0
100
AcDbRotatedDimension
  0
LINE
  5
2FD
100
AcDbEntity
  8
0
100
AcDbLine
 62
2
  6
CONTINUOUS
 10
192.7083333333
 20
14.5833333333
 11
211.4583333333
 21
14.5833333333
  0
LINE
  5
2FE
100
AcDbEntity
  8
0
100
AcDbLine
 62
2
  6
CONTINUOUS
 10
192.7083333333
 20
14.5833333333
 11
192.7083333333
 21
9.375
  0
LINE
  5
2FF
100
AcDbEntity
  8
0
100
AcDbLine
 62
2
  6
CONTINUOUS
 10
192.7083333333
 20
9.375
 11
211.4583333333
 21
9.375
  0
LINE
  5
300
100
AcDbEntity
  8
0
100
AcDbLine
 62
2
  6
CONTINUOUS
 10
211.4583333333
 20
14.5833333333
 11
211.4583333333
 21
9.375
  0
LINE
  5
301
100
AcDbEntity
  8
0
100
AcDbLine
 62
2
  6
CONTINUOUS
 10
192.7083333333
 20
9.375
 11
211.4583333333
 21
9.375
  0
LINE
  5
302
100
AcDbEntity
  8
0
100
AcDbLine
 62
2
  6
CONTINUOUS
 10
192.7083333333
 20
9.375
 11
192.7083333333
 21
4.1666666667
  0
LINE
  5
303
100
AcDbEntity
  8
0
100
AcDbLine
 62
2
  6
CONTINUOUS
 10
192.7083333333
 20
4.1666666667
 11
211.4583333333
 21
4.1666666667
  0
LINE
  5
304
100
AcDbEntity
  8
0
100
AcDbLine
 62
2
  6
CONTINUOUS
 10
211.4583333333
 20
9.375
 11
211.4583333333
 21
4.1666666667
  0
LINE
  5
305
100
AcDbEntity
  8
0
100
AcDbLine
 62
2
  6
CONTINUOUS
 10
211.4559248804
 20
25.5145534538
 11
233.3309248804
 21
25.5145534538
  0
LINE
  5
306
100
AcDbEntity
  8
0
100
AcDbLine
 62
2
  6
CONTINUOUS
 10
211.4559248804
 20
25.5145534538
 11
211.4559248804
 21
21.2645534538
  0
LINE
  5
307
100
AcDbEntity
  8
0
100
AcDbLine
 62
2
  6
CONTINUOUS
 10
211.4559248804
 20
21.2645534538
 11
233.3309248804
 21
21.2645534538
  0
LINE
  5
308
100
AcDbEntity
  8
0
100
AcDbLine
 62
2
  6
CONTINUOUS
 10
233.3309248804
 20
25.5145534538
 11
233.3309248804
 21
21.2645534538
  0
MTEXT
  5
309
100
AcDbEntity
  8
0
100
AcDbMText
 62
2
  6
CONTINUOUS
  7
STANDARD
 71
1
 72
1
 10
211.9767582137
 20
23.2176784538
 30
0.0
 11
1.0
 21
0.0
 31
0.0
 44
0.9
  1
ENGINEERING SERVICES
 40
1.3020833333
 41
29.7154017857
  0
LINE
  5
30A
100
AcDbEntity
  8
0
100
AcDbLine
 62
2
  6
CONTINUOUS
 10
211.4583333333
 20
21.2178044868
 11
233.3333333333
 21
21.2178044868
  0
LINE
  5
30B
100
AcDbEntity
  8
0
100
AcDbLine
 62
2
  6
CONTINUOUS
 10
211.4583333333
 20
21.2178044868
 11
211.4583333333
 21
16.9678044868
  0
LINE
  5
30C
100
AcDbEntity
  8
0
100
AcDbLine
 62
2
  6
CONTINUOUS
 10
211.4583333333
 20
16.9678044868
 11
233.3333333333
 21
16.9678044868
  0
LINE
  5
30D
100
AcDbEntity
  8
0
100
AcDbLine
 62
2
  6
CONTINUOUS
 10
233.3333333333
 20
21.2178044868
 11
233.3333333333
 21
16.9678044868
  0
LINE
  5
30E
100
AcDbEntity
  8
0
100
AcDbLine
 62
2
  6
CONTINUOUS
 10
211.4583333333
 20
16.8649959296
 11
233.3333333333
 21
16.8649959296
  0
LINE
  5
30F
100
AcDbEntity
  8
0
100
AcDbLine
 62
2
  6
CONTINUOUS
 10
211.4583333333
 20
16.8649959296
 11
211.4583333333
 21
12.6149959296
  0
LINE
  5
310
100
AcDbEntity
  8
0
100
AcDbLine
 62
2
  6
CONTINUOUS
 10
211.4583333333
 20
12.6149959296
 11
233.3333333333
 21
12.6149959296
  0
LINE
  5
311
100
AcDbEntity
  8
0
100
AcDbLine
 62
2
  6
CONTINUOUS
 10
233.3333333333
 20
16.8649959296
 11
233.3333333333
 21
12.6149959296
  0
LINE
  5
312
100
AcDbEntity
  8
0
100
AcDbLine
 62
2
  6
CONTINUOUS
 10
211.4583333333
 20
12.4997133506
 11
233.3333333333
 21
12.4997133506
  0
LINE
  5
313
100
AcDbEntity
  8
0
100
AcDbLine
 62
2
  6
CONTINUOUS
 10
211.4583333333
 20
12.4997133506
 11
211.4583333333
 21
8.2497133506
  0
LINE
  5
314
100
AcDbEntity
  8
0
100
AcDbLine
 62
2
  6
CONTINUOUS
 10
211.4583333333
 20
8.2497133506
 11
233.3333333333
 21
8.2497133506
  0
LINE
  5
315
100
AcDbEntity
  8
0
100
AcDbLine
 62
2
  6
CONTINUOUS
 10
233.3333333333
 20
12.4997133506
 11
233.3333333333
 21
8.2497133506
  0
LINE
  5
316
100
AcDbEntity
  8
0
100
AcDbLine
 62
2
  6
CONTINUOUS
 10
211.4583333333
 20
8.3333333333
 11
233.3333333333
 21
8.3333333333
  0
LINE
  5
317
100
AcDbEntity
  8
0
100
AcDbLine
 62
2
  6
CONTINUOUS
 10
211.4583333333
 20
8.3333333333
 11
211.4583333333
 21
6.25
  0
LINE
  5
318
100
AcDbEntity
  8
0
100
AcDbLine
 62
2
  6
CONTINUOUS
 10
211.4583333333
 20
6.25
 11
233.3333333333
 21
6.25
  0
LINE
  5
319
100
AcDbEntity
  8
0
100
AcDbLine
 62
2
  6
CONTINUOUS
 10
233.3333333333
 20
8.3333333333
 11
233.3333333333
 21
6.25
  0
MTEXT
  5
31A
100
AcDbEntity
  8
0
100
AcDbMText
 62
2
  6
CONTINUOUS
  7
STANDARD
 71
3
 72
1
 10
232.8125
 20
7.8177083333
 30
0.0
 11
1.0
 21
0.0
 31
0.0
 44
0.9
  1
RD-000402-2D. 
 40
0.9166666667
 41
15.2232142857
  0
LINE
  5
31B
100
AcDbEntity
  8
0
100
AcDbLine
 62
2
  6
CONTINUOUS
 10
211.4583333333
 20
6.25
 11
233.3333333333
 21
6.25
  0
LINE
  5
31C
100
AcDbEntity
  8
0
100
AcDbLine
 62
2
  6
CONTINUOUS
 10
211.4583333333
 20
6.25
 11
211.4583333333
 21
4.1666666667
  0
LINE
  5
31D
100
AcDbEntity
  8
0
100
AcDbLine
 62
2
  6
CONTINUOUS
 10
211.4583333333
 20
4.1666666667
 11
233.3333333333
 21
4.1666666667
  0
LINE
  5
31E
100
AcDbEntity
  8
0
100
AcDbLine
 62
2
  6
CONTINUOUS
 10
233.3333333333
 20
6.25
 11
233.3333333333
 21
4.1666666667
  0
MTEXT
  5
31F
100
AcDbEntity
  8
0
100
AcDbMText
 62
2
  6
CONTINUOUS
  7
STANDARD
 71
3
 72
1
 10
232.8125
 20
5.734375
 30
0.0
 11
1.0
 21
0.0
 31
0.0
 44
0.9
  1
RD-000402-3D.1.0
 40
0.9166666667
 41
16.6964285714
  0
LINE
  5
320
100
AcDbEntity
  8
0
100
AcDbLine
 62
2
  6
CONTINUOUS
 10
233.3333333333
 20
19.7916666667
 11
275.0
 21
19.7916666667
  0
LINE
  5
321
100
AcDbEntity
  8
0
100
AcDbLine
 62
2
  6
CONTINUOUS
 10
233.3333333333
 20
19.7916666667
 11
233.3333333333
 21
10.4166666667
  0
LINE
  5
322
100
AcDbEntity
  8
0
100
AcDbLine
 62
2
  6
CONTINUOUS
 10
233.3333333333
 20
10.4166666667
 11
275.0
 21
10.4166666667
  0
LINE
  5
323
100
AcDbEntity
  8
0
100
AcDbLine
 62
2
  6
CONTINUOUS
 10
275.0
 20
19.7916666667
 11
275.0
 21
10.4166666667
  0
MTEXT
  5
324
100
AcDbEntity
  8
0
100
AcDbMText
 62
2
  6
CONTINUOUS
  7
STANDARD
 71
2
 72
1
 10
254.1666666667
 20
21.6041666667
 30
0.0
 11
1.0
 21
0.0
 31
0.0
 44
1.02
  1
 \PSPEAKER, FINISHED, \PSC-433, SC-434\P \P 
 40
1.6666666667
 41
35.2976190476
  0
LINE
  5
325
100
AcDbEntity
  8
0
100
AcDbLine
 62
2
  6
CONTINUOUS
 10
233.3424358578
 20
10.3995038958
 11
237.5091025245
 21
10.3995038958
  0
LINE
  5
326
100
AcDbEntity
  8
0
100
AcDbLine
 62
2
  6
CONTINUOUS
 10
233.3424358578
 20
10.3995038958
 11
233.3424358578
 21
6.2328372291
  0
LINE
  5
327
100
AcDbEntity
  8
0
100
AcDbLine
 62
2
  6
CONTINUOUS
 10
233.3424358578
 20
6.2328372291
 11
237.5091025245
 21
6.2328372291
  0
LINE
  5
328
100
AcDbEntity
  8
0
100
AcDbLine
 62
2
  6
CONTINUOUS
 10
237.5091025245
 20
10.3995038958
 11
237.5091025245
 21
6.2328372291
  0
MTEXT
  5
329
100
AcDbEntity
  8
0
100
AcDbMText
 62
2
  6
CONTINUOUS
  7
STANDARD
 71
2
 72
1
 10
235.4257691912
 20
8.5505455624
 30
0.0
 11
1.0
 21
0.0
 31
0.0
 44
0.9
  1
D
 40
1.6666666667
 41
2.7380952381
  0
LINE
  5
32A
100
AcDbEntity
  8
0
100
AcDbLine
 62
2
  6
CONTINUOUS
 10
245.8376458133
 20
10.3747882427
 11
270.8376458133
 21
10.3747882427
  0
LINE
  5
32B
100
AcDbEntity
  8
0
100
AcDbLine
 62
2
  6
CONTINUOUS
 10
245.8376458133
 20
10.3747882427
 11
245.8376458133
 21
6.208121576
  0
LINE
  5
32C
100
AcDbEntity
  8
0
100
AcDbLine
 62
2
  6
CONTINUOUS
 10
245.8376458133
 20
6.208121576
 11
270.8376458133
 21
6.208121576
  0
LINE
  5
32D
100
AcDbEntity
  8
0
100
AcDbLine
 62
2
  6
CONTINUOUS
 10
270.8376458133
 20
10.3747882427
 11
270.8376458133
 21
6.208121576
  0
MTEXT
  5
32E
100
AcDbEntity
  8
0
100
AcDbMText
 62
2
  6
CONTINUOUS
  7
STANDARD
 71
2
 72
1
 10
258.3376458133
 20
8.7758299093
 30
0.0
 11
1.0
 21
0.0
 31
0.0
 44
0.9
  1
RD-000402-2D
 40
1.9166666667
 41
27.9285714286
  0
LINE
  5
32F
100
AcDbEntity
  8
0
100
AcDbLine
 62
2
  6
CONTINUOUS
 10
270.8224991356
 20
10.4023985218
 11
274.9891658022
 21
10.4023985218
  0
LINE
  5
330
100
AcDbEntity
  8
0
100
AcDbLine
 62
2
  6
CONTINUOUS
 10
270.8224991356
 20
10.4023985218
 11
270.8224991356
 21
6.2357318552
  0
LINE
  5
331
100
AcDbEntity
  8
0
100
AcDbLine
 62
2
  6
CONTINUOUS
 10
270.8224991356
 20
6.2357318552
 11
274.9891658022
 21
6.2357318552
  0
LINE
  5
332
100
AcDbEntity
  8
0
100
AcDbLine
 62
2
  6
CONTINUOUS
 10
274.9891658022
 20
10.4023985218
 11
274.9891658022
 21
6.2357318552
  0
MTEXT
  5
333
100
AcDbEntity
  8
0
100
AcDbMText
 62
2
  6
CONTINUOUS
  7
STANDARD
 71
2
 72
1
 10
272.9058324689
 20
8.3867735218
 30
0.0
 11
1.0
 21
0.0
 31
0.0
 44
0.9
  1
 1 
 40
1.5
 41
5.25
  0
LINE
  5
334
100
AcDbEntity
  8
0
100
AcDbLine
 62
2
  6
CONTINUOUS
 10
261.4635051614
 20
6.1910740302
 11
275.0051718281
 21
6.1910740302
  0
LINE
  5
335
100
AcDbEntity
  8
0
100
AcDbLine
 62
2
  6
CONTINUOUS
 10
261.4635051614
 20
6.1910740302
 11
261.4635051614
 21
4.1077406969
  0
LINE
  5
336
100
AcDbEntity
  8
0
100
AcDbLine
 62
2
  6
CONTINUOUS
 10
261.4635051614
 20
4.1077406969
 11
275.0051718281
 21
4.1077406969
  0
LINE
  5
337
100
AcDbEntity
  8
0
100
AcDbLine
 62
2
  6
CONTINUOUS
 10
275.0051718281
 20
6.1910740302
 11
275.0051718281
 21
4.1077406969
  0
MTEXT
  5
338
100
AcDbEntity
  8
0
100
AcDbMText
 62
2
  6
CONTINUOUS
  7
STANDARD
 71
3
 72
1
 10
274.4843384948
 20
5.9254490302
 30
0.0
 11
1.0
 21
0.0
 31
0.0
 44
0.9
  1
1 OF 1
 40
1.1666666667
 41
7.7083333333
  0
LINE
  5
339
100
AcDbEntity
  8
0
100
AcDbLine
 62
2
  6
CONTINUOUS
 10
233.3188317675
 20
6.2401934742
 11
243.2188317675
 21
6.2401934742
  0
LINE
  5
33A
100
AcDbEntity
  8
0
100
AcDbLine
 62
2
  6
CONTINUOUS
 10
233.3188317675
 20
6.2401934742
 11
233.3188317675
 21
4.1243080576
  0
LINE
  5
33B
100
AcDbEntity
  8
0
100
AcDbLine
 62
2
  6
CONTINUOUS
 10
233.3188317675
 20
4.1243080576
 11
243.2188317675
 21
4.1243080576
  0
LINE
  5
33C
100
AcDbEntity
  8
0
100
AcDbLine
 62
2
  6
CONTINUOUS
 10
243.2188317675
 20
6.2401934742
 11
243.2188317675
 21
4.1243080576
  0
MTEXT
  5
33D
100
AcDbEntity
  8
0
100
AcDbMText
 62
2
  6
CONTINUOUS
  7
STANDARD
 71
3
 72
1
 10
242.6979984342
 20
5.7753497242
 30
0.0
 11
1.0
 21
0.0
 31
0.0
 44
0.9
  1
0.120
 40
1.0
 41
5.5357142857
  0
LWPOLYLINE
  5
33E
100
AcDbEntity
  8
0
100
AcDbPolyline
 62
2
  6
CONTINUOUS
 90
2
 70
0
 43
0.1666666667
 10
274.9895739804
 20
179.083775457
 10
190.9687406471
 20
179.083775457
  0
LWPOLYLINE
  5
33F
100
AcDbEntity
  8
0
100
AcDbPolyline
 62
2
  6
CONTINUOUS
 90
2
 70
0
 43
0.1666666667
 10
274.9062406471
 20
179.083775457
 10
274.9062406471
 20
166.0629421237
  0
LWPOLYLINE
  5
340
100
AcDbEntity
  8
0
100
AcDbPolyline
 62
2
  6
CONTINUOUS
 90
2
 70
0
 43
0.1666666667
 10
274.9062406471
 20
176.4796087904
 10
191.0520739804
 20
176.4796087904
  0
LWPOLYLINE
  5
341
100
AcDbEntity
  8
0
100
AcDbPolyline
 62
2
  6
CONTINUOUS
 90
2
 70
0
 43
0.1666666667
 10
274.9062406471
 20
173.8754421237
 10
191.0520739804
 20
173.8754421237
  0
LWPOLYLINE
  5
342
100
AcDbEntity
  8
0
100
AcDbPolyline
 62
2
  6
CONTINUOUS
 90
2
 70
0
 43
0.1666666667
 10
274.9062406471
 20
171.271275457
 10
191.0520739804
 20
171.271275457
  0
LWPOLYLINE
  5
343
100
AcDbEntity
  8
0
100
AcDbPolyline
 62
2
  6
CONTINUOUS
 90
2
 70
0
 43
0.1666666667
 10
274.9062406471
 20
168.6671087904
 10
191.0520739804
 20
168.6671087904
  0
LWPOLYLINE
  5
344
100
AcDbEntity
  8
0
100
AcDbPolyline
 62
2
  6
CONTINUOUS
 90
2
 70
0
 43
0.1666666667
 10
274.9895739804
 20
166.0629421237
 10
190.9687406471
 20
166.0629421237
  0
LWPOLYLINE
  5
345
100
AcDbEntity
  8
0
100
AcDbPolyline
 62
2
  6
CONTINUOUS
 90
2
 70
0
 43
0.1666666667
 10
264.4895739804
 20
176.4796087904
 10
264.4895739804
 20
166.0629421237
  0
LWPOLYLINE
  5
346
100
AcDbEntity
  8
0
100
AcDbPolyline
 62
2
  6
CONTINUOUS
 90
2
 70
0
 43
0.1666666667
 10
260.3229073138
 20
176.4796087904
 10
260.3229073138
 20
166.0629421237
  0
LWPOLYLINE
  5
347
100
AcDbEntity
  8
0
100
AcDbPolyline
 62
2
  6
CONTINUOUS
 90
2
 70
0
 43
0.1666666667
 10
195.2187406471
 20
176.4796087904
 10
195.2187406471
 20
166.0629421237
  0
LWPOLYLINE
  5
348
100
AcDbEntity
  8
0
100
AcDbPolyline
 62
2
  6
CONTINUOUS
 90
2
 70
0
 43
0.1666666667
 10
191.0520739804
 20
179.083775457
 10
191.0520739804
 20
166.0629421237
  0
MTEXT
  5
349
100
AcDbEntity
  8
0
100
AcDbMText
 62
2
  6
CONTINUOUS
  7
STANDARD
 71
2
 72
1
 10
232.9791573138
 20
178.4327337904
 30
0.0
 11
1.0
 21
0.0
 31
0.0
 44
0.9
  1
REVISIONS
 40
1.3020833333
 41
13.5788690476
  0
MTEXT
  5
34A
100
AcDbEntity
  8
0
100
AcDbMText
 62
2
  6
CONTINUOUS
  7
STANDARD
 71
2
 72
1
 10
269.6979073138
 20
175.8285671237
 30
0.0
 11
1.0
 21
0.0
 31
0.0
 44
0.9
  1
 DATE 
 40
1.3020833333
 41
9.9516369048
  0
MTEXT
  5
34B
100
AcDbEntity
  8
0
100
AcDbMText
 62
2
  6
CONTINUOUS
  7
STANDARD
 71
2
 72
1
 10
262.4062406471
 20
175.8285671237
 30
0.0
 11
1.0
 21
0.0
 31
0.0
 44
0.9
  1
BY
 40
1.3020833333
 41
3.5807291667
  0
MTEXT
  5
34C
100
AcDbEntity
  8
0
100
AcDbMText
 62
2
  6
CONTINUOUS
  7
STANDARD
 71
2
 72
1
 10
227.7708239804
 20
175.8285671237
 30
0.0
 11
1.0
 21
0.0
 31
0.0
 44
0.9
  1
DESCRIPTION
 40
1.3020833333
 41
17.0200892857
  0
MTEXT
  5
34D
100
AcDbEntity
  8
0
100
AcDbMText
 62
2
  6
CONTINUOUS
  7
STANDARD
 71
2
 72
1
 10
193.1354073138
 20
175.8285671237
 30
0.0
 11
1.0
 21
0.0
 31
0.0
 44
0.9
  1
REV
 40
1.3020833333
 41
4.9293154762
  0
MTEXT
  5
34E
100
AcDbEntity
  8
0
100
AcDbMText
 62
2
  6
CONTINUOUS
  7
STANDARD
 71
2
 72
1
 10
269.6979073138
 20
173.224400457
 30
0.0
 11
1.0
 21
0.0
 31
0.0
 44
0.9
  1
3-OCT-16
 40
1.3020833333
 41
12.0442708333
  0
MTEXT
  5
34F
100
AcDbEntity
  8
0
100
AcDbMText
 62
2
  6
CONTINUOUS
  7
STANDARD
 71
2
 72
1
 10
262.4062406471
 20
173.224400457
 30
0.0
 11
1.0
 21
0.0
 31
0.0
 44
0.9
  1
SS
 40
1.3020833333
 41
3.4412202381
  0
MTEXT
  5
350
100
AcDbEntity
  8
0
100
AcDbMText
 62
2
  6
CONTINUOUS
  7
STANDARD
 71
1
 72
1
 10
195.7395739804
 20
173.224400457
 30
0.0
 11
1.0
 21
0.0
 31
0.0
 44
0.9
  1
RELEASE FOR SALES AND MARKETING
 40
1.3020833333
 41
47.3400297619
  0
MTEXT
  5
351
100
AcDbEntity
  8
0
100
AcDbMText
 62
2
  6
CONTINUOUS
  7
STANDARD
 71
2
 72
1
 10
193.1354073138
 20
173.224400457
 30
0.0
 11
1.0
 21
0.0
 31
0.0
 44
0.9
  1
A
 40
1.3020833333
 41
2.0461309524
  0
MTEXT
  5
352
100
AcDbEntity
  8
0
100
AcDbMText
 62
2
  6
CONTINUOUS
  7
STANDARD
 71
1
 72
1
 10
80.8649827381
 20
32.3099059524
 30
0.0
 11
1.0
 21
0.0
 31
0.0
 44
0.9
  1
FRONT
 40
2.5
 41
15.4464285714
  0
MTEXT
  5
353
100
AcDbEntity
  8
0
100
AcDbMText
 62
2
  6
CONTINUOUS
  7
STANDARD
 71
1
 72
1
 10
165.7305272771
 20
27.3952215276
 30
0.0
 11
1.0
 21
0.0
 31
0.0
 44
0.9
  1
RIGHT
 40
2.5
 41
15.1785714286
  0
MTEXT
  5
354
100
AcDbEntity
  8
0
100
AcDbMText
 62
2
  6
CONTINUOUS
  7
STANDARD
 71
1
 72
1
 10
8.2769789914
 20
18.4717740276
 30
0.0
 11
1.0
 21
0.0
 31
0.0
 44
0.9
  1
  \P 3. DIMENSIONS ARE IN MILLIMETERS [INCH].\P 2. TOLERANCES (MM): X\Fgdt;{\Fgdt;`}\Ftxt; 3, ANGLES: \Fgdt;{\Fgdt;`}\Ftxt;1\Fgdt;{\Fgdt;~}\Ftxt;. \P 1. NET WEIGHT APPROX. 345 LBS (157 KG)\P \PNOTE: UNLESS OTHERWISE SPECIFIED
 40
1.3020833333
 41
58.7797619048
  0
MTEXT
  5
355
100
AcDbEntity
  8
0
100
AcDbMText
 62
2
  6
CONTINUOUS
  7
STANDARD
 71
1
 72
1
 10
82.4713283918
 20
143.3569480514
 30
0.0
 11
1.0
 21
0.0
 31
0.0
 44
0.9
  1
TOP
 40
2.5
 41
9.8214285714
  0
LINE
  5
356
100
AcDbEntity
  8
DEFAULT_3
100
AcDbLine
 62
7
  6
PHANTOM
 10
0.0
 20
-0.0
 11
0.0
 21
183.3333333333
  0
LWPOLYLINE
  5
357
100
AcDbEntity
  8
0
100
AcDbPolyline
 62
7
  6
CONTINUOUS
 90
2
 70
0
 43
0.1666666736
 10
2.187189351
 20
90.2612092555
 10
2.187189351
 20
93.0721240778
  0
LWPOLYLINE
  5
358
100
AcDbEntity
  8
0
100
AcDbPolyline
 62
7
  6
CONTINUOUS
 90
2
 70
0
 43
0.250000002
 10
4.1666666667
 20
179.1666666667
 10
4.1666666667
 20
4.1666666667
  0
LWPOLYLINE
  5
359
100
AcDbEntity
  8
0
100
AcDbPolyline
 62
7
  6
CONTINUOUS
 90
2
 70
0
 43
0.250000002
 10
29.6875
 20
179.1666666667
 10
29.6875
 20
175.0
  0
LWPOLYLINE
  5
35A
100
AcDbEntity
  8
0
100
AcDbPolyline
 62
7
  6
CONTINUOUS
 90
2
 70
0
 43
0.1666666736
 10
38.0208333333
 20
4.1666666667
 10
38.0208333333
 20
-0.0
  0
LWPOLYLINE
  5
35B
100
AcDbEntity
  8
0
100
AcDbPolyline
 62
7
  6
CONTINUOUS
 90
2
 70
0
 43
0.1666666736
 10
38.0208333333
 20
179.1666666667
 10
38.0208333333
 20
183.3333333333
  0
LINE
  5
35C
100
AcDbEntity
  8
0
100
AcDbLine
 62
7
  6
CONTINUOUS
 10
192.8292113458
 20
4.3379341716
 11
211.4069188557
 21
9.3951989937
  0
LINE
  5
35D
100
AcDbEntity
  8
0
100
AcDbLine
 62
7
  6
CONTINUOUS
 10
192.6227923735
 20
9.601617966
 11
211.2004998833
 21
14.6588827882
  0
LINE
  5
35E
100
AcDbEntity
  8
DEFAULT_3
100
AcDbLine
 62
7
  6
PHANTOM
 10
0.0
 20
-0.0
 11
283.3333333333
 21
-0.0
  0
LWPOLYLINE
  5
35F
100
AcDbEntity
  8
0
100
AcDbPolyline
 62
7
  6
CONTINUOUS
 90
2
 70
0
 43
0.1666666736
 10
138.1778759222
 20
2.187189351
 10
140.9887907445
 20
2.187189351
  0
LWPOLYLINE
  5
360
100
AcDbEntity
  8
0
100
AcDbPolyline
 62
7
  6
CONTINUOUS
 90
2
 70
0
 43
0.1666666736
 10
4.1666666667
 20
91.6666666667
 10
2.187189351
 20
90.2612092555
  0
LWPOLYLINE
  5
361
100
AcDbEntity
  8
0
100
AcDbPolyline
 62
7
  6
CONTINUOUS
 90
2
 70
0
 43
0.250000002
 10
4.1666666667
 20
4.1666666667
 10
275.0
 20
4.1666666667
  0
LWPOLYLINE
  5
362
100
AcDbEntity
  8
0
100
AcDbPolyline
 62
7
  6
CONTINUOUS
 90
2
 70
0
 43
0.1666666736
 10
211.4583333333
 20
6.25
 10
275.0
 20
6.25
  0
LWPOLYLINE
  5
363
100
AcDbEntity
  8
0
100
AcDbPolyline
 62
7
  6
CONTINUOUS
 90
2
 70
0
 43
0.1666666736
 10
211.4583333333
 20
8.3333333333
 10
233.3333333333
 20
8.3333333333
  0
LWPOLYLINE
  5
364
100
AcDbEntity
  8
0
100
AcDbPolyline
 62
7
  6
CONTINUOUS
 90
2
 70
0
 43
0.1666666736
 10
211.4583333333
 20
9.375
 10
192.7083333333
 20
9.375
  0
LWPOLYLINE
  5
365
100
AcDbEntity
  8
0
100
AcDbPolyline
 62
7
  6
CONTINUOUS
 90
2
 70
0
 43
0.1666666736
 10
233.3333333333
 20
10.4166666667
 10
275.0
 20
10.4166666667
  0
LWPOLYLINE
  5
366
100
AcDbEntity
  8
0
100
AcDbPolyline
 62
7
  6
CONTINUOUS
 90
2
 70
0
 43
0.1666666736
 10
211.5130784727
 20
12.5977945415
 10
233.3880784727
 20
12.5977945415
  0
LWPOLYLINE
  5
367
100
AcDbEntity
  8
0
100
AcDbPolyline
 62
7
  6
CONTINUOUS
 90
2
 70
0
 43
0.1666666736
 10
4.1666666667
 20
91.6666666667
 10
2.187189351
 20
93.0721240778
  0
LWPOLYLINE
  5
368
100
AcDbEntity
  8
0
100
AcDbPolyline
 62
7
  6
CONTINUOUS
 90
2
 70
0
 43
0.1666666736
 10
71.875
 20
4.1666666667
 10
71.875
 20
-0.0
  0
LWPOLYLINE
  5
369
100
AcDbEntity
  8
0
100
AcDbPolyline
 62
7
  6
CONTINUOUS
 90
2
 70
0
 43
0.1666666736
 10
71.875
 20
179.1666666667
 10
71.875
 20
183.3333333333
  0
LWPOLYLINE
  5
36A
100
AcDbEntity
  8
0
100
AcDbPolyline
 62
7
  6
CONTINUOUS
 90
2
 70
0
 43
0.1666666736
 10
192.7083333333
 20
14.5833333333
 10
211.4583333333
 20
14.5833333333
  0
LWPOLYLINE
  5
36B
100
AcDbEntity
  8
0
100
AcDbPolyline
 62
7
  6
CONTINUOUS
 90
2
 70
0
 43
0.1666666736
 10
211.5245258927
 20
16.8826586286
 10
233.3995258927
 20
16.8826586286
  0
LWPOLYLINE
  5
36C
100
AcDbEntity
  8
0
100
AcDbPolyline
 62
7
  6
CONTINUOUS
 90
2
 70
0
 43
0.1666666736
 10
233.3333333333
 20
19.7916666667
 10
275.0
 20
19.7916666667
  0
LWPOLYLINE
  5
36D
100
AcDbEntity
  8
0
100
AcDbPolyline
 62
7
  6
CONTINUOUS
 90
2
 70
0
 43
0.1666666736
 10
211.4583333333
 20
21.312748571
 10
233.3333333333
 20
21.312748571
  0
LWPOLYLINE
  5
36E
100
AcDbEntity
  8
0
100
AcDbPolyline
 62
7
  6
CONTINUOUS
 90
2
 70
0
 43
0.1666666736
 10
192.7083333333
 20
25.5208333333
 10
275.0
 20
25.5208333333
  0
LWPOLYLINE
  5
36F
100
AcDbEntity
  8
0
100
AcDbPolyline
 62
7
  6
CONTINUOUS
 90
2
 70
0
 43
0.1666666736
 10
139.5833333333
 20
179.1666666667
 10
140.9887907445
 20
181.1461439823
  0
LWPOLYLINE
  5
370
100
AcDbEntity
  8
0
100
AcDbPolyline
 62
7
  6
CONTINUOUS
 90
2
 70
0
 43
0.1666666736
 10
139.5833333333
 20
4.1666666667
 10
140.9887907445
 20
2.187189351
  0
LWPOLYLINE
  5
371
100
AcDbEntity
  8
0
100
AcDbPolyline
 62
7
  6
CONTINUOUS
 90
2
 70
0
 43
0.1666666736
 10
4.1666666667
 20
47.9166666667
 10
0.0
 20
47.9166666667
  0
LWPOLYLINE
  5
372
100
AcDbEntity
  8
0
100
AcDbPolyline
 62
7
  6
CONTINUOUS
 90
2
 70
0
 43
0.1666666736
 10
275.0549487571
 20
47.9236753411
 10
279.2216154237
 20
47.9236753411
  0
LWPOLYLINE
  5
373
100
AcDbEntity
  8
0
100
AcDbPolyline
 62
7
  6
CONTINUOUS
 90
2
 70
0
 43
0.1666666736
 10
105.7291666667
 20
4.1666666667
 10
105.7291666667
 20
-0.0
  0
LWPOLYLINE
  5
374
100
AcDbEntity
  8
0
100
AcDbPolyline
 62
7
  6
CONTINUOUS
 90
2
 70
0
 43
0.1666666736
 10
105.7291666667
 20
179.1666666667
 10
105.7291666667
 20
183.3333333333
  0
LINE
  5
375
100
AcDbEntity
  8
0
100
AcDbLine
 62
7
  6
CONTINUOUS
 10
192.7260018596
 20
25.4958788356
 11
211.2004998833
 21
14.6588827882
  0
LWPOLYLINE
  5
376
100
AcDbEntity
  8
0
100
AcDbPolyline
 62
7
  6
CONTINUOUS
 90
2
 70
0
 43
0.1666666736
 10
139.5833333333
 20
4.1666666667
 10
139.5833333333
 20
-0.0
  0
LWPOLYLINE
  5
377
100
AcDbEntity
  8
0
100
AcDbPolyline
 62
7
  6
CONTINUOUS
 90
2
 70
0
 43
0.1666666736
 10
139.5833333333
 20
179.1666666667
 10
139.5833333333
 20
183.3333333333
  0
LWPOLYLINE
  5
378
100
AcDbEntity
  8
0
100
AcDbPolyline
 62
7
  6
CONTINUOUS
 90
2
 70
0
 43
0.1666666736
 10
4.1666666667
 20
91.6666666667
 10
-0.0
 20
91.6666666667
  0
LWPOLYLINE
  5
379
100
AcDbEntity
  8
0
100
AcDbPolyline
 62
7
  6
CONTINUOUS
 90
2
 70
0
 43
0.1666666736
 10
275.0089945496
 20
91.6779983179
 10
279.1756612163
 20
91.6779983179
  0
LWPOLYLINE
  5
37A
100
AcDbEntity
  8
0
100
AcDbPolyline
 62
7
  6
CONTINUOUS
 90
2
 70
0
 43
0.1666666736
 10
173.4375
 20
4.1666666667
 10
173.4375
 20
-0.0
  0
LWPOLYLINE
  5
37B
100
AcDbEntity
  8
0
100
AcDbPolyline
 62
7
  6
CONTINUOUS
 90
2
 70
0
 43
0.1666666736
 10
173.4375
 20
179.1666666667
 10
173.4375
 20
183.3333333333
  0
LWPOLYLINE
  5
37C
100
AcDbEntity
  8
0
100
AcDbPolyline
 62
7
  6
CONTINUOUS
 90
2
 70
0
 43
0.1666666736
 10
139.5833333333
 20
4.1666666667
 10
138.1778759222
 20
2.187189351
  0
LWPOLYLINE
  5
37D
100
AcDbEntity
  8
0
100
AcDbPolyline
 62
7
  6
CONTINUOUS
 90
2
 70
0
 43
0.1666666736
 10
4.1666666667
 20
135.4166666667
 10
0.0
 20
135.4166666667
  0
LWPOLYLINE
  5
37E
100
AcDbEntity
  8
0
100
AcDbPolyline
 62
7
  6
CONTINUOUS
 90
2
 70
0
 43
0.1666666736
 10
275.0
 20
135.4166666667
 10
279.1666666667
 20
135.4166666667
  0
LWPOLYLINE
  5
37F
100
AcDbEntity
  8
0
100
AcDbPolyline
 62
7
  6
CONTINUOUS
 90
2
 70
0
 43
0.1666666736
 10
139.5833333333
 20
179.1666666667
 10
138.1778759222
 20
181.1461439823
  0
LWPOLYLINE
  5
380
100
AcDbEntity
  8
0
100
AcDbPolyline
 62
7
  6
CONTINUOUS
 90
2
 70
0
 43
0.1666666736
 10
192.7083333333
 20
4.1666666667
 10
192.7083333333
 20
25.5208333333
  0
LWPOLYLINE
  5
381
100
AcDbEntity
  8
0
100
AcDbPolyline
 62
7
  6
CONTINUOUS
 90
2
 70
0
 43
0.1666666736
 10
207.2916666667
 20
4.1666666667
 10
207.2916666667
 20
-0.0
  0
LWPOLYLINE
  5
382
100
AcDbEntity
  8
0
100
AcDbPolyline
 62
7
  6
CONTINUOUS
 90
2
 70
0
 43
0.1666666736
 10
207.2916666667
 20
179.1666666667
 10
207.2916666667
 20
183.3333333333
  0
LWPOLYLINE
  5
383
100
AcDbEntity
  8
0
100
AcDbPolyline
 62
7
  6
CONTINUOUS
 90
2
 70
0
 43
0.1666666736
 10
211.4583333333
 20
4.1666666667
 10
211.4583333333
 20
25.5208333333
  0
LWPOLYLINE
  5
384
100
AcDbEntity
  8
0
100
AcDbPolyline
 62
7
  6
CONTINUOUS
 90
2
 70
0
 43
0.1666666736
 10
275.0089945496
 20
91.6779983179
 10
276.9884718653
 20
93.083455729
  0
LWPOLYLINE
  5
385
100
AcDbEntity
  8
0
100
AcDbPolyline
 62
7
  6
CONTINUOUS
 90
2
 70
0
 43
0.1666666736
 10
275.0089945496
 20
91.6779983179
 10
276.9884718653
 20
90.2725409068
  0
LWPOLYLINE
  5
386
100
AcDbEntity
  8
0
100
AcDbPolyline
 62
7
  6
CONTINUOUS
 90
2
 70
0
 43
0.250000002
 10
29.6875
 20
175.0
 10
4.1666666667
 20
175.0
  0
LWPOLYLINE
  5
387
100
AcDbEntity
  8
0
100
AcDbPolyline
 62
7
  6
CONTINUOUS
 90
2
 70
0
 43
0.250000002
 10
275.0
 20
179.1666666667
 10
4.1666666667
 20
179.1666666667
  0
LWPOLYLINE
  5
388
100
AcDbEntity
  8
0
100
AcDbPolyline
 62
7
  6
CONTINUOUS
 90
2
 70
0
 43
0.1666666736
 10
138.1778759222
 20
181.1461439823
 10
140.9887907445
 20
181.1461439823
  0
LWPOLYLINE
  5
389
100
AcDbEntity
  8
0
100
AcDbPolyline
 62
7
  6
CONTINUOUS
 90
2
 70
0
 43
0.1666666736
 10
233.3333333333
 20
4.1666666667
 10
233.3333333333
 20
25.5208333333
  0
LWPOLYLINE
  5
38A
100
AcDbEntity
  8
0
100
AcDbPolyline
 62
7
  6
CONTINUOUS
 90
2
 70
0
 43
0.1666666736
 10
237.5
 20
6.25
 10
237.5
 20
10.4166666667
  0
LWPOLYLINE
  5
38B
100
AcDbEntity
  8
0
100
AcDbPolyline
 62
7
  6
CONTINUOUS
 90
2
 70
0
 43
0.1666666736
 10
241.1458333333
 20
4.1666666667
 10
241.1458333333
 20
-0.0
  0
LWPOLYLINE
  5
38C
100
AcDbEntity
  8
0
100
AcDbPolyline
 62
7
  6
CONTINUOUS
 90
2
 70
0
 43
0.1666666736
 10
241.1458333333
 20
179.1666666667
 10
241.1458333333
 20
183.3333333333
  0
LINE
  5
38D
100
AcDbEntity
  8
0
100
AcDbLine
 62
7
  6
CONTINUOUS
 10
192.7260018596
 20
14.555673302
 11
211.3037093695
 21
25.3926693494
  0
LINE
  5
38E
100
AcDbEntity
  8
DEFAULT_3
100
AcDbLine
 62
7
  6
PHANTOM
 10
0.0
 20
183.3333333333
 11
283.3333333333
 21
183.3333333333
  0
LWPOLYLINE
  5
38F
100
AcDbEntity
  8
0
100
AcDbPolyline
 62
7
  6
CONTINUOUS
 90
2
 70
0
 43
0.1666666736
 10
243.1969080546
 20
4.2062512963
 10
243.1969080546
 20
6.2895846296
  0
LWPOLYLINE
  5
390
100
AcDbEntity
  8
0
100
AcDbPolyline
 62
7
  6
CONTINUOUS
 90
2
 70
0
 43
0.1666666736
 10
245.8333333333
 20
6.25
 10
245.8333333333
 20
10.4166666667
  0
LWPOLYLINE
  5
391
100
AcDbEntity
  8
0
100
AcDbPolyline
 62
7
  6
CONTINUOUS
 90
2
 70
0
 43
0.1666666736
 10
261.4583333333
 20
4.1666666667
 10
261.4583333333
 20
6.25
  0
LWPOLYLINE
  5
392
100
AcDbEntity
  8
0
100
AcDbPolyline
 62
7
  6
CONTINUOUS
 90
2
 70
0
 43
0.1666666736
 10
270.8333333333
 20
6.25
 10
270.8333333333
 20
10.4166666667
  0
LWPOLYLINE
  5
393
100
AcDbEntity
  8
0
100
AcDbPolyline
 62
7
  6
CONTINUOUS
 90
2
 70
0
 43
0.250000002
 10
275.0
 20
179.1666666667
 10
275.0
 20
4.1666666667
  0
LWPOLYLINE
  5
394
100
AcDbEntity
  8
0
100
AcDbPolyline
 62
7
  6
CONTINUOUS
 90
2
 70
0
 43
0.1666666736
 10
276.9884718653
 20
90.2725409068
 10
276.9884718653
 20
93.083455729
  0
LINE
  5
395
100
AcDbEntity
  8
DEFAULT_3
100
AcDbLine
 62
7
  6
PHANTOM
 10
283.3333333333
 20
-0.0
 11
283.3333333333
 21
183.3333333333
  0
LINE
  5
396
100
AcDbEntity
  8
7_ALL_ROUNDS
100
AcDbLine
 62
7
  6
CONTINUOUS
 10
98.8869609223
 20
37.0235231547
 11
97.6369609223
 21
37.0235231547
  0
LINE
  5
397
100
AcDbEntity
  8
7_ALL_ROUNDS
100
AcDbLine
 62
7
  6
CONTINUOUS
 10
72.8869609223
 20
37.0235231547
 11
71.6369609223
 21
37.0235231547
  0
LINE
  5
398
100
AcDbEntity
  8
7_ALL_ROUNDS
100
AcDbLine
 62
7
  6
CONTINUOUS
 10
99.0119609223
 20
37.1485231547
 11
97.5119609223
 21
37.1485231547
  0
LINE
  5
399
100
AcDbEntity
  8
7_ALL_ROUNDS
100
AcDbLine
 62
7
  6
CONTINUOUS
 10
73.0119609223
 20
37.1485231547
 11
71.5119609223
 21
37.1485231547
  0
LINE
  5
39A
100
AcDbEntity
  8
0
100
AcDbLine
 62
7
  6
CONTINUOUS
 10
70.2619609223
 20
37.7735231547
 11
100.2619609223
 21
37.7735231547
  0
LINE
  5
39B
100
AcDbEntity
  8
0
100
AcDbLine
 62
7
  6
CONTINUOUS
 10
71.0119609223
 20
38.5235231547
 11
99.5119609223
 21
38.5235231547
  0
LINE
  5
39C
100
AcDbEntity
  8
0
100
AcDbLine
 62
7
  6
CONTINUOUS
 10
95.7619609223
 20
127.4532377861
 11
85.8364942546
 21
124.2380044523
  0
LINE
  5
39D
100
AcDbEntity
  8
0
100
AcDbLine
 62
7
  6
CONTINUOUS
 10
71.7619609223
 20
115.8532377861
 11
84.582230082
 21
123.4510894805
  0
LINE
  5
39E
100
AcDbEntity
  8
5_ALL_CURVES
100
AcDbLine
 62
4
  6
CONTINUOUS
 10
71.4390804775
 20
115.6032377861
 11
74.5683908223
 21
127.7032377861
  0
LINE
  5
39F
100
AcDbEntity
  8
0
100
AcDbLine
 62
7
  6
CONTINUOUS
 10
71.7619609223
 20
115.8532377861
 11
74.7619609223
 21
127.4532377861
  0
LINE
  5
3A0
100
AcDbEntity
  8
5_ALL_CURVES
100
AcDbLine
 62
4
  6
CONTINUOUS
 10
71.7619609223
 20
115.8532377861
 11
74.7619609223
 21
127.4532377861
  0
LINE
  5
3A1
100
AcDbEntity
  8
0
100
AcDbLine
 62
7
  6
CONTINUOUS
 10
70.2619609223
 20
37.7735231547
 11
70.2619609223
 21
89.9034444145
  0
LINE
  5
3A2
100
AcDbEntity
  8
7_ALL_ROUNDS
100
AcDbLine
 62
7
  6
CONTINUOUS
 10
70.2619609223
 20
91.290265659
 11
70.2619609223
 21
128.9295590306
  0
LINE
  5
3A3
100
AcDbEntity
  8
0
100
AcDbLine
 62
7
  6
CONTINUOUS
 10
70.3369609223
 20
129.4532509385
 11
70.3369609223
 21
113.8532509385
  0
LINE
  5
3A4
100
AcDbEntity
  8
0
100
AcDbLine
 62
7
  6
CONTINUOUS
 10
71.0119609223
 20
89.1534444145
 11
71.0119609223
 21
38.5235231547
  0
LINE
  5
3A5
100
AcDbEntity
  8
0
100
AcDbLine
 62
7
  6
CONTINUOUS
 10
71.0879609223
 20
113.6605590306
 11
71.0879609223
 21
113.8532509385
  0
LINE
  5
3A6
100
AcDbEntity
  8
0
100
AcDbLine
 62
7
  6
CONTINUOUS
 10
71.1879609223
 20
90.790265659
 11
71.1879609223
 21
90.5917702166
  0
LINE
  5
3A7
100
AcDbEntity
  8
0
100
AcDbLine
 62
7
  6
CONTINUOUS
 10
71.2639609223
 20
90.790265659
 11
71.2639609223
 21
90.5917702166
  0
LINE
  5
3A8
100
AcDbEntity
  8
0
100
AcDbLine
 62
7
  6
CONTINUOUS
 10
71.3239609223
 20
89.9034444145
 11
71.3239609223
 21
90.790265659
  0
LINE
  5
3A9
100
AcDbEntity
  8
7_ALL_ROUNDS
100
AcDbLine
 62
7
  6
CONTINUOUS
 10
71.5119609223
 20
37.7735231547
 11
71.5119609223
 21
37.1485231547
  0
LINE
  5
3AA
100
AcDbEntity
  8
5_ALL_CURVES
100
AcDbLine
 62
4
  6
CONTINUOUS
 10
72.9125696088
 20
111.4975823769
 11
70.7592608471
 21
92.7989444145
  0
LINE
  5
3AB
100
AcDbEntity
  8
5_ALL_CURVES
100
AcDbLine
 62
4
  6
CONTINUOUS
 10
73.1354321894
 20
111.2475823769
 11
71.0397027222
 21
93.0489444145
  0
LINE
  5
3AC
100
AcDbEntity
  8
7_ALL_ROUNDS
100
AcDbLine
 62
7
  6
CONTINUOUS
 10
71.6300818446
 20
98.1756064727
 11
72.637770882
 21
106.92605255
  0
LINE
  5
3AD
100
AcDbEntity
  8
7_ALL_ROUNDS
100
AcDbLine
 62
7
  6
CONTINUOUS
 10
73.0119609223
 20
37.7735231547
 11
73.0119609223
 21
37.1485231547
  0
LINE
  5
3AE
100
AcDbEntity
  8
0
100
AcDbLine
 62
7
  6
CONTINUOUS
 10
82.6729648593
 20
113.8532509385
 11
82.6729648593
 21
113.6605590306
  0
LINE
  5
3AF
100
AcDbEntity
  8
0
100
AcDbLine
 62
7
  6
CONTINUOUS
 10
87.8509569853
 20
113.8532509385
 11
87.8509569853
 21
113.6605590306
  0
LINE
  5
3B0
100
AcDbEntity
  8
0
100
AcDbLine
 62
7
  6
CONTINUOUS
 10
87.9369609223
 20
113.8532509385
 11
87.9369609223
 21
113.797151532
  0
LINE
  5
3B1
100
AcDbEntity
  8
0
100
AcDbLine
 62
7
  6
CONTINUOUS
 10
88.1819609223
 20
113.8532509385
 11
88.1819609223
 21
113.8145163498
  0
LINE
  5
3B2
100
AcDbEntity
  8
0
100
AcDbLine
 62
7
  6
CONTINUOUS
 10
88.5919609223
 20
113.6740505629
 11
88.5919609223
 21
113.8532509385
  0
LINE
  5
3B3
100
AcDbEntity
  8
0
100
AcDbLine
 62
7
  6
CONTINUOUS
 10
99.5119609223
 20
89.1534444145
 11
71.0119609223
 21
89.1534444145
  0
LINE
  5
3B4
100
AcDbEntity
  8
0
100
AcDbLine
 62
7
  6
CONTINUOUS
 10
70.2619609223
 20
89.9034444145
 11
100.2619609223
 21
89.9034444145
  0
LINE
  5
3B5
100
AcDbEntity
  8
0
100
AcDbLine
 62
7
  6
CONTINUOUS
 10
71.1879609223
 20
90.5912393235
 11
71.2639609223
 21
90.5912393235
  0
LINE
  5
3B6
100
AcDbEntity
  8
0
100
AcDbLine
 62
7
  6
CONTINUOUS
 10
99.2599609223
 20
90.5912393235
 11
99.3359609223
 21
90.5912393235
  0
LINE
  5
3B7
100
AcDbEntity
  8
7_ALL_ROUNDS
100
AcDbLine
 62
7
  6
CONTINUOUS
 10
70.7619609223
 20
90.790265659
 11
99.7619609223
 21
90.790265659
  0
LINE
  5
3B8
100
AcDbEntity
  8
5_ALL_CURVES
100
AcDbLine
 62
4
  6
CONTINUOUS
 10
70.7592608471
 20
92.7989444145
 11
99.7646609975
 21
92.7989444145
  0
LINE
  5
3B9
100
AcDbEntity
  8
7_ALL_ROUNDS
100
AcDbLine
 62
7
  6
CONTINUOUS
 10
93.9028533761
 20
93.0489444153
 11
76.6210684703
 21
93.0489444151
  0
LINE
  5
3BA
100
AcDbEntity
  8
5_ALL_CURVES
100
AcDbLine
 62
4
  6
CONTINUOUS
 10
71.0397027222
 20
93.0489444145
 11
99.4842191224
 21
93.0489444145
  0
LINE
  5
3BB
100
AcDbEntity
  8
7_ALL_ROUNDS
100
AcDbLine
 62
7
  6
CONTINUOUS
 10
97.5119609223
 20
37.7735231547
 11
97.5119609223
 21
37.1485231547
  0
LINE
  5
3BC
100
AcDbEntity
  8
7_ALL_ROUNDS
100
AcDbLine
 62
7
  6
CONTINUOUS
 10
99.0119609223
 20
37.7735231547
 11
99.0119609223
 21
37.1485231547
  0
LINE
  5
3BD
100
AcDbEntity
  8
0
100
AcDbLine
 62
7
  6
CONTINUOUS
 10
99.1999609223
 20
89.9034444145
 11
99.1999609223
 21
90.790265659
  0
LINE
  5
3BE
100
AcDbEntity
  8
0
100
AcDbLine
 62
7
  6
CONTINUOUS
 10
99.2599609223
 20
90.790265659
 11
99.2599609223
 21
90.5917702166
  0
LINE
  5
3BF
100
AcDbEntity
  8
0
100
AcDbLine
 62
7
  6
CONTINUOUS
 10
99.3359609223
 20
90.790265659
 11
99.3359609223
 21
90.5917702166
  0
LINE
  5
3C0
100
AcDbEntity
  8
0
100
AcDbLine
 62
7
  6
CONTINUOUS
 10
99.4359609223
 20
113.6605590306
 11
99.4359609223
 21
113.8532509385
  0
LINE
  5
3C1
100
AcDbEntity
  8
0
100
AcDbLine
 62
7
  6
CONTINUOUS
 10
99.5119609223
 20
38.5235231547
 11
99.5119609223
 21
89.1534444145
  0
LINE
  5
3C2
100
AcDbEntity
  8
0
100
AcDbLine
 62
7
  6
CONTINUOUS
 10
100.1869609223
 20
113.8532509385
 11
100.1869609223
 21
129.4532509385
  0
LINE
  5
3C3
100
AcDbEntity
  8
0
100
AcDbLine
 62
7
  6
CONTINUOUS
 10
100.2619609223
 20
37.7735231547
 11
100.2619609223
 21
89.9034444145
  0
LINE
  5
3C4
100
AcDbEntity
  8
7_ALL_ROUNDS
100
AcDbLine
 62
7
  6
CONTINUOUS
 10
100.2619609223
 20
91.290265659
 11
100.2619609223
 21
128.9295590306
  0
LINE
  5
3C5
100
AcDbEntity
  8
5_ALL_CURVES
100
AcDbLine
 62
4
  6
CONTINUOUS
 10
97.3884896552
 20
111.2475823769
 11
99.4842191224
 21
93.0489444145
  0
LINE
  5
3C6
100
AcDbEntity
  8
7_ALL_ROUNDS
100
AcDbLine
 62
7
  6
CONTINUOUS
 10
97.8861509138
 20
106.9260527656
 11
98.89384
 21
98.1756064722
  0
LINE
  5
3C7
100
AcDbEntity
  8
5_ALL_CURVES
100
AcDbLine
 62
4
  6
CONTINUOUS
 10
97.6113522358
 20
111.4975823769
 11
99.7646609975
 21
92.7989444145
  0
LINE
  5
3C8
100
AcDbEntity
  8
0
100
AcDbLine
 62
7
  6
CONTINUOUS
 10
95.7619609223
 20
127.4532377861
 11
98.7619609223
 21
115.8532377861
  0
LINE
  5
3C9
100
AcDbEntity
  8
5_ALL_CURVES
100
AcDbLine
 62
4
  6
CONTINUOUS
 10
95.7619609223
 20
127.4532377861
 11
98.7619609223
 21
115.8532377861
  0
LINE
  5
3CA
100
AcDbEntity
  8
5_ALL_CURVES
100
AcDbLine
 62
4
  6
CONTINUOUS
 10
95.9555310223
 20
127.7032377861
 11
99.0848413671
 21
115.6032377861
  0
LINE
  5
3CB
100
AcDbEntity
  8
5_ALL_CURVES
100
AcDbLine
 62
4
  6
CONTINUOUS
 10
73.1354321894
 20
111.2475823769
 11
97.3884896552
 21
111.2475823769
  0
LINE
  5
3CC
100
AcDbEntity
  8
7_ALL_ROUNDS
100
AcDbLine
 62
7
  6
CONTINUOUS
 10
78.1352819373
 20
111.2475823741
 11
92.3886399633
 21
111.2475823687
  0
LINE
  5
3CD
100
AcDbEntity
  8
5_ALL_CURVES
100
AcDbLine
 62
4
  6
CONTINUOUS
 10
72.9125696088
 20
111.4975823769
 11
97.6113522358
 21
111.4975823769
  0
LINE
  5
3CE
100
AcDbEntity
  8
7_ALL_ROUNDS
100
AcDbLine
 62
7
  6
CONTINUOUS
 10
99.7619609223
 20
113.6605590306
 11
70.7619609223
 21
113.6605590306
  0
LINE
  5
3CF
100
AcDbEntity
  8
0
100
AcDbLine
 62
7
  6
CONTINUOUS
 10
88.5919609223
 20
113.6740505629
 11
87.9369609223
 21
113.6740505629
  0
LINE
  5
3D0
100
AcDbEntity
  8
0
100
AcDbLine
 62
7
  6
CONTINUOUS
 10
87.9369609223
 20
113.797151532
 11
88.5919609223
 21
113.797151532
  0
LINE
  5
3D1
100
AcDbEntity
  8
0
100
AcDbLine
 62
7
  6
CONTINUOUS
 10
87.9369609223
 20
113.8145163498
 11
88.1819609223
 21
113.8145163498
  0
LINE
  5
3D2
100
AcDbEntity
  8
0
100
AcDbLine
 62
7
  6
CONTINUOUS
 10
70.3369609223
 20
113.8532509385
 11
100.1869609223
 21
113.8532509385
  0
LINE
  5
3D3
100
AcDbEntity
  8
5_ALL_CURVES
100
AcDbLine
 62
4
  6
CONTINUOUS
 10
99.0848413671
 20
115.6032377861
 11
71.4390804775
 21
115.6032377861
  0
LINE
  5
3D4
100
AcDbEntity
  8
0
100
AcDbLine
 62
7
  6
CONTINUOUS
 10
98.7619609223
 20
115.8532377861
 11
71.7619609223
 21
115.8532377861
  0
LINE
  5
3D5
100
AcDbEntity
  8
5_ALL_CURVES
100
AcDbLine
 62
4
  6
CONTINUOUS
 10
98.7619609223
 20
115.8532377861
 11
71.7619609223
 21
115.8532377861
  0
LINE
  5
3D6
100
AcDbEntity
  8
0
100
AcDbLine
 62
7
  6
CONTINUOUS
 10
98.7619609223
 20
115.8532377861
 11
85.9416917626
 21
123.4510894805
  0
LINE
  5
3D7
100
AcDbEntity
  8
0
100
AcDbLine
 62
7
  6
CONTINUOUS
 10
74.7619609223
 20
127.4532377861
 11
84.68742759
 21
124.2380044523
  0
LINE
  5
3D8
100
AcDbEntity
  8
0
100
AcDbLine
 62
7
  6
CONTINUOUS
 10
74.7619609223
 20
127.4532377861
 11
95.7619609223
 21
127.4532377861
  0
LINE
  5
3D9
100
AcDbEntity
  8
5_ALL_CURVES
100
AcDbLine
 62
4
  6
CONTINUOUS
 10
74.7619609223
 20
127.4532377861
 11
95.7619609223
 21
127.4532377861
  0
LINE
  5
3DA
100
AcDbEntity
  8
5_ALL_CURVES
100
AcDbLine
 62
4
  6
CONTINUOUS
 10
74.5683908223
 20
127.7032377861
 11
95.9555310223
 21
127.7032377861
  0
LINE
  5
3DB
100
AcDbEntity
  8
0
100
AcDbLine
 62
7
  6
CONTINUOUS
 10
70.3369609223
 20
128.9295590306
 11
70.2619609223
 21
128.9295590306
  0
LINE
  5
3DC
100
AcDbEntity
  8
0
100
AcDbLine
 62
7
  6
CONTINUOUS
 10
100.1869609223
 20
128.9295590306
 11
100.2619609223
 21
128.9295590306
  0
LINE
  5
3DD
100
AcDbEntity
  8
0
100
AcDbLine
 62
7
  6
CONTINUOUS
 10
100.1869609223
 20
129.4532509385
 11
70.3369609223
 21
129.4532509385
  0
LINE
  5
3DE
100
AcDbEntity
  8
7_ALL_ROUNDS
100
AcDbLine
 62
7
  6
CONTINUOUS
 10
70.2619609223
 20
146.3818154762
 11
70.2619609223
 21
147.4578154762
  0
LINE
  5
3DF
100
AcDbEntity
  8
0
100
AcDbLine
 62
7
  6
CONTINUOUS
 10
70.2619609223
 20
147.4578154762
 11
70.2619609223
 21
166.6318154762
  0
LINE
  5
3E0
100
AcDbEntity
  8
7_ALL_ROUNDS
100
AcDbLine
 62
7
  6
CONTINUOUS
 10
70.3369609223
 20
147.4578154762
 11
70.3369609223
 21
146.7078154762
  0
LINE
  5
3E1
100
AcDbEntity
  8
0
100
AcDbLine
 62
7
  6
CONTINUOUS
 10
70.3369609223
 20
146.3818154762
 11
70.3369609223
 21
146.6318154762
  0
LINE
  5
3E2
100
AcDbEntity
  8
7_ALL_ROUNDS
100
AcDbLine
 62
7
  6
CONTINUOUS
 10
70.4219609223
 20
146.6318154762
 11
70.4219609223
 21
146.7078154762
  0
LINE
  5
3E3
100
AcDbEntity
  8
7_ALL_ROUNDS
100
AcDbLine
 62
7
  6
CONTINUOUS
 10
70.7619609223
 20
146.6318154762
 11
70.7619609223
 21
146.7078154762
  0
LINE
  5
3E4
100
AcDbEntity
  8
0
100
AcDbLine
 62
7
  6
CONTINUOUS
 10
71.0879609223
 20
146.6318154762
 11
71.0879609223
 21
146.7078154762
  0
LINE
  5
3E5
100
AcDbEntity
  8
0
100
AcDbLine
 62
7
  6
CONTINUOUS
 10
71.1879609223
 20
147.9806982551
 11
71.1879609223
 21
146.7078154762
  0
LINE
  5
3E6
100
AcDbEntity
  8
0
100
AcDbLine
 62
7
  6
CONTINUOUS
 10
71.2639609223
 20
147.9806982551
 11
71.2639609223
 21
146.6318154762
  0
LINE
  5
3E7
100
AcDbEntity
  8
0
100
AcDbLine
 62
7
  6
CONTINUOUS
 10
71.3239609223
 20
148.5440801834
 11
71.3239609223
 21
146.8068154762
  0
LINE
  5
3E8
100
AcDbEntity
  8
0
100
AcDbLine
 62
7
  6
CONTINUOUS
 10
71.4029609223
 20
148.5372617909
 11
71.4029609223
 21
146.8858154762
  0
LINE
  5
3E9
100
AcDbEntity
  8
0
100
AcDbLine
 62
7
  6
CONTINUOUS
 10
74.4442627124
 20
166.4858154762
 11
71.3239609223
 21
148.5440801834
  0
LINE
  5
3EA
100
AcDbEntity
  8
0
100
AcDbLine
 62
7
  6
CONTINUOUS
 10
74.5107093893
 20
166.4068154762
 11
71.4029609223
 21
148.5372617909
  0
LINE
  5
3EB
100
AcDbEntity
  8
0
100
AcDbLine
 62
7
  6
CONTINUOUS
 10
92.8869609223
 20
146.3518154762
 11
77.6369609223
 21
146.3518154762
  0
LINE
  5
3EC
100
AcDbEntity
  8
7_ALL_ROUNDS
100
AcDbLine
 62
7
  6
CONTINUOUS
 10
100.2619609223
 20
146.3818154762
 11
100.1869609223
 21
146.3818154762
  0
LINE
  5
3ED
100
AcDbEntity
  8
0
100
AcDbLine
 62
7
  6
CONTINUOUS
 10
100.1869609223
 20
146.3818154762
 11
70.3369609223
 21
146.3818154762
  0
LINE
  5
3EE
100
AcDbEntity
  8
7_ALL_ROUNDS
100
AcDbLine
 62
7
  6
CONTINUOUS
 10
70.3369609223
 20
146.3818154762
 11
70.2619609223
 21
146.3818154762
  0
LINE
  5
3EF
100
AcDbEntity
  8
0
100
AcDbLine
 62
7
  6
CONTINUOUS
 10
70.2619609223
 20
146.6318154762
 11
100.2619609223
 21
146.6318154762
  0
LINE
  5
3F0
100
AcDbEntity
  8
0
100
AcDbLine
 62
7
  6
CONTINUOUS
 10
71.1879609223
 20
146.7078154762
 11
71.0879609223
 21
146.7078154762
  0
LINE
  5
3F1
100
AcDbEntity
  8
7_ALL_ROUNDS
100
AcDbLine
 62
7
  6
CONTINUOUS
 10
70.3369609223
 20
146.7078154762
 11
71.0879609223
 21
146.7078154762
  0
LINE
  5
3F2
100
AcDbEntity
  8
0
100
AcDbLine
 62
7
  6
CONTINUOUS
 10
99.3359609223
 20
146.7078154762
 11
99.4359609223
 21
146.7078154762
  0
LINE
  5
3F3
100
AcDbEntity
  8
7_ALL_ROUNDS
100
AcDbLine
 62
7
  6
CONTINUOUS
 10
99.4359609223
 20
146.7078154762
 11
100.1869609223
 21
146.7078154762
  0
LINE
  5
3F4
100
AcDbEntity
  8
0
100
AcDbLine
 62
7
  6
CONTINUOUS
 10
71.3239609223
 20
146.8068154762
 11
71.7604765175
 21
146.8068154762
  0
LINE
  5
3F5
100
AcDbEntity
  8
0
100
AcDbLine
 62
7
  6
CONTINUOUS
 10
98.763446343
 20
146.8068154762
 11
99.1999609223
 21
146.8068154762
  0
LINE
  5
3F6
100
AcDbEntity
  8
0
100
AcDbLine
 62
7
  6
CONTINUOUS
 10
71.4029609223
 20
146.8858154762
 11
71.8445960936
 21
146.8858154762
  0
LINE
  5
3F7
100
AcDbEntity
  8
0
100
AcDbLine
 62
7
  6
CONTINUOUS
 10
98.6793272262
 20
146.8858154762
 11
99.1209609223
 21
146.8858154762
  0
LINE
  5
3F8
100
AcDbEntity
  8
7_ALL_ROUNDS
100
AcDbLine
 62
7
  6
CONTINUOUS
 10
100.2619609223
 20
146.9578154762
 11
100.1869609223
 21
146.9578154762
  0
LINE
  5
3F9
100
AcDbEntity
  8
7_ALL_ROUNDS
100
AcDbLine
 62
7
  6
CONTINUOUS
 10
70.3369609223
 20
146.9578154762
 11
70.2619609223
 21
146.9578154762
  0
LINE
  5
3FA
100
AcDbEntity
  8
0
100
AcDbLine
 62
7
  6
CONTINUOUS
 10
71.2639609223
 20
147.0928152016
 11
71.1879609223
 21
147.0928152016
  0
LINE
  5
3FB
100
AcDbEntity
  8
0
100
AcDbLine
 62
7
  6
CONTINUOUS
 10
99.2599609223
 20
147.0928152016
 11
99.3359609223
 21
147.0928152016
  0
LINE
  5
3FC
100
AcDbEntity
  8
7_ALL_ROUNDS
100
AcDbLine
 62
7
  6
CONTINUOUS
 10
100.2619609223
 20
147.4578154762
 11
100.1869609223
 21
147.4578154762
  0
LINE
  5
3FD
100
AcDbEntity
  8
7_ALL_ROUNDS
100
AcDbLine
 62
7
  6
CONTINUOUS
 10
70.3369609223
 20
147.4578154762
 11
70.2619609223
 21
147.4578154762
  0
LINE
  5
3FE
100
AcDbEntity
  8
0
100
AcDbLine
 62
7
  6
CONTINUOUS
 10
71.2639609223
 20
147.8989032886
 11
71.1879609223
 21
147.8989032886
  0
LINE
  5
3FF
100
AcDbEntity
  8
0
100
AcDbLine
 62
7
  6
CONTINUOUS
 10
99.2599609223
 20
147.8989032886
 11
99.3359609223
 21
147.8989032886
  0
LINE
  5
400
100
AcDbEntity
  8
0
100
AcDbLine
 62
7
  6
CONTINUOUS
 10
71.1879609223
 20
147.9810295657
 11
71.2639609223
 21
147.9810295657
  0
LINE
  5
401
100
AcDbEntity
  8
0
100
AcDbLine
 62
7
  6
CONTINUOUS
 10
99.2599609223
 20
147.9810295657
 11
99.3359609223
 21
147.9810295657
  0
LINE
  5
402
100
AcDbEntity
  8
0
100
AcDbLine
 62
7
  6
CONTINUOUS
 10
77.6369609223
 20
146.3818154762
 11
77.6369609223
 21
146.3518154762
  0
LINE
  5
403
100
AcDbEntity
  8
0
100
AcDbLine
 62
7
  6
CONTINUOUS
 10
78.7619609223
 20
156.2584059978
 11
78.7619609223
 21
156.6319790096
  0
LINE
  5
404
100
AcDbEntity
  8
0
100
AcDbLine
 62
7
  6
CONTINUOUS
 10
79.5119609221
 20
157.7626050835
 11
79.5119609221
 21
158.1143147593
  0
LINE
  5
405
100
AcDbEntity
  8
0
100
AcDbLine
 62
7
  6
CONTINUOUS
 10
79.6739296677
 20
156.6319790096
 11
79.6739296677
 21
157.64578262
  0
LINE
  5
406
100
AcDbEntity
  8
0
100
AcDbLine
 62
7
  6
CONTINUOUS
 10
80.0161977003
 20
161.0432405138
 11
79.862224768
 21
158.1164726063
  0
LINE
  5
407
100
AcDbEntity
  8
0
100
AcDbLine
 62
7
  6
CONTINUOUS
 10
88.7563037279
 20
163.3386375497
 11
88.7938452178
 21
163.352249539
  0
LINE
  5
408
100
AcDbEntity
  8
0
100
AcDbLine
 62
7
  6
CONTINUOUS
 10
88.7563037279
 20
163.2940138094
 11
88.7939290064
 21
163.3076561792
  0
LINE
  5
409
100
AcDbEntity
  8
0
100
AcDbLine
 62
7
  6
CONTINUOUS
 10
88.7563037279
 20
163.2493900691
 11
88.8082289318
 21
163.2682173805
  0
LINE
  5
40A
100
AcDbEntity
  8
0
100
AcDbLine
 62
7
  6
CONTINUOUS
 10
88.7563037279
 20
163.2047663289
 11
88.8225288572
 21
163.2287785818
  0
LINE
  5
40B
100
AcDbEntity
  8
0
100
AcDbLine
 62
7
  6
CONTINUOUS
 10
88.7563037279
 20
163.1604040558
 11
88.8384434066
 21
163.1901866891
  0
LINE
  5
40C
100
AcDbEntity
  8
0
100
AcDbLine
 62
7
  6
CONTINUOUS
 10
80.6480656758
 20
156.2776156135
 11
80.6480656758
 21
157.4082416874
  0
LINE
  5
40D
100
AcDbEntity
  8
0
100
AcDbLine
 62
7
  6
CONTINUOUS
 10
80.6960969305
 20
157.4082416874
 11
80.6960969305
 21
157.7599513632
  0
LINE
  5
40E
100
AcDbEntity
  8
0
100
AcDbLine
 62
7
  6
CONTINUOUS
 10
81.4053100258
 20
156.2334690026
 11
81.4053100258
 21
157.3640950766
  0
LINE
  5
40F
100
AcDbEntity
  8
0
100
AcDbLine
 62
7
  6
CONTINUOUS
 10
81.5646878778
 20
157.378796366
 11
81.5646878778
 21
157.7305060418
  0
LINE
  5
410
100
AcDbEntity
  8
0
100
AcDbLine
 62
7
  6
CONTINUOUS
 10
81.8319609223
 20
157.3859024243
 11
81.8319609223
 21
157.3072030431
  0
LINE
  5
411
100
AcDbEntity
  8
0
100
AcDbLine
 62
7
  6
CONTINUOUS
 10
81.8886798336
 20
157.2885995832
 11
81.8886798336
 21
157.3672989644
  0
LINE
  5
412
100
AcDbEntity
  8
0
100
AcDbLine
 62
7
  6
CONTINUOUS
 10
82.0171762868
 20
156.1411027887
 11
82.0171762868
 21
157.2717288627
  0
LINE
  5
413
100
AcDbEntity
  8
0
100
AcDbLine
 62
7
  6
CONTINUOUS
 10
82.0259609223
 20
154.8063167314
 11
82.0259609223
 21
154.8853167314
  0
LINE
  5
414
100
AcDbEntity
  8
0
100
AcDbLine
 62
7
  6
CONTINUOUS
 10
82.2019609223
 20
156.5431208122
 11
82.2019609223
 21
157.3309670146
  0
LINE
  5
415
100
AcDbEntity
  8
0
100
AcDbLine
 62
7
  6
CONTINUOUS
 10
82.3819609223
 20
157.5730524565
 11
82.3819609223
 21
157.3309670146
  0
LINE
  5
416
100
AcDbEntity
  8
0
100
AcDbLine
 62
7
  6
CONTINUOUS
 10
82.3819609223
 20
156.3738447514
 11
82.3819609223
 21
155.981780393
  0
LINE
  5
417
100
AcDbEntity
  8
0
100
AcDbLine
 62
7
  6
CONTINUOUS
 10
82.6729648593
 20
155.7714874168
 11
82.6729648593
 21
155.2559058735
  0
LINE
  5
418
100
AcDbEntity
  8
0
100
AcDbLine
 62
7
  6
CONTINUOUS
 10
82.7619609223
 20
158.7616407467
 11
82.7619609223
 21
157.8206546991
  0
LINE
  5
419
100
AcDbEntity
  8
0
100
AcDbLine
 62
7
  6
CONTINUOUS
 10
82.8471841516
 20
157.5730524565
 11
82.8471841516
 21
157.8942217815
  0
LWPOLYLINE
  5
41A
100
AcDbEntity
  8
0
100
AcDbPolyline
 62
7
  6
CONTINUOUS
 90
3
 70
0
 10
81.2913087865
 20
155.8134253197
 10
80.4814131244
 20
155.0242762294
 10
79.3372564955
 20
153.9273961844
  0
LINE
  5
41B
100
AcDbEntity
  8
0
100
AcDbLine
 62
7
  6
CONTINUOUS
 10
71.6068635498
 20
146.6318154715
 11
71.6854841488
 21
146.706041034
  0
LINE
  5
41C
100
AcDbEntity
  8
7_ALL_ROUNDS
100
AcDbLine
 62
7
  6
CONTINUOUS
 10
78.6469096331
 20
153.2766979478
 11
71.5741356844
 21
146.6318154762
  0
LINE
  5
41D
100
AcDbEntity
  8
0
100
AcDbLine
 62
7
  6
CONTINUOUS
 10
78.646690334
 20
153.2764858013
 11
79.3372564955
 21
153.9273961844
  0
LINE
  5
41E
100
AcDbEntity
  8
0
100
AcDbLine
 62
7
  6
CONTINUOUS
 10
82.026255458
 20
154.8063167314
 11
82.103821182
 21
154.8063167314
  0
LINE
  5
41F
100
AcDbEntity
  8
0
100
AcDbLine
 62
7
  6
CONTINUOUS
 10
82.026255458
 20
154.8853167314
 11
82.2038288252
 21
154.8853167314
  0
LINE
  5
420
100
AcDbEntity
  8
0
100
AcDbLine
 62
7
  6
CONTINUOUS
 10
81.8467654892
 20
157.2974537656
 11
81.8320071001
 21
157.3072030536
  0
LINE
  5
421
100
AcDbEntity
  8
0
100
AcDbLine
 62
7
  6
CONTINUOUS
 10
74.815041335
 20
146.6318154762
 11
83.6367776131
 21
155.5733499791
  0
LINE
  5
422
100
AcDbEntity
  8
0
100
AcDbLine
 62
7
  6
CONTINUOUS
 10
71.7680247993
 20
146.6416616299
 11
83.1623012432
 21
155.6424520723
  0
LINE
  5
423
100
AcDbEntity
  8
0
100
AcDbLine
 62
7
  6
CONTINUOUS
 10
88.6080334141
 20
156.1563930186
 11
89.1186118188
 21
156.2334690026
  0
LINE
  5
424
100
AcDbEntity
  8
0
100
AcDbLine
 62
7
  6
CONTINUOUS
 10
87.8509569853
 20
155.6697707449
 11
87.7619609223
 21
155.6697707449
  0
LINE
  5
425
100
AcDbEntity
  8
0
100
AcDbLine
 62
7
  6
CONTINUOUS
 10
88.5919609223
 20
156.089214675
 11
88.1419609223
 21
156.089214675
  0
LINE
  5
426
100
AcDbEntity
  8
0
100
AcDbLine
 62
7
  6
CONTINUOUS
 10
81.4053100258
 20
156.2334690026
 11
82.0171762868
 21
156.1411027887
  0
LINE
  5
427
100
AcDbEntity
  8
7_ALL_ROUNDS
100
AcDbLine
 62
7
  6
CONTINUOUS
 10
89.4006344365
 20
163.1901866891
 11
89.4246643445
 21
163.2410123121
  0
LINE
  5
428
100
AcDbEntity
  8
0
100
AcDbLine
 62
7
  6
CONTINUOUS
 10
88.6771563554
 20
157.2974537656
 11
88.6919147445
 21
157.3072030536
  0
LINE
  5
429
100
AcDbEntity
  8
0
100
AcDbLine
 62
7
  6
CONTINUOUS
 10
88.5994854782
 20
157.2831496688
 11
88.635242011
 21
157.2885995832
  0
LINE
  5
42A
100
AcDbEntity
  8
0
100
AcDbLine
 62
7
  6
CONTINUOUS
 10
88.6006957093
 20
157.3620335101
 11
88.635242011
 21
157.3672989644
  0
LINE
  5
42B
100
AcDbEntity
  8
0
100
AcDbLine
 62
7
  6
CONTINUOUS
 10
88.6771563554
 20
157.2974537656
 11
89.1186118188
 21
157.3640950766
  0
LINE
  5
42C
100
AcDbEntity
  8
0
100
AcDbLine
 62
7
  6
CONTINUOUS
 10
89.820823677
 20
157.4603121562
 11
89.8278249141
 21
157.4612535213
  0
LINE
  5
42D
100
AcDbEntity
  8
0
100
AcDbLine
 62
7
  6
CONTINUOUS
 10
89.8380904778
 20
157.4591676875
 11
89.8458793817
 21
157.4600624097
  0
LINE
  5
42E
100
AcDbEntity
  8
0
100
AcDbLine
 62
7
  6
CONTINUOUS
 10
88.3219609223
 20
156.7785801021
 11
88.5919609223
 21
156.7785801021
  0
LINE
  5
42F
100
AcDbEntity
  8
0
100
AcDbLine
 62
7
  6
CONTINUOUS
 10
88.5919609223
 20
156.8002861243
 11
88.3219609223
 21
156.8002861243
  0
LINE
  5
430
100
AcDbEntity
  8
0
100
AcDbLine
 62
7
  6
CONTINUOUS
 10
88.3219609223
 20
156.8654041909
 11
88.5919609223
 21
156.8654041909
  0
LINE
  5
431
100
AcDbEntity
  8
0
100
AcDbLine
 62
7
  6
CONTINUOUS
 10
88.5919609223
 20
156.8871102131
 11
88.3219609223
 21
156.8871102131
  0
LINE
  5
432
100
AcDbEntity
  8
0
100
AcDbLine
 62
7
  6
CONTINUOUS
 10
88.3219609223
 20
156.9522282797
 11
88.5919609223
 21
156.9522282797
  0
LINE
  5
433
100
AcDbEntity
  8
0
100
AcDbLine
 62
7
  6
CONTINUOUS
 10
88.5919609223
 20
156.973934302
 11
88.3219609223
 21
156.973934302
  0
LINE
  5
434
100
AcDbEntity
  8
0
100
AcDbLine
 62
7
  6
CONTINUOUS
 10
88.3219609223
 20
157.0446959344
 11
88.5919609223
 21
157.0446959344
  0
LINE
  5
435
100
AcDbEntity
  8
0
100
AcDbLine
 62
7
  6
CONTINUOUS
 10
88.5919609223
 20
157.0664019566
 11
88.3219609223
 21
157.0664019566
  0
LINE
  5
436
100
AcDbEntity
  8
0
100
AcDbLine
 62
7
  6
CONTINUOUS
 10
88.3219609223
 20
157.137163589
 11
88.5919609223
 21
157.137163589
  0
LINE
  5
437
100
AcDbEntity
  8
0
100
AcDbLine
 62
7
  6
CONTINUOUS
 10
88.5919609223
 20
157.1588696112
 11
88.3219609223
 21
157.1588696112
  0
LINE
  5
438
100
AcDbEntity
  8
0
100
AcDbLine
 62
7
  6
CONTINUOUS
 10
88.3219609223
 20
157.2239876778
 11
88.5919609223
 21
157.2239876778
  0
LINE
  5
439
100
AcDbEntity
  8
0
100
AcDbLine
 62
7
  6
CONTINUOUS
 10
88.5919609223
 20
157.2456937
 11
88.3219609223
 21
157.2456937
  0
LINE
  5
43A
100
AcDbEntity
  8
0
100
AcDbLine
 62
7
  6
CONTINUOUS
 10
88.3219609223
 20
157.3108117666
 11
88.5919609223
 21
157.3108117666
  0
LINE
  5
43B
100
AcDbEntity
  8
0
100
AcDbLine
 62
7
  6
CONTINUOUS
 10
88.5919609223
 20
157.3325177888
 11
88.3219609223
 21
157.3325177888
  0
LINE
  5
43C
100
AcDbEntity
  8
0
100
AcDbLine
 62
7
  6
CONTINUOUS
 10
88.5919609223
 20
157.3976358555
 11
88.3219609223
 21
157.3976358555
  0
LINE
  5
43D
100
AcDbEntity
  8
0
100
AcDbLine
 62
7
  6
CONTINUOUS
 10
88.5919609223
 20
157.4193418777
 11
88.2549589439
 21
157.4193418777
  0
LINE
  5
43E
100
AcDbEntity
  8
0
100
AcDbLine
 62
7
  6
CONTINUOUS
 10
88.1796093852
 20
157.4844599443
 11
88.5919609223
 21
157.4844599443
  0
LINE
  5
43F
100
AcDbEntity
  8
0
100
AcDbLine
 62
7
  6
CONTINUOUS
 10
88.5919609223
 20
157.5061659665
 11
88.1819609223
 21
157.5061659665
  0
LINE
  5
440
100
AcDbEntity
  8
0
100
AcDbLine
 62
7
  6
CONTINUOUS
 10
88.1419609223
 20
157.5712840331
 11
88.5919609223
 21
157.5712840331
  0
LINE
  5
441
100
AcDbEntity
  8
0
100
AcDbLine
 62
7
  6
CONTINUOUS
 10
88.5919609223
 20
157.5929900553
 11
88.1419609223
 21
157.5929900553
  0
LINE
  5
442
100
AcDbEntity
  8
0
100
AcDbLine
 62
7
  6
CONTINUOUS
 10
88.073196709
 20
157.6637516877
 11
88.5919609223
 21
157.6637516877
  0
LINE
  5
443
100
AcDbEntity
  8
0
100
AcDbLine
 62
7
  6
CONTINUOUS
 10
88.5919609223
 20
157.6854577099
 11
88.0567401468
 21
157.6854577099
  0
LINE
  5
444
100
AcDbEntity
  8
0
100
AcDbLine
 62
7
  6
CONTINUOUS
 10
87.9369609223
 20
157.7562193423
 11
88.5919609223
 21
157.7562193423
  0
LINE
  5
445
100
AcDbEntity
  8
0
100
AcDbLine
 62
7
  6
CONTINUOUS
 10
88.5919609223
 20
157.7779253646
 11
87.9369609223
 21
157.7779253646
  0
LINE
  5
446
100
AcDbEntity
  8
0
100
AcDbLine
 62
7
  6
CONTINUOUS
 10
87.9369609223
 20
157.8430434312
 11
88.5919609223
 21
157.8430434312
  0
LINE
  5
447
100
AcDbEntity
  8
0
100
AcDbLine
 62
7
  6
CONTINUOUS
 10
80.6780424629
 20
157.4600624097
 11
80.6858313668
 21
157.4591676875
  0
LINE
  5
448
100
AcDbEntity
  8
0
100
AcDbLine
 62
7
  6
CONTINUOUS
 10
80.6960969305
 20
157.4612535213
 11
80.7030981676
 21
157.4603121562
  0
LINE
  5
449
100
AcDbEntity
  8
0
100
AcDbLine
 62
7
  6
CONTINUOUS
 10
81.4053100258
 20
157.3640950766
 11
81.8467654892
 21
157.2974537656
  0
LINE
  5
44A
100
AcDbEntity
  8
0
100
AcDbLine
 62
7
  6
CONTINUOUS
 10
82.188537391
 20
157.2428961021
 11
81.8886798336
 21
157.2885995832
  0
LINE
  5
44B
100
AcDbEntity
  8
0
100
AcDbLine
 62
7
  6
CONTINUOUS
 10
82.2002602056
 20
157.3198087234
 11
81.8886798336
 21
157.3672989644
  0
LINE
  5
44C
100
AcDbEntity
  8
0
100
AcDbLine
 62
7
  6
CONTINUOUS
 10
98.7558970453
 20
146.6416616299
 11
87.3616206014
 21
155.6424520723
  0
LINE
  5
44D
100
AcDbEntity
  8
0
100
AcDbLine
 62
7
  6
CONTINUOUS
 10
95.7088805096
 20
146.6318154762
 11
86.8871442315
 21
155.5733499791
  0
LINE
  5
44E
100
AcDbEntity
  8
0
100
AcDbLine
 62
7
  6
CONTINUOUS
 10
87.676737693
 20
157.5730524565
 11
87.676737693
 21
157.8942217815
  0
LINE
  5
44F
100
AcDbEntity
  8
0
100
AcDbLine
 62
7
  6
CONTINUOUS
 10
87.7619609223
 20
155.7341781504
 11
87.7619609223
 21
155.6697707449
  0
LINE
  5
450
100
AcDbEntity
  8
0
100
AcDbLine
 62
7
  6
CONTINUOUS
 10
87.7619609223
 20
157.8206546991
 11
87.7619609223
 21
158.7616407467
  0
LINE
  5
451
100
AcDbEntity
  8
0
100
AcDbLine
 62
7
  6
CONTINUOUS
 10
88.5919609223
 20
157.8647494534
 11
87.9369609223
 21
157.8647494534
  0
LINE
  5
452
100
AcDbEntity
  8
0
100
AcDbLine
 62
7
  6
CONTINUOUS
 10
87.9369609223
 20
157.92986752
 11
88.5919609223
 21
157.92986752
  0
LINE
  5
453
100
AcDbEntity
  8
0
100
AcDbLine
 62
7
  6
CONTINUOUS
 10
87.7619609223
 20
157.9515735422
 11
88.5919609223
 21
157.9515735422
  0
LINE
  5
454
100
AcDbEntity
  8
0
100
AcDbLine
 62
7
  6
CONTINUOUS
 10
87.7619609223
 20
158.7616407467
 11
87.5837779637
 21
158.7616407467
  0
LINE
  5
455
100
AcDbEntity
  8
0
100
AcDbLine
 62
7
  6
CONTINUOUS
 10
82.9401438809
 20
158.7616407467
 11
82.7619609223
 21
158.7616407467
  0
LINE
  5
456
100
AcDbEntity
  8
7_ALL_ROUNDS
100
AcDbLine
 62
7
  6
CONTINUOUS
 10
98.9497861587
 20
146.6318154762
 11
91.8841125232
 21
153.2700357174
  0
LWPOLYLINE
  5
457
100
AcDbEntity
  8
0
100
AcDbPolyline
 62
7
  6
CONTINUOUS
 90
4
 70
0
 10
91.8843689993
 20
153.2697882755
 10
91.1915110736
 20
153.9227966216
 10
90.0454136832
 20
155.0214671207
 10
89.2326207738
 20
155.8134258083
  0
LINE
  5
458
100
AcDbEntity
  8
0
100
AcDbLine
 62
7
  6
CONTINUOUS
 10
98.9170582964
 20
146.631815468
 11
98.8384588629
 21
146.7060098272
  0
LINE
  5
459
100
AcDbEntity
  8
0
100
AcDbLine
 62
7
  6
CONTINUOUS
 10
87.8509569853
 20
155.6697707449
 11
87.8509569853
 21
155.2559058735
  0
LINE
  5
45A
100
AcDbEntity
  8
7_ALL_ROUNDS
100
AcDbLine
 62
7
  6
CONTINUOUS
 10
87.8509569853
 20
155.6697707449
 11
87.8509569853
 21
155.7714874168
  0
LINE
  5
45B
100
AcDbEntity
  8
0
100
AcDbLine
 62
7
  6
CONTINUOUS
 10
87.9369609223
 20
157.8430434312
 11
87.9369609223
 21
157.7779253646
  0
LINE
  5
45C
100
AcDbEntity
  8
0
100
AcDbLine
 62
7
  6
CONTINUOUS
 10
87.9369609223
 20
157.92986752
 11
87.9369609223
 21
157.8647494534
  0
LINE
  5
45D
100
AcDbEntity
  8
0
100
AcDbLine
 62
7
  6
CONTINUOUS
 10
88.1419609223
 20
155.981780393
 11
88.1419609223
 21
156.3738447514
  0
LINE
  5
45E
100
AcDbEntity
  8
0
100
AcDbLine
 62
7
  6
CONTINUOUS
 10
88.1419609223
 20
157.3309670146
 11
88.1419609223
 21
157.5730524565
  0
LINE
  5
45F
100
AcDbEntity
  8
0
100
AcDbLine
 62
7
  6
CONTINUOUS
 10
88.3219609223
 20
156.5431208122
 11
88.3219609223
 21
157.3309670146
  0
LINE
  5
460
100
AcDbEntity
  8
0
100
AcDbLine
 62
7
  6
CONTINUOUS
 10
88.5919609223
 20
156.089214675
 11
88.5919609223
 21
157.9515735422
  0
LINE
  5
461
100
AcDbEntity
  8
0
100
AcDbLine
 62
7
  6
CONTINUOUS
 10
88.6306344365
 20
163.1565661789
 11
88.6306344365
 21
163.368992887
  0
LINE
  5
462
100
AcDbEntity
  8
0
100
AcDbLine
 62
7
  6
CONTINUOUS
 10
88.635242011
 20
157.2885995832
 11
88.635242011
 21
157.3672989644
  0
LINE
  5
463
100
AcDbEntity
  8
0
100
AcDbLine
 62
7
  6
CONTINUOUS
 10
88.6919609223
 20
157.3072030431
 11
88.6919609223
 21
157.3859024243
  0
LINE
  5
464
100
AcDbEntity
  8
0
100
AcDbLine
 62
7
  6
CONTINUOUS
 10
88.7563037279
 20
163.1604040558
 11
88.7563037279
 21
163.1070021456
  0
LINE
  5
465
100
AcDbEntity
  8
0
100
AcDbLine
 62
7
  6
CONTINUOUS
 10
88.7563037279
 20
163.2940138094
 11
88.7563037279
 21
163.2664839783
  0
LINE
  5
466
100
AcDbEntity
  8
0
100
AcDbLine
 62
7
  6
CONTINUOUS
 10
88.7563037279
 20
163.2493900691
 11
88.7563037279
 21
163.215225018
  0
LINE
  5
467
100
AcDbEntity
  8
0
100
AcDbLine
 62
7
  6
CONTINUOUS
 10
88.7563037279
 20
163.2047663289
 11
88.7563037279
 21
163.1706012777
  0
LINE
  5
468
100
AcDbEntity
  8
0
100
AcDbLine
 62
7
  6
CONTINUOUS
 10
88.7563037279
 20
163.3108462514
 11
88.7563037279
 21
163.3386375497
  0
LINE
  5
469
100
AcDbEntity
  8
0
100
AcDbLine
 62
7
  6
CONTINUOUS
 10
88.9592339668
 20
157.378796366
 11
88.9592339668
 21
157.7305060418
  0
LINE
  5
46A
100
AcDbEntity
  8
7_ALL_ROUNDS
100
AcDbLine
 62
7
  6
CONTINUOUS
 10
89.4246643445
 20
163.2410123121
 11
89.4302204054
 21
163.2664839783
  0
LINE
  5
46B
100
AcDbEntity
  8
0
100
AcDbLine
 62
7
  6
CONTINUOUS
 10
89.1186118188
 20
156.2334690026
 11
89.1186118188
 21
157.3640950766
  0
LINE
  5
46C
100
AcDbEntity
  8
0
100
AcDbLine
 62
7
  6
CONTINUOUS
 10
89.4649651452
 20
163.345094819
 11
89.4649651452
 21
163.310843068
  0
LINE
  5
46D
100
AcDbEntity
  8
0
100
AcDbLine
 62
7
  6
CONTINUOUS
 10
89.4649651452
 20
163.2664807949
 11
89.4649651452
 21
163.3004710787
  0
LINE
  5
46E
100
AcDbEntity
  8
0
100
AcDbLine
 62
7
  6
CONTINUOUS
 10
89.4649651452
 20
163.2216822873
 11
89.4649651452
 21
163.2558473384
  0
LINE
  5
46F
100
AcDbEntity
  8
0
100
AcDbLine
 62
7
  6
CONTINUOUS
 10
89.4649651452
 20
162.7015124903
 11
89.4649651452
 21
163.2112235981
  0
LINE
  5
470
100
AcDbEntity
  8
0
100
AcDbLine
 62
7
  6
CONTINUOUS
 10
89.8278249141
 20
157.4082416874
 11
89.8278249141
 21
157.7599513632
  0
LINE
  5
471
100
AcDbEntity
  8
0
100
AcDbLine
 62
7
  6
CONTINUOUS
 10
89.8758561688
 20
156.2776156135
 11
89.8758561688
 21
157.4082416874
  0
LINE
  5
472
100
AcDbEntity
  8
7_ALL_ROUNDS
100
AcDbLine
 62
7
  6
CONTINUOUS
 10
88.8088574378
 20
163.2664839783
 11
88.8144134987
 21
163.2410123121
  0
LINE
  5
473
100
AcDbEntity
  8
0
100
AcDbLine
 62
7
  6
CONTINUOUS
 10
90.5077241443
 20
161.0432405138
 11
90.6616970766
 21
158.1164726063
  0
LINE
  5
474
100
AcDbEntity
  8
0
100
AcDbLine
 62
7
  6
CONTINUOUS
 10
90.8499921769
 20
156.6319790096
 11
90.8499921769
 21
157.64578262
  0
LINE
  5
475
100
AcDbEntity
  8
0
100
AcDbLine
 62
7
  6
CONTINUOUS
 10
91.0119609225
 20
157.7626050835
 11
91.0119609225
 21
158.1143147593
  0
LINE
  5
476
100
AcDbEntity
  8
7_ALL_ROUNDS
100
AcDbLine
 62
7
  6
CONTINUOUS
 10
88.8144134987
 20
163.2410123121
 11
88.8384434066
 21
163.1901866891
  0
LINE
  5
477
100
AcDbEntity
  8
0
100
AcDbLine
 62
7
  6
CONTINUOUS
 10
91.7619609223
 20
156.2584059978
 11
91.7619609223
 21
156.6319790096
  0
LINE
  5
478
100
AcDbEntity
  8
0
100
AcDbLine
 62
7
  6
CONTINUOUS
 10
89.6912010635
 20
162.7017562209
 11
89.464625026
 21
162.7017562209
  0
LINE
  5
479
100
AcDbEntity
  8
7_ALL_ROUNDS
100
AcDbLine
 62
7
  6
CONTINUOUS
 10
89.3703836712
 20
163.3262524768
 11
88.868694172
 21
163.3262524768
  0
LINE
  5
47A
100
AcDbEntity
  8
7_ALL_ROUNDS
100
AcDbLine
 62
7
  6
CONTINUOUS
 10
89.3703836712
 20
163.3364496987
 11
88.868694172
 21
163.3364496987
  0
LINE
  5
47B
100
AcDbEntity
  8
7_ALL_ROUNDS
100
AcDbLine
 62
7
  6
CONTINUOUS
 10
89.3703836712
 20
163.3706147498
 11
88.868694172
 21
163.3706147498
  0
LINE
  5
47C
100
AcDbEntity
  8
7_ALL_ROUNDS
100
AcDbLine
 62
7
  6
CONTINUOUS
 10
89.3703836712
 20
163.381073439
 11
88.868694172
 21
163.381073439
  0
LINE
  5
47D
100
AcDbEntity
  8
7_ALL_ROUNDS
100
AcDbLine
 62
7
  6
CONTINUOUS
 10
89.3703836712
 20
163.4152384901
 11
88.868694172
 21
163.4152384901
  0
LINE
  5
47E
100
AcDbEntity
  8
7_ALL_ROUNDS
100
AcDbLine
 62
7
  6
CONTINUOUS
 10
89.3703836712
 20
163.4256971793
 11
88.868694172
 21
163.4256971793
  0
LINE
  5
47F
100
AcDbEntity
  8
7_ALL_ROUNDS
100
AcDbLine
 62
7
  6
CONTINUOUS
 10
89.3703836712
 20
163.4598622304
 11
88.868694172
 21
163.4598622304
  0
LINE
  5
480
100
AcDbEntity
  8
7_ALL_ROUNDS
100
AcDbLine
 62
7
  6
CONTINUOUS
 10
89.3703836712
 20
163.4703209195
 11
88.868694172
 21
163.4703209195
  0
LINE
  5
481
100
AcDbEntity
  8
7_ALL_ROUNDS
100
AcDbLine
 62
7
  6
CONTINUOUS
 10
88.868694172
 20
163.5044859707
 11
89.3703836712
 21
163.5044859707
  0
LINE
  5
482
100
AcDbEntity
  8
7_ALL_ROUNDS
100
AcDbLine
 62
7
  6
CONTINUOUS
 10
88.868694172
 20
163.5149446598
 11
89.3703836712
 21
163.5149446598
  0
LINE
  5
483
100
AcDbEntity
  8
0
100
AcDbLine
 62
7
  6
CONTINUOUS
 10
86.9499609223
 20
163.8268154762
 11
83.5739609223
 21
163.8268154762
  0
LINE
  5
484
100
AcDbEntity
  8
0
100
AcDbLine
 62
7
  6
CONTINUOUS
 10
92.8869609223
 20
146.3818154762
 11
92.8869609223
 21
146.3518154762
  0
LINE
  5
485
100
AcDbEntity
  8
0
100
AcDbLine
 62
7
  6
CONTINUOUS
 10
89.4649651452
 20
163.1668613251
 11
89.4006344365
 21
163.1901866891
  0
LINE
  5
486
100
AcDbEntity
  8
0
100
AcDbLine
 62
7
  6
CONTINUOUS
 10
89.4649651452
 20
163.2112235981
 11
89.4166943016
 21
163.2287258925
  0
LINE
  5
487
100
AcDbEntity
  8
0
100
AcDbLine
 62
7
  6
CONTINUOUS
 10
89.4649651452
 20
163.2558473384
 11
89.4309942271
 21
163.2681646912
  0
LINE
  5
488
100
AcDbEntity
  8
0
100
AcDbLine
 62
7
  6
CONTINUOUS
 10
89.4649651452
 20
163.3004710787
 11
89.4452941525
 21
163.3076034899
  0
LINE
  5
489
100
AcDbEntity
  8
0
100
AcDbLine
 62
7
  6
CONTINUOUS
 10
89.4649651452
 20
163.345094819
 11
89.4453779411
 21
163.3521968497
  0
LINE
  5
48A
100
AcDbEntity
  8
0
100
AcDbLine
 62
7
  6
CONTINUOUS
 10
89.6912010635
 20
162.7017562209
 11
89.8359644019
 21
162.629381139
  0
LINE
  5
48B
100
AcDbEntity
  8
0
100
AcDbLine
 62
7
  6
CONTINUOUS
 10
96.0132124553
 20
166.4068154762
 11
74.5107093893
 21
166.4068154762
  0
LINE
  5
48C
100
AcDbEntity
  8
0
100
AcDbLine
 62
7
  6
CONTINUOUS
 10
96.0796591322
 20
166.4858154762
 11
74.4442627124
 21
166.4858154762
  0
LINE
  5
48D
100
AcDbEntity
  8
0
100
AcDbLine
 62
7
  6
CONTINUOUS
 10
70.2619609223
 20
166.6318154762
 11
100.2619609223
 21
166.6318154762
  0
LINE
  5
48E
100
AcDbEntity
  8
0
100
AcDbLine
 62
7
  6
CONTINUOUS
 10
99.1209609223
 20
148.5372617909
 11
96.0132124553
 21
166.4068154762
  0
LINE
  5
48F
100
AcDbEntity
  8
0
100
AcDbLine
 62
7
  6
CONTINUOUS
 10
99.1999609223
 20
148.5440801834
 11
96.0796591322
 21
166.4858154762
  0
LINE
  5
490
100
AcDbEntity
  8
0
100
AcDbLine
 62
7
  6
CONTINUOUS
 10
99.1209609223
 20
146.8858154762
 11
99.1209609223
 21
148.5372617909
  0
LINE
  5
491
100
AcDbEntity
  8
0
100
AcDbLine
 62
7
  6
CONTINUOUS
 10
99.1999609223
 20
146.8068154762
 11
99.1999609223
 21
148.5440801834
  0
LINE
  5
492
100
AcDbEntity
  8
0
100
AcDbLine
 62
7
  6
CONTINUOUS
 10
99.2599609223
 20
146.6318154762
 11
99.2599609223
 21
147.9806982551
  0
LINE
  5
493
100
AcDbEntity
  8
0
100
AcDbLine
 62
7
  6
CONTINUOUS
 10
99.3359609223
 20
147.9806982551
 11
99.3359609223
 21
146.7078154762
  0
LINE
  5
494
100
AcDbEntity
  8
0
100
AcDbLine
 62
7
  6
CONTINUOUS
 10
99.4359609223
 20
146.6318154762
 11
99.4359609223
 21
146.7078154762
  0
LINE
  5
495
100
AcDbEntity
  8
7_ALL_ROUNDS
100
AcDbLine
 62
7
  6
CONTINUOUS
 10
99.7619609223
 20
146.7078154762
 11
99.7619609223
 21
146.6318154762
  0
LINE
  5
496
100
AcDbEntity
  8
7_ALL_ROUNDS
100
AcDbLine
 62
7
  6
CONTINUOUS
 10
100.1019609223
 20
146.7078154762
 11
100.1019609223
 21
146.6318154762
  0
LINE
  5
497
100
AcDbEntity
  8
0
100
AcDbLine
 62
7
  6
CONTINUOUS
 10
100.1869609223
 20
146.3818154762
 11
100.1869609223
 21
146.6318154762
  0
LINE
  5
498
100
AcDbEntity
  8
7_ALL_ROUNDS
100
AcDbLine
 62
7
  6
CONTINUOUS
 10
100.1869609223
 20
146.7078154762
 11
100.1869609223
 21
147.4578154762
  0
LINE
  5
499
100
AcDbEntity
  8
7_ALL_ROUNDS
100
AcDbLine
 62
7
  6
CONTINUOUS
 10
100.2619609223
 20
146.3818154762
 11
100.2619609223
 21
147.4578154762
  0
LINE
  5
49A
100
AcDbEntity
  8
0
100
AcDbLine
 62
7
  6
CONTINUOUS
 10
100.2619609223
 20
147.4578154762
 11
100.2619609223
 21
166.6318154762
  0
LINE
  5
49B
100
AcDbEntity
  8
7_ALL_ROUNDS
100
AcDbLine
 62
7
  6
CONTINUOUS
 10
178.8656087787
 20
37.0235231547
 11
177.6160281261
 21
37.0235231547
  0
LINE
  5
49C
100
AcDbEntity
  8
7_ALL_ROUNDS
100
AcDbLine
 62
7
  6
CONTINUOUS
 10
163.6156087787
 20
37.0235231547
 11
162.3660281261
 21
37.0235231547
  0
LINE
  5
49D
100
AcDbEntity
  8
7_ALL_ROUNDS
100
AcDbLine
 62
7
  6
CONTINUOUS
 10
178.9908184524
 20
37.1485231547
 11
177.4908184524
 21
37.1485231547
  0
LINE
  5
49E
100
AcDbEntity
  8
7_ALL_ROUNDS
100
AcDbLine
 62
7
  6
CONTINUOUS
 10
163.7408184524
 20
37.1485231547
 11
162.2408184524
 21
37.1485231547
  0
LINE
  5
49F
100
AcDbEntity
  8
0
100
AcDbLine
 62
7
  6
CONTINUOUS
 10
180.7408184524
 20
37.7735231547
 11
160.4908184524
 21
37.7735231547
  0
LINE
  5
4A0
100
AcDbEntity
  8
0
100
AcDbLine
 62
7
  6
CONTINUOUS
 10
160.4908184524
 20
39.0894680366
 11
160.4608184524
 21
39.0894680366
  0
LINE
  5
4A1
100
AcDbEntity
  8
0
100
AcDbLine
 62
7
  6
CONTINUOUS
 10
161.5668184524
 20
116.3419402633
 11
170.2896148952
 21
122.3303708772
  0
LINE
  5
4A2
100
AcDbEntity
  8
0
100
AcDbLine
 62
7
  6
CONTINUOUS
 10
160.4908184524
 20
54.3394680366
 11
160.4608184524
 21
54.3394680366
  0
LINE
  5
4A3
100
AcDbEntity
  8
0
100
AcDbLine
 62
7
  6
CONTINUOUS
 10
160.4908184524
 20
56.2119680366
 11
160.4608184524
 21
56.2119680366
  0
LINE
  5
4A4
100
AcDbEntity
  8
0
100
AcDbLine
 62
7
  6
CONTINUOUS
 10
161.5668184524
 20
93.5615147996
 11
170.6724540736
 21
100.0147564927
  0
LINE
  5
4A5
100
AcDbEntity
  8
0
100
AcDbLine
 62
7
  6
CONTINUOUS
 10
160.4608184524
 20
39.0896758717
 11
160.4608184524
 21
54.3392602014
  0
LINE
  5
4A6
100
AcDbEntity
  8
0
100
AcDbLine
 62
7
  6
CONTINUOUS
 10
160.4608184524
 20
56.2121758717
 11
160.4608184524
 21
71.4617602014
  0
LINE
  5
4A7
100
AcDbEntity
  8
0
100
AcDbLine
 62
7
  6
CONTINUOUS
 10
160.4608184524
 20
73.3346758717
 11
160.4608184524
 21
88.5842602014
  0
LINE
  5
4A8
100
AcDbEntity
  8
0
100
AcDbLine
 62
7
  6
CONTINUOUS
 10
160.4908184524
 20
37.7735231547
 11
160.4908184524
 21
89.9034444145
  0
LINE
  5
4A9
100
AcDbEntity
  8
7_ALL_ROUNDS
100
AcDbLine
 62
7
  6
CONTINUOUS
 10
160.4908184524
 20
90.790265659
 11
160.4908184524
 21
113.6605590306
  0
LINE
  5
4AA
100
AcDbEntity
  8
0
100
AcDbLine
 62
7
  6
CONTINUOUS
 10
160.4908184524
 20
113.8532509385
 11
160.4908184524
 21
129.4532509385
  0
LINE
  5
4AB
100
AcDbEntity
  8
7_ALL_ROUNDS
100
AcDbLine
 62
7
  6
CONTINUOUS
 10
160.7408184524
 20
128.9295590306
 11
160.7408184524
 21
113.1605590306
  0
LINE
  5
4AC
100
AcDbEntity
  8
7_ALL_ROUNDS
100
AcDbLine
 62
7
  6
CONTINUOUS
 10
160.7408184524
 20
91.2905590306
 11
160.7408184524
 21
90.790265659
  0
LINE
  5
4AD
100
AcDbEntity
  8
0
100
AcDbLine
 62
7
  6
CONTINUOUS
 10
160.7408184524
 20
128.9295590306
 11
160.7408184524
 21
129.4532509385
  0
LINE
  5
4AE
100
AcDbEntity
  8
7_ALL_ROUNDS
100
AcDbLine
 62
7
  6
CONTINUOUS
 10
160.8168184524
 20
129.2695590306
 11
160.8168184524
 21
128.9295590306
  0
LINE
  5
4AF
100
AcDbEntity
  8
7_ALL_ROUNDS
100
AcDbLine
 62
7
  6
CONTINUOUS
 10
160.8168184524
 20
91.2905590306
 11
160.8168184524
 21
90.790265659
  0
LINE
  5
4B0
100
AcDbEntity
  8
0
100
AcDbLine
 62
7
  6
CONTINUOUS
 10
160.9158184524
 20
89.9034444145
 11
160.9158184524
 21
90.790265659
  0
LINE
  5
4B1
100
AcDbEntity
  8
7_ALL_ROUNDS
100
AcDbLine
 62
7
  6
CONTINUOUS
 10
169.8424030536
 20
97.4755864927
 11
169.7351177108
 21
97.3833198365
  0
LINE
  5
4B2
100
AcDbEntity
  8
0
100
AcDbLine
 62
7
  6
CONTINUOUS
 10
169.2827754215
 20
96.0051007813
 11
169.1311510468
 21
95.8747020364
  0
LINE
  5
4B3
100
AcDbEntity
  8
0
100
AcDbLine
 62
7
  6
CONTINUOUS
 10
160.4908184524
 20
71.4619680366
 11
160.4608184524
 21
71.4619680366
  0
LINE
  5
4B4
100
AcDbEntity
  8
7_ALL_ROUNDS
100
AcDbLine
 62
7
  6
CONTINUOUS
 10
171.8708184524
 20
73.0534444145
 11
176.5408184524
 21
73.0534444145
  0
LINE
  5
4B5
100
AcDbEntity
  8
7_ALL_ROUNDS
100
AcDbLine
 62
7
  6
CONTINUOUS
 10
176.5088184524
 20
73.1084444145
 11
171.9028184524
 21
73.1084444145
  0
LINE
  5
4B6
100
AcDbEntity
  8
0
100
AcDbLine
 62
7
  6
CONTINUOUS
 10
160.4908184524
 20
73.3344680366
 11
160.4608184524
 21
73.3344680366
  0
LINE
  5
4B7
100
AcDbEntity
  8
7_ALL_ROUNDS
100
AcDbLine
 62
7
  6
CONTINUOUS
 10
172.574617665
 20
73.7797436271
 11
175.8370192398
 21
73.7797436271
  0
LINE
  5
4B8
100
AcDbEntity
  8
7_ALL_ROUNDS
100
AcDbLine
 62
7
  6
CONTINUOUS
 10
161.5668184524
 20
91.7905590306
 11
161.5668184524
 21
128.4295590306
  0
LINE
  5
4B9
100
AcDbEntity
  8
0
100
AcDbLine
 62
7
  6
CONTINUOUS
 10
162.2408184524
 20
37.7735231547
 11
162.2408184524
 21
37.1485231547
  0
LINE
  5
4BA
100
AcDbEntity
  8
0
100
AcDbLine
 62
7
  6
CONTINUOUS
 10
162.6530831596
 20
89.9034444145
 11
162.6530831596
 21
90.887696383
  0
LINE
  5
4BB
100
AcDbEntity
  8
0
100
AcDbLine
 62
7
  6
CONTINUOUS
 10
163.7408184524
 20
37.7735231547
 11
163.7408184524
 21
37.1485231547
  0
LINE
  5
4BC
100
AcDbEntity
  8
0
100
AcDbLine
 62
7
  6
CONTINUOUS
 10
171.5244952157
 20
111.9118338282
 11
171.5831155127
 21
112.0728917706
  0
LINE
  5
4BD
100
AcDbEntity
  8
0
100
AcDbLine
 62
7
  6
CONTINUOUS
 10
172.6156606571
 20
77.8333656743
 11
175.8056606571
 21
77.8333656743
  0
LINE
  5
4BE
100
AcDbEntity
  8
0
100
AcDbLine
 62
7
  6
CONTINUOUS
 10
172.7406606571
 20
77.9333656743
 11
173.1156527831
 21
77.9333656743
  0
LINE
  5
4BF
100
AcDbEntity
  8
0
100
AcDbLine
 62
7
  6
CONTINUOUS
 10
173.2406527831
 20
77.9333656743
 11
173.6156527831
 21
77.9333656743
  0
LINE
  5
4C0
100
AcDbEntity
  8
0
100
AcDbLine
 62
7
  6
CONTINUOUS
 10
173.7406527831
 20
77.9333656743
 11
174.1481527831
 21
77.9333656743
  0
LINE
  5
4C1
100
AcDbEntity
  8
0
100
AcDbLine
 62
7
  6
CONTINUOUS
 10
174.2731527831
 20
77.9333656743
 11
174.6806527831
 21
77.9333656743
  0
LINE
  5
4C2
100
AcDbEntity
  8
0
100
AcDbLine
 62
7
  6
CONTINUOUS
 10
174.8056527831
 20
77.9333656743
 11
175.1806527831
 21
77.9333656743
  0
LINE
  5
4C3
100
AcDbEntity
  8
0
100
AcDbLine
 62
7
  6
CONTINUOUS
 10
175.3056527831
 20
77.9333656743
 11
175.6806606571
 21
77.9333656743
  0
LINE
  5
4C4
100
AcDbEntity
  8
0
100
AcDbLine
 62
7
  6
CONTINUOUS
 10
172.7406606571
 20
78.4333656743
 11
173.1156527831
 21
78.4333656743
  0
LINE
  5
4C5
100
AcDbEntity
  8
0
100
AcDbLine
 62
7
  6
CONTINUOUS
 10
173.2406527831
 20
78.4333656743
 11
173.6156527831
 21
78.4333656743
  0
LINE
  5
4C6
100
AcDbEntity
  8
0
100
AcDbLine
 62
7
  6
CONTINUOUS
 10
173.7406527831
 20
78.4333656743
 11
174.1481527831
 21
78.4333656743
  0
LINE
  5
4C7
100
AcDbEntity
  8
0
100
AcDbLine
 62
7
  6
CONTINUOUS
 10
174.2731527831
 20
78.4333656743
 11
174.6806527831
 21
78.4333656743
  0
LINE
  5
4C8
100
AcDbEntity
  8
0
100
AcDbLine
 62
7
  6
CONTINUOUS
 10
174.8056527831
 20
78.4333656743
 11
175.1806527831
 21
78.4333656743
  0
LINE
  5
4C9
100
AcDbEntity
  8
0
100
AcDbLine
 62
7
  6
CONTINUOUS
 10
175.3056527831
 20
78.4333656743
 11
175.6806606571
 21
78.4333656743
  0
LINE
  5
4CA
100
AcDbEntity
  8
0
100
AcDbLine
 62
7
  6
CONTINUOUS
 10
172.6156606571
 20
78.5333656743
 11
175.8056606571
 21
78.5333656743
  0
LINE
  5
4CB
100
AcDbEntity
  8
7_ALL_ROUNDS
100
AcDbLine
 62
7
  6
CONTINUOUS
 10
175.8370192398
 20
79.4271452019
 11
172.574617665
 21
79.4271452019
  0
LINE
  5
4CC
100
AcDbEntity
  8
7_ALL_ROUNDS
100
AcDbLine
 62
7
  6
CONTINUOUS
 10
171.9028184524
 20
80.0984444145
 11
176.5088184524
 21
80.0984444145
  0
LINE
  5
4CD
100
AcDbEntity
  8
7_ALL_ROUNDS
100
AcDbLine
 62
7
  6
CONTINUOUS
 10
176.5408184524
 20
80.1534444145
 11
171.8708184524
 21
80.1534444145
  0
LINE
  5
4CE
100
AcDbEntity
  8
7_ALL_ROUNDS
100
AcDbLine
 62
7
  6
CONTINUOUS
 10
169.2827754215
 20
96.39768481
 11
169.2827754215
 21
96.0051007813
  0
LINE
  5
4CF
100
AcDbEntity
  8
0
100
AcDbLine
 62
7
  6
CONTINUOUS
 10
162.0079062648
 20
91.3648564046
 11
161.5668184524
 21
92.0355553587
  0
LINE
  5
4D0
100
AcDbEntity
  8
0
100
AcDbLine
 62
7
  6
CONTINUOUS
 10
170.9338958472
 20
97.0264633466
 11
169.8009221008
 21
109.9764125254
  0
LINE
  5
4D1
100
AcDbEntity
  8
0
100
AcDbLine
 62
7
  6
CONTINUOUS
 10
171.2926397983
 20
97.2286436888
 11
170.2501057649
 21
109.144862218
  0
LINE
  5
4D2
100
AcDbEntity
  8
0
100
AcDbLine
 62
7
  6
CONTINUOUS
 10
171.2822980149
 20
110.3688829388
 11
172.4381131252
 21
97.1578557758
  0
LINE
  5
4D3
100
AcDbEntity
  8
0
100
AcDbLine
 62
7
  6
CONTINUOUS
 10
171.360997396
 20
110.3757682425
 11
171.5303896809
 21
108.4396055668
  0
LINE
  5
4D4
100
AcDbEntity
  8
0
100
AcDbLine
 62
7
  6
CONTINUOUS
 10
171.7221722147
 20
109.3919284274
 11
172.7244632563
 21
97.9356893989
  0
LINE
  5
4D5
100
AcDbEntity
  8
7_ALL_ROUNDS
100
AcDbLine
 62
7
  6
CONTINUOUS
 10
171.6808184524
 20
79.9634444145
 11
171.6808184524
 21
73.2434444145
  0
LINE
  5
4D6
100
AcDbEntity
  8
7_ALL_ROUNDS
100
AcDbLine
 62
7
  6
CONTINUOUS
 10
171.7158184524
 20
73.2954444145
 11
171.7158184524
 21
79.9114444145
  0
LINE
  5
4D7
100
AcDbEntity
  8
7_ALL_ROUNDS
100
AcDbLine
 62
7
  6
CONTINUOUS
 10
172.387117665
 20
79.2396452019
 11
172.387117665
 21
73.9672436271
  0
LINE
  5
4D8
100
AcDbEntity
  8
0
100
AcDbLine
 62
7
  6
CONTINUOUS
 10
172.6156606571
 20
78.5333656743
 11
172.6156606571
 21
77.8333656743
  0
LINE
  5
4D9
100
AcDbEntity
  8
0
100
AcDbLine
 62
7
  6
CONTINUOUS
 10
172.7406606571
 20
78.5333656743
 11
172.7406606571
 21
77.8333656743
  0
LINE
  5
4DA
100
AcDbEntity
  8
0
100
AcDbLine
 62
7
  6
CONTINUOUS
 10
173.1156527831
 20
78.5333656743
 11
173.1156527831
 21
77.8333656743
  0
LINE
  5
4DB
100
AcDbEntity
  8
0
100
AcDbLine
 62
7
  6
CONTINUOUS
 10
173.2406527831
 20
78.5333656743
 11
173.2406527831
 21
77.8333656743
  0
LINE
  5
4DC
100
AcDbEntity
  8
0
100
AcDbLine
 62
7
  6
CONTINUOUS
 10
173.6156527831
 20
78.5333656743
 11
173.6156527831
 21
77.8333656743
  0
LINE
  5
4DD
100
AcDbEntity
  8
0
100
AcDbLine
 62
7
  6
CONTINUOUS
 10
173.7406527831
 20
78.5333656743
 11
173.7406527831
 21
77.8333656743
  0
LINE
  5
4DE
100
AcDbEntity
  8
0
100
AcDbLine
 62
7
  6
CONTINUOUS
 10
174.1481527831
 20
78.5333656743
 11
174.1481527831
 21
77.8333656743
  0
LINE
  5
4DF
100
AcDbEntity
  8
0
100
AcDbLine
 62
7
  6
CONTINUOUS
 10
167.5168568493
 20
119.3567354141
 11
169.1779753169
 21
109.9360644488
  0
LINE
  5
4E0
100
AcDbEntity
  8
7_ALL_ROUNDS
100
AcDbLine
 62
7
  6
CONTINUOUS
 10
175.6073503695
 20
98.694016868
 11
174.6929439779
 21
109.1457297502
  0
LINE
  5
4E1
100
AcDbEntity
  8
0
100
AcDbLine
 62
7
  6
CONTINUOUS
 10
174.2731527831
 20
78.5333656743
 11
174.2731527831
 21
77.8333656743
  0
LINE
  5
4E2
100
AcDbEntity
  8
0
100
AcDbLine
 62
7
  6
CONTINUOUS
 10
174.6806527831
 20
78.5333656743
 11
174.6806527831
 21
77.8333656743
  0
LINE
  5
4E3
100
AcDbEntity
  8
0
100
AcDbLine
 62
7
  6
CONTINUOUS
 10
174.8056527831
 20
78.5333656743
 11
174.8056527831
 21
77.8333656743
  0
LINE
  5
4E4
100
AcDbEntity
  8
0
100
AcDbLine
 62
7
  6
CONTINUOUS
 10
175.1806527831
 20
78.5333656743
 11
175.1806527831
 21
77.8333656743
  0
LINE
  5
4E5
100
AcDbEntity
  8
0
100
AcDbLine
 62
7
  6
CONTINUOUS
 10
175.3056527831
 20
78.5333656743
 11
175.3056527831
 21
77.8333656743
  0
LINE
  5
4E6
100
AcDbEntity
  8
0
100
AcDbLine
 62
7
  6
CONTINUOUS
 10
175.6806606571
 20
78.5333656743
 11
175.6806606571
 21
77.8333656743
  0
LINE
  5
4E7
100
AcDbEntity
  8
0
100
AcDbLine
 62
7
  6
CONTINUOUS
 10
175.8056606571
 20
78.5333656743
 11
175.8056606571
 21
77.8333656743
  0
LINE
  5
4E8
100
AcDbEntity
  8
7_ALL_ROUNDS
100
AcDbLine
 62
7
  6
CONTINUOUS
 10
176.0245192398
 20
73.9672436271
 11
176.0245192398
 21
79.2396452019
  0
LINE
  5
4E9
100
AcDbEntity
  8
7_ALL_ROUNDS
100
AcDbLine
 62
7
  6
CONTINUOUS
 10
176.6958184524
 20
79.9114444145
 11
176.6958184524
 21
73.2954444145
  0
LINE
  5
4EA
100
AcDbEntity
  8
7_ALL_ROUNDS
100
AcDbLine
 62
7
  6
CONTINUOUS
 10
176.7308184524
 20
73.2434444145
 11
176.7308184524
 21
79.9634444145
  0
LINE
  5
4EB
100
AcDbEntity
  8
0
100
AcDbLine
 62
7
  6
CONTINUOUS
 10
160.4908184524
 20
88.5844680366
 11
160.4608184524
 21
88.5844680366
  0
LINE
  5
4EC
100
AcDbEntity
  8
0
100
AcDbLine
 62
7
  6
CONTINUOUS
 10
160.4908184524
 20
89.9034444145
 11
180.7408184524
 21
89.9034444145
  0
LINE
  5
4ED
100
AcDbEntity
  8
0
100
AcDbLine
 62
7
  6
CONTINUOUS
 10
168.3191572656
 20
118.4634829065
 11
169.6272412803
 21
111.0449698155
  0
LINE
  5
4EE
100
AcDbEntity
  8
7_ALL_ROUNDS
100
AcDbLine
 62
7
  6
CONTINUOUS
 10
169.7787737211
 20
119.7555723867
 11
169.9123091698
 21
118.9982552246
  0
LINE
  5
4EF
100
AcDbEntity
  8
7_ALL_ROUNDS
100
AcDbLine
 62
7
  6
CONTINUOUS
 10
171.3072172733
 20
111.087338257
 11
171.3294168335
 21
110.9614382951
  0
LINE
  5
4F0
100
AcDbEntity
  8
0
100
AcDbLine
 62
7
  6
CONTINUOUS
 10
171.4082528473
 20
110.5143370429
 11
171.4398921887
 21
110.3349014214
  0
LINE
  5
4F1
100
AcDbEntity
  8
0
100
AcDbLine
 62
7
  6
CONTINUOUS
 10
170.1982176512
 20
119.3416191815
 11
170.7521553379
 21
116.2000824494
  0
LINE
  5
4F2
100
AcDbEntity
  8
0
100
AcDbLine
 62
7
  6
CONTINUOUS
 10
170.8172734045
 20
115.830779542
 11
171.3712110913
 21
112.6892428099
  0
LINE
  5
4F3
100
AcDbEntity
  8
0
100
AcDbLine
 62
7
  6
CONTINUOUS
 10
170.3184044487
 20
119.2358830301
 11
170.3835225153
 21
118.8665801228
  0
LINE
  5
4F4
100
AcDbEntity
  8
0
100
AcDbLine
 62
7
  6
CONTINUOUS
 10
170.4052285375
 20
118.7434791536
 11
170.4703466041
 21
118.3741762462
  0
LINE
  5
4F5
100
AcDbEntity
  8
0
100
AcDbLine
 62
7
  6
CONTINUOUS
 10
170.4920526263
 20
118.2510752771
 11
170.5628142587
 21
117.8497661178
  0
LINE
  5
4F6
100
AcDbEntity
  8
0
100
AcDbLine
 62
7
  6
CONTINUOUS
 10
170.584520281
 20
117.7266651486
 11
170.6552819134
 21
117.3253559893
  0
LINE
  5
4F7
100
AcDbEntity
  8
0
100
AcDbLine
 62
7
  6
CONTINUOUS
 10
170.6769879356
 20
117.2022550202
 11
170.7421060022
 21
116.8329521128
  0
LINE
  5
4F8
100
AcDbEntity
  8
0
100
AcDbLine
 62
7
  6
CONTINUOUS
 10
170.7638120244
 20
116.7098511437
 11
170.828930091
 21
116.3405482363
  0
LINE
  5
4F9
100
AcDbEntity
  8
0
100
AcDbLine
 62
7
  6
CONTINUOUS
 10
170.9374602021
 20
115.7250433906
 11
171.0025782687
 21
115.3557404833
  0
LINE
  5
4FA
100
AcDbEntity
  8
0
100
AcDbLine
 62
7
  6
CONTINUOUS
 10
171.0242842909
 20
115.2326395141
 11
171.0894023575
 21
114.8633366068
  0
LINE
  5
4FB
100
AcDbEntity
  8
0
100
AcDbLine
 62
7
  6
CONTINUOUS
 10
171.1111083797
 20
114.7402356376
 11
171.1818700121
 21
114.3389264783
  0
LINE
  5
4FC
100
AcDbEntity
  8
0
100
AcDbLine
 62
7
  6
CONTINUOUS
 10
171.2035760343
 20
114.2158255092
 11
171.2743376667
 21
113.8145163498
  0
LINE
  5
4FD
100
AcDbEntity
  8
0
100
AcDbLine
 62
7
  6
CONTINUOUS
 10
171.2960436889
 20
113.6914153807
 11
171.3611617556
 21
113.3221124733
  0
LINE
  5
4FE
100
AcDbEntity
  8
0
100
AcDbLine
 62
7
  6
CONTINUOUS
 10
171.3828677778
 20
113.1990115042
 11
171.4479858444
 21
112.8297085968
  0
LINE
  5
4FF
100
AcDbEntity
  8
0
100
AcDbLine
 62
7
  6
CONTINUOUS
 10
171.9403897209
 20
112.9165326856
 11
171.8752716543
 21
113.285835593
  0
LINE
  5
500
100
AcDbEntity
  8
0
100
AcDbLine
 62
7
  6
CONTINUOUS
 10
171.8535656321
 20
113.4089365621
 11
171.7884475654
 21
113.7782394695
  0
LINE
  5
501
100
AcDbEntity
  8
0
100
AcDbLine
 62
7
  6
CONTINUOUS
 10
171.7667415432
 20
113.9013404386
 11
171.6959799108
 21
114.302649598
  0
LINE
  5
502
100
AcDbEntity
  8
0
100
AcDbLine
 62
7
  6
CONTINUOUS
 10
171.6742738886
 20
114.4257505671
 11
171.6035122562
 21
114.8270597265
  0
LINE
  5
503
100
AcDbEntity
  8
0
100
AcDbLine
 62
7
  6
CONTINUOUS
 10
171.581806234
 20
114.9501606956
 11
171.5166881674
 21
115.319463603
  0
LINE
  5
504
100
AcDbEntity
  8
0
100
AcDbLine
 62
7
  6
CONTINUOUS
 10
171.4949821452
 20
115.4425645721
 11
171.4298640786
 21
115.8118674795
  0
LINE
  5
505
100
AcDbEntity
  8
0
100
AcDbLine
 62
7
  6
CONTINUOUS
 10
171.3213339675
 20
116.4273723251
 11
171.2562159009
 21
116.7966752325
  0
LINE
  5
506
100
AcDbEntity
  8
0
100
AcDbLine
 62
7
  6
CONTINUOUS
 10
171.2345098787
 20
116.9197762016
 11
171.1693918121
 21
117.289079109
  0
LINE
  5
507
100
AcDbEntity
  8
0
100
AcDbLine
 62
7
  6
CONTINUOUS
 10
171.1476857899
 20
117.4121800781
 11
171.0769241575
 21
117.8134892375
  0
LINE
  5
508
100
AcDbEntity
  8
0
100
AcDbLine
 62
7
  6
CONTINUOUS
 10
171.0552181352
 20
117.9365902066
 11
170.9844565029
 21
118.337899366
  0
LINE
  5
509
100
AcDbEntity
  8
0
100
AcDbLine
 62
7
  6
CONTINUOUS
 10
170.9627504806
 20
118.4610003351
 11
170.897632414
 21
118.8303032425
  0
LINE
  5
50A
100
AcDbEntity
  8
0
100
AcDbLine
 62
7
  6
CONTINUOUS
 10
170.8759263918
 20
118.9534042116
 11
170.8108083252
 21
119.322707119
  0
LINE
  5
50B
100
AcDbEntity
  8
0
100
AcDbLine
 62
7
  6
CONTINUOUS
 10
169.5906766175
 20
126.2942468245
 11
170.5908901209
 21
120.6217541672
  0
LINE
  5
50C
100
AcDbEntity
  8
0
100
AcDbLine
 62
7
  6
CONTINUOUS
 10
172.0605765184
 20
112.8107965343
 11
171.5066388317
 21
115.9523332664
  0
LINE
  5
50D
100
AcDbEntity
  8
0
100
AcDbLine
 62
7
  6
CONTINUOUS
 10
171.441520765
 20
116.3216361737
 11
170.8875830783
 21
119.4631729059
  0
LINE
  5
50E
100
AcDbEntity
  8
0
100
AcDbLine
 62
7
  6
CONTINUOUS
 10
170.5074720291
 20
122.0795914271
 11
170.8829297491
 21
119.9502648854
  0
LINE
  5
50F
100
AcDbEntity
  8
0
100
AcDbLine
 62
7
  6
CONTINUOUS
 10
172.5440482167
 20
110.5295939201
 11
172.7928439104
 21
109.1186034258
  0
LINE
  5
510
100
AcDbEntity
  8
0
100
AcDbLine
 62
7
  6
CONTINUOUS
 10
170.5852718416
 20
122.0933096332
 11
172.8706437229
 21
109.1323216318
  0
LINE
  5
511
100
AcDbEntity
  8
0
100
AcDbLine
 62
7
  6
CONTINUOUS
 10
176.810759197
 20
102.8605742308
 11
176.6015854144
 21
105.2514415063
  0
LINE
  5
512
100
AcDbEntity
  8
0
100
AcDbLine
 62
7
  6
CONTINUOUS
 10
176.7811966985
 20
105.0342692551
 11
176.8153617496
 21
104.6437609335
  0
LINE
  5
513
100
AcDbEntity
  8
0
100
AcDbLine
 62
7
  6
CONTINUOUS
 10
176.8258204387
 20
104.5242175697
 11
176.8599854899
 21
104.1337092481
  0
LINE
  5
514
100
AcDbEntity
  8
0
100
AcDbLine
 62
7
  6
CONTINUOUS
 10
176.870444179
 20
104.0141658843
 11
176.9046092302
 21
103.6236575626
  0
LINE
  5
515
100
AcDbEntity
  8
0
100
AcDbLine
 62
7
  6
CONTINUOUS
 10
176.9150679193
 20
103.5041141989
 11
176.9492329705
 21
103.1136058772
  0
LINE
  5
516
100
AcDbEntity
  8
0
100
AcDbLine
 62
7
  6
CONTINUOUS
 10
177.000359532
 20
105.0534435185
 11
177.0345245832
 21
104.6629351969
  0
LINE
  5
517
100
AcDbEntity
  8
0
100
AcDbLine
 62
7
  6
CONTINUOUS
 10
177.0449832723
 20
104.5433918331
 11
177.0791483235
 21
104.1528835115
  0
LINE
  5
518
100
AcDbEntity
  8
0
100
AcDbLine
 62
7
  6
CONTINUOUS
 10
177.0896070126
 20
104.0333401477
 11
177.1237720638
 21
103.642831826
  0
LINE
  5
519
100
AcDbEntity
  8
0
100
AcDbLine
 62
7
  6
CONTINUOUS
 10
177.1342307529
 20
103.5232884623
 11
177.1683958041
 21
103.1327801406
  0
LINE
  5
51A
100
AcDbEntity
  8
0
100
AcDbLine
 62
7
  6
CONTINUOUS
 10
177.4645564843
 20
103.0382324622
 11
177.4540977952
 21
103.157775826
  0
LINE
  5
51B
100
AcDbEntity
  8
0
100
AcDbLine
 62
7
  6
CONTINUOUS
 10
177.419932744
 20
103.5482841476
 11
177.4094740549
 21
103.6678275114
  0
LINE
  5
51C
100
AcDbEntity
  8
0
100
AcDbLine
 62
7
  6
CONTINUOUS
 10
177.3753090038
 20
104.0583358331
 11
177.3648503146
 21
104.1778791968
  0
LINE
  5
51D
100
AcDbEntity
  8
0
100
AcDbLine
 62
7
  6
CONTINUOUS
 10
177.3306852635
 20
104.5683875185
 11
177.3202265743
 21
104.6879308823
  0
LINE
  5
51E
100
AcDbEntity
  8
0
100
AcDbLine
 62
7
  6
CONTINUOUS
 10
177.2860615232
 20
105.0784392039
 11
177.2758643013
 21
105.1949939836
  0
LINE
  5
51F
100
AcDbEntity
  8
0
100
AcDbLine
 62
7
  6
CONTINUOUS
 10
177.3435519383
 20
104.6899715872
 11
177.3540106275
 21
104.5704282234
  0
LINE
  5
520
100
AcDbEntity
  8
0
100
AcDbLine
 62
7
  6
CONTINUOUS
 10
177.3881756786
 20
104.1799199018
 11
177.3986343678
 21
104.060376538
  0
LINE
  5
521
100
AcDbEntity
  8
0
100
AcDbLine
 62
7
  6
CONTINUOUS
 10
177.4327994189
 20
103.6698682163
 11
177.443258108
 21
103.5503248526
  0
LINE
  5
522
100
AcDbEntity
  8
0
100
AcDbLine
 62
7
  6
CONTINUOUS
 10
177.4774231592
 20
103.1598165309
 11
177.4878818483
 21
103.0402731671
  0
LINE
  5
523
100
AcDbEntity
  8
0
100
AcDbLine
 62
7
  6
CONTINUOUS
 10
177.3093868872
 20
105.0804799088
 11
177.2991896653
 21
105.1970346885
  0
LINE
  5
524
100
AcDbEntity
  8
7_ALL_ROUNDS
100
AcDbLine
 62
7
  6
CONTINUOUS
 10
177.3500152883
 20
105.2014813543
 11
177.3602125102
 21
105.0849265747
  0
LINE
  5
525
100
AcDbEntity
  8
7_ALL_ROUNDS
100
AcDbLine
 62
7
  6
CONTINUOUS
 10
177.3943775614
 20
104.694418253
 11
177.4048362505
 21
104.5748748892
  0
LINE
  5
526
100
AcDbEntity
  8
7_ALL_ROUNDS
100
AcDbLine
 62
7
  6
CONTINUOUS
 10
177.4390013017
 20
104.1843665676
 11
177.4494599908
 21
104.0648232038
  0
LINE
  5
527
100
AcDbEntity
  8
7_ALL_ROUNDS
100
AcDbLine
 62
7
  6
CONTINUOUS
 10
177.483625042
 20
103.6743148822
 11
177.4940837311
 21
103.5547715184
  0
LINE
  5
528
100
AcDbEntity
  8
7_ALL_ROUNDS
100
AcDbLine
 62
7
  6
CONTINUOUS
 10
177.5282487822
 20
103.1642631967
 11
177.5387074714
 21
103.044719833
  0
LINE
  5
529
100
AcDbEntity
  8
7_ALL_ROUNDS
100
AcDbLine
 62
7
  6
CONTINUOUS
 10
177.7399244029
 20
100.8581006378
 11
177.548544715
 21
103.0455804803
  0
LINE
  5
52A
100
AcDbEntity
  8
7_ALL_ROUNDS
100
AcDbLine
 62
7
  6
CONTINUOUS
 10
177.5380860258
 20
103.165123844
 11
177.5039209747
 21
103.5556321657
  0
LINE
  5
52B
100
AcDbEntity
  8
7_ALL_ROUNDS
100
AcDbLine
 62
7
  6
CONTINUOUS
 10
177.4934622855
 20
103.6751755295
 11
177.4592972344
 21
104.0656838511
  0
LINE
  5
52C
100
AcDbEntity
  8
7_ALL_ROUNDS
100
AcDbLine
 62
7
  6
CONTINUOUS
 10
177.4488385453
 20
104.1852272149
 11
177.4146734941
 21
104.5757355365
  0
LINE
  5
52D
100
AcDbEntity
  8
7_ALL_ROUNDS
100
AcDbLine
 62
7
  6
CONTINUOUS
 10
177.404214805
 20
104.6952789003
 11
177.3700497538
 21
105.085787222
  0
LINE
  5
52E
100
AcDbEntity
  8
7_ALL_ROUNDS
100
AcDbLine
 62
7
  6
CONTINUOUS
 10
177.3598525319
 20
105.2023420016
 11
177.1689086228
 21
107.3848408701
  0
LINE
  5
52F
100
AcDbEntity
  8
7_ALL_ROUNDS
100
AcDbLine
 62
7
  6
CONTINUOUS
 10
177.435255453
 20
105.2089389024
 11
177.4454526749
 21
105.0923841228
  0
LINE
  5
530
100
AcDbEntity
  8
7_ALL_ROUNDS
100
AcDbLine
 62
7
  6
CONTINUOUS
 10
177.479617726
 20
104.7018758011
 11
177.4900764152
 21
104.5823324373
  0
LINE
  5
531
100
AcDbEntity
  8
7_ALL_ROUNDS
100
AcDbLine
 62
7
  6
CONTINUOUS
 10
177.5242414663
 20
104.1918241157
 11
177.5347001554
 21
104.0722807519
  0
LINE
  5
532
100
AcDbEntity
  8
7_ALL_ROUNDS
100
AcDbLine
 62
7
  6
CONTINUOUS
 10
177.5688652066
 20
103.6817724303
 11
177.5793238957
 21
103.5622290665
  0
LINE
  5
533
100
AcDbEntity
  8
7_ALL_ROUNDS
100
AcDbLine
 62
7
  6
CONTINUOUS
 10
177.6134889469
 20
103.1717207448
 11
177.623947636
 21
103.0521773811
  0
LINE
  5
534
100
AcDbEntity
  8
0
100
AcDbLine
 62
7
  6
CONTINUOUS
 10
177.4908184524
 20
37.7735231547
 11
177.4908184524
 21
37.1485231547
  0
LINE
  5
535
100
AcDbEntity
  8
0
100
AcDbLine
 62
7
  6
CONTINUOUS
 10
178.9908184524
 20
37.7735231547
 11
178.9908184524
 21
37.1485231547
  0
LINE
  5
536
100
AcDbEntity
  8
7_ALL_ROUNDS
100
AcDbLine
 62
7
  6
CONTINUOUS
 10
160.4908184524
 20
90.790265659
 11
160.8168184524
 21
90.790265659
  0
LINE
  5
537
100
AcDbEntity
  8
0
100
AcDbLine
 62
7
  6
CONTINUOUS
 10
160.8168184524
 20
90.790265659
 11
161.1918488744
 21
90.790265659
  0
LINE
  5
538
100
AcDbEntity
  8
0
100
AcDbLine
 62
7
  6
CONTINUOUS
 10
162.0359787361
 20
90.887696383
 11
180.5948184524
 21
90.887696383
  0
LINE
  5
539
100
AcDbEntity
  8
7_ALL_ROUNDS
100
AcDbLine
 62
7
  6
CONTINUOUS
 10
177.4358184524
 20
91.1124444145
 11
168.8358184524
 21
91.1124444145
  0
LINE
  5
53A
100
AcDbEntity
  8
7_ALL_ROUNDS
100
AcDbLine
 62
7
  6
CONTINUOUS
 10
160.4908184524
 20
91.290265659
 11
161.0668184524
 21
91.2905590306
  0
LINE
  5
53B
100
AcDbEntity
  8
0
100
AcDbLine
 62
7
  6
CONTINUOUS
 10
169.1311510468
 20
95.8747020364
 11
173.226748591
 21
91.1124444145
  0
LINE
  5
53C
100
AcDbEntity
  8
7_ALL_ROUNDS
100
AcDbLine
 62
7
  6
CONTINUOUS
 10
174.7817866719
 20
91.1124444145
 11
170.5678245833
 21
96.012333346
  0
LINE
  5
53D
100
AcDbEntity
  8
0
100
AcDbLine
 62
7
  6
CONTINUOUS
 10
170.1207603648
 20
126.5704916813
 11
171.1834872121
 21
120.5434682329
  0
LINE
  5
53E
100
AcDbEntity
  8
0
100
AcDbLine
 62
7
  6
CONTINUOUS
 10
170.9086065672
 20
126.7094102235
 11
171.9713334145
 21
120.682386775
  0
LINE
  5
53F
100
AcDbEntity
  8
0
100
AcDbLine
 62
7
  6
CONTINUOUS
 10
171.181948681
 20
126.5748310229
 11
172.1821621844
 21
120.9023383656
  0
LINE
  5
540
100
AcDbEntity
  8
0
100
AcDbLine
 62
7
  6
CONTINUOUS
 10
171.583903172
 20
126.1733063973
 11
172.4225463434
 21
121.417124626
  0
LINE
  5
541
100
AcDbEntity
  8
0
100
AcDbLine
 62
7
  6
CONTINUOUS
 10
180.5948184524
 20
89.9034444145
 11
180.5948184524
 21
90.887696383
  0
LINE
  5
542
100
AcDbEntity
  8
0
100
AcDbLine
 62
7
  6
CONTINUOUS
 10
180.7408184524
 20
89.9034444145
 11
180.7408184524
 21
37.7735231547
  0
LINE
  5
543
100
AcDbEntity
  8
7_ALL_ROUNDS
100
AcDbLine
 62
7
  6
CONTINUOUS
 10
175.6073503695
 20
98.694016868
 11
172.6939406977
 21
98.2845638409
  0
LINE
  5
544
100
AcDbEntity
  8
0
100
AcDbLine
 62
7
  6
CONTINUOUS
 10
172.4381203876
 20
97.1577727661
 11
170.9339213018
 21
97.0261723984
  0
LINE
  5
545
100
AcDbEntity
  8
0
100
AcDbLine
 62
7
  6
CONTINUOUS
 10
171.2926397983
 20
97.2286436888
 11
172.4232658723
 21
97.327560653
  0
LINE
  5
546
100
AcDbEntity
  8
0
100
AcDbLine
 62
7
  6
CONTINUOUS
 10
172.3727535805
 20
97.9049187894
 11
172.7244632563
 21
97.9356893989
  0
LINE
  5
547
100
AcDbEntity
  8
0
100
AcDbLine
 62
7
  6
CONTINUOUS
 10
171.1695773443
 20
98.6352539747
 11
172.3002034183
 21
98.7341709389
  0
LINE
  5
548
100
AcDbEntity
  8
0
100
AcDbLine
 62
7
  6
CONTINUOUS
 10
171.1431094529
 20
98.9377833577
 11
172.2737355269
 21
99.0367003219
  0
LINE
  5
549
100
AcDbEntity
  8
0
100
AcDbLine
 62
7
  6
CONTINUOUS
 10
172.2695493272
 20
99.0845488031
 11
172.621259003
 21
99.1153194125
  0
LINE
  5
54A
100
AcDbEntity
  8
0
100
AcDbLine
 62
7
  6
CONTINUOUS
 10
172.193846638
 20
99.9498344996
 11
172.5455563138
 21
99.9806051091
  0
LINE
  5
54B
100
AcDbEntity
  8
0
100
AcDbLine
 62
7
  6
CONTINUOUS
 10
171.0521206546
 20
99.9777900807
 11
172.1827467286
 21
100.0767070449
  0
LINE
  5
54C
100
AcDbEntity
  8
0
100
AcDbLine
 62
7
  6
CONTINUOUS
 10
177.4747429378
 20
102.9186652809
 11
176.810759197
 21
102.8605742308
  0
LINE
  5
54D
100
AcDbEntity
  8
0
100
AcDbLine
 62
7
  6
CONTINUOUS
 10
176.8003005079
 20
102.9801175946
 11
177.4878818483
 21
103.0402731671
  0
LINE
  5
54E
100
AcDbEntity
  8
7_ALL_ROUNDS
100
AcDbLine
 62
7
  6
CONTINUOUS
 10
177.4878818483
 20
103.0402731671
 11
177.623947636
 21
103.0521773811
  0
LINE
  5
54F
100
AcDbEntity
  8
7_ALL_ROUNDS
100
AcDbLine
 62
7
  6
CONTINUOUS
 10
177.4774231592
 20
103.1598165309
 11
177.6134889469
 21
103.1717207448
  0
LINE
  5
550
100
AcDbEntity
  8
0
100
AcDbLine
 62
7
  6
CONTINUOUS
 10
176.9492329705
 20
103.1136058772
 11
177.4774231592
 21
103.1598165309
  0
LINE
  5
551
100
AcDbEntity
  8
0
100
AcDbLine
 62
7
  6
CONTINUOUS
 10
176.9150679193
 20
103.5041141989
 11
177.443258108
 21
103.5503248526
  0
LINE
  5
552
100
AcDbEntity
  8
7_ALL_ROUNDS
100
AcDbLine
 62
7
  6
CONTINUOUS
 10
177.443258108
 20
103.5503248526
 11
177.5793238957
 21
103.5622290665
  0
LINE
  5
553
100
AcDbEntity
  8
7_ALL_ROUNDS
100
AcDbLine
 62
7
  6
CONTINUOUS
 10
177.4327994189
 20
103.6698682163
 11
177.5688652066
 21
103.6817724303
  0
LINE
  5
554
100
AcDbEntity
  8
0
100
AcDbLine
 62
7
  6
CONTINUOUS
 10
176.9046092302
 20
103.6236575626
 11
177.4327994189
 21
103.6698682163
  0
LINE
  5
555
100
AcDbEntity
  8
0
100
AcDbLine
 62
7
  6
CONTINUOUS
 10
176.870444179
 20
104.0141658843
 11
177.3986343678
 21
104.060376538
  0
LINE
  5
556
100
AcDbEntity
  8
7_ALL_ROUNDS
100
AcDbLine
 62
7
  6
CONTINUOUS
 10
177.3986343678
 20
104.060376538
 11
177.5347001554
 21
104.0722807519
  0
LINE
  5
557
100
AcDbEntity
  8
7_ALL_ROUNDS
100
AcDbLine
 62
7
  6
CONTINUOUS
 10
177.3881756786
 20
104.1799199018
 11
177.5242414663
 21
104.1918241157
  0
LINE
  5
558
100
AcDbEntity
  8
0
100
AcDbLine
 62
7
  6
CONTINUOUS
 10
176.8599854899
 20
104.1337092481
 11
177.3881756786
 21
104.1799199018
  0
LINE
  5
559
100
AcDbEntity
  8
0
100
AcDbLine
 62
7
  6
CONTINUOUS
 10
176.8258204387
 20
104.5242175697
 11
177.3540106275
 21
104.5704282234
  0
LINE
  5
55A
100
AcDbEntity
  8
7_ALL_ROUNDS
100
AcDbLine
 62
7
  6
CONTINUOUS
 10
177.3540106275
 20
104.5704282234
 11
177.4900764152
 21
104.5823324373
  0
LINE
  5
55B
100
AcDbEntity
  8
7_ALL_ROUNDS
100
AcDbLine
 62
7
  6
CONTINUOUS
 10
177.3435519383
 20
104.6899715872
 11
177.479617726
 21
104.7018758011
  0
LINE
  5
55C
100
AcDbEntity
  8
0
100
AcDbLine
 62
7
  6
CONTINUOUS
 10
176.8153617496
 20
104.6437609335
 11
177.3435519383
 21
104.6899715872
  0
LINE
  5
55D
100
AcDbEntity
  8
0
100
AcDbLine
 62
7
  6
CONTINUOUS
 10
176.7811966985
 20
105.0342692551
 11
177.3093868872
 21
105.0804799088
  0
LINE
  5
55E
100
AcDbEntity
  8
7_ALL_ROUNDS
100
AcDbLine
 62
7
  6
CONTINUOUS
 10
177.3093868872
 20
105.0804799088
 11
177.4454526749
 21
105.0923841228
  0
LINE
  5
55F
100
AcDbEntity
  8
7_ALL_ROUNDS
100
AcDbLine
 62
7
  6
CONTINUOUS
 10
177.2991896653
 20
105.1970346885
 11
177.435255453
 21
105.2089389024
  0
LINE
  5
560
100
AcDbEntity
  8
0
100
AcDbLine
 62
7
  6
CONTINUOUS
 10
176.6116083249
 20
105.136879116
 11
177.2991896653
 21
105.1970346885
  0
LINE
  5
561
100
AcDbEntity
  8
0
100
AcDbLine
 62
7
  6
CONTINUOUS
 10
176.6015854144
 20
105.2514415063
 11
177.2655691551
 21
105.3095325563
  0
LINE
  5
562
100
AcDbEntity
  8
0
100
AcDbLine
 62
7
  6
CONTINUOUS
 10
170.0623638743
 20
106.9881193793
 11
161.5668184524
 21
110.9906441583
  0
LINE
  5
563
100
AcDbEntity
  8
0
100
AcDbLine
 62
7
  6
CONTINUOUS
 10
172.8706437229
 20
109.1323216318
 11
172.7928439104
 21
109.1186034258
  0
LINE
  5
564
100
AcDbEntity
  8
0
100
AcDbLine
 62
7
  6
CONTINUOUS
 10
170.4298433169
 20
107.0904525983
 11
171.5604693908
 21
107.1893695625
  0
LINE
  5
565
100
AcDbEntity
  8
0
100
AcDbLine
 62
7
  6
CONTINUOUS
 10
171.5493694814
 20
107.3162421077
 11
171.9010791572
 21
107.3470127172
  0
LINE
  5
566
100
AcDbEntity
  8
0
100
AcDbLine
 62
7
  6
CONTINUOUS
 10
171.4736667922
 20
108.1815278043
 11
171.825376468
 21
108.2122984138
  0
LINE
  5
567
100
AcDbEntity
  8
0
100
AcDbLine
 62
7
  6
CONTINUOUS
 10
170.3388545186
 20
108.1304593214
 11
171.4694805926
 21
108.2293762855
  0
LINE
  5
568
100
AcDbEntity
  8
0
100
AcDbLine
 62
7
  6
CONTINUOUS
 10
171.4516902997
 20
108.4327202632
 11
171.5303896809
 21
108.4396055668
  0
LINE
  5
569
100
AcDbEntity
  8
0
100
AcDbLine
 62
7
  6
CONTINUOUS
 10
171.3976025594
 20
109.050945964
 11
171.4763019406
 21
109.0578312677
  0
LINE
  5
56A
100
AcDbEntity
  8
0
100
AcDbLine
 62
7
  6
CONTINUOUS
 10
169.1779753169
 20
109.9360644488
 11
171.2876200555
 21
110.3080517359
  0
LINE
  5
56B
100
AcDbEntity
  8
0
100
AcDbLine
 62
7
  6
CONTINUOUS
 10
171.3657170506
 20
110.3218223433
 11
172.5440482167
 21
110.5295939201
  0
LINE
  5
56C
100
AcDbEntity
  8
7_ALL_ROUNDS
100
AcDbLine
 62
7
  6
CONTINUOUS
 10
169.6272412803
 20
111.0449698155
 11
171.0176032906
 21
111.2901281509
  0
LINE
  5
56D
100
AcDbEntity
  8
0
100
AcDbLine
 62
7
  6
CONTINUOUS
 10
170.2501057649
 20
109.144862218
 11
171.3807318389
 21
109.2437791821
  0
LINE
  5
56E
100
AcDbEntity
  8
0
100
AcDbLine
 62
7
  6
CONTINUOUS
 10
171.44916192
 20
109.3680431216
 11
171.7221722147
 21
109.3919284274
  0
LINE
  5
56F
100
AcDbEntity
  8
0
100
AcDbLine
 62
7
  6
CONTINUOUS
 10
171.3050957319
 20
110.1083038413
 11
169.8008966461
 21
109.9767034736
  0
LINE
  5
570
100
AcDbEntity
  8
0
100
AcDbLine
 62
7
  6
CONTINUOUS
 10
171.2822980149
 20
110.3688829388
 11
171.360997396
 21
110.3757682425
  0
LINE
  5
571
100
AcDbEntity
  8
7_ALL_ROUNDS
100
AcDbLine
 62
7
  6
CONTINUOUS
 10
174.6929439779
 20
109.1457297502
 11
171.7526947733
 21
109.0430539855
  0
LINE
  5
572
100
AcDbEntity
  8
0
100
AcDbLine
 62
7
  6
CONTINUOUS
 10
171.3712110913
 20
112.6892428099
 11
172.0605765184
 21
112.8107965343
  0
LINE
  5
573
100
AcDbEntity
  8
0
100
AcDbLine
 62
7
  6
CONTINUOUS
 10
171.3495050691
 20
112.812343779
 11
172.0388704962
 21
112.9338975034
  0
LINE
  5
574
100
AcDbEntity
  8
0
100
AcDbLine
 62
7
  6
CONTINUOUS
 10
171.2843870025
 20
113.1816466864
 11
171.9737524296
 21
113.3032004108
  0
LINE
  5
575
100
AcDbEntity
  8
0
100
AcDbLine
 62
7
  6
CONTINUOUS
 10
171.2626809803
 20
113.3047476555
 11
171.9520464074
 21
113.4263013799
  0
LINE
  5
576
100
AcDbEntity
  8
0
100
AcDbLine
 62
7
  6
CONTINUOUS
 10
171.1975629136
 20
113.6740505629
 11
171.8869283407
 21
113.7956042873
  0
LINE
  5
577
100
AcDbEntity
  8
0
100
AcDbLine
 62
7
  6
CONTINUOUS
 10
171.1758568914
 20
113.797151532
 11
171.8652223185
 21
113.9187052564
  0
LINE
  5
578
100
AcDbEntity
  8
0
100
AcDbLine
 62
7
  6
CONTINUOUS
 10
171.105095259
 20
114.1984606914
 11
171.7944606861
 21
114.3200144158
  0
LINE
  5
579
100
AcDbEntity
  8
0
100
AcDbLine
 62
7
  6
CONTINUOUS
 10
171.0833892368
 20
114.3215616605
 11
171.7727546639
 21
114.4431153849
  0
LINE
  5
57A
100
AcDbEntity
  8
0
100
AcDbLine
 62
7
  6
CONTINUOUS
 10
171.0126276044
 20
114.7228708199
 11
171.7019930315
 21
114.8444245442
  0
LINE
  5
57B
100
AcDbEntity
  8
0
100
AcDbLine
 62
7
  6
CONTINUOUS
 10
170.9909215822
 20
114.845971789
 11
171.6802870093
 21
114.9675255134
  0
LINE
  5
57C
100
AcDbEntity
  8
0
100
AcDbLine
 62
7
  6
CONTINUOUS
 10
170.9258035156
 20
115.2152746964
 11
171.6151689427
 21
115.3368284207
  0
LINE
  5
57D
100
AcDbEntity
  8
0
100
AcDbLine
 62
7
  6
CONTINUOUS
 10
170.9040974934
 20
115.3383756655
 11
171.5934629205
 21
115.4599293899
  0
LINE
  5
57E
100
AcDbEntity
  8
0
100
AcDbLine
 62
7
  6
CONTINUOUS
 10
170.8389794268
 20
115.7076785729
 11
171.5283448539
 21
115.8292322972
  0
LINE
  5
57F
100
AcDbEntity
  8
7_ALL_ROUNDS
100
AcDbLine
 62
7
  6
CONTINUOUS
 10
160.4908184524
 20
113.1605590306
 11
160.7408184524
 21
113.1605590306
  0
LINE
  5
580
100
AcDbEntity
  8
7_ALL_ROUNDS
100
AcDbLine
 62
7
  6
CONTINUOUS
 10
160.4908184524
 20
113.6605590306
 11
160.7408184524
 21
113.6605590306
  0
LINE
  5
581
100
AcDbEntity
  8
0
100
AcDbLine
 62
7
  6
CONTINUOUS
 10
160.4908184524
 20
113.8532509385
 11
160.7408184524
 21
113.8532509385
  0
LINE
  5
582
100
AcDbEntity
  8
0
100
AcDbLine
 62
7
  6
CONTINUOUS
 10
170.8172734045
 20
115.830779542
 11
171.5066388317
 21
115.9523332664
  0
LINE
  5
583
100
AcDbEntity
  8
0
100
AcDbLine
 62
7
  6
CONTINUOUS
 10
170.7521553379
 20
116.2000824494
 11
171.441520765
 21
116.3216361737
  0
LINE
  5
584
100
AcDbEntity
  8
0
100
AcDbLine
 62
7
  6
CONTINUOUS
 10
170.7304493157
 20
116.3231834185
 11
171.4198147428
 21
116.4447371429
  0
LINE
  5
585
100
AcDbEntity
  8
0
100
AcDbLine
 62
7
  6
CONTINUOUS
 10
170.6653312491
 20
116.6924863259
 11
171.3546966762
 21
116.8140400503
  0
LINE
  5
586
100
AcDbEntity
  8
0
100
AcDbLine
 62
7
  6
CONTINUOUS
 10
170.6436252269
 20
116.815587295
 11
171.332990654
 21
116.9371410194
  0
LINE
  5
587
100
AcDbEntity
  8
0
100
AcDbLine
 62
7
  6
CONTINUOUS
 10
170.5785071603
 20
117.1848902024
 11
171.2678725874
 21
117.3064439268
  0
LINE
  5
588
100
AcDbEntity
  8
0
100
AcDbLine
 62
7
  6
CONTINUOUS
 10
170.556801138
 20
117.3079911715
 11
171.2461665652
 21
117.4295448959
  0
LINE
  5
589
100
AcDbEntity
  8
0
100
AcDbLine
 62
7
  6
CONTINUOUS
 10
170.4860395056
 20
117.7093003309
 11
171.1754049328
 21
117.8308540552
  0
LINE
  5
58A
100
AcDbEntity
  8
0
100
AcDbLine
 62
7
  6
CONTINUOUS
 10
170.4643334834
 20
117.8324013
 11
171.1536989105
 21
117.9539550244
  0
LINE
  5
58B
100
AcDbEntity
  8
0
100
AcDbLine
 62
7
  6
CONTINUOUS
 10
170.393571851
 20
118.2337104594
 11
171.0829372781
 21
118.3552641837
  0
LINE
  5
58C
100
AcDbEntity
  8
0
100
AcDbLine
 62
7
  6
CONTINUOUS
 10
170.3718658288
 20
118.3568114285
 11
171.0612312559
 21
118.4783651528
  0
LINE
  5
58D
100
AcDbEntity
  8
0
100
AcDbLine
 62
7
  6
CONTINUOUS
 10
170.3067477622
 20
118.7261143359
 11
170.9961131893
 21
118.8476680602
  0
LINE
  5
58E
100
AcDbEntity
  8
7_ALL_ROUNDS
100
AcDbLine
 62
7
  6
CONTINUOUS
 10
169.7095192759
 20
118.7086412419
 11
168.3191572656
 21
118.4634829065
  0
LINE
  5
58F
100
AcDbEntity
  8
0
100
AcDbLine
 62
7
  6
CONTINUOUS
 10
170.28504174
 20
118.849215305
 11
170.9744071671
 21
118.9707690294
  0
LINE
  5
590
100
AcDbEntity
  8
0
100
AcDbLine
 62
7
  6
CONTINUOUS
 10
170.2199236734
 20
119.2185182124
 11
170.9092891005
 21
119.3400719367
  0
LINE
  5
591
100
AcDbEntity
  8
0
100
AcDbLine
 62
7
  6
CONTINUOUS
 10
170.1982176512
 20
119.3416191815
 11
170.8875830783
 21
119.4631729059
  0
LINE
  5
592
100
AcDbEntity
  8
0
100
AcDbLine
 62
7
  6
CONTINUOUS
 10
170.8829297491
 20
119.9502648854
 11
167.5168568493
 21
119.3567354141
  0
LINE
  5
593
100
AcDbEntity
  8
0
100
AcDbLine
 62
7
  6
CONTINUOUS
 10
171.1834872121
 20
120.5434682329
 11
171.9713334145
 21
120.682386775
  0
LINE
  5
594
100
AcDbEntity
  8
0
100
AcDbLine
 62
7
  6
CONTINUOUS
 10
170.5908901209
 20
120.6217541672
 11
170.7592922466
 21
120.6514480055
  0
LINE
  5
595
100
AcDbEntity
  8
0
100
AcDbLine
 62
7
  6
CONTINUOUS
 10
170.8370920591
 20
120.6651662116
 11
171.1522305401
 21
120.7207336284
  0
LINE
  5
596
100
AcDbEntity
  8
0
100
AcDbLine
 62
7
  6
CONTINUOUS
 10
171.9400767425
 20
120.8596521706
 11
172.1821621844
 21
120.9023383656
  0
LINE
  5
597
100
AcDbEntity
  8
0
100
AcDbLine
 62
7
  6
CONTINUOUS
 10
172.4225463434
 20
121.417124626
 11
172.1013770184
 21
121.3604938087
  0
LINE
  5
598
100
AcDbEntity
  8
0
100
AcDbLine
 62
7
  6
CONTINUOUS
 10
170.5074720291
 20
122.0795914271
 11
170.5852718416
 21
122.0933096332
  0
LINE
  5
599
100
AcDbEntity
  8
0
100
AcDbLine
 62
7
  6
CONTINUOUS
 10
161.5668184524
 20
127.3464142293
 11
169.8919518432
 21
124.5856301144
  0
LINE
  5
59A
100
AcDbEntity
  8
0
100
AcDbLine
 62
7
  6
CONTINUOUS
 10
171.583903172
 20
126.1733063973
 11
171.262733847
 21
126.1166755799
  0
LINE
  5
59B
100
AcDbEntity
  8
0
100
AcDbLine
 62
7
  6
CONTINUOUS
 10
169.5906766175
 20
126.2942468245
 11
170.1520170367
 21
126.3932262858
  0
LINE
  5
59C
100
AcDbEntity
  8
0
100
AcDbLine
 62
7
  6
CONTINUOUS
 10
170.9398632391
 20
126.5321448279
 11
171.181948681
 21
126.5748310229
  0
LINE
  5
59D
100
AcDbEntity
  8
0
100
AcDbLine
 62
7
  6
CONTINUOUS
 10
170.1207603648
 20
126.5704916813
 11
170.9086065672
 21
126.7094102235
  0
LINE
  5
59E
100
AcDbEntity
  8
7_ALL_ROUNDS
100
AcDbLine
 62
7
  6
CONTINUOUS
 10
161.0668184524
 20
128.9295590306
 11
160.7408184524
 21
128.9295590306
  0
LINE
  5
59F
100
AcDbEntity
  8
7_ALL_ROUNDS
100
AcDbLine
 62
7
  6
CONTINUOUS
 10
160.8168184524
 20
129.2695590306
 11
160.7408184524
 21
129.2695590306
  0
LINE
  5
5A0
100
AcDbEntity
  8
0
100
AcDbLine
 62
7
  6
CONTINUOUS
 10
160.4908184524
 20
129.4532509385
 11
160.7408184524
 21
129.4532509385
  0
CIRCLE
  5
5A1
100
AcDbEntity
  8
7_ALL_ROUNDS
100
AcDbCircle
 62
7
  6
CONTINUOUS
 10
74.7619609223
 20
42.2784444145
 40
2.3937007874
  0
CIRCLE
  5
5A2
100
AcDbEntity
  8
7_ALL_ROUNDS
100
AcDbCircle
 62
7
  6
CONTINUOUS
 10
74.7619609223
 20
59.4034444145
 40
2.3937007874
  0
CIRCLE
  5
5A3
100
AcDbEntity
  8
7_ALL_ROUNDS
100
AcDbCircle
 62
7
  6
CONTINUOUS
 10
74.7619609223
 20
76.5284444145
 40
2.3937007874
  0
CIRCLE
  5
5A4
100
AcDbEntity
  8
7_ALL_ROUNDS
100
AcDbCircle
 62
7
  6
CONTINUOUS
 10
74.7619609223
 20
42.2784444145
 40
2.0
  0
CIRCLE
  5
5A5
100
AcDbEntity
  8
7_ALL_ROUNDS
100
AcDbCircle
 62
7
  6
CONTINUOUS
 10
74.7619609223
 20
76.5284444145
 40
2.0
  0
CIRCLE
  5
5A6
100
AcDbEntity
  8
7_ALL_ROUNDS
100
AcDbCircle
 62
7
  6
CONTINUOUS
 10
74.7619609223
 20
59.4034444145
 40
2.0
  0
ARC
  5
5A7
100
AcDbEntity
  8
7_ALL_ROUNDS
100
AcDbCircle
 62
7
  6
CONTINUOUS
 10
72.8869609223
 20
37.1485231547
 40
0.125
100
AcDbArc
 50
269.9999999989
 51
360.0
  0
ARC
  5
5A8
100
AcDbEntity
  8
7_ALL_ROUNDS
100
AcDbCircle
 62
7
  6
CONTINUOUS
 10
71.6369609223
 20
37.1485231547
 40
0.125
100
AcDbArc
 50
180.0
 51
270.0000000011
  0
ARC
  5
5A9
100
AcDbEntity
  8
7_ALL_ROUNDS
100
AcDbCircle
 62
7
  6
CONTINUOUS
 10
70.7619609223
 20
91.290265659
 40
0.5
100
AcDbArc
 50
180.0
 51
270.0
  0
ARC
  5
5AA
100
AcDbEntity
  8
7_ALL_ROUNDS
100
AcDbCircle
 62
7
  6
CONTINUOUS
 10
70.7619609223
 20
113.1605590306
 40
0.5
100
AcDbArc
 50
90.0
 51
180.0
  0
CIRCLE
  5
5AB
100
AcDbEntity
  8
0
100
AcDbCircle
 62
7
  6
CONTINUOUS
 10
70.7619609223
 20
128.7705590306
 40
0.11
  0
CIRCLE
  5
5AC
100
AcDbEntity
  8
0
100
AcDbCircle
 62
7
  6
CONTINUOUS
 10
70.7619609223
 20
123.9705590306
 40
0.11
  0
CIRCLE
  5
5AD
100
AcDbEntity
  8
0
100
AcDbCircle
 62
7
  6
CONTINUOUS
 10
70.7619609223
 20
119.1705590306
 40
0.11
  0
CIRCLE
  5
5AE
100
AcDbEntity
  8
0
100
AcDbCircle
 62
7
  6
CONTINUOUS
 10
70.7619609223
 20
114.3705590306
 40
0.11
  0
CIRCLE
  5
5AF
100
AcDbEntity
  8
0
100
AcDbCircle
 62
7
  6
CONTINUOUS
 10
70.7619609223
 20
113.0305590306
 40
0.11
  0
CIRCLE
  5
5B0
100
AcDbEntity
  8
0
100
AcDbCircle
 62
7
  6
CONTINUOUS
 10
70.7619609223
 20
105.9105590306
 40
0.11
  0
CIRCLE
  5
5B1
100
AcDbEntity
  8
0
100
AcDbCircle
 62
7
  6
CONTINUOUS
 10
70.7619609223
 20
98.7905590306
 40
0.11
  0
CIRCLE
  5
5B2
100
AcDbEntity
  8
0
100
AcDbCircle
 62
7
  6
CONTINUOUS
 10
70.7619609223
 20
91.6705590306
 40
0.11
  0
CIRCLE
  5
5B3
100
AcDbEntity
  8
0
100
AcDbCircle
 62
7
  6
CONTINUOUS
 10
85.2619609223
 20
80.9594680366
 40
7.625
  0
CIRCLE
  5
5B4
100
AcDbEntity
  8
0
100
AcDbCircle
 62
7
  6
CONTINUOUS
 10
85.2619609223
 20
63.8369680366
 40
7.625
  0
CIRCLE
  5
5B5
100
AcDbEntity
  8
0
100
AcDbCircle
 62
7
  6
CONTINUOUS
 10
85.2619609223
 20
46.7144680366
 40
7.625
  0
CIRCLE
  5
5B6
100
AcDbEntity
  8
0
100
AcDbCircle
 62
7
  6
CONTINUOUS
 10
85.2619609223
 20
80.9594680366
 40
5.0735365854
  0
CIRCLE
  5
5B7
100
AcDbEntity
  8
0
100
AcDbCircle
 62
7
  6
CONTINUOUS
 10
85.2619609223
 20
63.8369680366
 40
5.0735365854
  0
CIRCLE
  5
5B8
100
AcDbEntity
  8
0
100
AcDbCircle
 62
7
  6
CONTINUOUS
 10
85.2619609223
 20
46.7144680366
 40
5.0735365854
  0
CIRCLE
  5
5B9
100
AcDbEntity
  8
7_ALL_ROUNDS
100
AcDbCircle
 62
7
  6
CONTINUOUS
 10
95.7619609223
 20
51.1534444145
 40
2.3937007874
  0
CIRCLE
  5
5BA
100
AcDbEntity
  8
7_ALL_ROUNDS
100
AcDbCircle
 62
7
  6
CONTINUOUS
 10
95.7619609223
 20
68.2784444145
 40
2.3937007874
  0
CIRCLE
  5
5BB
100
AcDbEntity
  8
7_ALL_ROUNDS
100
AcDbCircle
 62
7
  6
CONTINUOUS
 10
95.7619609223
 20
51.1534444145
 40
2.0
  0
CIRCLE
  5
5BC
100
AcDbEntity
  8
7_ALL_ROUNDS
100
AcDbCircle
 62
7
  6
CONTINUOUS
 10
95.7619609223
 20
68.2784444145
 40
2.0
  0
CIRCLE
  5
5BD
100
AcDbEntity
  8
0
100
AcDbCircle
 62
7
  6
CONTINUOUS
 10
85.2619609223
 20
80.9594680366
 40
2.0
  0
CIRCLE
  5
5BE
100
AcDbEntity
  8
0
100
AcDbCircle
 62
7
  6
CONTINUOUS
 10
85.2619609223
 20
63.8369680366
 40
2.0
  0
CIRCLE
  5
5BF
100
AcDbEntity
  8
0
100
AcDbCircle
 62
7
  6
CONTINUOUS
 10
85.2619609223
 20
46.7144680366
 40
2.0
  0
ARC
  5
5C0
100
AcDbEntity
  8
7_ALL_ROUNDS
100
AcDbCircle
 62
7
  6
CONTINUOUS
 10
98.8869609223
 20
37.1485231547
 40
0.125
100
AcDbArc
 50
269.9999999989
 51
360.0
  0
ARC
  5
5C1
100
AcDbEntity
  8
7_ALL_ROUNDS
100
AcDbCircle
 62
7
  6
CONTINUOUS
 10
97.6369609223
 20
37.1485231547
 40
0.125
100
AcDbArc
 50
180.0
 51
270.0000000011
  0
ARC
  5
5C2
100
AcDbEntity
  8
0
100
AcDbCircle
 62
7
  6
CONTINUOUS
 10
85.2619612484
 20
103.4825449467
 40
3.25682688
100
AcDbArc
 50
35.0306643311
 51
144.9772465608
  0
ARC
  5
5C3
100
AcDbEntity
  8
0
100
AcDbCircle
 62
7
  6
CONTINUOUS
 10
85.2619609404
 20
103.5203307045
 40
3.2568266836
100
AcDbArc
 50
215.0253750925
 51
324.9741871024
  0
CIRCLE
  5
5C4
100
AcDbEntity
  8
7_ALL_ROUNDS
100
AcDbCircle
 62
7
  6
CONTINUOUS
 10
95.7619609223
 20
85.4034444145
 40
2.3937007874
  0
CIRCLE
  5
5C5
100
AcDbEntity
  8
7_ALL_ROUNDS
100
AcDbCircle
 62
7
  6
CONTINUOUS
 10
95.7619609223
 20
85.4034444145
 40
2.0
  0
ARC
  5
5C6
100
AcDbEntity
  8
7_ALL_ROUNDS
100
AcDbCircle
 62
7
  6
CONTINUOUS
 10
99.7619609223
 20
113.1605590306
 40
0.5
100
AcDbArc
 50
0.0
 51
90.0
  0
ARC
  5
5C7
100
AcDbEntity
  8
7_ALL_ROUNDS
100
AcDbCircle
 62
7
  6
CONTINUOUS
 10
99.7619609223
 20
91.290265659
 40
0.5
100
AcDbArc
 50
270.0
 51
360.0
  0
CIRCLE
  5
5C8
100
AcDbEntity
  8
0
100
AcDbCircle
 62
7
  6
CONTINUOUS
 10
99.7619609223
 20
128.7705590306
 40
0.11
  0
CIRCLE
  5
5C9
100
AcDbEntity
  8
0
100
AcDbCircle
 62
7
  6
CONTINUOUS
 10
99.7619609223
 20
123.9705590306
 40
0.11
  0
CIRCLE
  5
5CA
100
AcDbEntity
  8
0
100
AcDbCircle
 62
7
  6
CONTINUOUS
 10
99.7619609223
 20
119.1705590306
 40
0.11
  0
CIRCLE
  5
5CB
100
AcDbEntity
  8
0
100
AcDbCircle
 62
7
  6
CONTINUOUS
 10
99.7619609223
 20
114.3705590306
 40
0.11
  0
CIRCLE
  5
5CC
100
AcDbEntity
  8
0
100
AcDbCircle
 62
7
  6
CONTINUOUS
 10
99.7619609223
 20
113.0305590306
 40
0.11
  0
CIRCLE
  5
5CD
100
AcDbEntity
  8
0
100
AcDbCircle
 62
7
  6
CONTINUOUS
 10
99.7619609223
 20
105.9105590306
 40
0.11
  0
CIRCLE
  5
5CE
100
AcDbEntity
  8
0
100
AcDbCircle
 62
7
  6
CONTINUOUS
 10
99.7619609223
 20
98.7905590306
 40
0.11
  0
CIRCLE
  5
5CF
100
AcDbEntity
  8
0
100
AcDbCircle
 62
7
  6
CONTINUOUS
 10
99.7619609223
 20
91.6705590306
 40
0.11
  0
ARC
  5
5D0
100
AcDbEntity
  8
0
100
AcDbCircle
 62
7
  6
CONTINUOUS
 10
76.2619609223
 20
148.4568154762
 40
18.166
100
AcDbArc
 50
60.3018233717
 51
75.0
  0
ARC
  5
5D1
100
AcDbEntity
  8
0
100
AcDbCircle
 62
7
  6
CONTINUOUS
 10
76.2619609223
 20
148.4568154762
 40
18.166
100
AcDbArc
 50
8.2863712613
 51
15.0
  0
ARC
  5
5D2
100
AcDbEntity
  8
0
100
AcDbCircle
 62
7
  6
CONTINUOUS
 10
76.2619609223
 20
148.4568154762
 40
17.834
100
AcDbArc
 50
59.6916110943
 51
75.0
  0
ARC
  5
5D3
100
AcDbEntity
  8
0
100
AcDbCircle
 62
7
  6
CONTINUOUS
 10
76.2619609223
 20
148.4568154762
 40
17.834
100
AcDbArc
 50
9.6046107307
 51
15.0
  0
ARC
  5
5D4
100
AcDbEntity
  8
0
100
AcDbCircle
 62
7
  6
CONTINUOUS
 10
85.2350528059
 20
172.5397822495
 40
16.5276455461
100
AcDbArc
 50
267.710145908
 51
268.0818056646
  0
ARC
  5
5D5
100
AcDbEntity
  8
0
100
AcDbCircle
 62
7
  6
CONTINUOUS
 10
82.5307644274
 20
173.9282611071
 40
16.2226313925
100
AcDbArc
 50
263.4578861961
 51
264.0824267061
  0
ARC
  5
5D6
100
AcDbEntity
  8
0
100
AcDbCircle
 62
7
  6
CONTINUOUS
 10
85.2172615643
 20
172.0959165044
 40
16.0834233876
100
AcDbArc
 50
267.3368973705
 51
267.7102971092
  0
ARC
  5
5D7
100
AcDbEntity
  8
0
100
AcDbCircle
 62
7
  6
CONTINUOUS
 10
85.2584288449
 20
148.1637468826
 40
15.5884389813
100
AcDbArc
 50
78.9147499075
 51
89.9870177423
  0
ARC
  5
5D8
100
AcDbEntity
  8
0
100
AcDbCircle
 62
7
  6
CONTINUOUS
 10
82.3271870914
 20
171.7846580553
 40
14.4192135159
100
AcDbArc
 50
263.2554253878
 51
263.4326343306
  0
ARC
  5
5D9
100
AcDbEntity
  8
0
100
AcDbCircle
 62
7
  6
CONTINUOUS
 10
85.1167969962
 20
170.2208744166
 40
14.2057446018
100
AcDbArc
 50
264.8032269984
 51
267.3902805227
  0
ARC
  5
5DA
100
AcDbEntity
  8
0
100
AcDbCircle
 62
7
  6
CONTINUOUS
 10
85.2581248254
 20
150.2171873536
 40
8.1618422517
100
AcDbArc
 50
75.866039171
 51
89.9730707646
  0
ARC
  5
5DB
100
AcDbEntity
  8
0
100
AcDbCircle
 62
7
  6
CONTINUOUS
 10
78.3462691475
 20
155.5836660183
 40
3.9481327166
100
AcDbArc
 50
350.1725505713
 51
350.4609146742
  0
ARC
  5
5DC
100
AcDbEntity
  8
0
100
AcDbCircle
 62
7
  6
CONTINUOUS
 10
83.518150094
 20
155.3234691198
 40
2.6098270658
100
AcDbArc
 50
105.1672406025
 51
106.7087346012
  0
ARC
  5
5DD
100
AcDbEntity
  8
0
100
AcDbCircle
 62
7
  6
CONTINUOUS
 10
80.4067598691
 20
155.980051545
 40
2.3698773354
100
AcDbArc
 50
103.9742491271
 51
105.0247846512
  0
ARC
  5
5DE
100
AcDbEntity
  8
0
100
AcDbCircle
 62
7
  6
CONTINUOUS
 10
83.4147799621
 20
155.6707825869
 40
2.2474582051
100
AcDbArc
 50
106.73038333
 51
107.4675159488
  0
CIRCLE
  5
5DF
100
AcDbEntity
  8
0
100
AcDbCircle
 62
7
  6
CONTINUOUS
 10
72.2619609223
 20
164.1318154762
 40
0.875
  0
CIRCLE
  5
5E0
100
AcDbEntity
  8
0
100
AcDbCircle
 62
7
  6
CONTINUOUS
 10
72.2619609223
 20
164.1318154762
 40
0.815
  0
ARC
  5
5E1
100
AcDbEntity
  8
0
100
AcDbCircle
 62
7
  6
CONTINUOUS
 10
82.5995787813
 20
157.015996205
 40
0.5392670834
100
AcDbArc
 50
121.6262226516
 51
122.9550359625
  0
ARC
  5
5E2
100
AcDbEntity
  8
0
100
AcDbCircle
 62
7
  6
CONTINUOUS
 10
80.7608277552
 20
157.089156964
 40
0.3447657304
100
AcDbArc
 50
101.3216919683
 51
103.1937278847
  0
ARC
  5
5E3
100
AcDbEntity
  8
0
100
AcDbCircle
 62
7
  6
CONTINUOUS
 10
76.8752960491
 20
153.115558288
 40
0.166
100
AcDbArc
 50
344.9999999999
 51
165.0
  0
ARC
  5
5E4
100
AcDbEntity
  8
0
100
AcDbCircle
 62
7
  6
CONTINUOUS
 10
80.9207037341
 20
165.8434803494
 40
0.166
100
AcDbArc
 50
75.0
 51
255.0
  0
ARC
  5
5E5
100
AcDbEntity
  8
0
100
AcDbCircle
 62
7
  6
CONTINUOUS
 10
83.5739609223
 20
163.7328154762
 40
0.094
100
AcDbArc
 50
90.0
 51
237.4765742227
  0
ARC
  5
5E6
100
AcDbEntity
  8
0
100
AcDbCircle
 62
7
  6
CONTINUOUS
 10
84.7753588
 20
211.3458313489
 40
55.6467860093
100
AcDbArc
 50
267.5122988246
 51
267.8220072696
  0
ARC
  5
5E7
100
AcDbEntity
  8
0
100
AcDbCircle
 62
7
  6
CONTINUOUS
 10
84.3694050303
 20
196.9838821985
 40
39.6261861348
100
AcDbArc
 50
266.7510540272
 51
266.8693579731
  0
ARC
  5
5E8
100
AcDbEntity
  8
0
100
AcDbCircle
 62
7
  6
CONTINUOUS
 10
84.4943287354
 20
196.1675977392
 40
38.5093551789
100
AcDbArc
 50
266.846397891
 51
267.015704787
  0
ARC
  5
5E9
100
AcDbEntity
  8
0
100
AcDbCircle
 62
7
  6
CONTINUOUS
 10
84.1193470522
 20
192.8336555302
 40
35.195985389
100
AcDbArc
 50
265.8375929308
 51
267.1562878188
  0
ARC
  5
5EA
100
AcDbEntity
  8
0
100
AcDbCircle
 62
7
  6
CONTINUOUS
 10
83.9002099061
 20
189.3379786844
 40
32.0444066509
100
AcDbArc
 50
265.8203528751
 51
266.2961369538
  0
ARC
  5
5EB
100
AcDbEntity
  8
0
100
AcDbCircle
 62
7
  6
CONTINUOUS
 10
85.2654929997
 20
148.1637468826
 40
15.5884389813
100
AcDbArc
 50
90.0129822577
 51
101.0852500925
  0
ARC
  5
5EC
100
AcDbEntity
  8
0
100
AcDbCircle
 62
7
  6
CONTINUOUS
 10
85.2657970192
 20
150.2171873536
 40
8.1618422517
100
AcDbArc
 50
90.0269292354
 51
104.133960829
  0
ARC
  5
5ED
100
AcDbEntity
  8
0
100
AcDbCircle
 62
7
  6
CONTINUOUS
 10
87.7913048404
 20
160.6041043344
 40
2.6869193585
100
AcDbArc
 50
69.4138379318
 51
71.7975115747
  0
ARC
  5
5EE
100
AcDbEntity
  8
0
100
AcDbCircle
 62
7
  6
CONTINUOUS
 10
87.7920402828
 20
160.8156465424
 40
2.6844397183
100
AcDbArc
 50
70.0738628202
 51
71.7966322193
  0
ARC
  5
5EF
100
AcDbEntity
  8
0
100
AcDbCircle
 62
7
  6
CONTINUOUS
 10
87.7944002819
 20
160.8221972943
 40
2.6774768343
100
AcDbArc
 50
69.1828668084
 51
70.0735666734
  0
ARC
  5
5F0
100
AcDbEntity
  8
0
100
AcDbCircle
 62
7
  6
CONTINUOUS
 10
87.7956443338
 20
160.61584546
 40
2.6744021359
100
AcDbArc
 50
68.9117272957
 51
69.4124246142
  0
ARC
  5
5F1
100
AcDbEntity
  8
0
100
AcDbCircle
 62
7
  6
CONTINUOUS
 10
87.7983746651
 20
160.6228943052
 40
2.6668429824
100
AcDbArc
 50
67.9243644354
 51
68.9119691597
  0
ARC
  5
5F2
100
AcDbEntity
  8
0
100
AcDbCircle
 62
7
  6
CONTINUOUS
 10
87.8069505757
 20
160.6437030527
 40
2.6443366712
100
AcDbArc
 50
65.0714610535
 51
67.9271084239
  0
ARC
  5
5F3
100
AcDbEntity
  8
0
100
AcDbCircle
 62
7
  6
CONTINUOUS
 10
87.8151787756
 20
160.6617858567
 40
2.6244704875
100
AcDbArc
 50
64.7133275368
 51
65.0679666378
  0
ARC
  5
5F4
100
AcDbEntity
  8
0
100
AcDbCircle
 62
7
  6
CONTINUOUS
 10
87.0057717506
 20
155.3234691199
 40
2.6098270658
100
AcDbArc
 50
73.2912653988
 51
74.8327593975
  0
ARC
  5
5F5
100
AcDbEntity
  8
0
100
AcDbCircle
 62
7
  6
CONTINUOUS
 10
87.8285284254
 20
160.688643273
 40
2.5944842957
100
AcDbArc
 50
55.6122120729
 51
64.7265431332
  0
ARC
  5
5F6
100
AcDbEntity
  8
0
100
AcDbCircle
 62
7
  6
CONTINUOUS
 10
87.8481462572
 20
160.719494069
 40
2.5579454939
100
AcDbArc
 50
55.1380067345
 51
55.58455012
  0
ARC
  5
5F7
100
AcDbEntity
  8
0
100
AcDbCircle
 62
7
  6
CONTINUOUS
 10
87.856988386
 20
160.731896498
 40
2.5427147432
100
AcDbArc
 50
50.7425398867
 51
55.1417471094
  0
ARC
  5
5F8
100
AcDbEntity
  8
0
100
AcDbCircle
 62
7
  6
CONTINUOUS
 10
87.8669913963
 20
160.953738065
 40
2.5265657542
100
AcDbArc
 50
48.5197439178
 51
50.6429020091
  0
ARC
  5
5F9
100
AcDbEntity
  8
0
100
AcDbCircle
 62
7
  6
CONTINUOUS
 10
87.8694338665
 20
160.9564999997
 40
2.5228787576
100
AcDbArc
 50
47.8452356025
 51
48.5197543466
  0
ARC
  5
5FA
100
AcDbEntity
  8
0
100
AcDbCircle
 62
7
  6
CONTINUOUS
 10
87.8744187658
 20
160.7532657777
 40
2.5151382392
100
AcDbArc
 50
43.7520729208
 51
50.7419455524
  0
ARC
  5
5FB
100
AcDbEntity
  8
0
100
AcDbCircle
 62
7
  6
CONTINUOUS
 10
87.8815700172
 20
160.9696276871
 40
2.5050017528
100
AcDbArc
 50
43.7464258385
 51
47.8495011611
  0
ARC
  5
5FC
100
AcDbEntity
  8
0
100
AcDbCircle
 62
7
  6
CONTINUOUS
 10
90.1171619755
 20
155.980051545
 40
2.3698773354
100
AcDbArc
 50
74.9752153488
 51
76.0257508729
  0
ARC
  5
5FD
100
AcDbEntity
  8
0
100
AcDbCircle
 62
7
  6
CONTINUOUS
 10
87.1091418827
 20
155.6707825875
 40
2.2474582045
100
AcDbArc
 50
72.5324840512
 51
73.2696166702
  0
ARC
  5
5FE
100
AcDbEntity
  8
0
100
AcDbCircle
 62
7
  6
CONTINUOUS
 10
88.4803320797
 20
156.3295194391
 40
1.0861573509
100
AcDbArc
 50
82.9850573194
 51
83.7376200974
  0
ARC
  5
5FF
100
AcDbEntity
  8
0
100
AcDbCircle
 62
7
  6
CONTINUOUS
 10
87.9243430635
 20
157.0159962052
 40
0.5392670832
100
AcDbArc
 50
57.044964037
 51
58.3737773486
  0
ARC
  5
600
100
AcDbEntity
  8
0
100
AcDbCircle
 62
7
  6
CONTINUOUS
 10
85.2619609223
 20
173.3411297323
 40
17.3294446669
100
AcDbArc
 50
268.0815745833
 51
271.9184254167
  0
ARC
  5
601
100
AcDbEntity
  8
0
100
AcDbCircle
 62
7
  6
CONTINUOUS
 10
85.2888690389
 20
172.5397822464
 40
16.527645543
100
AcDbArc
 50
271.9181943354
 51
272.289854092
  0
ARC
  5
602
100
AcDbEntity
  8
0
100
AcDbCircle
 62
7
  6
CONTINUOUS
 10
87.9931574172
 20
173.928261107
 40
16.2226313924
100
AcDbArc
 50
275.9175732939
 51
276.5421138039
  0
ARC
  5
603
100
AcDbEntity
  8
0
100
AcDbCircle
 62
7
  6
CONTINUOUS
 10
85.3066602803
 20
172.0959165043
 40
16.0834233875
100
AcDbArc
 50
272.2897028908
 51
272.6631026295
  0
ARC
  5
604
100
AcDbEntity
  8
0
100
AcDbCircle
 62
7
  6
CONTINUOUS
 10
88.1966963401
 20
171.7849887111
 40
14.4195463952
100
AcDbArc
 50
276.5673670342
 51
276.7444066006
  0
ARC
  5
605
100
AcDbEntity
  8
0
100
AcDbCircle
 62
7
  6
CONTINUOUS
 10
85.4071248484
 20
170.2208744167
 40
14.2057446019
100
AcDbArc
 50
272.6097194773
 51
275.1967730016
  0
ARC
  5
606
100
AcDbEntity
  8
0
100
AcDbCircle
 62
7
  6
CONTINUOUS
 10
89.6032181105
 20
165.8434803494
 40
0.166
100
AcDbArc
 50
285.0
 51
105.0
  0
ARC
  5
607
100
AcDbEntity
  8
0
100
AcDbCircle
 62
7
  6
CONTINUOUS
 10
86.9499609223
 20
163.7328154762
 40
0.094
100
AcDbArc
 50
302.5219300729
 51
90.0
  0
ARC
  5
608
100
AcDbEntity
  8
0
100
AcDbCircle
 62
7
  6
CONTINUOUS
 10
94.2619609223
 20
148.4568154762
 40
18.166
100
AcDbArc
 50
165.0
 51
171.713617279
  0
ARC
  5
609
100
AcDbEntity
  8
0
100
AcDbCircle
 62
7
  6
CONTINUOUS
 10
94.2619609223
 20
148.4568154762
 40
18.166
100
AcDbArc
 50
105.0
 51
119.6981766283
  0
ARC
  5
60A
100
AcDbEntity
  8
0
100
AcDbCircle
 62
7
  6
CONTINUOUS
 10
94.2619609223
 20
148.4568154762
 40
17.834
100
AcDbArc
 50
165.0
 51
170.3953824573
  0
ARC
  5
60B
100
AcDbEntity
  8
0
100
AcDbCircle
 62
7
  6
CONTINUOUS
 10
94.2619609223
 20
148.4568154762
 40
17.834
100
AcDbArc
 50
105.0
 51
120.3083889057
  0
ARC
  5
60C
100
AcDbEntity
  8
0
100
AcDbCircle
 62
7
  6
CONTINUOUS
 10
93.6486257955
 20
153.115558288
 40
0.166
100
AcDbArc
 50
15.0
 51
195.0000000001
  0
CIRCLE
  5
60D
100
AcDbEntity
  8
0
100
AcDbCircle
 62
7
  6
CONTINUOUS
 10
98.2619609223
 20
164.1318154762
 40
0.875
  0
CIRCLE
  5
60E
100
AcDbEntity
  8
0
100
AcDbCircle
 62
7
  6
CONTINUOUS
 10
98.2619609223
 20
164.1318154762
 40
0.815
  0
ARC
  5
60F
100
AcDbEntity
  8
0
100
AcDbCircle
 62
7
  6
CONTINUOUS
 10
85.7497070221
 20
211.3183934372
 40
55.6193243018
100
AcDbArc
 50
272.1823363327
 51
272.4877506649
  0
ARC
  5
610
100
AcDbEntity
  8
0
100
AcDbCircle
 62
7
  6
CONTINUOUS
 10
86.5865915065
 20
190.2282308969
 40
32.5842224551
100
AcDbArc
 50
273.5703756325
 51
274.1757269969
  0
ARC
  5
611
100
AcDbEntity
  8
0
100
AcDbCircle
 62
7
  6
CONTINUOUS
 10
86.6188115469
 20
189.4076539251
 40
32.1142537458
100
AcDbArc
 50
273.6886784679
 51
274.1793066318
  0
ARC
  5
612
100
AcDbEntity
  8
7_ALL_ROUNDS
100
AcDbCircle
 62
7
  6
CONTINUOUS
 10
162.3658184524
 20
37.1485231547
 40
0.125
100
AcDbArc
 50
180.0
 51
270.0
  0
ARC
  5
613
100
AcDbEntity
  8
7_ALL_ROUNDS
100
AcDbCircle
 62
7
  6
CONTINUOUS
 10
163.6158184524
 20
37.1485231547
 40
0.125
100
AcDbArc
 50
270.0
 51
360.0
  0
ARC
  5
614
100
AcDbEntity
  8
7_ALL_ROUNDS
100
AcDbCircle
 62
7
  6
CONTINUOUS
 10
162.3091051066
 20
102.7964277136
 40
15.5520833333
100
AcDbArc
 50
352.8403473747
 51
17.1596526253
  0
ARC
  5
615
100
AcDbEntity
  8
0
100
AcDbCircle
 62
7
  6
CONTINUOUS
 10
164.3491835359
 20
102.974632947
 40
13.1334558046
100
AcDbArc
 50
5.2805258809
 51
5.6518248891
  0
ARC
  5
616
100
AcDbEntity
  8
0
100
AcDbCircle
 62
7
  6
CONTINUOUS
 10
164.4309960237
 20
102.981747801
 40
13.0513337251
100
AcDbArc
 50
4.1609292952
 51
4.7551079764
  0
ARC
  5
617
100
AcDbEntity
  8
0
100
AcDbCircle
 62
7
  6
CONTINUOUS
 10
165.0847547779
 20
103.0504053971
 40
12.3939984263
100
AcDbArc
 50
5.6381282908
 51
7.0635034929
  0
ARC
  5
618
100
AcDbEntity
  8
0
100
AcDbCircle
 62
7
  6
CONTINUOUS
 10
165.1445562379
 20
103.0314307059
 40
12.336049625
100
AcDbArc
 50
2.9818301591
 51
4.1712524452
  0
ARC
  5
619
100
AcDbEntity
  8
0
100
AcDbCircle
 62
7
  6
CONTINUOUS
 10
167.3879958894
 20
103.3506321755
 40
10.071215873
100
AcDbArc
 50
7.6472342918
 51
9.1879508425
  0
ARC
  5
61A
100
AcDbEntity
  8
0
100
AcDbCircle
 62
7
  6
CONTINUOUS
 10
167.4553622381
 20
103.1341852648
 40
10.0229018577
100
AcDbArc
 50
0.6976460733
 51
2.3761170714
  0
ARC
  5
61B
100
AcDbEntity
  8
0
100
AcDbCircle
 62
7
  6
CONTINUOUS
 10
168.5131864577
 20
103.5300918151
 40
8.931807037
100
AcDbArc
 50
9.204026795
 51
9.9134329063
  0
ARC
  5
61C
100
AcDbEntity
  8
0
100
AcDbCircle
 62
7
  6
CONTINUOUS
 10
168.6017480446
 20
103.1515689154
 40
8.8763900304
100
AcDbArc
 50
0.0846871137
 51
0.6755442741
  0
ARC
  5
61D
100
AcDbEntity
  8
0
100
AcDbCircle
 62
7
  6
CONTINUOUS
 10
164.3570742904
 20
122.4469928857
 40
8.1309573895
100
AcDbArc
 50
352.7233626954
 51
27.2766373046
  0
ARC
  5
61E
100
AcDbEntity
  8
0
100
AcDbCircle
 62
7
  6
CONTINUOUS
 10
169.9118652119
 20
103.1432635946
 40
7.5662119914
100
AcDbArc
 50
358.2989604172
 51
359.2037493422
  0
ARC
  5
61F
100
AcDbEntity
  8
0
100
AcDbCircle
 62
7
  6
CONTINUOUS
 10
169.8667044925
 20
103.7770935645
 40
7.5558962115
100
AcDbArc
 50
10.8331836956
 51
11.7015428443
  0
ARC
  5
620
100
AcDbEntity
  8
7_ALL_ROUNDS
100
AcDbCircle
 62
7
  6
CONTINUOUS
 10
161.0668184524
 20
128.4295590306
 40
0.5
100
AcDbArc
 50
0.0
 51
90.0
  0
ARC
  5
621
100
AcDbEntity
  8
7_ALL_ROUNDS
100
AcDbCircle
 62
7
  6
CONTINUOUS
 10
161.0668184524
 20
91.7905590306
 40
0.5
100
AcDbArc
 50
270.0
 51
360.0
  0
ARC
  5
622
100
AcDbEntity
  8
0
100
AcDbCircle
 62
7
  6
CONTINUOUS
 10
161.5907559866
 20
91.0905158788
 40
0.4992765553
100
AcDbArc
 50
216.9681197022
 51
33.331077468
  0
ARC
  5
623
100
AcDbEntity
  8
7_ALL_ROUNDS
100
AcDbCircle
 62
7
  6
CONTINUOUS
 10
168.8358184524
 20
90.8004444145
 40
0.312
100
AcDbArc
 50
90.0
 51
163.4148165404
  0
ARC
  5
624
100
AcDbEntity
  8
7_ALL_ROUNDS
100
AcDbCircle
 62
7
  6
CONTINUOUS
 10
169.6661072315
 20
118.9548431802
 40
0.25
100
AcDbArc
 50
280.0
 51
10.0
  0
CIRCLE
  5
625
100
AcDbEntity
  8
0
100
AcDbCircle
 62
7
  6
CONTINUOUS
 10
161.5907559866
 20
91.0905158788
 40
0.1825
  0
CIRCLE
  5
626
100
AcDbEntity
  8
0
100
AcDbCircle
 62
7
  6
CONTINUOUS
 10
169.4221043348
 20
110.901118345
 40
0.0925
  0
CIRCLE
  5
627
100
AcDbEntity
  8
0
100
AcDbCircle
 62
7
  6
CONTINUOUS
 10
168.7492176464
 20
114.717248388
 40
0.0925
  0
CIRCLE
  5
628
100
AcDbEntity
  8
0
100
AcDbCircle
 62
7
  6
CONTINUOUS
 10
168.0763309579
 20
118.5333784309
 40
0.0925
  0
CIRCLE
  5
629
100
AcDbEntity
  8
0
100
AcDbCircle
 62
7
  6
CONTINUOUS
 10
169.7130470356
 20
119.3296889411
 40
0.0925
  0
ARC
  5
62A
100
AcDbEntity
  8
7_ALL_ROUNDS
100
AcDbCircle
 62
7
  6
CONTINUOUS
 10
176.5408184524
 20
73.2434444145
 40
0.19
100
AcDbArc
 50
270.0
 51
360.0
  0
ARC
  5
62B
100
AcDbEntity
  8
7_ALL_ROUNDS
100
AcDbCircle
 62
7
  6
CONTINUOUS
 10
171.8708184524
 20
73.2434444145
 40
0.19
100
AcDbArc
 50
180.0
 51
270.0
  0
ARC
  5
62C
100
AcDbEntity
  8
7_ALL_ROUNDS
100
AcDbCircle
 62
7
  6
CONTINUOUS
 10
171.8708184524
 20
79.9634444145
 40
0.19
100
AcDbArc
 50
90.0
 51
180.0
  0
ARC
  5
62D
100
AcDbEntity
  8
7_ALL_ROUNDS
100
AcDbCircle
 62
7
  6
CONTINUOUS
 10
176.5408184524
 20
79.9634444145
 40
0.19
100
AcDbArc
 50
0.0
 51
90.0
  0
ARC
  5
62E
100
AcDbEntity
  8
7_ALL_ROUNDS
100
AcDbCircle
 62
7
  6
CONTINUOUS
 10
175.8370192398
 20
79.2396452019
 40
0.1875
100
AcDbArc
 50
0.0
 51
90.0
  0
ARC
  5
62F
100
AcDbEntity
  8
7_ALL_ROUNDS
100
AcDbCircle
 62
7
  6
CONTINUOUS
 10
175.8370192398
 20
73.9672436271
 40
0.1875
100
AcDbArc
 50
270.0
 51
360.0
  0
ARC
  5
630
100
AcDbEntity
  8
7_ALL_ROUNDS
100
AcDbCircle
 62
7
  6
CONTINUOUS
 10
172.574617665
 20
73.9672436271
 40
0.1875
100
AcDbArc
 50
180.0
 51
270.0
  0
ARC
  5
631
100
AcDbEntity
  8
7_ALL_ROUNDS
100
AcDbCircle
 62
7
  6
CONTINUOUS
 10
172.574617665
 20
79.2396452019
 40
0.1875
100
AcDbArc
 50
90.0
 51
180.0
  0
ARC
  5
632
100
AcDbEntity
  8
7_ALL_ROUNDS
100
AcDbCircle
 62
7
  6
CONTINUOUS
 10
176.5088184524
 20
73.2954444145
 40
0.187
100
AcDbArc
 50
270.0
 51
360.0
  0
ARC
  5
633
100
AcDbEntity
  8
7_ALL_ROUNDS
100
AcDbCircle
 62
7
  6
CONTINUOUS
 10
176.5088184524
 20
79.9114444145
 40
0.187
100
AcDbArc
 50
0.0
 51
90.0
  0
ARC
  5
634
100
AcDbEntity
  8
7_ALL_ROUNDS
100
AcDbCircle
 62
7
  6
CONTINUOUS
 10
171.9028184524
 20
79.9114444145
 40
0.187
100
AcDbArc
 50
90.0
 51
180.0
  0
ARC
  5
635
100
AcDbEntity
  8
7_ALL_ROUNDS
100
AcDbCircle
 62
7
  6
CONTINUOUS
 10
171.9028184524
 20
73.2954444145
 40
0.187
100
AcDbArc
 50
180.0
 51
270.0
  0
ARC
  5
636
100
AcDbEntity
  8
7_ALL_ROUNDS
100
AcDbCircle
 62
7
  6
CONTINUOUS
 10
177.6158184524
 20
37.1485231547
 40
0.125
100
AcDbArc
 50
180.0
 51
270.0
  0
ARC
  5
637
100
AcDbEntity
  8
7_ALL_ROUNDS
100
AcDbCircle
 62
7
  6
CONTINUOUS
 10
178.8658184524
 20
37.1485231547
 40
0.125
100
AcDbArc
 50
270.0
 51
360.0
  0
CIRCLE
  5
638
100
AcDbEntity
  8
0
100
AcDbCircle
 62
7
  6
CONTINUOUS
 10
175.4931567201
 20
78.1833656743
 40
0.0835
  0
CIRCLE
  5
639
100
AcDbEntity
  8
0
100
AcDbCircle
 62
7
  6
CONTINUOUS
 10
172.9281567201
 20
78.1833656743
 40
0.0835
  0
ARC
  5
63A
100
AcDbEntity
  8
7_ALL_ROUNDS
100
AcDbCircle
 62
7
  6
CONTINUOUS
 10
170.5827754215
 20
96.39768481
 40
1.3
100
AcDbArc
 50
130.695918265
 51
180.0
  0
ARC
  5
63B
100
AcDbEntity
  8
7_ALL_ROUNDS
100
AcDbCircle
 62
7
  6
CONTINUOUS
 10
171.022733057
 20
96.4035599818
 40
0.6
100
AcDbArc
 50
140.9542109377
 51
220.695918265
  0
ARC
  5
63C
100
AcDbEntity
  8
7_ALL_ROUNDS
100
AcDbCircle
 62
7
  6
CONTINUOUS
 10
170.1684255922
 20
97.0964957001
 40
0.5000005247
100
AcDbArc
 50
320.9542109377
 51
130.695918265
  0
CIRCLE
  5
63D
100
AcDbEntity
  8
0
100
AcDbCircle
 62
7
  6
CONTINUOUS
 10
170.1684255922
 20
97.0964957001
 40
0.1615
  0
ARC
  5
63E
100
AcDbEntity
  8
7_ALL_ROUNDS
100
AcDbCircle
 62
7
  6
CONTINUOUS
 10
171.0610153351
 20
111.0439262126
 40
0.25
100
AcDbArc
 50
10.0
 51
100.0
  0
CIRCLE
  5
63F
100
AcDbEntity
  8
0
100
AcDbCircle
 62
7
  6
CONTINUOUS
 10
170.9557489071
 20
117.0610156109
 40
0.135
  0
CIRCLE
  5
640
100
AcDbEntity
  8
0
100
AcDbCircle
 62
7
  6
CONTINUOUS
 10
170.8661030354
 20
117.5694226134
 40
0.135
  0
CIRCLE
  5
641
100
AcDbEntity
  8
0
100
AcDbCircle
 62
7
  6
CONTINUOUS
 10
170.7736353808
 20
118.0938327419
 40
0.135
  0
CIRCLE
  5
642
100
AcDbEntity
  8
0
100
AcDbCircle
 62
7
  6
CONTINUOUS
 10
170.6839895091
 20
118.6022397444
 40
0.135
  0
CIRCLE
  5
643
100
AcDbEntity
  8
0
100
AcDbCircle
 62
7
  6
CONTINUOUS
 10
171.042572996
 20
116.5686117344
 40
0.0835
  0
CIRCLE
  5
644
100
AcDbEntity
  8
0
100
AcDbCircle
 62
7
  6
CONTINUOUS
 10
170.5971654202
 20
119.0946436209
 40
0.0835
  0
ARC
  5
645
100
AcDbEntity
  8
0
100
AcDbCircle
 62
7
  6
CONTINUOUS
 10
171.3688348404
 20
110.737887669
 40
0.2269992548
100
AcDbArc
 50
280.0
 51
100.0
  0
CIRCLE
  5
646
100
AcDbEntity
  8
0
100
AcDbCircle
 62
7
  6
CONTINUOUS
 10
171.4682933357
 20
112.0234866324
 40
0.185
  0
CIRCLE
  5
647
100
AcDbEntity
  8
0
100
AcDbCircle
 62
7
  6
CONTINUOUS
 10
171.5748046605
 20
113.5501759714
 40
0.135
  0
CIRCLE
  5
648
100
AcDbEntity
  8
0
100
AcDbCircle
 62
7
  6
CONTINUOUS
 10
171.4851587888
 20
114.0585829739
 40
0.135
  0
CIRCLE
  5
649
100
AcDbEntity
  8
0
100
AcDbCircle
 62
7
  6
CONTINUOUS
 10
171.3926911342
 20
114.5829931024
 40
0.135
  0
ARC
  5
64A
100
AcDbEntity
  8
0
100
AcDbCircle
 62
7
  6
CONTINUOUS
 10
171.4682933357
 20
112.0234866324
 40
0.125
100
AcDbArc
 50
23.2810120025
 51
296.7189879976
  0
CIRCLE
  5
64B
100
AcDbEntity
  8
0
100
AcDbCircle
 62
7
  6
CONTINUOUS
 10
171.2326236385
 20
110.7117417797
 40
0.0925
  0
CIRCLE
  5
64C
100
AcDbEntity
  8
0
100
AcDbCircle
 62
7
  6
CONTINUOUS
 10
171.6616287493
 20
113.0577720949
 40
0.0835
  0
CIRCLE
  5
64D
100
AcDbEntity
  8
0
100
AcDbCircle
 62
7
  6
CONTINUOUS
 10
171.8206780685
 20
111.8952290787
 40
0.059
  0
CIRCLE
  5
64E
100
AcDbEntity
  8
0
100
AcDbCircle
 62
7
  6
CONTINUOUS
 10
171.3030452625
 20
115.0914001049
 40
0.135
  0
CIRCLE
  5
64F
100
AcDbEntity
  8
0
100
AcDbCircle
 62
7
  6
CONTINUOUS
 10
171.2162211736
 20
115.5838039814
 40
0.0835
  0
ARC
  5
650
100
AcDbEntity
  8
7_ALL_ROUNDS
100
AcDbCircle
 62
7
  6
CONTINUOUS
 10
175.2594176171
 20
101.1696870398
 40
2.5
100
AcDbArc
 50
278.0000000003
 51
352.8403473749
  0
ARC
  5
651
100
AcDbEntity
  8
7_ALL_ROUNDS
100
AcDbCircle
 62
7
  6
CONTINUOUS
 10
177.4358184524
 20
90.8004444145
 40
0.312
100
AcDbArc
 50
16.5851834596
 51
90.0
  0
ARC
  5
652
100
AcDbEntity
  8
7_ALL_ROUNDS
100
AcDbCircle
 62
7
  6
CONTINUOUS
 10
174.7801927197
 20
106.6472526827
 40
2.5
100
AcDbArc
 50
17.1596526251
 51
91.9999999997
  0
SPLINE
  5
653
100
AcDbEntity
  8
0
100
AcDbSpline
 62
7
  6
CONTINUOUS
 70
0
 71
3
 72
8
 73
4
 74
0
 42
0.0000001
 43
0.0000001
 44
0.0000000001
 40
0.0
 40
0.0
 40
0.0
 40
0.0
 40
1.0
 40
1.0
 40
1.0
 40
1.0
 10
82.5949113661
 20
105.3516122525
 30
0.0
 10
82.2244497075
 20
104.8216437359
 30
0.0
 10
82.0119609223
 20
104.1480510112
 30
0.0
 10
82.0119609223
 20
103.501437936
 30
0.0
  0
SPLINE
  5
654
100
AcDbEntity
  8
0
100
AcDbSpline
 62
7
  6
CONTINUOUS
 70
0
 71
3
 72
8
 73
4
 74
0
 42
0.0000001
 43
0.0000001
 44
0.0000000001
 40
0.0
 40
0.0
 40
0.0
 40
0.0
 40
1.0
 40
1.0
 40
1.0
 40
1.0
 10
88.5119609223
 20
103.501437936
 30
0.0
 10
88.5119609223
 20
104.1481938688
 30
0.0
 10
88.2993706822
 20
104.8219467039
 30
0.0
 10
87.9287530414
 20
105.3519804775
 30
0.0
  0
SPLINE
  5
655
100
AcDbEntity
  8
0
100
AcDbSpline
 62
7
  6
CONTINUOUS
 70
0
 71
3
 72
8
 73
4
 74
0
 42
0.0000001
 43
0.0000001
 44
0.0000000001
 40
0.0
 40
0.0
 40
0.0
 40
0.0
 40
1.0
 40
1.0
 40
1.0
 40
1.0
 10
87.92891085
 20
101.6511211029
 30
0.0
 10
88.2994328746
 20
102.18111488
 30
0.0
 10
88.5119609223
 20
102.8547695709
 30
0.0
 10
88.5119609223
 20
103.501437936
 30
0.0
  0
SPLINE
  5
656
100
AcDbEntity
  8
0
100
AcDbSpline
 62
7
  6
CONTINUOUS
 70
0
 71
3
 72
9
 73
5
 74
0
 42
0.0000001
 43
0.0000001
 44
0.0000000001
 40
0.0
 40
0.0
 40
0.0
 40
0.0
 40
0.4999999999
 40
1.0
 40
1.0
 40
1.0
 40
1.0
 10
84.5822299202
 20
123.4510898224
 30
0.0
 10
84.6966973539
 20
123.2093426226
 30
0.0
 10
85.2619609081
 20
122.8399213287
 30
0.0
 10
85.8272244729
 20
123.2093426053
 30
0.0
 10
85.9416919146
 20
123.4510898015
 30
0.0
  0
SPLINE
  5
657
100
AcDbEntity
  8
7_ALL_ROUNDS
100
AcDbSpline
 62
7
  6
CONTINUOUS
 70
0
 71
3
 72
10
 73
6
 74
0
 42
0.0000001
 43
0.0000001
 44
0.0000000001
 40
0.0
 40
0.0
 40
0.0
 40
0.0
 40
0.251130918
 40
0.5024790966
 40
1.0
 40
1.0
 40
1.0
 40
1.0
 10
72.637770882
 20
106.92605255
 30
0.0
 10
72.7103103654
 20
107.5559627983
 30
0.0
 10
73.1340762913
 20
108.8018052479
 30
0.0
 10
74.894570944
 20
110.6926275889
 30
0.0
 10
76.8791056646
 20
111.2475822568
 30
0.0
 10
78.1352819373
 20
111.2475823741
 30
0.0
  0
SPLINE
  5
658
100
AcDbEntity
  8
7_ALL_ROUNDS
100
AcDbSpline
 62
7
  6
CONTINUOUS
 70
0
 71
3
 72
10
 73
6
 74
0
 42
0.0000001
 43
0.0000001
 44
0.0000000001
 40
0.0
 40
0.0
 40
0.0
 40
0.0
 40
0.4975207322
 40
0.7488688701
 40
1.0
 40
1.0
 40
1.0
 40
1.0
 10
92.3886399633
 20
111.2475823687
 30
0.0
 10
93.644815762
 20
111.2475824185
 30
0.0
 10
95.6293497796
 20
110.692627973
 30
0.0
 10
97.3898449317
 20
108.8018063154
 30
0.0
 10
97.8136112801
 20
107.555963514
 30
0.0
 10
97.8861509138
 20
106.9260527656
 30
0.0
  0
SPLINE
  5
659
100
AcDbEntity
  8
7_ALL_ROUNDS
100
AcDbSpline
 62
7
  6
CONTINUOUS
 70
0
 71
3
 72
11
 73
7
 74
0
 42
0.0000001
 43
0.0000001
 44
0.0000000001
 40
0.0
 40
0.0
 40
0.0
 40
0.0
 40
0.2506225486
 40
0.5005574067
 40
0.7500419552
 40
1.0
 40
1.0
 40
1.0
 40
1.0
 10
76.6210684703
 20
93.0489444151
 30
0.0
 10
75.9434770708
 20
93.0489444481
 30
0.0
 10
74.5761902973
 20
93.252883776
 30
0.0
 10
72.7732024567
 20
94.3164882248
 30
0.0
 10
71.657929534
 20
96.1073203135
 30
0.0
 10
71.5527691358
 20
97.504248602
 30
0.0
 10
71.6300818446
 20
98.1756064727
 30
0.0
  0
SPLINE
  5
65A
100
AcDbEntity
  8
7_ALL_ROUNDS
100
AcDbSpline
 62
7
  6
CONTINUOUS
 70
0
 71
3
 72
11
 73
7
 74
0
 42
0.0000001
 43
0.0000001
 44
0.0000000001
 40
0.0
 40
0.0
 40
0.0
 40
0.0
 40
0.249957883
 40
0.4994424956
 40
0.7493772679
 40
1.0
 40
1.0
 40
1.0
 40
1.0
 10
98.89384
 20
98.1756064722
 30
0.0
 10
98.9711526558
 20
97.5042490377
 30
0.0
 10
98.8659924074
 20
96.1073211102
 30
0.0
 10
97.7507202769
 20
94.3164890887
 30
0.0
 10
95.9477323399
 20
93.2528839901
 30
0.0
 10
94.5804452696
 20
93.0489444514
 30
0.0
 10
93.9028533761
 20
93.0489444153
 30
0.0
  0
SPLINE
  5
65B
100
AcDbEntity
  8
0
100
AcDbSpline
 62
7
  6
CONTINUOUS
 70
0
 71
3
 72
9
 73
5
 74
0
 42
0.0000001
 43
0.0000001
 44
0.0000000001
 40
0.0
 40
0.0
 40
0.0
 40
0.0
 40
0.4994610945
 40
1.0
 40
1.0
 40
1.0
 40
1.0
 10
85.9416919146
 20
123.4510898015
 30
0.0
 10
86.0006799791
 20
123.5756684504
 30
0.0
 10
86.0476275951
 20
123.8656274551
 30
0.0
 10
85.9260823509
 20
124.1328596032
 30
0.0
 10
85.8364941296
 20
124.2380045991
 30
0.0
  0
SPLINE
  5
65C
100
AcDbEntity
  8
0
100
AcDbSpline
 62
7
  6
CONTINUOUS
 70
0
 71
3
 72
9
 73
5
 74
0
 42
0.0000001
 43
0.0000001
 44
0.0000000001
 40
0.0
 40
0.0
 40
0.0
 40
0.0
 40
0.5005389056
 40
1.0
 40
1.0
 40
1.0
 40
1.0
 10
84.6874277172
 20
124.2380046016
 30
0.0
 10
84.5978394974
 20
124.1328596086
 30
0.0
 10
84.4762942534
 20
123.8656274686
 30
0.0
 10
84.523241861
 20
123.5756684703
 30
0.0
 10
84.5822299202
 20
123.4510898224
 30
0.0
  0
SPLINE
  5
65D
100
AcDbEntity
  8
0
100
AcDbSpline
 62
7
  6
CONTINUOUS
 70
0
 71
3
 72
14
 73
10
 74
0
 42
0.0000001
 43
0.0000001
 44
0.0000000001
 40
0.0
 40
0.0
 40
0.0
 40
0.0
 40
0.2487150732
 40
0.4969157618
 40
0.6206884302
 40
0.744153871
 40
0.8678272472
 40
0.9316827164
 40
1.0
 40
1.0
 40
1.0
 40
1.0
 10
71.6300817905
 20
98.1756060026
 30
0.0
 10
72.5173459969
 20
98.5459600863
 30
0.0
 10
74.2919661663
 20
99.2814391759
 30
0.0
 10
76.5171689927
 20
100.1786468366
 30
0.0
 10
78.3083889053
 20
100.8584081558
 30
0.0
 10
79.662792207
 20
101.3252950348
 30
0.0
 10
80.8294967464
 20
101.6422926981
 30
0.0
 10
81.8212204033
 20
101.7040304655
 30
0.0
 10
82.3308253565
 20
101.65527546
 30
0.0
 10
82.5948892991
 20
101.6512951881
 30
0.0
  0
SPLINE
  5
65E
100
AcDbEntity
  8
0
100
AcDbSpline
 62
7
  6
CONTINUOUS
 70
0
 71
3
 72
14
 73
10
 74
0
 42
0.0000001
 43
0.0000001
 44
0.0000000001
 40
0.0
 40
0.0
 40
0.0
 40
0.0
 40
0.2454957205
 40
0.4909337447
 40
0.6137295438
 40
0.7368884218
 40
0.8620033589
 40
0.9280237758
 40
1.0
 40
1.0
 40
1.0
 40
1.0
 10
72.6377709147
 20
106.9260528338
 30
0.0
 10
73.4440801421
 20
106.7245494679
 30
0.0
 10
75.057721146
 20
106.3263651437
 30
0.0
 10
77.0802481316
 20
105.850416367
 30
0.0
 10
78.7078430911
 20
105.5047353877
 30
0.0
 10
79.9434568721
 20
105.280142545
 30
0.0
 10
81.0043631163
 20
105.1593145455
 30
0.0
 10
81.8979056832
 20
105.2078412052
 30
0.0
 10
82.3532221544
 20
105.3204036775
 30
0.0
 10
82.5948892991
 20
105.3515806838
 30
0.0
  0
SPLINE
  5
65F
100
AcDbEntity
  8
0
100
AcDbSpline
 62
7
  6
CONTINUOUS
 70
0
 71
3
 72
13
 73
9
 74
0
 42
0.0000001
 43
0.0000001
 44
0.0000000001
 40
0.0
 40
0.0
 40
0.0
 40
0.0
 40
0.1259813789
 40
0.2520758871
 40
0.5
 40
0.7479241129
 40
0.8740186211
 40
1.0
 40
1.0
 40
1.0
 40
1.0
 10
82.0121235441
 20
103.5018787227
 30
0.0
 10
82.016344037
 20
103.0833457671
 30
0.0
 10
82.1937017811
 20
102.2384026595
 30
0.0
 10
83.1422613425
 20
100.8319750611
 30
0.0
 10
85.2619609223
 20
99.941581833
 30
0.0
 10
87.3816605021
 20
100.8319750611
 30
0.0
 10
88.3302200635
 20
102.2384026595
 30
0.0
 10
88.5075778076
 20
103.0833457671
 30
0.0
 10
88.5117983005
 20
103.5018787227
 30
0.0
  0
SPLINE
  5
660
100
AcDbEntity
  8
0
100
AcDbSpline
 62
7
  6
CONTINUOUS
 70
0
 71
3
 72
8
 73
4
 74
0
 42
0.0000001
 43
0.0000001
 44
0.0000000001
 40
0.0
 40
0.0
 40
0.0
 40
0.0
 40
1.0
 40
1.0
 40
1.0
 40
1.0
 10
82.0119609223
 20
103.501437936
 30
0.0
 10
82.0119609223
 20
102.854777477
 30
0.0
 10
82.2244833555
 20
102.1811316468
 30
0.0
 10
82.5949967479
 20
101.6511414815
 30
0.0
  0
SPLINE
  5
661
100
AcDbEntity
  8
0
100
AcDbSpline
 62
7
  6
CONTINUOUS
 70
0
 71
3
 72
14
 73
10
 74
0
 42
0.0000001
 43
0.0000001
 44
0.0000000001
 40
0.0
 40
0.0
 40
0.0
 40
0.0
 40
0.2467873457
 40
0.3697749337
 40
0.4923521007
 40
0.6143530826
 40
0.7356434827
 40
0.8580187908
 40
1.0
 40
1.0
 40
1.0
 40
1.0
 10
76.6210684777
 20
93.0489444151
 30
0.0
 10
77.20537896
 20
93.7005810788
 30
0.0
 10
78.0786209768
 20
94.6789377371
 30
0.0
 10
79.230372155
 20
95.99159767
 30
0.0
 10
80.0803416448
 20
96.9794313882
 30
0.0
 10
80.9098763715
 20
97.9795309809
 30
0.0
 10
81.694280947
 20
99.005297668
 30
0.0
 10
82.4144145223
 20
100.2041887054
 30
0.0
 10
82.4480510541
 20
101.1696378886
 30
0.0
 10
82.5948892991
 20
101.6512951881
 30
0.0
  0
SPLINE
  5
662
100
AcDbEntity
  8
0
100
AcDbSpline
 62
7
  6
CONTINUOUS
 70
0
 71
3
 72
14
 73
10
 74
0
 42
0.0000001
 43
0.0000001
 44
0.0000000001
 40
0.0
 40
0.0
 40
0.0
 40
0.0
 40
0.2467873377
 40
0.3697749216
 40
0.4923520852
 40
0.6143530643
 40
0.735643462
 40
0.8580187258
 40
1.0
 40
1.0
 40
1.0
 40
1.0
 10
93.9028533667
 20
93.0489444153
 30
0.0
 10
93.3185428798
 20
93.7005810464
 30
0.0
 10
92.4453009068
 20
94.6789376934
 30
0.0
 10
91.293549749
 20
95.9915976103
 30
0.0
 10
90.443580341
 20
96.9794313073
 30
0.0
 10
89.6140452108
 20
97.9795307439
 30
0.0
 10
88.8296420409
 20
99.0052976293
 30
0.0
 10
88.1095025996
 20
100.2041869437
 30
0.0
 10
88.0758823586
 20
101.16964117
 30
0.0
 10
87.9290325455
 20
101.6512951881
 30
0.0
  0
SPLINE
  5
663
100
AcDbEntity
  8
0
100
AcDbSpline
 62
7
  6
CONTINUOUS
 70
0
 71
3
 72
14
 73
10
 74
0
 42
0.0000001
 43
0.0000001
 44
0.0000000001
 40
0.0
 40
0.0
 40
0.0
 40
0.0
 40
0.2454958391
 40
0.4909339831
 40
0.6137298418
 40
0.7368887837
 40
0.8620041355
 40
0.9280252328
 40
1.0
 40
1.0
 40
1.0
 40
1.0
 10
97.8861509066
 20
106.9260528281
 30
0.0
 10
97.0798423907
 20
106.7245490541
 30
0.0
 10
95.4662017168
 20
106.326362509
 30
0.0
 10
93.4436783821
 20
105.8504268184
 30
0.0
 10
91.8160803541
 20
105.5047196154
 30
0.0
 10
90.580479203
 20
105.2802080979
 30
0.0
 10
89.5195275133
 20
105.1591255659
 30
0.0
 10
88.6260720158
 20
105.2083081232
 30
0.0
 10
88.1705784073
 20
105.3195172244
 30
0.0
 10
87.9290325455
 20
105.3515806838
 30
0.0
  0
SPLINE
  5
664
100
AcDbEntity
  8
0
100
AcDbSpline
 62
7
  6
CONTINUOUS
 70
0
 71
3
 72
14
 73
10
 74
0
 42
0.0000001
 43
0.0000001
 44
0.0000000001
 40
0.0
 40
0.0
 40
0.0
 40
0.0
 40
0.2487150753
 40
0.4969157662
 40
0.6206884356
 40
0.7441538762
 40
0.8678272383
 40
0.9316826979
 40
1.0
 40
1.0
 40
1.0
 40
1.0
 10
98.893840054
 20
98.1756060027
 30
0.0
 10
98.0065758535
 20
98.5459600984
 30
0.0
 10
96.2319556734
 20
99.2814391126
 30
0.0
 10
94.0067528722
 20
100.1786470038
 30
0.0
 10
92.2155329367
 20
100.8584079058
 30
0.0
 10
90.8611297857
 20
101.3252960336
 30
0.0
 10
89.6944250487
 20
101.6422896198
 30
0.0
 10
88.7027015187
 20
101.7040337295
 30
0.0
 10
88.1930966495
 20
101.6552693189
 30
0.0
 10
87.9290325455
 20
101.6512951881
 30
0.0
  0
SPLINE
  5
665
100
AcDbEntity
  8
0
100
AcDbSpline
 62
7
  6
CONTINUOUS
 70
0
 71
3
 72
9
 73
5
 74
0
 42
0.0000001
 43
0.0000001
 44
0.0000000001
 40
0.0
 40
0.0
 40
0.0
 40
0.0
 40
0.5
 40
1.0
 40
1.0
 40
1.0
 40
1.0
 10
85.8364941296
 20
124.2380045991
 30
0.0
 10
85.6998188595
 20
124.3984131948
 30
0.0
 10
85.2619609242
 20
124.6052740059
 30
0.0
 10
84.824102988
 20
124.3984131967
 30
0.0
 10
84.6874277172
 20
124.2380046016
 30
0.0
  0
SPLINE
  5
666
100
AcDbEntity
  8
0
100
AcDbSpline
 62
7
  6
CONTINUOUS
 70
0
 71
3
 72
14
 73
10
 74
0
 42
0.0000001
 43
0.0000001
 44
0.0000000001
 40
0.0
 40
0.0
 40
0.0
 40
0.0
 40
0.2465138859
 40
0.3689617677
 40
0.4905572354
 40
0.6108774431
 40
0.7294024565
 40
0.8496604426
 40
1.0
 40
1.0
 40
1.0
 40
1.0
 10
78.1352819696
 20
111.2475823741
 30
0.0
 10
78.594648764
 20
110.8231696161
 30
0.0
 10
79.280314107
 20
110.1858883928
 30
0.0
 10
80.1813534684
 20
109.3273021546
 30
0.0
 10
80.8420913706
 20
108.6808482166
 30
0.0
 10
81.4757455603
 20
108.0207370379
 30
0.0
 10
82.0738972263
 20
107.3345456338
 30
0.0
 10
82.5403842985
 20
106.4306570078
 30
0.0
 10
82.4882413835
 20
105.7177845603
 30
0.0
 10
82.5948892991
 20
105.3515806838
 30
0.0
  0
SPLINE
  5
667
100
AcDbEntity
  8
0
100
AcDbSpline
 62
7
  6
CONTINUOUS
 70
0
 71
3
 72
14
 73
10
 74
0
 42
0.0000001
 43
0.0000001
 44
0.0000000001
 40
0.0
 40
0.0
 40
0.0
 40
0.0
 40
0.2465140915
 40
0.3689621072
 40
0.4905577613
 40
0.610878289
 40
0.729403756
 40
0.8496615015
 40
1.0
 40
1.0
 40
1.0
 40
1.0
 10
92.3886398692
 20
111.2475823687
 30
0.0
 10
91.9292734612
 20
110.8231699904
 30
0.0
 10
91.2436066485
 20
110.1858898007
 30
0.0
 10
90.3425731819
 20
109.3273026608
 30
0.0
 10
89.6818177092
 20
108.6808547906
 30
0.0
 10
89.0482226338
 20
108.0207254637
 30
0.0
 10
88.449834371
 20
107.3346143729
 30
0.0
 10
87.9842640183
 20
106.430444199
 30
0.0
 10
88.0340203158
 20
105.7182604915
 30
0.0
 10
87.9290325455
 20
105.3515806838
 30
0.0
  0
SPLINE
  5
668
100
AcDbEntity
  8
5_ALL_CURVES
100
AcDbSpline
 62
4
  6
CONTINUOUS
 70
0
 71
3
 72
21
 73
17
 74
0
 42
0.0000001
 43
0.0000001
 44
0.0000000001
 40
0.0
 40
0.0
 40
0.0
 40
0.0
 40
0.125
 40
0.1875
 40
0.25
 40
0.3125
 40
0.375
 40
0.4375
 40
0.5
 40
0.5625
 40
0.625
 40
0.6875
 40
0.75
 40
0.8125
 40
0.875
 40
1.0
 40
1.0
 40
1.0
 40
1.0
 10
85.9416917626
 20
123.4510894805
 30
0.0
 10
85.9535300556
 20
123.4838301915
 30
0.0
 10
85.9721671192
 20
123.5327095929
 30
0.0
 10
85.9934980411
 20
123.5988087885
 30
0.0
 10
85.998974488
 20
123.6508804731
 30
0.0
 10
86.009661191
 20
123.7021275538
 30
0.0
 10
86.0100286138
 20
123.7541757621
 30
0.0
 10
86.0066793646
 20
123.8061717335
 30
0.0
 10
86.0086243154
 20
123.8587393595
 30
0.0
 10
85.9931091385
 20
123.9090726043
 30
0.0
 10
85.9828576457
 20
123.9601892226
 30
0.0
 10
85.969011544
 20
124.010406728
 30
0.0
 10
85.9453502503
 20
124.0573080168
 30
0.0
 10
85.9266844456
 20
124.106114696
 30
0.0
 10
85.8882410208
 20
124.1654498079
 30
0.0
 10
85.8568521124
 20
124.2088335918
 30
0.0
 10
85.836494249
 20
124.2380044589
 30
0.0
  0
SPLINE
  5
669
100
AcDbEntity
  8
5_ALL_CURVES
100
AcDbSpline
 62
4
  6
CONTINUOUS
 70
0
 71
3
 72
29
 73
25
 74
0
 42
0.0000001
 43
0.0000001
 44
0.0000000001
 40
0.0
 40
0.0
 40
0.0
 40
0.0
 40
0.0625
 40
0.09375
 40
0.125
 40
0.15625
 40
0.1875
 40
0.21875
 40
0.25
 40
0.28125
 40
0.3125
 40
0.375
 40
0.5
 40
0.625
 40
0.6875
 40
0.71875
 40
0.75
 40
0.78125
 40
0.8125
 40
0.84375
 40
0.875
 40
0.90625
 40
0.9375
 40
1.0
 40
1.0
 40
1.0
 40
1.0
 10
84.582230082
 20
123.4510894805
 30
0.0
 10
84.6003760285
 20
123.4212304372
 30
0.0
 10
84.6284361166
 20
123.377060232
 30
0.0
 10
84.6624848943
 20
123.3156931854
 30
0.0
 10
84.7011923444
 20
123.2793577353
 30
0.0
 10
84.7364905083
 20
123.2405620212
 30
0.0
 10
84.7722549504
 20
123.2019175281
 30
0.0
 10
84.817424642
 20
123.1739095916
 30
0.0
 10
84.8598819005
 20
123.1427195037
 30
0.0
 10
84.9037836416
 20
123.1136214647
 30
0.0
 10
84.9699750336
 20
123.0882668426
 30
0.0
 10
85.0825705058
 20
123.0379274879
 30
0.0
 10
85.260648142
 20
123.0224951374
 30
0.0
 10
85.4387793684
 20
123.037315202
 30
0.0
 10
85.5515526173
 20
123.0872672596
 30
0.0
 10
85.6178334209
 20
123.1123940718
 30
0.0
 10
85.6618382
 20
123.1413413681
 30
0.0
 10
85.7044051241
 20
123.1723839915
 30
0.0
 10
85.7496761633
 20
123.200241419
 30
0.0
 10
85.7855685971
 20
123.2387443031
 30
0.0
 10
85.8210367722
 20
123.2774872169
 30
0.0
 10
85.8597506841
 20
123.3134327023
 30
0.0
 10
85.8946243152
 20
123.3759595947
 30
0.0
 10
85.9231855957
 20
123.420757962
 30
0.0
 10
85.94169177
 20
123.4510894962
 30
0.0
  0
SPLINE
  5
66A
100
AcDbEntity
  8
5_ALL_CURVES
100
AcDbSpline
 62
4
  6
CONTINUOUS
 70
0
 71
3
 72
21
 73
17
 74
0
 42
0.0000001
 43
0.0000001
 44
0.0000000001
 40
0.0
 40
0.0
 40
0.0
 40
0.0
 40
0.125
 40
0.1875
 40
0.25
 40
0.3125
 40
0.375
 40
0.4375
 40
0.5
 40
0.5625
 40
0.625
 40
0.6875
 40
0.75
 40
0.8125
 40
0.875
 40
1.0
 40
1.0
 40
1.0
 40
1.0
 10
84.68742759
 20
124.2380044523
 30
0.0
 10
84.6673880336
 20
124.209396781
 30
0.0
 10
84.6365399317
 20
124.1669332501
 30
0.0
 10
84.5985641983
 20
124.1085233047
 30
0.0
 10
84.5795893065
 20
124.0596217949
 30
0.0
 10
84.5557984093
 20
124.0128448178
 30
0.0
 10
84.5417646256
 20
123.9626637605
 30
0.0
 10
84.5313345999
 20
123.9115858287
 30
0.0
 10
84.5156405321
 20
123.8613051438
 30
0.0
 10
84.5173988743
 20
123.8087323458
 30
0.0
 10
84.5138670081
 20
123.7567445118
 30
0.0
 10
84.5140435651
 20
123.704708935
 30
0.0
 10
84.5245724102
 20
123.6533748127
 30
0.0
 10
84.5297752244
 20
123.6014735097
 30
0.0
 10
84.5513147569
 20
123.5343614634
 30
0.0
 10
84.5702323462
 20
123.4844553213
 30
0.0
 10
84.5822300857
 20
123.4510894727
 30
0.0
  0
SPLINE
  5
66B
100
AcDbEntity
  8
5_ALL_CURVES
100
AcDbSpline
 62
4
  6
CONTINUOUS
 70
0
 71
3
 72
11
 73
7
 74
0
 42
0.0000001
 43
0.0000001
 44
0.0000000001
 40
0.0
 40
0.0
 40
0.0
 40
0.0
 40
0.5
 40
0.75
 40
0.875
 40
1.0
 40
1.0
 40
1.0
 40
1.0
 10
87.9290325455
 20
105.3515806838
 30
0.0
 10
87.8625921436
 20
105.4431788888
 30
0.0
 10
87.7599512227
 20
105.5794100816
 30
0.0
 10
87.6259055246
 20
105.7235125105
 30
0.0
 10
87.5449631423
 20
105.8058460526
 30
0.0
 10
87.4979810228
 20
105.8503731383
 30
0.0
 10
87.4753038291
 20
105.8722166418
 30
0.0
  0
SPLINE
  5
66C
100
AcDbEntity
  8
5_ALL_CURVES
100
AcDbSpline
 62
4
  6
CONTINUOUS
 70
0
 71
3
 72
11
 73
7
 74
0
 42
0.0000001
 43
0.0000001
 44
0.0000000001
 40
0.0
 40
0.0
 40
0.0
 40
0.0
 40
0.5
 40
0.75
 40
0.875
 40
1.0
 40
1.0
 40
1.0
 40
1.0
 10
87.4753038308
 20
105.8722166402
 30
0.0
 10
87.3909004891
 20
105.9477230405
 30
0.0
 10
87.2616255143
 20
106.0592173115
 30
0.0
 10
87.1000017523
 20
106.171769845
 30
0.0
 10
87.0033758515
 20
106.2351736587
 30
0.0
 10
86.9479277469
 20
106.2688203582
 30
0.0
 10
86.9210955889
 20
106.2854006089
 30
0.0
  0
SPLINE
  5
66D
100
AcDbEntity
  8
5_ALL_CURVES
100
AcDbSpline
 62
4
  6
CONTINUOUS
 70
0
 71
3
 72
11
 73
7
 74
0
 42
0.0000001
 43
0.0000001
 44
0.0000000001
 40
0.0
 40
0.0
 40
0.0
 40
0.0
 40
0.5
 40
0.75
 40
0.875
 40
1.0
 40
1.0
 40
1.0
 40
1.0
 10
86.9210955728
 20
106.2854006185
 30
0.0
 10
86.8225548451
 20
106.3413873296
 30
0.0
 10
86.6724805476
 20
106.4230884933
 30
0.0
 10
86.4906632394
 20
106.4989668678
 30
0.0
 10
86.3826433917
 20
106.540582349
 30
0.0
 10
86.3209169478
 20
106.5618951262
 30
0.0
 10
86.2910182908
 20
106.5724883852
 30
0.0
  0
SPLINE
  5
66E
100
AcDbEntity
  8
5_ALL_CURVES
100
AcDbSpline
 62
4
  6
CONTINUOUS
 70
0
 71
3
 72
13
 73
9
 74
0
 42
0.0000001
 43
0.0000001
 44
0.0000000001
 40
0.0
 40
0.0
 40
0.0
 40
0.0
 40
0.25
 40
0.5
 40
0.625
 40
0.75
 40
0.875
 40
1.0
 40
1.0
 40
1.0
 40
1.0
 10
86.2910182847
 20
106.5724883873
 30
0.0
 10
86.2369110887
 20
106.5894414478
 30
0.0
 10
86.128840166
 20
106.6227652096
 30
0.0
 10
85.9902294027
 20
106.6578744298
 30
0.0
 10
85.8812468482
 20
106.6797369324
 30
0.0
 10
85.7905777178
 20
106.6956738376
 30
0.0
 10
85.6988556254
 20
106.7098551317
 30
0.0
 10
85.6424158434
 20
106.716419867
 30
0.0
 10
85.6136074175
 20
106.7200634173
 30
0.0
  0
SPLINE
  5
66F
100
AcDbEntity
  8
5_ALL_CURVES
100
AcDbSpline
 62
4
  6
CONTINUOUS
 70
0
 71
3
 72
13
 73
9
 74
0
 42
0.0000001
 43
0.0000001
 44
0.0000000001
 40
0.0
 40
0.0
 40
0.0
 40
0.0
 40
0.25
 40
0.5
 40
0.625
 40
0.75
 40
0.875
 40
1.0
 40
1.0
 40
1.0
 40
1.0
 10
85.6136074251
 20
106.7200634164
 30
0.0
 10
85.5571215755
 20
106.7251958597
 30
0.0
 10
85.4444132238
 20
106.7349218704
 30
0.0
 10
85.3014840757
 20
106.739938999
 30
0.0
 10
85.1903198842
 20
106.7382713659
 30
0.0
 10
85.0983406168
 20
106.7346860669
 30
0.0
 10
85.0056114679
 20
106.7291526002
 30
0.0
 10
84.9487357665
 20
106.7236062044
 30
0.0
 10
84.9196799494
 20
106.7210651838
 30
0.0
  0
SPLINE
  5
670
100
AcDbEntity
  8
5_ALL_CURVES
100
AcDbSpline
 62
4
  6
CONTINUOUS
 70
0
 71
3
 72
13
 73
9
 74
0
 42
0.0000001
 43
0.0000001
 44
0.0000000001
 40
0.0
 40
0.0
 40
0.0
 40
0.0
 40
0.25
 40
0.5
 40
0.625
 40
0.75
 40
0.875
 40
1.0
 40
1.0
 40
1.0
 40
1.0
 10
84.9196799306
 20
106.7210651818
 30
0.0
 10
84.8633878946
 20
106.7141345376
 30
0.0
 10
84.7511752522
 20
106.6998021037
 30
0.0
 10
84.6104377591
 20
106.6744779597
 30
0.0
 10
84.5021572481
 20
106.6493365537
 30
0.0
 10
84.4130558971
 20
106.6263861221
 30
0.0
 10
84.3235550071
 20
106.6013463401
 30
0.0
 10
84.26887884
 20
106.5838059061
 30
0.0
 10
84.2409168698
 20
106.5751415948
 30
0.0
  0
SPLINE
  5
671
100
AcDbEntity
  8
5_ALL_CURVES
100
AcDbSpline
 62
4
  6
CONTINUOUS
 70
0
 71
3
 72
13
 73
9
 74
0
 42
0.0000001
 43
0.0000001
 44
0.0000000001
 40
0.0
 40
0.0
 40
0.0
 40
0.0
 40
0.25
 40
0.5
 40
0.625
 40
0.75
 40
0.875
 40
1.0
 40
1.0
 40
1.0
 40
1.0
 10
84.2409168475
 20
106.5751415875
 30
0.0
 10
84.1873876101
 20
106.5564562156
 30
0.0
 10
84.0807919357
 20
106.5187033186
 30
0.0
 10
83.9486693895
 20
106.4641747042
 30
0.0
 10
83.8482170341
 20
106.416689315
 30
0.0
 10
83.7660577459
 20
106.3754148398
 30
0.0
 10
83.6838859613
 20
106.331974342
 30
0.0
 10
83.633967982
 20
106.3031277788
 30
0.0
 10
83.608401091
 20
106.2886902761
 30
0.0
  0
SPLINE
  5
672
100
AcDbEntity
  8
5_ALL_CURVES
100
AcDbSpline
 62
4
  6
CONTINUOUS
 70
0
 71
3
 72
13
 73
9
 74
0
 42
0.0000001
 43
0.0000001
 44
0.0000000001
 40
0.0
 40
0.0
 40
0.0
 40
0.0
 40
0.25
 40
0.5
 40
0.625
 40
0.75
 40
0.875
 40
1.0
 40
1.0
 40
1.0
 40
1.0
 10
83.6084010887
 20
106.2886902747
 30
0.0
 10
83.5600821039
 20
106.2590969113
 30
0.0
 10
83.4639774157
 20
106.199634316
 30
0.0
 10
83.3465110145
 20
106.1183760947
 30
0.0
 10
83.25848277
 20
106.0507013773
 30
0.0
 10
83.1870190141
 20
105.9929828585
 30
0.0
 10
83.1159525474
 20
105.9330964788
 30
0.0
 10
83.0731510995
 20
105.8941730556
 30
0.0
 10
83.0511783509
 20
105.8745862402
 30
0.0
  0
SPLINE
  5
673
100
AcDbEntity
  8
5_ALL_CURVES
100
AcDbSpline
 62
4
  6
CONTINUOUS
 70
0
 71
3
 72
13
 73
9
 74
0
 42
0.0000001
 43
0.0000001
 44
0.0000000001
 40
0.0
 40
0.0
 40
0.0
 40
0.0
 40
0.25
 40
0.5
 40
0.625
 40
0.75
 40
0.875
 40
1.0
 40
1.0
 40
1.0
 40
1.0
 10
83.0511783421
 20
105.8745862321
 30
0.0
 10
83.0102826934
 20
105.8354326029
 30
0.0
 10
82.9290709929
 20
105.7569682303
 30
0.0
 10
82.8316412527
 20
105.65268356
 30
0.0
 10
82.76007197
 20
105.5679025593
 30
0.0
 10
82.7025741901
 20
105.496375973
 30
0.0
 10
82.6458861561
 20
105.4227562583
 30
0.0
 10
82.6122331809
 20
105.3754540188
 30
0.0
 10
82.5948893123
 20
105.3515807028
 30
0.0
  0
SPLINE
  5
674
100
AcDbEntity
  8
5_ALL_CURVES
100
AcDbSpline
 62
4
  6
CONTINUOUS
 70
0
 71
3
 72
27
 73
23
 74
0
 42
0.0000001
 43
0.0000001
 44
0.0000000001
 40
0.0
 40
0.0
 40
0.0
 40
0.0
 40
0.125
 40
0.15625
 40
0.1875
 40
0.25
 40
0.3125
 40
0.34375
 40
0.375
 40
0.4375
 40
0.46875
 40
0.5
 40
0.53125
 40
0.5625
 40
0.625
 40
0.65625
 40
0.6875
 40
0.75
 40
0.8125
 40
0.84375
 40
0.875
 40
1.0
 40
1.0
 40
1.0
 40
1.0
 10
87.9290325455
 20
101.6512951881
 30
0.0
 10
87.9752769667
 20
101.7257370586
 30
0.0
 10
88.0319722585
 20
101.8198866997
 30
0.0
 10
88.1033373126
 20
101.9295743597
 30
0.0
 10
88.1438085135
 20
102.0097222064
 30
0.0
 10
88.1915560218
 20
102.1125302478
 30
0.0
 10
88.2413955776
 20
102.2139495418
 30
0.0
 10
88.2785195024
 20
102.2963193842
 30
0.0
 10
88.3062147084
 20
102.3825030995
 30
0.0
 10
88.3369920665
 20
102.4674906815
 30
0.0
 10
88.3655945072
 20
102.5532062586
 30
0.0
 10
88.3904889381
 20
102.6165050896
 30
0.0
 10
88.402700426
 20
102.6833913304
 30
0.0
 10
88.4235824407
 20
102.771291009
 30
0.0
 10
88.4422301566
 20
102.8597077224
 30
0.0
 10
88.4641307458
 20
102.9475348132
 30
0.0
 10
88.4759989067
 20
103.0370310145
 30
0.0
 10
88.4870887813
 20
103.1495448296
 30
0.0
 10
88.5007263487
 20
103.2615396237
 30
0.0
 10
88.5085182011
 20
103.3518662586
 30
0.0
 10
88.5051735781
 20
103.4909792215
 30
0.0
 10
88.5063010801
 20
103.6059631982
 30
0.0
 10
88.5059503817
 20
103.6982522971
 30
0.0
  0
SPLINE
  5
675
100
AcDbEntity
  8
5_ALL_CURVES
100
AcDbSpline
 62
4
  6
CONTINUOUS
 70
0
 71
3
 72
14
 73
10
 74
0
 42
0.0000001
 43
0.0000001
 44
0.0000000001
 40
0.0
 40
0.0
 40
0.0
 40
0.0
 40
0.125
 40
0.25
 40
0.375
 40
0.5
 40
0.625
 40
0.75
 40
1.0
 40
1.0
 40
1.0
 40
1.0
 10
88.5059503846
 20
103.6982522484
 30
0.0
 10
88.5047381414
 20
103.7151610744
 30
0.0
 10
88.5026451168
 20
103.7474283324
 30
0.0
 10
88.4975168087
 20
103.8051315835
 30
0.0
 10
88.4915380878
 20
103.8636481517
 30
0.0
 10
88.4841501576
 20
103.9259875289
 30
0.0
 10
88.4774613263
 20
103.9716076451
 30
0.0
 10
88.4655465667
 20
104.0479827155
 30
0.0
 10
88.4538519871
 20
104.1094970364
 30
0.0
 10
88.4459599539
 20
104.1506100794
 30
0.0
  0
SPLINE
  5
676
100
AcDbEntity
  8
5_ALL_CURVES
100
AcDbSpline
 62
4
  6
CONTINUOUS
 70
0
 71
3
 72
14
 73
10
 74
0
 42
0.0000001
 43
0.0000001
 44
0.0000000001
 40
0.0
 40
0.0
 40
0.0
 40
0.0
 40
0.125
 40
0.25
 40
0.375
 40
0.5
 40
0.625
 40
0.75
 40
1.0
 40
1.0
 40
1.0
 40
1.0
 10
88.4459599502
 20
104.1506100973
 30
0.0
 10
88.4404499522
 20
104.1754378282
 30
0.0
 10
88.4302158507
 20
104.2236619899
 30
0.0
 10
88.4101493317
 20
104.3045860341
 30
0.0
 10
88.3882636415
 20
104.3859447166
 30
0.0
 10
88.3634814256
 20
104.4706550815
 30
0.0
 10
88.3406502844
 20
104.5383882096
 30
0.0
 10
88.3034503679
 20
104.6437000138
 30
0.0
 10
88.2710531039
 20
104.7233822362
 30
0.0
 10
88.2494100316
 20
104.7762744136
 30
0.0
  0
SPLINE
  5
677
100
AcDbEntity
  8
5_ALL_CURVES
100
AcDbSpline
 62
4
  6
CONTINUOUS
 70
0
 71
3
 72
14
 73
10
 74
0
 42
0.0000001
 43
0.0000001
 44
0.0000000001
 40
0.0
 40
0.0
 40
0.0
 40
0.0
 40
0.125
 40
0.25
 40
0.375
 40
0.5
 40
0.625
 40
0.75
 40
1.0
 40
1.0
 40
1.0
 40
1.0
 10
88.2494100364
 20
104.7762744022
 30
0.0
 10
88.2389923697
 20
104.7994873791
 30
0.0
 10
88.2192160979
 20
104.8446693154
 30
0.0
 10
88.1831973204
 20
104.9199063245
 30
0.0
 10
88.145305483
 20
104.9952086982
 30
0.0
 10
88.103910955
 20
105.0731952554
 30
0.0
 10
88.0678150038
 20
105.1350094758
 30
0.0
 10
88.0102607167
 20
105.2304406333
 30
0.0
 10
87.9615957342
 20
105.3031598074
 30
0.0
 10
87.9290325469
 20
105.3515806819
 30
0.0
  0
SPLINE
  5
678
100
AcDbEntity
  8
5_ALL_CURVES
100
AcDbSpline
 62
4
  6
CONTINUOUS
 70
0
 71
3
 72
65
 73
61
 74
0
 42
0.0000001
 43
0.0000001
 44
0.0000000001
 40
0.0
 40
0.0
 40
0.0
 40
0.0
 40
0.0625
 40
0.078125
 40
0.09375
 40
0.1015625
 40
0.109375
 40
0.125
 40
0.140625
 40
0.15625
 40
0.171875
 40
0.1875
 40
0.203125
 40
0.2109375
 40
0.21875
 40
0.234375
 40
0.25
 40
0.28125
 40
0.3125
 40
0.3203125
 40
0.328125
 40
0.3359375
 40
0.34375
 40
0.359375
 40
0.375
 40
0.390625
 40
0.40625
 40
0.421875
 40
0.4375
 40
0.46875
 40
0.5
 40
0.53125
 40
0.5625
 40
0.578125
 40
0.59375
 40
0.609375
 40
0.625
 40
0.640625
 40
0.65625
 40
0.6640625
 40
0.671875
 40
0.6796875
 40
0.6875
 40
0.71875
 40
0.75
 40
0.765625
 40
0.78125
 40
0.7890625
 40
0.796875
 40
0.8125
 40
0.828125
 40
0.84375
 40
0.859375
 40
0.875
 40
0.890625
 40
0.8984375
 40
0.90625
 40
0.921875
 40
0.9375
 40
1.0
 40
1.0
 40
1.0
 40
1.0
 10
82.5948892991
 20
101.6512951881
 30
0.0
 10
82.6797720399
 20
101.5538533487
 30
0.0
 10
82.7858038838
 20
101.4319744409
 30
0.0
 10
82.9132568429
 20
101.285949577
 30
0.0
 10
82.966075914
 20
101.2247994497
 30
0.0
 10
83.0089968847
 20
101.1765918069
 30
0.0
 10
83.049484063
 20
101.1257794752
 30
0.0
 10
83.1175143362
 20
101.0809086537
 30
0.0
 10
83.1941932463
 20
101.0217574774
 30
0.0
 10
83.2722045135
 20
100.9640348174
 30
0.0
 10
83.3498437704
 20
100.9059042828
 30
0.0
 10
83.4276387111
 20
100.8479767301
 30
0.0
 10
83.4922588907
 20
100.7993670586
 30
0.0
 10
83.544378643
 20
100.7611859367
 30
0.0
 10
83.5949711111
 20
100.7204477223
 30
0.0
 10
83.669136817
 20
100.6878198786
 30
0.0
 10
83.7866072612
 20
100.6336117381
 30
0.0
 10
83.9338861442
 20
100.5666111553
 30
0.0
 10
84.0661941803
 20
100.5058301359
 30
0.0
 10
84.1545840547
 20
100.4657304847
 30
0.0
 10
84.198490944
 20
100.4449987673
 30
0.0
 10
84.2435131219
 20
100.4269104115
 30
0.0
 10
84.3088488069
 20
100.4153685179
 30
0.0
 10
84.3886977953
 20
100.3966308436
 30
0.0
 10
84.4852963752
 20
100.3759712387
 30
0.0
 10
84.5816887687
 20
100.3549057084
 30
0.0
 10
84.6781261139
 20
100.3336382754
 30
0.0
 10
84.7745898387
 20
100.3135843785
 30
0.0
 10
84.9030075114
 20
100.2806428607
 30
0.0
 10
85.0649683567
 20
100.2829545372
 30
0.0
 10
85.2592283233
 20
100.2818152376
 30
0.0
 10
85.4534190547
 20
100.2826124254
 30
0.0
 10
85.6155529883
 20
100.2800828833
 30
0.0
 10
85.7416531635
 20
100.3120231357
 30
0.0
 10
85.8367085759
 20
100.3314369717
 30
0.0
 10
85.9316463502
 20
100.3520342778
 30
0.0
 10
86.026574396
 20
100.372439057
 30
0.0
 10
86.1216589938
 20
100.392430474
 30
0.0
 10
86.2003824256
 20
100.410628301
 30
0.0
 10
86.2645158545
 20
100.4217012928
 30
0.0
 10
86.3094601155
 20
100.4395388585
 30
0.0
 10
86.3535198969
 20
100.4600480814
 30
0.0
 10
86.4420965371
 20
100.4996879356
 30
0.0
 10
86.5747389345
 20
100.5597891625
 30
0.0
 10
86.722346749
 20
100.6260150872
 30
0.0
 10
86.8401247057
 20
100.6796393373
 30
0.0
 10
86.9143929796
 20
100.711822326
 30
0.0
 10
86.9661139616
 20
100.7531429428
 30
0.0
 10
87.0191795041
 20
100.7917425962
 30
0.0
 10
87.0850442743
 20
100.8409316063
 30
0.0
 10
87.1643075163
 20
100.8995305352
 30
0.0
 10
87.24341614
 20
100.9583378879
 30
0.0
 10
87.3229177193
 20
101.0167394284
 30
0.0
 10
87.4010020942
 20
101.0765557941
 30
0.0
 10
87.4704689584
 20
101.1220248584
 30
0.0
 10
87.5112095749
 20
101.1731672512
 30
0.0
 10
87.5545404212
 20
101.2217308932
 30
0.0
 10
87.607818349
 20
101.2833171508
 30
0.0
 10
87.7364167349
 20
101.4303960514
 30
0.0
 10
87.8433915983
 20
101.5531514158
 30
0.0
 10
87.9290324356
 20
101.6512950309
 30
0.0
  0
SPLINE
  5
679
100
AcDbEntity
  8
5_ALL_CURVES
100
AcDbSpline
 62
4
  6
CONTINUOUS
 70
0
 71
3
 72
14
 73
10
 74
0
 42
0.0000001
 43
0.0000001
 44
0.0000000001
 40
0.0
 40
0.0
 40
0.0
 40
0.0
 40
0.125
 40
0.25
 40
0.375
 40
0.5
 40
0.625
 40
0.75
 40
1.0
 40
1.0
 40
1.0
 40
1.0
 10
82.5948892991
 20
105.3515806838
 30
0.0
 10
82.5806342149
 20
105.3304884614
 30
0.0
 10
82.5526232206
 20
105.2898582979
 30
0.0
 10
82.5076116844
 20
105.2195873642
 30
0.0
 10
82.4635421002
 20
105.1477130131
 30
0.0
 10
82.4273070151
 20
105.0862093816
 30
0.0
 10
82.3855472109
 20
105.008332339
 30
0.0
 10
82.3344033986
 20
104.9083976438
 30
0.0
 10
82.2997615394
 20
104.8323227476
 30
0.0
 10
82.2770087904
 20
104.7820657956
 30
0.0
  0
SPLINE
  5
67A
100
AcDbEntity
  8
5_ALL_CURVES
100
AcDbSpline
 62
4
  6
CONTINUOUS
 70
0
 71
3
 72
14
 73
10
 74
0
 42
0.0000001
 43
0.0000001
 44
0.0000000001
 40
0.0
 40
0.0
 40
0.0
 40
0.0
 40
0.125
 40
0.25
 40
0.375
 40
0.5
 40
0.625
 40
0.75
 40
1.0
 40
1.0
 40
1.0
 40
1.0
 10
82.2770087923
 20
104.7820657999
 30
0.0
 10
82.2672822287
 20
104.7585571146
 30
0.0
 10
82.2480056422
 20
104.7131616722
 30
0.0
 10
82.218031518
 20
104.6353369397
 30
0.0
 10
82.1893006073
 20
104.5561197265
 30
0.0
 10
82.1610227777
 20
104.4725024452
 30
0.0
 10
82.1408869329
 20
104.4039277685
 30
0.0
 10
82.1109739972
 20
104.2963284227
 30
0.0
 10
82.0918368165
 20
104.2125346819
 30
0.0
 10
82.0792481834
 20
104.1568398879
 30
0.0
  0
SPLINE
  5
67B
100
AcDbEntity
  8
5_ALL_CURVES
100
AcDbSpline
 62
4
  6
CONTINUOUS
 70
0
 71
3
 72
11
 73
7
 74
0
 42
0.0000001
 43
0.0000001
 44
0.0000000001
 40
0.0
 40
0.0
 40
0.0
 40
0.0
 40
0.125
 40
0.25
 40
0.5
 40
1.0
 40
1.0
 40
1.0
 40
1.0
 10
82.0792481818
 20
104.1568398803
 30
0.0
 10
82.0759781541
 20
104.1402039279
 30
0.0
 10
82.0695170985
 20
104.1084925432
 30
0.0
 10
82.0559629871
 20
104.0325856129
 30
0.0
 10
82.0337662652
 20
103.8945888752
 30
0.0
 10
82.02373833
 20
103.7768176543
 30
0.0
 10
82.0179714603
 20
103.6982522537
 30
0.0
  0
SPLINE
  5
67C
100
AcDbEntity
  8
5_ALL_CURVES
100
AcDbSpline
 62
4
  6
CONTINUOUS
 70
0
 71
3
 72
27
 73
23
 74
0
 42
0.0000001
 43
0.0000001
 44
0.0000000001
 40
0.0
 40
0.0
 40
0.0
 40
0.0
 40
0.125
 40
0.15625
 40
0.1875
 40
0.25
 40
0.3125
 40
0.34375
 40
0.375
 40
0.4375
 40
0.46875
 40
0.5
 40
0.53125
 40
0.5625
 40
0.625
 40
0.65625
 40
0.6875
 40
0.75
 40
0.8125
 40
0.84375
 40
0.875
 40
1.0
 40
1.0
 40
1.0
 40
1.0
 10
82.01797146
 20
103.6982522484
 30
0.0
 10
82.0173807596
 20
103.6107105577
 30
0.0
 10
82.0181637016
 20
103.5009221883
 30
0.0
 10
82.0145392797
 20
103.3702599129
 30
0.0
 10
82.0218594298
 20
103.2808396912
 30
0.0
 10
82.0348064734
 20
103.1682979325
 30
0.0
 10
82.0452415928
 20
103.0558571866
 30
0.0
 10
82.0565808215
 20
102.9662753444
 30
0.0
 10
82.0779635637
 20
102.878326028
 30
0.0
 10
82.0960896128
 20
102.7897998649
 30
0.0
 10
82.1164531059
 20
102.7017798477
 30
0.0
 10
82.128270087
 20
102.6348232437
 30
0.0
 10
82.1527909008
 20
102.5713799311
 30
0.0
 10
82.1808877214
 20
102.4854982394
 30
0.0
 10
82.2111624634
 20
102.4003336143
 30
0.0
 10
82.2383516394
 20
102.3139857454
 30
0.0
 10
82.2749791844
 20
102.2314147633
 30
0.0
 10
82.3242978506
 20
102.1295935713
 30
0.0
 10
82.3711699637
 20
102.0268945057
 30
0.0
 10
82.4117119938
 20
101.9457281213
 30
0.0
 10
82.4872535766
 20
101.8286796923
 30
0.0
 10
82.546369339
 20
101.7299150776
 30
0.0
 10
82.594889327
 20
101.6512951481
 30
0.0
  0
SPLINE
  5
67D
100
AcDbEntity
  8
5_ALL_CURVES
100
AcDbSpline
 62
4
  6
CONTINUOUS
 70
0
 71
3
 72
37
 73
33
 74
0
 42
0.0000001
 43
0.0000001
 44
0.0000000001
 40
0.0
 40
0.0
 40
0.0
 40
0.0
 40
0.0625
 40
0.09375
 40
0.125
 40
0.15625
 40
0.1875
 40
0.21875
 40
0.25
 40
0.28125
 40
0.3125
 40
0.34375
 40
0.375
 40
0.40625
 40
0.4375
 40
0.46875
 40
0.5
 40
0.53125
 40
0.5625
 40
0.59375
 40
0.625
 40
0.65625
 40
0.6875
 40
0.71875
 40
0.75
 40
0.78125
 40
0.8125
 40
0.84375
 40
0.875
 40
0.90625
 40
0.9375
 40
1.0
 40
1.0
 40
1.0
 40
1.0
 10
85.8364942546
 20
124.2380044523
 30
0.0
 10
85.8170068447
 20
124.2564082975
 30
0.0
 10
85.7880464045
 20
124.284314236
 30
0.0
 10
85.7483497857
 20
124.3203214713
 30
0.0
 10
85.7212840678
 20
124.3503286047
 30
0.0
 10
85.6839327144
 20
124.3689292516
 30
0.0
 10
85.649436081
 20
124.3908412265
 30
0.0
 10
85.6138062031
 20
124.4109143758
 30
0.0
 10
85.5798545833
 20
124.4350314996
 30
0.0
 10
85.5403231756
 20
124.4448115513
 30
0.0
 10
85.5023660283
 20
124.4586946112
 30
0.0
 10
85.4636916272
 20
124.4705027102
 30
0.0
 10
85.4263119808
 20
124.4865076446
 30
0.0
 10
85.3844705698
 20
124.4878001983
 30
0.0
 10
85.3438047136
 20
124.4933070786
 30
0.0
 10
85.3028984026
 20
124.4966690333
 30
0.0
 10
85.2617783564
 20
124.5043963639
 30
0.0
 10
85.2217537057
 20
124.4968071162
 30
0.0
 10
85.1813951115
 20
124.4935917899
 30
0.0
 10
85.1412768959
 20
124.4881973565
 30
0.0
 10
85.1005311096
 20
124.4871454304
 30
0.0
 10
85.0620552275
 20
124.4709025819
 30
0.0
 10
85.0228362408
 20
124.4589684681
 30
0.0
 10
84.9843197682
 20
124.4449903381
 30
0.0
 10
84.9437363437
 20
124.4348795383
 30
0.0
 10
84.9107182131
 20
124.4113434342
 30
0.0
 10
84.8755218848
 20
124.3916312353
 30
0.0
 10
84.8414730531
 20
124.3700487199
 30
0.0
 10
84.8050124329
 20
124.3521235652
 30
0.0
 10
84.7770514703
 20
124.3214392841
 30
0.0
 10
84.7367878508
 20
124.2850037958
 30
0.0
 10
84.7072611618
 20
124.2566698801
 30
0.0
 10
84.6874275857
 20
124.2380044473
 30
0.0
  0
SPLINE
  5
67E
100
AcDbEntity
  8
0
100
AcDbSpline
 62
7
  6
CONTINUOUS
 70
0
 71
3
 72
10
 73
6
 74
0
 42
0.0000001
 43
0.0000001
 44
0.0000000001
 40
0.0
 40
0.0
 40
0.0
 40
0.0
 40
0.1053214426
 40
0.307264908
 40
1.0
 40
1.0
 40
1.0
 40
1.0
 10
82.3819609223
 20
155.981780393
 30
0.0
 10
82.3819609223
 20
155.9279213906
 30
0.0
 10
82.5235546245
 20
155.805198272
 30
0.0
 10
82.9927648289
 20
155.6564534368
 30
0.0
 10
83.4593016442
 20
155.5853748295
 30
0.0
 10
83.8117501728
 20
155.5497037759
 30
0.0
  0
LINE
  5
67F
100
AcDbEntity
  8
0
100
AcDbLine
 62
7
  6
CONTINUOUS
 10
83.8117501728
 20
155.5497037759
 11
83.8263621506
 21
155.5482349086
  0
SPLINE
  5
680
100
AcDbEntity
  8
0
100
AcDbSpline
 62
7
  6
CONTINUOUS
 70
0
 71
3
 72
9
 73
5
 74
0
 42
0.0000001
 43
0.0000001
 44
0.0000000001
 40
0.0
 40
0.0
 40
0.0
 40
0.0
 40
0.2416635093
 40
1.0
 40
1.0
 40
1.0
 40
1.0
 10
83.8263621506
 20
155.5482349086
 30
0.0
 10
84.0566934649
 20
155.5252379994
 30
0.0
 10
85.0124365016
 20
155.460396022
 30
0.0
 10
85.9747834623
 20
155.4760709501
 30
0.0
 10
86.697559694
 20
155.5482349086
 30
0.0
  0
LINE
  5
681
100
AcDbEntity
  8
0
100
AcDbLine
 62
7
  6
CONTINUOUS
 10
86.697559694
 20
155.5482349086
 11
86.7121716718
 21
155.5497037759
  0
SPLINE
  5
682
100
AcDbEntity
  8
0
100
AcDbSpline
 62
7
  6
CONTINUOUS
 70
0
 71
3
 72
10
 73
6
 74
0
 42
0.0000001
 43
0.0000001
 44
0.0000000001
 40
0.0
 40
0.0
 40
0.0
 40
0.0
 40
0.692735092
 40
0.8946785574
 40
1.0
 40
1.0
 40
1.0
 40
1.0
 10
86.7121716718
 20
155.5497037759
 30
0.0
 10
87.0646202005
 20
155.5853748295
 30
0.0
 10
87.5311570157
 20
155.6564534368
 30
0.0
 10
88.0003672201
 20
155.805198272
 30
0.0
 10
88.1419609223
 20
155.9279213906
 30
0.0
 10
88.1419609223
 20
155.981780393
 30
0.0
  0
LINE
  5
683
100
AcDbEntity
  8
7_ALL_ROUNDS
100
AcDbLine
 62
7
  6
CONTINUOUS
 10
88.8467330532
 20
163.4968958463
 11
88.8520723469
 21
163.493230786
  0
LINE
  5
684
100
AcDbEntity
  8
7_ALL_ROUNDS
100
AcDbLine
 62
7
  6
CONTINUOUS
 10
88.8467330532
 20
163.452272106
 11
88.8520723469
 21
163.4486070457
  0
LINE
  5
685
100
AcDbEntity
  8
7_ALL_ROUNDS
100
AcDbLine
 62
7
  6
CONTINUOUS
 10
88.8467330532
 20
163.4076483657
 11
88.8520723469
 21
163.4039833054
  0
LINE
  5
686
100
AcDbEntity
  8
7_ALL_ROUNDS
100
AcDbLine
 62
7
  6
CONTINUOUS
 10
88.8467330532
 20
163.3630246254
 11
88.8520723469
 21
163.3593595651
  0
SPLINE
  5
687
100
AcDbEntity
  8
0
100
AcDbSpline
 62
7
  6
CONTINUOUS
 70
0
 71
3
 72
9
 73
5
 74
0
 42
0.0000001
 43
0.0000001
 44
0.0000000001
 40
0.0
 40
0.0
 40
0.0
 40
0.0
 40
0.4362451541
 40
1.0
 40
1.0
 40
1.0
 40
1.0
 10
81.8319565124
 20
157.3859023593
 30
0.0
 10
81.831958996
 20
157.3865929979
 30
0.0
 10
81.832526836
 20
157.3881705417
 30
0.0
 10
81.8336856276
 20
157.3892906764
 30
0.0
 10
81.8343762597
 20
157.3898560102
 30
0.0
  0
SPLINE
  5
688
100
AcDbEntity
  8
0
100
AcDbSpline
 62
7
  6
CONTINUOUS
 70
0
 71
3
 72
9
 73
5
 74
0
 42
0.0000001
 43
0.0000001
 44
0.0000000001
 40
0.0
 40
0.0
 40
0.0
 40
0.0
 40
0.3835795756
 40
1.0
 40
1.0
 40
1.0
 40
1.0
 10
81.8343762597
 20
157.3898560102
 30
0.0
 10
81.8370682886
 20
157.392059636
 30
0.0
 10
81.8456679197
 20
157.3955788649
 30
0.0
 10
81.8543648733
 20
157.3979167294
 30
0.0
 10
81.8598130717
 20
157.3991710399
 30
0.0
  0
SPLINE
  5
689
100
AcDbEntity
  8
0
100
AcDbSpline
 62
7
  6
CONTINUOUS
 70
0
 71
3
 72
8
 73
4
 74
0
 42
0.0000001
 43
0.0000001
 44
0.0000000001
 40
0.0
 40
0.0
 40
0.0
 40
0.0
 40
1.0
 40
1.0
 40
1.0
 40
1.0
 10
81.8598130717
 20
157.3991710399
 30
0.0
 10
81.893679659
 20
157.406967969
 30
0.0
 10
81.9285385892
 20
157.4099416994
 30
0.0
 10
81.9631689025
 20
157.4128536138
 30
0.0
  0
SPLINE
  5
68A
100
AcDbEntity
  8
0
100
AcDbSpline
 62
7
  6
CONTINUOUS
 70
0
 71
3
 72
8
 73
4
 74
0
 42
0.0000001
 43
0.0000001
 44
0.0000000001
 40
0.0
 40
0.0
 40
0.0
 40
0.0
 40
1.0
 40
1.0
 40
1.0
 40
1.0
 10
81.9631689025
 20
157.4128536138
 30
0.0
 10
82.0165378074
 20
157.4173411759
 30
0.0
 10
82.0700801085
 20
157.4198012504
 30
0.0
 10
82.1236138788
 20
157.4213867047
 30
0.0
  0
SPLINE
  5
68B
100
AcDbEntity
  8
0
100
AcDbSpline
 62
7
  6
CONTINUOUS
 70
0
 71
3
 72
9
 73
5
 74
0
 42
0.0000001
 43
0.0000001
 44
0.0000000001
 40
0.0
 40
0.0
 40
0.0
 40
0.0
 40
0.4362451541
 40
1.0
 40
1.0
 40
1.0
 40
1.0
 10
88.6919653322
 20
157.3859023593
 30
0.0
 10
88.6919628486
 20
157.3865929979
 30
0.0
 10
88.6913950086
 20
157.3881705417
 30
0.0
 10
88.690236217
 20
157.3892906764
 30
0.0
 10
88.6895455849
 20
157.3898560102
 30
0.0
  0
SPLINE
  5
68C
100
AcDbEntity
  8
0
100
AcDbSpline
 62
7
  6
CONTINUOUS
 70
0
 71
3
 72
9
 73
5
 74
0
 42
0.0000001
 43
0.0000001
 44
0.0000000001
 40
0.0
 40
0.0
 40
0.0
 40
0.0
 40
0.3835795756
 40
1.0
 40
1.0
 40
1.0
 40
1.0
 10
88.6895455849
 20
157.3898560102
 30
0.0
 10
88.686853556
 20
157.392059636
 30
0.0
 10
88.6782539249
 20
157.3955788649
 30
0.0
 10
88.6695569713
 20
157.3979167294
 30
0.0
 10
88.6641087729
 20
157.3991710399
 30
0.0
  0
SPLINE
  5
68D
100
AcDbEntity
  8
0
100
AcDbSpline
 62
7
  6
CONTINUOUS
 70
0
 71
3
 72
9
 73
5
 74
0
 42
0.0000001
 43
0.0000001
 44
0.0000000001
 40
0.0
 40
0.0
 40
0.0
 40
0.0
 40
0.4423518517
 40
1.0
 40
1.0
 40
1.0
 40
1.0
 10
88.6641087729
 20
157.3991710399
 30
0.0
 10
88.6566621953
 20
157.4008854269
 30
0.0
 10
88.6396579419
 20
157.404008159
 30
0.0
 10
88.6225431799
 20
157.4063674317
 30
0.0
 10
88.6129825157
 20
157.4075461794
 30
0.0
  0
SPLINE
  5
68E
100
AcDbEntity
  8
0
100
AcDbSpline
 62
7
  6
CONTINUOUS
 70
0
 71
3
 72
12
 73
8
 74
0
 42
0.0000001
 43
0.0000001
 44
0.0000000001
 40
0.0
 40
0.0
 40
0.0
 40
0.0
 40
0.0272058153
 40
0.0818555683
 40
0.2828503436
 40
0.5964543233
 40
1.0
 40
1.0
 40
1.0
 40
1.0
 10
91.7619609223
 20
156.2584059978
 30
0.0
 10
91.7619609223
 20
156.2250885571
 30
0.0
 10
91.6678085423
 20
156.1498734158
 30
0.0
 10
91.3523784
 20
156.0504069317
 30
0.0
 10
90.6483571271
 20
155.9283058651
 30
0.0
 10
89.537276538
 20
155.8238952016
 30
0.0
 10
88.6576415895
 20
155.7729556829
 30
0.0
 10
88.1639082123
 20
155.7514890029
 30
0.0
  0
SPLINE
  5
68F
100
AcDbEntity
  8
0
100
AcDbSpline
 62
7
  6
CONTINUOUS
 70
0
 71
3
 72
12
 73
8
 74
0
 42
0.0000001
 43
0.0000001
 44
0.0000000001
 40
0.0
 40
0.0
 40
0.0
 40
0.0
 40
0.4035456767
 40
0.7171496564
 40
0.9181444317
 40
0.9727941847
 40
1.0
 40
1.0
 40
1.0
 40
1.0
 10
82.3600136323
 20
155.7514890029
 30
0.0
 10
81.8662802551
 20
155.7729556829
 30
0.0
 10
80.9866453066
 20
155.8238952016
 30
0.0
 10
79.8755647175
 20
155.9283058651
 30
0.0
 10
79.1715434446
 20
156.0504069317
 30
0.0
 10
78.8561133023
 20
156.1498734158
 30
0.0
 10
78.7619609223
 20
156.2250885571
 30
0.0
 10
78.7619609223
 20
156.2584059978
 30
0.0
  0
SPLINE
  5
690
100
AcDbEntity
  8
0
100
AcDbSpline
 62
7
  6
CONTINUOUS
 70
0
 71
3
 72
10
 73
6
 74
0
 42
0.0000001
 43
0.0000001
 44
0.0000000001
 40
0.0
 40
0.0
 40
0.0
 40
0.0
 40
0.7086605652
 40
0.901892116
 40
1.0
 40
1.0
 40
1.0
 40
1.0
 10
90.8683193686
 20
156.9186473426
 30
0.0
 10
91.092658493
 20
156.885314288
 30
0.0
 10
91.3857068451
 20
156.8316799908
 30
0.0
 10
91.6771819752
 20
156.7353755412
 30
0.0
 10
91.7619609223
 20
156.6633777678
 30
0.0
 10
91.7619609223
 20
156.6319790096
 30
0.0
  0
SPLINE
  5
691
100
AcDbEntity
  8
0
100
AcDbSpline
 62
7
  6
CONTINUOUS
 70
0
 71
3
 72
10
 73
6
 74
0
 42
0.0000001
 43
0.0000001
 44
0.0000000001
 40
0.0
 40
0.0
 40
0.0
 40
0.0
 40
0.098107884
 40
0.2913394348
 40
1.0
 40
1.0
 40
1.0
 40
1.0
 10
78.7619609223
 20
156.6319790096
 30
0.0
 10
78.7619609223
 20
156.6633777678
 30
0.0
 10
78.8467398694
 20
156.7353755412
 30
0.0
 10
79.1382149995
 20
156.8316799908
 30
0.0
 10
79.4312633516
 20
156.885314288
 30
0.0
 10
79.655602476
 20
156.9186473426
 30
0.0
  0
SPLINE
  5
692
100
AcDbEntity
  8
7_ALL_ROUNDS
100
AcDbSpline
 62
7
  6
CONTINUOUS
 70
0
 71
3
 72
8
 73
4
 74
0
 42
0.0000001
 43
0.0000001
 44
0.0000000001
 40
0.0
 40
0.0
 40
0.0
 40
0.0
 40
1.0
 40
1.0
 40
1.0
 40
1.0
 10
89.8359523735
 20
162.6293999022
 30
0.0
 10
90.2262683735
 20
162.2082823811
 30
0.0
 10
90.4775589206
 20
161.6166309616
 30
0.0
 10
90.5077241443
 20
161.0432405138
 30
0.0
  0
SPLINE
  5
693
100
AcDbEntity
  8
7_ALL_ROUNDS
100
AcDbSpline
 62
7
  6
CONTINUOUS
 70
0
 71
3
 72
8
 73
4
 74
0
 42
0.0000001
 43
0.0000001
 44
0.0000000001
 40
0.0
 40
0.0
 40
0.0
 40
0.0
 40
1.0
 40
1.0
 40
1.0
 40
1.0
 10
88.2556077445
 20
163.461339782
 30
0.0
 10
88.3820391997
 20
163.4365389674
 30
0.0
 10
88.5076607596
 20
163.4064569036
 30
0.0
 10
88.6309467887
 20
163.3690330033
 30
0.0
  0
SPLINE
  5
694
100
AcDbEntity
  8
7_ALL_ROUNDS
100
AcDbSpline
 62
7
  6
CONTINUOUS
 70
0
 71
3
 72
9
 73
5
 74
0
 42
0.0000001
 43
0.0000001
 44
0.0000000001
 40
0.0
 40
0.0
 40
0.0
 40
0.0
 40
0.5308377943
 40
1.0
 40
1.0
 40
1.0
 40
1.0
 10
80.0161977003
 20
161.0432405138
 30
0.0
 10
80.0487953175
 20
161.6628666943
 30
0.0
 10
80.5896798261
 20
162.8582242849
 30
0.0
 10
81.7301778076
 20
163.3557788803
 30
0.0
 10
82.2683141001
 20
163.461339782
 30
0.0
  0
SPLINE
  5
695
100
AcDbEntity
  8
0
100
AcDbSpline
 62
7
  6
CONTINUOUS
 70
0
 71
3
 72
9
 73
5
 74
0
 42
0.0000001
 43
0.0000001
 44
0.0000000001
 40
0.0
 40
0.0
 40
0.0
 40
0.0
 40
0.1547796092
 40
1.0
 40
1.0
 40
1.0
 40
1.0
 10
79.5119609221
 20
157.7626050835
 30
0.0
 10
79.5119609221
 20
157.7524882696
 30
0.0
 10
79.5392865572
 20
157.6888089878
 30
0.0
 10
79.6117176545
 20
157.6675829286
 30
0.0
 10
79.6634937141
 20
157.648312533
 30
0.0
  0
SPLINE
  5
696
100
AcDbEntity
  8
0
100
AcDbSpline
 62
7
  6
CONTINUOUS
 70
0
 71
3
 72
9
 73
5
 74
0
 42
0.0000001
 43
0.0000001
 44
0.0000000001
 40
0.0
 40
0.0
 40
0.0
 40
0.0
 40
0.1703965221
 40
1.0
 40
1.0
 40
1.0
 40
1.0
 10
79.6634937141
 20
157.648312533
 30
0.0
 10
79.7161149413
 20
157.6287275766
 30
0.0
 10
80.0339371837
 20
157.5391074261
 30
0.0
 10
80.3622740757
 20
157.4973397976
 30
0.0
 10
80.6337461729
 20
157.465231521
 30
0.0
  0
SPLINE
  5
697
100
AcDbEntity
  8
0
100
AcDbSpline
 62
7
  6
CONTINUOUS
 70
0
 71
3
 72
9
 73
5
 74
0
 42
0.0000001
 43
0.0000001
 44
0.0000000001
 40
0.0
 40
0.0
 40
0.0
 40
0.0
 40
0.3206774424
 40
1.0
 40
1.0
 40
1.0
 40
1.0
 10
91.0119609225
 20
158.1143147593
 30
0.0
 10
91.0119609225
 20
158.1494496652
 30
0.0
 10
90.899137981
 20
158.2248062714
 30
0.0
 10
90.8034010385
 20
158.2495954299
 30
0.0
 10
90.7315215228
 20
158.2689117268
 30
0.0
  0
SPLINE
  5
698
100
AcDbEntity
  8
0
100
AcDbSpline
 62
7
  6
CONTINUOUS
 70
0
 71
3
 72
9
 73
5
 74
0
 42
0.0000001
 43
0.0000001
 44
0.0000000001
 40
0.0
 40
0.0
 40
0.0
 40
0.0
 40
0.2751048528
 40
1.0
 40
1.0
 40
1.0
 40
1.0
 10
89.8278199878
 20
157.7599513654
 30
0.0
 10
89.8279161729
 20
157.775221687
 30
0.0
 10
89.7447488636
 20
157.7783405347
 30
0.0
 10
89.7057820604
 20
157.7888719487
 30
0.0
 10
89.6656720889
 20
157.792076181
 30
0.0
  0
SPLINE
  5
699
100
AcDbEntity
  8
0
100
AcDbSpline
 62
7
  6
CONTINUOUS
 70
0
 71
3
 72
9
 73
5
 74
0
 42
0.0000001
 43
0.0000001
 44
0.0000000001
 40
0.0
 40
0.0
 40
0.0
 40
0.0
 40
0.2994749727
 40
1.0
 40
1.0
 40
1.0
 40
1.0
 10
89.8758459075
 20
157.408241697
 30
0.0
 10
89.8758817979
 20
157.4132216841
 30
0.0
 10
89.8558808394
 20
157.4219330377
 30
0.0
 10
89.8421980286
 20
157.4249155033
 30
0.0
 10
89.8307775969
 20
157.4272136926
 30
0.0
  0
SPLINE
  5
69A
100
AcDbEntity
  8
0
100
AcDbSpline
 62
7
  6
CONTINUOUS
 70
0
 71
3
 72
9
 73
5
 74
0
 42
0.0000001
 43
0.0000001
 44
0.0000000001
 40
0.0
 40
0.0
 40
0.0
 40
0.0
 40
0.3295813918
 40
1.0
 40
1.0
 40
1.0
 40
1.0
 10
82.847225835
 20
157.8942217815
 30
0.0
 10
82.847225835
 20
157.9493391254
 30
0.0
 10
83.0156518592
 20
158.0681405681
 30
0.0
 10
83.1640760591
 20
158.1045119677
 30
0.0
 10
83.2727847172
 20
158.1319466225
 30
0.0
  0
SPLINE
  5
69B
100
AcDbEntity
  8
0
100
AcDbSpline
 62
7
  6
CONTINUOUS
 70
0
 71
3
 72
9
 73
5
 74
0
 42
0.0000001
 43
0.0000001
 44
0.0000000001
 40
0.0
 40
0.0
 40
0.0
 40
0.0
 40
0.3295813918
 40
1.0
 40
1.0
 40
1.0
 40
1.0
 10
87.6766960097
 20
157.8942217815
 30
0.0
 10
87.6766960097
 20
157.9493391254
 30
0.0
 10
87.5082699854
 20
158.0681405681
 30
0.0
 10
87.3598457855
 20
158.1045119677
 30
0.0
 10
87.2511371274
 20
158.1319466225
 30
0.0
  0
SPLINE
  5
69C
100
AcDbEntity
  8
0
100
AcDbSpline
 62
7
  6
CONTINUOUS
 70
0
 71
3
 72
9
 73
5
 74
0
 42
0.0000001
 43
0.0000001
 44
0.0000000001
 40
0.0
 40
0.0
 40
0.0
 40
0.0
 40
0.3461165672
 40
1.0
 40
1.0
 40
1.0
 40
1.0
 10
88.1419609223
 20
157.5730524565
 30
0.0
 10
88.1419609223
 20
157.624511277
 30
0.0
 10
88.0112025164
 20
157.743760046
 30
0.0
 10
87.8764805043
 20
157.7854144331
 30
0.0
 10
87.7837502598
 20
157.8146043895
 30
0.0
  0
SPLINE
  5
69D
100
AcDbEntity
  8
0
100
AcDbSpline
 62
7
  6
CONTINUOUS
 70
0
 71
3
 72
9
 73
5
 74
0
 42
0.0000001
 43
0.0000001
 44
0.0000000001
 40
0.0
 40
0.0
 40
0.0
 40
0.0
 40
0.6538834328
 40
1.0
 40
1.0
 40
1.0
 40
1.0
 10
82.7401715848
 20
157.8146043895
 30
0.0
 10
82.6474413404
 20
157.7854144331
 30
0.0
 10
82.5127193282
 20
157.743760046
 30
0.0
 10
82.3819609223
 20
157.624511277
 30
0.0
 10
82.3819609223
 20
157.5730524565
 30
0.0
  0
SPLINE
  5
69E
100
AcDbEntity
  8
0
100
AcDbSpline
 62
7
  6
CONTINUOUS
 70
0
 71
3
 72
9
 73
5
 74
0
 42
0.0000001
 43
0.0000001
 44
0.0000000001
 40
0.0
 40
0.0
 40
0.0
 40
0.0
 40
0.1960109863
 40
1.0
 40
1.0
 40
1.0
 40
1.0
 10
82.2019609223
 20
156.5431208122
 30
0.0
 10
82.2019609223
 20
156.5307438442
 30
0.0
 10
82.2162095358
 20
156.4672918631
 30
0.0
 10
82.2735776815
 20
156.4255421397
 30
0.0
 10
82.3168002472
 20
156.3989126938
 30
0.0
  0
SPLINE
  5
69F
100
AcDbEntity
  8
0
100
AcDbSpline
 62
7
  6
CONTINUOUS
 70
0
 71
3
 72
9
 73
5
 74
0
 42
0.0000001
 43
0.0000001
 44
0.0000000001
 40
0.0
 40
0.0
 40
0.0
 40
0.0
 40
0.3832435797
 40
1.0
 40
1.0
 40
1.0
 40
1.0
 10
82.3168002472
 20
156.3989126938
 30
0.0
 10
82.4858122815
 20
156.2947842891
 30
0.0
 10
83.0036842003
 20
156.1735813017
 30
0.0
 10
83.5119616035
 20
156.1027623361
 30
0.0
 10
83.8300905108
 20
156.0735225049
 30
0.0
  0
SPLINE
  5
6A0
100
AcDbEntity
  8
0
100
AcDbSpline
 62
7
  6
CONTINUOUS
 70
0
 71
3
 72
9
 73
5
 74
0
 42
0.0000001
 43
0.0000001
 44
0.0000000001
 40
0.0
 40
0.0
 40
0.0
 40
0.0
 40
0.6167564203
 40
1.0
 40
1.0
 40
1.0
 40
1.0
 10
86.6938313338
 20
156.0735225049
 30
0.0
 10
87.0119602411
 20
156.1027623361
 30
0.0
 10
87.5202376443
 20
156.1735813017
 30
0.0
 10
88.0381095631
 20
156.2947842891
 30
0.0
 10
88.2071215974
 20
156.3989126938
 30
0.0
  0
SPLINE
  5
6A1
100
AcDbEntity
  8
0
100
AcDbSpline
 62
7
  6
CONTINUOUS
 70
0
 71
3
 72
9
 73
5
 74
0
 42
0.0000001
 43
0.0000001
 44
0.0000000001
 40
0.0
 40
0.0
 40
0.0
 40
0.0
 40
0.3264751112
 40
1.0
 40
1.0
 40
1.0
 40
1.0
 10
88.2071215974
 20
156.3989126938
 30
0.0
 10
88.2245324306
 20
156.4096395175
 30
0.0
 10
88.2751302497
 20
156.4438077368
 30
0.0
 10
88.3219609223
 20
156.5009320727
 30
0.0
 10
88.3219609223
 20
156.5431208122
 30
0.0
  0
SPLINE
  5
6A2
100
AcDbEntity
  8
0
100
AcDbSpline
 62
7
  6
CONTINUOUS
 70
0
 71
3
 72
9
 73
5
 74
0
 42
0.0000001
 43
0.0000001
 44
0.0000000001
 40
0.0
 40
0.0
 40
0.0
 40
0.0
 40
0.1993154842
 40
1.0
 40
1.0
 40
1.0
 40
1.0
 10
88.3219609223
 20
157.3309670146
 30
0.0
 10
88.3219609223
 20
157.3427366734
 30
0.0
 10
88.3094082308
 20
157.4021026879
 30
0.0
 10
88.257362048
 20
157.442766369
 30
0.0
 10
88.2176939507
 20
157.4684939886
 30
0.0
  0
SPLINE
  5
6A3
100
AcDbEntity
  8
0
100
AcDbSpline
 62
7
  6
CONTINUOUS
 70
0
 71
3
 72
9
 73
5
 74
0
 42
0.0000001
 43
0.0000001
 44
0.0000000001
 40
0.0
 40
0.0
 40
0.0
 40
0.0
 40
0.4846645858
 40
1.0
 40
1.0
 40
1.0
 40
1.0
 10
88.2071215974
 20
157.475175133
 30
0.0
 10
88.1997595193
 20
157.4797109133
 30
0.0
 10
88.1843552137
 20
157.4887242871
 30
0.0
 10
88.1686144513
 20
157.4971326486
 30
0.0
 10
88.1604335399
 20
157.5013289982
 30
0.0
  0
SPLINE
  5
6A4
100
AcDbEntity
  8
0
100
AcDbSpline
 62
7
  6
CONTINUOUS
 70
0
 71
3
 72
9
 73
5
 74
0
 42
0.0000001
 43
0.0000001
 44
0.0000000001
 40
0.0
 40
0.0
 40
0.0
 40
0.0
 40
0.5153354142
 40
1.0
 40
1.0
 40
1.0
 40
1.0
 10
82.3634883047
 20
157.5013289982
 30
0.0
 10
82.3553073933
 20
157.4971326486
 30
0.0
 10
82.3395666309
 20
157.4887242871
 30
0.0
 10
82.3241623253
 20
157.4797109133
 30
0.0
 10
82.3168002472
 20
157.475175133
 30
0.0
  0
SPLINE
  5
6A5
100
AcDbEntity
  8
0
100
AcDbSpline
 62
7
  6
CONTINUOUS
 70
0
 71
3
 72
9
 73
5
 74
0
 42
0.0000001
 43
0.0000001
 44
0.0000000001
 40
0.0
 40
0.0
 40
0.0
 40
0.0
 40
0.3224049484
 40
1.0
 40
1.0
 40
1.0
 40
1.0
 10
82.3062278939
 20
157.4684939886
 30
0.0
 10
82.2903718603
 20
157.4582102082
 30
0.0
 10
82.2436757951
 20
157.4249886602
 30
0.0
 10
82.2019609223
 20
157.3706867162
 30
0.0
 10
82.2019609223
 20
157.3309670146
 30
0.0
  0
SPLINE
  5
6A6
100
AcDbEntity
  8
0
100
AcDbSpline
 62
7
  6
CONTINUOUS
 70
0
 71
3
 72
9
 73
5
 74
0
 42
0.0000001
 43
0.0000001
 44
0.0000000001
 40
0.0
 40
0.0
 40
0.0
 40
0.0
 40
0.6900462127
 40
1.0
 40
1.0
 40
1.0
 40
1.0
 10
80.6821369451
 20
157.4248222218
 30
0.0
 10
80.6734550673
 20
157.4227769835
 30
0.0
 10
80.6624591277
 20
157.4202016635
 30
0.0
 10
80.6480470636
 20
157.412248052
 30
0.0
 10
80.6480759371
 20
157.408241697
 30
0.0
  0
SPLINE
  5
6A7
100
AcDbEntity
  8
0
100
AcDbSpline
 62
7
  6
CONTINUOUS
 70
0
 71
3
 72
9
 73
5
 74
0
 42
0.0000001
 43
0.0000001
 44
0.0000000001
 40
0.0
 40
0.0
 40
0.0
 40
0.0
 40
0.3279516415
 40
1.0
 40
1.0
 40
1.0
 40
1.0
 10
89.8901343625
 20
157.4652266352
 30
0.0
 10
89.9974095155
 20
157.4779142484
 30
0.0
 10
90.3229814609
 20
157.5223976039
 30
0.0
 10
90.652967679
 20
157.5710983724
 30
0.0
 10
90.8604281305
 20
157.648312533
 30
0.0
  0
SPLINE
  5
6A8
100
AcDbEntity
  8
0
100
AcDbSpline
 62
7
  6
CONTINUOUS
 70
0
 71
3
 72
9
 73
5
 74
0
 42
0.0000001
 43
0.0000001
 44
0.0000000001
 40
0.0
 40
0.0
 40
0.0
 40
0.0
 40
0.3721162992
 40
1.0
 40
1.0
 40
1.0
 40
1.0
 10
90.8604281305
 20
157.648312533
 30
0.0
 10
90.8828800091
 20
157.6566688387
 30
0.0
 10
90.9380142607
 20
157.6798028318
 30
0.0
 10
91.0119609225
 20
157.7221824887
 30
0.0
 10
91.0119609225
 20
157.7626050835
 30
0.0
  0
SPLINE
  5
6A9
100
AcDbEntity
  8
0
100
AcDbSpline
 62
7
  6
CONTINUOUS
 70
0
 71
3
 72
9
 73
5
 74
0
 42
0.0000001
 43
0.0000001
 44
0.0000000001
 40
0.0
 40
0.0
 40
0.0
 40
0.0
 40
0.7248951472
 40
1.0
 40
1.0
 40
1.0
 40
1.0
 10
80.8582497557
 20
157.792076181
 30
0.0
 10
80.8181397842
 20
157.7888719487
 30
0.0
 10
80.779172981
 20
157.7783405347
 30
0.0
 10
80.6960056717
 20
157.775221687
 30
0.0
 10
80.6961018568
 20
157.7599513654
 30
0.0
  0
SPLINE
  5
6AA
100
AcDbEntity
  8
0
100
AcDbSpline
 62
7
  6
CONTINUOUS
 70
0
 71
3
 72
9
 73
5
 74
0
 42
0.0000001
 43
0.0000001
 44
0.0000000001
 40
0.0
 40
0.0
 40
0.0
 40
0.0
 40
0.6793225576
 40
1.0
 40
1.0
 40
1.0
 40
1.0
 10
79.7924003218
 20
158.2689117268
 30
0.0
 10
79.7205208061
 20
158.2495954299
 30
0.0
 10
79.6247838636
 20
158.2248062714
 30
0.0
 10
79.5119609221
 20
158.1494496652
 30
0.0
 10
79.5119609221
 20
158.1143147593
 30
0.0
  0
SPLINE
  5
6AB
100
AcDbEntity
  8
0
100
AcDbSpline
 62
7
  6
CONTINUOUS
 70
0
 71
3
 72
11
 73
7
 74
0
 42
0.0000001
 43
0.0000001
 44
0.0000000001
 40
0.0
 40
0.0
 40
0.0
 40
0.0
 40
0.1497858139
 40
0.5
 40
0.8502141861
 40
1.0
 40
1.0
 40
1.0
 40
1.0
 10
89.2273249141
 20
157.7599513632
 30
0.0
 10
89.2273249141
 20
157.7498479017
 30
0.0
 10
89.2807055417
 20
157.7589681117
 30
0.0
 10
89.3278249141
 20
157.7457576886
 30
0.0
 10
89.3749442865
 20
157.7589681117
 30
0.0
 10
89.4283249141
 20
157.7498479017
 30
0.0
 10
89.4283249141
 20
157.7599513632
 30
0.0
  0
SPLINE
  5
6AC
100
AcDbEntity
  8
0
100
AcDbSpline
 62
7
  6
CONTINUOUS
 70
0
 71
3
 72
11
 73
7
 74
0
 42
0.0000001
 43
0.0000001
 44
0.0000000001
 40
0.0
 40
0.0
 40
0.0
 40
0.0
 40
0.1497858139
 40
0.5
 40
0.8502141861
 40
1.0
 40
1.0
 40
1.0
 40
1.0
 10
81.0955969305
 20
157.7599513632
 30
0.0
 10
81.0955969305
 20
157.7498479017
 30
0.0
 10
81.1489775581
 20
157.7589681117
 30
0.0
 10
81.1960969305
 20
157.7457576886
 30
0.0
 10
81.2432163029
 20
157.7589681117
 30
0.0
 10
81.2965969305
 20
157.7498479017
 30
0.0
 10
81.2965969305
 20
157.7599513632
 30
0.0
  0
SPLINE
  5
6AD
100
AcDbEntity
  8
0
100
AcDbSpline
 62
7
  6
CONTINUOUS
 70
0
 71
3
 72
9
 73
5
 74
0
 42
0.0000001
 43
0.0000001
 44
0.0000000001
 40
0.0
 40
0.0
 40
0.0
 40
0.0
 40
0.2448977155
 40
1.0
 40
1.0
 40
1.0
 40
1.0
 10
87.5837779637
 20
158.7616407467
 30
0.0
 10
87.2055833543
 20
158.733288389
 30
0.0
 10
85.6590259655
 20
158.6512705307
 30
0.0
 10
84.1062454633
 20
158.6742208619
 30
0.0
 10
82.9401438809
 20
158.7616407467
 30
0.0
  0
SPLINE
  5
6AE
100
AcDbEntity
  8
0
100
AcDbSpline
 62
7
  6
CONTINUOUS
 70
0
 71
3
 72
9
 73
5
 74
0
 42
0.0000001
 43
0.0000001
 44
0.0000000001
 40
0.0
 40
0.0
 40
0.0
 40
0.0
 40
0.2829888111
 40
1.0
 40
1.0
 40
1.0
 40
1.0
 10
82.0934609223
 20
157.3884299408
 30
0.0
 10
82.0934609223
 20
157.377323857
 30
0.0
 10
82.1553347469
 20
157.3838284119
 30
0.0
 10
82.1817631526
 20
157.3752559008
 30
0.0
 10
82.2098915588
 20
157.3744629696
 30
0.0
  0
SPLINE
  5
6AF
100
AcDbEntity
  8
0
100
AcDbSpline
 62
7
  6
CONTINUOUS
 70
0
 71
3
 72
9
 73
5
 74
0
 42
0.0000001
 43
0.0000001
 44
0.0000000001
 40
0.0
 40
0.0
 40
0.0
 40
0.0
 40
0.5316024524
 40
1.0
 40
1.0
 40
1.0
 40
1.0
 10
81.8886798336
 20
157.2885995832
 30
0.0
 10
81.8843039743
 20
157.2892665399
 30
0.0
 10
81.8760854889
 20
157.2906087295
 30
0.0
 10
81.8679068619
 20
157.292180366
 30
0.0
 10
81.8640920443
 20
157.2929915953
 30
0.0
  0
SPLINE
  5
6B0
100
AcDbEntity
  8
0
100
AcDbSpline
 62
7
  6
CONTINUOUS
 70
0
 71
3
 72
9
 73
5
 74
0
 42
0.0000001
 43
0.0000001
 44
0.0000000001
 40
0.0
 40
0.0
 40
0.0
 40
0.0
 40
0.5437032223
 40
1.0
 40
1.0
 40
1.0
 40
1.0
 10
81.8640920443
 20
157.2929915953
 30
0.0
 10
81.8609193368
 20
157.2936662784
 30
0.0
 10
81.855103637
 20
157.2950025291
 30
0.0
 10
81.8493555323
 20
157.2966158908
 30
0.0
 10
81.8467654892
 20
157.2974537656
 30
0.0
  0
SPLINE
  5
6B1
100
AcDbEntity
  8
0
100
AcDbSpline
 62
7
  6
CONTINUOUS
 70
0
 71
3
 72
9
 73
5
 74
0
 42
0.0000001
 43
0.0000001
 44
0.0000000001
 40
0.0
 40
0.0
 40
0.0
 40
0.0
 40
0.5316024524
 40
1.0
 40
1.0
 40
1.0
 40
1.0
 10
88.635242011
 20
157.2885995832
 30
0.0
 10
88.6396178703
 20
157.2892665399
 30
0.0
 10
88.6478363557
 20
157.2906087295
 30
0.0
 10
88.6560149827
 20
157.292180366
 30
0.0
 10
88.6598298003
 20
157.2929915953
 30
0.0
  0
SPLINE
  5
6B2
100
AcDbEntity
  8
0
100
AcDbSpline
 62
7
  6
CONTINUOUS
 70
0
 71
3
 72
9
 73
5
 74
0
 42
0.0000001
 43
0.0000001
 44
0.0000000001
 40
0.0
 40
0.0
 40
0.0
 40
0.0
 40
0.5437032223
 40
1.0
 40
1.0
 40
1.0
 40
1.0
 10
88.6598298003
 20
157.2929915953
 30
0.0
 10
88.6630025078
 20
157.2936662784
 30
0.0
 10
88.6688182076
 20
157.2950025291
 30
0.0
 10
88.6745663123
 20
157.2966158908
 30
0.0
 10
88.6771563554
 20
157.2974537656
 30
0.0
  0
SPLINE
  5
6B3
100
AcDbEntity
  8
0
100
AcDbSpline
 62
7
  6
CONTINUOUS
 70
0
 71
3
 72
15
 73
11
 74
0
 42
0.0000001
 43
0.0000001
 44
0.0000000001
 40
0.0
 40
0.0
 40
0.0
 40
0.0
 40
0.0488421843
 40
0.1570851616
 40
0.3149367264
 40
0.5
 40
0.6850632736
 40
0.8429148384
 40
0.9511578157
 40
1.0
 40
1.0
 40
1.0
 40
1.0
 10
82.2019609223
 20
157.3309670146
 30
0.0
 10
82.2019609223
 20
157.2278884716
 30
0.0
 10
82.5918690491
 20
157.047577538
 30
0.0
 10
83.1765149392
 20
156.9317774898
 30
0.0
 10
84.1553588318
 20
156.8193559718
 30
0.0
 10
85.2619609223
 20
156.7889436841
 30
0.0
 10
86.3685630128
 20
156.8193559718
 30
0.0
 10
87.3474069054
 20
156.9317774898
 30
0.0
 10
87.9320527955
 20
157.047577538
 30
0.0
 10
88.3219609223
 20
157.2278884716
 30
0.0
 10
88.3219609223
 20
157.3309670146
 30
0.0
  0
SPLINE
  5
6B4
100
AcDbEntity
  8
0
100
AcDbSpline
 62
7
  6
CONTINUOUS
 70
0
 71
3
 72
11
 73
7
 74
0
 42
0.0000001
 43
0.0000001
 44
0.0000000001
 40
0.0
 40
0.0
 40
0.0
 40
0.0
 40
0.3701715309
 40
0.6858277746
 40
0.9023352995
 40
1.0
 40
1.0
 40
1.0
 40
1.0
 10
85.2619609223
 20
157.4749001958
 30
0.0
 10
85.5702059489
 20
157.4749001958
 30
0.0
 10
86.1344085637
 20
157.4904665056
 30
0.0
 10
86.9078340957
 20
157.5792376622
 30
0.0
 10
87.3690345585
 20
157.6705602924
 30
0.0
 10
87.6766960097
 20
157.8128955431
 30
0.0
 10
87.6766960097
 20
157.8942217815
 30
0.0
  0
SPLINE
  5
6B5
100
AcDbEntity
  8
0
100
AcDbSpline
 62
7
  6
CONTINUOUS
 70
0
 71
3
 72
11
 73
7
 74
0
 42
0.0000001
 43
0.0000001
 44
0.0000000001
 40
0.0
 40
0.0
 40
0.0
 40
0.0
 40
0.3701715309
 40
0.6858277746
 40
0.9023352995
 40
1.0
 40
1.0
 40
1.0
 40
1.0
 10
85.2619609223
 20
157.4749001958
 30
0.0
 10
84.9537158958
 20
157.4749001958
 30
0.0
 10
84.3895132809
 20
157.4904665056
 30
0.0
 10
83.6160877489
 20
157.5792376622
 30
0.0
 10
83.1548872861
 20
157.6705602924
 30
0.0
 10
82.847225835
 20
157.8128955431
 30
0.0
 10
82.847225835
 20
157.8942217815
 30
0.0
  0
SPLINE
  5
6B6
100
AcDbEntity
  8
7_ALL_ROUNDS
100
AcDbSpline
 62
7
  6
CONTINUOUS
 70
0
 71
3
 72
8
 73
4
 74
0
 42
0.0000001
 43
0.0000001
 44
0.0000000001
 40
0.0
 40
0.0
 40
0.0
 40
0.0
 40
1.0
 40
1.0
 40
1.0
 40
1.0
 10
88.868694172
 20
163.3262524768
 30
0.0
 10
88.8436370619
 20
163.3262524768
 30
0.0
 10
88.7973458454
 20
163.2906081654
 30
0.0
 10
88.8154029291
 20
163.2732357591
 30
0.0
  0
SPLINE
  5
6B7
100
AcDbEntity
  8
7_ALL_ROUNDS
100
AcDbSpline
 62
7
  6
CONTINUOUS
 70
0
 71
3
 72
8
 73
4
 74
0
 42
0.0000001
 43
0.0000001
 44
0.0000000001
 40
0.0
 40
0.0
 40
0.0
 40
0.0
 40
1.0
 40
1.0
 40
1.0
 40
1.0
 10
88.868694172
 20
163.5044859707
 30
0.0
 10
88.8438810533
 20
163.5044859707
 30
0.0
 10
88.7996704472
 20
163.4807819162
 30
0.0
 10
88.8102762407
 20
163.458349618
 30
0.0
  0
SPLINE
  5
6B8
100
AcDbEntity
  8
7_ALL_ROUNDS
100
AcDbSpline
 62
7
  6
CONTINUOUS
 70
0
 71
3
 72
9
 73
5
 74
0
 42
0.0000001
 43
0.0000001
 44
0.0000000001
 40
0.0
 40
0.0
 40
0.0
 40
0.0
 40
0.4694878482
 40
1.0
 40
1.0
 40
1.0
 40
1.0
 10
88.8102762407
 20
163.458349618
 30
0.0
 10
88.810852558
 20
163.45713065
 30
0.0
 10
88.8123697339
 20
163.4546666838
 30
0.0
 10
88.8143049667
 20
163.4525255836
 30
0.0
 10
88.8154029291
 20
163.451469253
 30
0.0
  0
SPLINE
  5
6B9
100
AcDbEntity
  8
0
100
AcDbSpline
 62
7
  6
CONTINUOUS
 70
0
 71
3
 72
9
 73
5
 74
0
 42
0.0000001
 43
0.0000001
 44
0.0000000001
 40
0.0
 40
0.0
 40
0.0
 40
0.0
 40
0.3024895755
 40
1.0
 40
1.0
 40
1.0
 40
1.0
 10
80.6480759371
 20
157.408241697
 30
0.0
 10
80.6481101778
 20
157.4034906153
 30
0.0
 10
80.6666019771
 20
157.394981313
 30
0.0
 10
80.6796818504
 20
157.3920689562
 30
0.0
 10
80.690406949
 20
157.3898324871
 30
0.0
  0
SPLINE
  5
6BA
100
AcDbEntity
  8
0
100
AcDbSpline
 62
7
  6
CONTINUOUS
 70
0
 71
3
 72
9
 73
5
 74
0
 42
0.0000001
 43
0.0000001
 44
0.0000000001
 40
0.0
 40
0.0
 40
0.0
 40
0.0
 40
0.4155862555
 40
1.0
 40
1.0
 40
1.0
 40
1.0
 10
80.690406949
 20
157.3898324871
 30
0.0
 10
80.7875073876
 20
157.3695844562
 30
0.0
 10
81.0278061288
 20
157.3620208983
 30
0.0
 10
81.2659166976
 20
157.3590771361
 30
0.0
 10
81.4053100258
 20
157.3640950766
 30
0.0
  0
SPLINE
  5
6BB
100
AcDbEntity
  8
0
100
AcDbSpline
 62
7
  6
CONTINUOUS
 70
0
 71
3
 72
9
 73
5
 74
0
 42
0.0000001
 43
0.0000001
 44
0.0000000001
 40
0.0
 40
0.0
 40
0.0
 40
0.0
 40
0.5905913375
 40
1.0
 40
1.0
 40
1.0
 40
1.0
 10
89.1186118188
 20
157.3640950766
 30
0.0
 10
89.2608509583
 20
157.3589746914
 30
0.0
 10
89.5010410428
 20
157.3628528835
 30
0.0
 10
89.7442305553
 20
157.3691834297
 30
0.0
 10
89.8403783174
 20
157.3913354356
 30
0.0
  0
SPLINE
  5
6BC
100
AcDbEntity
  8
0
100
AcDbSpline
 62
7
  6
CONTINUOUS
 70
0
 71
3
 72
9
 73
5
 74
0
 42
0.0000001
 43
0.0000001
 44
0.0000000001
 40
0.0
 40
0.0
 40
0.0
 40
0.0
 40
0.6907297186
 40
1.0
 40
1.0
 40
1.0
 40
1.0
 10
89.8403783174
 20
157.3913354356
 30
0.0
 10
89.8493955479
 20
157.3934129644
 30
0.0
 10
89.8607790283
 20
157.3960770112
 30
0.0
 10
89.8758160486
 20
157.4040986196
 30
0.0
 10
89.8758459075
 20
157.408241697
 30
0.0
  0
SPLINE
  5
6BD
100
AcDbEntity
  8
7_ALL_ROUNDS
100
AcDbSpline
 62
7
  6
CONTINUOUS
 70
0
 71
3
 72
9
 73
5
 74
0
 42
0.0000001
 43
0.0000001
 44
0.0000000001
 40
0.0
 40
0.0
 40
0.0
 40
0.0
 40
0.5010662745
 40
1.0
 40
1.0
 40
1.0
 40
1.0
 10
89.4303552674
 20
163.4447098903
 30
0.0
 10
89.4304853818
 20
163.4470066918
 30
0.0
 10
89.4305793944
 20
163.4516013254
 30
0.0
 10
89.4303368628
 20
163.4561911878
 30
0.0
 10
89.4301242221
 20
163.45847199
 30
0.0
  0
SPLINE
  5
6BE
100
AcDbEntity
  8
7_ALL_ROUNDS
100
AcDbSpline
 62
7
  6
CONTINUOUS
 70
0
 71
3
 72
9
 73
5
 74
0
 42
0.0000001
 43
0.0000001
 44
0.0000000001
 40
0.0
 40
0.0
 40
0.0
 40
0.0
 40
0.5631549079
 40
1.0
 40
1.0
 40
1.0
 40
1.0
 10
89.4301242221
 20
163.45847199
 30
0.0
 10
89.4293792434
 20
163.4664626911
 30
0.0
 10
89.4273514327
 20
163.4810750024
 30
0.0
 10
89.4138833764
 20
163.4915526305
 30
0.0
 10
89.4076580267
 20
163.4915526305
 30
0.0
  0
SPLINE
  5
6BF
100
AcDbEntity
  8
7_ALL_ROUNDS
100
AcDbSpline
 62
7
  6
CONTINUOUS
 70
0
 71
3
 72
9
 73
5
 74
0
 42
0.0000001
 43
0.0000001
 44
0.0000000001
 40
0.0
 40
0.0
 40
0.0
 40
0.0
 40
0.4639107077
 40
1.0
 40
1.0
 40
1.0
 40
1.0
 10
89.4076580267
 20
163.4915526305
 30
0.0
 10
89.4060744464
 20
163.4915526305
 30
0.0
 10
89.4026555904
 20
163.4911114228
 30
0.0
 10
89.3994117578
 20
163.4899852136
 30
0.0
 10
89.3977323108
 20
163.4892584192
 30
0.0
  0
SPLINE
  5
6C0
100
AcDbEntity
  8
7_ALL_ROUNDS
100
AcDbSpline
 62
7
  6
CONTINUOUS
 70
0
 71
3
 72
9
 73
5
 74
0
 42
0.0000001
 43
0.0000001
 44
0.0000000001
 40
0.0
 40
0.0
 40
0.0
 40
0.0
 40
0.4625152614
 40
1.0
 40
1.0
 40
1.0
 40
1.0
 10
89.3977323108
 20
163.4892584192
 30
0.0
 10
89.3959554937
 20
163.4884894871
 30
0.0
 10
89.3922443728
 20
163.4865215309
 30
0.0
 10
89.3887970428
 20
163.4841330962
 30
0.0
 10
89.3870054963
 20
163.4827720968
 30
0.0
  0
SPLINE
  5
6C1
100
AcDbEntity
  8
7_ALL_ROUNDS
100
AcDbSpline
 62
7
  6
CONTINUOUS
 70
0
 71
3
 72
8
 73
4
 74
0
 42
0.0000001
 43
0.0000001
 44
0.0000000001
 40
0.0
 40
0.0
 40
0.0
 40
0.0
 40
1.0
 40
1.0
 40
1.0
 40
1.0
 10
88.868694172
 20
163.4598622304
 30
0.0
 10
88.8438810533
 20
163.4598622304
 30
0.0
 10
88.7996704472
 20
163.4361581759
 30
0.0
 10
88.8102762407
 20
163.4137258777
 30
0.0
  0
SPLINE
  5
6C2
100
AcDbEntity
  8
7_ALL_ROUNDS
100
AcDbSpline
 62
7
  6
CONTINUOUS
 70
0
 71
3
 72
9
 73
5
 74
0
 42
0.0000001
 43
0.0000001
 44
0.0000000001
 40
0.0
 40
0.0
 40
0.0
 40
0.0
 40
0.4694878482
 40
1.0
 40
1.0
 40
1.0
 40
1.0
 10
88.8102762407
 20
163.4137258777
 30
0.0
 10
88.810852558
 20
163.4125069098
 30
0.0
 10
88.8123697339
 20
163.4100429436
 30
0.0
 10
88.8143049667
 20
163.4079018433
 30
0.0
 10
88.8154029291
 20
163.4068455128
 30
0.0
  0
SPLINE
  5
6C3
100
AcDbEntity
  8
0
100
AcDbSpline
 62
7
  6
CONTINUOUS
 70
0
 71
3
 72
11
 73
7
 74
0
 42
0.0000001
 43
0.0000001
 44
0.0000000001
 40
0.0
 40
0.0
 40
0.0
 40
0.0
 40
0.0898343433
 40
0.3254371942
 40
0.6543273134
 40
1.0
 40
1.0
 40
1.0
 40
1.0
 10
80.6480699469
 20
156.2776156091
 30
0.0
 10
80.6479617854
 20
156.2547975137
 30
0.0
 10
80.7738188411
 20
156.2576892998
 30
0.0
 10
80.9021850045
 20
156.2296557006
 30
0.0
 10
81.1505661416
 20
156.2301378516
 30
0.0
 10
81.31756435
 20
156.2303102964
 30
0.0
 10
81.4053100258
 20
156.2334690026
 30
0.0
  0
SPLINE
  5
6C4
100
AcDbEntity
  8
0
100
AcDbSpline
 62
7
  6
CONTINUOUS
 70
0
 71
3
 72
15
 73
11
 74
0
 42
0.0000001
 43
0.0000001
 44
0.0000000001
 40
0.0
 40
0.0
 40
0.0
 40
0.0
 40
0.0488401982
 40
0.157086631
 40
0.314935057
 40
0.5
 40
0.685064943
 40
0.842913369
 40
0.9511598018
 40
1.0
 40
1.0
 40
1.0
 40
1.0
 10
82.3819609223
 20
157.3309670146
 30
0.0
 10
82.3819609223
 20
157.2339558438
 30
0.0
 10
82.7489305208
 20
157.0642439813
 30
0.0
 10
83.2991863756
 20
156.9552683019
 30
0.0
 10
84.2204510835
 20
156.8494352082
 30
0.0
 10
85.2619609223
 20
156.8208426496
 30
0.0
 10
86.3034707611
 20
156.8494352082
 30
0.0
 10
87.224735469
 20
156.9552683019
 30
0.0
 10
87.7749913238
 20
157.0642439813
 30
0.0
 10
88.1419609223
 20
157.2339558438
 30
0.0
 10
88.1419609223
 20
157.3309670146
 30
0.0
  0
LINE
  5
6C5
100
AcDbEntity
  8
0
100
AcDbLine
 62
7
  6
CONTINUOUS
 10
89.8878155792
 20
156.3587628332
 11
89.898509529
 21
156.3601433306
  0
SPLINE
  5
6C6
100
AcDbEntity
  8
0
100
AcDbSpline
 62
7
  6
CONTINUOUS
 70
0
 71
3
 72
10
 73
6
 74
0
 42
0.0000001
 43
0.0000001
 44
0.0000000001
 40
0.0
 40
0.0
 40
0.0
 40
0.0
 40
0.7133515445
 40
0.9065785832
 40
1.0
 40
1.0
 40
1.0
 40
1.0
 10
89.898509529
 20
156.3601433306
 30
0.0
 10
90.1365719
 20
156.3909883778
 30
0.0
 10
90.4498135661
 20
156.4419112319
 30
0.0
 10
90.7549912628
 20
156.5315061506
 30
0.0
 10
90.8499765907
 20
156.6005414573
 30
0.0
 10
90.8499765907
 20
156.6319790096
 30
0.0
  0
SPLINE
  5
6C7
100
AcDbEntity
  8
0
100
AcDbSpline
 62
7
  6
CONTINUOUS
 70
0
 71
3
 72
10
 73
6
 74
0
 42
0.0000001
 43
0.0000001
 44
0.0000000001
 40
0.0
 40
0.0
 40
0.0
 40
0.0
 40
0.0934214168
 40
0.2866484555
 40
1.0
 40
1.0
 40
1.0
 40
1.0
 10
79.6739452539
 20
156.6319790096
 30
0.0
 10
79.6739452539
 20
156.6005414573
 30
0.0
 10
79.7689305818
 20
156.5315061506
 30
0.0
 10
80.0741082785
 20
156.4419112319
 30
0.0
 10
80.3873499446
 20
156.3909883778
 30
0.0
 10
80.6254123156
 20
156.3601433306
 30
0.0
  0
LINE
  5
6C8
100
AcDbEntity
  8
0
100
AcDbLine
 62
7
  6
CONTINUOUS
 10
80.6254123156
 20
156.3601433306
 11
80.6361062654
 21
156.3587628332
  0
SPLINE
  5
6C9
100
AcDbEntity
  8
7_ALL_ROUNDS
100
AcDbSpline
 62
7
  6
CONTINUOUS
 70
0
 71
3
 72
8
 73
4
 74
0
 42
0.0000001
 43
0.0000001
 44
0.0000000001
 40
0.0
 40
0.0
 40
0.0
 40
0.0
 40
1.0
 40
1.0
 40
1.0
 40
1.0
 10
88.868694172
 20
163.4152384901
 30
0.0
 10
88.8438810533
 20
163.4152384901
 30
0.0
 10
88.7996704472
 20
163.3915344356
 30
0.0
 10
88.8102762407
 20
163.3691021374
 30
0.0
  0
SPLINE
  5
6CA
100
AcDbEntity
  8
7_ALL_ROUNDS
100
AcDbSpline
 62
7
  6
CONTINUOUS
 70
0
 71
3
 72
9
 73
5
 74
0
 42
0.0000001
 43
0.0000001
 44
0.0000000001
 40
0.0
 40
0.0
 40
0.0
 40
0.0
 40
0.4694878482
 40
1.0
 40
1.0
 40
1.0
 40
1.0
 10
88.8102762407
 20
163.3691021374
 30
0.0
 10
88.810852558
 20
163.3678831695
 30
0.0
 10
88.8123697339
 20
163.3654192033
 30
0.0
 10
88.8143049667
 20
163.363278103
 30
0.0
 10
88.8154029291
 20
163.3622217725
 30
0.0
  0
SPLINE
  5
6CB
100
AcDbEntity
  8
7_ALL_ROUNDS
100
AcDbSpline
 62
7
  6
CONTINUOUS
 70
0
 71
3
 72
8
 73
4
 74
0
 42
0.0000001
 43
0.0000001
 44
0.0000000001
 40
0.0
 40
0.0
 40
0.0
 40
0.0
 40
1.0
 40
1.0
 40
1.0
 40
1.0
 10
88.868694172
 20
163.3706147498
 30
0.0
 10
88.8438810533
 20
163.3706147498
 30
0.0
 10
88.7996704472
 20
163.3469106954
 30
0.0
 10
88.8102762407
 20
163.3244783971
 30
0.0
  0
SPLINE
  5
6CC
100
AcDbEntity
  8
7_ALL_ROUNDS
100
AcDbSpline
 62
7
  6
CONTINUOUS
 70
0
 71
3
 72
9
 73
5
 74
0
 42
0.0000001
 43
0.0000001
 44
0.0000000001
 40
0.0
 40
0.0
 40
0.0
 40
0.0
 40
0.4694878482
 40
1.0
 40
1.0
 40
1.0
 40
1.0
 10
88.8102762407
 20
163.3244783971
 30
0.0
 10
88.810852558
 20
163.3232594292
 30
0.0
 10
88.8123697339
 20
163.320795463
 30
0.0
 10
88.8143049667
 20
163.3186543627
 30
0.0
 10
88.8154029291
 20
163.3175980322
 30
0.0
  0
SPLINE
  5
6CD
100
AcDbEntity
  8
0
100
AcDbSpline
 62
7
  6
CONTINUOUS
 70
0
 71
3
 72
13
 73
9
 74
0
 42
0.0000001
 43
0.0000001
 44
0.0000000001
 40
0.0
 40
0.0
 40
0.0
 40
0.0
 40
0.2923040966
 40
0.6294764595
 40
0.7779282625
 40
0.8949352096
 40
0.9704958103
 40
1.0
 40
1.0
 40
1.0
 40
1.0
 10
88.9592339668
 20
157.7305060418
 30
0.0
 10
89.0440117923
 20
157.7224447868
 30
0.0
 10
89.2270896753
 20
157.7153495094
 30
0.0
 10
89.4553136942
 20
157.7160659177
 30
0.0
 10
89.6279794147
 20
157.7245955382
 30
0.0
 10
89.7325651596
 20
157.7326256214
 30
0.0
 10
89.7857058914
 20
157.7433146952
 30
0.0
 10
89.8277658456
 20
157.7513557503
 30
0.0
 10
89.8278199878
 20
157.7599513654
 30
0.0
  0
LINE
  5
6CE
100
AcDbEntity
  8
0
100
AcDbLine
 62
7
  6
CONTINUOUS
 10
82.3732120551
 20
157.6810112473
 11
82.4503724854
 21
157.6771710456
  0
SPLINE
  5
6CF
100
AcDbEntity
  8
0
100
AcDbSpline
 62
7
  6
CONTINUOUS
 70
0
 71
3
 72
11
 73
7
 74
0
 42
0.0000001
 43
0.0000001
 44
0.0000000001
 40
0.0
 40
0.0
 40
0.0
 40
0.0
 40
0.4114458999
 40
0.7165629887
 40
0.9099868693
 40
1.0
 40
1.0
 40
1.0
 40
1.0
 10
89.8414583122
 20
157.8112653232
 30
0.0
 10
90.0092227935
 20
157.8305312867
 30
0.0
 10
90.2982285055
 20
157.8666998589
 30
0.0
 10
90.6740723044
 20
157.9423551991
 30
0.0
 10
90.8900070692
 20
158.0001726045
 30
0.0
 10
91.0119609225
 20
158.0773712471
 30
0.0
 10
91.0119609225
 20
158.1143147593
 30
0.0
  0
SPLINE
  5
6D0
100
AcDbEntity
  8
0
100
AcDbSpline
 62
7
  6
CONTINUOUS
 70
0
 71
3
 72
9
 73
5
 74
0
 42
0.0000001
 43
0.0000001
 44
0.0000000001
 40
0.0
 40
0.0
 40
0.0
 40
0.0
 40
0.2897576674
 40
1.0
 40
1.0
 40
1.0
 40
1.0
 10
82.3758153705
 20
157.7165595554
 30
0.0
 10
82.2129374444
 20
157.7255353873
 30
0.0
 10
81.6511262844
 20
157.7605266416
 30
0.0
 10
81.0895930393
 20
157.8086450249
 30
0.0
 10
80.6935168707
 20
157.8634186767
 30
0.0
  0
SPLINE
  5
6D1
100
AcDbEntity
  8
0
100
AcDbSpline
 62
7
  6
CONTINUOUS
 70
0
 71
3
 72
10
 73
6
 74
0
 42
0.0000001
 43
0.0000001
 44
0.0000000001
 40
0.0
 40
0.0
 40
0.0
 40
0.0
 40
0.7138091196
 40
0.905986375
 40
1.0
 40
1.0
 40
1.0
 40
1.0
 10
80.6935168707
 20
157.8634186767
 30
0.0
 10
80.4840177287
 20
157.8923904603
 30
0.0
 10
80.2100126699
 20
157.9408555881
 30
0.0
 10
79.9404716175
 20
158.0228299741
 30
0.0
 10
79.8607912541
 20
158.088655834
 30
0.0
 10
79.8622519532
 20
158.1164725969
 30
0.0
  0
SPLINE
  5
6D2
100
AcDbEntity
  8
0
100
AcDbSpline
 62
7
  6
CONTINUOUS
 70
0
 71
3
 72
11
 73
7
 74
0
 42
0.0000001
 43
0.0000001
 44
0.0000000001
 40
0.0
 40
0.0
 40
0.0
 40
0.0
 40
0.1497858139
 40
0.5
 40
0.8502141861
 40
1.0
 40
1.0
 40
1.0
 40
1.0
 10
89.4283249141
 20
157.7599513632
 30
0.0
 10
89.4283249141
 20
157.7700548247
 30
0.0
 10
89.3749442865
 20
157.7609346148
 30
0.0
 10
89.3278249141
 20
157.7741450378
 30
0.0
 10
89.2807055417
 20
157.7609346148
 30
0.0
 10
89.2273249141
 20
157.7700548247
 30
0.0
 10
89.2273249141
 20
157.7599513632
 30
0.0
  0
SPLINE
  5
6D3
100
AcDbEntity
  8
0
100
AcDbSpline
 62
7
  6
CONTINUOUS
 70
0
 71
3
 72
11
 73
7
 74
0
 42
0.0000001
 43
0.0000001
 44
0.0000000001
 40
0.0
 40
0.0
 40
0.0
 40
0.0
 40
0.1497858139
 40
0.5
 40
0.8502141861
 40
1.0
 40
1.0
 40
1.0
 40
1.0
 10
81.2965969305
 20
157.7599513632
 30
0.0
 10
81.2965969305
 20
157.7700548247
 30
0.0
 10
81.2432163029
 20
157.7609346148
 30
0.0
 10
81.1960969305
 20
157.7741450378
 30
0.0
 10
81.1489775581
 20
157.7609346148
 30
0.0
 10
81.0955969305
 20
157.7700548247
 30
0.0
 10
81.0955969305
 20
157.7599513632
 30
0.0
  0
SPLINE
  5
6D4
100
AcDbEntity
  8
0
100
AcDbSpline
 62
7
  6
CONTINUOUS
 70
0
 71
3
 72
11
 73
7
 74
0
 42
0.0000001
 43
0.0000001
 44
0.0000000001
 40
0.0
 40
0.0
 40
0.0
 40
0.0
 40
0.0847851106
 40
0.2797173181
 40
0.5879904734
 40
1.0
 40
1.0
 40
1.0
 40
1.0
 10
91.7619609223
 20
156.6319790096
 30
0.0
 10
91.7619609223
 20
156.5773109465
 30
0.0
 10
91.5524895494
 20
156.4775200909
 30
0.0
 10
91.2209642765
 20
156.4007885337
 30
0.0
 10
90.6173711781
 20
156.3034496533
 30
0.0
 10
90.1615454566
 20
156.2582596485
 30
0.0
 10
89.8969260619
 20
156.2348023116
 30
0.0
  0
SPLINE
  5
6D5
100
AcDbEntity
  8
0
100
AcDbSpline
 62
7
  6
CONTINUOUS
 70
0
 71
3
 72
9
 73
5
 74
0
 42
0.0000001
 43
0.0000001
 44
0.0000000001
 40
0.0
 40
0.0
 40
0.0
 40
0.0
 40
0.2308461205
 40
1.0
 40
1.0
 40
1.0
 40
1.0
 10
89.8969260619
 20
156.2348023116
 30
0.0
 10
89.7967120665
 20
156.2259187849
 30
0.0
 10
89.3623726422
 20
156.1899606221
 30
0.0
 10
88.9273259687
 20
156.1629003093
 30
0.0
 10
88.5925671106
 20
156.1454889573
 30
0.0
  0
SPLINE
  5
6D6
100
AcDbEntity
  8
0
100
AcDbSpline
 62
7
  6
CONTINUOUS
 70
0
 71
3
 72
11
 73
7
 74
0
 42
0.0000001
 43
0.0000001
 44
0.0000000001
 40
0.0
 40
0.0
 40
0.0
 40
0.0
 40
0.3456726866
 40
0.6745628058
 40
0.9101656567
 40
1.0
 40
1.0
 40
1.0
 40
1.0
 10
89.1186118188
 20
156.2334690026
 30
0.0
 10
89.2063574946
 20
156.2303102964
 30
0.0
 10
89.373355703
 20
156.2301378516
 30
0.0
 10
89.6217368401
 20
156.2296557006
 30
0.0
 10
89.7501030035
 20
156.2576892998
 30
0.0
 10
89.8759600592
 20
156.2547975137
 30
0.0
 10
89.8758518977
 20
156.2776156091
 30
0.0
  0
SPLINE
  5
6D7
100
AcDbEntity
  8
0
100
AcDbSpline
 62
7
  6
CONTINUOUS
 70
0
 71
3
 72
9
 73
5
 74
0
 42
0.0000001
 43
0.0000001
 44
0.0000000001
 40
0.0
 40
0.0
 40
0.0
 40
0.0
 40
0.2687191872
 40
1.0
 40
1.0
 40
1.0
 40
1.0
 10
82.0171762868
 20
156.1411027887
 30
0.0
 10
81.8925241281
 20
156.1473617995
 30
0.0
 10
81.4287479447
 20
156.1724728237
 30
0.0
 10
80.965319475
 20
156.2048114153
 30
0.0
 10
80.6269957827
 20
156.2348023116
 30
0.0
  0
SPLINE
  5
6D8
100
AcDbEntity
  8
0
100
AcDbSpline
 62
7
  6
CONTINUOUS
 70
0
 71
3
 72
11
 73
7
 74
0
 42
0.0000001
 43
0.0000001
 44
0.0000000001
 40
0.0
 40
0.0
 40
0.0
 40
0.0
 40
0.4120095266
 40
0.7202826819
 40
0.9152148894
 40
1.0
 40
1.0
 40
1.0
 40
1.0
 10
80.6269957827
 20
156.2348023116
 30
0.0
 10
80.362376388
 20
156.2582596485
 30
0.0
 10
79.9065506665
 20
156.3034496533
 30
0.0
 10
79.3029575681
 20
156.4007885337
 30
0.0
 10
78.9714322952
 20
156.4775200909
 30
0.0
 10
78.7619609223
 20
156.5773109465
 30
0.0
 10
78.7619609223
 20
156.6319790096
 30
0.0
  0
LINE
  5
6D9
100
AcDbEntity
  8
0
100
AcDbLine
 62
7
  6
CONTINUOUS
 10
82.2053069866
 20
157.4168339481
 11
82.2633455982
 21
157.4137009277
  0
SPLINE
  5
6DA
100
AcDbEntity
  8
7_ALL_ROUNDS
100
AcDbSpline
 62
7
  6
CONTINUOUS
 70
0
 71
3
 72
9
 73
5
 74
0
 42
0.0000001
 43
0.0000001
 44
0.0000000001
 40
0.0
 40
0.0
 40
0.0
 40
0.0
 40
0.5010662745
 40
1.0
 40
1.0
 40
1.0
 40
1.0
 10
89.4303552674
 20
163.40008615
 30
0.0
 10
89.4304853818
 20
163.4023829515
 30
0.0
 10
89.4305793944
 20
163.4069775851
 30
0.0
 10
89.4303368628
 20
163.4115674475
 30
0.0
 10
89.4301242221
 20
163.4138482497
 30
0.0
  0
SPLINE
  5
6DB
100
AcDbEntity
  8
7_ALL_ROUNDS
100
AcDbSpline
 62
7
  6
CONTINUOUS
 70
0
 71
3
 72
9
 73
5
 74
0
 42
0.0000001
 43
0.0000001
 44
0.0000000001
 40
0.0
 40
0.0
 40
0.0
 40
0.0
 40
0.5631549079
 40
1.0
 40
1.0
 40
1.0
 40
1.0
 10
89.4301242221
 20
163.4138482497
 30
0.0
 10
89.4293792434
 20
163.4218389508
 30
0.0
 10
89.4273514327
 20
163.4364512621
 30
0.0
 10
89.4138833764
 20
163.4469288903
 30
0.0
 10
89.4076580267
 20
163.4469288903
 30
0.0
  0
SPLINE
  5
6DC
100
AcDbEntity
  8
7_ALL_ROUNDS
100
AcDbSpline
 62
7
  6
CONTINUOUS
 70
0
 71
3
 72
9
 73
5
 74
0
 42
0.0000001
 43
0.0000001
 44
0.0000000001
 40
0.0
 40
0.0
 40
0.0
 40
0.0
 40
0.4639107077
 40
1.0
 40
1.0
 40
1.0
 40
1.0
 10
89.4076580267
 20
163.4469288903
 30
0.0
 10
89.4060744464
 20
163.4469288903
 30
0.0
 10
89.4026555904
 20
163.4464876825
 30
0.0
 10
89.3994117578
 20
163.4453614733
 30
0.0
 10
89.3977323108
 20
163.4446346789
 30
0.0
  0
SPLINE
  5
6DD
100
AcDbEntity
  8
7_ALL_ROUNDS
100
AcDbSpline
 62
7
  6
CONTINUOUS
 70
0
 71
3
 72
9
 73
5
 74
0
 42
0.0000001
 43
0.0000001
 44
0.0000000001
 40
0.0
 40
0.0
 40
0.0
 40
0.0
 40
0.4625152614
 40
1.0
 40
1.0
 40
1.0
 40
1.0
 10
89.3977323108
 20
163.4446346789
 30
0.0
 10
89.3959554937
 20
163.4438657468
 30
0.0
 10
89.3922443728
 20
163.4418977906
 30
0.0
 10
89.3887970428
 20
163.439509356
 30
0.0
 10
89.3870054963
 20
163.4381483565
 30
0.0
  0
SPLINE
  5
6DE
100
AcDbEntity
  8
7_ALL_ROUNDS
100
AcDbSpline
 62
7
  6
CONTINUOUS
 70
0
 71
3
 72
14
 73
10
 74
0
 42
0.0000001
 43
0.0000001
 44
0.0000000001
 40
0.0
 40
0.0
 40
0.0
 40
0.0
 40
0.379406615
 40
0.5508595416
 40
0.7012357034
 40
0.8248400676
 40
0.917136569
 40
0.9751746997
 40
1.0
 40
1.0
 40
1.0
 40
1.0
 10
85.2619609223
 20
160.5839410017
 30
0.0
 10
84.5908390885
 20
160.5839410017
 30
0.0
 10
83.6158389152
 20
160.5996027299
 30
0.0
 10
82.3777132663
 20
160.6555777244
 30
0.0
 10
81.5890848151
 20
160.7114767079
 30
0.0
 10
80.9513967891
 20
160.7741252482
 30
0.0
 10
80.4551691468
 20
160.8548410277
 30
0.0
 10
80.1857583005
 20
160.9147957669
 30
0.0
 10
80.0139213551
 20
160.9993881372
 30
0.0
 10
80.0162241065
 20
161.0432405032
 30
0.0
  0
SPLINE
  5
6DF
100
AcDbEntity
  8
7_ALL_ROUNDS
100
AcDbSpline
 62
7
  6
CONTINUOUS
 70
0
 71
3
 72
17
 73
13
 74
0
 42
0.0000001
 43
0.0000001
 44
0.0000000001
 40
0.0
 40
0.0
 40
0.0
 40
0.0
 40
0.4307431883
 40
0.6131092605
 40
0.758213403
 40
0.8575650657
 40
0.8884720695
 40
0.9069958953
 40
0.9169522892
 40
0.9324044751
 40
0.9598570405
 40
1.0
 40
1.0
 40
1.0
 40
1.0
 10
85.2619609223
 20
163.0599056466
 30
0.0
 10
84.7409891669
 20
163.0599056466
 30
0.0
 10
83.999919323
 20
163.0746314778
 30
0.0
 10
83.0827696788
 20
163.1276216239
 30
0.0
 10
82.5720113851
 20
163.1804707101
 30
0.0
 10
82.2362406243
 20
163.2263544827
 30
0.0
 10
82.0699466029
 20
163.2820716677
 30
0.0
 10
81.9961525535
 20
163.3074652067
 30
0.0
 10
81.9812178369
 20
163.3689878829
 30
0.0
 10
82.0500403485
 20
163.4026401224
 30
0.0
 10
82.1382356563
 20
163.4342356048
 30
0.0
 10
82.2206839146
 20
163.4519962856
 30
0.0
 10
82.2683282697
 20
163.4613392331
 30
0.0
  0
SPLINE
  5
6E0
100
AcDbEntity
  8
0
100
AcDbSpline
 62
7
  6
CONTINUOUS
 70
0
 71
3
 72
11
 73
7
 74
0
 42
0.0000001
 43
0.0000001
 44
0.0000000001
 40
0.0
 40
0.0
 40
0.0
 40
0.0
 40
0.0976815337
 40
0.3141687091
 40
0.6298423251
 40
1.0
 40
1.0
 40
1.0
 40
1.0
 10
82.8471841516
 20
157.5730524565
 30
0.0
 10
82.8471841516
 20
157.4917113025
 30
0.0
 10
83.1549046097
 20
157.3494403087
 30
0.0
 10
83.6160730398
 20
157.2580293114
 30
0.0
 10
84.3895194205
 20
157.1693133242
 30
0.0
 10
84.9537240293
 20
157.1537308708
 30
0.0
 10
85.2619609223
 20
157.1537308708
 30
0.0
  0
SPLINE
  5
6E1
100
AcDbEntity
  8
0
100
AcDbSpline
 62
7
  6
CONTINUOUS
 70
0
 71
3
 72
11
 73
7
 74
0
 42
0.0000001
 43
0.0000001
 44
0.0000000001
 40
0.0
 40
0.0
 40
0.0
 40
0.0
 40
0.2488423371
 40
0.4982757151
 40
0.748876952
 40
1.0
 40
1.0
 40
1.0
 40
1.0
 10
75.6297879304
 20
149.6923029797
 30
0.0
 10
76.1368642657
 20
150.2107714906
 30
0.0
 10
77.152855156
 20
151.2480151431
 30
0.0
 10
78.6837636142
 20
152.8049041047
 30
0.0
 10
80.2326246769
 20
154.3469515561
 30
0.0
 10
81.2994540246
 20
155.3603753946
 30
0.0
 10
81.9012906554
 20
155.776804936
 30
0.0
  0
SPLINE
  5
6E2
100
AcDbEntity
  8
0
100
AcDbSpline
 62
7
  6
CONTINUOUS
 70
0
 71
3
 72
9
 73
5
 74
0
 42
0.0000001
 43
0.0000001
 44
0.0000000001
 40
0.0
 40
0.0
 40
0.0
 40
0.0
 40
0.2489409352
 40
1.0
 40
1.0
 40
1.0
 40
1.0
 10
71.6854631778
 20
146.7060100155
 30
0.0
 10
72.2630806052
 20
147.2512616464
 30
0.0
 10
74.583564453
 20
149.4413484151
 30
0.0
 10
76.8991075146
 20
151.6366900995
 30
0.0
 10
78.6467046459
 20
153.276500734
 30
0.0
  0
SPLINE
  5
6E3
100
AcDbEntity
  8
0
100
AcDbSpline
 62
7
  6
CONTINUOUS
 70
0
 71
3
 72
10
 73
6
 74
0
 42
0.0000001
 43
0.0000001
 44
0.0000000001
 40
0.0
 40
0.0
 40
0.0
 40
0.0
 40
0.3061530775
 40
0.5871109205
 40
1.0
 40
1.0
 40
1.0
 40
1.0
 10
89.8359741855
 20
162.629381208
 30
0.0
 10
89.851639441
 20
162.6124991097
 30
0.0
 10
89.8404969194
 20
162.5507830356
 30
0.0
 10
89.7680412026
 20
162.5227184546
 30
0.0
 10
89.7207685938
 20
162.5020941579
 30
0.0
 10
89.6912010634
 20
162.4925824383
 30
0.0
  0
SPLINE
  5
6E4
100
AcDbEntity
  8
7_ALL_ROUNDS
100
AcDbSpline
 62
7
  6
CONTINUOUS
 70
0
 71
3
 72
9
 73
5
 74
0
 42
0.0000001
 43
0.0000001
 44
0.0000000001
 40
0.0
 40
0.0
 40
0.0
 40
0.0
 40
0.5010662745
 40
1.0
 40
1.0
 40
1.0
 40
1.0
 10
89.4303552674
 20
163.3554624097
 30
0.0
 10
89.4304853818
 20
163.3577592112
 30
0.0
 10
89.4305793944
 20
163.3623538448
 30
0.0
 10
89.4303368628
 20
163.3669437072
 30
0.0
 10
89.4301242221
 20
163.3692245095
 30
0.0
  0
SPLINE
  5
6E5
100
AcDbEntity
  8
7_ALL_ROUNDS
100
AcDbSpline
 62
7
  6
CONTINUOUS
 70
0
 71
3
 72
9
 73
5
 74
0
 42
0.0000001
 43
0.0000001
 44
0.0000000001
 40
0.0
 40
0.0
 40
0.0
 40
0.0
 40
0.5631549079
 40
1.0
 40
1.0
 40
1.0
 40
1.0
 10
89.4301242221
 20
163.3692245095
 30
0.0
 10
89.4293792434
 20
163.3772152106
 30
0.0
 10
89.4273514327
 20
163.3918275218
 30
0.0
 10
89.4138833764
 20
163.40230515
 30
0.0
 10
89.4076580267
 20
163.40230515
 30
0.0
  0
SPLINE
  5
6E6
100
AcDbEntity
  8
7_ALL_ROUNDS
100
AcDbSpline
 62
7
  6
CONTINUOUS
 70
0
 71
3
 72
9
 73
5
 74
0
 42
0.0000001
 43
0.0000001
 44
0.0000000001
 40
0.0
 40
0.0
 40
0.0
 40
0.0
 40
0.4639107077
 40
1.0
 40
1.0
 40
1.0
 40
1.0
 10
89.4076580267
 20
163.40230515
 30
0.0
 10
89.4060744464
 20
163.40230515
 30
0.0
 10
89.4026555904
 20
163.4018639422
 30
0.0
 10
89.3994117578
 20
163.4007377331
 30
0.0
 10
89.3977323108
 20
163.4000109386
 30
0.0
  0
SPLINE
  5
6E7
100
AcDbEntity
  8
7_ALL_ROUNDS
100
AcDbSpline
 62
7
  6
CONTINUOUS
 70
0
 71
3
 72
9
 73
5
 74
0
 42
0.0000001
 43
0.0000001
 44
0.0000000001
 40
0.0
 40
0.0
 40
0.0
 40
0.0
 40
0.4625152614
 40
1.0
 40
1.0
 40
1.0
 40
1.0
 10
89.3977323108
 20
163.4000109386
 30
0.0
 10
89.3959554937
 20
163.3992420065
 30
0.0
 10
89.3922443728
 20
163.3972740503
 30
0.0
 10
89.3887970428
 20
163.3948856157
 30
0.0
 10
89.3870054963
 20
163.3935246162
 30
0.0
  0
SPLINE
  5
6E8
100
AcDbEntity
  8
7_ALL_ROUNDS
100
AcDbSpline
 62
7
  6
CONTINUOUS
 70
0
 71
3
 72
8
 73
4
 74
0
 42
0.0000001
 43
0.0000001
 44
0.0000000001
 40
0.0
 40
0.0
 40
0.0
 40
0.0
 40
1.0
 40
1.0
 40
1.0
 40
1.0
 10
88.2555935712
 20
163.461339233
 30
0.0
 10
88.2848646751
 20
163.4555992374
 30
0.0
 10
88.3140536453
 20
163.4493864666
 30
0.0
 10
88.3430493962
 20
163.4423870732
 30
0.0
  0
SPLINE
  5
6E9
100
AcDbEntity
  8
7_ALL_ROUNDS
100
AcDbSpline
 62
7
  6
CONTINUOUS
 70
0
 71
3
 72
18
 73
14
 74
0
 42
0.0000001
 43
0.0000001
 44
0.0000000001
 40
0.0
 40
0.0
 40
0.0
 40
0.0
 40
0.0326704699
 40
0.0533979781
 40
0.0643572318
 40
0.0769196266
 40
0.1001746952
 40
0.1354649469
 40
0.1827370774
 40
0.2414496847
 40
0.3900292687
 40
0.5730825949
 40
1.0
 40
1.0
 40
1.0
 40
1.0
 10
88.3430493962
 20
163.4423870732
 30
0.0
 10
88.3805202004
 20
163.4333418549
 30
0.0
 10
88.4409723759
 20
163.4140562293
 30
0.0
 10
88.5120568455
 20
163.3903151269
 30
0.0
 10
88.5487138425
 20
163.3386112429
 30
0.0
 10
88.4968353774
 20
163.2952268705
 30
0.0
 10
88.422213857
 20
163.2691174009
 30
0.0
 10
88.2991499353
 20
163.2361813796
 30
0.0
 10
88.1358587307
 20
163.2072429561
 30
0.0
 10
87.8378800606
 20
163.1657747201
 30
0.0
 10
87.379256164
 20
163.1243625369
 30
0.0
 10
86.485533775
 20
163.0730565961
 30
0.0
 10
85.7656701778
 20
163.0599056466
 30
0.0
 10
85.2619609223
 20
163.0599056466
 30
0.0
  0
SPLINE
  5
6EA
100
AcDbEntity
  8
0
100
AcDbSpline
 62
7
  6
CONTINUOUS
 70
0
 71
3
 72
10
 73
6
 74
0
 42
0.0000001
 43
0.0000001
 44
0.0000000001
 40
0.0
 40
0.0
 40
0.0
 40
0.0
 40
0.094013625
 40
0.2861908804
 40
1.0
 40
1.0
 40
1.0
 40
1.0
 10
90.6616698914
 20
158.1164725969
 30
0.0
 10
90.6631305905
 20
158.088655834
 30
0.0
 10
90.5834502271
 20
158.0228299741
 30
0.0
 10
90.3139091747
 20
157.9408555881
 30
0.0
 10
90.0399041159
 20
157.8923904603
 30
0.0
 10
89.8304049739
 20
157.8634186767
 30
0.0
  0
SPLINE
  5
6EB
100
AcDbEntity
  8
0
100
AcDbSpline
 62
7
  6
CONTINUOUS
 70
0
 71
3
 72
9
 73
5
 74
0
 42
0.0000001
 43
0.0000001
 44
0.0000000001
 40
0.0
 40
0.0
 40
0.0
 40
0.0
 40
0.2142883676
 40
1.0
 40
1.0
 40
1.0
 40
1.0
 10
89.8304049739
 20
157.8634186767
 30
0.0
 10
89.7437136958
 20
157.8514300789
 30
0.0
 10
89.3384026469
 20
157.800967125
 30
0.0
 10
88.9311809528
 20
157.7672116951
 30
0.0
 10
88.6110523099
 20
157.7451479895
 30
0.0
  0
LINE
  5
6EC
100
AcDbEntity
  8
0
100
AcDbLine
 62
7
  6
CONTINUOUS
 10
88.6110523099
 20
157.7451479895
 11
88.5980480724
 21
157.7442545422
  0
SPLINE
  5
6ED
100
AcDbEntity
  8
0
100
AcDbSpline
 62
7
  6
CONTINUOUS
 70
0
 71
3
 72
9
 73
5
 74
0
 42
0.0000001
 43
0.0000001
 44
0.0000000001
 40
0.0
 40
0.0
 40
0.0
 40
0.0
 40
0.2489435554
 40
1.0
 40
1.0
 40
1.0
 40
1.0
 10
98.8384588629
 20
146.7060098272
 30
0.0
 10
98.2614260921
 20
147.2507095542
 30
0.0
 10
95.9433191878
 20
149.438560542
 30
0.0
 10
93.6301144194
 20
151.6316250979
 30
0.0
 10
91.8843565811
 20
153.2698019085
 30
0.0
  0
SPLINE
  5
6EE
100
AcDbEntity
  8
7_ALL_ROUNDS
100
AcDbSpline
 62
7
  6
CONTINUOUS
 70
0
 71
3
 72
14
 73
10
 74
0
 42
0.0000001
 43
0.0000001
 44
0.0000000001
 40
0.0
 40
0.0
 40
0.0
 40
0.0
 40
0.0248253017
 40
0.0828634324
 40
0.1751599354
 40
0.2987643034
 40
0.449140464
 40
0.620593393
 40
1.0
 40
1.0
 40
1.0
 40
1.0
 10
90.5076977381
 20
161.0432405032
 30
0.0
 10
90.5100004891
 20
160.9993881346
 30
0.0
 10
90.338163536
 20
160.9147957687
 30
0.0
 10
90.0687526886
 20
160.8548410211
 30
0.0
 10
89.5725250339
 20
160.7741252484
 30
0.0
 10
88.9348370019
 20
160.7114767035
 30
0.0
 10
88.1462085415
 20
160.655577723
 30
0.0
 10
86.9080829051
 20
160.5996027288
 30
0.0
 10
85.9330827418
 20
160.5839410017
 30
0.0
 10
85.2619609223
 20
160.5839410017
 30
0.0
  0
SPLINE
  5
6EF
100
AcDbEntity
  8
0
100
AcDbSpline
 62
7
  6
CONTINUOUS
 70
0
 71
3
 72
11
 73
7
 74
0
 42
0.0000001
 43
0.0000001
 44
0.0000000001
 40
0.0
 40
0.0
 40
0.0
 40
0.0
 40
0.2488429255
 40
0.4982768885
 40
0.748878749
 40
1.0
 40
1.0
 40
1.0
 40
1.0
 10
94.8941346701
 20
149.6923022245
 30
0.0
 10
94.3870559039
 20
150.2107732331
 30
0.0
 10
93.3710641521
 20
151.2480272867
 30
0.0
 10
91.8401302248
 20
152.8048993342
 30
0.0
 10
90.2913334882
 20
154.3470398046
 30
0.0
 10
89.2243350218
 20
155.3602359229
 30
0.0
 10
88.6225775543
 20
155.7767737882
 30
0.0
  0
SPLINE
  5
6F0
100
AcDbEntity
  8
0
100
AcDbSpline
 62
7
  6
CONTINUOUS
 70
0
 71
3
 72
9
 73
5
 74
0
 42
0.0000001
 43
0.0000001
 44
0.0000000001
 40
0.0
 40
0.0
 40
0.0
 40
0.0
 40
0.2713825009
 40
1.0
 40
1.0
 40
1.0
 40
1.0
 10
88.2874846027
 20
154.9097763751
 30
0.0
 10
88.2744816626
 20
154.9848825268
 30
0.0
 10
88.235517784
 20
155.2632563002
 30
0.0
 10
88.2224276066
 20
155.5441777217
 30
0.0
 10
88.2011882557
 20
155.7477199656
 30
0.0
  0
SPLINE
  5
6F1
100
AcDbEntity
  8
7_ALL_ROUNDS
100
AcDbSpline
 62
7
  6
CONTINUOUS
 70
0
 71
3
 72
9
 73
5
 74
0
 42
0.0000001
 43
0.0000001
 44
0.0000000001
 40
0.0
 40
0.0
 40
0.0
 40
0.0
 40
0.5010662745
 40
1.0
 40
1.0
 40
1.0
 40
1.0
 10
89.4303552674
 20
163.3108386694
 30
0.0
 10
89.4304853818
 20
163.313135471
 30
0.0
 10
89.4305793944
 20
163.3177301045
 30
0.0
 10
89.4303368628
 20
163.3223199669
 30
0.0
 10
89.4301242221
 20
163.3246007692
 30
0.0
  0
SPLINE
  5
6F2
100
AcDbEntity
  8
7_ALL_ROUNDS
100
AcDbSpline
 62
7
  6
CONTINUOUS
 70
0
 71
3
 72
9
 73
5
 74
0
 42
0.0000001
 43
0.0000001
 44
0.0000000001
 40
0.0
 40
0.0
 40
0.0
 40
0.0
 40
0.5631549079
 40
1.0
 40
1.0
 40
1.0
 40
1.0
 10
89.4301242221
 20
163.3246007692
 30
0.0
 10
89.4293792434
 20
163.3325914703
 30
0.0
 10
89.4273514327
 20
163.3472037815
 30
0.0
 10
89.4138833764
 20
163.3576814097
 30
0.0
 10
89.4076580267
 20
163.3576814097
 30
0.0
  0
SPLINE
  5
6F3
100
AcDbEntity
  8
7_ALL_ROUNDS
100
AcDbSpline
 62
7
  6
CONTINUOUS
 70
0
 71
3
 72
9
 73
5
 74
0
 42
0.0000001
 43
0.0000001
 44
0.0000000001
 40
0.0
 40
0.0
 40
0.0
 40
0.0
 40
0.4243679725
 40
1.0
 40
1.0
 40
1.0
 40
1.0
 10
89.4076580267
 20
163.3576814097
 30
0.0
 10
89.4044432715
 20
163.3576814097
 30
0.0
 10
89.3968950384
 20
163.3556904395
 30
0.0
 10
89.3904778109
 20
163.3515387188
 30
0.0
 10
89.3870054963
 20
163.348900876
 30
0.0
  0
SPLINE
  5
6F4
100
AcDbEntity
  8
0
100
AcDbSpline
 62
7
  6
CONTINUOUS
 70
0
 71
3
 72
9
 73
5
 74
0
 42
0.0000001
 43
0.0000001
 44
0.0000000001
 40
0.0
 40
0.0
 40
0.0
 40
0.0
 40
0.2709805267
 40
1.0
 40
1.0
 40
1.0
 40
1.0
 10
82.2398101721
 20
154.9293799661
 30
0.0
 10
82.2521235129
 20
155.0026568829
 30
0.0
 10
82.2886975711
 20
155.2746040914
 30
0.0
 10
82.3023573784
 20
155.5487469942
 30
0.0
 10
82.3227939679
 20
155.7476005356
 30
0.0
  0
SPLINE
  5
6F5
100
AcDbEntity
  8
0
100
AcDbSpline
 62
7
  6
CONTINUOUS
 70
0
 71
3
 72
15
 73
11
 74
0
 42
0.0000001
 43
0.0000001
 44
0.0000000001
 40
0.0
 40
0.0
 40
0.0
 40
0.0
 40
0.0488421843
 40
0.1570851616
 40
0.3149367264
 40
0.5
 40
0.6850632736
 40
0.8429148384
 40
0.9511578157
 40
1.0
 40
1.0
 40
1.0
 40
1.0
 10
82.3819609223
 20
157.5730524565
 30
0.0
 10
82.3819609223
 20
157.4760373572
 30
0.0
 10
82.7489332769
 20
157.3063329491
 30
0.0
 10
83.2991882323
 20
157.1973446684
 30
0.0
 10
84.2204530725
 20
157.0915361808
 30
0.0
 10
85.2619609223
 20
157.0629128513
 30
0.0
 10
86.3034687721
 20
157.0915361808
 30
0.0
 10
87.2247336123
 20
157.1973446684
 30
0.0
 10
87.7749885677
 20
157.3063329491
 30
0.0
 10
88.1419609223
 20
157.4760373572
 30
0.0
 10
88.1419609223
 20
157.5730524565
 30
0.0
  0
SPLINE
  5
6F6
100
AcDbEntity
  8
0
100
AcDbSpline
 62
7
  6
CONTINUOUS
 70
0
 71
3
 72
13
 73
9
 74
0
 42
0.0000001
 43
0.0000001
 44
0.0000000001
 40
0.0
 40
0.0
 40
0.0
 40
0.0
 40
0.0295041897
 40
0.1050647904
 40
0.2220717375
 40
0.3705235405
 40
0.7076959034
 40
1.0
 40
1.0
 40
1.0
 40
1.0
 10
80.6961018568
 20
157.7599513654
 30
0.0
 10
80.696155999
 20
157.7513557503
 30
0.0
 10
80.7382159532
 20
157.7433146952
 30
0.0
 10
80.791356685
 20
157.7326256214
 30
0.0
 10
80.8959424299
 20
157.7245955382
 30
0.0
 10
81.0686081504
 20
157.7160659177
 30
0.0
 10
81.2968321694
 20
157.7153495094
 30
0.0
 10
81.4799100523
 20
157.7224447868
 30
0.0
 10
81.5646878778
 20
157.7305060418
 30
0.0
  0
SPLINE
  5
6F7
100
AcDbEntity
  8
0
100
AcDbSpline
 62
7
  6
CONTINUOUS
 70
0
 71
3
 72
9
 73
5
 74
0
 42
0.0000001
 43
0.0000001
 44
0.0000000001
 40
0.0
 40
0.0
 40
0.0
 40
0.0
 40
0.3445526853
 40
1.0
 40
1.0
 40
1.0
 40
1.0
 10
80.69612153
 20
157.4082417175
 30
0.0
 10
80.6961310062
 20
157.4060442197
 30
0.0
 10
80.7016116389
 20
157.4008775232
 30
0.0
 10
80.7073573645
 20
157.3989388895
 30
0.0
 10
80.7113087432
 20
157.3975743039
 30
0.0
  0
SPLINE
  5
6F8
100
AcDbEntity
  8
0
100
AcDbSpline
 62
7
  6
CONTINUOUS
 70
0
 71
3
 72
11
 73
7
 74
0
 42
0.0000001
 43
0.0000001
 44
0.0000000001
 40
0.0
 40
0.0
 40
0.0
 40
0.0
 40
0.3701576749
 40
0.6858312909
 40
0.9023184663
 40
1.0
 40
1.0
 40
1.0
 40
1.0
 10
85.2619609223
 20
157.1537308708
 30
0.0
 10
85.5701978153
 20
157.1537308708
 30
0.0
 10
86.1344024241
 20
157.1693133242
 30
0.0
 10
86.9078488048
 20
157.2580293114
 30
0.0
 10
87.3690172349
 20
157.3494403087
 30
0.0
 10
87.676737693
 20
157.4917113025
 30
0.0
 10
87.676737693
 20
157.5730524565
 30
0.0
  0
SPLINE
  5
6F9
100
AcDbEntity
  8
7_ALL_ROUNDS
100
AcDbSpline
 62
7
  6
CONTINUOUS
 70
0
 71
3
 72
9
 73
5
 74
0
 42
0.0000001
 43
0.0000001
 44
0.0000000001
 40
0.0
 40
0.0
 40
0.0
 40
0.0
 40
0.5010662745
 40
1.0
 40
1.0
 40
1.0
 40
1.0
 10
89.4303552674
 20
163.2664763964
 30
0.0
 10
89.4304853818
 20
163.2687731979
 30
0.0
 10
89.4305793944
 20
163.2733678314
 30
0.0
 10
89.4303368628
 20
163.2779576938
 30
0.0
 10
89.4301242221
 20
163.2802384961
 30
0.0
  0
SPLINE
  5
6FA
100
AcDbEntity
  8
7_ALL_ROUNDS
100
AcDbSpline
 62
7
  6
CONTINUOUS
 70
0
 71
3
 72
9
 73
5
 74
0
 42
0.0000001
 43
0.0000001
 44
0.0000000001
 40
0.0
 40
0.0
 40
0.0
 40
0.0
 40
0.5015194428
 40
1.0
 40
1.0
 40
1.0
 40
1.0
 10
89.4301242221
 20
163.2802384961
 30
0.0
 10
89.4291420406
 20
163.2907734537
 30
0.0
 10
89.4241244336
 20
163.3183654989
 30
0.0
 10
89.3953796577
 20
163.3109002735
 30
0.0
 10
89.3870054963
 20
163.3045386029
 30
0.0
  0
SPLINE
  5
6FB
100
AcDbEntity
  8
0
100
AcDbSpline
 62
7
  6
CONTINUOUS
 70
0
 71
3
 72
11
 73
7
 74
0
 42
0.0000001
 43
0.0000001
 44
0.0000000001
 40
0.0
 40
0.0
 40
0.0
 40
0.0
 40
0.0900131307
 40
0.2834370113
 40
0.5885541001
 40
1.0
 40
1.0
 40
1.0
 40
1.0
 10
79.5119609221
 20
158.1143147593
 30
0.0
 10
79.5119609221
 20
158.0773712471
 30
0.0
 10
79.6339147754
 20
158.0001726045
 30
0.0
 10
79.8498495402
 20
157.9423551991
 30
0.0
 10
80.2256933392
 20
157.8666998589
 30
0.0
 10
80.5146990511
 20
157.8305312867
 30
0.0
 10
80.6824635324
 20
157.8112653232
 30
0.0
  0
SPLINE
  5
6FC
100
AcDbEntity
  8
0
100
AcDbSpline
 62
7
  6
CONTINUOUS
 70
0
 71
3
 72
9
 73
5
 74
0
 42
0.0000001
 43
0.0000001
 44
0.0000000001
 40
0.0
 40
0.0
 40
0.0
 40
0.0
 40
0.6602798493
 40
1.0
 40
1.0
 40
1.0
 40
1.0
 10
81.8886798336
 20
157.3672989644
 30
0.0
 10
81.8760845844
 20
157.3692186983
 30
0.0
 10
81.8579210652
 20
157.3731078708
 30
0.0
 10
81.8377181571
 20
157.3781158076
 30
0.0
 10
81.8332943793
 20
157.382953268
 30
0.0
  0
SPLINE
  5
6FD
100
AcDbEntity
  8
0
100
AcDbSpline
 62
7
  6
CONTINUOUS
 70
0
 71
3
 72
8
 73
4
 74
0
 42
0.0000001
 43
0.0000001
 44
0.0000000001
 40
0.0
 40
0.0
 40
0.0
 40
0.0
 40
1.0
 40
1.0
 40
1.0
 40
1.0
 10
82.2558302635
 20
157.4030963662
 30
0.0
 10
82.2123876464
 20
157.4029615753
 30
0.0
 10
82.1687719408
 20
157.4022628976
 30
0.0
 10
82.1256415588
 20
157.3970620038
 30
0.0
  0
SPLINE
  5
6FE
100
AcDbEntity
  8
0
100
AcDbSpline
 62
7
  6
CONTINUOUS
 70
0
 71
3
 72
9
 73
5
 74
0
 42
0.0000001
 43
0.0000001
 44
0.0000000001
 40
0.0
 40
0.0
 40
0.0
 40
0.0
 40
0.7189884729
 40
1.0
 40
1.0
 40
1.0
 40
1.0
 10
82.1256415588
 20
157.3970620038
 30
0.0
 10
82.1176280033
 20
157.3960956861
 30
0.0
 10
82.1093243886
 20
157.3940654775
 30
0.0
 10
82.0934609223
 20
157.391584671
 30
0.0
 10
82.0934609223
 20
157.3884299408
 30
0.0
  0
SPLINE
  5
6FF
100
AcDbEntity
  8
0
100
AcDbSpline
 62
7
  6
CONTINUOUS
 70
0
 71
3
 72
9
 73
5
 74
0
 42
0.0000001
 43
0.0000001
 44
0.0000000001
 40
0.0
 40
0.0
 40
0.0
 40
0.0
 40
0.6602798493
 40
1.0
 40
1.0
 40
1.0
 40
1.0
 10
88.635242011
 20
157.3672989644
 30
0.0
 10
88.6478372602
 20
157.3692186983
 30
0.0
 10
88.6660007794
 20
157.3731078708
 30
0.0
 10
88.6862036875
 20
157.3781158076
 30
0.0
 10
88.6906274653
 20
157.382953268
 30
0.0
  0
SPLINE
  5
700
100
AcDbEntity
  8
0
100
AcDbSpline
 62
7
  6
CONTINUOUS
 70
0
 71
3
 72
13
 73
9
 74
0
 42
0.0000001
 43
0.0000001
 44
0.0000000001
 40
0.0
 40
0.0
 40
0.0
 40
0.0
 40
0.2410705599
 40
0.484067911
 40
0.6071807081
 40
0.7328587824
 40
0.864225454
 40
1.0
 40
1.0
 40
1.0
 40
1.0
 10
161.5666567835
 20
93.6289169944
 30
0.0
 10
162.3315750351
 20
94.2188245575
 30
0.0
 10
163.8680071303
 20
95.4028804354
 30
0.0
 10
165.7946508863
 20
96.8880285151
 30
0.0
 10
167.3494853757
 20
98.0998825555
 30
0.0
 10
168.533365672
 20
99.0550639813
 30
0.0
 10
169.7231052964
 20
100.100752039
 30
0.0
 10
170.2972235517
 20
101.0229673044
 30
0.0
 10
170.5417267608
 20
101.5089765152
 30
0.0
  0
SPLINE
  5
701
100
AcDbEntity
  8
0
100
AcDbSpline
 62
7
  6
CONTINUOUS
 70
0
 71
3
 72
14
 73
10
 74
0
 42
0.0000001
 43
0.0000001
 44
0.0000000001
 40
0.0
 40
0.0
 40
0.0
 40
0.0
 40
0.2592766804
 40
0.5176113379
 40
0.645879086
 40
0.772496722
 40
0.8941298337
 40
0.9501259132
 40
1.0
 40
1.0
 40
1.0
 40
1.0
 10
161.5667446106
 20
98.3608038038
 30
0.0
 10
162.319603197
 20
98.7101666774
 30
0.0
 10
163.8252907845
 20
99.4019602882
 30
0.0
 10
165.7157574224
 20
100.2388781165
 30
0.0
 10
167.2365807804
 20
100.8624178156
 30
0.0
 10
168.3677174129
 20
101.2746819167
 30
0.0
 10
169.3139183841
 20
101.5354932734
 30
0.0
 10
170.0458000973
 20
101.5633691328
 30
0.0
 10
170.3825060267
 20
101.5207014338
 30
0.0
 10
170.5417267608
 20
101.5089765152
 30
0.0
  0
SPLINE
  5
702
100
AcDbEntity
  8
0
100
AcDbSpline
 62
7
  6
CONTINUOUS
 70
0
 71
3
 72
15
 73
11
 74
0
 42
0.0000001
 43
0.0000001
 44
0.0000000001
 40
0.0
 40
0.0
 40
0.0
 40
0.0
 40
0.2588145586
 40
0.5166866053
 40
0.644756779
 40
0.7712938865
 40
0.8332839865
 40
0.8933883512
 40
0.9498756586
 40
1.0
 40
1.0
 40
1.0
 40
1.0
 10
161.5668043167
 20
106.7592162748
 30
0.0
 10
162.3045435578
 20
106.5796717478
 30
0.0
 10
163.7786612704
 20
106.2267756926
 30
0.0
 10
165.6240608486
 20
105.8107063557
 30
0.0
 10
167.0990563674
 20
105.5191557941
 30
0.0
 10
168.016214148
 20
105.3700834218
 30
0.0
 10
168.7427620739
 20
105.2980363651
 30
0.0
 10
169.2666884121
 20
105.2901707012
 30
0.0
 10
169.7574151138
 20
105.3429666478
 30
0.0
 10
170.0499805574
 20
105.460100817
 30
0.0
 10
170.1930911872
 20
105.493899356
 30
0.0
  0
SPLINE
  5
703
100
AcDbEntity
  8
0
100
AcDbSpline
 62
7
  6
CONTINUOUS
 70
0
 71
3
 72
14
 73
10
 74
0
 42
0.0000001
 43
0.0000001
 44
0.0000000001
 40
0.0
 40
0.0
 40
0.0
 40
0.0
 40
0.2413988937
 40
0.4849630383
 40
0.6085937754
 40
0.7350945106
 40
0.8664990236
 40
0.9333827634
 40
1.0
 40
1.0
 40
1.0
 40
1.0
 10
161.5666933327
 20
110.933820497
 30
0.0
 10
162.2998329137
 20
110.5496524925
 30
0.0
 10
163.7725555117
 20
109.7775387929
 30
0.0
 10
165.6193310091
 20
108.8063470695
 30
0.0
 10
167.1081184246
 20
107.999976786
 30
0.0
 10
168.2445356085
 20
107.3538180578
 30
0.0
 10
169.1644238376
 20
106.7131509967
 30
0.0
 10
169.7920585234
 20
106.051276709
 30
0.0
 10
170.0576287758
 20
105.6778086137
 30
0.0
 10
170.1930911871
 20
105.4938993573
 30
0.0
  0
ENDSEC
  0
SECTION
  2
OBJECTS
  0
DICTIONARY
  5
C
100
AcDbDictionary
280
0
281
1
  3
ACAD_GROUP
350
D
  3
ACAD_MLINESTYLE
350
17
  3
ACAD_LAYOUT
350
1A
  3
ACAD_PLOTSETTINGS
350
19
  3
ACAD_PLOTSTYLENAME
350
E
  0
DICTIONARY
  5
D
102
{ACAD_REACTORS
330
C
102
}
100
AcDbDictionary
280
0
281
1
  0
ACDBDICTIONARYWDFLT
  5
E
102
{ACAD_REACTORS
330
C
102
}
100
AcDbDictionary
281
1
  3
Normal
350
F
100
AcDbDictionaryWithDefault
340
F
  0
DICTIONARY
  5
17
102
{ACAD_REACTORS
330
C
102
}
100
AcDbDictionary
280
0
281
1
  3
Standard
350
18
  0
DICTIONARY
  5
19
102
{ACAD_REACTORS
330
C
102
}
100
AcDbDictionary
281
1
  0
DICTIONARY
  5
1A
102
{ACAD_REACTORS
330
C
102
}
100
AcDbDictionary
281
1
  3
Model
350
704
  3
Layout1
350
705
  0
ACDBPLACEHOLDER
  5
F
102
{ACAD_REACTORS
330
E
102
}
  0
MLINESTYLE
  5
18
102
{ACAD_REACTORS
330
17
102
}
100
AcDbMlineStyle
  2
STANDARD
 70
0
  3

 62
256
 51
90.0
 52
90.0
 71
2
 49
0.5
 62
256
  6
BYLAYER
 49
-0.5
 62
256
  6
BYLAYER
  0
LAYOUT
  5
704
102
{ACAD_REACTORS
330
1A
102
}
100
AcDbPlotSettings
  1

  2
none_device
  4
ANSI_D_(34.00_x_22.00_Inches)
  6

 40
0.0
 41
0.0
 42
0.0
 43
0.0
 44
863.6
 45
558.8
 46
0.0
 47
0.0
 48
0.0
 49
0.0
140
0.0
141
0.0
142
1.0
143
1.0
 70
1024
 72
0
 73
0
 74
0
  7

 75
0
147
1.0
148
0.0
149
0.0
100
AcDbLayout
  1
Model
 70
0
 71
0
 10
0.0
 20
0.0
 11
34.0
 21
22.0
 12
0.0
 22
0.0
 32
0.0
 14
0.0
 24
0.0
 34
0.0
 15
0.0
 25
0.0
 35
0.0
146
0.0
 13
0.0
 23
0.0
 33
0.0
 16
1.0
 26
0.0
 36
0.0
 17
0.0
 27
1.0
 37
0.0
 76
0
330
210
345
0
346
0
  0
LAYOUT
  5
705
102
{ACAD_REACTORS
330
1A
102
}
100
AcDbPlotSettings
  1

  2
none_device
  4
ANSI_D_(34.00_x_22.00_Inches)
  6

 40
0.0
 41
0.0
 42
0.0
 43
0.0
 44
863.6
 45
558.8
 46
0.0
 47
0.0
 48
0.0
 49
0.0
140
0.0
141
0.0
142
1.0
143
1.0
 70
0
 72
0
 73
0
 74
0
  7

 75
0
147
1.0
148
0.0
149
0.0
100
AcDbLayout
  1
Layout1
 70
0
 71
1
 10
0.0
 20
0.0
 11
34.0
 21
22.0
 12
0.0
 22
0.0
 32
0.0
 14
0.0
 24
0.0
 34
0.0
 15
0.0
 25
0.0
 35
0.0
146
0.0
 13
0.0
 23
0.0
 33
0.0
 16
1.0
 26
0.0
 36
0.0
 17
0.0
 27
1.0
 37
0.0
 76
0
330
211
345
0
346
0
  0
ENDSEC
  0
EOF
