999
DXF file: fg-020008-2d.dxf
999
Pro/ENGINEER 2010370 by Parametric Technology Corporation
  0
SECTION
  2
HEADER
  9
$ACADVER
  1
AC1015
  9
$DWGCODEPAGE
  3
ANSI_1252
  9
$EXTMAX
 10
212.5
 20
137.5
 30
0.0
  9
$EXTMIN
 10
0.0
 20
0.0
 30
0.0
  9
$LIMMIN
 10
0.0
 20
0.0
  9
$LIMMAX
 10
212.5
 20
137.5
  9
$VIEWCTR
 10
106.25
 20
68.75
  9
$VIEWSIZE
 40
137.5
  9
$CLAYER
  8
0
  9
$LTSCALE
 40
11.6875
  9
$CELTYPE
  6
BYLAYER
  9
$DIMSCALE
 40
1.0
  9
$DIMASZ
 40
2.34375
  9
$DIMEXO
 40
1.328125
  9
$DIMDLI
 40
8.075
  9
$DIMEXE
 40
3.825
  9
$DIMCEN
 40
1.9125
  9
$DIMLFAC
 40
1.0
  9
$DIMBLK
  1
_FILLED
  9
$DIMTXT
 40
1.953125
  9
$DIMTOL
 70
1
  9
$DIMLIM
 70
0
  9
$DIMTFAC
 40
1.0
  9
$DIMTP
 40
0.01
  9
$DIMTM
 40
0.01
  9
$PDMODE
 70
3
  9
$PDSIZE
 40
0.3125
  9
$HANDSEED
  5
578
  9
$TILEMODE
 70
1
  9
$MEASUREMENT
 70
0
  9
$INSUNITS
 70
1
  0
ENDSEC
  0
SECTION
  2
CLASSES
  0
CLASS
  1
ACDBDICTIONARYWDFLT
  2
AcDbDictionaryWithDefault
  3
AutoCAD 2000
 90
0
280
0
281
0
  0
CLASS
  1
ACDBPLACEHOLDER
  2
AcDbPlaceHolder
  3
AutoCAD 2000
 90
0
280
0
281
0
  0
CLASS
  1
LAYOUT
  2
AcDbLayout
  3
AutoCAD 2000
 90
0
280
0
281
0
  0
ENDSEC
  0
SECTION
  2
TABLES
  0
TABLE
  2
VPORT
  5
8
100
AcDbSymbolTable
 70
2
  0
VPORT
  5
1F4
100
AcDbSymbolTableRecord
100
AcDbViewportTableRecord
  2
*ACTIVE
 70
0
 10
0.0
 20
0.0
 11
1.0
 21
1.0
 12
106.25
 22
68.75
 13
0.0
 23
0.0
 14
1.0
 24
1.0
 15
0.0
 25
0.0
 16
0.0
 26
0.0
 36
1.0
 17
0.0
 27
0.0
 37
0.0
 40
137.5
 41
1.5454545455
 42
50.0
 43
0.0
 44
0.0
 50
0.0
 51
0.0
 71
0
 72
100
 73
1
 74
1
 75
0
 76
0
 77
0
 78
0
  0
ENDTAB
  0
TABLE
  2
LTYPE
  5
5
100
AcDbSymbolTable
 70
6
  0
LTYPE
  5
14
100
AcDbSymbolTableRecord
100
AcDbLinetypeTableRecord
  2
BYBLOCK
 70
0
  3

 72
65
 73
0
 40
0.0
  0
LTYPE
  5
15
100
AcDbSymbolTableRecord
100
AcDbLinetypeTableRecord
  2
BYLAYER
 70
0
  3

 72
65
 73
0
 40
0.0
  0
LTYPE
  5
16
100
AcDbSymbolTableRecord
100
AcDbLinetypeTableRecord
  2
CONTINUOUS
 70
64
  3
Solid line
 72
65
 73
0
 40
0.0
  0
LTYPE
  5
1F5
100
AcDbSymbolTableRecord
100
AcDbLinetypeTableRecord
  2
CENTER
 70
64
  3
____ _ ____ _ ____ _ ____ _ ____ _ ____ _ ____
 72
65
 73
4
 40
0.6
 49
0.375
 74
0
 49
-0.075
 74
0
 49
0.075
 74
0
 49
-0.075
 74
0
  0
LTYPE
  5
1F6
100
AcDbSymbolTableRecord
100
AcDbLinetypeTableRecord
  2
HIDDEN
 70
64
  3
- - - - - - - - - - - - - - - - - - - -
 72
65
 73
2
 40
0.2
 49
0.1
 74
0
 49
-0.1
 74
0
  0
LTYPE
  5
1F7
100
AcDbSymbolTableRecord
100
AcDbLinetypeTableRecord
  2
PHANTOM
 70
64
  3
_____ _ _ _____ _ _ _____ _ _ _____
 72
65
 73
6
 40
0.8
 49
0.45
 74
0
 49
-0.05
 74
0
 49
0.1
 74
0
 49
-0.05
 74
0
 49
0.1
 74
0
 49
-0.05
 74
0
  0
LTYPE
  5
1F8
100
AcDbSymbolTableRecord
100
AcDbLinetypeTableRecord
  2
DOT
 70
64
  3
. . . . . . . . . . . . . . . . . . . .
 72
65
 73
2
 40
0.2
 49
0.1
 74
0
 49
-0.1
 74
0
  0
LTYPE
  5
1F9
100
AcDbSymbolTableRecord
100
AcDbLinetypeTableRecord
  2
DASHED
 70
64
  3
- - - - - - - - - - - - - - - - - - - -
 72
65
 73
2
 40
0.2
 49
0.1
 74
0
 49
-0.1
 74
0
  0
ENDTAB
  0
TABLE
  2
LAYER
  5
2
100
AcDbSymbolTable
 70
36
  0
LAYER
  5
10
100
AcDbSymbolTableRecord
100
AcDbLayerTableRecord
  2
0
 70
0
 62
7
  6
CONTINUOUS
370
-3
390
F
  0
LAYER
  5
1FA
100
AcDbSymbolTableRecord
100
AcDbLayerTableRecord
  2
DEFAULT_1
 70
0
 62
7
  6
CENTER
370
-3
390
F
  0
LAYER
  5
1FB
100
AcDbSymbolTableRecord
100
AcDbLayerTableRecord
  2
DEFAULT_2
 70
0
 62
8
  6
HIDDEN
370
-3
390
F
  0
LAYER
  5
1FC
100
AcDbSymbolTableRecord
100
AcDbLayerTableRecord
  2
DEFAULT_3
 70
0
 62
7
  6
PHANTOM
370
-3
390
F
  0
LAYER
  5
1FD
100
AcDbSymbolTableRecord
100
AcDbLayerTableRecord
  2
0_SNAPLINES
 70
0
 62
7
  6
CONTINUOUS
370
-3
390
F
  0
LAYER
  5
1FE
100
AcDbSymbolTableRecord
100
AcDbLayerTableRecord
  2
1_ALL_PLANES
 70
0
 62
7
  6
CONTINUOUS
370
-3
390
F
  0
LAYER
  5
1FF
100
AcDbSymbolTableRecord
100
AcDbLayerTableRecord
  2
1__DEF_PLANES
 70
0
 62
7
  6
CONTINUOUS
370
-3
390
F
  0
LAYER
  5
200
100
AcDbSymbolTableRecord
100
AcDbLayerTableRecord
  2
2_ALL_CSYS
 70
0
 62
7
  6
CONTINUOUS
370
-3
390
F
  0
LAYER
  5
201
100
AcDbSymbolTableRecord
100
AcDbLayerTableRecord
  2
2__DEF_CSYS
 70
0
 62
7
  6
CONTINUOUS
370
-3
390
F
  0
LAYER
  5
202
100
AcDbSymbolTableRecord
100
AcDbLayerTableRecord
  2
3_ALL_AXES
 70
0
 62
7
  6
CONTINUOUS
370
-3
390
F
  0
LAYER
  5
203
100
AcDbSymbolTableRecord
100
AcDbLayerTableRecord
  2
3_AXES_OTHER
 70
0
 62
7
  6
CONTINUOUS
370
-3
390
F
  0
LAYER
  5
204
100
AcDbSymbolTableRecord
100
AcDbLayerTableRecord
  2
3_HOLES
 70
0
 62
7
  6
CONTINUOUS
370
-3
390
F
  0
LAYER
  5
205
100
AcDbSymbolTableRecord
100
AcDbLayerTableRecord
  2
4_ALL_POINTS
 70
0
 62
7
  6
CONTINUOUS
370
-3
390
F
  0
LAYER
  5
206
100
AcDbSymbolTableRecord
100
AcDbLayerTableRecord
  2
5_ALL_CURVES
 70
0
 62
7
  6
CONTINUOUS
370
-3
390
F
  0
LAYER
  5
207
100
AcDbSymbolTableRecord
100
AcDbLayerTableRecord
  2
6_ALL_SURFS
 70
0
 62
7
  6
CONTINUOUS
370
-3
390
F
  0
LAYER
  5
208
100
AcDbSymbolTableRecord
100
AcDbLayerTableRecord
  2
6_COPYGEOM
 70
0
 62
7
  6
CONTINUOUS
370
-3
390
F
  0
LAYER
  5
209
100
AcDbSymbolTableRecord
100
AcDbLayerTableRecord
  2
7_ALL_ROUNDS
 70
0
 62
7
  6
CONTINUOUS
370
-3
390
F
  0
LAYER
  5
20A
100
AcDbSymbolTableRecord
100
AcDbLayerTableRecord
  2
7_MERGES
 70
0
 62
7
  6
CONTINUOUS
370
-3
390
F
  0
LAYER
  5
20B
100
AcDbSymbolTableRecord
100
AcDbLayerTableRecord
  2
8_GDT
 70
0
 62
7
  6
CONTINUOUS
370
-3
390
F
  0
LAYER
  5
20C
100
AcDbSymbolTableRecord
100
AcDbLayerTableRecord
  2
8_SET_DATUMS
 70
0
 62
7
  6
CONTINUOUS
370
-3
390
F
  0
LAYER
  5
20D
100
AcDbSymbolTableRecord
100
AcDbLayerTableRecord
  2
9_COSMETICS
 70
0
 62
7
  6
CONTINUOUS
370
-3
390
F
  0
LAYER
  5
20E
100
AcDbSymbolTableRecord
100
AcDbLayerTableRecord
  2
9_THREADS
 70
0
 62
7
  6
CONTINUOUS
370
-3
390
F
  0
ENDTAB
  0
TABLE
  2
STYLE
  5
3
100
AcDbSymbolTable
 70
1
  0
STYLE
  5
11
100
AcDbSymbolTableRecord
100
AcDbTextStyleTableRecord
  2
STANDARD
 70
0
 40
0.0
 41
0.8
 50
0.0
 71
0
 42
0.2
  3
txt
  4

  0
STYLE
  5
20F
100
AcDbSymbolTableRecord
100
AcDbTextStyleTableRecord
  2
TEXTSTYLE_1
 70
0
 40
0.0
 41
0.8
 50
0.0
 71
0
 42
0.2
  3
gdt
  4

  0
ENDTAB
  0
TABLE
  2
VIEW
  5
6
100
AcDbSymbolTable
 70
0
  0
ENDTAB
  0
TABLE
  2
UCS
  5
7
100
AcDbSymbolTable
 70
0
  0
ENDTAB
  0
TABLE
  2
APPID
  5
9
100
AcDbSymbolTable
 70
1
  0
APPID
  5
210
100
AcDbSymbolTableRecord
100
AcDbRegAppTableRecord
  2
ACAD
 70
0
  0
ENDTAB
  0
TABLE
  2
BLOCK_RECORD
  5
1
100
AcDbSymbolTable
 70
0
  0
BLOCK_RECORD
  5
211
100
AcDbSymbolTableRecord
100
AcDbBlockTableRecord
  2
*Model_Space
  0
BLOCK_RECORD
  5
212
100
AcDbSymbolTableRecord
100
AcDbBlockTableRecord
  2
*Paper_Space
  0
BLOCK_RECORD
  5
213
100
AcDbSymbolTableRecord
100
AcDbBlockTableRecord
  2
_FILLED
  0
BLOCK_RECORD
  5
214
100
AcDbSymbolTableRecord
100
AcDbBlockTableRecord
  2
*D0
  0
BLOCK_RECORD
  5
215
100
AcDbSymbolTableRecord
100
AcDbBlockTableRecord
  2
*D1
  0
BLOCK_RECORD
  5
216
100
AcDbSymbolTableRecord
100
AcDbBlockTableRecord
  2
*D2
  0
BLOCK_RECORD
  5
217
100
AcDbSymbolTableRecord
100
AcDbBlockTableRecord
  2
*D3
  0
BLOCK_RECORD
  5
218
100
AcDbSymbolTableRecord
100
AcDbBlockTableRecord
  2
*D4
  0
BLOCK_RECORD
  5
219
100
AcDbSymbolTableRecord
100
AcDbBlockTableRecord
  2
*D5
  0
BLOCK_RECORD
  5
21A
100
AcDbSymbolTableRecord
100
AcDbBlockTableRecord
  2
*D6
  0
BLOCK_RECORD
  5
21B
100
AcDbSymbolTableRecord
100
AcDbBlockTableRecord
  2
*D7
  0
BLOCK_RECORD
  5
21C
100
AcDbSymbolTableRecord
100
AcDbBlockTableRecord
  2
*D8
  0
BLOCK_RECORD
  5
21D
100
AcDbSymbolTableRecord
100
AcDbBlockTableRecord
  2
*D9
  0
BLOCK_RECORD
  5
21E
100
AcDbSymbolTableRecord
100
AcDbBlockTableRecord
  2
*D10
  0
BLOCK_RECORD
  5
21F
100
AcDbSymbolTableRecord
100
AcDbBlockTableRecord
  2
*D11
  0
BLOCK_RECORD
  5
220
100
AcDbSymbolTableRecord
100
AcDbBlockTableRecord
  2
*D12
  0
BLOCK_RECORD
  5
221
100
AcDbSymbolTableRecord
100
AcDbBlockTableRecord
  2
*D13
  0
BLOCK_RECORD
  5
222
100
AcDbSymbolTableRecord
100
AcDbBlockTableRecord
  2
*D14
  0
BLOCK_RECORD
  5
223
100
AcDbSymbolTableRecord
100
AcDbBlockTableRecord
  2
*D15
  0
BLOCK_RECORD
  5
224
100
AcDbSymbolTableRecord
100
AcDbBlockTableRecord
  2
*D16
  0
BLOCK_RECORD
  5
225
100
AcDbSymbolTableRecord
100
AcDbBlockTableRecord
  2
*D17
  0
BLOCK_RECORD
  5
226
100
AcDbSymbolTableRecord
100
AcDbBlockTableRecord
  2
*D18
  0
BLOCK_RECORD
  5
227
100
AcDbSymbolTableRecord
100
AcDbBlockTableRecord
  2
SYMBOL_11_BL4
  0
BLOCK_RECORD
  5
228
100
AcDbSymbolTableRecord
100
AcDbBlockTableRecord
  2
SYMBOL_10_BL3
  0
BLOCK_RECORD
  5
229
100
AcDbSymbolTableRecord
100
AcDbBlockTableRecord
  2
SYMBOL_12_BL2
  0
BLOCK_RECORD
  5
22A
100
AcDbSymbolTableRecord
100
AcDbBlockTableRecord
  2
SYMBOL_6_BL1
  0
BLOCK_RECORD
  5
22B
100
AcDbSymbolTableRecord
100
AcDbBlockTableRecord
  2
SYMBOL_0_BL0
  0
ENDTAB
  0
TABLE
  2
DIMSTYLE
  5
A
100
AcDbSymbolTable
 70
1
100
AcDbDimStyleTable
 71
0
  0
DIMSTYLE
105
22C
100
AcDbSymbolTableRecord
100
AcDbDimStyleTableRecord
  2
STANDARD
 70
0
  3

  4

 40
1.0
 41
2.34375
 42
0.0625
 43
0.38
 44
0.18
 45
0.0
 46
0.0
 47
0.01
 48
0.01
140
1.953125
141
0.09
142
0.0
143
25.4
144
1.0
145
0.0
146
1.0
147
0.09
 71
1.0
 72
0.0
 73
1
 74
1
 75
0
 76
0
 77
0
 78
4
170
0
171
2
172
0
173
0
174
0
175
0
176
0
177
0
178
0
270
2
271
3
272
3
273
2
274
2
275
0
280
0
281
0
282
0
283
1
284
4
285
0
286
0
287
3
288
0
340
11
341
213
342
213
343
213
344
213
  0
DIMSTYLE
105
22D
100
AcDbSymbolTableRecord
100
AcDbDimStyleTableRecord
  2
DIMSTYLE_1
 70
0
  3

  4

 40
1.0
 41
2.34375
 42
0.0625
 43
0.38
 44
0.18
 45
0.0
 46
0.0
 47
0.01
 48
0.01
140
1.953125
141
0.09
142
0.0
143
25.4
144
1.0
145
0.0
146
1.0
147
0.09
 71
0.0
 72
0.0
 73
1
 74
1
 75
0
 76
0
 77
0
 78
4
170
0
171
2
172
0
173
0
174
0
175
0
176
0
177
0
178
0
270
2
271
0
272
0
273
2
274
2
275
0
280
0
281
0
282
0
283
1
284
4
285
0
286
0
287
3
288
0
340
11
341
213
342
213
343
213
344
213
  0
ENDTAB
  0
ENDSEC
  0
SECTION
  2
BLOCKS
  0
BLOCK
  5
20
100
AcDbEntity
  8
0
100
AcDbBlockBegin
  2
*Model_Space
 70
0
 10
0.0
 20
0.0
 30
0.0
  3
*Model_Space
  1

  0
ENDBLK
  5
21
100
AcDbEntity
  8
0
100
AcDbBlockEnd
  0
BLOCK
  5
1C
100
AcDbEntity
  8
0
100
AcDbBlockBegin
  2
*Paper_Space
 70
0
 10
0.0
 20
0.0
 30
0.0
  3
*Paper_Space
  1

  0
ENDBLK
  5
1D
100
AcDbEntity
  8
0
100
AcDbBlockEnd
  0
BLOCK
  5
22E
100
AcDbEntity
  8
0
100
AcDbBlockBegin
 62
2
  6
CONTINUOUS
  2
SYMBOL_11_BL4
 70
64
 10
134.3191303487
 20
80.2909097073
  3
SYMBOL_11_BL4
  1

  0
ARC
  5
22F
100
AcDbEntity
  8
0
100
AcDbCircle
 62
7
  6
CONTINUOUS
 10
134.3191303487
 20
80.2909097073
 40
1.175
100
AcDbArc
 50
90.0
 51
180.0
  0
ARC
  5
230
100
AcDbEntity
  8
0
100
AcDbCircle
 62
7
  6
CONTINUOUS
 10
134.3191303487
 20
80.2909097073
 40
1.175
100
AcDbArc
 50
180.0
 51
270.0
  0
ARC
  5
231
100
AcDbEntity
  8
0
100
AcDbCircle
 62
7
  6
CONTINUOUS
 10
134.3191303487
 20
80.2909097073
 40
1.175
100
AcDbArc
 50
270.0
 51
360.0
  0
ARC
  5
232
100
AcDbEntity
  8
0
100
AcDbCircle
 62
7
  6
CONTINUOUS
 10
134.3191303487
 20
80.2909097073
 40
1.175
100
AcDbArc
 50
0.0
 51
90.0
  0
LINE
  5
233
100
AcDbEntity
  8
0
100
AcDbLine
 62
7
  6
CONTINUOUS
 10
134.3191303487
 20
80.2909097073
 11
135.4941303487
 21
80.2909097073
  0
LINE
  5
234
100
AcDbEntity
  8
0
100
AcDbLine
 62
7
  6
CONTINUOUS
 10
134.3191303487
 20
80.2909097073
 11
134.3191303487
 21
79.1159097073
  0
LINE
  5
235
100
AcDbEntity
  8
0
100
AcDbLine
 62
7
  6
CONTINUOUS
 10
133.1441303487
 20
80.2909097073
 11
134.3191303487
 21
80.2909097073
  0
LINE
  5
236
100
AcDbEntity
  8
0
100
AcDbLine
 62
7
  6
CONTINUOUS
 10
134.3191303487
 20
81.4659097073
 11
134.3191303487
 21
80.2909097073
  0
LINE
  5
237
100
AcDbEntity
  8
0
100
AcDbLine
 62
2
  6
CONTINUOUS
 10
134.3191303487
 20
80.2831656825
 11
134.3268743734
 21
80.2909097073
  0
LWPOLYLINE
  5
238
100
AcDbEntity
  8
0
100
AcDbPolyline
 62
7
  6
CONTINUOUS
 90
8
 70
0
 10
134.3191303487
 20
80.2909097073
 10
134.3191303487
 20
79.1159097073
 10
134.6822253171
 20
79.1734183006
 10
135.0097780201
 20
79.3403147389
 10
135.2697253171
 20
79.6002620358
 10
135.4366217553
 20
79.9278147389
 10
135.4941303487
 20
80.2909097073
 10
134.3191303487
 20
80.2909097073
  0
HATCH
  5
239
100
AcDbEntity
  8
0
100
AcDbHatch
 62
7
  6
CONTINUOUS
 10
0.0
 20
0.0
 30
0.0
210
0.0
220
0.0
230
1.0
  2
SOLID
 70
1
 71
1
 91
1
 92
1
 93
7
 72
1
 10
134.3191303487
 20
80.2909097073
 11
134.3191303487
 21
79.1159097073
 72
1
 10
134.3191303487
 20
79.1159097073
 11
134.6822253171
 21
79.1734183006
 72
1
 10
134.6822253171
 20
79.1734183006
 11
135.0097780201
 21
79.3403147389
 72
1
 10
135.0097780201
 20
79.3403147389
 11
135.2697253171
 21
79.6002620358
 72
1
 10
135.2697253171
 20
79.6002620358
 11
135.4366217553
 21
79.9278147389
 72
1
 10
135.4366217553
 20
79.9278147389
 11
135.4941303487
 21
80.2909097073
 72
1
 10
135.4941303487
 20
80.2909097073
 11
134.3191303487
 21
80.2909097073
 97
1
330
238
 75
0
 76
1
 98
1
 10
0.0
 20
0.0
  0
LWPOLYLINE
  5
23A
100
AcDbEntity
  8
0
100
AcDbPolyline
 62
7
  6
CONTINUOUS
 90
8
 70
0
 10
134.3191303487
 20
80.2909097073
 10
133.1441303487
 20
80.2909097073
 10
133.201638942
 20
80.6540046757
 10
133.3685353803
 20
80.9815573787
 10
133.6284826772
 20
81.2415046757
 10
133.9560353803
 20
81.4084011139
 10
134.3191303487
 20
81.4659097073
 10
134.3191303487
 20
80.2909097073
  0
HATCH
  5
23B
100
AcDbEntity
  8
0
100
AcDbHatch
 62
7
  6
CONTINUOUS
 10
0.0
 20
0.0
 30
0.0
210
0.0
220
0.0
230
1.0
  2
SOLID
 70
1
 71
1
 91
1
 92
1
 93
7
 72
1
 10
134.3191303487
 20
80.2909097073
 11
133.1441303487
 21
80.2909097073
 72
1
 10
133.1441303487
 20
80.2909097073
 11
133.201638942
 21
80.6540046757
 72
1
 10
133.201638942
 20
80.6540046757
 11
133.3685353803
 21
80.9815573787
 72
1
 10
133.3685353803
 20
80.9815573787
 11
133.6284826772
 21
81.2415046757
 72
1
 10
133.6284826772
 20
81.2415046757
 11
133.9560353803
 21
81.4084011139
 72
1
 10
133.9560353803
 20
81.4084011139
 11
134.3191303487
 21
81.4659097073
 72
1
 10
134.3191303487
 20
81.4659097073
 11
134.3191303487
 21
80.2909097073
 97
1
330
23A
 75
0
 76
1
 98
1
 10
0.0
 20
0.0
  0
ENDBLK
  5
23C
100
AcDbEntity
  8
0
  6
BYBLOCK
 62
0
100
AcDbBlockEnd
  0
BLOCK
  5
23D
100
AcDbEntity
  8
0
100
AcDbBlockBegin
 62
2
  6
CONTINUOUS
  2
SYMBOL_10_BL3
 70
64
 10
80.0206267513
 20
80.2889250879
  3
SYMBOL_10_BL3
  1

  0
ARC
  5
23E
100
AcDbEntity
  8
0
100
AcDbCircle
 62
7
  6
CONTINUOUS
 10
80.0206267513
 20
80.2889250879
 40
1.175
100
AcDbArc
 50
90.0
 51
180.0
  0
ARC
  5
23F
100
AcDbEntity
  8
0
100
AcDbCircle
 62
7
  6
CONTINUOUS
 10
80.0206267513
 20
80.2889250879
 40
1.175
100
AcDbArc
 50
180.0
 51
270.0
  0
ARC
  5
240
100
AcDbEntity
  8
0
100
AcDbCircle
 62
7
  6
CONTINUOUS
 10
80.0206267513
 20
80.2889250879
 40
1.175
100
AcDbArc
 50
270.0
 51
360.0
  0
ARC
  5
241
100
AcDbEntity
  8
0
100
AcDbCircle
 62
7
  6
CONTINUOUS
 10
80.0206267513
 20
80.2889250879
 40
1.175
100
AcDbArc
 50
0.0
 51
90.0
  0
LINE
  5
242
100
AcDbEntity
  8
0
100
AcDbLine
 62
7
  6
CONTINUOUS
 10
80.0206267513
 20
80.2889250879
 11
81.1956267513
 21
80.2889250879
  0
LINE
  5
243
100
AcDbEntity
  8
0
100
AcDbLine
 62
7
  6
CONTINUOUS
 10
80.0206267513
 20
80.2889250879
 11
80.0206267513
 21
79.1139250879
  0
LINE
  5
244
100
AcDbEntity
  8
0
100
AcDbLine
 62
7
  6
CONTINUOUS
 10
78.8456267513
 20
80.2889250879
 11
80.0206267513
 21
80.2889250879
  0
LINE
  5
245
100
AcDbEntity
  8
0
100
AcDbLine
 62
7
  6
CONTINUOUS
 10
80.0206267513
 20
81.4639250879
 11
80.0206267513
 21
80.2889250879
  0
LINE
  5
246
100
AcDbEntity
  8
0
100
AcDbLine
 62
2
  6
CONTINUOUS
 10
80.0206267513
 20
80.2811810631
 11
80.028370776
 21
80.2889250879
  0
LWPOLYLINE
  5
247
100
AcDbEntity
  8
0
100
AcDbPolyline
 62
7
  6
CONTINUOUS
 90
8
 70
0
 10
80.0206267513
 20
80.2889250879
 10
80.0206267513
 20
79.1139250879
 10
80.3837217197
 20
79.1714336812
 10
80.7112744227
 20
79.3383301195
 10
80.9712217197
 20
79.5982774164
 10
81.1381181579
 20
79.9258301195
 10
81.1956267513
 20
80.2889250879
 10
80.0206267513
 20
80.2889250879
  0
HATCH
  5
248
100
AcDbEntity
  8
0
100
AcDbHatch
 62
7
  6
CONTINUOUS
 10
0.0
 20
0.0
 30
0.0
210
0.0
220
0.0
230
1.0
  2
SOLID
 70
1
 71
1
 91
1
 92
1
 93
7
 72
1
 10
80.0206267513
 20
80.2889250879
 11
80.0206267513
 21
79.1139250879
 72
1
 10
80.0206267513
 20
79.1139250879
 11
80.3837217197
 21
79.1714336812
 72
1
 10
80.3837217197
 20
79.1714336812
 11
80.7112744227
 21
79.3383301195
 72
1
 10
80.7112744227
 20
79.3383301195
 11
80.9712217197
 21
79.5982774164
 72
1
 10
80.9712217197
 20
79.5982774164
 11
81.1381181579
 21
79.9258301195
 72
1
 10
81.1381181579
 20
79.9258301195
 11
81.1956267513
 21
80.2889250879
 72
1
 10
81.1956267513
 20
80.2889250879
 11
80.0206267513
 21
80.2889250879
 97
1
330
247
 75
0
 76
1
 98
1
 10
0.0
 20
0.0
  0
LWPOLYLINE
  5
249
100
AcDbEntity
  8
0
100
AcDbPolyline
 62
7
  6
CONTINUOUS
 90
8
 70
0
 10
80.0206267513
 20
80.2889250879
 10
78.8456267513
 20
80.2889250879
 10
78.9031353446
 20
80.6520200562
 10
79.0700317829
 20
80.9795727593
 10
79.3299790798
 20
81.2395200562
 10
79.6575317829
 20
81.4064164945
 10
80.0206267513
 20
81.4639250879
 10
80.0206267513
 20
80.2889250879
  0
HATCH
  5
24A
100
AcDbEntity
  8
0
100
AcDbHatch
 62
7
  6
CONTINUOUS
 10
0.0
 20
0.0
 30
0.0
210
0.0
220
0.0
230
1.0
  2
SOLID
 70
1
 71
1
 91
1
 92
1
 93
7
 72
1
 10
80.0206267513
 20
80.2889250879
 11
78.8456267513
 21
80.2889250879
 72
1
 10
78.8456267513
 20
80.2889250879
 11
78.9031353446
 21
80.6520200562
 72
1
 10
78.9031353446
 20
80.6520200562
 11
79.0700317829
 21
80.9795727593
 72
1
 10
79.0700317829
 20
80.9795727593
 11
79.3299790798
 21
81.2395200562
 72
1
 10
79.3299790798
 20
81.2395200562
 11
79.6575317829
 21
81.4064164945
 72
1
 10
79.6575317829
 20
81.4064164945
 11
80.0206267513
 21
81.4639250879
 72
1
 10
80.0206267513
 20
81.4639250879
 11
80.0206267513
 21
80.2889250879
 97
1
330
249
 75
0
 76
1
 98
1
 10
0.0
 20
0.0
  0
ENDBLK
  5
24B
100
AcDbEntity
  8
0
  6
BYBLOCK
 62
0
100
AcDbBlockEnd
  0
BLOCK
  5
24C
100
AcDbEntity
  8
0
100
AcDbBlockBegin
 62
2
  6
CONTINUOUS
  2
SYMBOL_12_BL2
 70
64
 10
39.8251285854
 20
80.2972805726
  3
SYMBOL_12_BL2
  1

  0
ARC
  5
24D
100
AcDbEntity
  8
0
100
AcDbCircle
 62
7
  6
CONTINUOUS
 10
39.8251285854
 20
80.2972805726
 40
1.175
100
AcDbArc
 50
90.0
 51
180.0
  0
ARC
  5
24E
100
AcDbEntity
  8
0
100
AcDbCircle
 62
7
  6
CONTINUOUS
 10
39.8251285854
 20
80.2972805726
 40
1.175
100
AcDbArc
 50
180.0
 51
270.0
  0
ARC
  5
24F
100
AcDbEntity
  8
0
100
AcDbCircle
 62
7
  6
CONTINUOUS
 10
39.8251285854
 20
80.2972805726
 40
1.175
100
AcDbArc
 50
270.0
 51
360.0
  0
ARC
  5
250
100
AcDbEntity
  8
0
100
AcDbCircle
 62
7
  6
CONTINUOUS
 10
39.8251285854
 20
80.2972805726
 40
1.175
100
AcDbArc
 50
0.0
 51
90.0
  0
LINE
  5
251
100
AcDbEntity
  8
0
100
AcDbLine
 62
7
  6
CONTINUOUS
 10
39.8251285854
 20
80.2972805726
 11
41.0001285854
 21
80.2972805726
  0
LINE
  5
252
100
AcDbEntity
  8
0
100
AcDbLine
 62
7
  6
CONTINUOUS
 10
39.8251285854
 20
80.2972805726
 11
39.8251285854
 21
79.1222805726
  0
LINE
  5
253
100
AcDbEntity
  8
0
100
AcDbLine
 62
7
  6
CONTINUOUS
 10
38.6501285854
 20
80.2972805726
 11
39.8251285854
 21
80.2972805726
  0
LINE
  5
254
100
AcDbEntity
  8
0
100
AcDbLine
 62
7
  6
CONTINUOUS
 10
39.8251285854
 20
81.4722805726
 11
39.8251285854
 21
80.2972805726
  0
LINE
  5
255
100
AcDbEntity
  8
0
100
AcDbLine
 62
2
  6
CONTINUOUS
 10
39.8251285854
 20
80.2895365478
 11
39.8328726101
 21
80.2972805726
  0
LWPOLYLINE
  5
256
100
AcDbEntity
  8
0
100
AcDbPolyline
 62
7
  6
CONTINUOUS
 90
8
 70
0
 10
39.8251285854
 20
80.2972805726
 10
39.8251285854
 20
79.1222805726
 10
40.1882235538
 20
79.1797891659
 10
40.5157762568
 20
79.3466856042
 10
40.7757235538
 20
79.6066329011
 10
40.942619992
 20
79.9341856042
 10
41.0001285854
 20
80.2972805726
 10
39.8251285854
 20
80.2972805726
  0
HATCH
  5
257
100
AcDbEntity
  8
0
100
AcDbHatch
 62
7
  6
CONTINUOUS
 10
0.0
 20
0.0
 30
0.0
210
0.0
220
0.0
230
1.0
  2
SOLID
 70
1
 71
1
 91
1
 92
1
 93
7
 72
1
 10
39.8251285854
 20
80.2972805726
 11
39.8251285854
 21
79.1222805726
 72
1
 10
39.8251285854
 20
79.1222805726
 11
40.1882235538
 21
79.1797891659
 72
1
 10
40.1882235538
 20
79.1797891659
 11
40.5157762568
 21
79.3466856042
 72
1
 10
40.5157762568
 20
79.3466856042
 11
40.7757235538
 21
79.6066329011
 72
1
 10
40.7757235538
 20
79.6066329011
 11
40.942619992
 21
79.9341856042
 72
1
 10
40.942619992
 20
79.9341856042
 11
41.0001285854
 21
80.2972805726
 72
1
 10
41.0001285854
 20
80.2972805726
 11
39.8251285854
 21
80.2972805726
 97
1
330
256
 75
0
 76
1
 98
1
 10
0.0
 20
0.0
  0
LWPOLYLINE
  5
258
100
AcDbEntity
  8
0
100
AcDbPolyline
 62
7
  6
CONTINUOUS
 90
8
 70
0
 10
39.8251285854
 20
80.2972805726
 10
38.6501285854
 20
80.2972805726
 10
38.7076371787
 20
80.6603755409
 10
38.874533617
 20
80.987928244
 10
39.1344809139
 20
81.2478755409
 10
39.462033617
 20
81.4147719792
 10
39.8251285854
 20
81.4722805726
 10
39.8251285854
 20
80.2972805726
  0
HATCH
  5
259
100
AcDbEntity
  8
0
100
AcDbHatch
 62
7
  6
CONTINUOUS
 10
0.0
 20
0.0
 30
0.0
210
0.0
220
0.0
230
1.0
  2
SOLID
 70
1
 71
1
 91
1
 92
1
 93
7
 72
1
 10
39.8251285854
 20
80.2972805726
 11
38.6501285854
 21
80.2972805726
 72
1
 10
38.6501285854
 20
80.2972805726
 11
38.7076371787
 21
80.6603755409
 72
1
 10
38.7076371787
 20
80.6603755409
 11
38.874533617
 21
80.987928244
 72
1
 10
38.874533617
 20
80.987928244
 11
39.1344809139
 21
81.2478755409
 72
1
 10
39.1344809139
 20
81.2478755409
 11
39.462033617
 21
81.4147719792
 72
1
 10
39.462033617
 20
81.4147719792
 11
39.8251285854
 21
81.4722805726
 72
1
 10
39.8251285854
 20
81.4722805726
 11
39.8251285854
 21
80.2972805726
 97
1
330
258
 75
0
 76
1
 98
1
 10
0.0
 20
0.0
  0
ENDBLK
  5
25A
100
AcDbEntity
  8
0
  6
BYBLOCK
 62
0
100
AcDbBlockEnd
  0
BLOCK
  5
25B
100
AcDbEntity
  8
0
100
AcDbBlockBegin
 62
2
  6
CONTINUOUS
  2
SYMBOL_6_BL1
 70
64
 10
25.3276197121
 20
28.2699383809
  3
SYMBOL_6_BL1
  1

  0
ARC
  5
25C
100
AcDbEntity
  8
0
100
AcDbCircle
 62
7
  6
CONTINUOUS
 10
25.3276197121
 20
28.2699383809
 40
1.175
100
AcDbArc
 50
90.0
 51
180.0
  0
ARC
  5
25D
100
AcDbEntity
  8
0
100
AcDbCircle
 62
7
  6
CONTINUOUS
 10
25.3276197121
 20
28.2699383809
 40
1.175
100
AcDbArc
 50
180.0
 51
270.0
  0
ARC
  5
25E
100
AcDbEntity
  8
0
100
AcDbCircle
 62
7
  6
CONTINUOUS
 10
25.3276197121
 20
28.2699383809
 40
1.175
100
AcDbArc
 50
270.0
 51
360.0
  0
ARC
  5
25F
100
AcDbEntity
  8
0
100
AcDbCircle
 62
7
  6
CONTINUOUS
 10
25.3276197121
 20
28.2699383809
 40
1.175
100
AcDbArc
 50
0.0
 51
90.0
  0
LINE
  5
260
100
AcDbEntity
  8
0
100
AcDbLine
 62
7
  6
CONTINUOUS
 10
25.3276197121
 20
28.2699383809
 11
26.5026197121
 21
28.2699383809
  0
LINE
  5
261
100
AcDbEntity
  8
0
100
AcDbLine
 62
7
  6
CONTINUOUS
 10
25.3276197121
 20
28.2699383809
 11
25.3276197121
 21
27.0949383809
  0
LINE
  5
262
100
AcDbEntity
  8
0
100
AcDbLine
 62
7
  6
CONTINUOUS
 10
24.1526197121
 20
28.2699383809
 11
25.3276197121
 21
28.2699383809
  0
LINE
  5
263
100
AcDbEntity
  8
0
100
AcDbLine
 62
7
  6
CONTINUOUS
 10
25.3276197121
 20
29.4449383809
 11
25.3276197121
 21
28.2699383809
  0
LINE
  5
264
100
AcDbEntity
  8
0
100
AcDbLine
 62
2
  6
CONTINUOUS
 10
25.3276197121
 20
28.2621943562
 11
25.3353637368
 21
28.2699383809
  0
LWPOLYLINE
  5
265
100
AcDbEntity
  8
0
100
AcDbPolyline
 62
7
  6
CONTINUOUS
 90
8
 70
0
 10
25.3276197121
 20
28.2699383809
 10
25.3276197121
 20
27.0949383809
 10
25.6907146805
 20
27.1524469743
 10
26.0182673835
 20
27.3193434125
 10
26.2782146805
 20
27.5792907095
 10
26.4451111187
 20
27.9068434125
 10
26.5026197121
 20
28.2699383809
 10
25.3276197121
 20
28.2699383809
  0
HATCH
  5
266
100
AcDbEntity
  8
0
100
AcDbHatch
 62
7
  6
CONTINUOUS
 10
0.0
 20
0.0
 30
0.0
210
0.0
220
0.0
230
1.0
  2
SOLID
 70
1
 71
1
 91
1
 92
1
 93
7
 72
1
 10
25.3276197121
 20
28.2699383809
 11
25.3276197121
 21
27.0949383809
 72
1
 10
25.3276197121
 20
27.0949383809
 11
25.6907146805
 21
27.1524469743
 72
1
 10
25.6907146805
 20
27.1524469743
 11
26.0182673835
 21
27.3193434125
 72
1
 10
26.0182673835
 20
27.3193434125
 11
26.2782146805
 21
27.5792907095
 72
1
 10
26.2782146805
 20
27.5792907095
 11
26.4451111187
 21
27.9068434125
 72
1
 10
26.4451111187
 20
27.9068434125
 11
26.5026197121
 21
28.2699383809
 72
1
 10
26.5026197121
 20
28.2699383809
 11
25.3276197121
 21
28.2699383809
 97
1
330
265
 75
0
 76
1
 98
1
 10
0.0
 20
0.0
  0
LWPOLYLINE
  5
267
100
AcDbEntity
  8
0
100
AcDbPolyline
 62
7
  6
CONTINUOUS
 90
8
 70
0
 10
25.3276197121
 20
28.2699383809
 10
24.1526197121
 20
28.2699383809
 10
24.2101283054
 20
28.6330333493
 10
24.3770247437
 20
28.9605860523
 10
24.6369720406
 20
29.2205333493
 10
24.9645247437
 20
29.3874297876
 10
25.3276197121
 20
29.4449383809
 10
25.3276197121
 20
28.2699383809
  0
HATCH
  5
268
100
AcDbEntity
  8
0
100
AcDbHatch
 62
7
  6
CONTINUOUS
 10
0.0
 20
0.0
 30
0.0
210
0.0
220
0.0
230
1.0
  2
SOLID
 70
1
 71
1
 91
1
 92
1
 93
7
 72
1
 10
25.3276197121
 20
28.2699383809
 11
24.1526197121
 21
28.2699383809
 72
1
 10
24.1526197121
 20
28.2699383809
 11
24.2101283054
 21
28.6330333493
 72
1
 10
24.2101283054
 20
28.6330333493
 11
24.3770247437
 21
28.9605860523
 72
1
 10
24.3770247437
 20
28.9605860523
 11
24.6369720406
 21
29.2205333493
 72
1
 10
24.6369720406
 20
29.2205333493
 11
24.9645247437
 21
29.3874297876
 72
1
 10
24.9645247437
 20
29.3874297876
 11
25.3276197121
 21
29.4449383809
 72
1
 10
25.3276197121
 20
29.4449383809
 11
25.3276197121
 21
28.2699383809
 97
1
330
267
 75
0
 76
1
 98
1
 10
0.0
 20
0.0
  0
ENDBLK
  5
269
100
AcDbEntity
  8
0
  6
BYBLOCK
 62
0
100
AcDbBlockEnd
  0
BLOCK
  5
26A
100
AcDbEntity
  8
0
100
AcDbBlockBegin
 62
7
  6
CONTINUOUS
  2
SYMBOL_0_BL0
 70
64
 10
148.6102537351
 20
33.7638833147
  3
SYMBOL_0_BL0
  1

  0
ARC
  5
26B
100
AcDbEntity
  8
0
100
AcDbCircle
 62
7
  6
CONTINUOUS
 10
156.7622733556
 20
35.0185952839
 40
0.1546439159
100
AcDbArc
 50
270.0
 51
360.0
  0
LINE
  5
26C
100
AcDbEntity
  8
0
100
AcDbLine
 62
7
  6
CONTINUOUS
 10
156.9169172715
 20
35.0185952839
 11
156.9169172715
 21
35.3279893988
  0
ARC
  5
26D
100
AcDbEntity
  8
0
100
AcDbCircle
 62
7
  6
CONTINUOUS
 10
156.7622733556
 20
35.3279893988
 40
0.1546439159
100
AcDbArc
 50
0.0
 51
90.0
  0
LINE
  5
26E
100
AcDbEntity
  8
0
100
AcDbLine
 62
7
  6
CONTINUOUS
 10
156.7622733556
 20
35.4826333147
 11
152.6048567029
 21
35.4826333147
  0
SPLINE
  5
26F
100
AcDbEntity
  8
0
100
AcDbSpline
 62
7
  6
CONTINUOUS
 70
0
 71
3
 72
13
 73
9
 74
0
 42
0.0000001
 43
0.0000001
 44
0.0000000001
 40
0.0
 40
0.0
 40
0.0
 40
0.0
 40
0.1310616762
 40
0.2699656353
 40
0.4157607805
 40
0.5899807757
 40
0.76586761
 40
0.9948829976
 40
0.9948829976
 40
0.9948829976
 40
0.9948829976
 10
152.6048567029
 20
35.4826333147
 30
0.0
 10
152.5174640214
 20
35.4761242499
 30
0.0
 10
152.3374493818
 20
35.4627166415
 30
0.0
 10
152.0934936963
 20
35.3115477933
 30
0.0
 10
151.9183626258
 20
35.0577625242
 30
0.0
 10
151.8044833553
 20
34.7474390041
 30
0.0
 10
151.7403395976
 20
34.3680946568
 30
0.0
 10
151.7344336917
 20
34.1000432795
 30
0.0
 10
151.7313727985
 20
33.9484117248
 30
0.0
  0
LINE
  5
270
100
AcDbEntity
  8
0
100
AcDbLine
 62
7
  6
CONTINUOUS
 10
151.7313727985
 20
33.9484117248
 11
151.7316442152
 21
33.9248813635
  0
SPLINE
  5
271
100
AcDbEntity
  8
0
100
AcDbSpline
 62
7
  6
CONTINUOUS
 70
0
 71
3
 72
13
 73
9
 74
0
 42
0.0000001
 43
0.0000001
 44
0.0000000001
 40
0.0
 40
0.0
 40
0.0
 40
0.0
 40
0.2222860645
 40
0.3981728988
 40
0.572392894
 40
0.7181880393
 40
0.8570919984
 40
0.9881536746
 40
0.9881536746
 40
0.9881536746
 40
0.9881536746
 10
151.7316442152
 20
33.9248813635
 30
0.0
 10
151.734644783
 20
33.7777072555
 30
0.0
 10
151.7410836204
 20
33.5141597561
 30
0.0
 10
151.804483303
 20
33.1392126967
 30
0.0
 10
151.9183639367
 20
32.8289238834
 30
0.0
 10
152.0934895447
 20
32.5750309084
 30
0.0
 10
152.3374638493
 20
32.4242234178
 30
0.0
 10
152.517434601
 20
32.4099649276
 30
0.0
 10
152.6048567029
 20
32.4034536741
 30
0.0
  0
LINE
  5
272
100
AcDbEntity
  8
0
100
AcDbLine
 62
7
  6
CONTINUOUS
 10
152.6048567029
 20
32.4034536741
 11
156.7626108814
 21
32.4125283956
  0
ARC
  5
273
100
AcDbEntity
  8
0
100
AcDbCircle
 62
7
  6
CONTINUOUS
 10
156.7622733556
 20
32.5671719427
 40
0.1546439154
100
AcDbArc
 50
270.125053868
 51
360.0
  0
LINE
  5
274
100
AcDbEntity
  8
0
100
AcDbLine
 62
7
  6
CONTINUOUS
 10
156.9169172715
 20
32.5671719427
 11
156.9169172715
 21
32.8644866834
  0
ARC
  5
275
100
AcDbEntity
  8
0
100
AcDbCircle
 62
7
  6
CONTINUOUS
 10
156.7622733556
 20
32.8644866834
 40
0.1546439159
100
AcDbArc
 50
0.0
 51
90.0
  0
LINE
  5
276
100
AcDbEntity
  8
0
100
AcDbLine
 62
7
  6
CONTINUOUS
 10
156.7622733556
 20
33.0191305992
 11
153.1987990656
 21
33.0191305992
  0
LINE
  5
277
100
AcDbEntity
  8
0
100
AcDbLine
 62
7
  6
CONTINUOUS
 10
153.0441551497
 20
33.1737745151
 11
153.0441551497
 21
34.7093074521
  0
ARC
  5
278
100
AcDbEntity
  8
0
100
AcDbCircle
 62
7
  6
CONTINUOUS
 10
153.198799067
 20
34.7093074521
 40
0.1546439159
100
AcDbArc
 50
90.0
 51
180.0
  0
LINE
  5
279
100
AcDbEntity
  8
0
100
AcDbLine
 62
7
  6
CONTINUOUS
 10
153.1987990656
 20
34.863951368
 11
156.7622733556
 21
34.863951368
  0
LINE
  5
27A
100
AcDbEntity
  8
0
100
AcDbLine
 62
7
  6
CONTINUOUS
 10
146.8448079127
 20
33.6307887572
 11
149.8149570904
 21
33.6307887572
  0
ARC
  5
27B
100
AcDbEntity
  8
0
100
AcDbCircle
 62
7
  6
CONTINUOUS
 10
149.81495709
 20
33.4761448417
 40
0.1546439159
100
AcDbArc
 50
0.0
 51
90.0
  0
LINE
  5
27C
100
AcDbEntity
  8
0
100
AcDbLine
 62
7
  6
CONTINUOUS
 10
149.9696010062
 20
33.4761448414
 11
149.9696010062
 21
33.1603779387
  0
LINE
  5
27D
100
AcDbEntity
  8
0
100
AcDbLine
 62
7
  6
CONTINUOUS
 10
149.8149570904
 20
33.0057340228
 11
146.3527053419
 21
33.0057340228
  0
ARC
  5
27E
100
AcDbEntity
  8
0
100
AcDbCircle
 62
7
  6
CONTINUOUS
 10
146.3527053419
 20
32.8510901069
 40
0.1546439159
100
AcDbArc
 50
90.0
 51
180.0
  0
LINE
  5
27F
100
AcDbEntity
  8
0
100
AcDbLine
 62
7
  6
CONTINUOUS
 10
146.198061426
 20
32.8510901069
 11
146.198061426
 21
32.5580960292
  0
ARC
  5
280
100
AcDbEntity
  8
0
100
AcDbCircle
 62
7
  6
CONTINUOUS
 10
146.3527053419
 20
32.5580960292
 40
0.1546439159
100
AcDbArc
 50
180.0
 51
270.0
  0
LINE
  5
281
100
AcDbEntity
  8
0
100
AcDbLine
 62
7
  6
CONTINUOUS
 10
146.3527053419
 20
32.4034521134
 11
150.6509143051
 21
32.4034521134
  0
SPLINE
  5
282
100
AcDbEntity
  8
0
100
AcDbSpline
 62
7
  6
CONTINUOUS
 70
0
 71
3
 72
13
 73
9
 74
0
 42
0.0000001
 43
0.0000001
 44
0.0000000001
 40
0.0
 40
0.0
 40
0.0
 40
0.0
 40
0.1604571392
 40
0.3334692485
 40
0.4767982758
 40
0.6242014838
 40
0.7505998515
 40
1.0
 40
1.0
 40
1.0
 40
1.0
 10
150.6509143051
 20
32.4034521134
 30
0.0
 10
150.7233826448
 20
32.4069413345
 30
0.0
 10
150.8739896074
 20
32.4141927876
 30
0.0
 10
151.0765133114
 20
32.5021192927
 30
0.0
 10
151.2291215947
 20
32.6499164086
 30
0.0
 10
151.3151223643
 20
32.8193600922
 30
0.0
 10
151.3810578716
 20
33.0466705299
 30
0.0
 10
151.3837335373
 20
33.2167788778
 30
0.0
 10
151.3855092515
 20
33.3296719436
 30
0.0
  0
SPLINE
  5
283
100
AcDbEntity
  8
0
100
AcDbSpline
 62
7
  6
CONTINUOUS
 70
0
 71
3
 72
13
 73
9
 74
0
 42
0.0000001
 43
0.0000001
 44
0.0000000001
 40
0.0
 40
0.0
 40
0.0
 40
0.0
 40
0.2494001485
 40
0.3757985162
 40
0.5232017242
 40
0.6665307515
 40
0.8395428608
 40
1.0
 40
1.0
 40
1.0
 40
1.0
 10
151.3855092515
 20
33.3296719436
 30
0.0
 10
151.3837335373
 20
33.4425650118
 30
0.0
 10
151.3810578716
 20
33.6126733574
 30
0.0
 10
151.3151223643
 20
33.8399837974
 30
0.0
 10
151.2291215947
 20
34.009427481
 30
0.0
 10
151.0765133114
 20
34.1572245946
 30
0.0
 10
150.8739896074
 20
34.2451510997
 30
0.0
 10
150.7233826448
 20
34.2524025551
 30
0.0
 10
150.6509143051
 20
34.2558917739
 30
0.0
  0
LINE
  5
284
100
AcDbEntity
  8
0
100
AcDbLine
 62
7
  6
CONTINUOUS
 10
150.6509143051
 20
34.2558917739
 11
147.7203552498
 21
34.2558917739
  0
LINE
  5
285
100
AcDbEntity
  8
0
100
AcDbLine
 62
7
  6
CONTINUOUS
 10
147.5657113339
 20
34.4105356898
 11
147.5657113339
 21
34.7031374929
  0
ARC
  5
286
100
AcDbEntity
  8
0
100
AcDbCircle
 62
7
  6
CONTINUOUS
 10
147.7203552485
 20
34.7031374929
 40
0.1546439159
100
AcDbArc
 50
90.0
 51
180.0
  0
LINE
  5
287
100
AcDbEntity
  8
0
100
AcDbLine
 62
7
  6
CONTINUOUS
 10
147.7203552498
 20
34.8577814088
 11
151.187306496
 21
34.8577814088
  0
ARC
  5
288
100
AcDbEntity
  8
0
100
AcDbCircle
 62
7
  6
CONTINUOUS
 10
151.187306496
 20
35.0124253247
 40
0.1546439159
100
AcDbArc
 50
270.0
 51
360.0
  0
LINE
  5
289
100
AcDbEntity
  8
0
100
AcDbLine
 62
7
  6
CONTINUOUS
 10
151.3419504119
 20
35.0124253247
 11
151.3419504119
 21
35.3279893988
  0
ARC
  5
28A
100
AcDbEntity
  8
0
100
AcDbCircle
 62
7
  6
CONTINUOUS
 10
151.187306496
 20
35.3279893988
 40
0.1546439159
100
AcDbArc
 50
0.0
 51
90.0
  0
LINE
  5
28B
100
AcDbEntity
  8
0
100
AcDbLine
 62
7
  6
CONTINUOUS
 10
151.187306496
 20
35.4826333147
 11
146.8448079127
 21
35.4826333147
  0
SPLINE
  5
28C
100
AcDbEntity
  8
0
100
AcDbSpline
 62
7
  6
CONTINUOUS
 70
0
 71
3
 72
13
 73
9
 74
0
 42
0.0000001
 43
0.0000001
 44
0.0000000001
 40
0.0
 40
0.0
 40
0.0
 40
0.0
 40
0.1133740464
 40
0.2392044088
 40
0.3655787964
 40
0.4912154373
 40
0.7445390876
 40
1.0
 40
1.0
 40
1.0
 40
1.0
 10
146.8448079127
 20
35.4826333147
 30
0.0
 10
146.7952000858
 20
35.480189898
 30
0.0
 10
146.690534062
 20
35.4750346051
 30
0.0
 10
146.5350630368
 20
35.4285845071
 30
0.0
 10
146.3959790539
 20
35.3347872931
 30
0.0
 10
146.2539035249
 20
35.1620092464
 30
0.0
 10
146.1645005891
 20
34.8907707008
 30
0.0
 10
146.1548048272
 20
34.6683756652
 30
0.0
 10
146.1499365844
 20
34.556711036
 30
0.0
  0
SPLINE
  5
28D
100
AcDbEntity
  8
0
100
AcDbSpline
 62
7
  6
CONTINUOUS
 70
0
 71
3
 72
13
 73
9
 74
0
 42
0.0000001
 43
0.0000001
 44
0.0000000001
 40
0.0
 40
0.0
 40
0.0
 40
0.0
 40
0.2554609124
 40
0.5087845627
 40
0.6344212036
 40
0.7607955912
 40
0.8866259536
 40
1.0
 40
1.0
 40
1.0
 40
1.0
 10
146.1499365844
 20
34.556711036
 30
0.0
 10
146.1548048272
 20
34.4450464067
 30
0.0
 10
146.1645005891
 20
34.2226513687
 30
0.0
 10
146.2539035249
 20
33.9514128255
 30
0.0
 10
146.3959790539
 20
33.7786347788
 30
0.0
 10
146.5350630368
 20
33.6848375648
 30
0.0
 10
146.690534062
 20
33.6383874668
 30
0.0
 10
146.7952000858
 20
33.6332321739
 30
0.0
 10
146.8448079127
 20
33.6307887572
 30
0.0
  0
LINE
  5
28E
100
AcDbEntity
  8
0
100
AcDbLine
 62
7
  6
CONTINUOUS
 10
141.1308850725
 20
32.4034521134
 11
143.5337287833
 21
32.4034521134
  0
LINE
  5
28F
100
AcDbEntity
  8
0
100
AcDbLine
 62
7
  6
CONTINUOUS
 10
143.5337287833
 20
32.4034521134
 11
143.5337287833
 21
32.1046117438
  0
ARC
  5
290
100
AcDbEntity
  8
0
100
AcDbCircle
 62
7
  6
CONTINUOUS
 10
143.5932072125
 20
32.1046117438
 40
0.0594784292
100
AcDbArc
 50
180.0
 51
270.0
  0
LINE
  5
291
100
AcDbEntity
  8
0
100
AcDbLine
 62
7
  6
CONTINUOUS
 10
143.5932072125
 20
32.0451333147
 11
144.5193468492
 21
32.0451333147
  0
ARC
  5
292
100
AcDbEntity
  8
0
100
AcDbCircle
 62
7
  6
CONTINUOUS
 10
144.5193468492
 20
32.1046117438
 40
0.0594784292
100
AcDbArc
 50
270.0
 51
360.0
  0
LINE
  5
293
100
AcDbEntity
  8
0
100
AcDbLine
 62
7
  6
CONTINUOUS
 10
144.5788252784
 20
32.1046117438
 11
144.5788252784
 21
32.4034521134
  0
LINE
  5
294
100
AcDbEntity
  8
0
100
AcDbLine
 62
7
  6
CONTINUOUS
 10
144.5788252784
 20
32.4034521134
 11
145.0513142828
 21
32.4034521134
  0
SPLINE
  5
295
100
AcDbEntity
  8
0
100
AcDbSpline
 62
7
  6
CONTINUOUS
 70
0
 71
3
 72
12
 73
8
 74
0
 42
0.0000001
 43
0.0000001
 44
0.0000000001
 40
0.0
 40
0.0
 40
0.0
 40
0.0
 40
0.2415790084
 40
0.4893269843
 40
0.7378634303
 40
0.8656387112
 40
1.0
 40
1.0
 40
1.0
 40
1.0
 10
145.0513142828
 20
32.4034521134
 30
0.0
 10
145.1360362162
 20
32.4060860228
 30
0.0
 10
145.3076435466
 20
32.4114211023
 30
0.0
 10
145.5587729682
 20
32.5009805329
 30
0.0
 10
145.7112888101
 20
32.6700450368
 30
0.0
 10
145.7784822268
 20
32.8389717505
 30
0.0
 10
145.7796931505
 20
32.9315094469
 30
0.0
 10
145.7803138246
 20
32.9789407677
 30
0.0
  0
LINE
  5
296
100
AcDbEntity
  8
0
100
AcDbLine
 62
7
  6
CONTINUOUS
 10
145.7803138246
 20
32.9789407677
 11
145.7803138246
 21
34.9035331492
  0
SPLINE
  5
297
100
AcDbEntity
  8
0
100
AcDbSpline
 62
7
  6
CONTINUOUS
 70
0
 71
3
 72
12
 73
8
 74
0
 42
0.0000001
 43
0.0000001
 44
0.0000000001
 40
0.0
 40
0.0
 40
0.0
 40
0.0
 40
0.1343612888
 40
0.2621365697
 40
0.5106730157
 40
0.7584209916
 40
1.0
 40
1.0
 40
1.0
 40
1.0
 10
145.7803138246
 20
34.9035331492
 30
0.0
 10
145.7796931505
 20
34.9509644723
 30
0.0
 10
145.7784822268
 20
35.0435021687
 30
0.0
 10
145.7112888101
 20
35.2124288825
 30
0.0
 10
145.5587729682
 20
35.3814933863
 30
0.0
 10
145.3076435466
 20
35.4710528145
 30
0.0
 10
145.1360362162
 20
35.476387894
 30
0.0
 10
145.0513142828
 20
35.4790218035
 30
0.0
  0
LINE
  5
298
100
AcDbEntity
  8
0
100
AcDbLine
 62
7
  6
CONTINUOUS
 10
145.0513142828
 20
35.4790218035
 11
141.1308850725
 21
35.4790218035
  0
SPLINE
  5
299
100
AcDbEntity
  8
0
100
AcDbSpline
 62
7
  6
CONTINUOUS
 70
0
 71
3
 72
12
 73
8
 74
0
 42
0.0000001
 43
0.0000001
 44
0.0000000001
 40
0.0
 40
0.0
 40
0.0
 40
0.0
 40
0.1341799809
 40
0.290831959
 40
0.5815217441
 40
0.760783857
 40
1.0
 40
1.0
 40
1.0
 40
1.0
 10
141.1308850725
 20
35.4790218035
 30
0.0
 10
141.0453735511
 20
35.4644070731
 30
0.0
 10
140.8600293372
 20
35.4327299847
 30
0.0
 10
140.5480320989
 20
35.1996375728
 30
0.0
 10
140.4002543729
 20
34.807482997
 30
0.0
 10
140.3137909468
 20
34.3629396423
 30
0.0
 10
140.3073004084
 20
34.0940595591
 30
0.0
 10
140.3035901987
 20
33.9403587261
 30
0.0
  0
SPLINE
  5
29A
100
AcDbEntity
  8
0
100
AcDbSpline
 62
7
  6
CONTINUOUS
 70
0
 71
3
 72
12
 73
8
 74
0
 42
0.0000001
 43
0.0000001
 44
0.0000000001
 40
0.0
 40
0.0
 40
0.0
 40
0.0
 40
0.2392679579
 40
0.4185688994
 40
0.7093216488
 40
0.8660075581
 40
1.0
 40
1.0
 40
1.0
 40
1.0
 10
140.3035901987
 20
33.9403587261
 30
0.0
 10
140.3073018906
 20
33.7866638837
 30
0.0
 10
140.3137950198
 20
33.5177942807
 30
0.0
 10
140.4002397888
 20
33.0731754883
 30
0.0
 10
140.548107803
 20
32.681386003
 30
0.0
 10
140.8597802083
 20
32.4475366924
 30
0.0
 10
141.0453458651
 20
32.4173617127
 30
0.0
 10
141.1308850725
 20
32.4034521134
 30
0.0
  0
LINE
  5
29B
100
AcDbEntity
  8
0
100
AcDbLine
 62
7
  6
CONTINUOUS
 10
144.988389395
 20
33.1952807303
 11
144.988389395
 21
34.7373182093
  0
ARC
  5
29C
100
AcDbEntity
  8
0
100
AcDbCircle
 62
7
  6
CONTINUOUS
 10
141.7440151837
 20
33.1952807303
 40
0.1546439159
100
AcDbArc
 50
180.0
 51
270.0
  0
LINE
  5
29D
100
AcDbEntity
  8
0
100
AcDbLine
 62
7
  6
CONTINUOUS
 10
141.7440151837
 20
33.0406368144
 11
143.5202013472
 21
33.0406368144
  0
LINE
  5
29E
100
AcDbEntity
  8
0
100
AcDbLine
 62
7
  6
CONTINUOUS
 10
143.5202013472
 20
33.0406368144
 11
143.5202013472
 21
33.3385512452
  0
ARC
  5
29F
100
AcDbEntity
  8
0
100
AcDbCircle
 62
7
  6
CONTINUOUS
 10
143.5796797775
 20
33.3385512452
 40
0.0594784292
100
AcDbArc
 50
90.0
 51
180.0
  0
LINE
  5
2A0
100
AcDbEntity
  8
0
100
AcDbLine
 62
7
  6
CONTINUOUS
 10
143.5796797764
 20
33.3980296744
 11
144.5010995975
 21
33.3980296744
  0
ARC
  5
2A1
100
AcDbEntity
  8
0
100
AcDbCircle
 62
7
  6
CONTINUOUS
 10
144.5010995953
 20
33.3385512474
 40
0.0594784292
100
AcDbArc
 50
0.0
 51
90.0
  0
LINE
  5
2A2
100
AcDbEntity
  8
0
100
AcDbLine
 62
7
  6
CONTINUOUS
 10
144.5605780267
 20
33.0406368144
 11
144.8337454792
 21
33.0406368144
  0
ARC
  5
2A3
100
AcDbEntity
  8
0
100
AcDbCircle
 62
7
  6
CONTINUOUS
 10
144.8337454792
 20
33.1952807303
 40
0.1546439159
100
AcDbArc
 50
270.0
 51
360.0
  0
LINE
  5
2A4
100
AcDbEntity
  8
0
100
AcDbLine
 62
7
  6
CONTINUOUS
 10
144.5605780267
 20
33.0406368144
 11
144.5605780267
 21
33.3385512452
  0
LINE
  5
2A5
100
AcDbEntity
  8
0
100
AcDbLine
 62
7
  6
CONTINUOUS
 10
141.5893712678
 20
33.1952807303
 11
141.5893712678
 21
34.7373182093
  0
ARC
  5
2A6
100
AcDbEntity
  8
0
100
AcDbCircle
 62
7
  6
CONTINUOUS
 10
141.7440151858
 20
34.7373182093
 40
0.1546439159
100
AcDbArc
 50
90.0
 51
180.0
  0
LINE
  5
2A7
100
AcDbEntity
  8
0
100
AcDbLine
 62
7
  6
CONTINUOUS
 10
141.7440151837
 20
34.8919621251
 11
144.8337454792
 21
34.8919621251
  0
ARC
  5
2A8
100
AcDbEntity
  8
0
100
AcDbCircle
 62
7
  6
CONTINUOUS
 10
144.8337454805
 20
34.7373182079
 40
0.1546439159
100
AcDbArc
 50
0.0000000277
 51
90.0000000277
  0
ARC
  5
2A9
100
AcDbEntity
  8
0
100
AcDbCircle
 62
7
  6
CONTINUOUS
 10
147.7203552498
 20
34.4105356898
 40
0.1546439159
100
AcDbArc
 50
180.0
 51
270.0
  0
ARC
  5
2AA
100
AcDbEntity
  8
0
100
AcDbCircle
 62
7
  6
CONTINUOUS
 10
149.8149570904
 20
33.1603779387
 40
0.1546439159
100
AcDbArc
 50
270.0
 51
360.0
  0
ARC
  5
2AB
100
AcDbEntity
  8
0
100
AcDbCircle
 62
7
  6
CONTINUOUS
 10
153.1987990656
 20
33.1737745151
 40
0.1546439159
100
AcDbArc
 50
180.0
 51
270.0
  0
ENDBLK
  5
2AC
100
AcDbEntity
  8
0
  6
BYBLOCK
 62
0
100
AcDbBlockEnd
  0
BLOCK
  5
2AD
100
AcDbEntity
  8
0
100
AcDbBlockBegin
  2
_FILLED
 70
64
 10
0.0
 20
0.0
  3
_FILLED
  1

  0
SOLID
  5
2AE
100
AcDbEntity
  8
0
  6
BYBLOCK
 62
0
100
AcDbTrace
 10
0.0
 20
0.0
 11
-1.0
 21
0.1666666667
 12
-1.0
 22
-0.1666666667
 13
-1.0
 23
-0.1666666667
  0
ENDBLK
  5
2AF
100
AcDbEntity
  8
0
  6
BYBLOCK
 62
0
100
AcDbBlockEnd
  0
BLOCK
  5
2B0
100
AcDbEntity
  8
0
100
AcDbBlockBegin
 62
2
  6
CONTINUOUS
  2
*D0
 70
65
 10
0.0
 20
0.0
  3
*D0
  1

  0
MTEXT
  5
2B1
100
AcDbEntity
  8
0
100
AcDbMText
 62
2
  6
CONTINUOUS
  7
STANDARD
 71
3
 72
1
 10
22.9420178002
 20
106.0092144905
 30
0.0
 11
1.0
 21
0.0
 31
0.0
 44
0.9
  1
127\P[5.0]
 40
1.953125
 41
5.7198660714
  0
LINE
  5
2B2
100
AcDbEntity
  8
0
100
AcDbLine
 62
2
  6
CONTINUOUS
 10
36.0258950657
 20
114.1289650344
 11
25.5903969334
 21
114.1289650344
  0
LINE
  5
2B3
100
AcDbEntity
  8
0
100
AcDbLine
 62
2
  6
CONTINUOUS
 10
39.0397730185
 20
109.1132170029
 11
25.5903969334
 21
109.1132170029
  0
LINE
  5
2B4
100
AcDbEntity
  8
0
100
AcDbLine
 62
2
  6
CONTINUOUS
 10
27.1528969334
 20
114.1289650344
 11
27.1528969334
 21
120.3789650344
  0
LINE
  5
2B5
100
AcDbEntity
  8
0
100
AcDbLine
 62
2
  6
CONTINUOUS
 10
27.1528969334
 20
109.1132170029
 11
27.1528969334
 21
105.0326519905
  0
LINE
  5
2B6
100
AcDbEntity
  8
0
100
AcDbLine
 62
2
  6
CONTINUOUS
 10
27.1528969334
 20
105.0326519905
 11
25.4531785145
 21
105.0326519905
  0
INSERT
  5
2B7
100
AcDbEntity
  8
0
100
AcDbBlockReference
 62
2
  6
CONTINUOUS
  2
_FILLED
 10
27.1528969334
 20
114.1289650344
 41
2.34375
 42
2.34375
 43
2.34375
 50
270.0
  0
INSERT
  5
2B8
100
AcDbEntity
  8
0
100
AcDbBlockReference
 62
2
  6
CONTINUOUS
  2
_FILLED
 10
27.1528969334
 20
109.1132170029
 41
2.34375
 42
2.34375
 43
2.34375
 50
90.0
  0
ENDBLK
  5
2B9
100
AcDbEntity
  8
0
  6
BYBLOCK
 62
0
100
AcDbBlockEnd
  0
BLOCK
  5
2BA
100
AcDbEntity
  8
0
100
AcDbBlockBegin
 62
2
  6
CONTINUOUS
  2
*D1
 70
65
 10
0.0
 20
0.0
  3
*D1
  1

  0
MTEXT
  5
2BB
100
AcDbEntity
  8
0
100
AcDbMText
 62
2
  6
CONTINUOUS
  7
STANDARD
 71
2
 72
1
 10
39.6150700979
 20
102.2594775341
 30
0.0
 11
1.0
 21
0.0
 31
0.0
 44
0.9
  1
255\P[10.1]
 40
1.953125
 41
6.5569196429
  0
LINE
  5
2BC
100
AcDbEntity
  8
0
100
AcDbLine
 62
2
  6
CONTINUOUS
 10
34.786748527
 20
105.1610033581
 11
34.786748527
 21
99.7204150341
  0
LINE
  5
2BD
100
AcDbEntity
  8
0
100
AcDbLine
 62
2
  6
CONTINUOUS
 10
44.8385254266
 20
105.4144258026
 11
44.8385254266
 21
99.7204150341
  0
LINE
  5
2BE
100
AcDbEntity
  8
0
100
AcDbLine
 62
2
  6
CONTINUOUS
 10
34.786748527
 20
101.2829150341
 11
28.536748527
 21
101.2829150341
  0
LINE
  5
2BF
100
AcDbEntity
  8
0
100
AcDbLine
 62
2
  6
CONTINUOUS
 10
44.8385254266
 20
101.2829150341
 11
51.0885254266
 21
101.2829150341
  0
INSERT
  5
2C0
100
AcDbEntity
  8
0
100
AcDbBlockReference
 62
2
  6
CONTINUOUS
  2
_FILLED
 10
34.786748527
 20
101.2829150341
 41
2.34375
 42
2.34375
 43
2.34375
  0
INSERT
  5
2C1
100
AcDbEntity
  8
0
100
AcDbBlockReference
 62
2
  6
CONTINUOUS
  2
_FILLED
 10
44.8385254266
 20
101.2829150341
 41
2.34375
 42
2.34375
 43
2.34375
 50
180.0
  0
ENDBLK
  5
2C2
100
AcDbEntity
  8
0
  6
BYBLOCK
 62
0
100
AcDbBlockEnd
  0
BLOCK
  5
2C3
100
AcDbEntity
  8
0
100
AcDbBlockBegin
 62
2
  6
CONTINUOUS
  2
*D2
 70
65
 10
0.0
 20
0.0
  3
*D2
  1

  0
MTEXT
  5
2C4
100
AcDbEntity
  8
0
100
AcDbMText
 62
2
  6
CONTINUOUS
  7
STANDARD
 71
2
 72
1
 10
49.7490233255
 20
83.4202819074
 30
0.0
 11
1.0
 21
0.0
 31
0.0
 44
0.9
  1
440\P[17.3]
 40
1.953125
 41
6.8359375
  0
LINE
  5
2C5
100
AcDbEntity
  8
0
100
AcDbLine
 62
2
  6
CONTINUOUS
 10
43.765068294
 20
89.888118202
 11
52.427594754
 21
89.888118202
  0
LINE
  5
2C6
100
AcDbEntity
  8
0
100
AcDbLine
 62
2
  6
CONTINUOUS
 10
43.765068294
 20
72.5652835564
 11
52.427594754
 21
72.5652835564
  0
LINE
  5
2C7
100
AcDbEntity
  8
0
100
AcDbLine
 62
2
  6
CONTINUOUS
 10
50.865094754
 20
89.888118202
 11
50.865094754
 21
84.3968444074
  0
LINE
  5
2C8
100
AcDbEntity
  8
0
100
AcDbLine
 62
2
  6
CONTINUOUS
 10
50.865094754
 20
72.5652835564
 11
50.865094754
 21
77.5609069074
  0
INSERT
  5
2C9
100
AcDbEntity
  8
0
100
AcDbBlockReference
 62
2
  6
CONTINUOUS
  2
_FILLED
 10
50.865094754
 20
89.888118202
 41
2.34375
 42
2.34375
 43
2.34375
 50
90.0
  0
INSERT
  5
2CA
100
AcDbEntity
  8
0
100
AcDbBlockReference
 62
2
  6
CONTINUOUS
  2
_FILLED
 10
50.865094754
 20
72.5652835564
 41
2.34375
 42
2.34375
 43
2.34375
 50
270.0
  0
ENDBLK
  5
2CB
100
AcDbEntity
  8
0
  6
BYBLOCK
 62
0
100
AcDbBlockEnd
  0
BLOCK
  5
2CC
100
AcDbEntity
  8
0
100
AcDbBlockBegin
 62
2
  6
CONTINUOUS
  2
*D3
 70
65
 10
0.0
 20
0.0
  3
*D3
  1

  0
MTEXT
  5
2CD
100
AcDbEntity
  8
0
100
AcDbMText
 62
2
  6
CONTINUOUS
  7
STANDARD
 71
3
 72
1
 10
32.5135405381
 20
69.4229757644
 30
0.0
 11
1.0
 21
0.0
 31
0.0
 44
0.9
  1
168\P[6.6]
 40
1.953125
 41
5.859375
  0
LINE
  5
2CE
100
AcDbEntity
  8
0
100
AcDbLine
 62
2
  6
CONTINUOUS
 10
36.5139364043
 20
60.091468251
 11
36.5139364043
 21
70.0089132644
  0
LINE
  5
2CF
100
AcDbEntity
  8
0
100
AcDbLine
 62
2
  6
CONTINUOUS
 10
43.1281096326
 20
60.091468251
 11
43.1281096326
 21
70.0089132644
  0
LINE
  5
2D0
100
AcDbEntity
  8
0
100
AcDbLine
 62
2
  6
CONTINUOUS
 10
36.5139364043
 20
68.4464132644
 11
39.8210230185
 21
68.4464132644
  0
LINE
  5
2D1
100
AcDbEntity
  8
0
100
AcDbLine
 62
2
  6
CONTINUOUS
 10
39.8210230185
 20
68.4464132644
 11
35.164210181
 21
68.4464132644
  0
LINE
  5
2D2
100
AcDbEntity
  8
0
100
AcDbLine
 62
2
  6
CONTINUOUS
 10
43.1281096326
 20
68.4464132644
 11
39.8210230185
 21
68.4464132644
  0
INSERT
  5
2D3
100
AcDbEntity
  8
0
100
AcDbBlockReference
 62
2
  6
CONTINUOUS
  2
_FILLED
 10
36.5139364043
 20
68.4464132644
 41
2.34375
 42
2.34375
 43
2.34375
 50
180.0
  0
INSERT
  5
2D4
100
AcDbEntity
  8
0
100
AcDbBlockReference
 62
2
  6
CONTINUOUS
  2
_FILLED
 10
43.1281096326
 20
68.4464132644
 41
2.34375
 42
2.34375
 43
2.34375
  0
ENDBLK
  5
2D5
100
AcDbEntity
  8
0
  6
BYBLOCK
 62
0
100
AcDbBlockEnd
  0
BLOCK
  5
2D6
100
AcDbEntity
  8
0
100
AcDbBlockBegin
 62
2
  6
CONTINUOUS
  2
*D4
 70
65
 10
0.0
 20
0.0
  3
*D4
  1

  0
MTEXT
  5
2D7
100
AcDbEntity
  8
0
100
AcDbMText
 62
2
  6
CONTINUOUS
  7
STANDARD
 71
1
 72
1
 10
30.4915192572
 20
49.9931943929
 30
0.0
 11
1.0
 21
0.0
 31
0.0
 44
0.9
  1
127\P[5.0]
 40
1.953125
 41
5.7198660714
  0
LINE
  5
2D8
100
AcDbEntity
  8
0
100
AcDbLine
 62
2
  6
CONTINUOUS
 10
36.0258950657
 20
52.6015568337
 11
25.8040192572
 21
52.6015568337
  0
LINE
  5
2D9
100
AcDbEntity
  8
0
100
AcDbLine
 62
2
  6
CONTINUOUS
 10
39.0397730185
 20
57.6173048652
 11
25.8040192572
 21
57.6173048652
  0
LINE
  5
2DA
100
AcDbEntity
  8
0
100
AcDbLine
 62
2
  6
CONTINUOUS
 10
27.3665192572
 20
52.6015568337
 11
27.3665192572
 21
55.1094308495
  0
LINE
  5
2DB
100
AcDbEntity
  8
0
100
AcDbLine
 62
2
  6
CONTINUOUS
 10
27.3665192572
 20
55.1094308495
 11
27.3665192572
 21
49.0166318929
  0
LINE
  5
2DC
100
AcDbEntity
  8
0
100
AcDbLine
 62
2
  6
CONTINUOUS
 10
27.3665192572
 20
49.0166318929
 11
29.5149567572
 21
49.0166318929
  0
LINE
  5
2DD
100
AcDbEntity
  8
0
100
AcDbLine
 62
2
  6
CONTINUOUS
 10
27.3665192572
 20
57.6173048652
 11
27.3665192572
 21
55.1094308495
  0
INSERT
  5
2DE
100
AcDbEntity
  8
0
100
AcDbBlockReference
 62
2
  6
CONTINUOUS
  2
_FILLED
 10
27.3665192572
 20
52.6015568337
 41
2.34375
 42
2.34375
 43
2.34375
 50
270.0
  0
INSERT
  5
2DF
100
AcDbEntity
  8
0
100
AcDbBlockReference
 62
2
  6
CONTINUOUS
  2
_FILLED
 10
27.3665192572
 20
57.6173048652
 41
2.34375
 42
2.34375
 43
2.34375
 50
90.0
  0
ENDBLK
  5
2E0
100
AcDbEntity
  8
0
  6
BYBLOCK
 62
0
100
AcDbBlockEnd
  0
BLOCK
  5
2E1
100
AcDbEntity
  8
0
100
AcDbBlockBegin
 62
2
  6
CONTINUOUS
  2
*D5
 70
65
 10
0.0
 20
0.0
  3
*D5
  1

  0
MTEXT
  5
2E2
100
AcDbEntity
  8
0
100
AcDbMText
 62
2
  6
CONTINUOUS
  7
STANDARD
 71
2
 72
1
 10
20.8289968247
 20
58.3356312491
 30
0.0
 11
1.0
 21
0.0
 31
0.0
 44
0.9
  1
170\P[6.7]
 40
1.953125
 41
5.859375
  0
LINE
  5
2E3
100
AcDbEntity
  8
0
100
AcDbLine
 62
2
  6
CONTINUOUS
 10
36.0258950657
 20
52.6015568337
 11
20.1035503962
 21
52.6015568337
  0
LINE
  5
2E4
100
AcDbEntity
  8
0
100
AcDbLine
 62
2
  6
CONTINUOUS
 10
35.7326864043
 20
59.310218251
 11
20.1035503962
 21
59.310218251
  0
LINE
  5
2E5
100
AcDbEntity
  8
0
100
AcDbLine
 62
2
  6
CONTINUOUS
 10
21.6660503962
 20
52.6015568337
 11
21.6660503962
 21
46.3515568337
  0
LINE
  5
2E6
100
AcDbEntity
  8
0
100
AcDbLine
 62
2
  6
CONTINUOUS
 10
21.6660503962
 20
59.310218251
 11
21.6660503962
 21
65.560218251
  0
INSERT
  5
2E7
100
AcDbEntity
  8
0
100
AcDbBlockReference
 62
2
  6
CONTINUOUS
  2
_FILLED
 10
21.6660503962
 20
52.6015568337
 41
2.34375
 42
2.34375
 43
2.34375
 50
90.0
  0
INSERT
  5
2E8
100
AcDbEntity
  8
0
100
AcDbBlockReference
 62
2
  6
CONTINUOUS
  2
_FILLED
 10
21.6660503962
 20
59.310218251
 41
2.34375
 42
2.34375
 43
2.34375
 50
270.0
  0
ENDBLK
  5
2E9
100
AcDbEntity
  8
0
  6
BYBLOCK
 62
0
100
AcDbBlockEnd
  0
BLOCK
  5
2EA
100
AcDbEntity
  8
0
100
AcDbBlockBegin
 62
2
  6
CONTINUOUS
  2
*D6
 70
65
 10
0.0
 20
0.0
  3
*D6
  1

  0
MTEXT
  5
2EB
100
AcDbEntity
  8
0
100
AcDbMText
 62
2
  6
CONTINUOUS
  7
STANDARD
 71
2
 72
1
 10
67.2184628057
 20
79.0826475702
 30
0.0
 11
1.0
 21
0.0
 31
0.0
 44
0.9
  1
200\P[7.9]
 40
1.953125
 41
5.859375
  0
LINE
  5
2EC
100
AcDbEntity
  8
0
100
AcDbLine
 62
2
  6
CONTINUOUS
 10
74.3625052944
 20
72.5652835564
 11
66.2837529843
 21
72.5652835564
  0
LINE
  5
2ED
100
AcDbEntity
  8
0
100
AcDbLine
 62
2
  6
CONTINUOUS
 10
79.2443950582
 20
80.4392993044
 11
66.2837529843
 21
80.4392993044
  0
LINE
  5
2EE
100
AcDbEntity
  8
0
100
AcDbLine
 62
2
  6
CONTINUOUS
 10
67.8462529843
 20
72.5652835564
 11
67.8462529843
 21
66.3152835564
  0
LINE
  5
2EF
100
AcDbEntity
  8
0
100
AcDbLine
 62
2
  6
CONTINUOUS
 10
67.8462529843
 20
80.4392993044
 11
67.8462529843
 21
86.6892993044
  0
INSERT
  5
2F0
100
AcDbEntity
  8
0
100
AcDbBlockReference
 62
2
  6
CONTINUOUS
  2
_FILLED
 10
67.8462529843
 20
72.5652835564
 41
2.34375
 42
2.34375
 43
2.34375
 50
90.0
  0
INSERT
  5
2F1
100
AcDbEntity
  8
0
100
AcDbBlockReference
 62
2
  6
CONTINUOUS
  2
_FILLED
 10
67.8462529843
 20
80.4392993044
 41
2.34375
 42
2.34375
 43
2.34375
 50
270.0
  0
ENDBLK
  5
2F2
100
AcDbEntity
  8
0
  6
BYBLOCK
 62
0
100
AcDbBlockEnd
  0
BLOCK
  5
2F3
100
AcDbEntity
  8
0
100
AcDbBlockBegin
 62
2
  6
CONTINUOUS
  2
*D7
 70
65
 10
0.0
 20
0.0
  3
*D7
  1

  0
MTEXT
  5
2F4
100
AcDbEntity
  8
0
100
AcDbMText
 62
2
  6
CONTINUOUS
  7
STANDARD
 71
2
 72
1
 10
80.785210757
 20
58.6361069423
 30
0.0
 11
1.0
 21
0.0
 31
0.0
 44
0.9
  1
361\P[14.2]
 40
1.953125
 41
6.9754464286
  0
LINE
  5
2F5
100
AcDbEntity
  8
0
100
AcDbLine
 62
2
  6
CONTINUOUS
 10
89.3563537196
 20
76.8627737138
 11
89.3563537196
 21
56.0970444423
  0
LINE
  5
2F6
100
AcDbEntity
  8
0
100
AcDbLine
 62
2
  6
CONTINUOUS
 10
75.1437552944
 20
71.7840335564
 11
75.1437552944
 21
56.0970444423
  0
LINE
  5
2F7
100
AcDbEntity
  8
0
100
AcDbLine
 62
2
  6
CONTINUOUS
 10
89.3563537196
 20
57.6595444423
 11
95.6063537196
 21
57.6595444423
  0
LINE
  5
2F8
100
AcDbEntity
  8
0
100
AcDbLine
 62
2
  6
CONTINUOUS
 10
75.1437552944
 20
57.6595444423
 11
68.8937552944
 21
57.6595444423
  0
INSERT
  5
2F9
100
AcDbEntity
  8
0
100
AcDbBlockReference
 62
2
  6
CONTINUOUS
  2
_FILLED
 10
89.3563537196
 20
57.6595444423
 41
2.34375
 42
2.34375
 43
2.34375
 50
180.0
  0
INSERT
  5
2FA
100
AcDbEntity
  8
0
100
AcDbBlockReference
 62
2
  6
CONTINUOUS
  2
_FILLED
 10
75.1437552944
 20
57.6595444423
 41
2.34375
 42
2.34375
 43
2.34375
  0
ENDBLK
  5
2FB
100
AcDbEntity
  8
0
  6
BYBLOCK
 62
0
100
AcDbBlockEnd
  0
BLOCK
  5
2FC
100
AcDbEntity
  8
0
100
AcDbBlockBegin
 62
2
  6
CONTINUOUS
  2
*D8
 70
65
 10
0.0
 20
0.0
  3
*D8
  1

  0
MTEXT
  5
2FD
100
AcDbEntity
  8
0
100
AcDbMText
 62
2
  6
CONTINUOUS
  7
STANDARD
 71
1
 72
1
 10
101.7648892826
 20
64.6139466863
 30
0.0
 11
1.0
 21
0.0
 31
0.0
 44
0.9
  1
237\P[9.3]
 40
1.953125
 41
5.7198660714
  0
LINE
  5
2FE
100
AcDbEntity
  8
0
100
AcDbLine
 62
2
  6
CONTINUOUS
 10
89.3563537196
 20
76.8627737138
 11
89.3563537196
 21
62.0748841863
  0
LINE
  5
2FF
100
AcDbEntity
  8
0
100
AcDbLine
 62
2
  6
CONTINUOUS
 10
80.0256450582
 20
79.6580493044
 11
80.0256450582
 21
62.0748841863
  0
LINE
  5
300
100
AcDbEntity
  8
0
100
AcDbLine
 62
2
  6
CONTINUOUS
 10
89.3563537196
 20
63.6373841863
 11
84.6909993889
 21
63.6373841863
  0
LINE
  5
301
100
AcDbEntity
  8
0
100
AcDbLine
 62
2
  6
CONTINUOUS
 10
84.6909993889
 20
63.6373841863
 11
100.7883267826
 21
63.6373841863
  0
LINE
  5
302
100
AcDbEntity
  8
0
100
AcDbLine
 62
2
  6
CONTINUOUS
 10
80.0256450582
 20
63.6373841863
 11
84.6909993889
 21
63.6373841863
  0
INSERT
  5
303
100
AcDbEntity
  8
0
100
AcDbBlockReference
 62
2
  6
CONTINUOUS
  2
_FILLED
 10
89.3563537196
 20
63.6373841863
 41
2.34375
 42
2.34375
 43
2.34375
  0
INSERT
  5
304
100
AcDbEntity
  8
0
100
AcDbBlockReference
 62
2
  6
CONTINUOUS
  2
_FILLED
 10
80.0256450582
 20
63.6373841863
 41
2.34375
 42
2.34375
 43
2.34375
 50
180.0
  0
ENDBLK
  5
305
100
AcDbEntity
  8
0
  6
BYBLOCK
 62
0
100
AcDbBlockEnd
  0
BLOCK
  5
306
100
AcDbEntity
  8
0
100
AcDbBlockBegin
 62
2
  6
CONTINUOUS
  2
*D9
 70
65
 10
0.0
 20
0.0
  3
*D9
  1

  0
MTEXT
  5
307
100
AcDbEntity
  8
0
100
AcDbMText
 62
2
  6
CONTINUOUS
  7
STANDARD
 71
1
 72
1
 10
93.8663918778
 20
71.6373852348
 30
0.0
 11
1.0
 21
0.0
 31
0.0
 44
0.9
  1
110\P[4.3]
 40
1.953125
 41
5.7198660714
  0
LINE
  5
308
100
AcDbEntity
  8
0
100
AcDbLine
 62
2
  6
CONTINUOUS
 10
89.3563537196
 20
76.8627737138
 11
89.3563537196
 21
69.0983227348
  0
LINE
  5
309
100
AcDbEntity
  8
0
100
AcDbLine
 62
2
  6
CONTINUOUS
 10
85.0413930897
 20
72.6878918241
 11
85.0413930897
 21
69.0983227348
  0
LINE
  5
30A
100
AcDbEntity
  8
0
100
AcDbLine
 62
2
  6
CONTINUOUS
 10
89.3563537196
 20
70.6608227348
 11
92.8898293778
 21
70.6608227348
  0
LINE
  5
30B
100
AcDbEntity
  8
0
100
AcDbLine
 62
2
  6
CONTINUOUS
 10
85.0413930897
 20
70.6608227348
 11
78.7913930897
 21
70.6608227348
  0
INSERT
  5
30C
100
AcDbEntity
  8
0
100
AcDbBlockReference
 62
2
  6
CONTINUOUS
  2
_FILLED
 10
89.3563537196
 20
70.6608227348
 41
2.34375
 42
2.34375
 43
2.34375
 50
180.0
  0
INSERT
  5
30D
100
AcDbEntity
  8
0
100
AcDbBlockReference
 62
2
  6
CONTINUOUS
  2
_FILLED
 10
85.0413930897
 20
70.6608227348
 41
2.34375
 42
2.34375
 43
2.34375
  0
ENDBLK
  5
30E
100
AcDbEntity
  8
0
  6
BYBLOCK
 62
0
100
AcDbBlockEnd
  0
BLOCK
  5
30F
100
AcDbEntity
  8
0
100
AcDbBlockBegin
 62
2
  6
CONTINUOUS
  2
*D10
 70
65
 10
0.0
 20
0.0
  3
*D10
  1

  0
MTEXT
  5
310
100
AcDbEntity
  8
0
100
AcDbMText
 62
2
  6
CONTINUOUS
  7
STANDARD
 71
1
 72
1
 10
91.4790202557
 20
96.0908067568
 30
0.0
 11
1.0
 21
0.0
 31
0.0
 44
0.9
  1
127\P[5.0]
 40
1.953125
 41
5.7198660714
  0
LINE
  5
311
100
AcDbEntity
  8
0
100
AcDbLine
 62
2
  6
CONTINUOUS
 10
85.0413930897
 20
89.7655099343
 11
85.0413930897
 21
96.6767442568
  0
LINE
  5
312
100
AcDbEntity
  8
0
100
AcDbLine
 62
2
  6
CONTINUOUS
 10
80.0256450582
 20
81.2205493044
 11
80.0256450582
 21
96.6767442568
  0
LINE
  5
313
100
AcDbEntity
  8
0
100
AcDbLine
 62
2
  6
CONTINUOUS
 10
85.0413930897
 20
95.1142442568
 11
90.5024577557
 21
95.1142442568
  0
LINE
  5
314
100
AcDbEntity
  8
0
100
AcDbLine
 62
2
  6
CONTINUOUS
 10
80.0256450582
 20
95.1142442568
 11
73.7756450582
 21
95.1142442568
  0
INSERT
  5
315
100
AcDbEntity
  8
0
100
AcDbBlockReference
 62
2
  6
CONTINUOUS
  2
_FILLED
 10
85.0413930897
 20
95.1142442568
 41
2.34375
 42
2.34375
 43
2.34375
 50
180.0
  0
INSERT
  5
316
100
AcDbEntity
  8
0
100
AcDbBlockReference
 62
2
  6
CONTINUOUS
  2
_FILLED
 10
80.0256450582
 20
95.1142442568
 41
2.34375
 42
2.34375
 43
2.34375
  0
ENDBLK
  5
317
100
AcDbEntity
  8
0
  6
BYBLOCK
 62
0
100
AcDbBlockEnd
  0
BLOCK
  5
318
100
AcDbEntity
  8
0
100
AcDbBlockBegin
 62
2
  6
CONTINUOUS
  2
*D11
 70
65
 10
0.0
 20
0.0
  3
*D11
  1

  0
MTEXT
  5
319
100
AcDbEntity
  8
0
100
AcDbMText
 62
2
  6
CONTINUOUS
  7
STANDARD
 71
1
 72
1
 10
143.6610518986
 20
66.9719480172
 30
0.0
 11
1.0
 21
0.0
 31
0.0
 44
0.9
  1
110\P[4.3]
 40
1.953125
 41
5.7198660714
  0
LINE
  5
31A
100
AcDbEntity
  8
0
100
AcDbLine
 62
2
  6
CONTINUOUS
 10
132.1451218127
 20
76.8627737138
 11
132.1451218127
 21
64.4328855172
  0
LINE
  5
31B
100
AcDbEntity
  8
0
100
AcDbLine
 62
2
  6
CONTINUOUS
 10
136.4758304742
 20
76.8627737138
 11
136.4758304742
 21
64.4328855172
  0
LINE
  5
31C
100
AcDbEntity
  8
0
100
AcDbLine
 62
2
  6
CONTINUOUS
 10
132.1451218127
 20
65.9953855172
 11
125.8951218127
 21
65.9953855172
  0
LINE
  5
31D
100
AcDbEntity
  8
0
100
AcDbLine
 62
2
  6
CONTINUOUS
 10
136.4758304742
 20
65.9953855172
 11
142.6844893986
 21
65.9953855172
  0
INSERT
  5
31E
100
AcDbEntity
  8
0
100
AcDbBlockReference
 62
2
  6
CONTINUOUS
  2
_FILLED
 10
132.1451218127
 20
65.9953855172
 41
2.34375
 42
2.34375
 43
2.34375
  0
INSERT
  5
31F
100
AcDbEntity
  8
0
100
AcDbBlockReference
 62
2
  6
CONTINUOUS
  2
_FILLED
 10
136.4758304742
 20
65.9953855172
 41
2.34375
 42
2.34375
 43
2.34375
 50
180.0
  0
ENDBLK
  5
320
100
AcDbEntity
  8
0
  6
BYBLOCK
 62
0
100
AcDbBlockEnd
  0
BLOCK
  5
321
100
AcDbEntity
  8
0
100
AcDbBlockBegin
 62
2
  6
CONTINUOUS
  2
*D12
 70
65
 10
0.0
 20
0.0
  3
*D12
  1

  0
MTEXT
  5
322
100
AcDbEntity
  8
0
100
AcDbMText
 62
2
  6
CONTINUOUS
  7
STANDARD
 71
1
 72
1
 10
157.0092616904
 20
74.8578701862
 30
0.0
 11
1.0
 21
0.0
 31
0.0
 44
0.9
  1
134\P[5.3]
 40
1.953125
 41
5.5803571429
  0
LINE
  5
323
100
AcDbEntity
  8
0
100
AcDbLine
 62
2
  6
CONTINUOUS
 10
137.2570804742
 20
77.6440237138
 11
155.4467616904
 21
77.6440237138
  0
LINE
  5
324
100
AcDbEntity
  8
0
100
AcDbLine
 62
2
  6
CONTINUOUS
 10
137.2570804742
 20
82.919614265
 11
155.4467616904
 21
82.919614265
  0
LINE
  5
325
100
AcDbEntity
  8
0
100
AcDbLine
 62
2
  6
CONTINUOUS
 10
153.8842616904
 20
77.6440237138
 11
153.8842616904
 21
73.8813076862
  0
LINE
  5
326
100
AcDbEntity
  8
0
100
AcDbLine
 62
2
  6
CONTINUOUS
 10
153.8842616904
 20
73.8813076862
 11
156.0326991904
 21
73.8813076862
  0
LINE
  5
327
100
AcDbEntity
  8
0
100
AcDbLine
 62
2
  6
CONTINUOUS
 10
153.8842616904
 20
82.919614265
 11
153.8842616904
 21
89.169614265
  0
INSERT
  5
328
100
AcDbEntity
  8
0
100
AcDbBlockReference
 62
2
  6
CONTINUOUS
  2
_FILLED
 10
153.8842616904
 20
77.6440237138
 41
2.34375
 42
2.34375
 43
2.34375
 50
90.0
  0
INSERT
  5
329
100
AcDbEntity
  8
0
100
AcDbBlockReference
 62
2
  6
CONTINUOUS
  2
_FILLED
 10
153.8842616904
 20
82.919614265
 41
2.34375
 42
2.34375
 43
2.34375
 50
270.0
  0
ENDBLK
  5
32A
100
AcDbEntity
  8
0
  6
BYBLOCK
 62
0
100
AcDbBlockEnd
  0
BLOCK
  5
32B
100
AcDbEntity
  8
0
100
AcDbBlockBegin
 62
2
  6
CONTINUOUS
  2
*D13
 70
65
 10
0.0
 20
0.0
  3
*D13
  1

  0
MTEXT
  5
32C
100
AcDbEntity
  8
0
100
AcDbMText
 62
2
  6
CONTINUOUS
  7
STANDARD
 71
3
 72
1
 10
120.1924117982
 20
70.9136108582
 30
0.0
 11
1.0
 21
0.0
 31
0.0
 44
0.9
  1
115\P[4.5]
 40
1.953125
 41
5.7198660714
  0
LINE
  5
32D
100
AcDbEntity
  8
0
100
AcDbLine
 62
2
  6
CONTINUOUS
 10
133.5292261435
 20
82.545598517
 11
123.2982877014
 21
82.545598517
  0
LINE
  5
32E
100
AcDbEntity
  8
0
100
AcDbLine
 62
2
  6
CONTINUOUS
 10
133.5292261435
 20
78.0180394619
 11
123.2982877014
 21
78.0180394619
  0
LINE
  5
32F
100
AcDbEntity
  8
0
100
AcDbLine
 62
2
  6
CONTINUOUS
 10
124.8607877014
 20
82.545598517
 11
124.8607877014
 21
88.795598517
  0
LINE
  5
330
100
AcDbEntity
  8
0
100
AcDbLine
 62
2
  6
CONTINUOUS
 10
124.8607877014
 20
78.0180394619
 11
124.8607877014
 21
69.9370483582
  0
LINE
  5
331
100
AcDbEntity
  8
0
100
AcDbLine
 62
2
  6
CONTINUOUS
 10
124.8607877014
 20
69.9370483582
 11
123.2616082267
 21
69.9370483582
  0
INSERT
  5
332
100
AcDbEntity
  8
0
100
AcDbBlockReference
 62
2
  6
CONTINUOUS
  2
_FILLED
 10
124.8607877014
 20
82.545598517
 41
2.34375
 42
2.34375
 43
2.34375
 50
270.0
  0
INSERT
  5
333
100
AcDbEntity
  8
0
100
AcDbBlockReference
 62
2
  6
CONTINUOUS
  2
_FILLED
 10
124.8607877014
 20
78.0180394619
 41
2.34375
 42
2.34375
 43
2.34375
 50
90.0
  0
ENDBLK
  5
334
100
AcDbEntity
  8
0
  6
BYBLOCK
 62
0
100
AcDbBlockEnd
  0
BLOCK
  5
335
100
AcDbEntity
  8
0
100
AcDbBlockBegin
 62
2
  6
CONTINUOUS
  2
*D14
 70
65
 10
0.0
 20
0.0
  3
*D14
  1

  0
MTEXT
  5
336
100
AcDbEntity
  8
0
100
AcDbMText
 62
2
  6
CONTINUOUS
  7
STANDARD
 71
1
 72
1
 10
141.9917053578
 20
98.4493859652
 30
0.0
 11
1.0
 21
0.0
 31
0.0
 44
0.9
  1
90\P[3.5]
 40
1.953125
 41
5.5803571429
  0
LINE
  5
337
100
AcDbEntity
  8
0
100
AcDbLine
 62
2
  6
CONTINUOUS
 10
132.5388226001
 20
81.0630689894
 11
132.5388226001
 21
99.0353234652
  0
LINE
  5
338
100
AcDbEntity
  8
0
100
AcDbLine
 62
2
  6
CONTINUOUS
 10
136.0821296868
 20
81.0630689894
 11
136.0821296868
 21
99.0353234652
  0
LINE
  5
339
100
AcDbEntity
  8
0
100
AcDbLine
 62
2
  6
CONTINUOUS
 10
132.5388226001
 20
97.4728234652
 11
126.2888226001
 21
97.4728234652
  0
LINE
  5
33A
100
AcDbEntity
  8
0
100
AcDbLine
 62
2
  6
CONTINUOUS
 10
136.0821296868
 20
97.4728234652
 11
141.0151428578
 21
97.4728234652
  0
INSERT
  5
33B
100
AcDbEntity
  8
0
100
AcDbBlockReference
 62
2
  6
CONTINUOUS
  2
_FILLED
 10
132.5388226001
 20
97.4728234652
 41
2.34375
 42
2.34375
 43
2.34375
  0
INSERT
  5
33C
100
AcDbEntity
  8
0
100
AcDbBlockReference
 62
2
  6
CONTINUOUS
  2
_FILLED
 10
136.0821296868
 20
97.4728234652
 41
2.34375
 42
2.34375
 43
2.34375
 50
180.0
  0
ENDBLK
  5
33D
100
AcDbEntity
  8
0
  6
BYBLOCK
 62
0
100
AcDbBlockEnd
  0
BLOCK
  5
33E
100
AcDbEntity
  8
0
100
AcDbBlockBegin
 62
2
  6
CONTINUOUS
  2
*D15
 70
65
 10
0.0
 20
0.0
  3
*D15
  1

  0
MTEXT
  5
33F
100
AcDbEntity
  8
0
100
AcDbMText
 62
2
  6
CONTINUOUS
  7
STANDARD
 71
2
 72
1
 10
112.4283494626
 20
81.1821353089
 30
0.0
 11
1.0
 21
0.0
 31
0.0
 44
0.9
  1
299\P[11.8]
 40
1.953125
 41
6.5569196429
  0
LINE
  5
340
100
AcDbEntity
  8
0
100
AcDbLine
 62
2
  6
CONTINUOUS
 10
129.2486040367
 20
72.5652835564
 11
111.8424119626
 21
72.5652835564
  0
LINE
  5
341
100
AcDbEntity
  8
0
100
AcDbLine
 62
2
  6
CONTINUOUS
 10
132.8641433961
 20
84.3369370997
 11
111.8424119626
 21
84.3369370997
  0
LINE
  5
342
100
AcDbEntity
  8
0
100
AcDbLine
 62
2
  6
CONTINUOUS
 10
113.4049119626
 20
72.5652835564
 11
113.4049119626
 21
66.3152835564
  0
LINE
  5
343
100
AcDbEntity
  8
0
100
AcDbLine
 62
2
  6
CONTINUOUS
 10
113.4049119626
 20
84.3369370997
 11
113.4049119626
 21
90.5869370997
  0
INSERT
  5
344
100
AcDbEntity
  8
0
100
AcDbBlockReference
 62
2
  6
CONTINUOUS
  2
_FILLED
 10
113.4049119626
 20
72.5652835564
 41
2.34375
 42
2.34375
 43
2.34375
 50
90.0
  0
INSERT
  5
345
100
AcDbEntity
  8
0
100
AcDbBlockReference
 62
2
  6
CONTINUOUS
  2
_FILLED
 10
113.4049119626
 20
84.3369370997
 41
2.34375
 42
2.34375
 43
2.34375
 50
270.0
  0
ENDBLK
  5
346
100
AcDbEntity
  8
0
  6
BYBLOCK
 62
0
100
AcDbBlockEnd
  0
BLOCK
  5
347
100
AcDbEntity
  8
0
100
AcDbBlockBegin
 62
2
  6
CONTINUOUS
  2
*D16
 70
65
 10
0.0
 20
0.0
  3
*D16
  1

  0
MTEXT
  5
348
100
AcDbEntity
  8
0
100
AcDbMText
 62
2
  6
CONTINUOUS
  7
STANDARD
 71
1
 72
1
 10
146.6219054019
 20
91.4061089493
 30
0.0
 11
1.0
 21
0.0
 31
0.0
 44
0.9
  1
54\P[2.1]
 40
1.953125
 41
5.4408482143
  0
LINE
  5
349
100
AcDbEntity
  8
0
100
AcDbLine
 62
2
  6
CONTINUOUS
 10
135.7792502874
 20
84.3369370997
 11
145.0594054019
 21
84.3369370997
  0
LINE
  5
34A
100
AcDbEntity
  8
0
100
AcDbLine
 62
2
  6
CONTINUOUS
 10
135.8872172093
 20
86.4629213516
 11
145.0594054019
 21
86.4629213516
  0
LINE
  5
34B
100
AcDbEntity
  8
0
100
AcDbLine
 62
2
  6
CONTINUOUS
 10
143.4969054019
 20
84.3369370997
 11
143.4969054019
 21
78.0869370997
  0
LINE
  5
34C
100
AcDbEntity
  8
0
100
AcDbLine
 62
2
  6
CONTINUOUS
 10
143.4969054019
 20
86.4629213516
 11
143.4969054019
 21
90.4295464493
  0
LINE
  5
34D
100
AcDbEntity
  8
0
100
AcDbLine
 62
2
  6
CONTINUOUS
 10
143.4969054019
 20
90.4295464493
 11
145.6453429019
 21
90.4295464493
  0
INSERT
  5
34E
100
AcDbEntity
  8
0
100
AcDbBlockReference
 62
2
  6
CONTINUOUS
  2
_FILLED
 10
143.4969054019
 20
84.3369370997
 41
2.34375
 42
2.34375
 43
2.34375
 50
90.0
  0
INSERT
  5
34F
100
AcDbEntity
  8
0
100
AcDbBlockReference
 62
2
  6
CONTINUOUS
  2
_FILLED
 10
143.4969054019
 20
86.4629213516
 41
2.34375
 42
2.34375
 43
2.34375
 50
270.0
  0
ENDBLK
  5
350
100
AcDbEntity
  8
0
  6
BYBLOCK
 62
0
100
AcDbBlockEnd
  0
BLOCK
  5
351
100
AcDbEntity
  8
0
100
AcDbBlockBegin
 62
2
  6
CONTINUOUS
  2
*D17
 70
65
 10
0.0
 20
0.0
  3
*D17
  1

  0
MTEXT
  5
352
100
AcDbEntity
  8
0
100
AcDbMText
 62
2
  6
CONTINUOUS
  7
STANDARD
 71
3
 72
1
 10
125.5232184008
 20
104.481303517
 30
0.0
 11
1.0
 21
0.0
 31
0.0
 44
0.9
  1
54\P[2.1]
 40
1.953125
 41
5.4408482143
  0
LINE
  5
353
100
AcDbEntity
  8
0
100
AcDbLine
 62
2
  6
CONTINUOUS
 10
135.3734682694
 20
86.8877248146
 11
135.3734682694
 21
105.067241017
  0
LINE
  5
354
100
AcDbEntity
  8
0
100
AcDbLine
 62
2
  6
CONTINUOUS
 10
133.2474840175
 20
86.9614302333
 11
133.2474840175
 21
105.067241017
  0
LINE
  5
355
100
AcDbEntity
  8
0
100
AcDbLine
 62
2
  6
CONTINUOUS
 10
135.3734682694
 20
103.504741017
 11
141.6234682694
 21
103.504741017
  0
LINE
  5
356
100
AcDbEntity
  8
0
100
AcDbLine
 62
2
  6
CONTINUOUS
 10
133.2474840175
 20
103.504741017
 11
129.0109416151
 21
103.504741017
  0
INSERT
  5
357
100
AcDbEntity
  8
0
100
AcDbBlockReference
 62
2
  6
CONTINUOUS
  2
_FILLED
 10
135.3734682694
 20
103.504741017
 41
2.34375
 42
2.34375
 43
2.34375
 50
180.0
  0
INSERT
  5
358
100
AcDbEntity
  8
0
100
AcDbBlockReference
 62
2
  6
CONTINUOUS
  2
_FILLED
 10
133.2474840175
 20
103.504741017
 41
2.34375
 42
2.34375
 43
2.34375
  0
ENDBLK
  5
359
100
AcDbEntity
  8
0
  6
BYBLOCK
 62
0
100
AcDbBlockEnd
  0
BLOCK
  5
35A
100
AcDbEntity
  8
0
100
AcDbBlockBegin
 62
2
  6
CONTINUOUS
  2
*D18
 70
65
 10
0.0
 20
0.0
  3
*D18
  1

  0
MTEXT
  5
35B
100
AcDbEntity
  8
0
100
AcDbMText
 62
2
  6
CONTINUOUS
  7
STANDARD
 71
2
 72
1
 10
54.1620357467
 20
111.5001232709
 30
0.0
 11
1.0
 21
0.0
 31
0.0
 44
0.9
  1
251\P[9.9]
 40
1.953125
 41
5.859375
  0
LINE
  5
35C
100
AcDbEntity
  8
0
100
AcDbLine
 62
2
  6
CONTINUOUS
 10
43.6161509712
 20
114.1289650344
 11
56.6313437824
 21
114.1289650344
  0
LINE
  5
35D
100
AcDbEntity
  8
0
100
AcDbLine
 62
2
  6
CONTINUOUS
 10
43.765068294
 20
104.2313272391
 11
56.6313437824
 21
104.2313272391
  0
LINE
  5
35E
100
AcDbEntity
  8
0
100
AcDbLine
 62
2
  6
CONTINUOUS
 10
55.0688437824
 20
114.1289650344
 11
55.0688437824
 21
120.3789650344
  0
LINE
  5
35F
100
AcDbEntity
  8
0
100
AcDbLine
 62
2
  6
CONTINUOUS
 10
55.0688437824
 20
104.2313272391
 11
55.0688437824
 21
97.9813272391
  0
INSERT
  5
360
100
AcDbEntity
  8
0
100
AcDbBlockReference
 62
2
  6
CONTINUOUS
  2
_FILLED
 10
55.0688437824
 20
114.1289650344
 41
2.34375
 42
2.34375
 43
2.34375
 50
270.0
  0
INSERT
  5
361
100
AcDbEntity
  8
0
100
AcDbBlockReference
 62
2
  6
CONTINUOUS
  2
_FILLED
 10
55.0688437824
 20
104.2313272391
 41
2.34375
 42
2.34375
 43
2.34375
 50
90.0
  0
ENDBLK
  5
362
100
AcDbEntity
  8
0
  6
BYBLOCK
 62
0
100
AcDbBlockEnd
  0
ENDSEC
  0
SECTION
  2
ENTITIES
  0
MTEXT
  5
363
100
AcDbEntity
  8
0
100
AcDbMText
 62
2
  6
CONTINUOUS
  7
STANDARD
 71
1
 72
1
 10
30.888038886
 20
5.0390478303
 30
0.0
 11
1.0
 21
0.0
 31
0.0
 44
0.9
  1
4
 40
1.953125
 41
1.5345982143
  0
MTEXT
  5
364
100
AcDbEntity
  8
0
100
AcDbMText
 62
2
  6
CONTINUOUS
  7
STANDARD
 71
1
 72
1
 10
79.3019347615
 20
5.02991051
 30
0.0
 11
1.0
 21
0.0
 31
0.0
 44
0.9
  1
3
 40
1.953125
 41
1.3950892857
  0
MTEXT
  5
365
100
AcDbEntity
  8
0
100
AcDbMText
 62
2
  6
CONTINUOUS
  7
STANDARD
 71
1
 72
1
 10
127.6037107944
 20
5.0340675122
 30
0.0
 11
1.0
 21
0.0
 31
0.0
 44
0.9
  1
2
 40
1.953125
 41
1.5345982143
  0
MTEXT
  5
366
100
AcDbEntity
  8
0
100
AcDbMText
 62
2
  6
CONTINUOUS
  7
STANDARD
 71
1
 72
1
 10
175.996228656
 20
5.0342770788
 30
0.0
 11
1.0
 21
0.0
 31
0.0
 44
0.9
  1
1
 40
1.953125
 41
1.1160714286
  0
MTEXT
  5
367
100
AcDbEntity
  8
0
100
AcDbMText
 62
2
  6
CONTINUOUS
  7
STANDARD
 71
1
 72
1
 10
30.8949608921
 20
135.8694811929
 30
0.0
 11
1.0
 21
0.0
 31
0.0
 44
0.9
  1
4
 40
1.953125
 41
1.5345982143
  0
MTEXT
  5
368
100
AcDbEntity
  8
0
100
AcDbMText
 62
2
  6
CONTINUOUS
  7
STANDARD
 71
1
 72
1
 10
79.2828191668
 20
135.8549628959
 30
0.0
 11
1.0
 21
0.0
 31
0.0
 44
0.9
  1
3
 40
1.953125
 41
1.3950892857
  0
MTEXT
  5
369
100
AcDbEntity
  8
0
100
AcDbMText
 62
2
  6
CONTINUOUS
  7
STANDARD
 71
1
 72
1
 10
127.6266483605
 20
135.8525080597
 30
0.0
 11
1.0
 21
0.0
 31
0.0
 44
0.9
  1
2
 40
1.953125
 41
1.5345982143
  0
MTEXT
  5
36A
100
AcDbEntity
  8
0
100
AcDbMText
 62
2
  6
CONTINUOUS
  7
STANDARD
 71
1
 72
1
 10
175.998400312
 20
135.854268419
 30
0.0
 11
1.0
 21
0.0
 31
0.0
 44
0.9
  1
1
 40
1.953125
 41
1.1160714286
  0
MTEXT
  5
36B
100
AcDbEntity
  8
0
100
AcDbMText
 62
2
  6
CONTINUOUS
  7
STANDARD
 71
1
 72
1
 10
3.178352082
 20
23.2412038652
 30
0.0
 11
1.0
 21
0.0
 31
0.0
 44
0.9
  1
A
 40
1.953125
 41
1.6741071429
  0
MTEXT
  5
36C
100
AcDbEntity
  8
0
100
AcDbMText
 62
2
  6
CONTINUOUS
  7
STANDARD
 71
1
 72
1
 10
3.2468403836
 20
54.5033826534
 30
0.0
 11
1.0
 21
0.0
 31
0.0
 44
0.9
  1
B
 40
1.953125
 41
1.5345982143
  0
MTEXT
  5
36D
100
AcDbEntity
  8
0
100
AcDbMText
 62
2
  6
CONTINUOUS
  7
STANDARD
 71
1
 72
1
 10
3.2287382073
 20
85.7237507931
 30
0.0
 11
1.0
 21
0.0
 31
0.0
 44
0.9
  1
C
 40
1.953125
 41
1.6276041667
  0
MTEXT
  5
36E
100
AcDbEntity
  8
0
100
AcDbMText
 62
2
  6
CONTINUOUS
  7
STANDARD
 71
1
 72
1
 10
3.2548970568
 20
117.0263462447
 30
0.0
 11
1.0
 21
0.0
 31
0.0
 44
0.9
  1
D
 40
1.953125
 41
1.7671130952
  0
MTEXT
  5
36F
100
AcDbEntity
  8
0
100
AcDbMText
 62
2
  6
CONTINUOUS
  7
STANDARD
 71
1
 72
1
 10
203.1299852552
 20
23.2374398703
 30
0.0
 11
1.0
 21
0.0
 31
0.0
 44
0.9
  1
A
 40
1.953125
 41
1.6741071429
  0
MTEXT
  5
370
100
AcDbEntity
  8
0
100
AcDbMText
 62
2
  6
CONTINUOUS
  7
STANDARD
 71
1
 72
1
 10
203.1183357624
 20
54.4991642729
 30
0.0
 11
1.0
 21
0.0
 31
0.0
 44
0.9
  1
B
 40
1.953125
 41
1.5345982143
  0
MTEXT
  5
371
100
AcDbEntity
  8
0
100
AcDbMText
 62
2
  6
CONTINUOUS
  7
STANDARD
 71
1
 72
1
 10
203.1131626032
 20
85.7168970021
 30
0.0
 11
1.0
 21
0.0
 31
0.0
 44
0.9
  1
C
 40
1.953125
 41
1.6276041667
  0
MTEXT
  5
372
100
AcDbEntity
  8
0
100
AcDbMText
 62
2
  6
CONTINUOUS
  7
STANDARD
 71
1
 72
1
 10
203.1179347973
 20
117.0227351345
 30
0.0
 11
1.0
 21
0.0
 31
0.0
 44
0.9
  1
D
 40
1.953125
 41
1.7671130952
  0
MTEXT
  5
373
100
AcDbEntity
  8
0
100
AcDbMText
 62
5
  6
CONTINUOUS
  7
STANDARD
 71
1
 72
1
 10
6.8030669516
 20
130.7809027514
 30
0.0
 11
1.0
 21
0.0
 31
0.0
 44
0.9
  1
THIS DOCUMENT CONTAINS PROPRIETARY INFORMATION\PWHICH IS THE PROPERTY OF QSC AUDIO PRODUCTS, THAT\PMAY NOT BE DISCLOSED, REPRODUCED OR USED WITHOUT\PEXPRESS WRITTEN CONSENT FROM QSC AUDIO PRODUCTS.
 40
0.9375
 41
36.7857142857
  0
MTEXT
  5
374
100
AcDbEntity
  8
0
100
AcDbMText
 62
2
  6
CONTINUOUS
  7
STANDARD
 71
2
 72
1
 10
90.4368409897
 20
32.3998187327
 30
0.0
 11
1.0
 21
0.0
 31
0.0
 44
0.9
  1
TOLERANCES ARE:
 40
1.125
 41
12.8839285714
  0
MTEXT
  5
375
100
AcDbEntity
  8
0
100
AcDbMText
 62
2
  6
CONTINUOUS
  7
STANDARD
 71
2
 72
1
 10
101.6162124298
 20
29.5312586829
 30
0.0
 11
1.0
 21
0.0
 31
0.0
 44
0.9
  1
ANGLES\P\Fgdt;{\Fgdt;`}\Ftxt; 1/2
 40
1.125
 41
5.3571428571
  0
MTEXT
  5
376
100
AcDbEntity
  8
0
100
AcDbMText
 62
2
  6
CONTINUOUS
  7
STANDARD
 71
2
 72
1
 10
80.7365560101
 20
21.0777489696
 30
0.0
 11
1.0
 21
0.0
 31
0.0
 44
0.9
  1
MATERIAL
 40
1.125
 41
7.2053571429
  0
MTEXT
  5
377
100
AcDbEntity
  8
0
100
AcDbMText
 62
2
  6
CONTINUOUS
  7
STANDARD
 71
2
 72
1
 10
79.5392464504
 20
13.4643328368
 30
0.0
 11
1.0
 21
0.0
 31
0.0
 44
0.9
  1
FINISH
 40
1.125
 41
5.1160714286
  0
MTEXT
  5
378
100
AcDbEntity
  8
0
100
AcDbMText
 62
2
  6
CONTINUOUS
  7
STANDARD
 71
2
 72
1
 10
165.8724039349
 20
8.5112820217
 30
0.0
 11
1.0
 21
0.0
 31
0.0
 44
0.9
  1
DO NOT SCALE DRAWING
 40
1.5625
 41
25.9672619048
  0
MTEXT
  5
379
100
AcDbEntity
  8
0
100
AcDbMText
 62
2
  6
CONTINUOUS
  7
STANDARD
 71
2
 72
1
 10
107.7993349302
 20
33.9708321072
 30
0.0
 11
1.0
 21
0.0
 31
0.0
 44
0.9
  1
DRAWN
 40
1.125
 41
5.4910714286
  0
MTEXT
  5
37A
100
AcDbEntity
  8
0
100
AcDbMText
 62
2
  6
CONTINUOUS
  7
STANDARD
 71
2
 72
1
 10
108.2383859815
 20
28.4300686801
 30
0.0
 11
1.0
 21
0.0
 31
0.0
 44
0.9
  1
CHECKED
 40
1.125
 41
6.4821428571
  0
MTEXT
  5
37B
100
AcDbEntity
  8
0
100
AcDbMText
 62
2
  6
CONTINUOUS
  7
STANDARD
 71
2
 72
1
 10
108.160814079
 20
22.9763655565
 30
0.0
 11
1.0
 21
0.0
 31
0.0
 44
0.9
  1
MFG ENG
 40
1.125
 41
6.3214285714
  0
MTEXT
  5
37C
100
AcDbEntity
  8
0
100
AcDbMText
 62
2
  6
CONTINUOUS
  7
STANDARD
 71
2
 72
1
 10
108.7247835317
 20
17.4848043349
 30
0.0
 11
1.0
 21
0.0
 31
0.0
 44
0.9
  1
QA CHECK
 40
1.125
 41
7.4732142857
  0
MTEXT
  5
37D
100
AcDbEntity
  8
0
100
AcDbMText
 62
2
  6
CONTINUOUS
  7
STANDARD
 71
2
 72
1
 10
111.9565437546
 20
8.4500308607
 30
0.0
 11
1.0
 21
0.0
 31
0.0
 44
0.9
  1
MODEL INFO:
 40
1.125
 41
9.1875
  0
MTEXT
  5
37E
100
AcDbEntity
  8
0
100
AcDbMText
 62
2
  6
CONTINUOUS
  7
STANDARD
 71
2
 72
1
 10
110.7981361661
 20
11.4795130188
 30
0.0
 11
1.0
 21
0.0
 31
0.0
 44
0.9
  1
DRAWING INFO:
 40
1.125
 41
11.6785714286
  0
MTEXT
  5
37F
100
AcDbEntity
  8
0
100
AcDbMText
 62
2
  6
CONTINUOUS
  7
STANDARD
 71
2
 72
1
 10
115.5165405697
 20
36.953165809
 30
0.0
 11
1.0
 21
0.0
 31
0.0
 44
0.9
  1
APPROVALS
 40
1.125
 41
8.2232142857
  0
MTEXT
  5
380
100
AcDbEntity
  8
0
100
AcDbMText
 62
2
  6
CONTINUOUS
  7
STANDARD
 71
2
 72
1
 10
131.8007830567
 20
37.9394688141
 30
0.0
 11
1.0
 21
0.0
 31
0.0
 44
0.9
  1
DATE\P(DD-MMM-YY)
 40
1.125
 41
9.4285714286
  0
MTEXT
  5
381
100
AcDbEntity
  8
0
100
AcDbMText
 62
2
  6
CONTINUOUS
  7
STANDARD
 71
2
 72
1
 10
140.4920572673
 20
8.3377541278
 30
0.0
 11
1.0
 21
0.0
 31
0.0
 44
0.9
  1
SCALE:
 40
1.125
 41
4.9285714286
  0
MTEXT
  5
382
100
AcDbEntity
  8
0
100
AcDbMText
 62
2
  6
CONTINUOUS
  7
STANDARD
 71
2
 72
1
 10
182.7030341786
 20
8.3585110814
 30
0.0
 11
1.0
 21
0.0
 31
0.0
 44
0.9
  1
SHEET
 40
1.125
 41
4.5535714286
  0
MTEXT
  5
383
100
AcDbEntity
  8
0
100
AcDbMText
 62
2
  6
CONTINUOUS
  7
STANDARD
 71
2
 72
1
 10
140.5247431347
 20
15.1291208415
 30
0.0
 11
1.0
 21
0.0
 31
0.0
 44
0.9
  1
SIZE
 40
1.125
 41
3.5089285714
  0
MTEXT
  5
384
100
AcDbEntity
  8
0
100
AcDbMText
 62
2
  6
CONTINUOUS
  7
STANDARD
 71
2
 72
1
 10
149.7962201084
 20
15.1427055389
 30
0.0
 11
1.0
 21
0.0
 31
0.0
 44
0.9
  1
CAGE CODE
 40
1.125
 41
8.3303571429
  0
MTEXT
  5
385
100
AcDbEntity
  8
0
100
AcDbMText
 62
2
  6
CONTINUOUS
  7
STANDARD
 71
2
 72
1
 10
161.7618718504
 20
15.1166620715
 30
0.0
 11
1.0
 21
0.0
 31
0.0
 44
0.9
  1
DRAWING NO.
 40
1.125
 41
10.3928571429
  0
MTEXT
  5
386
100
AcDbEntity
  8
0
100
AcDbMText
 62
2
  6
CONTINUOUS
  7
STANDARD
 71
2
 72
1
 10
197.026658243
 20
15.1334238335
 30
0.0
 11
1.0
 21
0.0
 31
0.0
 44
0.9
  1
REV
 40
1.125
 41
2.8392857143
  0
MTEXT
  5
387
100
AcDbEntity
  8
0
100
AcDbMText
 62
2
  6
CONTINUOUS
  7
STANDARD
 71
2
 72
1
 10
179.1762020397
 20
37.3412304273
 30
0.0
 11
1.0
 21
0.0
 31
0.0
 44
0.9
  1
QSC AUDIO PRODUCTS, LLC
 40
1.953125
 41
35.5747767857
  0
MTEXT
  5
388
100
AcDbEntity
  8
0
100
AcDbMText
 62
2
  6
CONTINUOUS
  7
STANDARD
 71
1
 72
1
 10
161.4016551726
 20
34.4286270486
 30
0.0
 11
1.0
 21
0.0
 31
0.0
 44
0.9
  1
1675  MACARTHUR BOULEVARD\PCOSTA MESA, CA  92626
 40
1.5625
 41
31.1011904762
  0
MTEXT
  5
389
100
AcDbEntity
  8
0
100
AcDbMText
 62
2
  6
CONTINUOUS
  7
STANDARD
 71
1
 72
1
 10
145.3763561114
 20
12.4534561472
 30
0.0
 11
1.0
 21
0.0
 31
0.0
 44
0.9
  1
00PW4
 40
1.953125
 41
9.1610863095
  0
MTEXT
  5
38A
100
AcDbEntity
  8
0
100
AcDbMText
 62
2
  6
CONTINUOUS
  7
STANDARD
 71
2
 72
1
 10
90.6883609643
 20
37.1472804356
 30
0.0
 11
1.0
 21
0.0
 31
0.0
 44
0.9
  1
UNLESS OTHERWISE SPECIFIED\PDIMENSIONS IN MILLIMETERS [IN]
 40
1.25
 41
27.380952381
  0
MTEXT
  5
38B
100
AcDbEntity
  8
0
100
AcDbMText
 62
2
  6
CONTINUOUS
  7
STANDARD
 71
2
 72
1
 10
81.605347058
 20
29.5489401787
 30
0.0
 11
1.0
 21
0.0
 31
0.0
 44
0.9
  1
DECIMALS\P.X\Fgdt;{\Fgdt;`}\Ftxt;.5[.02]
 40
1.125
 41
7.7410714286
  0
MTEXT
  5
38C
100
AcDbEntity
  8
0
100
AcDbMText
 62
2
  6
CONTINUOUS
  7
STANDARD
 71
2
 72
1
 10
92.5101098472
 20
29.5549289194
 30
0.0
 11
1.0
 21
0.0
 31
0.0
 44
0.9
  1
DECIMALS\P.XX\Fgdt;{\Fgdt;`}\Ftxt;.25[.010]
 40
1.125
 41
10.2321428571
  0
MTEXT
  5
38D
100
AcDbEntity
  8
0
100
AcDbMText
 62
2
  6
CONTINUOUS
  7
STANDARD
 71
2
 72
1
 10
90.5071406127
 20
24.6445477075
 30
0.0
 11
1.0
 21
0.0
 31
0.0
 44
0.9
  1
DEBURR EDGES .25 [.010] R MAX
 40
1.125
 41
24.5089285714
  0
INSERT
  5
38E
100
AcDbEntity
  8
0
100
AcDbBlockReference
 62
7
  6
CONTINUOUS
  2
SYMBOL_0_BL0
 10
148.6102537351
 20
33.7638833147
  0
DIMENSION
  5
38F
100
AcDbEntity
  8
0
100
AcDbDimension
 62
2
  6
CONTINUOUS
  2
*D0
 10
27.1528969334
 20
109.1132170029
 11
19.1055222645
 21
103.5678082405
 70
160
 71
3
 42
127.4
  3
DIMSTYLE_1
100
AcDbAlignedDimension
 13
36.0258950657
 23
114.1289650344
 14
39.0397730185
 24
109.1132170029
 50
270.0
100
AcDbRotatedDimension
  0
DIMENSION
  5
390
100
AcDbEntity
  8
0
100
AcDbDimension
 62
2
  6
CONTINUOUS
  2
*D1
 10
44.8385254266
 20
101.2829150341
 11
39.4406839372
 21
99.8180712841
 70
160
 71
2
 42
255.3151332508
  3
DIMSTYLE_1
100
AcDbAlignedDimension
 13
34.786748527
 23
105.1610033581
 14
44.8385254266
 24
105.4144258026
100
AcDbRotatedDimension
  0
DIMENSION
  5
391
100
AcDbEntity
  8
0
100
AcDbDimension
 62
2
  6
CONTINUOUS
  2
*D2
 10
50.865094754
 20
72.5652835564
 11
49.5048827005
 21
80.9788756574
 70
160
 71
2
 42
440.0
  3
DIMSTYLE_1
100
AcDbAlignedDimension
 13
43.765068294
 23
89.888118202
 14
43.765068294
 24
72.5652835564
 50
270.0
100
AcDbRotatedDimension
  0
DIMENSION
  5
392
100
AcDbEntity
  8
0
100
AcDbDimension
 62
2
  6
CONTINUOUS
  2
*D3
 10
43.1281096326
 20
68.4464132644
 11
28.7467994667
 21
66.9815695144
 70
160
 71
3
 42
168.0
  3
DIMSTYLE_1
100
AcDbAlignedDimension
 13
36.5139364043
 23
60.091468251
 14
43.1281096326
 24
60.091468251
100
AcDbRotatedDimension
  0
DIMENSION
  5
393
100
AcDbEntity
  8
0
100
AcDbDimension
 62
2
  6
CONTINUOUS
  2
*D4
 10
27.3665192572
 20
57.6173048652
 11
33.351452293
 21
47.5517881429
 70
160
 71
1
 42
127.4
  3
DIMSTYLE_1
100
AcDbAlignedDimension
 13
36.0258950657
 23
52.6015568337
 14
39.0397730185
 24
57.6173048652
 50
90.0
100
AcDbRotatedDimension
  0
DIMENSION
  5
394
100
AcDbEntity
  8
0
100
AcDbDimension
 62
2
  6
CONTINUOUS
  2
*D5
 10
21.6660503962
 20
59.310218251
 11
20.410470039
 21
55.8942249991
 70
160
 71
2
 42
170.4
  3
DIMSTYLE_1
100
AcDbAlignedDimension
 13
36.0258950657
 23
52.6015568337
 14
35.7326864043
 24
59.310218251
 50
90.0
100
AcDbRotatedDimension
  0
DIMENSION
  5
395
100
AcDbEntity
  8
0
100
AcDbDimension
 62
2
  6
CONTINUOUS
  2
*D6
 10
67.8462529843
 20
80.4392993044
 11
66.4860409307
 21
76.6412413202
 70
160
 71
2
 42
200.0
  3
DIMSTYLE_1
100
AcDbAlignedDimension
 13
74.3625052944
 23
72.5652835564
 14
79.2443950582
 24
80.4392993044
 50
90.0
100
AcDbRotatedDimension
  0
DIMENSION
  5
396
100
AcDbEntity
  8
0
100
AcDbDimension
 62
2
  6
CONTINUOUS
  2
*D7
 10
75.1437552944
 20
57.6595444423
 11
81.029351382
 21
56.1947006923
 70
160
 71
2
 42
361.0
  3
DIMSTYLE_1
100
AcDbAlignedDimension
 13
89.3563537196
 23
76.8627737138
 14
75.1437552944
 24
71.7840335564
 50
180.0
100
AcDbRotatedDimension
  0
DIMENSION
  5
397
100
AcDbEntity
  8
0
100
AcDbDimension
 62
2
  6
CONTINUOUS
  2
*D8
 10
80.0256450582
 20
63.6373841863
 11
104.6248223183
 21
62.1725404363
 70
160
 71
1
 42
237.0
  3
DIMSTYLE_1
100
AcDbAlignedDimension
 13
89.3563537196
 23
76.8627737138
 14
80.0256450582
 24
79.6580493044
 50
180.0
100
AcDbRotatedDimension
  0
DIMENSION
  5
398
100
AcDbEntity
  8
0
100
AcDbDimension
 62
2
  6
CONTINUOUS
  2
*D9
 10
85.0413930897
 20
70.6608227348
 11
96.7263249136
 21
69.1959789848
 70
160
 71
1
 42
109.6
  3
DIMSTYLE_1
100
AcDbAlignedDimension
 13
89.3563537196
 23
76.8627737138
 14
85.0413930897
 24
72.6878918241
 50
180.0
100
AcDbRotatedDimension
  0
DIMENSION
  5
399
100
AcDbEntity
  8
0
100
AcDbDimension
 62
2
  6
CONTINUOUS
  2
*D10
 10
80.0256450582
 20
95.1142442568
 11
94.3389532914
 21
93.6494005068
 70
160
 71
1
 42
127.4
  3
DIMSTYLE_1
100
AcDbAlignedDimension
 13
85.0413930897
 23
89.7655099343
 14
80.0256450582
 24
81.2205493044
 50
180.0
100
AcDbRotatedDimension
  0
DIMENSION
  5
39A
100
AcDbEntity
  8
0
100
AcDbDimension
 62
2
  6
CONTINUOUS
  2
*D11
 10
136.4758304742
 20
65.9953855172
 11
146.5209849343
 21
64.5305417672
 70
160
 71
1
 42
110.0
  3
DIMSTYLE_1
100
AcDbAlignedDimension
 13
132.1451218127
 23
76.8627737138
 14
136.4758304742
 24
76.8627737138
100
AcDbRotatedDimension
  0
DIMENSION
  5
39B
100
AcDbEntity
  8
0
100
AcDbDimension
 62
2
  6
CONTINUOUS
  2
*D12
 10
153.8842616904
 20
82.919614265
 11
159.7994402618
 21
72.4164639362
 70
160
 71
1
 42
134.0
  3
DIMSTYLE_1
100
AcDbAlignedDimension
 13
137.2570804742
 23
77.6440237138
 14
137.2570804742
 24
82.919614265
 50
90.0
100
AcDbRotatedDimension
  0
DIMENSION
  5
39C
100
AcDbEntity
  8
0
100
AcDbDimension
 62
2
  6
CONTINUOUS
  2
*D13
 10
124.8607877014
 20
78.0180394619
 11
117.1929698339
 21
68.4722046082
 70
160
 71
3
 42
115.0
  3
DIMSTYLE_1
100
AcDbAlignedDimension
 13
133.5292261435
 23
82.545598517
 14
133.5292261435
 24
78.0180394619
 50
270.0
100
AcDbRotatedDimension
  0
DIMENSION
  5
39D
100
AcDbEntity
  8
0
100
AcDbDimension
 62
2
  6
CONTINUOUS
  2
*D14
 10
136.0821296868
 20
97.4728234652
 11
144.7818839292
 21
96.0079797152
 70
160
 71
1
 42
90.0
  3
DIMSTYLE_1
100
AcDbAlignedDimension
 13
132.5388226001
 23
81.0630689894
 14
136.0821296868
 24
81.0630689894
100
AcDbRotatedDimension
  0
DIMENSION
  5
39E
100
AcDbEntity
  8
0
100
AcDbDimension
 62
2
  6
CONTINUOUS
  2
*D15
 10
113.4049119626
 20
84.3369370997
 11
112.0446999091
 21
78.7407290589
 70
160
 71
2
 42
299.0
  3
DIMSTYLE_1
100
AcDbAlignedDimension
 13
129.2486040367
 23
72.5652835564
 14
132.8641433961
 24
84.3369370997
 50
90.0
100
AcDbRotatedDimension
  0
DIMENSION
  5
39F
100
AcDbEntity
  8
0
100
AcDbDimension
 62
2
  6
CONTINUOUS
  2
*D16
 10
143.4969054019
 20
86.4629213516
 11
149.342329509
 21
88.9647026993
 70
160
 71
1
 42
54.0
  3
DIMSTYLE_1
100
AcDbAlignedDimension
 13
135.7792502874
 23
84.3369370997
 14
135.8872172093
 24
86.4629213516
 50
90.0
100
AcDbRotatedDimension
  0
DIMENSION
  5
3A0
100
AcDbEntity
  8
0
100
AcDbDimension
 62
2
  6
CONTINUOUS
  2
*D17
 10
133.2474840175
 20
103.504741017
 11
123.4305844722
 21
102.039897267
 70
160
 71
3
 42
54.0
  3
DIMSTYLE_1
100
AcDbAlignedDimension
 13
135.3734682694
 23
86.8877248146
 14
133.2474840175
 24
86.9614302333
 50
180.0
100
AcDbRotatedDimension
  0
DIMENSION
  5
3A1
100
AcDbEntity
  8
0
100
AcDbDimension
 62
2
  6
CONTINUOUS
  2
*D18
 10
55.0688437824
 20
104.2313272391
 11
53.8481406574
 21
109.0587170209
 70
160
 71
2
 42
251.4
  3
DIMSTYLE_1
100
AcDbAlignedDimension
 13
43.6161509712
 23
114.1289650344
 14
43.765068294
 24
104.2313272391
 50
270.0
100
AcDbRotatedDimension
  0
LINE
  5
3A2
100
AcDbEntity
  8
0
100
AcDbLine
 62
2
  6
CONTINUOUS
 10
76.5625
 20
21.875
 11
104.6875
 21
21.875
  0
LINE
  5
3A3
100
AcDbEntity
  8
0
100
AcDbLine
 62
2
  6
CONTINUOUS
 10
76.5625
 20
21.875
 11
76.5625
 21
14.0625
  0
LINE
  5
3A4
100
AcDbEntity
  8
0
100
AcDbLine
 62
2
  6
CONTINUOUS
 10
76.5625
 20
14.0625
 11
104.6875
 21
14.0625
  0
LINE
  5
3A5
100
AcDbEntity
  8
0
100
AcDbLine
 62
2
  6
CONTINUOUS
 10
104.6875
 20
21.875
 11
104.6875
 21
14.0625
  0
LINE
  5
3A6
100
AcDbEntity
  8
0
100
AcDbLine
 62
2
  6
CONTINUOUS
 10
76.5625
 20
14.0625
 11
104.6875
 21
14.0625
  0
LINE
  5
3A7
100
AcDbEntity
  8
0
100
AcDbLine
 62
2
  6
CONTINUOUS
 10
76.5625
 20
14.0625
 11
76.5625
 21
6.25
  0
LINE
  5
3A8
100
AcDbEntity
  8
0
100
AcDbLine
 62
2
  6
CONTINUOUS
 10
76.5625
 20
6.25
 11
104.6875
 21
6.25
  0
LINE
  5
3A9
100
AcDbEntity
  8
0
100
AcDbLine
 62
2
  6
CONTINUOUS
 10
104.6875
 20
14.0625
 11
104.6875
 21
6.25
  0
LINE
  5
3AA
100
AcDbEntity
  8
0
100
AcDbLine
 62
2
  6
CONTINUOUS
 10
104.6875
 20
34.375
 11
126.5625
 21
34.375
  0
LINE
  5
3AB
100
AcDbEntity
  8
0
100
AcDbLine
 62
2
  6
CONTINUOUS
 10
104.6875
 20
34.375
 11
104.6875
 21
29.00390625
  0
LINE
  5
3AC
100
AcDbEntity
  8
0
100
AcDbLine
 62
2
  6
CONTINUOUS
 10
104.6875
 20
29.00390625
 11
126.5625
 21
29.00390625
  0
LINE
  5
3AD
100
AcDbEntity
  8
0
100
AcDbLine
 62
2
  6
CONTINUOUS
 10
126.5625
 20
34.375
 11
126.5625
 21
29.00390625
  0
MTEXT
  5
3AE
100
AcDbEntity
  8
0
100
AcDbMText
 62
2
  6
CONTINUOUS
  7
STANDARD
 71
1
 72
1
 10
105.46875
 20
31.93359375
 30
0.0
 11
1.0
 21
0.0
 31
0.0
 44
0.9
  1
D. SIMPSON 
 40
1.953125
 41
16.5550595238
  0
LINE
  5
3AF
100
AcDbEntity
  8
0
100
AcDbLine
 62
2
  6
CONTINUOUS
 10
104.6875
 20
28.90625
 11
126.5625
 21
28.90625
  0
LINE
  5
3B0
100
AcDbEntity
  8
0
100
AcDbLine
 62
2
  6
CONTINUOUS
 10
104.6875
 20
28.90625
 11
104.6875
 21
23.40625
  0
LINE
  5
3B1
100
AcDbEntity
  8
0
100
AcDbLine
 62
2
  6
CONTINUOUS
 10
104.6875
 20
23.40625
 11
126.5625
 21
23.40625
  0
LINE
  5
3B2
100
AcDbEntity
  8
0
100
AcDbLine
 62
2
  6
CONTINUOUS
 10
126.5625
 20
28.90625
 11
126.5625
 21
23.40625
  0
MTEXT
  5
3B3
100
AcDbEntity
  8
0
100
AcDbMText
 62
2
  6
CONTINUOUS
  7
STANDARD
 71
1
 72
1
 10
105.46875
 20
26.3359375
 30
0.0
 11
1.0
 21
0.0
 31
0.0
 44
0.9
  1
- 
 40
1.953125
 41
2.9296875
  0
LINE
  5
3B4
100
AcDbEntity
  8
0
100
AcDbLine
 62
2
  6
CONTINUOUS
 10
104.6875
 20
23.4375
 11
126.5625
 21
23.4375
  0
LINE
  5
3B5
100
AcDbEntity
  8
0
100
AcDbLine
 62
2
  6
CONTINUOUS
 10
104.6875
 20
23.4375
 11
104.6875
 21
18.06640625
  0
LINE
  5
3B6
100
AcDbEntity
  8
0
100
AcDbLine
 62
2
  6
CONTINUOUS
 10
104.6875
 20
18.06640625
 11
126.5625
 21
18.06640625
  0
LINE
  5
3B7
100
AcDbEntity
  8
0
100
AcDbLine
 62
2
  6
CONTINUOUS
 10
126.5625
 20
23.4375
 11
126.5625
 21
18.06640625
  0
MTEXT
  5
3B8
100
AcDbEntity
  8
0
100
AcDbMText
 62
2
  6
CONTINUOUS
  7
STANDARD
 71
1
 72
1
 10
105.46875
 20
20.99609375
 30
0.0
 11
1.0
 21
0.0
 31
0.0
 44
0.9
  1
N/A
 40
1.953125
 41
4.6968005952
  0
LINE
  5
3B9
100
AcDbEntity
  8
0
100
AcDbLine
 62
2
  6
CONTINUOUS
 10
104.6875
 20
17.96875
 11
126.5625
 21
17.96875
  0
LINE
  5
3BA
100
AcDbEntity
  8
0
100
AcDbLine
 62
2
  6
CONTINUOUS
 10
104.6875
 20
17.96875
 11
104.6875
 21
12.46875
  0
LINE
  5
3BB
100
AcDbEntity
  8
0
100
AcDbLine
 62
2
  6
CONTINUOUS
 10
104.6875
 20
12.46875
 11
126.5625
 21
12.46875
  0
LINE
  5
3BC
100
AcDbEntity
  8
0
100
AcDbLine
 62
2
  6
CONTINUOUS
 10
126.5625
 20
17.96875
 11
126.5625
 21
12.46875
  0
MTEXT
  5
3BD
100
AcDbEntity
  8
0
100
AcDbMText
 62
2
  6
CONTINUOUS
  7
STANDARD
 71
1
 72
1
 10
105.46875
 20
15.3984375
 30
0.0
 11
1.0
 21
0.0
 31
0.0
 44
0.9
  1
N/A
 40
1.953125
 41
4.6968005952
  0
LINE
  5
3BE
100
AcDbEntity
  8
0
100
AcDbLine
 62
2
  6
CONTINUOUS
 10
126.5625
 20
34.375
 11
137.5
 21
34.375
  0
LINE
  5
3BF
100
AcDbEntity
  8
0
100
AcDbLine
 62
2
  6
CONTINUOUS
 10
126.5625
 20
34.375
 11
126.5625
 21
28.875
  0
LINE
  5
3C0
100
AcDbEntity
  8
0
100
AcDbLine
 62
2
  6
CONTINUOUS
 10
126.5625
 20
28.875
 11
137.5
 21
28.875
  0
LINE
  5
3C1
100
AcDbEntity
  8
0
100
AcDbLine
 62
2
  6
CONTINUOUS
 10
137.5
 20
34.375
 11
137.5
 21
28.875
  0
MTEXT
  5
3C2
100
AcDbEntity
  8
0
100
AcDbMText
 62
2
  6
CONTINUOUS
  7
STANDARD
 71
2
 72
1
 10
132.03125
 20
31.3515625
 30
0.0
 11
1.0
 21
0.0
 31
0.0
 44
0.9
  1
06-FEB-13
 40
1.5
 41
9.75
  0
LINE
  5
3C3
100
AcDbEntity
  8
0
100
AcDbLine
 62
2
  6
CONTINUOUS
 10
126.5625
 20
28.90625
 11
137.5
 21
28.90625
  0
LINE
  5
3C4
100
AcDbEntity
  8
0
100
AcDbLine
 62
2
  6
CONTINUOUS
 10
126.5625
 20
28.90625
 11
126.5625
 21
23.40625
  0
LINE
  5
3C5
100
AcDbEntity
  8
0
100
AcDbLine
 62
2
  6
CONTINUOUS
 10
126.5625
 20
23.40625
 11
137.5
 21
23.40625
  0
LINE
  5
3C6
100
AcDbEntity
  8
0
100
AcDbLine
 62
2
  6
CONTINUOUS
 10
137.5
 20
28.90625
 11
137.5
 21
23.40625
  0
MTEXT
  5
3C7
100
AcDbEntity
  8
0
100
AcDbMText
 62
2
  6
CONTINUOUS
  7
STANDARD
 71
2
 72
1
 10
132.03125
 20
25.8828125
 30
0.0
 11
1.0
 21
0.0
 31
0.0
 44
0.9
  1
-
 40
1.5
 41
1.0714285714
  0
LINE
  5
3C8
100
AcDbEntity
  8
0
100
AcDbLine
 62
2
  6
CONTINUOUS
 10
126.5625
 20
23.4375
 11
137.5
 21
23.4375
  0
LINE
  5
3C9
100
AcDbEntity
  8
0
100
AcDbLine
 62
2
  6
CONTINUOUS
 10
126.5625
 20
23.4375
 11
126.5625
 21
17.9375
  0
LINE
  5
3CA
100
AcDbEntity
  8
0
100
AcDbLine
 62
2
  6
CONTINUOUS
 10
126.5625
 20
17.9375
 11
137.5
 21
17.9375
  0
LINE
  5
3CB
100
AcDbEntity
  8
0
100
AcDbLine
 62
2
  6
CONTINUOUS
 10
137.5
 20
23.4375
 11
137.5
 21
17.9375
  0
MTEXT
  5
3CC
100
AcDbEntity
  8
0
100
AcDbMText
 62
2
  6
CONTINUOUS
  7
STANDARD
 71
2
 72
1
 10
132.03125
 20
20.4140625
 30
0.0
 11
1.0
 21
0.0
 31
0.0
 44
0.9
  1
-
 40
1.5
 41
1.0714285714
  0
LINE
  5
3CD
100
AcDbEntity
  8
0
100
AcDbLine
 62
2
  6
CONTINUOUS
 10
126.5625
 20
17.96875
 11
137.5
 21
17.96875
  0
LINE
  5
3CE
100
AcDbEntity
  8
0
100
AcDbLine
 62
2
  6
CONTINUOUS
 10
126.5625
 20
17.96875
 11
126.5625
 21
12.59765625
  0
LINE
  5
3CF
100
AcDbEntity
  8
0
100
AcDbLine
 62
2
  6
CONTINUOUS
 10
126.5625
 20
12.59765625
 11
137.5
 21
12.59765625
  0
LINE
  5
3D0
100
AcDbEntity
  8
0
100
AcDbLine
 62
2
  6
CONTINUOUS
 10
137.5
 20
17.96875
 11
137.5
 21
12.59765625
  0
MTEXT
  5
3D1
100
AcDbEntity
  8
0
100
AcDbMText
 62
2
  6
CONTINUOUS
  7
STANDARD
 71
2
 72
1
 10
132.03125
 20
15.07421875
 30
0.0
 11
1.0
 21
0.0
 31
0.0
 44
0.9
  1
-
 40
1.5
 41
1.0714285714
  0
LINE
  5
3D2
100
AcDbEntity
  8
0
100
AcDbLine
 62
2
  6
CONTINUOUS
 10
104.6875
 20
12.5
 11
137.5
 21
12.5
  0
LINE
  5
3D3
100
AcDbEntity
  8
0
100
AcDbLine
 62
2
  6
CONTINUOUS
 10
104.6875
 20
12.5
 11
104.6875
 21
9.375
  0
LINE
  5
3D4
100
AcDbEntity
  8
0
100
AcDbLine
 62
2
  6
CONTINUOUS
 10
104.6875
 20
9.375
 11
137.5
 21
9.375
  0
LINE
  5
3D5
100
AcDbEntity
  8
0
100
AcDbLine
 62
2
  6
CONTINUOUS
 10
137.5
 20
12.5
 11
137.5
 21
9.375
  0
MTEXT
  5
3D6
100
AcDbEntity
  8
0
100
AcDbMText
 62
2
  6
CONTINUOUS
  7
STANDARD
 71
3
 72
1
 10
136.71875
 20
11.7265625
 30
0.0
 11
1.0
 21
0.0
 31
0.0
 44
0.9
  1
FG-020008-2D.A.3
 40
1.375
 41
16.5654761905
  0
LINE
  5
3D7
100
AcDbEntity
  8
0
100
AcDbLine
 62
2
  6
CONTINUOUS
 10
104.6875
 20
9.375
 11
137.5
 21
9.375
  0
LINE
  5
3D8
100
AcDbEntity
  8
0
100
AcDbLine
 62
2
  6
CONTINUOUS
 10
104.6875
 20
9.375
 11
104.6875
 21
6.25
  0
LINE
  5
3D9
100
AcDbEntity
  8
0
100
AcDbLine
 62
2
  6
CONTINUOUS
 10
104.6875
 20
6.25
 11
137.5
 21
6.25
  0
LINE
  5
3DA
100
AcDbEntity
  8
0
100
AcDbLine
 62
2
  6
CONTINUOUS
 10
137.5
 20
9.375
 11
137.5
 21
6.25
  0
MTEXT
  5
3DB
100
AcDbEntity
  8
0
100
AcDbMText
 62
2
  6
CONTINUOUS
  7
STANDARD
 71
3
 72
1
 10
136.71875
 20
8.6015625
 30
0.0
 11
1.0
 21
0.0
 31
0.0
 44
0.9
  1
FG-020012-3D.1.4
 40
1.375
 41
15.8779761905
  0
LINE
  5
3DC
100
AcDbEntity
  8
0
100
AcDbLine
 62
2
  6
CONTINUOUS
 10
137.5
 20
29.6875
 11
200.0
 21
29.6875
  0
LINE
  5
3DD
100
AcDbEntity
  8
0
100
AcDbLine
 62
2
  6
CONTINUOUS
 10
137.5
 20
29.6875
 11
137.5
 21
15.625
  0
LINE
  5
3DE
100
AcDbEntity
  8
0
100
AcDbLine
 62
2
  6
CONTINUOUS
 10
137.5
 20
15.625
 11
200.0
 21
15.625
  0
LINE
  5
3DF
100
AcDbEntity
  8
0
100
AcDbLine
 62
2
  6
CONTINUOUS
 10
200.0
 20
29.6875
 11
200.0
 21
15.625
  0
MTEXT
  5
3E0
100
AcDbEntity
  8
0
100
AcDbMText
 62
2
  6
CONTINUOUS
  7
STANDARD
 71
2
 72
1
 10
168.75
 20
24.34375
 30
0.0
 11
1.0
 21
0.0
 31
0.0
 44
1.02
  1
SPEAKER FINISHED, S8T
 40
2.5
 41
39.9404761905
  0
LINE
  5
3E1
100
AcDbEntity
  8
0
100
AcDbLine
 62
2
  6
CONTINUOUS
 10
137.5136537868
 20
15.5992558437
 11
143.7636537868
 21
15.5992558437
  0
LINE
  5
3E2
100
AcDbEntity
  8
0
100
AcDbLine
 62
2
  6
CONTINUOUS
 10
137.5136537868
 20
15.5992558437
 11
137.5136537868
 21
9.3492558437
  0
LINE
  5
3E3
100
AcDbEntity
  8
0
100
AcDbLine
 62
2
  6
CONTINUOUS
 10
137.5136537868
 20
9.3492558437
 11
143.7636537868
 21
9.3492558437
  0
LINE
  5
3E4
100
AcDbEntity
  8
0
100
AcDbLine
 62
2
  6
CONTINUOUS
 10
143.7636537868
 20
15.5992558437
 11
143.7636537868
 21
9.3492558437
  0
MTEXT
  5
3E5
100
AcDbEntity
  8
0
100
AcDbMText
 62
2
  6
CONTINUOUS
  7
STANDARD
 71
2
 72
1
 10
140.6386537868
 20
12.8258183437
 30
0.0
 11
1.0
 21
0.0
 31
0.0
 44
0.9
  1
B
 40
2.5
 41
1.9642857143
  0
LINE
  5
3E6
100
AcDbEntity
  8
0
100
AcDbLine
 62
2
  6
CONTINUOUS
 10
156.2564687199
 20
15.562182364
 11
193.7564687199
 21
15.562182364
  0
LINE
  5
3E7
100
AcDbEntity
  8
0
100
AcDbLine
 62
2
  6
CONTINUOUS
 10
156.2564687199
 20
15.562182364
 11
156.2564687199
 21
9.312182364
  0
LINE
  5
3E8
100
AcDbEntity
  8
0
100
AcDbLine
 62
2
  6
CONTINUOUS
 10
156.2564687199
 20
9.312182364
 11
193.7564687199
 21
9.312182364
  0
LINE
  5
3E9
100
AcDbEntity
  8
0
100
AcDbLine
 62
2
  6
CONTINUOUS
 10
193.7564687199
 20
15.562182364
 11
193.7564687199
 21
9.312182364
  0
MTEXT
  5
3EA
100
AcDbEntity
  8
0
100
AcDbMText
 62
2
  6
CONTINUOUS
  7
STANDARD
 71
2
 72
1
 10
175.0064687199
 20
13.163744864
 30
0.0
 11
1.0
 21
0.0
 31
0.0
 44
0.9
  1
FG-020008-2D
 40
2.875
 41
26.8333333333
  0
LINE
  5
3EB
100
AcDbEntity
  8
0
100
AcDbLine
 62
2
  6
CONTINUOUS
 10
193.7337487033
 20
15.6035977827
 11
199.9837487033
 21
15.6035977827
  0
LINE
  5
3EC
100
AcDbEntity
  8
0
100
AcDbLine
 62
2
  6
CONTINUOUS
 10
193.7337487033
 20
15.6035977827
 11
193.7337487033
 21
9.3535977827
  0
LINE
  5
3ED
100
AcDbEntity
  8
0
100
AcDbLine
 62
2
  6
CONTINUOUS
 10
193.7337487033
 20
9.3535977827
 11
199.9837487033
 21
9.3535977827
  0
LINE
  5
3EE
100
AcDbEntity
  8
0
100
AcDbLine
 62
2
  6
CONTINUOUS
 10
199.9837487033
 20
15.6035977827
 11
199.9837487033
 21
9.3535977827
  0
MTEXT
  5
3EF
100
AcDbEntity
  8
0
100
AcDbMText
 62
2
  6
CONTINUOUS
  7
STANDARD
 71
2
 72
1
 10
196.8587487033
 20
12.5801602827
 30
0.0
 11
1.0
 21
0.0
 31
0.0
 44
0.9
  1
A
 40
2.25
 41
1.9285714286
  0
LINE
  5
3F0
100
AcDbEntity
  8
0
100
AcDbLine
 62
2
  6
CONTINUOUS
 10
179.6952577421
 20
9.2866110454
 11
200.0077577421
 21
9.2866110454
  0
LINE
  5
3F1
100
AcDbEntity
  8
0
100
AcDbLine
 62
2
  6
CONTINUOUS
 10
179.6952577421
 20
9.2866110454
 11
179.6952577421
 21
6.1616110454
  0
LINE
  5
3F2
100
AcDbEntity
  8
0
100
AcDbLine
 62
2
  6
CONTINUOUS
 10
179.6952577421
 20
6.1616110454
 11
200.0077577421
 21
6.1616110454
  0
LINE
  5
3F3
100
AcDbEntity
  8
0
100
AcDbLine
 62
2
  6
CONTINUOUS
 10
200.0077577421
 20
9.2866110454
 11
200.0077577421
 21
6.1616110454
  0
MTEXT
  5
3F4
100
AcDbEntity
  8
0
100
AcDbMText
 62
2
  6
CONTINUOUS
  7
STANDARD
 71
3
 72
1
 10
199.2265077421
 20
8.8881735454
 30
0.0
 11
1.0
 21
0.0
 31
0.0
 44
0.9
  1
1 OF 1
 40
1.75
 41
7.375
  0
LINE
  5
3F5
100
AcDbEntity
  8
0
100
AcDbLine
 62
2
  6
CONTINUOUS
 10
137.4782476513
 20
9.3602902114
 11
152.3282476513
 21
9.3602902114
  0
LINE
  5
3F6
100
AcDbEntity
  8
0
100
AcDbLine
 62
2
  6
CONTINUOUS
 10
137.4782476513
 20
9.3602902114
 11
137.4782476513
 21
6.1864620864
  0
LINE
  5
3F7
100
AcDbEntity
  8
0
100
AcDbLine
 62
2
  6
CONTINUOUS
 10
137.4782476513
 20
6.1864620864
 11
152.3282476513
 21
6.1864620864
  0
LINE
  5
3F8
100
AcDbEntity
  8
0
100
AcDbLine
 62
2
  6
CONTINUOUS
 10
152.3282476513
 20
9.3602902114
 11
152.3282476513
 21
6.1864620864
  0
MTEXT
  5
3F9
100
AcDbEntity
  8
0
100
AcDbMText
 62
2
  6
CONTINUOUS
  7
STANDARD
 71
3
 72
1
 10
151.5469976513
 20
8.6630245864
 30
0.0
 11
1.0
 21
0.0
 31
0.0
 44
0.9
  1
0.080
 40
1.5
 41
5.5714285714
  0
LWPOLYLINE
  5
3FA
100
AcDbEntity
  8
0
100
AcDbPolyline
 62
2
  6
CONTINUOUS
 90
2
 70
0
 43
0.25
 10
200.0463502762
 20
131.2584014409
 10
74.0151002762
 20
131.2584014409
  0
LWPOLYLINE
  5
3FB
100
AcDbEntity
  8
0
100
AcDbPolyline
 62
2
  6
CONTINUOUS
 90
2
 70
0
 43
0.25
 10
199.9213502762
 20
131.2584014409
 10
199.9213502762
 20
119.5396514409
  0
LWPOLYLINE
  5
3FC
100
AcDbEntity
  8
0
100
AcDbPolyline
 62
2
  6
CONTINUOUS
 90
2
 70
0
 43
0.25
 10
199.9213502762
 20
127.3521514409
 10
74.1401002762
 20
127.3521514409
  0
LWPOLYLINE
  5
3FD
100
AcDbEntity
  8
0
100
AcDbPolyline
 62
2
  6
CONTINUOUS
 90
2
 70
0
 43
0.25
 10
199.9213502762
 20
123.4459014409
 10
74.1401002762
 20
123.4459014409
  0
LWPOLYLINE
  5
3FE
100
AcDbEntity
  8
0
100
AcDbPolyline
 62
2
  6
CONTINUOUS
 90
2
 70
0
 43
0.25
 10
200.0463502762
 20
119.5396514409
 10
74.0151002762
 20
119.5396514409
  0
LWPOLYLINE
  5
3FF
100
AcDbEntity
  8
0
100
AcDbPolyline
 62
2
  6
CONTINUOUS
 90
2
 70
0
 43
0.25
 10
190.5463502762
 20
127.3521514409
 10
190.5463502762
 20
119.5396514409
  0
LWPOLYLINE
  5
400
100
AcDbEntity
  8
0
100
AcDbPolyline
 62
2
  6
CONTINUOUS
 90
2
 70
0
 43
0.25
 10
176.4838502762
 20
127.3521514409
 10
176.4838502762
 20
119.5396514409
  0
LWPOLYLINE
  5
401
100
AcDbEntity
  8
0
100
AcDbPolyline
 62
2
  6
CONTINUOUS
 90
2
 70
0
 43
0.25
 10
170.2338502762
 20
127.3521514409
 10
170.2338502762
 20
119.5396514409
  0
LWPOLYLINE
  5
402
100
AcDbEntity
  8
0
100
AcDbPolyline
 62
2
  6
CONTINUOUS
 90
2
 70
0
 43
0.25
 10
90.5463502762
 20
127.3521514409
 10
90.5463502762
 20
119.5396514409
  0
LWPOLYLINE
  5
403
100
AcDbEntity
  8
0
100
AcDbPolyline
 62
2
  6
CONTINUOUS
 90
2
 70
0
 43
0.25
 10
80.3901002762
 20
127.3521514409
 10
80.3901002762
 20
119.5396514409
  0
LWPOLYLINE
  5
404
100
AcDbEntity
  8
0
100
AcDbPolyline
 62
2
  6
CONTINUOUS
 90
2
 70
0
 43
0.25
 10
74.1401002762
 20
131.2584014409
 10
74.1401002762
 20
119.5396514409
  0
MTEXT
  5
405
100
AcDbEntity
  8
0
100
AcDbMText
 62
2
  6
CONTINUOUS
  7
STANDARD
 71
2
 72
1
 10
137.0307252762
 20
130.2818389409
 30
0.0
 11
1.0
 21
0.0
 31
0.0
 44
0.9
  1
REVISIONS
 40
1.953125
 41
13.2068452381
  0
MTEXT
  5
406
100
AcDbEntity
  8
0
100
AcDbMText
 62
2
  6
CONTINUOUS
  7
STANDARD
 71
2
 72
1
 10
195.2338502762
 20
126.3740264409
 30
0.0
 11
1.0
 21
0.0
 31
0.0
 44
0.9
  1
ISSUED
 40
1.95
 41
9.0071428571
  0
MTEXT
  5
407
100
AcDbEntity
  8
0
100
AcDbMText
 62
2
  6
CONTINUOUS
  7
STANDARD
 71
2
 72
1
 10
183.5151002762
 20
126.3740264409
 30
0.0
 11
1.0
 21
0.0
 31
0.0
 44
0.9
  1
EFF DATE
 40
1.95
 41
12.2107142857
  0
MTEXT
  5
408
100
AcDbEntity
  8
0
100
AcDbMText
 62
2
  6
CONTINUOUS
  7
STANDARD
 71
2
 72
1
 10
173.3588502762
 20
126.3755889409
 30
0.0
 11
1.0
 21
0.0
 31
0.0
 44
0.9
  1
BY
 40
1.953125
 41
3.2087053571
  0
MTEXT
  5
409
100
AcDbEntity
  8
0
100
AcDbMText
 62
2
  6
CONTINUOUS
  7
STANDARD
 71
2
 72
1
 10
130.3901002762
 20
126.3740264409
 30
0.0
 11
1.0
 21
0.0
 31
0.0
 44
0.9
  1
DESCRIPTION
 40
1.95
 41
16.6214285714
  0
MTEXT
  5
40A
100
AcDbEntity
  8
0
100
AcDbMText
 62
2
  6
CONTINUOUS
  7
STANDARD
 71
2
 72
1
 10
85.4682252762
 20
126.3755889409
 30
0.0
 11
1.0
 21
0.0
 31
0.0
 44
0.9
  1
ECO
 40
1.953125
 41
4.5572916667
  0
MTEXT
  5
40B
100
AcDbEntity
  8
0
100
AcDbMText
 62
2
  6
CONTINUOUS
  7
STANDARD
 71
2
 72
1
 10
77.2651002762
 20
126.3740264409
 30
0.0
 11
1.0
 21
0.0
 31
0.0
 44
0.9
  1
REV
 40
1.95
 41
4.55
  0
MTEXT
  5
40C
100
AcDbEntity
  8
0
100
AcDbMText
 62
2
  6
CONTINUOUS
  7
STANDARD
 71
2
 72
1
 10
195.2338502762
 20
122.4693389409
 30
0.0
 11
1.0
 21
0.0
 31
0.0
 44
0.9
  1
-
 40
1.953125
 41
1.3950892857
  0
MTEXT
  5
40D
100
AcDbEntity
  8
0
100
AcDbMText
 62
2
  6
CONTINUOUS
  7
STANDARD
 71
2
 72
1
 10
183.5151002762
 20
122.4693389409
 30
0.0
 11
1.0
 21
0.0
 31
0.0
 44
0.9
  1
-
 40
1.953125
 41
1.3950892857
  0
MTEXT
  5
40E
100
AcDbEntity
  8
0
100
AcDbMText
 62
2
  6
CONTINUOUS
  7
STANDARD
 71
2
 72
1
 10
173.3588502762
 20
122.4693389409
 30
0.0
 11
1.0
 21
0.0
 31
0.0
 44
0.9
  1
DNS
 40
1.953125
 41
5.2083333333
  0
MTEXT
  5
40F
100
AcDbEntity
  8
0
100
AcDbMText
 62
2
  6
CONTINUOUS
  7
STANDARD
 71
1
 72
1
 10
91.3276002762
 20
122.4693389409
 30
0.0
 11
1.0
 21
0.0
 31
0.0
 44
0.9
  1
RELEASE
 40
1.953125
 41
10.5561755952
  0
MTEXT
  5
410
100
AcDbEntity
  8
0
100
AcDbMText
 62
2
  6
CONTINUOUS
  7
STANDARD
 71
2
 72
1
 10
85.4682252762
 20
122.4693389409
 30
0.0
 11
1.0
 21
0.0
 31
0.0
 44
0.9
  1
-
 40
1.953125
 41
1.3950892857
  0
MTEXT
  5
411
100
AcDbEntity
  8
0
100
AcDbMText
 62
2
  6
CONTINUOUS
  7
STANDARD
 71
2
 72
1
 10
77.2651002762
 20
122.4693389409
 30
0.0
 11
1.0
 21
0.0
 31
0.0
 44
0.9
  1
A
 40
1.953125
 41
2.0461309524
  0
MTEXT
  5
412
100
AcDbEntity
  8
0
100
AcDbMText
 62
2
  6
CONTINUOUS
  7
STANDARD
 71
1
 72
1
 10
8.5947936546
 20
37.0151479008
 30
0.0
 11
1.0
 21
0.0
 31
0.0
 44
1.2
  3
5. PARTS ARE SYMMETRICAL ABOUT CENTER LINES \P   UNLESS OTHERWISE NOTED.\P4. SYMBOL    INDICATES CENTER OF BALANCE.\P3. SYMBOL \Fgdt;{\Fgdt;r}\Ftxt; INDICATES SUSPENSION POINT, \P   4 TOTAL:  M10-1.5 THD. \P2. TOLERANCES (MM): X \Fgdt;{\Fgdt;`}\Ftxt;
  1
 5, ANGLES: \Fgdt;{\Fgdt;`}\Ftxt; 1\Fgdt;{\Fgdt;~}\Ftxt;.\P1. NET WEIGHT APPROX. 10.9 KG (24 LBS)\PNOTE:  UNLESS OTHERWISE SPECIFIED
 40
1.953125
 41
67.2433035714
  0
MTEXT
  5
413
100
AcDbEntity
  8
0
100
AcDbMText
 62
2
  6
CONTINUOUS
  7
TEXTSTYLE_1
 71
1
 72
1
 10
38.0129787823
 20
110.1183585235
 30
0.0
 11
1.0
 21
0.0
 31
0.0
 44
0.9
  1
{\Fgdt;r}
 40
1.953125
 41
3.90625
  0
MTEXT
  5
414
100
AcDbEntity
  8
0
100
AcDbMText
 62
2
  6
CONTINUOUS
  7
TEXTSTYLE_1
 71
1
 72
1
 10
34.7080993298
 20
60.266786471
 30
0.0
 11
1.0
 21
0.0
 31
0.0
 44
0.9
  1
{\Fgdt;r}
 40
1.953125
 41
3.90625
  0
MTEXT
  5
415
100
AcDbEntity
  8
0
100
AcDbMText
 62
2
  6
CONTINUOUS
  7
TEXTSTYLE_1
 71
1
 72
1
 10
41.3372355621
 20
60.2550838924
 30
0.0
 11
1.0
 21
0.0
 31
0.0
 44
0.9
  1
{\Fgdt;r}
 40
1.953125
 41
3.90625
  0
MTEXT
  5
416
100
AcDbEntity
  8
0
100
AcDbMText
 62
2
  6
CONTINUOUS
  7
TEXTSTYLE_1
 71
1
 72
1
 10
38.0115452118
 20
58.5752110714
 30
0.0
 11
1.0
 21
0.0
 31
0.0
 44
0.9
  1
{\Fgdt;r}
 40
1.953125
 41
3.90625
  0
MTEXT
  5
417
100
AcDbEntity
  8
0
100
AcDbMText
 62
2
  6
CONTINUOUS
  7
STANDARD
 71
3
 72
1
 10
179.3235725175
 20
82.4510334941
 30
0.0
 11
1.0
 21
0.0
 31
0.0
 44
0.9
  1
SCALE  0.080
 40
1.953125
 41
17.810639881
  0
INSERT
  5
418
100
AcDbEntity
  8
0
100
AcDbBlockReference
 62
2
  6
CONTINUOUS
  2
SYMBOL_6_BL1
 10
25.3276197121
 20
28.2699383809
  0
INSERT
  5
419
100
AcDbEntity
  8
0
100
AcDbBlockReference
 62
2
  6
CONTINUOUS
  2
SYMBOL_12_BL2
 10
39.8251285854
 20
80.2972805726
  0
INSERT
  5
41A
100
AcDbEntity
  8
0
100
AcDbBlockReference
 62
2
  6
CONTINUOUS
  2
SYMBOL_10_BL3
 10
80.0206267513
 20
80.2889250879
  0
INSERT
  5
41B
100
AcDbEntity
  8
0
100
AcDbBlockReference
 62
2
  6
CONTINUOUS
  2
SYMBOL_11_BL4
 10
134.3191303487
 20
80.2909097073
  0
LINE
  5
41C
100
AcDbEntity
  8
DEFAULT_3
100
AcDbLine
 62
7
  6
PHANTOM
 10
-0.0000242735
 20
-0.0
 11
-0.0000242735
 21
137.4997886578
  0
LWPOLYLINE
  5
41D
100
AcDbEntity
  8
0
100
AcDbPolyline
 62
7
  6
CONTINUOUS
 90
2
 70
0
 43
0.2500000104
 10
3.2813555267
 20
66.6419167337
 10
3.2813555267
 20
70.8582889671
  0
LWPOLYLINE
  5
41E
100
AcDbEntity
  8
0
100
AcDbPolyline
 62
7
  6
CONTINUOUS
 90
2
 70
0
 43
0.375000003
 10
6.2483424588
 20
131.2454273624
 10
6.2483424588
 20
6.25
  0
LINE
  5
41F
100
AcDbEntity
  8
DEFAULT_1
100
AcDbLine
 62
8
  6
CENTER
 10
39.8155464861
 20
91.1758839699
 11
39.7998262807
 21
71.5396688998
  0
LINE
  5
420
100
AcDbEntity
  8
DEFAULT_3
100
AcDbLine
 62
7
  6
PHANTOM
 10
-0.0000242735
 20
-0.0
 11
212.5
 21
-0.0
  0
LWPOLYLINE
  5
421
100
AcDbEntity
  8
0
100
AcDbPolyline
 62
7
  6
CONTINUOUS
 90
2
 70
0
 43
0.375000003
 10
44.3884824385
 20
131.3241710245
 10
44.3884824385
 20
125.0741710245
  0
LWPOLYLINE
  5
422
100
AcDbEntity
  8
0
100
AcDbPolyline
 62
7
  6
CONTINUOUS
 90
2
 70
0
 43
0.2500000104
 10
101.0171982503
 20
3.2867921432
 10
105.2335704837
 20
3.2867921432
  0
LWPOLYLINE
  5
423
100
AcDbEntity
  8
0
100
AcDbPolyline
 62
7
  6
CONTINUOUS
 90
2
 70
0
 43
0.375000003
 10
6.2483424588
 20
6.25
 10
200.0
 20
6.25
  0
LWPOLYLINE
  5
424
100
AcDbEntity
  8
0
100
AcDbPolyline
 62
7
  6
CONTINUOUS
 90
2
 70
0
 43
0.2500000104
 10
104.6875
 20
9.375
 10
200.0
 20
9.375
  0
LWPOLYLINE
  5
425
100
AcDbEntity
  8
0
100
AcDbPolyline
 62
7
  6
CONTINUOUS
 90
2
 70
0
 43
0.2500000104
 10
54.6863491829
 20
6.2491931605
 10
54.6863491829
 20
-0.0008068395
  0
LWPOLYLINE
  5
426
100
AcDbEntity
  8
0
100
AcDbPolyline
 62
7
  6
CONTINUOUS
 90
2
 70
0
 43
0.2500000104
 10
54.6871223014
 20
131.2474033992
 10
54.6871223014
 20
137.4974033992
  0
LWPOLYLINE
  5
427
100
AcDbEntity
  8
0
100
AcDbPolyline
 62
7
  6
CONTINUOUS
 90
2
 70
0
 43
0.2500000104
 10
6.2505715002
 20
68.7501028504
 10
3.2813555267
 20
66.6419167337
  0
LINE
  5
428
100
AcDbEntity
  8
0
100
AcDbLine
 62
7
  6
CONTINUOUS
 10
104.67467302
 20
14.011075104
 11
76.5992898139
 21
6.3419209055
  0
LWPOLYLINE
  5
429
100
AcDbEntity
  8
0
100
AcDbPolyline
 62
7
  6
CONTINUOUS
 90
2
 70
0
 43
0.2500000104
 10
104.6875
 20
12.5
 10
137.5
 20
12.5
  0
LWPOLYLINE
  5
42A
100
AcDbEntity
  8
0
100
AcDbPolyline
 62
7
  6
CONTINUOUS
 90
2
 70
0
 43
0.2500000104
 10
104.6875
 20
14.0625
 10
76.5625
 20
14.0625
  0
LWPOLYLINE
  5
42B
100
AcDbEntity
  8
0
100
AcDbPolyline
 62
7
  6
CONTINUOUS
 90
2
 70
0
 43
0.2500000104
 10
137.5
 20
15.625
 10
200.0
 20
15.625
  0
LWPOLYLINE
  5
42C
100
AcDbEntity
  8
0
100
AcDbPolyline
 62
7
  6
CONTINUOUS
 90
2
 70
0
 43
0.2500000104
 10
6.2505715002
 20
68.7501028504
 10
3.2813555267
 20
70.8582889671
  0
LINE
  5
42D
100
AcDbEntity
  8
0
100
AcDbLine
 62
7
  6
CONTINUOUS
 10
104.6389340887
 20
21.8131220658
 11
76.5635508826
 21
14.1439678674
  0
LWPOLYLINE
  5
42E
100
AcDbEntity
  8
0
100
AcDbPolyline
 62
7
  6
CONTINUOUS
 90
2
 70
0
 43
0.2500000104
 10
104.6875
 20
17.96875
 10
137.5
 20
17.96875
  0
LWPOLYLINE
  5
42F
100
AcDbEntity
  8
0
100
AcDbPolyline
 62
7
  6
CONTINUOUS
 90
2
 70
0
 43
0.2500000104
 10
76.5625
 20
21.875
 10
104.6875
 20
21.875
  0
LWPOLYLINE
  5
430
100
AcDbEntity
  8
0
100
AcDbPolyline
 62
7
  6
CONTINUOUS
 90
2
 70
0
 43
0.2500000104
 10
104.6875
 20
23.4375
 10
137.5
 20
23.4375
  0
LWPOLYLINE
  5
431
100
AcDbEntity
  8
0
100
AcDbPolyline
 62
7
  6
CONTINUOUS
 90
2
 70
0
 43
0.2500000104
 10
103.1211268617
 20
131.2504896084
 10
105.2293129783
 20
134.2197055819
  0
LWPOLYLINE
  5
432
100
AcDbEntity
  8
0
100
AcDbPolyline
 62
7
  6
CONTINUOUS
 90
2
 70
0
 43
0.2500000104
 10
104.6875
 20
28.90625
 10
137.5
 20
28.90625
  0
LWPOLYLINE
  5
433
100
AcDbEntity
  8
0
100
AcDbPolyline
 62
7
  6
CONTINUOUS
 90
2
 70
0
 43
0.2500000104
 10
137.5
 20
29.6875
 10
200.0
 20
29.6875
  0
LINE
  5
434
100
AcDbEntity
  8
0
100
AcDbLine
 62
7
  6
CONTINUOUS
 10
76.5635508826
 20
38.3175006918
 11
104.6389340887
 21
21.8131220658
  0
LWPOLYLINE
  5
435
100
AcDbEntity
  8
0
100
AcDbPolyline
 62
7
  6
CONTINUOUS
 90
2
 70
0
 43
0.2500000104
 10
103.125384367
 20
6.2560081167
 10
105.2335704837
 20
3.2867921432
  0
LWPOLYLINE
  5
436
100
AcDbEntity
  8
0
100
AcDbPolyline
 62
7
  6
CONTINUOUS
 90
2
 70
0
 43
0.2500000104
 10
76.5625
 20
6.25
 10
76.5625
 20
38.28125
  0
LWPOLYLINE
  5
437
100
AcDbEntity
  8
0
100
AcDbPolyline
 62
7
  6
CONTINUOUS
 90
2
 70
0
 43
0.2500000104
 10
104.6875
 20
34.375
 10
137.5
 20
34.375
  0
LWPOLYLINE
  5
438
100
AcDbEntity
  8
0
100
AcDbPolyline
 62
7
  6
CONTINUOUS
 90
2
 70
0
 43
0.2500000104
 10
6.2497081055
 20
37.497961047
 10
-0.0002918945
 20
37.497961047
  0
LWPOLYLINE
  5
439
100
AcDbEntity
  8
0
100
AcDbPolyline
 62
7
  6
CONTINUOUS
 90
2
 70
0
 43
0.2500000104
 10
200.1194765173
 20
37.4980803954
 10
206.3694765173
 20
37.4980803954
  0
LWPOLYLINE
  5
43A
100
AcDbEntity
  8
0
100
AcDbPolyline
 62
7
  6
CONTINUOUS
 90
2
 70
0
 43
0.2500000104
 10
76.5625
 20
38.28125
 10
200.0
 20
38.28125
  0
LWPOLYLINE
  5
43B
100
AcDbEntity
  8
0
100
AcDbPolyline
 62
7
  6
CONTINUOUS
 90
2
 70
0
 43
0.2500000104
 10
103.1211268617
 20
131.2504896084
 10
103.1211268617
 20
137.5004896084
  0
LWPOLYLINE
  5
43C
100
AcDbEntity
  8
0
100
AcDbPolyline
 62
7
  6
CONTINUOUS
 90
2
 70
0
 43
0.2500000104
 10
103.125384367
 20
6.2560081167
 10
103.125384367
 20
0.0060081167
  0
LWPOLYLINE
  5
43D
100
AcDbEntity
  8
0
100
AcDbPolyline
 62
7
  6
CONTINUOUS
 90
2
 70
0
 43
0.2500000104
 10
104.6875
 20
6.25
 10
104.6875
 20
38.28125
  0
LWPOLYLINE
  5
43E
100
AcDbEntity
  8
0
100
AcDbPolyline
 62
7
  6
CONTINUOUS
 90
2
 70
0
 43
0.2500000104
 10
200.0429725613
 20
68.7498514772
 10
206.2929725613
 20
68.7498514772
  0
LWPOLYLINE
  5
43F
100
AcDbEntity
  8
0
100
AcDbPolyline
 62
7
  6
CONTINUOUS
 90
2
 70
0
 43
0.2500000104
 10
6.2505715002
 20
68.7501028504
 10
0.0005715002
 20
68.7501028504
  0
LINE
  5
440
100
AcDbEntity
  8
DEFAULT_1
100
AcDbLine
 62
8
  6
CENTER
 10
74.8777097554
 20
81.2059044882
 11
89.9641469829
 21
81.2288671019
  0
LINE
  5
441
100
AcDbEntity
  8
DEFAULT_1
100
AcDbLine
 62
8
  6
CENTER
 10
128.3718287698
 20
81.2356360499
 11
140.5519339013
 21
81.2238791917
  0
LWPOLYLINE
  5
442
100
AcDbEntity
  8
0
100
AcDbPolyline
 62
7
  6
CONTINUOUS
 90
2
 70
0
 43
0.2500000104
 10
126.5625
 20
12.5
 10
126.5625
 20
38.28125
  0
LINE
  5
443
100
AcDbEntity
  8
0
100
AcDbLine
 62
7
  6
CONTINUOUS
 10
104.6389340887
 20
38.2278029819
 11
76.6083997376
 21
21.9476686307
  0
LWPOLYLINE
  5
444
100
AcDbEntity
  8
0
100
AcDbPolyline
 62
7
  6
CONTINUOUS
 90
2
 70
0
 43
0.2500000104
 10
137.5
 20
6.25
 10
137.5
 20
38.28125
  0
LWPOLYLINE
  5
445
100
AcDbEntity
  8
0
100
AcDbPolyline
 62
7
  6
CONTINUOUS
 90
2
 70
0
 43
0.2500000104
 10
143.75
 20
9.375
 10
143.75
 20
15.625
  0
LWPOLYLINE
  5
446
100
AcDbEntity
  8
0
100
AcDbPolyline
 62
7
  6
CONTINUOUS
 90
2
 70
0
 43
0.2500000104
 10
103.125384367
 20
6.2560081167
 10
101.0171982503
 20
3.2867921432
  0
LWPOLYLINE
  5
447
100
AcDbEntity
  8
0
100
AcDbPolyline
 62
7
  6
CONTINUOUS
 90
2
 70
0
 43
0.2500000104
 10
200.0566433459
 20
99.9960822939
 10
206.3066433459
 20
99.9960822939
  0
LWPOLYLINE
  5
448
100
AcDbEntity
  8
0
100
AcDbPolyline
 62
7
  6
CONTINUOUS
 90
2
 70
0
 43
0.2500000104
 10
6.2483408967
 20
99.9964881815
 10
-0.0016591033
 20
99.9964881815
  0
LWPOLYLINE
  5
449
100
AcDbEntity
  8
0
100
AcDbPolyline
 62
7
  6
CONTINUOUS
 90
2
 70
0
 43
0.2500000104
 10
103.1211268617
 20
131.2504896084
 10
101.012940745
 20
134.2197055819
  0
LWPOLYLINE
  5
44A
100
AcDbEntity
  8
0
100
AcDbPolyline
 62
7
  6
CONTINUOUS
 90
2
 70
0
 43
0.2500000104
 10
151.5589115025
 20
131.2678975009
 10
151.5589115025
 20
137.5178975009
  0
LWPOLYLINE
  5
44B
100
AcDbEntity
  8
0
100
AcDbPolyline
 62
7
  6
CONTINUOUS
 90
2
 70
0
 43
0.2500000104
 10
151.5623824403
 20
6.2459000518
 10
151.5623824403
 20
-0.0040999482
  0
LWPOLYLINE
  5
44C
100
AcDbEntity
  8
0
100
AcDbPolyline
 62
7
  6
CONTINUOUS
 90
2
 70
0
 43
0.2500000104
 10
152.2953620818
 20
6.3093769444
 10
152.2953620818
 20
9.4343769444
  0
LWPOLYLINE
  5
44D
100
AcDbEntity
  8
0
100
AcDbPolyline
 62
7
  6
CONTINUOUS
 90
2
 70
0
 43
0.2500000104
 10
156.25
 20
9.375
 10
156.25
 20
15.625
  0
LWPOLYLINE
  5
44E
100
AcDbEntity
  8
0
100
AcDbPolyline
 62
7
  6
CONTINUOUS
 90
2
 70
0
 43
0.2500000104
 10
200.0429725613
 20
68.7498514772
 10
203.0121885348
 20
70.8580375939
  0
LWPOLYLINE
  5
44F
100
AcDbEntity
  8
0
100
AcDbPolyline
 62
7
  6
CONTINUOUS
 90
2
 70
0
 43
0.375000003
 10
44.3884824385
 20
125.0741710245
 10
6.1072324385
 20
125.0741710245
  0
LWPOLYLINE
  5
450
100
AcDbEntity
  8
0
100
AcDbPolyline
 62
7
  6
CONTINUOUS
 90
2
 70
0
 43
0.2500000104
 10
200.0429725613
 20
68.7498514772
 10
203.0121885348
 20
66.6416653605
  0
LWPOLYLINE
  5
451
100
AcDbEntity
  8
0
100
AcDbPolyline
 62
7
  6
CONTINUOUS
 90
2
 70
0
 43
0.375000003
 10
200.0
 20
131.2454273624
 10
6.2483424588
 20
131.2454273624
  0
LWPOLYLINE
  5
452
100
AcDbEntity
  8
0
100
AcDbPolyline
 62
7
  6
CONTINUOUS
 90
2
 70
0
 43
0.2500000104
 10
101.012940745
 20
134.2197055819
 10
105.2293129783
 20
134.2197055819
  0
LWPOLYLINE
  5
453
100
AcDbEntity
  8
0
100
AcDbPolyline
 62
7
  6
CONTINUOUS
 90
2
 70
0
 43
0.2500000104
 10
179.6875
 20
6.25
 10
179.6875
 20
9.375
  0
LINE
  5
454
100
AcDbEntity
  8
DEFAULT_3
100
AcDbLine
 62
7
  6
PHANTOM
 10
-0.0000242735
 20
137.4997886578
 11
212.5001246084
 21
137.4997886578
  0
LWPOLYLINE
  5
455
100
AcDbEntity
  8
0
100
AcDbPolyline
 62
7
  6
CONTINUOUS
 90
2
 70
0
 43
0.2500000104
 10
193.75
 20
9.375
 10
193.75
 20
15.625
  0
LWPOLYLINE
  5
456
100
AcDbEntity
  8
0
100
AcDbPolyline
 62
7
  6
CONTINUOUS
 90
2
 70
0
 43
0.375000003
 10
200.0
 20
131.2454273624
 10
200.0
 20
6.25
  0
LWPOLYLINE
  5
457
100
AcDbEntity
  8
0
100
AcDbPolyline
 62
7
  6
CONTINUOUS
 90
2
 70
0
 43
0.2500000104
 10
203.0121885348
 20
66.6416653605
 10
203.0121885348
 20
70.8580375939
  0
LINE
  5
458
100
AcDbEntity
  8
DEFAULT_3
100
AcDbLine
 62
7
  6
PHANTOM
 10
212.5
 20
-0.0
 11
212.5
 21
137.4954273624
  0
LINE
  5
459
100
AcDbEntity
  8
3_AXES_OTHER
100
AcDbLine
 62
7
  6
CONTINUOUS
 10
35.5404006986
 20
72.5652835564
 11
36.6582277429
 21
72.5652835564
  0
LINE
  5
45A
100
AcDbEntity
  8
3_ALL_AXES
100
AcDbLine
 62
7
  6
CONTINUOUS
 10
36.6582277429
 20
72.5652835564
 11
42.983818294
 21
72.5652835564
  0
LINE
  5
45B
100
AcDbEntity
  8
3_AXES_OTHER
100
AcDbLine
 62
7
  6
CONTINUOUS
 10
42.983818294
 20
72.5652835564
 11
44.1016451252
 21
72.5652835564
  0
LINE
  5
45C
100
AcDbEntity
  8
3_AXES_OTHER
100
AcDbLine
 62
7
  6
CONTINUOUS
 10
35.2202323943
 20
72.7896930052
 11
44.4218120712
 21
72.7896930052
  0
LINE
  5
45D
100
AcDbEntity
  8
3_ALL_AXES
100
AcDbLine
 62
7
  6
CONTINUOUS
 10
34.8176936174
 20
72.7038658093
 11
34.8176936174
 21
89.7495359491
  0
LINE
  5
45E
100
AcDbEntity
  8
3_AXES_OTHER
100
AcDbLine
 62
9
  6
CONTINUOUS
 10
34.9088259633
 20
72.6589305625
 11
34.9088259633
 21
89.7944711959
  0
LINE
  5
45F
100
AcDbEntity
  8
3_AXES_OTHER
100
AcDbLine
 62
9
  6
CONTINUOUS
 10
35.0756897011
 20
72.6259430968
 11
35.0756897011
 21
89.8274586615
  0
LINE
  5
460
100
AcDbEntity
  8
3_AXES_OTHER
100
AcDbLine
 62
7
  6
CONTINUOUS
 10
35.2202323943
 20
72.7896930052
 11
35.2202323943
 21
89.6637087532
  0
LINE
  5
461
100
AcDbEntity
  8
3_AXES_OTHER
100
AcDbLine
 62
7
  6
CONTINUOUS
 10
35.9824403413
 20
82.6243386745
 11
35.9824403413
 21
89.2778819815
  0
LINE
  5
462
100
AcDbEntity
  8
3_AXES_OTHER
100
AcDbLine
 62
7
  6
CONTINUOUS
 10
40.1639976462
 20
86.2940849557
 11
43.6596056956
 21
89.2778819815
  0
LINE
  5
463
100
AcDbEntity
  8
3_AXES_OTHER
100
AcDbLine
 62
7
  6
CONTINUOUS
 10
39.4780483907
 20
85.6081357003
 11
35.9824403413
 21
82.6243386745
  0
LINE
  5
464
100
AcDbEntity
  8
3_AXES_OTHER
100
AcDbLine
 62
7
  6
CONTINUOUS
 10
36.6582277429
 20
72.5652835564
 11
36.6582277429
 21
72.7896930052
  0
LINE
  5
465
100
AcDbEntity
  8
3_AXES_OTHER
100
AcDbLine
 62
7
  6
CONTINUOUS
 10
36.6582277429
 20
89.6637087532
 11
36.6582277429
 21
89.888118202
  0
LINE
  5
466
100
AcDbEntity
  8
3_AXES_OTHER
100
AcDbLine
 62
7
  6
CONTINUOUS
 10
43.6596056956
 20
82.6243386745
 11
35.9824403413
 21
82.6243386745
  0
LINE
  5
467
100
AcDbEntity
  8
3_AXES_OTHER
100
AcDbLine
 62
7
  6
CONTINUOUS
 10
42.983818294
 20
72.5652835564
 11
42.983818294
 21
72.7896930052
  0
LINE
  5
468
100
AcDbEntity
  8
3_AXES_OTHER
100
AcDbLine
 62
7
  6
CONTINUOUS
 10
42.983818294
 20
89.6637087532
 11
42.983818294
 21
89.888118202
  0
LINE
  5
469
100
AcDbEntity
  8
3_AXES_OTHER
100
AcDbLine
 62
7
  6
CONTINUOUS
 10
43.6596056956
 20
89.2778819815
 11
43.6596056956
 21
82.6243386745
  0
LINE
  5
46A
100
AcDbEntity
  8
3_AXES_OTHER
100
AcDbLine
 62
7
  6
CONTINUOUS
 10
40.1639976462
 20
85.6081357003
 11
43.6596056956
 21
82.6243386745
  0
LINE
  5
46B
100
AcDbEntity
  8
3_AXES_OTHER
100
AcDbLine
 62
7
  6
CONTINUOUS
 10
39.4780483907
 20
86.2940849557
 11
35.9824403413
 21
89.2778819815
  0
LINE
  5
46C
100
AcDbEntity
  8
3_AXES_OTHER
100
AcDbLine
 62
7
  6
CONTINUOUS
 10
44.4218120712
 20
72.7896930052
 11
44.4218120712
 21
89.6637087532
  0
LINE
  5
46D
100
AcDbEntity
  8
3_AXES_OTHER
100
AcDbLine
 62
9
  6
CONTINUOUS
 10
44.5670982075
 20
72.6260678399
 11
44.5670982075
 21
89.8273339185
  0
LINE
  5
46E
100
AcDbEntity
  8
3_AXES_OTHER
100
AcDbLine
 62
9
  6
CONTINUOUS
 10
44.7332200736
 20
72.6589305625
 11
44.7332200736
 21
89.7944711959
  0
LINE
  5
46F
100
AcDbEntity
  8
3_ALL_AXES
100
AcDbLine
 62
7
  6
CONTINUOUS
 10
44.8243524195
 20
72.7038658093
 11
44.8243524195
 21
89.7495359491
  0
LINE
  5
470
100
AcDbEntity
  8
3_AXES_OTHER
100
AcDbLine
 62
7
  6
CONTINUOUS
 10
35.9824403413
 20
89.2778819815
 11
43.6596056956
 21
89.2778819815
  0
LINE
  5
471
100
AcDbEntity
  8
3_AXES_OTHER
100
AcDbLine
 62
7
  6
CONTINUOUS
 10
35.2202323943
 20
89.6637087532
 11
44.4218120712
 21
89.6637087532
  0
LINE
  5
472
100
AcDbEntity
  8
3_AXES_OTHER
100
AcDbLine
 62
7
  6
CONTINUOUS
 10
35.5404006986
 20
89.888118202
 11
36.6582277429
 21
89.888118202
  0
LINE
  5
473
100
AcDbEntity
  8
3_ALL_AXES
100
AcDbLine
 62
7
  6
CONTINUOUS
 10
36.6582277429
 20
89.888118202
 11
42.983818294
 21
89.888118202
  0
LINE
  5
474
100
AcDbEntity
  8
3_AXES_OTHER
100
AcDbLine
 62
7
  6
CONTINUOUS
 10
42.983818294
 20
89.888118202
 11
44.1016451252
 21
89.888118202
  0
LINE
  5
475
100
AcDbEntity
  8
3_ALL_AXES
100
AcDbLine
 62
7
  6
CONTINUOUS
 10
36.6582277429
 20
104.2313272391
 11
42.983818294
 21
104.2313272391
  0
LINE
  5
476
100
AcDbEntity
  8
3_AXES_OTHER
100
AcDbLine
 62
7
  6
CONTINUOUS
 10
35.5404006986
 20
104.9423902312
 11
44.1016451252
 21
104.9423902312
  0
LINE
  5
477
100
AcDbEntity
  8
3_AXES_OTHER
100
AcDbLine
 62
7
  6
CONTINUOUS
 10
37.6556686877
 20
118.4439256643
 11
37.6556686877
 21
117.4596736958
  0
LINE
  5
478
100
AcDbEntity
  8
3_ALL_AXES
100
AcDbLine
 62
7
  6
CENTER
 10
39.8210230185
 20
109.1132170029
 11
38.0788970342
 21
109.1132170029
  0
LINE
  5
479
100
AcDbEntity
  8
3_ALL_AXES
100
AcDbLine
 62
7
  6
CENTER
 10
39.8210230185
 20
109.1132170029
 11
41.5631490027
 21
109.1132170029
  0
LINE
  5
47A
100
AcDbEntity
  8
3_ALL_AXES
100
AcDbLine
 62
7
  6
CONTINUOUS
 10
38.4430702625
 20
117.4596736958
 11
38.4430702625
 21
114.1289650344
  0
LINE
  5
47B
100
AcDbEntity
  8
3_ALL_AXES
100
AcDbLine
 62
7
  6
CENTER
 10
39.8210230185
 20
109.1132170029
 11
39.8210230185
 21
103.3099147205
  0
LINE
  5
47C
100
AcDbEntity
  8
3_ALL_AXES
100
AcDbLine
 62
7
  6
CENTER
 10
39.8210230185
 20
109.1132170029
 11
39.8210230185
 21
119.1450632657
  0
LINE
  5
47D
100
AcDbEntity
  8
3_ALL_AXES
100
AcDbLine
 62
7
  6
CONTINUOUS
 10
41.1989757744
 20
117.4596736958
 11
41.1989757744
 21
114.1289650344
  0
LINE
  5
47E
100
AcDbEntity
  8
3_AXES_OTHER
100
AcDbLine
 62
7
  6
CONTINUOUS
 10
41.9863773492
 20
118.4439256643
 11
41.9863773492
 21
117.4596736958
  0
LINE
  5
47F
100
AcDbEntity
  8
3_AXES_OTHER
100
AcDbLine
 62
7
  6
CONTINUOUS
 10
42.8349009712
 20
114.1289650344
 11
36.8071450657
 21
114.1289650344
  0
LINE
  5
480
100
AcDbEntity
  8
3_AXES_OTHER
100
AcDbLine
 62
7
  6
CONTINUOUS
 10
37.6556686877
 20
117.4596736958
 11
41.9863773492
 21
117.4596736958
  0
LINE
  5
481
100
AcDbEntity
  8
3_AXES_OTHER
100
AcDbLine
 62
7
  6
CONTINUOUS
 10
37.6556686877
 20
118.4439256643
 11
41.9863773492
 21
118.4439256643
  0
LINE
  5
482
100
AcDbEntity
  8
3_AXES_OTHER
100
AcDbLine
 62
7
  6
CONTINUOUS
 10
41.9863773492
 20
48.2865962038
 11
37.6556686877
 21
48.2865962038
  0
LINE
  5
483
100
AcDbEntity
  8
3_AXES_OTHER
100
AcDbLine
 62
7
  6
CONTINUOUS
 10
41.9863773492
 20
49.2708481723
 11
37.6556686877
 21
49.2708481723
  0
LINE
  5
484
100
AcDbEntity
  8
3_ALL_AXES
100
AcDbLine
 62
7
  6
CENTER
 10
36.5139364043
 20
59.310218251
 11
36.5139364043
 21
57.8633678573
  0
LINE
  5
485
100
AcDbEntity
  8
3_ALL_AXES
100
AcDbLine
 62
7
  6
CENTER
 10
36.5139364043
 20
59.310218251
 11
36.5139364043
 21
60.7570686447
  0
LINE
  5
486
100
AcDbEntity
  8
3_AXES_OTHER
100
AcDbLine
 62
7
  6
CONTINUOUS
 10
42.8349009712
 20
52.6015568337
 11
36.8071450657
 21
52.6015568337
  0
LINE
  5
487
100
AcDbEntity
  8
3_AXES_OTHER
100
AcDbLine
 62
7
  6
CONTINUOUS
 10
37.6556686877
 20
48.2865962038
 11
37.6556686877
 21
49.2708481723
  0
LINE
  5
488
100
AcDbEntity
  8
3_ALL_AXES
100
AcDbLine
 62
7
  6
CONTINUOUS
 10
38.4430702625
 20
52.6015568337
 11
38.4430702625
 21
49.2708481723
  0
LINE
  5
489
100
AcDbEntity
  8
3_ALL_AXES
100
AcDbLine
 62
7
  6
CENTER
 10
39.8210230185
 20
57.6173048652
 11
39.8210230185
 21
47.7584029288
  0
LINE
  5
48A
100
AcDbEntity
  8
3_ALL_AXES
100
AcDbLine
 62
7
  6
CENTER
 10
39.8210230185
 20
57.6173048652
 11
39.8210230185
 21
63.1616837864
  0
LINE
  5
48B
100
AcDbEntity
  8
3_ALL_AXES
100
AcDbLine
 62
7
  6
CONTINUOUS
 10
41.1989757744
 20
52.6015568337
 11
41.1989757744
 21
49.2708481723
  0
LINE
  5
48C
100
AcDbEntity
  8
3_AXES_OTHER
100
AcDbLine
 62
7
  6
CONTINUOUS
 10
41.9863773492
 20
48.2865962038
 11
41.9863773492
 21
49.2708481723
  0
LINE
  5
48D
100
AcDbEntity
  8
3_ALL_AXES
100
AcDbLine
 62
7
  6
CENTER
 10
39.8210230185
 20
57.6173048652
 11
38.0788970342
 21
57.6173048652
  0
LINE
  5
48E
100
AcDbEntity
  8
3_ALL_AXES
100
AcDbLine
 62
7
  6
CENTER
 10
39.8210230185
 20
57.6173048652
 11
41.5631490027
 21
57.6173048652
  0
LINE
  5
48F
100
AcDbEntity
  8
3_ALL_AXES
100
AcDbLine
 62
7
  6
CENTER
 10
43.1281096326
 20
59.310218251
 11
43.1281096326
 21
57.8633678573
  0
LINE
  5
490
100
AcDbEntity
  8
3_ALL_AXES
100
AcDbLine
 62
7
  6
CENTER
 10
43.1281096326
 20
59.310218251
 11
43.1281096326
 21
60.7570686447
  0
LINE
  5
491
100
AcDbEntity
  8
3_ALL_AXES
100
AcDbLine
 62
7
  6
CENTER
 10
43.1281096326
 20
59.310218251
 11
41.6812592389
 21
59.310218251
  0
LINE
  5
492
100
AcDbEntity
  8
3_ALL_AXES
100
AcDbLine
 62
7
  6
CENTER
 10
36.5139364043
 20
59.310218251
 11
35.0670860106
 21
59.310218251
  0
LINE
  5
493
100
AcDbEntity
  8
3_ALL_AXES
100
AcDbLine
 62
7
  6
CENTER
 10
36.5139364043
 20
59.310218251
 11
37.960786798
 21
59.310218251
  0
LINE
  5
494
100
AcDbEntity
  8
3_ALL_AXES
100
AcDbLine
 62
7
  6
CENTER
 10
43.1281096326
 20
59.310218251
 11
44.5749600263
 21
59.310218251
  0
LINE
  5
495
100
AcDbEntity
  8
3_AXES_OTHER
100
AcDbLine
 62
7
  6
CONTINUOUS
 10
35.5404006986
 20
61.7881316369
 11
44.1016451252
 21
61.7881316369
  0
LINE
  5
496
100
AcDbEntity
  8
3_ALL_AXES
100
AcDbLine
 62
7
  6
CONTINUOUS
 10
36.6582277429
 20
62.499194629
 11
42.983818294
 21
62.499194629
  0
LINE
  5
497
100
AcDbEntity
  8
3_AXES_OTHER
100
AcDbLine
 62
7
  6
CONTINUOUS
 10
75.1437552944
 20
72.5652835564
 11
75.8548182865
 21
72.5652835564
  0
LINE
  5
498
100
AcDbEntity
  8
3_AXES_OTHER
100
AcDbLine
 62
7
  6
CONTINUOUS
 10
75.1437552944
 20
72.7896930052
 11
76.2461174991
 21
72.7896930052
  0
LINE
  5
499
100
AcDbEntity
  8
3_AXES_OTHER
100
AcDbLine
 62
7
  6
CONTINUOUS
 10
75.8548182865
 20
72.5652835564
 11
85.0413930897
 21
73.4691418241
  0
LINE
  5
49A
100
AcDbEntity
  8
3_AXES_OTHER
100
AcDbLine
 62
7
  6
CONTINUOUS
 10
75.1437552944
 20
72.5652835564
 11
75.1437552944
 21
72.7896930052
  0
LINE
  5
49B
100
AcDbEntity
  8
3_AXES_OTHER
100
AcDbLine
 62
7
  6
CONTINUOUS
 10
75.1437552944
 20
89.6637087532
 11
75.1437552944
 21
89.888118202
  0
LINE
  5
49C
100
AcDbEntity
  8
3_AXES_OTHER
100
AcDbLine
 62
7
  6
CONTINUOUS
 10
76.2461174991
 20
72.7896930052
 11
76.2461174991
 21
89.6637087532
  0
LINE
  5
49D
100
AcDbEntity
  8
3_AXES_OTHER
100
AcDbLine
 62
9
  6
CONTINUOUS
 10
76.4726135621
 20
72.6260678399
 11
76.4726135621
 21
89.8273339185
  0
LINE
  5
49E
100
AcDbEntity
  8
3_AXES_OTHER
100
AcDbLine
 62
9
  6
CONTINUOUS
 10
76.8066215259
 20
72.6589305625
 11
76.8066215259
 21
89.7944711959
  0
LINE
  5
49F
100
AcDbEntity
  8
3_AXES_OTHER
100
AcDbLine
 62
9
  6
CONTINUOUS
 10
77.3515668439
 20
72.7125472087
 11
77.3515668439
 21
89.7408545497
  0
LINE
  5
4A0
100
AcDbEntity
  8
3_AXES_OTHER
100
AcDbLine
 62
7
  6
CONTINUOUS
 10
89.3563537196
 20
77.6440237138
 11
88.3721017511
 21
77.6440237138
  0
LINE
  5
4A1
100
AcDbEntity
  8
3_ALL_AXES
100
AcDbLine
 62
7
  6
CONTINUOUS
 10
85.0413930897
 20
78.9038662335
 11
88.3721017511
 21
78.9038662335
  0
LINE
  5
4A2
100
AcDbEntity
  8
3_ALL_AXES
100
AcDbLine
 62
7
  6
CONTINUOUS
 10
85.0413930897
 20
81.6597717453
 11
88.3721017511
 21
81.6597717453
  0
LINE
  5
4A3
100
AcDbEntity
  8
3_AXES_OTHER
100
AcDbLine
 62
7
  6
CONTINUOUS
 10
84.1743458456
 20
73.3838338788
 11
84.1743458456
 21
89.0695678795
  0
LINE
  5
4A4
100
AcDbEntity
  8
3_AXES_OTHER
100
AcDbLine
 62
7
  6
CONTINUOUS
 10
89.3563537196
 20
82.919614265
 11
88.3721017511
 21
82.919614265
  0
LINE
  5
4A5
100
AcDbEntity
  8
3_AXES_OTHER
100
AcDbLine
 62
7
  6
CONTINUOUS
 10
85.0413930897
 20
73.4691418241
 11
85.0413930897
 21
88.9842599343
  0
LINE
  5
4A6
100
AcDbEntity
  8
3_AXES_OTHER
100
AcDbLine
 62
7
  6
CONTINUOUS
 10
88.3721017511
 20
82.919614265
 11
88.3721017511
 21
77.6440237138
  0
LINE
  5
4A7
100
AcDbEntity
  8
3_AXES_OTHER
100
AcDbLine
 62
7
  6
CONTINUOUS
 10
89.3563537196
 20
82.919614265
 11
89.3563537196
 21
77.6440237138
  0
LINE
  5
4A8
100
AcDbEntity
  8
3_AXES_OTHER
100
AcDbLine
 62
7
  6
CONTINUOUS
 10
75.8548182865
 20
89.888118202
 11
85.0413930897
 21
88.9842599343
  0
LINE
  5
4A9
100
AcDbEntity
  8
3_AXES_OTHER
100
AcDbLine
 62
7
  6
CONTINUOUS
 10
75.1437552944
 20
89.6637087532
 11
76.2461174991
 21
89.6637087532
  0
LINE
  5
4AA
100
AcDbEntity
  8
3_AXES_OTHER
100
AcDbLine
 62
7
  6
CONTINUOUS
 10
75.1437552944
 20
89.888118202
 11
75.8548182865
 21
89.888118202
  0
LINE
  5
4AB
100
AcDbEntity
  8
3_AXES_OTHER
100
AcDbLine
 62
7
  6
CONTINUOUS
 10
138.5910984633
 20
72.5652835564
 11
130.0298540367
 21
72.5652835564
  0
LINE
  5
4AC
100
AcDbEntity
  8
3_AXES_OTHER
100
AcDbLine
 62
7
  6
CONTINUOUS
 10
131.2965981907
 20
73.4691418241
 11
137.3243540962
 21
73.4691418241
  0
LINE
  5
4AD
100
AcDbEntity
  8
3_ALL_AXES
100
AcDbLine
 62
7
  6
CONTINUOUS
 10
129.3071467424
 20
72.7125472087
 11
129.3071467424
 21
89.7408545497
  0
LINE
  5
4AE
100
AcDbEntity
  8
3_AXES_OTHER
100
AcDbLine
 62
9
  6
CONTINUOUS
 10
129.3104233665
 20
72.7125472087
 11
129.3104233665
 21
89.7408545497
  0
LINE
  5
4AF
100
AcDbEntity
  8
3_AXES_OTHER
100
AcDbLine
 62
7
  6
CONTINUOUS
 10
130.3416166006
 20
73.3838338788
 11
130.3416166006
 21
89.0695678795
  0
LINE
  5
4B0
100
AcDbEntity
  8
3_AXES_OTHER
100
AcDbLine
 62
7
  6
CONTINUOUS
 10
132.1451218127
 20
77.6440237138
 11
136.4758304742
 21
77.6440237138
  0
LINE
  5
4B1
100
AcDbEntity
  8
3_AXES_OTHER
100
AcDbLine
 62
9
  6
CONTINUOUS
 10
131.2965981907
 20
73.4691418241
 11
131.2965981907
 21
88.9842599343
  0
LINE
  5
4B2
100
AcDbEntity
  8
3_ALL_AXES
100
AcDbLine
 62
7
  6
CENTER
 10
134.3104761435
 20
78.0180394619
 11
132.9226808679
 21
78.0180394619
  0
LINE
  5
4B3
100
AcDbEntity
  8
3_ALL_AXES
100
AcDbLine
 62
7
  6
CENTER
 10
134.3104761435
 20
78.0180394619
 11
135.698271419
 21
78.0180394619
  0
LINE
  5
4B4
100
AcDbEntity
  8
3_AXES_OTHER
100
AcDbLine
 62
7
  6
CONTINUOUS
 10
132.1451218127
 20
82.919614265
 11
132.1451218127
 21
77.6440237138
  0
LINE
  5
4B5
100
AcDbEntity
  8
3_ALL_AXES
100
AcDbLine
 62
7
  6
CENTER
 10
132.5388226001
 20
80.2818189894
 11
132.5388226001
 21
78.8940237138
  0
LINE
  5
4B6
100
AcDbEntity
  8
3_ALL_AXES
100
AcDbLine
 62
7
  6
CENTER
 10
132.5388226001
 20
80.2818189894
 11
132.5388226001
 21
81.669614265
  0
LINE
  5
4B7
100
AcDbEntity
  8
3_AXES_OTHER
100
AcDbLine
 62
7
  6
CONTINUOUS
 10
129.3071651219
 20
72.7038364557
 11
129.3104233665
 21
72.7125472087
  0
LINE
  5
4B8
100
AcDbEntity
  8
3_AXES_OTHER
100
AcDbLine
 62
7
  6
CONTINUOUS
 10
129.3071651219
 20
89.7495653027
 11
129.3104233665
 21
89.7408545497
  0
LINE
  5
4B9
100
AcDbEntity
  8
3_AXES_OTHER
100
AcDbLine
 62
7
  6
CONTINUOUS
 10
133.2474840175
 20
86.4629213516
 11
133.2474840175
 21
84.3369370997
  0
LINE
  5
4BA
100
AcDbEntity
  8
3_ALL_AXES
100
AcDbLine
 62
7
  6
CENTER
 10
136.0821296868
 20
80.2818189894
 11
134.6943344112
 21
80.2818189894
  0
LINE
  5
4BB
100
AcDbEntity
  8
3_ALL_AXES
100
AcDbLine
 62
7
  6
CENTER
 10
134.3104761435
 20
80.2818189894
 11
131.6825233875
 21
80.2818189894
  0
LINE
  5
4BC
100
AcDbEntity
  8
3_ALL_AXES
100
AcDbLine
 62
7
  6
CENTER
 10
131.6825233875
 20
80.2818189894
 11
131.1510273246
 21
80.2818189894
  0
LINE
  5
4BD
100
AcDbEntity
  8
3_ALL_AXES
100
AcDbLine
 62
7
  6
CENTER
 10
134.3104761435
 20
80.2818189894
 11
134.6943344112
 21
80.2818189894
  0
LINE
  5
4BE
100
AcDbEntity
  8
3_ALL_AXES
100
AcDbLine
 62
7
  6
CENTER
 10
136.0821296868
 20
80.2818189894
 11
136.9384288994
 21
80.2818189894
  0
LINE
  5
4BF
100
AcDbEntity
  8
3_ALL_AXES
100
AcDbLine
 62
7
  6
CENTER
 10
136.9384288994
 20
80.2818189894
 11
137.4699249623
 21
80.2818189894
  0
LINE
  5
4C0
100
AcDbEntity
  8
3_AXES_OTHER
100
AcDbLine
 62
7
  6
CONTINUOUS
 10
133.8577202379
 20
85.9786693831
 11
133.8577202379
 21
85.6243386745
  0
LINE
  5
4C1
100
AcDbEntity
  8
3_ALL_AXES
100
AcDbLine
 62
7
  6
CENTER
 10
134.3104761435
 20
82.545598517
 11
134.3104761435
 21
81.1578032414
  0
LINE
  5
4C2
100
AcDbEntity
  8
3_ALL_AXES
100
AcDbLine
 62
7
  6
CENTER
 10
134.3104761435
 20
80.2818189894
 11
134.3104761435
 21
77.6538662335
  0
LINE
  5
4C3
100
AcDbEntity
  8
3_ALL_AXES
100
AcDbLine
 62
7
  6
CENTER
 10
134.3104761435
 20
77.6538662335
 11
134.3104761435
 21
72.1829964676
  0
LINE
  5
4C4
100
AcDbEntity
  8
3_ALL_AXES
100
AcDbLine
 62
7
  6
CENTER
 10
134.3104761435
 20
80.2818189894
 11
134.3104761435
 21
81.1578032414
  0
LINE
  5
4C5
100
AcDbEntity
  8
3_ALL_AXES
100
AcDbLine
 62
7
  6
CENTER
 10
134.3104761435
 20
82.545598517
 11
134.3104761435
 21
82.9097717453
  0
LINE
  5
4C6
100
AcDbEntity
  8
3_ALL_AXES
100
AcDbLine
 62
7
  6
CENTER
 10
134.3104761435
 20
82.9097717453
 11
134.3104761435
 21
90.1717252149
  0
LINE
  5
4C7
100
AcDbEntity
  8
3_AXES_OTHER
100
AcDbLine
 62
7
  6
CONTINUOUS
 10
134.763232049
 20
85.6243386745
 11
134.763232049
 21
85.9786693831
  0
LINE
  5
4C8
100
AcDbEntity
  8
3_AXES_OTHER
100
AcDbLine
 62
7
  6
CONTINUOUS
 10
135.3734682694
 20
84.3369370997
 11
135.3734682694
 21
86.4629213516
  0
LINE
  5
4C9
100
AcDbEntity
  8
3_ALL_AXES
100
AcDbLine
 62
7
  6
CENTER
 10
134.3104761435
 20
82.545598517
 11
132.9226808679
 21
82.545598517
  0
LINE
  5
4CA
100
AcDbEntity
  8
3_ALL_AXES
100
AcDbLine
 62
7
  6
CENTER
 10
134.3104761435
 20
82.545598517
 11
135.698271419
 21
82.545598517
  0
LINE
  5
4CB
100
AcDbEntity
  8
3_ALL_AXES
100
AcDbLine
 62
7
  6
CENTER
 10
136.0821296868
 20
80.2818189894
 11
136.0821296868
 21
78.8940237138
  0
LINE
  5
4CC
100
AcDbEntity
  8
3_ALL_AXES
100
AcDbLine
 62
7
  6
CENTER
 10
136.0821296868
 20
80.2818189894
 11
136.0821296868
 21
81.669614265
  0
LINE
  5
4CD
100
AcDbEntity
  8
3_AXES_OTHER
100
AcDbLine
 62
7
  6
CONTINUOUS
 10
139.3105289204
 20
89.7408545497
 11
139.3137871669
 21
89.7495653019
  0
LINE
  5
4CE
100
AcDbEntity
  8
3_AXES_OTHER
100
AcDbLine
 62
7
  6
CONTINUOUS
 10
136.4758304742
 20
82.919614265
 11
132.1451218127
 21
82.919614265
  0
LINE
  5
4CF
100
AcDbEntity
  8
3_AXES_OTHER
100
AcDbLine
 62
7
  6
CONTINUOUS
 10
139.3105289204
 20
72.7125472087
 11
139.3137871669
 21
72.7038364565
  0
LINE
  5
4D0
100
AcDbEntity
  8
3_AXES_OTHER
100
AcDbLine
 62
7
  6
CONTINUOUS
 10
136.4758304742
 20
77.6440237138
 11
136.4758304742
 21
82.919614265
  0
LINE
  5
4D1
100
AcDbEntity
  8
3_AXES_OTHER
100
AcDbLine
 62
9
  6
CONTINUOUS
 10
137.3243540962
 20
73.4691418241
 11
137.3243540962
 21
88.9842599343
  0
LINE
  5
4D2
100
AcDbEntity
  8
3_AXES_OTHER
100
AcDbLine
 62
7
  6
CONTINUOUS
 10
133.2474840175
 20
84.3369370997
 11
135.3734682694
 21
84.3369370997
  0
LINE
  5
4D3
100
AcDbEntity
  8
3_AXES_OTHER
100
AcDbLine
 62
7
  6
CONTINUOUS
 10
138.2793356863
 20
73.3838338788
 11
138.2793356863
 21
89.0695678795
  0
LINE
  5
4D4
100
AcDbEntity
  8
3_AXES_OTHER
100
AcDbLine
 62
7
  6
CONTINUOUS
 10
133.8577202379
 20
85.6243386745
 11
134.763232049
 21
85.6243386745
  0
LINE
  5
4D5
100
AcDbEntity
  8
3_AXES_OTHER
100
AcDbLine
 62
7
  6
CONTINUOUS
 10
134.763232049
 20
85.9786693831
 11
133.8577202379
 21
85.9786693831
  0
LINE
  5
4D6
100
AcDbEntity
  8
3_AXES_OTHER
100
AcDbLine
 62
9
  6
CONTINUOUS
 10
139.3105289204
 20
72.7125472087
 11
139.3105289204
 21
89.7408545497
  0
LINE
  5
4D7
100
AcDbEntity
  8
3_ALL_AXES
100
AcDbLine
 62
7
  6
CONTINUOUS
 10
139.3138055445
 20
72.7125472087
 11
139.3138055445
 21
89.7408545497
  0
LINE
  5
4D8
100
AcDbEntity
  8
3_AXES_OTHER
100
AcDbLine
 62
7
  6
CONTINUOUS
 10
135.3734682694
 20
86.4629213516
 11
133.2474840175
 21
86.4629213516
  0
LINE
  5
4D9
100
AcDbEntity
  8
3_AXES_OTHER
100
AcDbLine
 62
7
  6
CONTINUOUS
 10
131.2965981907
 20
88.9842599343
 11
137.3243540962
 21
88.9842599343
  0
LINE
  5
4DA
100
AcDbEntity
  8
3_AXES_OTHER
100
AcDbLine
 62
7
  6
CONTINUOUS
 10
138.5910984633
 20
89.888118202
 11
130.0298540367
 21
89.888118202
  0
LINE
  5
4DB
100
AcDbEntity
  8
3_ALL_AXES
100
AcDbLine
 62
7
  6
CONTINUOUS
 10
172.5591774958
 20
87.239287918
 11
177.0320454696
 21
84.656200123
  0
LINE
  5
4DC
100
AcDbEntity
  8
3_AXES_OTHER
100
AcDbLine
 62
7
  6
CONTINUOUS
 10
172.5591774958
 20
87.4224934694
 11
177.0320454696
 21
84.8394056744
  0
LINE
  5
4DD
100
AcDbEntity
  8
3_AXES_OTHER
100
AcDbLine
 62
7
  6
CONTINUOUS
 10
172.3218490238
 20
88.4598616863
 11
178.8283484109
 21
84.7023487765
  0
LINE
  5
4DE
100
AcDbEntity
  8
3_ALL_AXES
100
AcDbLine
 62
7
  6
CONTINUOUS
 10
172.2705720967
 20
102.0821724585
 11
172.2705720967
 21
101.8989669071
  0
LINE
  5
4DF
100
AcDbEntity
  8
3_ALL_AXES
100
AcDbLine
 62
7
  6
CONTINUOUS
 10
172.2705720967
 20
88.1231950908
 11
172.2705720967
 21
87.9399895393
  0
LINE
  5
4E0
100
AcDbEntity
  8
3_AXES_OTHER
100
AcDbLine
 62
7
  6
CONTINUOUS
 10
172.3218490238
 20
88.4598616863
 11
172.3218490238
 21
101.5855189226
  0
LINE
  5
4E1
100
AcDbEntity
  8
3_AXES_OTHER
100
AcDbLine
 62
7
  6
CONTINUOUS
 10
172.5591774958
 20
87.239287918
 11
172.5591774958
 21
87.4224934694
  0
LINE
  5
4E2
100
AcDbEntity
  8
3_AXES_OTHER
100
AcDbLine
 62
7
  6
CONTINUOUS
 10
172.5591774958
 20
101.1982652857
 11
172.5591774958
 21
101.3814708372
  0
LINE
  5
4E3
100
AcDbEntity
  8
3_AXES_OTHER
100
AcDbLine
 62
7
  6
CONTINUOUS
 10
172.2715518762
 20
102.1283075939
 11
172.2708894474
 21
102.0821728363
  0
LINE
  5
4E4
100
AcDbEntity
  8
3_AXES_OTHER
100
AcDbLine
 62
7
  6
CONTINUOUS
 10
172.8608114318
 20
96.1775130468
 11
172.8608114318
 21
101.0240712466
  0
LINE
  5
4E5
100
AcDbEntity
  8
3_AXES_OTHER
100
AcDbLine
 62
7
  6
CONTINUOUS
 10
176.7523609202
 20
98.0059301284
 11
172.8608114318
 21
96.1775130468
  0
LINE
  5
4E6
100
AcDbEntity
  8
3_AXES_OTHER
100
AcDbLine
 62
7
  6
CONTINUOUS
 10
177.0320454696
 20
84.656200123
 11
177.0320454696
 21
84.8394056744
  0
LINE
  5
4E7
100
AcDbEntity
  8
3_AXES_OTHER
100
AcDbLine
 62
7
  6
CONTINUOUS
 10
177.0320454696
 20
98.6151774907
 11
177.0320454696
 21
98.7983830422
  0
LINE
  5
4E8
100
AcDbEntity
  8
3_AXES_OTHER
100
AcDbLine
 62
7
  6
CONTINUOUS
 10
178.2893871141
 20
93.0425026526
 11
172.8608114318
 21
96.1775130468
  0
LINE
  5
4E9
100
AcDbEntity
  8
3_AXES_OTHER
100
AcDbLine
 62
7
  6
CONTINUOUS
 10
178.2893871141
 20
98.4514468313
 11
178.2893871141
 21
93.0425026526
  0
LINE
  5
4EA
100
AcDbEntity
  8
3_AXES_OTHER
100
AcDbLine
 62
7
  6
CONTINUOUS
 10
177.2374002903
 20
97.725819183
 11
178.2893871141
 21
93.0425026526
  0
LINE
  5
4EB
100
AcDbEntity
  8
3_AXES_OTHER
100
AcDbLine
 62
7
  6
CONTINUOUS
 10
178.8283484109
 20
84.7023487765
 11
178.8283484109
 21
98.4781205928
  0
LINE
  5
4EC
100
AcDbEntity
  8
3_AXES_OTHER
100
AcDbLine
 62
9
  6
CONTINUOUS
 10
179.0912381252
 20
84.6019293809
 11
179.0912381252
 21
98.6448649802
  0
LINE
  5
4ED
100
AcDbEntity
  8
3_AXES_OTHER
100
AcDbLine
 62
7
  6
CONTINUOUS
 10
186.3765729383
 20
99.3204672195
 11
185.680601697
 21
98.91854281
  0
LINE
  5
4EE
100
AcDbEntity
  8
3_AXES_OTHER
100
AcDbLine
 62
9
  6
CONTINUOUS
 10
179.4448833194
 20
84.6973153286
 11
179.4448833194
 21
98.6865933545
  0
LINE
  5
4EF
100
AcDbEntity
  8
3_AXES_OTHER
100
AcDbLine
 62
9
  6
CONTINUOUS
 10
179.8923412258
 20
84.9277423171
 11
179.8923412258
 21
98.829476193
  0
LINE
  5
4F0
100
AcDbEntity
  8
3_ALL_AXES
100
AcDbLine
 62
7
  6
CONTINUOUS
 10
184.1639648658
 20
96.0664544938
 11
184.8385766495
 21
96.4560437852
  0
LINE
  5
4F1
100
AcDbEntity
  8
3_AXES_OTHER
100
AcDbLine
 62
7
  6
CONTINUOUS
 10
176.7523609202
 20
98.5659320012
 11
175.7220778282
 21
99.371685719
  0
LINE
  5
4F2
100
AcDbEntity
  8
3_AXES_OTHER
100
AcDbLine
 62
7
  6
CONTINUOUS
 10
172.5591774958
 20
101.1982652857
 11
177.0320454696
 21
98.6151774907
  0
LINE
  5
4F3
100
AcDbEntity
  8
3_ALL_AXES
100
AcDbLine
 62
7
  6
CONTINUOUS
 10
172.5591774958
 20
101.3814708372
 11
177.0320454696
 21
98.7983830422
  0
LINE
  5
4F4
100
AcDbEntity
  8
3_AXES_OTHER
100
AcDbLine
 62
7
  6
CONTINUOUS
 10
186.3765729383
 20
95.0135296941
 11
185.680601697
 21
94.6116052846
  0
LINE
  5
4F5
100
AcDbEntity
  8
3_AXES_OTHER
100
AcDbLine
 62
7
  6
CONTINUOUS
 10
172.2715518762
 20
102.1283075939
 11
178.3252658657
 21
98.6322789133
  0
LINE
  5
4F6
100
AcDbEntity
  8
3_AXES_OTHER
100
AcDbLine
 62
7
  6
CONTINUOUS
 10
185.680601697
 20
94.6116052846
 11
184.1639648658
 21
95.4874652722
  0
LINE
  5
4F7
100
AcDbEntity
  8
3_AXES_OTHER
100
AcDbLine
 62
7
  6
CONTINUOUS
 10
177.2374002903
 20
98.2858210558
 11
178.1581989677
 21
98.4508714638
  0
LINE
  5
4F8
100
AcDbEntity
  8
3_AXES_OTHER
100
AcDbLine
 62
7
  6
CONTINUOUS
 10
183.9876107958
 20
88.6829842106
 11
183.9876107958
 21
101.4886551067
  0
LINE
  5
4F9
100
AcDbEntity
  8
3_ALL_AXES
100
AcDbLine
 62
7
  6
CONTINUOUS
 10
184.1639648658
 20
89.0849320824
 11
184.1639648658
 21
101.8003800341
  0
LINE
  5
4FA
100
AcDbEntity
  8
3_AXES_OTHER
100
AcDbLine
 62
7
  6
CONTINUOUS
 10
185.680601697
 20
98.91854281
 11
185.680601697
 21
94.6116052846
  0
LINE
  5
4FB
100
AcDbEntity
  8
3_AXES_OTHER
100
AcDbLine
 62
7
  6
CONTINUOUS
 10
186.3765729383
 20
99.3204672195
 11
186.3765729383
 21
95.0135296941
  0
LINE
  5
4FC
100
AcDbEntity
  8
3_AXES_OTHER
100
AcDbLine
 62
7
  6
CONTINUOUS
 10
184.1639648658
 20
99.7944027976
 11
185.680601697
 21
98.91854281
  0
LINE
  5
4FD
100
AcDbEntity
  8
3_AXES_OTHER
100
AcDbLine
 62
7
  6
CONTINUOUS
 10
184.1639648658
 20
100.5982516166
 11
186.3765729383
 21
99.3204672195
  0
LINE
  5
4FE
100
AcDbEntity
  8
3_AXES_OTHER
100
AcDbLine
 62
7
  6
CONTINUOUS
 10
183.9254318235
 20
102.1630455322
 11
179.6631647474
 21
104.6245110009
  0
CIRCLE
  5
4FF
100
AcDbEntity
  8
3_AXES_OTHER
100
AcDbCircle
 62
7
  6
CONTINUOUS
 10
39.8210230185
 20
77.8211890682
 40
2.9921259843
  0
CIRCLE
  5
500
100
AcDbEntity
  8
3_AXES_OTHER
100
AcDbCircle
 62
7
  6
CONTINUOUS
 10
39.8210230185
 20
77.8211890682
 40
1.811023622
  0
CIRCLE
  5
501
100
AcDbEntity
  8
3_AXES_OTHER
100
AcDbCircle
 62
7
  6
CONTINUOUS
 10
39.8210230185
 20
85.951110328
 40
0.4850393701
  0
ARC
  5
502
100
AcDbEntity
  8
3_AXES_OTHER
100
AcDbCircle
 62
7
  6
CONTINUOUS
 10
-0.627562949
 20
103.0593587352
 40
45.5741338583
100
AcDbArc
 50
4.2529623205
 51
12.9362812536
  0
ARC
  5
503
100
AcDbEntity
  8
3_AXES_OTHER
100
AcDbCircle
 62
7
  6
CONTINUOUS
 10
80.2696089859
 20
103.0593587352
 40
45.5741338583
100
AcDbArc
 50
167.0637187464
 51
175.7470376795
  0
ARC
  5
504
100
AcDbEntity
  8
3_AXES_OTHER
100
AcDbCircle
 62
7
  6
CONTINUOUS
 10
37.9778875151
 20
107.2630840594
 40
3.3655532448
100
AcDbArc
 50
210.4213781109
 51
223.5939159559
  0
ARC
  5
505
100
AcDbEntity
  8
3_AXES_OTHER
100
AcDbCircle
 62
7
  6
CONTINUOUS
 10
41.6642880979
 20
107.2629823702
 40
3.3653889598
100
AcDbArc
 50
316.4058142449
 51
329.6039899123
  0
ARC
  5
506
100
AcDbEntity
  8
3_AXES_OTHER
100
AcDbCircle
 62
7
  6
CONTINUOUS
 10
42.1840545145
 20
106.9537288139
 40
2.7605905512
100
AcDbArc
 50
329.6819905778
 51
337.4302719926
  0
ARC
  5
507
100
AcDbEntity
  8
3_AXES_OTHER
100
AcDbCircle
 62
7
  6
CONTINUOUS
 10
37.4579915224
 20
106.9537288139
 40
2.7605905512
100
AcDbArc
 50
202.5697280074
 51
210.348497737
  0
ARC
  5
508
100
AcDbEntity
  8
3_AXES_OTHER
100
AcDbCircle
 62
7
  6
CONTINUOUS
 10
43.6344311596
 20
106.3508941682
 40
1.1899212598
100
AcDbArc
 50
337.4302719925
 51
4.2529623205
  0
ARC
  5
509
100
AcDbEntity
  8
3_AXES_OTHER
100
AcDbCircle
 62
7
  6
CONTINUOUS
 10
36.0076148773
 20
106.3508941682
 40
1.1899212598
100
AcDbArc
 50
175.7470376795
 51
202.5697280075
  0
CIRCLE
  5
50A
100
AcDbEntity
  8
3_ALL_AXES
100
AcDbCircle
 62
7
  6
CONTINUOUS
 10
39.8210230185
 20
109.1132170029
 40
0.1968503937
  0
ARC
  5
50B
100
AcDbEntity
  8
3_AXES_OTHER
100
AcDbCircle
 62
7
  6
CONTINUOUS
 10
-0.627562949
 20
63.6711631329
 40
45.5741338583
100
AcDbArc
 50
347.0637187464
 51
355.7470376795
  0
ARC
  5
50C
100
AcDbEntity
  8
3_AXES_OTHER
100
AcDbCircle
 62
7
  6
CONTINUOUS
 10
80.2696089859
 20
63.6711631329
 40
45.5741338583
100
AcDbArc
 50
184.2529623205
 51
192.9362812536
  0
ARC
  5
50D
100
AcDbEntity
  8
3_AXES_OTHER
100
AcDbCircle
 62
7
  6
CONTINUOUS
 10
37.9778875149
 20
59.4674378089
 40
3.3655532445
100
AcDbArc
 50
136.4060840436
 51
149.5786219372
  0
ARC
  5
50E
100
AcDbEntity
  8
3_AXES_OTHER
100
AcDbCircle
 62
7
  6
CONTINUOUS
 10
41.664288102
 20
59.4675395214
 40
3.3653889598
100
AcDbArc
 50
30.3960097783
 51
43.5941855134
  0
ARC
  5
50F
100
AcDbEntity
  8
3_AXES_OTHER
100
AcDbCircle
 62
7
  6
CONTINUOUS
 10
42.1840545145
 20
59.7767930542
 40
2.7605905512
100
AcDbArc
 50
22.5697280074
 51
30.3180094222
  0
ARC
  5
510
100
AcDbEntity
  8
3_AXES_OTHER
100
AcDbCircle
 62
7
  6
CONTINUOUS
 10
37.4579915224
 20
59.7767930542
 40
2.7605905512
100
AcDbArc
 50
149.6515022629
 51
157.4302719926
  0
ARC
  5
511
100
AcDbEntity
  8
3_AXES_OTHER
100
AcDbCircle
 62
7
  6
CONTINUOUS
 10
43.6344311596
 20
60.3796276999
 40
1.1899212598
100
AcDbArc
 50
355.7470376795
 51
22.5697280074
  0
ARC
  5
512
100
AcDbEntity
  8
3_AXES_OTHER
100
AcDbCircle
 62
7
  6
CONTINUOUS
 10
36.0076148773
 20
60.3796276999
 40
1.1899212598
100
AcDbArc
 50
157.4302719926
 51
184.2529623205
  0
CIRCLE
  5
513
100
AcDbEntity
  8
3_ALL_AXES
100
AcDbCircle
 62
7
  6
CONTINUOUS
 10
36.5139364043
 20
59.310218251
 40
0.1968503937
  0
CIRCLE
  5
514
100
AcDbEntity
  8
3_ALL_AXES
100
AcDbCircle
 62
7
  6
CONTINUOUS
 10
43.1281096326
 20
59.310218251
 40
0.1968503937
  0
CIRCLE
  5
515
100
AcDbEntity
  8
3_ALL_AXES
100
AcDbCircle
 62
7
  6
CONTINUOUS
 10
39.8210230185
 20
57.6173048652
 40
0.1968503937
  0
CIRCLE
  5
516
100
AcDbEntity
  8
3_ALL_AXES
100
AcDbCircle
 62
7
  6
CONTINUOUS
 10
132.5388226001
 20
80.2818189894
 40
0.1377952756
  0
CIRCLE
  5
517
100
AcDbEntity
  8
3_ALL_AXES
100
AcDbCircle
 62
7
  6
CONTINUOUS
 10
136.0821296868
 20
80.2818189894
 40
0.1377952756
  0
CIRCLE
  5
518
100
AcDbEntity
  8
3_ALL_AXES
100
AcDbCircle
 62
7
  6
CONTINUOUS
 10
134.3104761435
 20
78.0180394619
 40
0.1377952756
  0
CIRCLE
  5
519
100
AcDbEntity
  8
3_ALL_AXES
100
AcDbCircle
 62
7
  6
CONTINUOUS
 10
134.3104761435
 20
82.545598517
 40
0.1377952756
  0
ARC
  5
51A
100
AcDbEntity
  8
3_AXES_OTHER
100
AcDbCircle
 62
7
  6
CONTINUOUS
 10
177.9489493664
 20
89.7466488028
 40
5.2700058385
100
AcDbArc
 50
274.094817639
 51
282.5183832137
  0
ARC
  5
51B
100
AcDbEntity
  8
3_AXES_OTHER
100
AcDbCircle
 62
7
  6
CONTINUOUS
 10
173.3215301105
 20
102.0814272795
 40
1.0509582783
100
AcDbArc
 50
179.9593539875
 51
189.7922848958
  0
ARC
  5
51C
100
AcDbEntity
  8
3_AXES_OTHER
100
AcDbCircle
 62
7
  6
CONTINUOUS
 10
173.3214259587
 20
88.1224443202
 40
1.0508541302
100
AcDbArc
 50
179.9590671303
 51
189.8228972702
  0
SPLINE
  5
51D
100
AcDbEntity
  8
3_AXES_OTHER
100
AcDbSpline
 62
7
  6
CONTINUOUS
 70
0
 71
3
 72
9
 73
5
 74
0
 42
0.0000001
 43
0.0000001
 44
0.0000000001
 40
0.0
 40
0.0
 40
0.0
 40
0.0
 40
0.2214759572
 40
1.0
 40
1.0
 40
1.0
 40
1.0
 10
44.5670982075
 20
89.8273339185
 30
0.0
 10
44.5329212106
 20
89.8330842403
 30
0.0
 10
44.3782986513
 20
89.8572150367
 30
0.0
 10
44.2228263181
 20
89.8755975997
 30
0.0
 10
44.1016451252
 20
89.888118202
 30
0.0
  0
SPLINE
  5
51E
100
AcDbEntity
  8
3_AXES_OTHER
100
AcDbSpline
 62
7
  6
CONTINUOUS
 70
0
 71
3
 72
9
 73
5
 74
0
 42
0.0000001
 43
0.0000001
 44
0.0000000001
 40
0.0
 40
0.0
 40
0.0
 40
0.0
 40
0.2776366208
 40
1.0
 40
1.0
 40
1.0
 40
1.0
 10
44.1016451252
 20
72.5652835564
 30
0.0
 10
44.1448600406
 20
72.569748579
 30
0.0
 10
44.3004056439
 20
72.5867703507
 30
0.0
 10
44.4556285272
 20
72.6073129288
 30
0.0
 10
44.5670982075
 20
72.6260678399
 30
0.0
  0
SPLINE
  5
51F
100
AcDbEntity
  8
3_AXES_OTHER
100
AcDbSpline
 62
7
  6
CONTINUOUS
 70
0
 71
3
 72
9
 73
5
 74
0
 42
0.0000001
 43
0.0000001
 44
0.0000000001
 40
0.0
 40
0.0
 40
0.0
 40
0.0
 40
0.2254865393
 40
1.0
 40
1.0
 40
1.0
 40
1.0
 10
34.9088259633
 20
72.6589305625
 30
0.0
 10
34.9212680043
 20
72.6559853208
 30
0.0
 10
34.9765927218
 20
72.643540525
 30
0.0
 10
35.0323788342
 20
72.633221316
 30
0.0
 10
35.075689213
 20
72.6259431817
 30
0.0
  0
SPLINE
  5
520
100
AcDbEntity
  8
3_AXES_OTHER
100
AcDbSpline
 62
7
  6
CONTINUOUS
 70
0
 71
3
 72
9
 73
5
 74
0
 42
0.0000001
 43
0.0000001
 44
0.0000000001
 40
0.0
 40
0.0
 40
0.0
 40
0.0
 40
0.2254864438
 40
1.0
 40
1.0
 40
1.0
 40
1.0
 10
34.9088259633
 20
89.7944711959
 30
0.0
 10
34.9212679991
 20
89.7974164363
 30
0.0
 10
34.976592717
 20
89.809861233
 30
0.0
 10
35.0323788299
 20
89.8201804416
 30
0.0
 10
35.0756892145
 20
89.8274585769
 30
0.0
  0
SPLINE
  5
521
100
AcDbEntity
  8
3_AXES_OTHER
100
AcDbSpline
 62
7
  6
CONTINUOUS
 70
0
 71
3
 72
9
 73
5
 74
0
 42
0.0000001
 43
0.0000001
 44
0.0000000001
 40
0.0
 40
0.0
 40
0.0
 40
0.0
 40
0.2215621198
 40
1.0
 40
1.0
 40
1.0
 40
1.0
 10
35.075689213
 20
72.6259431817
 30
0.0
 10
35.1098258962
 20
72.6202066499
 30
0.0
 10
35.264203582
 20
72.5961328591
 30
0.0
 10
35.4194269704
 20
72.5777827512
 30
0.0
 10
35.5404006986
 20
72.5652835564
 30
0.0
  0
SPLINE
  5
522
100
AcDbEntity
  8
3_AXES_OTHER
100
AcDbSpline
 62
7
  6
CONTINUOUS
 70
0
 71
3
 72
9
 73
5
 74
0
 42
0.0000001
 43
0.0000001
 44
0.0000000001
 40
0.0
 40
0.0
 40
0.0
 40
0.0
 40
0.2775603317
 40
1.0
 40
1.0
 40
1.0
 40
1.0
 10
35.5404006986
 20
89.888118202
 30
0.0
 10
35.4972668422
 20
89.8836615445
 30
0.0
 10
35.3419699191
 20
89.866669775
 30
0.0
 10
35.1869958822
 20
89.846163213
 30
0.0
 10
35.0756892145
 20
89.8274585769
 30
0.0
  0
SPLINE
  5
523
100
AcDbEntity
  8
3_AXES_OTHER
100
AcDbSpline
 62
7
  6
CONTINUOUS
 70
0
 71
3
 72
13
 73
9
 74
0
 42
0.0000001
 43
0.0000001
 44
0.0000000001
 40
0.0
 40
0.0
 40
0.0
 40
0.0
 40
0.0102669508
 40
0.1322279865
 40
0.264455973
 40
0.528911946
 40
0.7933679191
 40
1.0
 40
1.0
 40
1.0
 40
1.0
 10
42.983818294
 20
104.2313272391
 30
0.0
 10
42.9888116123
 20
104.2325725525
 30
0.0
 10
43.0528415414
 20
104.2488947918
 30
0.0
 10
43.1738913644
 20
104.2886718209
 30
0.0
 10
43.3927432837
 20
104.3855540124
 30
0.0
 10
43.6437836901
 20
104.5374822648
 30
0.0
 10
43.8938927695
 20
104.7362016994
 30
0.0
 10
44.0400692473
 20
104.8777275229
 30
0.0
 10
44.1016451252
 20
104.9423902312
 30
0.0
  0
SPLINE
  5
524
100
AcDbEntity
  8
3_AXES_OTHER
100
AcDbSpline
 62
7
  6
CONTINUOUS
 70
0
 71
3
 72
13
 73
9
 74
0
 42
0.0000001
 43
0.0000001
 44
0.0000000001
 40
0.0
 40
0.0
 40
0.0
 40
0.0
 40
0.2066321486
 40
0.471088099
 40
0.7355440495
 40
0.8677720248
 40
0.9897330501
 40
1.0
 40
1.0
 40
1.0
 40
1.0
 10
35.5404006986
 20
104.9423902312
 30
0.0
 10
35.6019765136
 20
104.8777274437
 30
0.0
 10
35.7481533725
 20
104.7362018008
 30
0.0
 10
35.9982623063
 20
104.5374822411
 30
0.0
 10
36.2493027583
 20
104.3855540154
 30
0.0
 10
36.4681546716
 20
104.2886718203
 30
0.0
 10
36.5892044955
 20
104.2488947919
 30
0.0
 10
36.6532344246
 20
104.2325725525
 30
0.0
 10
36.6582277429
 20
104.2313272391
 30
0.0
  0
SPLINE
  5
525
100
AcDbEntity
  8
3_AXES_OTHER
100
AcDbSpline
 62
7
  6
CONTINUOUS
 70
0
 71
3
 72
8
 73
4
 74
0
 42
0.0000001
 43
0.0000001
 44
0.0000000001
 40
0.0
 40
0.0
 40
0.0
 40
0.0
 40
1.0
 40
1.0
 40
1.0
 40
1.0
 10
42.8349009712
 20
114.1289650344
 30
0.0
 10
43.2648571396
 20
114.1289650344
 30
0.0
 10
43.7157981102
 20
113.6854432333
 30
0.0
 10
43.7898825613
 20
113.2619177903
 30
0.0
  0
SPLINE
  5
526
100
AcDbEntity
  8
3_AXES_OTHER
100
AcDbSpline
 62
7
  6
CONTINUOUS
 70
0
 71
3
 72
8
 73
4
 74
0
 42
0.0000001
 43
0.0000001
 44
0.0000000001
 40
0.0
 40
0.0
 40
0.0
 40
0.0
 40
1.0
 40
1.0
 40
1.0
 40
1.0
 10
35.8521634756
 20
113.2619177903
 30
0.0
 10
35.9262479267
 20
113.6854432333
 30
0.0
 10
36.3773150456
 20
114.1185505943
 30
0.0
 10
36.8071450657
 20
114.1289650344
 30
0.0
  0
SPLINE
  5
527
100
AcDbEntity
  8
3_AXES_OTHER
100
AcDbSpline
 62
7
  6
CONTINUOUS
 70
0
 71
3
 72
13
 73
9
 74
0
 42
0.0000001
 43
0.0000001
 44
0.0000000001
 40
0.0
 40
0.0
 40
0.0
 40
0.0
 40
0.2066321486
 40
0.471088099
 40
0.7355440495
 40
0.8677720248
 40
0.9897330501
 40
1.0
 40
1.0
 40
1.0
 40
1.0
 10
35.5404006986
 20
61.7881316369
 30
0.0
 10
35.6019765136
 20
61.8527944244
 30
0.0
 10
35.7481533725
 20
61.9943200673
 30
0.0
 10
35.9982623063
 20
62.193039627
 30
0.0
 10
36.2493027583
 20
62.3449678527
 30
0.0
 10
36.4681546716
 20
62.4418500478
 30
0.0
 10
36.5892044955
 20
62.4816270763
 30
0.0
 10
36.6532344246
 20
62.4979493156
 30
0.0
 10
36.6582277429
 20
62.499194629
 30
0.0
  0
SPLINE
  5
528
100
AcDbEntity
  8
3_AXES_OTHER
100
AcDbSpline
 62
7
  6
CONTINUOUS
 70
0
 71
3
 72
13
 73
9
 74
0
 42
0.0000001
 43
0.0000001
 44
0.0000000001
 40
0.0
 40
0.0
 40
0.0
 40
0.0
 40
0.0102669508
 40
0.1322279865
 40
0.264455973
 40
0.528911946
 40
0.7933679191
 40
1.0
 40
1.0
 40
1.0
 40
1.0
 10
42.983818294
 20
62.499194629
 30
0.0
 10
42.9888116123
 20
62.4979493156
 30
0.0
 10
43.0528415414
 20
62.4816270763
 30
0.0
 10
43.1738913644
 20
62.4418500472
 30
0.0
 10
43.3927432837
 20
62.3449678557
 30
0.0
 10
43.6437836901
 20
62.1930396033
 30
0.0
 10
43.8938927695
 20
61.9943201687
 30
0.0
 10
44.0400692473
 20
61.8527943452
 30
0.0
 10
44.1016451252
 20
61.7881316369
 30
0.0
  0
SPLINE
  5
529
100
AcDbEntity
  8
3_AXES_OTHER
100
AcDbSpline
 62
7
  6
CONTINUOUS
 70
0
 71
3
 72
8
 73
4
 74
0
 42
0.0000001
 43
0.0000001
 44
0.0000000001
 40
0.0
 40
0.0
 40
0.0
 40
0.0
 40
1.0
 40
1.0
 40
1.0
 40
1.0
 10
43.7898825613
 20
53.4686040778
 30
0.0
 10
43.7157981102
 20
53.0450786348
 30
0.0
 10
43.2648571396
 20
52.6015568337
 30
0.0
 10
42.8349009712
 20
52.6015568337
 30
0.0
  0
SPLINE
  5
52A
100
AcDbEntity
  8
3_AXES_OTHER
100
AcDbSpline
 62
7
  6
CONTINUOUS
 70
0
 71
3
 72
8
 73
4
 74
0
 42
0.0000001
 43
0.0000001
 44
0.0000000001
 40
0.0
 40
0.0
 40
0.0
 40
0.0
 40
1.0
 40
1.0
 40
1.0
 40
1.0
 10
36.8071450657
 20
52.6015568337
 30
0.0
 10
36.3773150456
 20
52.6119712738
 30
0.0
 10
35.9262479267
 20
53.0450786348
 30
0.0
 10
35.8521634756
 20
53.4686040778
 30
0.0
  0
SPLINE
  5
52B
100
AcDbEntity
  8
3_AXES_OTHER
100
AcDbSpline
 62
7
  6
CONTINUOUS
 70
0
 71
3
 72
9
 73
5
 74
0
 42
0.0000001
 43
0.0000001
 44
0.0000000001
 40
0.0
 40
0.0
 40
0.0
 40
0.0
 40
0.2214759572
 40
1.0
 40
1.0
 40
1.0
 40
1.0
 10
129.5644009544
 20
89.8273339185
 30
0.0
 10
129.5985779513
 20
89.8330842403
 30
0.0
 10
129.7532005106
 20
89.8572150367
 30
0.0
 10
129.9086728438
 20
89.8755975997
 30
0.0
 10
130.0298540367
 20
89.888118202
 30
0.0
  0
SPLINE
  5
52C
100
AcDbEntity
  8
3_AXES_OTHER
100
AcDbSpline
 62
7
  6
CONTINUOUS
 70
0
 71
3
 72
9
 73
5
 74
0
 42
0.0000001
 43
0.0000001
 44
0.0000000001
 40
0.0
 40
0.0
 40
0.0
 40
0.0
 40
0.2776366208
 40
1.0
 40
1.0
 40
1.0
 40
1.0
 10
130.0298540367
 20
72.5652835564
 30
0.0
 10
129.9866391213
 20
72.569748579
 30
0.0
 10
129.831093518
 20
72.5867703507
 30
0.0
 10
129.6758706347
 20
72.6073129288
 30
0.0
 10
129.5644009544
 20
72.6260678399
 30
0.0
  0
SPLINE
  5
52D
100
AcDbEntity
  8
3_AXES_OTHER
100
AcDbSpline
 62
7
  6
CONTINUOUS
 70
0
 71
3
 72
9
 73
5
 74
0
 42
0.0000001
 43
0.0000001
 44
0.0000000001
 40
0.0
 40
0.0
 40
0.0
 40
0.0
 40
0.2254865393
 40
1.0
 40
1.0
 40
1.0
 40
1.0
 10
139.2226731986
 20
72.6589305625
 30
0.0
 10
139.2102311576
 20
72.6559853208
 30
0.0
 10
139.1549064401
 20
72.643540525
 30
0.0
 10
139.0991203277
 20
72.633221316
 30
0.0
 10
139.0558099489
 20
72.6259431817
 30
0.0
  0
SPLINE
  5
52E
100
AcDbEntity
  8
3_AXES_OTHER
100
AcDbSpline
 62
7
  6
CONTINUOUS
 70
0
 71
3
 72
9
 73
5
 74
0
 42
0.0000001
 43
0.0000001
 44
0.0000000001
 40
0.0
 40
0.0
 40
0.0
 40
0.0
 40
0.2254864438
 40
1.0
 40
1.0
 40
1.0
 40
1.0
 10
139.2226731986
 20
89.7944711959
 30
0.0
 10
139.2102311628
 20
89.7974164363
 30
0.0
 10
139.1549064449
 20
89.809861233
 30
0.0
 10
139.099120332
 20
89.8201804416
 30
0.0
 10
139.0558099474
 20
89.8274585769
 30
0.0
  0
SPLINE
  5
52F
100
AcDbEntity
  8
3_AXES_OTHER
100
AcDbSpline
 62
7
  6
CONTINUOUS
 70
0
 71
3
 72
9
 73
5
 74
0
 42
0.0000001
 43
0.0000001
 44
0.0000000001
 40
0.0
 40
0.0
 40
0.0
 40
0.0
 40
0.2215621198
 40
1.0
 40
1.0
 40
1.0
 40
1.0
 10
139.0558099489
 20
72.6259431817
 30
0.0
 10
139.0216732657
 20
72.6202066499
 30
0.0
 10
138.8672955799
 20
72.5961328591
 30
0.0
 10
138.7120721915
 20
72.5777827512
 30
0.0
 10
138.5910984633
 20
72.5652835564
 30
0.0
  0
SPLINE
  5
530
100
AcDbEntity
  8
3_AXES_OTHER
100
AcDbSpline
 62
7
  6
CONTINUOUS
 70
0
 71
3
 72
9
 73
5
 74
0
 42
0.0000001
 43
0.0000001
 44
0.0000000001
 40
0.0
 40
0.0
 40
0.0
 40
0.0
 40
0.2775603317
 40
1.0
 40
1.0
 40
1.0
 40
1.0
 10
138.5910984633
 20
89.888118202
 30
0.0
 10
138.6342323197
 20
89.8836615445
 30
0.0
 10
138.7895292428
 20
89.866669775
 30
0.0
 10
138.9445032797
 20
89.846163213
 30
0.0
 10
139.0558099474
 20
89.8274585769
 30
0.0
  0
SPLINE
  5
531
100
AcDbEntity
  8
3_AXES_OTHER
100
AcDbSpline
 62
7
  6
CONTINUOUS
 70
0
 71
3
 72
12
 73
8
 74
0
 42
0.0000001
 43
0.0000001
 44
0.0000000001
 40
0.0
 40
0.0
 40
0.0
 40
0.0
 40
0.0519677379
 40
0.132766524
 40
0.358891815
 40
0.6532180285
 40
1.0
 40
1.0
 40
1.0
 40
1.0
 10
130.3416166006
 20
73.3838338788
 30
0.0
 10
130.3561345992
 20
73.3919998136
 30
0.0
 10
130.3979859683
 20
73.4029307501
 30
0.0
 10
130.5104658139
 20
73.4246850511
 30
0.0
 10
130.7027101346
 20
73.4452277943
 30
0.0
 10
130.9798513627
 20
73.464062247
 30
0.0
 10
131.1854458024
 20
73.4691418241
 30
0.0
 10
131.2965981907
 20
73.4691418241
 30
0.0
  0
SPLINE
  5
532
100
AcDbEntity
  8
3_AXES_OTHER
100
AcDbSpline
 62
7
  6
CONTINUOUS
 70
0
 71
3
 72
12
 73
8
 74
0
 42
0.0000001
 43
0.0000001
 44
0.0000000001
 40
0.0
 40
0.0
 40
0.0
 40
0.0
 40
0.3467835764
 40
0.6411082039
 40
0.867232706
 40
0.9480320121
 40
1.0
 40
1.0
 40
1.0
 40
1.0
 10
131.2965981907
 20
88.9842599343
 30
0.0
 10
131.1854452878
 20
88.9842599343
 30
0.0
 10
130.9798508426
 20
88.9893395453
 30
0.0
 10
130.7027098565
 20
89.0081739848
 30
0.0
 10
130.5104661406
 20
89.0287167061
 30
0.0
 10
130.3979862811
 20
89.0504709025
 30
0.0
 10
130.3561346691
 20
89.0614019055
 30
0.0
 10
130.3416166006
 20
89.0695678795
 30
0.0
  0
SPLINE
  5
533
100
AcDbEntity
  8
3_AXES_OTHER
100
AcDbSpline
 62
7
  6
CONTINUOUS
 70
0
 71
3
 72
12
 73
8
 74
0
 42
0.0000001
 43
0.0000001
 44
0.0000000001
 40
0.0
 40
0.0
 40
0.0
 40
0.0
 40
0.3453442187
 40
0.6397179375
 40
0.8668722934
 40
0.9480022098
 40
1.0
 40
1.0
 40
1.0
 40
1.0
 10
137.3243540962
 20
73.4691418241
 30
0.0
 10
137.4350387954
 20
73.4688779641
 30
0.0
 10
137.6401615096
 20
73.4635889707
 30
0.0
 10
137.9171739236
 20
73.4448828628
 30
0.0
 10
138.1098880851
 20
73.4245637986
 30
0.0
 10
138.2228253013
 20
73.4029067509
 30
0.0
 10
138.2648101502
 20
73.3920040532
 30
0.0
 10
138.2793356863
 20
73.3838338788
 30
0.0
  0
SPLINE
  5
534
100
AcDbEntity
  8
3_AXES_OTHER
100
AcDbSpline
 62
7
  6
CONTINUOUS
 70
0
 71
3
 72
12
 73
8
 74
0
 42
0.0000001
 43
0.0000001
 44
0.0000000001
 40
0.0
 40
0.0
 40
0.0
 40
0.0
 40
0.0519975847
 40
0.1331270636
 40
0.3602819719
 40
0.6546568397
 40
1.0
 40
1.0
 40
1.0
 40
1.0
 10
138.2793356863
 20
89.0695678795
 30
0.0
 10
138.2648102076
 20
89.0613977374
 30
0.0
 10
138.2228255625
 20
89.0504950921
 30
0.0
 10
138.1098883901
 20
89.0288379674
 30
0.0
 10
137.9171738158
 20
89.0085188899
 30
0.0
 10
137.6401611998
 20
88.9898127658
 30
0.0
 10
137.435038456
 20
88.9845237935
 30
0.0
 10
137.3243540962
 20
88.9842599343
 30
0.0
  0
SPLINE
  5
535
100
AcDbEntity
  8
3_AXES_OTHER
100
AcDbSpline
 62
7
  6
CONTINUOUS
 70
0
 71
3
 72
9
 73
5
 74
0
 42
0.0000001
 43
0.0000001
 44
0.0000000001
 40
0.0
 40
0.0
 40
0.0
 40
0.0
 40
0.5045488623
 40
1.0
 40
1.0
 40
1.0
 40
1.0
 10
177.0320454696
 20
84.656200123
 30
0.0
 10
177.2398917693
 20
84.5840883482
 30
0.0
 10
177.6732374494
 20
84.5054962185
 30
0.0
 10
178.1092538817
 20
84.4870456307
 30
0.0
 10
178.3252658657
 20
84.4900959941
 30
0.0
  0
SPLINE
  5
536
100
AcDbEntity
  8
3_AXES_OTHER
100
AcDbSpline
 62
7
  6
CONTINUOUS
 70
0
 71
3
 72
10
 73
6
 74
0
 42
0.0000001
 43
0.0000001
 44
0.0000000001
 40
0.0
 40
0.0
 40
0.0
 40
0.0
 40
0.2543921226
 40
0.5035243936
 40
1.0
 40
1.0
 40
1.0
 40
1.0
 10
177.0320454696
 20
98.6151774907
 30
0.0
 10
177.1772264224
 20
98.5648073076
 30
0.0
 10
177.4758278714
 20
98.497784039
 30
0.0
 10
178.0770516145
 20
98.4359031542
 30
0.0
 10
178.5299831446
 20
98.4477598806
 30
0.0
 10
178.8283484109
 20
98.4781205928
 30
0.0
  0
SPLINE
  5
537
100
AcDbEntity
  8
3_AXES_OTHER
100
AcDbSpline
 62
7
  6
CONTINUOUS
 70
0
 71
3
 72
9
 73
5
 74
0
 42
0.0000001
 43
0.0000001
 44
0.0000000001
 40
0.0
 40
0.0
 40
0.0
 40
0.0
 40
0.5283370185
 40
1.0
 40
1.0
 40
1.0
 40
1.0
 10
183.9876107958
 20
88.6829842106
 30
0.0
 10
184.0445149151
 20
88.7376150085
 30
0.0
 10
184.1326560156
 20
88.8640458678
 30
0.0
 10
184.1639672158
 20
89.014510378
 30
0.0
 10
184.1639656542
 20
89.0849321248
 30
0.0
  0
SPLINE
  5
538
100
AcDbEntity
  8
3_AXES_OTHER
100
AcDbSpline
 62
7
  6
CONTINUOUS
 70
0
 71
3
 72
9
 73
5
 74
0
 42
0.0000001
 43
0.0000001
 44
0.0000000001
 40
0.0
 40
0.0
 40
0.0
 40
0.0
 40
0.5605225787
 40
1.0
 40
1.0
 40
1.0
 40
1.0
 10
183.9254318235
 20
102.1630455322
 30
0.0
 10
183.9982146501
 20
102.1210133434
 30
0.0
 10
184.1176113574
 20
102.0181708534
 30
0.0
 10
184.1639639689
 20
101.8662776768
 30
0.0
 10
184.1639656338
 20
101.8003799889
 30
0.0
  0
SPLINE
  5
539
100
AcDbEntity
  8
3_ALL_AXES
100
AcDbSpline
 62
7
  6
CONTINUOUS
 70
0
 71
3
 72
11
 73
7
 74
0
 42
0.0000001
 43
0.0000001
 44
0.0000000001
 40
0.0
 40
0.0
 40
0.0
 40
0.0
 40
0.1838643444
 40
0.3676658021
 40
0.582686867
 40
1.0
 40
1.0
 40
1.0
 40
1.0
 10
185.3332583427
 20
97.0451392808
 30
0.0
 10
185.347666584
 20
97.0534681177
 30
0.0
 10
185.385746309
 20
97.0514499631
 30
0.0
 10
185.4295622237
 20
97.0211651886
 30
0.0
 10
185.4777105727
 20
96.9647294925
 30
0.0
 10
185.4996491743
 20
96.907347135
 30
0.0
 10
185.4996491743
 20
96.8695743938
 30
0.0
  0
SPLINE
  5
53A
100
AcDbEntity
  8
3_AXES_OTHER
100
AcDbSpline
 62
7
  6
CONTINUOUS
 70
0
 71
3
 72
11
 73
7
 74
0
 42
0.0000001
 43
0.0000001
 44
0.0000000001
 40
0.0
 40
0.0
 40
0.0
 40
0.0
 40
0.2415119537
 40
0.5011194654
 40
0.7610541494
 40
1.0
 40
1.0
 40
1.0
 40
1.0
 10
178.3747958032
 20
104.7300639719
 30
0.0
 10
178.4760009894
 20
104.7613223114
 30
0.0
 10
178.6957350847
 20
104.7930274003
 30
0.0
 10
179.0302641526
 20
104.7906623476
 30
0.0
 10
179.3600368499
 20
104.743140722
 30
0.0
 10
179.5714511193
 20
104.6752163362
 30
0.0
 10
179.6631647474
 20
104.6245110009
 30
0.0
  0
SPLINE
  5
53B
100
AcDbEntity
  8
3_ALL_AXES
100
AcDbSpline
 62
7
  6
CONTINUOUS
 70
0
 71
3
 72
9
 73
5
 74
0
 42
0.0000001
 43
0.0000001
 44
0.0000000001
 40
0.0
 40
0.0
 40
0.0
 40
0.0
 40
0.7640921079
 40
1.0
 40
1.0
 40
1.0
 40
1.0
 10
184.1640231336
 20
95.9040056929
 30
0.0
 10
184.2011923227
 20
95.8760659535
 30
0.0
 10
184.2370852807
 20
95.8196851134
 30
0.0
 10
184.2469009399
 20
95.7592684513
 30
0.0
 10
184.2469009399
 20
95.7449121539
 30
0.0
  0
SPLINE
  5
53C
100
AcDbEntity
  8
3_ALL_AXES
100
AcDbSpline
 62
7
  6
CONTINUOUS
 70
0
 71
3
 72
9
 73
5
 74
0
 42
0.0000001
 43
0.0000001
 44
0.0000000001
 40
0.0
 40
0.0
 40
0.0
 40
0.0
 40
0.7640921079
 40
1.0
 40
1.0
 40
1.0
 40
1.0
 10
184.1640231336
 20
99.6002580468
 30
0.0
 10
184.2011923227
 20
99.5723183074
 30
0.0
 10
184.2370852807
 20
99.5159374672
 30
0.0
 10
184.2469009399
 20
99.4555208051
 30
0.0
 10
184.2469009399
 20
99.4411645078
 30
0.0
  0
SPLINE
  5
53D
100
AcDbEntity
  8
3_AXES_OTHER
100
AcDbSpline
 62
7
  6
CONTINUOUS
 70
0
 71
3
 72
9
 73
5
 74
0
 42
0.0000001
 43
0.0000001
 44
0.0000000001
 40
0.0
 40
0.0
 40
0.0
 40
0.0
 40
0.2579905463
 40
1.0
 40
1.0
 40
1.0
 40
1.0
 10
172.497987623
 20
102.6984357769
 30
0.0
 10
172.4862059258
 20
102.6842431566
 30
0.0
 10
172.4418935409
 20
102.6281322455
 30
0.0
 10
172.4032603115
 20
102.5674447776
 30
0.0
 10
172.3789025625
 20
102.5203155841
 30
0.0
  0
SPLINE
  5
53E
100
AcDbEntity
  8
3_AXES_OTHER
100
AcDbSpline
 62
7
  6
CONTINUOUS
 70
0
 71
3
 72
9
 73
5
 74
0
 42
0.0000001
 43
0.0000001
 44
0.0000000001
 40
0.0
 40
0.0
 40
0.0
 40
0.0
 40
0.2553882474
 40
1.0
 40
1.0
 40
1.0
 40
1.0
 10
172.3218490238
 20
88.4598616863
 30
0.0
 10
172.3133721007
 20
88.4320760251
 30
0.0
 10
172.2840321372
 20
88.3221526081
 30
0.0
 10
172.2705720946
 20
88.2078933811
 30
0.0
 10
172.2705720967
 20
88.1231950643
 30
0.0
  0
SPLINE
  5
53F
100
AcDbEntity
  8
3_AXES_OTHER
100
AcDbSpline
 62
7
  6
CONTINUOUS
 70
0
 71
3
 72
9
 73
5
 74
0
 42
0.0000001
 43
0.0000001
 44
0.0000000001
 40
0.0
 40
0.0
 40
0.0
 40
0.0
 40
0.2462984066
 40
1.0
 40
1.0
 40
1.0
 40
1.0
 10
172.2715518762
 20
102.1283075939
 30
0.0
 10
172.273128335
 20
102.1617866292
 30
0.0
 10
172.287100483
 20
102.2973096538
 30
0.0
 10
172.3318122843
 20
102.4292017939
 30
0.0
 10
172.3789025625
 20
102.5203155841
 30
0.0
  0
SPLINE
  5
540
100
AcDbEntity
  8
3_AXES_OTHER
100
AcDbSpline
 62
7
  6
CONTINUOUS
 70
0
 71
3
 72
9
 73
5
 74
0
 42
0.0000001
 43
0.0000001
 44
0.0000000001
 40
0.0
 40
0.0
 40
0.0
 40
0.0
 40
0.4603088528
 40
1.0
 40
1.0
 40
1.0
 40
1.0
 10
172.2705720967
 20
87.9399899172
 30
0.0
 10
172.2705720551
 20
87.8213116641
 30
0.0
 10
172.3130772916
 20
87.5612742852
 30
0.0
 10
172.4588634953
 20
87.335716069
 30
0.0
 10
172.5591774958
 20
87.239287918
 30
0.0
  0
SPLINE
  5
541
100
AcDbEntity
  8
3_AXES_OTHER
100
AcDbSpline
 62
7
  6
CONTINUOUS
 70
0
 71
3
 72
9
 73
5
 74
0
 42
0.0000001
 43
0.0000001
 44
0.0000000001
 40
0.0
 40
0.0
 40
0.0
 40
0.0
 40
0.460308847
 40
1.0
 40
1.0
 40
1.0
 40
1.0
 10
172.2705720967
 20
101.8989668806
 30
0.0
 10
172.2705720996
 20
101.7802886899
 30
0.0
 10
172.3130773948
 20
101.5202514623
 30
0.0
 10
172.4588635456
 20
101.2946933884
 30
0.0
 10
172.5591774958
 20
101.1982652857
 30
0.0
  0
SPLINE
  5
542
100
AcDbEntity
  8
3_ALL_AXES
100
AcDbSpline
 62
7
  6
CONTINUOUS
 70
0
 71
3
 72
9
 73
5
 74
0
 42
0.0000001
 43
0.0000001
 44
0.0000000001
 40
0.0
 40
0.0
 40
0.0
 40
0.0
 40
0.2951705275
 40
1.0
 40
1.0
 40
1.0
 40
1.0
 10
184.2469009399
 20
99.4411645078
 30
0.0
 10
184.2469009399
 20
99.4341987931
 30
0.0
 10
184.2453505485
 20
99.4109144241
 30
0.0
 10
184.2328201973
 20
99.3864627444
 30
0.0
 10
184.2184198239
 20
99.3781384555
 30
0.0
  0
SPLINE
  5
543
100
AcDbEntity
  8
3_ALL_AXES
100
AcDbSpline
 62
7
  6
CONTINUOUS
 70
0
 71
3
 72
9
 73
5
 74
0
 42
0.0000001
 43
0.0000001
 44
0.0000000001
 40
0.0
 40
0.0
 40
0.0
 40
0.0
 40
0.2951705275
 40
1.0
 40
1.0
 40
1.0
 40
1.0
 10
184.2469009399
 20
95.7449121539
 30
0.0
 10
184.2469009399
 20
95.7379464392
 30
0.0
 10
184.2453505485
 20
95.7146620703
 30
0.0
 10
184.2328201973
 20
95.6902103905
 30
0.0
 10
184.2184198239
 20
95.6818861016
 30
0.0
  0
SPLINE
  5
544
100
AcDbEntity
  8
3_ALL_AXES
100
AcDbSpline
 62
7
  6
CONTINUOUS
 70
0
 71
3
 72
9
 73
5
 74
0
 42
0.0000001
 43
0.0000001
 44
0.0000000001
 40
0.0
 40
0.0
 40
0.0
 40
0.0
 40
0.2951705275
 40
1.0
 40
1.0
 40
1.0
 40
1.0
 10
185.4996491743
 20
96.8695743938
 30
0.0
 10
185.4996491743
 20
96.862608679
 30
0.0
 10
185.4980987829
 20
96.8393243101
 30
0.0
 10
185.4855684317
 20
96.8148726303
 30
0.0
 10
185.4711680582
 20
96.8065483415
 30
0.0
  0
SPLINE
  5
545
100
AcDbEntity
  8
3_AXES_OTHER
100
AcDbSpline
 62
7
  6
CONTINUOUS
 70
0
 71
3
 72
9
 73
5
 74
0
 42
0.0000001
 43
0.0000001
 44
0.0000000001
 40
0.0
 40
0.0
 40
0.0
 40
0.0
 40
0.5045488623
 40
1.0
 40
1.0
 40
1.0
 40
1.0
 10
177.0320454696
 20
98.7983830422
 30
0.0
 10
177.2398917693
 20
98.7262712674
 30
0.0
 10
177.6732374494
 20
98.6476791377
 30
0.0
 10
178.1092538817
 20
98.6292285499
 30
0.0
 10
178.3252658657
 20
98.6322789133
 30
0.0
  0
SPLINE
  5
546
100
AcDbEntity
  8
3_ALL_AXES
100
AcDbSpline
 62
7
  6
CONTINUOUS
 70
0
 71
3
 72
9
 73
5
 74
0
 42
0.0000001
 43
0.0000001
 44
0.0000000001
 40
0.0
 40
0.0
 40
0.0
 40
0.0
 40
0.7153440277
 40
1.0
 40
1.0
 40
1.0
 40
1.0
 10
184.2184198239
 20
95.6818861016
 30
0.0
 10
184.2069815444
 20
95.6752740826
 30
0.0
 10
184.186366287
 20
95.6738759065
 30
0.0
 10
184.1688988963
 20
95.6795762696
 30
0.0
 10
184.1640231336
 20
95.6815427236
 30
0.0
  0
SPLINE
  5
547
100
AcDbEntity
  8
3_AXES_OTHER
100
AcDbSpline
 62
7
  6
CONTINUOUS
 70
0
 71
3
 72
19
 73
15
 74
0
 42
0.0000001
 43
0.0000001
 44
0.0000000001
 40
0.0
 40
0.0
 40
0.0
 40
0.0
 40
0.0604616213
 40
0.1145440514
 40
0.1631885818
 40
0.2086144218
 40
0.2540370568
 40
0.3026716359
 40
0.3567444073
 40
0.4171912233
 40
0.555432679
 40
0.7085812218
 40
0.8617382629
 40
1.0
 40
1.0
 40
1.0
 40
1.0
 10
175.575099273
 20
93.1315069082
 30
0.0
 10
175.4437582926
 20
93.2073565164
 30
0.0
 10
175.1826049319
 20
93.3317142617
 30
0.0
 10
174.7812131418
 20
93.4286427729
 30
0.0
 10
174.4043408617
 20
93.419165162
 30
0.0
 10
174.0688962098
 20
93.2976151759
 30
0.0
 10
173.7958168532
 20
93.0680206288
 30
0.0
 10
173.599091082
 20
92.7465263124
 30
0.0
 10
173.4822188867
 20
92.3504331775
 30
0.0
 10
173.4320003097
 20
91.7148749642
 30
0.0
 10
173.5895829284
 20
90.8326767034
 30
0.0
 10
174.042839197
 20
89.8044890886
 30
0.0
 10
174.7063450894
 20
88.8979420736
 30
0.0
 10
175.274752843
 20
88.4194760385
 30
0.0
 10
175.575099273
 20
88.2460255361
 30
0.0
  0
SPLINE
  5
548
100
AcDbEntity
  8
3_AXES_OTHER
100
AcDbSpline
 62
7
  6
CONTINUOUS
 70
0
 71
3
 72
19
 73
15
 74
0
 42
0.0000001
 43
0.0000001
 44
0.0000000001
 40
0.0
 40
0.0
 40
0.0
 40
0.0
 40
0.0604616213
 40
0.1145440514
 40
0.1631885818
 40
0.2086144218
 40
0.2540370568
 40
0.3026716359
 40
0.3567444073
 40
0.4171912233
 40
0.555432679
 40
0.7085812218
 40
0.8617382629
 40
1.0
 40
1.0
 40
1.0
 40
1.0
 10
175.575099273
 20
88.2460255361
 30
0.0
 10
175.7064402534
 20
88.1701759278
 30
0.0
 10
175.967593614
 20
88.0458181825
 30
0.0
 10
176.3689854041
 20
87.9488896713
 30
0.0
 10
176.7458576842
 20
87.9583672822
 30
0.0
 10
177.0813023361
 20
88.0799172683
 30
0.0
 10
177.3543816927
 20
88.3095118154
 30
0.0
 10
177.5511074639
 20
88.6310061318
 30
0.0
 10
177.6679796592
 20
89.0270992667
 30
0.0
 10
177.7181982362
 20
89.6626574801
 30
0.0
 10
177.5606156175
 20
90.5448557408
 30
0.0
 10
177.107359349
 20
91.5730433556
 30
0.0
 10
176.4438534565
 20
92.4795903706
 30
0.0
 10
175.8754457029
 20
92.9580564057
 30
0.0
 10
175.575099273
 20
93.1315069082
 30
0.0
  0
SPLINE
  5
549
100
AcDbEntity
  8
3_AXES_OTHER
100
AcDbSpline
 62
7
  6
CONTINUOUS
 70
0
 71
3
 72
11
 73
7
 74
0
 42
0.0000001
 43
0.0000001
 44
0.0000000001
 40
0.0
 40
0.0
 40
0.0
 40
0.0
 40
0.3073957821
 40
0.5848981071
 40
0.8135262498
 40
1.0
 40
1.0
 40
1.0
 40
1.0
 10
177.2374002903
 20
98.2858210558
 30
0.0
 10
177.206260119
 20
98.3397574137
 30
0.0
 10
177.1355544938
 20
98.4364412198
 30
0.0
 10
177.0079564368
 20
98.5433942089
 30
0.0
 10
176.874696884
 20
98.5982016173
 30
0.0
 10
176.7850843099
 20
98.5848149629
 30
0.0
 10
176.7523609202
 20
98.5659320012
 30
0.0
  0
SPLINE
  5
54A
100
AcDbEntity
  8
3_AXES_OTHER
100
AcDbSpline
 62
7
  6
CONTINUOUS
 70
0
 71
3
 72
11
 73
7
 74
0
 42
0.0000001
 43
0.0000001
 44
0.0000000001
 40
0.0
 40
0.0
 40
0.0
 40
0.0
 40
0.1864729502
 40
0.4150807471
 40
0.692578386
 40
1.0
 40
1.0
 40
1.0
 40
1.0
 10
177.2374002903
 20
97.725819183
 30
0.0
 10
177.2701191075
 20
97.7446995062
 30
0.0
 10
177.32654205
 20
97.8155771942
 30
0.0
 10
177.3457276286
 20
97.9583645322
 30
0.0
 10
177.3169126015
 20
98.122323508
 30
0.0
 10
177.2685388605
 20
98.2318874711
 30
0.0
 10
177.2374002903
 20
98.2858210558
 30
0.0
  0
SPLINE
  5
54B
100
AcDbEntity
  8
3_AXES_OTHER
100
AcDbSpline
 62
7
  6
CONTINUOUS
 70
0
 71
3
 72
11
 73
7
 74
0
 42
0.0000001
 43
0.0000001
 44
0.0000000001
 40
0.0
 40
0.0
 40
0.0
 40
0.0
 40
0.3073957821
 40
0.5848981071
 40
0.8135262498
 40
1.0
 40
1.0
 40
1.0
 40
1.0
 10
176.7523609202
 20
98.0059301284
 30
0.0
 10
176.7835010915
 20
97.9519937704
 30
0.0
 10
176.8542067168
 20
97.8553099643
 30
0.0
 10
176.9818047738
 20
97.7483569753
 30
0.0
 10
177.1150643266
 20
97.6935495669
 30
0.0
 10
177.2046769007
 20
97.7069362212
 30
0.0
 10
177.2374002903
 20
97.725819183
 30
0.0
  0
SPLINE
  5
54C
100
AcDbEntity
  8
3_AXES_OTHER
100
AcDbSpline
 62
7
  6
CONTINUOUS
 70
0
 71
3
 72
11
 73
7
 74
0
 42
0.0000001
 43
0.0000001
 44
0.0000000001
 40
0.0
 40
0.0
 40
0.0
 40
0.0
 40
0.1864729502
 40
0.4150807471
 40
0.692578386
 40
1.0
 40
1.0
 40
1.0
 40
1.0
 10
176.7523609202
 20
98.5659320012
 30
0.0
 10
176.719642103
 20
98.547051678
 30
0.0
 10
176.6632191605
 20
98.47617399
 30
0.0
 10
176.6440335819
 20
98.3333866519
 30
0.0
 10
176.672848609
 20
98.1694276761
 30
0.0
 10
176.7212223501
 20
98.0598637131
 30
0.0
 10
176.7523609202
 20
98.0059301284
 30
0.0
  0
SPLINE
  5
54D
100
AcDbEntity
  8
3_AXES_OTHER
100
AcDbSpline
 62
7
  6
CONTINUOUS
 70
0
 71
3
 72
18
 73
14
 74
0
 42
0.0000001
 43
0.0000001
 44
0.0000000001
 40
0.0
 40
0.0
 40
0.0
 40
0.0
 40
0.1139849155
 40
0.1626579051
 40
0.2081132035
 40
0.2535645456
 40
0.302230048
 40
0.3563371577
 40
0.4168221639
 40
0.5551505275
 40
0.7083956354
 40
0.8616482843
 40
1.0
 40
1.0
 40
1.0
 40
1.0
 10
176.1040374164
 20
92.4727297149
 30
0.0
 10
175.9542634305
 20
92.5592244107
 30
0.0
 10
175.7153637266
 20
92.654814094
 30
0.0
 10
175.3954627759
 20
92.6468470923
 30
0.0
 10
175.1923758259
 20
92.5732678164
 30
0.0
 10
175.0271088479
 20
92.4343008885
 30
0.0
 10
174.9080347831
 20
92.2397111681
 30
0.0
 10
174.8373004702
 20
91.9999701578
 30
0.0
 10
174.8069053687
 20
91.6152919753
 30
0.0
 10
174.9022809459
 20
91.081332118
 30
0.0
 10
175.1766158392
 20
90.4590117423
 30
0.0
 10
175.578205975
 20
89.9103078507
 30
0.0
 10
175.9222459239
 20
89.6207126845
 30
0.0
 10
176.1040374164
 20
89.5157278318
 30
0.0
  0
SPLINE
  5
54E
100
AcDbEntity
  8
3_AXES_OTHER
100
AcDbSpline
 62
7
  6
CONTINUOUS
 70
0
 71
3
 72
18
 73
14
 74
0
 42
0.0000001
 43
0.0000001
 44
0.0000000001
 40
0.0
 40
0.0
 40
0.0
 40
0.0
 40
0.1383517157
 40
0.2916043646
 40
0.4448494725
 40
0.5831778361
 40
0.6436628423
 40
0.697769952
 40
0.7464354544
 40
0.7918867965
 40
0.8373420949
 40
0.8860150845
 40
1.0
 40
1.0
 40
1.0
 40
1.0
 10
176.1040374164
 20
92.4727297149
 30
0.0
 10
176.2858289088
 20
92.3677448622
 30
0.0
 10
176.6298688577
 20
92.0781496959
 30
0.0
 10
177.0314589935
 20
91.5294458043
 30
0.0
 10
177.3057938869
 20
90.9071254287
 30
0.0
 10
177.401169464
 20
90.3731655714
 30
0.0
 10
177.3707743626
 20
89.9884873889
 30
0.0
 10
177.3000400496
 20
89.7487463786
 30
0.0
 10
177.1809659848
 20
89.5541566582
 30
0.0
 10
177.0156990069
 20
89.4151897303
 30
0.0
 10
176.8126120569
 20
89.3416104544
 30
0.0
 10
176.4927111061
 20
89.3336434527
 30
0.0
 10
176.2538114022
 20
89.429233136
 30
0.0
 10
176.1040374164
 20
89.5157278318
 30
0.0
  0
SPLINE
  5
54F
100
AcDbEntity
  8
3_AXES_OTHER
100
AcDbSpline
 62
7
  6
CONTINUOUS
 70
0
 71
3
 72
9
 73
5
 74
0
 42
0.0000001
 43
0.0000001
 44
0.0000000001
 40
0.0
 40
0.0
 40
0.0
 40
0.0
 40
0.4597691121
 40
1.0
 40
1.0
 40
1.0
 40
1.0
 10
172.2859775618
 20
87.9431651516
 30
0.0
 10
172.3016391625
 20
87.853263096
 30
0.0
 10
172.3622814336
 20
87.6613284722
 30
0.0
 10
172.4818746129
 20
87.4968018814
 30
0.0
 10
172.5591774958
 20
87.4224934694
 30
0.0
  0
SPLINE
  5
550
100
AcDbEntity
  8
3_AXES_OTHER
100
AcDbSpline
 62
7
  6
CONTINUOUS
 70
0
 71
3
 72
9
 73
5
 74
0
 42
0.0000001
 43
0.0000001
 44
0.0000000001
 40
0.0
 40
0.0
 40
0.0
 40
0.0
 40
0.459763917
 40
1.0
 40
1.0
 40
1.0
 40
1.0
 10
172.2858834442
 20
101.9026836496
 30
0.0
 10
172.3015103031
 20
101.8126922084
 30
0.0
 10
172.3621232586
 20
101.6205513701
 30
0.0
 10
172.4818034389
 20
101.455847666
 30
0.0
 10
172.5591774958
 20
101.3814708372
 30
0.0
  0
SPLINE
  5
551
100
AcDbEntity
  8
3_ALL_AXES
100
AcDbSpline
 62
7
  6
CONTINUOUS
 70
0
 71
3
 72
9
 73
5
 74
0
 42
0.0000001
 43
0.0000001
 44
0.0000000001
 40
0.0
 40
0.0
 40
0.0
 40
0.0
 40
0.7153440277
 40
1.0
 40
1.0
 40
1.0
 40
1.0
 10
184.2184198239
 20
99.3781384555
 30
0.0
 10
184.2069815444
 20
99.3715264365
 30
0.0
 10
184.186366287
 20
99.3701282604
 30
0.0
 10
184.1688988963
 20
99.3758286235
 30
0.0
 10
184.1640231336
 20
99.3777950774
 30
0.0
  0
SPLINE
  5
552
100
AcDbEntity
  8
3_AXES_OTHER
100
AcDbSpline
 62
7
  6
CONTINUOUS
 70
0
 71
3
 72
9
 73
5
 74
0
 42
0.0000001
 43
0.0000001
 44
0.0000000001
 40
0.0
 40
0.0
 40
0.0
 40
0.0
 40
0.4627129879
 40
1.0
 40
1.0
 40
1.0
 40
1.0
 10
184.1639656338
 20
101.8003799889
 30
0.0
 10
184.1639670727
 20
101.7434254413
 30
0.0
 10
184.131579609
 20
101.6185834549
 30
0.0
 10
184.0421791564
 20
101.5260177231
 30
0.0
 10
183.9876107958
 20
101.4886551067
 30
0.0
  0
SPLINE
  5
553
100
AcDbEntity
  8
3_ALL_AXES
100
AcDbSpline
 62
7
  6
CONTINUOUS
 70
0
 71
3
 72
11
 73
7
 74
0
 42
0.0000001
 43
0.0000001
 44
0.0000000001
 40
0.0
 40
0.0
 40
0.0
 40
0.0
 40
0.2381566948
 40
0.5009602277
 40
0.7632403126
 40
1.0
 40
1.0
 40
1.0
 40
1.0
 10
184.1640428904
 20
98.7657039732
 30
0.0
 10
184.3007173269
 20
98.6844173951
 30
0.0
 10
184.5587770535
 20
98.4634355992
 30
0.0
 10
184.8598021438
 20
98.0476246936
 30
0.0
 10
185.0650846633
 20
97.5781411548
 30
0.0
 10
185.1238247039
 20
97.2447009298
 30
0.0
 10
185.1238247039
 20
97.0866135749
 30
0.0
  0
SPLINE
  5
554
100
AcDbEntity
  8
3_ALL_AXES
100
AcDbSpline
 62
7
  6
CONTINUOUS
 70
0
 71
3
 72
11
 73
7
 74
0
 42
0.0000001
 43
0.0000001
 44
0.0000000001
 40
0.0
 40
0.0
 40
0.0
 40
0.0
 40
0.1838643444
 40
0.3676658021
 40
0.582686867
 40
1.0
 40
1.0
 40
1.0
 40
1.0
 10
185.4711680582
 20
96.8065483415
 30
0.0
 10
185.4567598169
 20
96.7982195045
 30
0.0
 10
185.418680092
 20
96.8002376592
 30
0.0
 10
185.3748641773
 20
96.8305224336
 30
0.0
 10
185.3267158283
 20
96.8869581298
 30
0.0
 10
185.3047772267
 20
96.9443404872
 30
0.0
 10
185.3047772267
 20
96.9821132284
 30
0.0
  0
SPLINE
  5
555
100
AcDbEntity
  8
3_AXES_OTHER
100
AcDbSpline
 62
7
  6
CONTINUOUS
 70
0
 71
3
 72
9
 73
5
 74
0
 42
0.0000001
 43
0.0000001
 44
0.0000000001
 40
0.0
 40
0.0
 40
0.0
 40
0.0
 40
0.2467825593
 40
1.0
 40
1.0
 40
1.0
 40
1.0
 10
179.0912381252
 20
98.6448649802
 30
0.0
 10
179.0283965278
 20
98.6398607964
 30
0.0
 10
178.7734257214
 20
98.6238700567
 30
0.0
 10
178.517488496
 20
98.6238086111
 30
0.0
 10
178.3252658657
 20
98.6322789133
 30
0.0
  0
SPLINE
  5
556
100
AcDbEntity
  8
3_ALL_AXES
100
AcDbSpline
 62
7
  6
CONTINUOUS
 70
0
 71
3
 72
9
 73
5
 74
0
 42
0.0000001
 43
0.0000001
 44
0.0000000001
 40
0.0
 40
0.0
 40
0.0
 40
0.0
 40
0.5507588887
 40
1.0
 40
1.0
 40
1.0
 40
1.0
 10
185.1238247039
 20
97.0866135749
 30
0.0
 10
185.1238247039
 20
96.9550544153
 30
0.0
 10
185.0919085605
 20
96.7105766502
 30
0.0
 10
184.9314102216
 20
96.5096420544
 30
0.0
 10
184.8384759519
 20
96.4559894882
 30
0.0
  0
SPLINE
  5
557
100
AcDbEntity
  8
3_ALL_AXES
100
AcDbSpline
 62
7
  6
CONTINUOUS
 70
0
 71
3
 72
9
 73
5
 74
0
 42
0.0000001
 43
0.0000001
 44
0.0000000001
 40
0.0
 40
0.0
 40
0.0
 40
0.0
 40
0.2951705275
 40
1.0
 40
1.0
 40
1.0
 40
1.0
 10
185.3047772267
 20
96.9821132284
 30
0.0
 10
185.3047772267
 20
96.9890789432
 30
0.0
 10
185.3063276181
 20
97.0123633121
 30
0.0
 10
185.3188579692
 20
97.0368149919
 30
0.0
 10
185.3332583427
 20
97.0451392808
 30
0.0
  0
SPLINE
  5
558
100
AcDbEntity
  8
3_AXES_OTHER
100
AcDbSpline
 62
7
  6
CONTINUOUS
 70
0
 71
3
 72
10
 73
6
 74
0
 42
0.0000001
 43
0.0000001
 44
0.0000000001
 40
0.0
 40
0.0
 40
0.0
 40
0.0
 40
0.2543921226
 40
0.5035243936
 40
1.0
 40
1.0
 40
1.0
 40
1.0
 10
177.0320454696
 20
84.8394056744
 30
0.0
 10
177.1772264224
 20
84.7890354913
 30
0.0
 10
177.4758278714
 20
84.7220122227
 30
0.0
 10
178.0770516145
 20
84.6601313379
 30
0.0
 10
178.5299831446
 20
84.6719880644
 30
0.0
 10
178.8283484109
 20
84.7023487765
 30
0.0
  0
ELLIPSE
  5
559
100
AcDbEntity
  8
3_AXES_OTHER
100
AcDbEllipse
 62
7
  6
CONTINUOUS
 10
42.1840545145
 20
72.7631772269
 30
0.0
 11
2.7605905512
 21
-0.0
 31
0.0
 40
0.0983890391
 41
-0.5291490871
 42
-0.393916065
  0
ELLIPSE
  5
55A
100
AcDbEntity
  8
3_AXES_OTHER
100
AcDbEllipse
 62
7
  6
CONTINUOUS
 10
42.1840545145
 20
89.6902245315
 30
0.0
 11
2.7605905512
 21
0.0
 31
0.0
 40
0.0983890391
 41
0.393916065
 42
0.5291490871
  0
ELLIPSE
  5
55B
100
AcDbEntity
  8
3_AXES_OTHER
100
AcDbEllipse
 62
7
  6
CONTINUOUS
 10
43.6344311596
 20
72.7038649053
 30
0.0
 11
1.1899212598
 21
0.0
 31
0.0
 40
0.0983890391
 41
-0.393916065
 42
-0.0002430069
  0
ELLIPSE
  5
55C
100
AcDbEntity
  8
3_AXES_OTHER
100
AcDbEllipse
 62
7
  6
CONTINUOUS
 10
43.6344311596
 20
89.7495368531
 30
0.0
 11
1.1899212598
 21
0.0
 31
0.0
 40
0.0983890391
 41
0.0002430069
 42
0.393916065
  0
ELLIPSE
  5
55D
100
AcDbEntity
  8
3_AXES_OTHER
100
AcDbEllipse
 62
7
  6
CONTINUOUS
 10
36.0076148773
 20
89.7495368531
 30
0.0
 11
1.1899212598
 21
0.0
 31
0.0
 40
0.0983890391
 41
2.7476765886
 42
3.1413496534
  0
ELLIPSE
  5
55E
100
AcDbEntity
  8
3_AXES_OTHER
100
AcDbEllipse
 62
7
  6
CONTINUOUS
 10
36.0076148773
 20
72.7038649053
 30
0.0
 11
1.1899212598
 21
-0.0
 31
0.0
 40
0.0983890391
 41
-3.1413496534
 42
-2.7476765886
  0
ELLIPSE
  5
55F
100
AcDbEntity
  8
3_AXES_OTHER
100
AcDbEllipse
 62
7
  6
CONTINUOUS
 10
138.1238842846
 20
89.7495368531
 30
0.0
 11
1.1899212598
 21
0.0
 31
0.0
 40
0.0983890391
 41
0.0002430002
 42
0.393916065
  0
ELLIPSE
  5
560
100
AcDbEntity
  8
3_AXES_OTHER
100
AcDbEllipse
 62
7
  6
CONTINUOUS
 10
131.9474446474
 20
72.7631772269
 30
0.0
 11
2.7605905512
 21
0.0
 31
0.0
 40
0.0983890391
 41
-2.7476765886
 42
-2.6124435665
  0
ELLIPSE
  5
561
100
AcDbEntity
  8
3_AXES_OTHER
100
AcDbEllipse
 62
7
  6
CONTINUOUS
 10
138.1238842846
 20
72.7038649053
 30
0.0
 11
1.1899212598
 21
0.0
 31
0.0
 40
0.0983890391
 41
-0.393916065
 42
-0.0002430002
  0
ELLIPSE
  5
562
100
AcDbEntity
  8
3_AXES_OTHER
100
AcDbEllipse
 62
7
  6
CONTINUOUS
 10
131.9474446474
 20
89.6902245315
 30
0.0
 11
2.7605905512
 21
0.0
 31
0.0
 40
0.0983890391
 41
2.6124435665
 42
2.7476765886
  0
ELLIPSE
  5
563
100
AcDbEntity
  8
3_AXES_OTHER
100
AcDbEllipse
 62
7
  6
CONTINUOUS
 10
130.4970680023
 20
72.7038649053
 30
0.0
 11
1.1899212598
 21
0.0
 31
0.0
 40
0.0983890391
 41
-3.1413496467
 42
-2.7476765886
  0
ELLIPSE
  5
564
100
AcDbEntity
  8
3_AXES_OTHER
100
AcDbEllipse
 62
7
  6
CONTINUOUS
 10
130.4970680023
 20
89.7495368531
 30
0.0
 11
1.1899212598
 21
0.0
 31
0.0
 40
0.0983890391
 41
2.7476765886
 42
3.1413496467
  0
ELLIPSE
  5
565
100
AcDbEntity
  8
3_AXES_OTHER
100
AcDbEllipse
 62
7
  6
CONTINUOUS
 10
93.861890176
 20
90.0733878616
 30
0.0
 11
45.5741338583
 21
0.0
 31
0.0
 40
0.0983890391
 41
-0.2257807008
 42
-0.0742281955
  0
ELLIPSE
  5
566
100
AcDbEntity
  8
3_ALL_AXES
100
AcDbEllipse
 62
7
  6
CONTINUOUS
 10
137.6175627576
 20
72.8090830734
 30
0.0
 11
0.1968503937
 21
0.0
 31
0.0
 40
0.0983890391
 41
0.0
 42
6.2831853072
  0
ELLIPSE
  5
567
100
AcDbEntity
  8
3_ALL_AXES
100
AcDbEllipse
 62
7
  6
CONTINUOUS
 10
134.3104761435
 20
72.9756471948
 30
0.0
 11
0.1968503937
 21
0.0
 31
0.0
 40
0.0983890391
 41
0.0
 42
6.2831853072
  0
ELLIPSE
  5
568
100
AcDbEntity
  8
3_AXES_OTHER
100
AcDbEllipse
 62
7
  6
CONTINUOUS
 10
174.7590621109
 20
72.3800138968
 30
0.0
 11
45.5741338583
 21
0.0
 31
0.0
 40
0.0983890391
 41
2.9158119527
 42
3.0673644581
  0
ELLIPSE
  5
569
100
AcDbEntity
  8
3_AXES_OTHER
100
AcDbEllipse
 62
7
  6
CONTINUOUS
 10
174.7590621109
 20
90.0733878616
 30
0.0
 11
45.5741338583
 21
-0.0
 31
0.0
 40
0.0983890391
 41
-3.0673644581
 42
-2.9158119527
  0
ELLIPSE
  5
56A
100
AcDbEntity
  8
3_ALL_AXES
100
AcDbEllipse
 62
7
  6
CONTINUOUS
 10
134.3104761435
 20
89.4777545636
 30
0.0
 11
0.1968503937
 21
0.0
 31
0.0
 40
0.0983890391
 41
0.0
 42
6.2831853072
  0
ELLIPSE
  5
56B
100
AcDbEntity
  8
3_ALL_AXES
100
AcDbEllipse
 62
7
  6
CONTINUOUS
 10
131.0033895293
 20
72.8090830734
 30
0.0
 11
0.1968503937
 21
0.0
 31
0.0
 40
0.0983890391
 41
0.0
 42
6.2831853072
  0
ELLIPSE
  5
56C
100
AcDbEntity
  8
3_AXES_OTHER
100
AcDbEllipse
 62
7
  6
CONTINUOUS
 10
93.861890176
 20
72.3800138968
 30
0.0
 11
45.5741338583
 21
-0.0
 31
0.0
 40
0.0983890391
 41
0.0742281955
 42
0.2257807008
  0
ELLIPSE
  5
56D
100
AcDbEntity
  8
3_AXES_OTHER
100
AcDbEllipse
 62
7
  6
CONTINUOUS
 10
178.3915556924
 20
86.2560530053
 30
0.0
 11
2.7556773882
 21
0.2609388465
 31
0.0
 40
0.6309058029
 41
-1.3742176596
 42
-1.2389846375
  0
ELLIPSE
  5
56E
100
AcDbEntity
  8
3_AXES_OTHER
100
AcDbEllipse
 62
7
  6
CONTINUOUS
 10
178.9908583875
 20
85.3691915325
 30
0.0
 11
1.1878034967
 21
0.1124747315
 31
0.0
 40
0.6309058029
 41
-1.2389846375
 42
-0.7708403771
  0
ELLIPSE
  5
56F
100
AcDbEntity
  8
3_AXES_OTHER
100
AcDbEllipse
 62
7
  6
CONTINUOUS
 10
145.3654351792
 20
101.8353027697
 30
0.0
 11
45.493023262
 21
4.3077963573
 31
0.0
 40
0.6309058029
 41
-0.7708403771
 42
-0.6192878717
  0
ELLIPSE
  5
570
100
AcDbEntity
  8
3_AXES_OTHER
100
AcDbEllipse
 62
7
  6
CONTINUOUS
 10
202.5683740332
 20
83.2452093246
 30
0.0
 11
45.5371125099
 21
-3.542713557
 31
0.0
 40
0.5184132231
 41
2.1707236508
 42
2.3222761562
  0
ELLIPSE
  5
571
100
AcDbEntity
  8
3_AXES_OTHER
100
AcDbEllipse
 62
7
  6
CONTINUOUS
 10
173.5978848754
 20
102.3995517824
 30
0.0
 11
1.1889546482
 21
-0.0924987448
 31
0.0
 40
0.5184132231
 41
2.3222761562
 42
2.7904204167
  0
ELLIPSE
  5
572
100
AcDbEntity
  8
3_AXES_OTHER
100
AcDbEllipse
 62
7
  6
CONTINUOUS
 10
178.3915556924
 20
100.0751192356
 30
0.0
 11
2.7583480339
 21
-0.2145950069
 31
0.0
 40
0.5184132231
 41
-1.274237389
 42
-1.1390043669
  0
ELLIPSE
  5
573
100
AcDbEntity
  8
3_AXES_OTHER
100
AcDbEllipse
 62
7
  6
CONTINUOUS
 10
178.9908583875
 20
99.2851016936
 30
0.0
 11
1.1889546482
 21
-0.0924987448
 31
0.0
 40
0.5184132231
 41
-1.1390043669
 42
-0.6708601065
  0
ELLIPSE
  5
574
100
AcDbEntity
  8
3_AXES_OTHER
100
AcDbEllipse
 62
7
  6
CONTINUOUS
 10
145.3654351792
 20
116.2799901541
 30
0.0
 11
45.5371125099
 21
-3.542713557
 31
0.0
 40
0.5184132231
 41
-0.6708601065
 42
-0.5193076011
  0
ELLIPSE
  5
575
100
AcDbEntity
  8
3_ALL_AXES
100
AcDbEllipse
 62
7
  6
CONTINUOUS
 10
178.2476288397
 20
101.7484553835
 30
0.0
 11
0.1966904857
 21
-0.015302201
 31
0.0
 40
0.5184132231
 41
0.0
 42
6.2831853072
  0
ENDSEC
  0
SECTION
  2
OBJECTS
  0
DICTIONARY
  5
C
100
AcDbDictionary
280
0
281
1
  3
ACAD_GROUP
350
D
  3
ACAD_MLINESTYLE
350
17
  3
ACAD_LAYOUT
350
1A
  3
ACAD_PLOTSETTINGS
350
19
  3
ACAD_PLOTSTYLENAME
350
E
  0
DICTIONARY
  5
D
102
{ACAD_REACTORS
330
C
102
}
100
AcDbDictionary
280
0
281
1
  0
ACDBDICTIONARYWDFLT
  5
E
102
{ACAD_REACTORS
330
C
102
}
100
AcDbDictionary
281
1
  3
Normal
350
F
100
AcDbDictionaryWithDefault
340
F
  0
DICTIONARY
  5
17
102
{ACAD_REACTORS
330
C
102
}
100
AcDbDictionary
280
0
281
1
  3
Standard
350
18
  0
DICTIONARY
  5
19
102
{ACAD_REACTORS
330
C
102
}
100
AcDbDictionary
281
1
  0
DICTIONARY
  5
1A
102
{ACAD_REACTORS
330
C
102
}
100
AcDbDictionary
281
1
  3
Model
350
576
  3
Layout1
350
577
  0
ACDBPLACEHOLDER
  5
F
102
{ACAD_REACTORS
330
E
102
}
  0
MLINESTYLE
  5
18
102
{ACAD_REACTORS
330
17
102
}
100
AcDbMlineStyle
  2
STANDARD
 70
0
  3

 62
256
 51
90.0
 52
90.0
 71
2
 49
0.5
 62
256
  6
BYLAYER
 49
-0.5
 62
256
  6
BYLAYER
  0
LAYOUT
  5
576
102
{ACAD_REACTORS
330
1A
102
}
100
AcDbPlotSettings
  1

  2
none_device
  4
ANSI_B_(17.00_x_11.00_Inches)
  6

 40
0.0
 41
0.0
 42
0.0
 43
0.0
 44
431.8
 45
279.4
 46
0.0
 47
0.0
 48
0.0
 49
0.0
140
0.0
141
0.0
142
1.0
143
1.0
 70
1024
 72
0
 73
0
 74
0
  7

 75
0
147
1.0
148
0.0
149
0.0
100
AcDbLayout
  1
Model
 70
0
 71
0
 10
0.0
 20
0.0
 11
17.0
 21
11.0
 12
0.0
 22
0.0
 32
0.0
 14
0.0
 24
0.0
 34
0.0
 15
0.0
 25
0.0
 35
0.0
146
0.0
 13
0.0
 23
0.0
 33
0.0
 16
1.0
 26
0.0
 36
0.0
 17
0.0
 27
1.0
 37
0.0
 76
0
330
211
345
0
346
0
  0
LAYOUT
  5
577
102
{ACAD_REACTORS
330
1A
102
}
100
AcDbPlotSettings
  1

  2
none_device
  4
ANSI_B_(17.00_x_11.00_Inches)
  6

 40
0.0
 41
0.0
 42
0.0
 43
0.0
 44
431.8
 45
279.4
 46
0.0
 47
0.0
 48
0.0
 49
0.0
140
0.0
141
0.0
142
1.0
143
1.0
 70
0
 72
0
 73
0
 74
0
  7

 75
0
147
1.0
148
0.0
149
0.0
100
AcDbLayout
  1
Layout1
 70
0
 71
1
 10
0.0
 20
0.0
 11
17.0
 21
11.0
 12
0.0
 22
0.0
 32
0.0
 14
0.0
 24
0.0
 34
0.0
 15
0.0
 25
0.0
 35
0.0
146
0.0
 13
0.0
 23
0.0
 33
0.0
 16
1.0
 26
0.0
 36
0.0
 17
0.0
 27
1.0
 37
0.0
 76
0
330
212
345
0
346
0
  0
ENDSEC
  0
EOF
