999
DXF file: FG-020004-2D-A.dxf
999
Pro/ENGINEER 2013230 by Parametric Technology Corporation
  0
SECTION
  2
HEADER
  9
$ACADVER
  1
AC1015
  9
$DWGCODEPAGE
  3
ANSI_1252
  9
$EXTMAX
 10
75.5555555556
 20
48.8888888889
 30
0.0
  9
$EXTMIN
 10
0.0
 20
0.0
 30
0.0
  9
$LIMMIN
 10
0.0
 20
0.0
  9
$LIMMAX
 10
75.5555555556
 20
48.8888888889
  9
$VIEWCTR
 10
37.7777777778
 20
24.4444444444
  9
$VIEWSIZE
 40
48.8888888889
  9
$CLAYER
  8
0
  9
$LTSCALE
 40
4.1555555556
  9
$CELTYPE
  6
BYLAYER
  9
$DIMSCALE
 40
1.0
  9
$DIMASZ
 40
0.4166666667
  9
$DIMEXO
 40
0.0625
  9
$DIMDLI
 40
2.8711111111
  9
$DIMEXE
 40
0.125
  9
$DIMCEN
 40
0.68
  9
$DIMLFAC
 40
1.0
  9
$DIMBLK
  1
_FILLED
  9
$DIMTXT
 40
0.3472222222
  9
$DIMTOL
 70
1
  9
$DIMLIM
 70
0
  9
$DIMTFAC
 40
1.0
  9
$DIMTP
 40
0.01
  9
$DIMTM
 40
0.01
  9
$DIMGAP
 40
0.09
  9
$DIMDSEP
 70
46
  9
$PDMODE
 70
3
  9
$PDSIZE
 40
0.3125
  9
$HANDSEED
  5
50E
  9
$TILEMODE
 70
1
  9
$MEASUREMENT
 70
0
  9
$INSUNITS
 70
1
  0
ENDSEC
  0
SECTION
  2
CLASSES
  0
CLASS
  1
ACDBDICTIONARYWDFLT
  2
AcDbDictionaryWithDefault
  3
AutoCAD 2000
 90
0
280
0
281
0
  0
CLASS
  1
ACDBPLACEHOLDER
  2
AcDbPlaceHolder
  3
AutoCAD 2000
 90
0
280
0
281
0
  0
CLASS
  1
LAYOUT
  2
AcDbLayout
  3
AutoCAD 2000
 90
0
280
0
281
0
  0
ENDSEC
  0
SECTION
  2
TABLES
  0
TABLE
  2
VPORT
  5
8
100
AcDbSymbolTable
 70
2
  0
VPORT
  5
1F4
100
AcDbSymbolTableRecord
100
AcDbViewportTableRecord
  2
*ACTIVE
 70
0
 10
0.0
 20
0.0
 11
1.0
 21
1.0
 12
37.7777777778
 22
24.4444444444
 13
0.0
 23
0.0
 14
1.0
 24
1.0
 15
0.0
 25
0.0
 16
0.0
 26
0.0
 36
1.0
 17
0.0
 27
0.0
 37
0.0
 40
48.8888888889
 41
1.5454545455
 42
50.0
 43
0.0
 44
0.0
 50
0.0
 51
0.0
 71
0
 72
100
 73
1
 74
1
 75
0
 76
0
 77
0
 78
0
  0
ENDTAB
  0
TABLE
  2
LTYPE
  5
5
100
AcDbSymbolTable
 70
6
  0
LTYPE
  5
14
100
AcDbSymbolTableRecord
100
AcDbLinetypeTableRecord
  2
BYBLOCK
 70
0
  3

 72
65
 73
0
 40
0.0
  0
LTYPE
  5
15
100
AcDbSymbolTableRecord
100
AcDbLinetypeTableRecord
  2
BYLAYER
 70
0
  3

 72
65
 73
0
 40
0.0
  0
LTYPE
  5
16
100
AcDbSymbolTableRecord
100
AcDbLinetypeTableRecord
  2
CONTINUOUS
 70
64
  3
Solid line
 72
65
 73
0
 40
0.0
  0
LTYPE
  5
1F5
100
AcDbSymbolTableRecord
100
AcDbLinetypeTableRecord
  2
CENTER
 70
64
  3
____ _ ____ _ ____ _ ____ _ ____ _ ____ _ ____
 72
65
 73
4
 40
0.6
 49
0.375
 74
0
 49
-0.075
 74
0
 49
0.075
 74
0
 49
-0.075
 74
0
  0
LTYPE
  5
1F6
100
AcDbSymbolTableRecord
100
AcDbLinetypeTableRecord
  2
HIDDEN
 70
64
  3
- - - - - - - - - - - - - - - - - - - -
 72
65
 73
2
 40
0.2
 49
0.1
 74
0
 49
-0.1
 74
0
  0
LTYPE
  5
1F7
100
AcDbSymbolTableRecord
100
AcDbLinetypeTableRecord
  2
PHANTOM
 70
64
  3
_____ _ _ _____ _ _ _____ _ _ _____
 72
65
 73
6
 40
0.8
 49
0.45
 74
0
 49
-0.05
 74
0
 49
0.1
 74
0
 49
-0.05
 74
0
 49
0.1
 74
0
 49
-0.05
 74
0
  0
LTYPE
  5
1F8
100
AcDbSymbolTableRecord
100
AcDbLinetypeTableRecord
  2
DOT
 70
64
  3
. . . . . . . . . . . . . . . . . . . .
 72
65
 73
2
 40
0.2
 49
0.1
 74
0
 49
-0.1
 74
0
  0
LTYPE
  5
1F9
100
AcDbSymbolTableRecord
100
AcDbLinetypeTableRecord
  2
DASHED
 70
64
  3
- - - - - - - - - - - - - - - - - - - -
 72
65
 73
2
 40
0.2
 49
0.1
 74
0
 49
-0.1
 74
0
  0
ENDTAB
  0
TABLE
  2
LAYER
  5
2
100
AcDbSymbolTable
 70
36
  0
LAYER
  5
10
100
AcDbSymbolTableRecord
100
AcDbLayerTableRecord
  2
0
 70
0
 62
7
  6
CONTINUOUS
370
-3
390
F
  0
LAYER
  5
1FA
100
AcDbSymbolTableRecord
100
AcDbLayerTableRecord
  2
DEFAULT_1
 70
0
 62
7
  6
CENTER
370
-3
390
F
  0
LAYER
  5
1FB
100
AcDbSymbolTableRecord
100
AcDbLayerTableRecord
  2
DEFAULT_2
 70
0
 62
8
  6
HIDDEN
370
-3
390
F
  0
LAYER
  5
1FC
100
AcDbSymbolTableRecord
100
AcDbLayerTableRecord
  2
DEFAULT_3
 70
0
 62
7
  6
PHANTOM
370
-3
390
F
  0
LAYER
  5
1FD
100
AcDbSymbolTableRecord
100
AcDbLayerTableRecord
  2
0_SNAPLINES
 70
0
 62
7
  6
CONTINUOUS
370
-3
390
F
  0
LAYER
  5
1FE
100
AcDbSymbolTableRecord
100
AcDbLayerTableRecord
  2
1_ALL_PLANES
 70
0
 62
7
  6
CONTINUOUS
370
-3
390
F
  0
LAYER
  5
1FF
100
AcDbSymbolTableRecord
100
AcDbLayerTableRecord
  2
1__DEF_PLANES
 70
0
 62
7
  6
CONTINUOUS
370
-3
390
F
  0
LAYER
  5
200
100
AcDbSymbolTableRecord
100
AcDbLayerTableRecord
  2
2_ALL_CSYS
 70
0
 62
7
  6
CONTINUOUS
370
-3
390
F
  0
LAYER
  5
201
100
AcDbSymbolTableRecord
100
AcDbLayerTableRecord
  2
2__DEF_CSYS
 70
0
 62
7
  6
CONTINUOUS
370
-3
390
F
  0
LAYER
  5
202
100
AcDbSymbolTableRecord
100
AcDbLayerTableRecord
  2
3_ALL_AXES
 70
0
 62
7
  6
CONTINUOUS
370
-3
390
F
  0
LAYER
  5
203
100
AcDbSymbolTableRecord
100
AcDbLayerTableRecord
  2
3_AXES_OTHER
 70
0
 62
7
  6
CONTINUOUS
370
-3
390
F
  0
LAYER
  5
204
100
AcDbSymbolTableRecord
100
AcDbLayerTableRecord
  2
3_HOLES
 70
0
 62
7
  6
CONTINUOUS
370
-3
390
F
  0
LAYER
  5
205
100
AcDbSymbolTableRecord
100
AcDbLayerTableRecord
  2
4_ALL_POINTS
 70
0
 62
7
  6
CONTINUOUS
370
-3
390
F
  0
LAYER
  5
206
100
AcDbSymbolTableRecord
100
AcDbLayerTableRecord
  2
5_ALL_CURVES
 70
0
 62
7
  6
CONTINUOUS
370
-3
390
F
  0
LAYER
  5
207
100
AcDbSymbolTableRecord
100
AcDbLayerTableRecord
  2
6_ALL_SURFS
 70
0
 62
7
  6
CONTINUOUS
370
-3
390
F
  0
LAYER
  5
208
100
AcDbSymbolTableRecord
100
AcDbLayerTableRecord
  2
6_COPYGEOM
 70
0
 62
7
  6
CONTINUOUS
370
-3
390
F
  0
LAYER
  5
209
100
AcDbSymbolTableRecord
100
AcDbLayerTableRecord
  2
7_ALL_ROUNDS
 70
0
 62
7
  6
CONTINUOUS
370
-3
390
F
  0
LAYER
  5
20A
100
AcDbSymbolTableRecord
100
AcDbLayerTableRecord
  2
7_MERGES
 70
0
 62
7
  6
CONTINUOUS
370
-3
390
F
  0
LAYER
  5
20B
100
AcDbSymbolTableRecord
100
AcDbLayerTableRecord
  2
8_GDT
 70
0
 62
7
  6
CONTINUOUS
370
-3
390
F
  0
LAYER
  5
20C
100
AcDbSymbolTableRecord
100
AcDbLayerTableRecord
  2
8_SET_DATUMS
 70
0
 62
7
  6
CONTINUOUS
370
-3
390
F
  0
LAYER
  5
20D
100
AcDbSymbolTableRecord
100
AcDbLayerTableRecord
  2
9_COSMETICS
 70
0
 62
7
  6
CONTINUOUS
370
-3
390
F
  0
LAYER
  5
20E
100
AcDbSymbolTableRecord
100
AcDbLayerTableRecord
  2
9_THREADS
 70
0
 62
7
  6
CONTINUOUS
370
-3
390
F
  0
ENDTAB
  0
TABLE
  2
STYLE
  5
3
100
AcDbSymbolTable
 70
1
  0
STYLE
  5
11
100
AcDbSymbolTableRecord
100
AcDbTextStyleTableRecord
  2
STANDARD
 70
0
 40
0.0
 41
0.8
 50
0.0
 71
0
 42
0.2
  3
txt
  4

  0
STYLE
  5
20F
100
AcDbSymbolTableRecord
100
AcDbTextStyleTableRecord
  2
TEXTSTYLE_1
 70
0
 40
0.0
 41
0.8
 50
0.0
 71
0
 42
0.2
  3
gdt
  4

  0
ENDTAB
  0
TABLE
  2
VIEW
  5
6
100
AcDbSymbolTable
 70
0
  0
ENDTAB
  0
TABLE
  2
UCS
  5
7
100
AcDbSymbolTable
 70
0
  0
ENDTAB
  0
TABLE
  2
APPID
  5
9
100
AcDbSymbolTable
 70
1
  0
APPID
  5
210
100
AcDbSymbolTableRecord
100
AcDbRegAppTableRecord
  2
ACAD
 70
0
  0
ENDTAB
  0
TABLE
  2
BLOCK_RECORD
  5
1
100
AcDbSymbolTable
 70
0
  0
BLOCK_RECORD
  5
211
100
AcDbSymbolTableRecord
100
AcDbBlockTableRecord
  2
*Model_Space
  0
BLOCK_RECORD
  5
212
100
AcDbSymbolTableRecord
100
AcDbBlockTableRecord
  2
*Paper_Space
  0
BLOCK_RECORD
  5
213
100
AcDbSymbolTableRecord
100
AcDbBlockTableRecord
  2
_FILLED
  0
BLOCK_RECORD
  5
214
100
AcDbSymbolTableRecord
100
AcDbBlockTableRecord
  2
*D0
  0
BLOCK_RECORD
  5
215
100
AcDbSymbolTableRecord
100
AcDbBlockTableRecord
  2
*D1
  0
BLOCK_RECORD
  5
216
100
AcDbSymbolTableRecord
100
AcDbBlockTableRecord
  2
*D2
  0
BLOCK_RECORD
  5
217
100
AcDbSymbolTableRecord
100
AcDbBlockTableRecord
  2
*D3
  0
BLOCK_RECORD
  5
218
100
AcDbSymbolTableRecord
100
AcDbBlockTableRecord
  2
*D4
  0
BLOCK_RECORD
  5
219
100
AcDbSymbolTableRecord
100
AcDbBlockTableRecord
  2
*D5
  0
BLOCK_RECORD
  5
21A
100
AcDbSymbolTableRecord
100
AcDbBlockTableRecord
  2
*D6
  0
BLOCK_RECORD
  5
21B
100
AcDbSymbolTableRecord
100
AcDbBlockTableRecord
  2
*D7
  0
BLOCK_RECORD
  5
21C
100
AcDbSymbolTableRecord
100
AcDbBlockTableRecord
  2
*D8
  0
BLOCK_RECORD
  5
21D
100
AcDbSymbolTableRecord
100
AcDbBlockTableRecord
  2
*D9
  0
BLOCK_RECORD
  5
21E
100
AcDbSymbolTableRecord
100
AcDbBlockTableRecord
  2
*D10
  0
BLOCK_RECORD
  5
21F
100
AcDbSymbolTableRecord
100
AcDbBlockTableRecord
  2
*D11
  0
BLOCK_RECORD
  5
220
100
AcDbSymbolTableRecord
100
AcDbBlockTableRecord
  2
*D12
  0
BLOCK_RECORD
  5
221
100
AcDbSymbolTableRecord
100
AcDbBlockTableRecord
  2
*D13
  0
BLOCK_RECORD
  5
222
100
AcDbSymbolTableRecord
100
AcDbBlockTableRecord
  2
*D14
  0
BLOCK_RECORD
  5
223
100
AcDbSymbolTableRecord
100
AcDbBlockTableRecord
  2
*D15
  0
BLOCK_RECORD
  5
224
100
AcDbSymbolTableRecord
100
AcDbBlockTableRecord
  2
*D16
  0
BLOCK_RECORD
  5
225
100
AcDbSymbolTableRecord
100
AcDbBlockTableRecord
  2
SYMBOL_17_BL4
  0
BLOCK_RECORD
  5
226
100
AcDbSymbolTableRecord
100
AcDbBlockTableRecord
  2
SYMBOL_15_BL3
  0
BLOCK_RECORD
  5
227
100
AcDbSymbolTableRecord
100
AcDbBlockTableRecord
  2
SYMBOL_18_BL2
  0
BLOCK_RECORD
  5
228
100
AcDbSymbolTableRecord
100
AcDbBlockTableRecord
  2
SYMBOL_6_BL1
  0
BLOCK_RECORD
  5
229
100
AcDbSymbolTableRecord
100
AcDbBlockTableRecord
  2
SYMBOL_0_BL0
  0
ENDTAB
  0
TABLE
  2
DIMSTYLE
  5
A
100
AcDbSymbolTable
 70
1
100
AcDbDimStyleTable
 71
0
  0
DIMSTYLE
105
22A
100
AcDbSymbolTableRecord
100
AcDbDimStyleTableRecord
  2
STANDARD
 70
0
  3

  4

 40
1.0
 41
0.4166666667
 42
0.0625
 43
0.38
 44
0.125
 45
0.0
 46
0.0
 47
0.01
 48
0.01
140
0.3472222222
141
0.09
142
0.0
143
25.4
144
1.0
145
0.0
146
1.0
147
0.09
 71
1.0
 72
0.0
 73
1
 74
1
 75
0
 76
0
 77
0
 78
4
170
0
171
2
172
0
173
0
174
0
175
0
176
0
177
0
178
0
270
2
271
3
272
3
273
2
274
2
275
0
280
0
281
0
282
0
283
1
284
4
285
0
286
0
287
3
288
0
340
11
278
46
341
213
342
213
343
213
344
213
  0
DIMSTYLE
105
22B
100
AcDbSymbolTableRecord
100
AcDbDimStyleTableRecord
  2
DIMSTYLE_1
 70
0
  3

  4

 40
1.0
 41
0.4166666667
 42
0.0625
 43
0.38
 44
0.125
 45
0.0
 46
0.0
 47
0.0
 48
0.0
140
0.3472222222
141
0.09
142
0.0
143
25.4
144
1.0
145
0.0
146
1.0
147
0.078125
 71
0.0
 72
0.0
 73
1
 74
1
 75
0
 76
0
 77
0
 78
4
170
0
171
2
172
0
173
0
174
0
175
0
176
0
177
0
178
0
270
2
271
0
272
0
273
2
274
2
275
0
280
0
281
0
282
0
283
1
284
4
285
0
286
0
287
3
288
0
340
11
278
46
341
213
342
213
343
213
344
213
  0
ENDTAB
  0
ENDSEC
  0
SECTION
  2
BLOCKS
  0
BLOCK
  5
20
100
AcDbEntity
  8
0
100
AcDbBlockBegin
  2
*Model_Space
 70
0
 10
0.0
 20
0.0
 30
0.0
  3
*Model_Space
  1

  0
ENDBLK
  5
21
100
AcDbEntity
  8
0
100
AcDbBlockEnd
  0
BLOCK
  5
1C
100
AcDbEntity
  8
0
100
AcDbBlockBegin
  2
*Paper_Space
 70
0
 10
0.0
 20
0.0
 30
0.0
  3
*Paper_Space
  1

  0
ENDBLK
  5
1D
100
AcDbEntity
  8
0
100
AcDbBlockEnd
  0
BLOCK
  5
22C
100
AcDbEntity
  8
0
100
AcDbBlockBegin
 62
2
  6
CONTINUOUS
  2
SYMBOL_17_BL4
 70
64
 10
53.1274790122
 20
25.4829042572
  3
SYMBOL_17_BL4
  1

  0
ARC
  5
22D
100
AcDbEntity
  8
0
100
AcDbCircle
 62
7
  6
CONTINUOUS
 10
53.1274790122
 20
25.4829042572
 40
0.4444444444
100
AcDbArc
 50
90.0
 51
180.0
  0
ARC
  5
22E
100
AcDbEntity
  8
0
100
AcDbCircle
 62
7
  6
CONTINUOUS
 10
53.1274790122
 20
25.4829042572
 40
0.4444444444
100
AcDbArc
 50
180.0
 51
270.0
  0
ARC
  5
22F
100
AcDbEntity
  8
0
100
AcDbCircle
 62
7
  6
CONTINUOUS
 10
53.1274790122
 20
25.4829042572
 40
0.4444444444
100
AcDbArc
 50
270.0
 51
360.0
  0
ARC
  5
230
100
AcDbEntity
  8
0
100
AcDbCircle
 62
7
  6
CONTINUOUS
 10
53.1274790122
 20
25.4829042572
 40
0.4444444444
100
AcDbArc
 50
0.0
 51
90.0
  0
LINE
  5
231
100
AcDbEntity
  8
0
100
AcDbLine
 62
7
  6
CONTINUOUS
 10
53.1274790122
 20
25.4829042572
 11
53.5719234567
 21
25.4829042572
  0
LINE
  5
232
100
AcDbEntity
  8
0
100
AcDbLine
 62
7
  6
CONTINUOUS
 10
53.1274790122
 20
25.4829042572
 11
53.1274790122
 21
25.0384598127
  0
LINE
  5
233
100
AcDbEntity
  8
0
100
AcDbLine
 62
7
  6
CONTINUOUS
 10
52.6830345678
 20
25.4829042572
 11
53.1274790122
 21
25.4829042572
  0
LINE
  5
234
100
AcDbEntity
  8
0
100
AcDbLine
 62
7
  6
CONTINUOUS
 10
53.1274790122
 20
25.9273487016
 11
53.1274790122
 21
25.4829042572
  0
LINE
  5
235
100
AcDbEntity
  8
0
100
AcDbLine
 62
2
  6
CONTINUOUS
 10
53.1274790122
 20
25.4799750752
 11
53.1304081942
 21
25.4829042572
  0
LWPOLYLINE
  5
236
100
AcDbEntity
  8
0
100
AcDbPolyline
 62
7
  6
CONTINUOUS
 90
8
 70
0
 10
53.1274790122
 20
25.4829042572
 10
53.1274790122
 20
25.0384598127
 10
53.2648198986
 20
25.0602124722
 10
53.3887169022
 20
25.1233411486
 10
53.4870421209
 20
25.2216663673
 10
53.5501707973
 20
25.3455633708
 10
53.5719234567
 20
25.4829042572
 10
53.1274790122
 20
25.4829042572
  0
HATCH
  5
237
100
AcDbEntity
  8
0
100
AcDbHatch
 62
7
  6
CONTINUOUS
 10
0.0
 20
0.0
 30
0.0
210
0.0
220
0.0
230
1.0
  2
SOLID
 70
1
 71
1
 91
1
 92
1
 93
7
 72
1
 10
53.1274790122
 20
25.4829042572
 11
53.1274790122
 21
25.0384598127
 72
1
 10
53.1274790122
 20
25.0384598127
 11
53.2648198986
 21
25.0602124722
 72
1
 10
53.2648198986
 20
25.0602124722
 11
53.3887169022
 21
25.1233411486
 72
1
 10
53.3887169022
 20
25.1233411486
 11
53.4870421209
 21
25.2216663673
 72
1
 10
53.4870421209
 20
25.2216663673
 11
53.5501707973
 21
25.3455633708
 72
1
 10
53.5501707973
 20
25.3455633708
 11
53.5719234567
 21
25.4829042572
 72
1
 10
53.5719234567
 20
25.4829042572
 11
53.1274790122
 21
25.4829042572
 97
1
330
236
 75
0
 76
1
 98
1
 10
0.0
 20
0.0
  0
LWPOLYLINE
  5
238
100
AcDbEntity
  8
0
100
AcDbPolyline
 62
7
  6
CONTINUOUS
 90
8
 70
0
 10
53.1274790122
 20
25.4829042572
 10
52.6830345678
 20
25.4829042572
 10
52.7047872272
 20
25.6202451436
 10
52.7679159036
 20
25.7441421471
 10
52.8662411223
 20
25.8424673658
 10
52.9901381259
 20
25.9055960422
 10
53.1274790122
 20
25.9273487016
 10
53.1274790122
 20
25.4829042572
  0
HATCH
  5
239
100
AcDbEntity
  8
0
100
AcDbHatch
 62
7
  6
CONTINUOUS
 10
0.0
 20
0.0
 30
0.0
210
0.0
220
0.0
230
1.0
  2
SOLID
 70
1
 71
1
 91
1
 92
1
 93
7
 72
1
 10
53.1274790122
 20
25.4829042572
 11
52.6830345678
 21
25.4829042572
 72
1
 10
52.6830345678
 20
25.4829042572
 11
52.7047872272
 21
25.6202451436
 72
1
 10
52.7047872272
 20
25.6202451436
 11
52.7679159036
 21
25.7441421471
 72
1
 10
52.7679159036
 20
25.7441421471
 11
52.8662411223
 21
25.8424673658
 72
1
 10
52.8662411223
 20
25.8424673658
 11
52.9901381259
 21
25.9055960422
 72
1
 10
52.9901381259
 20
25.9055960422
 11
53.1274790122
 21
25.9273487016
 72
1
 10
53.1274790122
 20
25.9273487016
 11
53.1274790122
 21
25.4829042572
 97
1
330
238
 75
0
 76
1
 98
1
 10
0.0
 20
0.0
  0
ENDBLK
  5
23A
100
AcDbEntity
  8
0
  6
BYBLOCK
 62
0
100
AcDbBlockEnd
  0
BLOCK
  5
23B
100
AcDbEntity
  8
0
100
AcDbBlockBegin
 62
2
  6
CONTINUOUS
  2
SYMBOL_15_BL3
 70
64
 10
35.7959194284
 20
25.4785984634
  3
SYMBOL_15_BL3
  1

  0
ARC
  5
23C
100
AcDbEntity
  8
0
100
AcDbCircle
 62
7
  6
CONTINUOUS
 10
35.7959194284
 20
25.4785984634
 40
0.4444444444
100
AcDbArc
 50
90.0
 51
180.0
  0
ARC
  5
23D
100
AcDbEntity
  8
0
100
AcDbCircle
 62
7
  6
CONTINUOUS
 10
35.7959194284
 20
25.4785984634
 40
0.4444444444
100
AcDbArc
 50
180.0
 51
270.0
  0
ARC
  5
23E
100
AcDbEntity
  8
0
100
AcDbCircle
 62
7
  6
CONTINUOUS
 10
35.7959194284
 20
25.4785984634
 40
0.4444444444
100
AcDbArc
 50
270.0
 51
360.0
  0
ARC
  5
23F
100
AcDbEntity
  8
0
100
AcDbCircle
 62
7
  6
CONTINUOUS
 10
35.7959194284
 20
25.4785984634
 40
0.4444444444
100
AcDbArc
 50
0.0
 51
90.0
  0
LINE
  5
240
100
AcDbEntity
  8
0
100
AcDbLine
 62
7
  6
CONTINUOUS
 10
35.7959194284
 20
25.4785984634
 11
36.2403638728
 21
25.4785984634
  0
LINE
  5
241
100
AcDbEntity
  8
0
100
AcDbLine
 62
7
  6
CONTINUOUS
 10
35.7959194284
 20
25.4785984634
 11
35.7959194284
 21
25.034154019
  0
LINE
  5
242
100
AcDbEntity
  8
0
100
AcDbLine
 62
7
  6
CONTINUOUS
 10
35.3514749839
 20
25.4785984634
 11
35.7959194284
 21
25.4785984634
  0
LINE
  5
243
100
AcDbEntity
  8
0
100
AcDbLine
 62
7
  6
CONTINUOUS
 10
35.7959194284
 20
25.9230429079
 11
35.7959194284
 21
25.4785984634
  0
LINE
  5
244
100
AcDbEntity
  8
0
100
AcDbLine
 62
2
  6
CONTINUOUS
 10
35.7959194284
 20
25.4756692815
 11
35.7988486103
 21
25.4785984634
  0
LWPOLYLINE
  5
245
100
AcDbEntity
  8
0
100
AcDbPolyline
 62
7
  6
CONTINUOUS
 90
8
 70
0
 10
35.7959194284
 20
25.4785984634
 10
35.7959194284
 20
25.034154019
 10
35.9332603148
 20
25.0559066784
 10
36.0571573183
 20
25.1190353548
 10
36.155482537
 20
25.2173605735
 10
36.2186112134
 20
25.341257577
 10
36.2403638728
 20
25.4785984634
 10
35.7959194284
 20
25.4785984634
  0
HATCH
  5
246
100
AcDbEntity
  8
0
100
AcDbHatch
 62
7
  6
CONTINUOUS
 10
0.0
 20
0.0
 30
0.0
210
0.0
220
0.0
230
1.0
  2
SOLID
 70
1
 71
1
 91
1
 92
1
 93
7
 72
1
 10
35.7959194284
 20
25.4785984634
 11
35.7959194284
 21
25.034154019
 72
1
 10
35.7959194284
 20
25.034154019
 11
35.9332603148
 21
25.0559066784
 72
1
 10
35.9332603148
 20
25.0559066784
 11
36.0571573183
 21
25.1190353548
 72
1
 10
36.0571573183
 20
25.1190353548
 11
36.155482537
 21
25.2173605735
 72
1
 10
36.155482537
 20
25.2173605735
 11
36.2186112134
 21
25.341257577
 72
1
 10
36.2186112134
 20
25.341257577
 11
36.2403638728
 21
25.4785984634
 72
1
 10
36.2403638728
 20
25.4785984634
 11
35.7959194284
 21
25.4785984634
 97
1
330
245
 75
0
 76
1
 98
1
 10
0.0
 20
0.0
  0
LWPOLYLINE
  5
247
100
AcDbEntity
  8
0
100
AcDbPolyline
 62
7
  6
CONTINUOUS
 90
8
 70
0
 10
35.7959194284
 20
25.4785984634
 10
35.3514749839
 20
25.4785984634
 10
35.3732276434
 20
25.6159393498
 10
35.4363563198
 20
25.7398363533
 10
35.5346815385
 20
25.838161572
 10
35.658578542
 20
25.9012902484
 10
35.7959194284
 20
25.9230429079
 10
35.7959194284
 20
25.4785984634
  0
HATCH
  5
248
100
AcDbEntity
  8
0
100
AcDbHatch
 62
7
  6
CONTINUOUS
 10
0.0
 20
0.0
 30
0.0
210
0.0
220
0.0
230
1.0
  2
SOLID
 70
1
 71
1
 91
1
 92
1
 93
7
 72
1
 10
35.7959194284
 20
25.4785984634
 11
35.3514749839
 21
25.4785984634
 72
1
 10
35.3514749839
 20
25.4785984634
 11
35.3732276434
 21
25.6159393498
 72
1
 10
35.3732276434
 20
25.6159393498
 11
35.4363563198
 21
25.7398363533
 72
1
 10
35.4363563198
 20
25.7398363533
 11
35.5346815385
 21
25.838161572
 72
1
 10
35.5346815385
 20
25.838161572
 11
35.658578542
 21
25.9012902484
 72
1
 10
35.658578542
 20
25.9012902484
 11
35.7959194284
 21
25.9230429079
 72
1
 10
35.7959194284
 20
25.9230429079
 11
35.7959194284
 21
25.4785984634
 97
1
330
247
 75
0
 76
1
 98
1
 10
0.0
 20
0.0
  0
ENDBLK
  5
249
100
AcDbEntity
  8
0
  6
BYBLOCK
 62
0
100
AcDbBlockEnd
  0
BLOCK
  5
24A
100
AcDbEntity
  8
0
100
AcDbBlockBegin
 62
2
  6
CONTINUOUS
  2
SYMBOL_18_BL2
 70
64
 10
16.553426424
 20
25.4781991726
  3
SYMBOL_18_BL2
  1

  0
ARC
  5
24B
100
AcDbEntity
  8
0
100
AcDbCircle
 62
7
  6
CONTINUOUS
 10
16.553426424
 20
25.4781991726
 40
0.4444444444
100
AcDbArc
 50
90.0
 51
180.0
  0
ARC
  5
24C
100
AcDbEntity
  8
0
100
AcDbCircle
 62
7
  6
CONTINUOUS
 10
16.553426424
 20
25.4781991726
 40
0.4444444444
100
AcDbArc
 50
180.0
 51
270.0
  0
ARC
  5
24D
100
AcDbEntity
  8
0
100
AcDbCircle
 62
7
  6
CONTINUOUS
 10
16.553426424
 20
25.4781991726
 40
0.4444444444
100
AcDbArc
 50
270.0
 51
360.0
  0
ARC
  5
24E
100
AcDbEntity
  8
0
100
AcDbCircle
 62
7
  6
CONTINUOUS
 10
16.553426424
 20
25.4781991726
 40
0.4444444444
100
AcDbArc
 50
0.0
 51
90.0
  0
LINE
  5
24F
100
AcDbEntity
  8
0
100
AcDbLine
 62
7
  6
CONTINUOUS
 10
16.553426424
 20
25.4781991726
 11
16.9978708684
 21
25.4781991726
  0
LINE
  5
250
100
AcDbEntity
  8
0
100
AcDbLine
 62
7
  6
CONTINUOUS
 10
16.553426424
 20
25.4781991726
 11
16.553426424
 21
25.0337547281
  0
LINE
  5
251
100
AcDbEntity
  8
0
100
AcDbLine
 62
7
  6
CONTINUOUS
 10
16.1089819795
 20
25.4781991726
 11
16.553426424
 21
25.4781991726
  0
LINE
  5
252
100
AcDbEntity
  8
0
100
AcDbLine
 62
7
  6
CONTINUOUS
 10
16.553426424
 20
25.922643617
 11
16.553426424
 21
25.4781991726
  0
LINE
  5
253
100
AcDbEntity
  8
0
100
AcDbLine
 62
2
  6
CONTINUOUS
 10
16.553426424
 20
25.4752699906
 11
16.5563556059
 21
25.4781991726
  0
LWPOLYLINE
  5
254
100
AcDbEntity
  8
0
100
AcDbPolyline
 62
7
  6
CONTINUOUS
 90
8
 70
0
 10
16.553426424
 20
25.4781991726
 10
16.553426424
 20
25.0337547281
 10
16.6907673103
 20
25.0555073876
 10
16.8146643139
 20
25.118636064
 10
16.9129895326
 20
25.2169612827
 10
16.976118209
 20
25.3408582862
 10
16.9978708684
 20
25.4781991726
 10
16.553426424
 20
25.4781991726
  0
HATCH
  5
255
100
AcDbEntity
  8
0
100
AcDbHatch
 62
7
  6
CONTINUOUS
 10
0.0
 20
0.0
 30
0.0
210
0.0
220
0.0
230
1.0
  2
SOLID
 70
1
 71
1
 91
1
 92
1
 93
7
 72
1
 10
16.553426424
 20
25.4781991726
 11
16.553426424
 21
25.0337547281
 72
1
 10
16.553426424
 20
25.0337547281
 11
16.6907673103
 21
25.0555073876
 72
1
 10
16.6907673103
 20
25.0555073876
 11
16.8146643139
 21
25.118636064
 72
1
 10
16.8146643139
 20
25.118636064
 11
16.9129895326
 21
25.2169612827
 72
1
 10
16.9129895326
 20
25.2169612827
 11
16.976118209
 21
25.3408582862
 72
1
 10
16.976118209
 20
25.3408582862
 11
16.9978708684
 21
25.4781991726
 72
1
 10
16.9978708684
 20
25.4781991726
 11
16.553426424
 21
25.4781991726
 97
1
330
254
 75
0
 76
1
 98
1
 10
0.0
 20
0.0
  0
LWPOLYLINE
  5
256
100
AcDbEntity
  8
0
100
AcDbPolyline
 62
7
  6
CONTINUOUS
 90
8
 70
0
 10
16.553426424
 20
25.4781991726
 10
16.1089819795
 20
25.4781991726
 10
16.1307346389
 20
25.615540059
 10
16.1938633153
 20
25.7394370625
 10
16.292188534
 20
25.8377622812
 10
16.4160855376
 20
25.9008909576
 10
16.553426424
 20
25.922643617
 10
16.553426424
 20
25.4781991726
  0
HATCH
  5
257
100
AcDbEntity
  8
0
100
AcDbHatch
 62
7
  6
CONTINUOUS
 10
0.0
 20
0.0
 30
0.0
210
0.0
220
0.0
230
1.0
  2
SOLID
 70
1
 71
1
 91
1
 92
1
 93
7
 72
1
 10
16.553426424
 20
25.4781991726
 11
16.1089819795
 21
25.4781991726
 72
1
 10
16.1089819795
 20
25.4781991726
 11
16.1307346389
 21
25.615540059
 72
1
 10
16.1307346389
 20
25.615540059
 11
16.1938633153
 21
25.7394370625
 72
1
 10
16.1938633153
 20
25.7394370625
 11
16.292188534
 21
25.8377622812
 72
1
 10
16.292188534
 20
25.8377622812
 11
16.4160855376
 21
25.9008909576
 72
1
 10
16.4160855376
 20
25.9008909576
 11
16.553426424
 21
25.922643617
 72
1
 10
16.553426424
 20
25.922643617
 11
16.553426424
 21
25.4781991726
 97
1
330
256
 75
0
 76
1
 98
1
 10
0.0
 20
0.0
  0
ENDBLK
  5
258
100
AcDbEntity
  8
0
  6
BYBLOCK
 62
0
100
AcDbBlockEnd
  0
BLOCK
  5
259
100
AcDbEntity
  8
0
100
AcDbBlockBegin
 62
2
  6
CONTINUOUS
  2
SYMBOL_6_BL1
 70
64
 10
4.4070438882
 20
4.54362887
  3
SYMBOL_6_BL1
  1

  0
ARC
  5
25A
100
AcDbEntity
  8
0
100
AcDbCircle
 62
7
  6
CONTINUOUS
 10
4.4070438882
 20
4.54362887
 40
0.2088888889
100
AcDbArc
 50
90.0
 51
180.0
  0
ARC
  5
25B
100
AcDbEntity
  8
0
100
AcDbCircle
 62
7
  6
CONTINUOUS
 10
4.4070438882
 20
4.54362887
 40
0.2088888889
100
AcDbArc
 50
180.0
 51
270.0
  0
ARC
  5
25C
100
AcDbEntity
  8
0
100
AcDbCircle
 62
7
  6
CONTINUOUS
 10
4.4070438882
 20
4.54362887
 40
0.2088888889
100
AcDbArc
 50
270.0
 51
360.0
  0
ARC
  5
25D
100
AcDbEntity
  8
0
100
AcDbCircle
 62
7
  6
CONTINUOUS
 10
4.4070438882
 20
4.54362887
 40
0.2088888889
100
AcDbArc
 50
0.0
 51
90.0
  0
LINE
  5
25E
100
AcDbEntity
  8
0
100
AcDbLine
 62
7
  6
CONTINUOUS
 10
4.4070438882
 20
4.54362887
 11
4.6159327771
 21
4.54362887
  0
LINE
  5
25F
100
AcDbEntity
  8
0
100
AcDbLine
 62
7
  6
CONTINUOUS
 10
4.4070438882
 20
4.54362887
 11
4.4070438882
 21
4.3347399811
  0
LINE
  5
260
100
AcDbEntity
  8
0
100
AcDbLine
 62
7
  6
CONTINUOUS
 10
4.1981549993
 20
4.54362887
 11
4.4070438882
 21
4.54362887
  0
LINE
  5
261
100
AcDbEntity
  8
0
100
AcDbLine
 62
7
  6
CONTINUOUS
 10
4.4070438882
 20
4.7525177589
 11
4.4070438882
 21
4.54362887
  0
LINE
  5
262
100
AcDbEntity
  8
0
100
AcDbLine
 62
2
  6
CONTINUOUS
 10
4.4070438882
 20
4.5422521545
 11
4.4084206037
 21
4.54362887
  0
LWPOLYLINE
  5
263
100
AcDbEntity
  8
0
100
AcDbPolyline
 62
7
  6
CONTINUOUS
 90
8
 70
0
 10
4.4070438882
 20
4.54362887
 10
4.4070438882
 20
4.3347399811
 10
4.4715941048
 20
4.344963731
 10
4.5298256964
 20
4.3746342089
 10
4.5760385492
 20
4.4208470617
 10
4.6057090271
 20
4.4790786534
 10
4.6159327771
 20
4.54362887
 10
4.4070438882
 20
4.54362887
  0
HATCH
  5
264
100
AcDbEntity
  8
0
100
AcDbHatch
 62
7
  6
CONTINUOUS
 10
0.0
 20
0.0
 30
0.0
210
0.0
220
0.0
230
1.0
  2
SOLID
 70
1
 71
1
 91
1
 92
1
 93
7
 72
1
 10
4.4070438882
 20
4.54362887
 11
4.4070438882
 21
4.3347399811
 72
1
 10
4.4070438882
 20
4.3347399811
 11
4.4715941048
 21
4.344963731
 72
1
 10
4.4715941048
 20
4.344963731
 11
4.5298256964
 21
4.3746342089
 72
1
 10
4.5298256964
 20
4.3746342089
 11
4.5760385492
 21
4.4208470617
 72
1
 10
4.5760385492
 20
4.4208470617
 11
4.6057090271
 21
4.4790786534
 72
1
 10
4.6057090271
 20
4.4790786534
 11
4.6159327771
 21
4.54362887
 72
1
 10
4.6159327771
 20
4.54362887
 11
4.4070438882
 21
4.54362887
 97
1
330
263
 75
0
 76
1
 98
1
 10
0.0
 20
0.0
  0
LWPOLYLINE
  5
265
100
AcDbEntity
  8
0
100
AcDbPolyline
 62
7
  6
CONTINUOUS
 90
8
 70
0
 10
4.4070438882
 20
4.54362887
 10
4.1981549993
 20
4.54362887
 10
4.2083787492
 20
4.6081790866
 10
4.2380492271
 20
4.6664106782
 10
4.2842620799
 20
4.712623531
 10
4.3424936716
 20
4.7422940089
 10
4.4070438882
 20
4.7525177589
 10
4.4070438882
 20
4.54362887
  0
HATCH
  5
266
100
AcDbEntity
  8
0
100
AcDbHatch
 62
7
  6
CONTINUOUS
 10
0.0
 20
0.0
 30
0.0
210
0.0
220
0.0
230
1.0
  2
SOLID
 70
1
 71
1
 91
1
 92
1
 93
7
 72
1
 10
4.4070438882
 20
4.54362887
 11
4.1981549993
 21
4.54362887
 72
1
 10
4.1981549993
 20
4.54362887
 11
4.2083787492
 21
4.6081790866
 72
1
 10
4.2083787492
 20
4.6081790866
 11
4.2380492271
 21
4.6664106782
 72
1
 10
4.2380492271
 20
4.6664106782
 11
4.2842620799
 21
4.712623531
 72
1
 10
4.2842620799
 20
4.712623531
 11
4.3424936716
 21
4.7422940089
 72
1
 10
4.3424936716
 20
4.7422940089
 11
4.4070438882
 21
4.7525177589
 72
1
 10
4.4070438882
 20
4.7525177589
 11
4.4070438882
 21
4.54362887
 97
1
330
265
 75
0
 76
1
 98
1
 10
0.0
 20
0.0
  0
ENDBLK
  5
267
100
AcDbEntity
  8
0
  6
BYBLOCK
 62
0
100
AcDbBlockEnd
  0
BLOCK
  5
268
100
AcDbEntity
  8
0
100
AcDbBlockBegin
 62
7
  6
CONTINUOUS
  2
SYMBOL_0_BL0
 70
64
 10
64.1973784418
 20
6.0024681448
  3
SYMBOL_0_BL0
  1

  0
ARC
  5
269
100
AcDbEntity
  8
0
100
AcDbCircle
 62
7
  6
CONTINUOUS
 10
65.6466263743
 20
6.2255280505
 40
0.0274922517
100
AcDbArc
 50
270.0
 51
360.0
  0
LINE
  5
26A
100
AcDbEntity
  8
0
100
AcDbLine
 62
7
  6
CONTINUOUS
 10
65.674118626
 20
6.2255280505
 11
65.674118626
 21
6.2805314487
  0
ARC
  5
26B
100
AcDbEntity
  8
0
100
AcDbCircle
 62
7
  6
CONTINUOUS
 10
65.6466263743
 20
6.2805314487
 40
0.0274922517
100
AcDbArc
 50
0.0
 51
90.0
  0
LINE
  5
26C
100
AcDbEntity
  8
0
100
AcDbLine
 62
7
  6
CONTINUOUS
 10
65.6466263743
 20
6.3080237004
 11
64.9075300805
 21
6.3080237004
  0
SPLINE
  5
26D
100
AcDbEntity
  8
0
100
AcDbSpline
 62
7
  6
CONTINUOUS
 70
0
 71
3
 72
13
 73
9
 74
0
 42
0.0000001
 43
0.0000001
 44
0.0000000001
 40
0.0
 40
0.0
 40
0.0
 40
0.0
 40
0.1310616762
 40
0.2699656353
 40
0.4157607805
 40
0.5899807757
 40
0.76586761
 40
0.9948829976
 40
0.9948829976
 40
0.9948829976
 40
0.9948829976
 10
64.9075300805
 20
6.3080237004
 30
0.0
 10
64.8919936038
 20
6.3068665333
 30
0.0
 10
64.8599910012
 20
6.3044829585
 30
0.0
 10
64.8166211016
 20
6.2776084966
 30
0.0
 10
64.785486689
 20
6.2324911154
 30
0.0
 10
64.7652414854
 20
6.1773224896
 30
0.0
 10
64.7538381507
 20
6.1098834945
 30
0.0
 10
64.7527882119
 20
6.0622299163
 30
0.0
 10
64.7522440531
 20
6.0352731955
 30
0.0
  0
LINE
  5
26E
100
AcDbEntity
  8
0
100
AcDbLine
 62
7
  6
CONTINUOUS
 10
64.7522440531
 20
6.0352731955
 11
64.7522923049
 21
6.0310900202
  0
SPLINE
  5
26F
100
AcDbEntity
  8
0
100
AcDbSpline
 62
7
  6
CONTINUOUS
 70
0
 71
3
 72
13
 73
9
 74
0
 42
0.0000001
 43
0.0000001
 44
0.0000000001
 40
0.0
 40
0.0
 40
0.0
 40
0.0
 40
0.2222860645
 40
0.3981728988
 40
0.572392894
 40
0.7181880393
 40
0.8570919984
 40
0.9881536746
 40
0.9881536746
 40
0.9881536746
 40
0.9881536746
 10
64.7522923049
 20
6.0310900202
 30
0.0
 10
64.7528257392
 20
6.0049257343
 30
0.0
 10
64.7539704214
 20
5.9580728455
 30
0.0
 10
64.7652414761
 20
5.8914155905
 30
0.0
 10
64.7854869221
 20
5.8362531348
 30
0.0
 10
64.8166203635
 20
5.7911166059
 30
0.0
 10
64.8599935732
 20
5.7643063854
 30
0.0
 10
64.8919883735
 20
5.7617715427
 30
0.0
 10
64.9075300805
 20
5.7606139865
 30
0.0
  0
LINE
  5
270
100
AcDbEntity
  8
0
100
AcDbLine
 62
7
  6
CONTINUOUS
 10
64.9075300805
 20
5.7606139865
 11
65.6466863789
 21
5.7622272703
  0
ARC
  5
271
100
AcDbEntity
  8
0
100
AcDbCircle
 62
7
  6
CONTINUOUS
 10
65.6466263743
 20
5.7897194565
 40
0.0274922516
100
AcDbArc
 50
270.125053868
 51
360.0
  0
LINE
  5
272
100
AcDbEntity
  8
0
100
AcDbLine
 62
7
  6
CONTINUOUS
 10
65.674118626
 20
5.7897194565
 11
65.674118626
 21
5.8425754104
  0
ARC
  5
273
100
AcDbEntity
  8
0
100
AcDbCircle
 62
7
  6
CONTINUOUS
 10
65.6466263743
 20
5.8425754104
 40
0.0274922517
100
AcDbArc
 50
0.0
 51
90.0
  0
LINE
  5
274
100
AcDbEntity
  8
0
100
AcDbLine
 62
7
  6
CONTINUOUS
 10
65.6466263743
 20
5.8700676621
 11
65.0131198339
 21
5.8700676621
  0
LINE
  5
275
100
AcDbEntity
  8
0
100
AcDbLine
 62
7
  6
CONTINUOUS
 10
64.9856275822
 20
5.8975599138
 11
64.9856275822
 21
6.170543547
  0
ARC
  5
276
100
AcDbEntity
  8
0
100
AcDbCircle
 62
7
  6
CONTINUOUS
 10
65.0131198341
 20
6.170543547
 40
0.0274922517
100
AcDbArc
 50
90.0
 51
180.0
  0
LINE
  5
277
100
AcDbEntity
  8
0
100
AcDbLine
 62
7
  6
CONTINUOUS
 10
65.0131198339
 20
6.1980357988
 11
65.6466263743
 21
6.1980357988
  0
LINE
  5
278
100
AcDbEntity
  8
0
100
AcDbLine
 62
7
  6
CONTINUOUS
 10
63.8835214067
 20
5.9788068902
 11
64.4115479272
 21
5.9788068902
  0
ARC
  5
279
100
AcDbEntity
  8
0
100
AcDbCircle
 62
7
  6
CONTINUOUS
 10
64.4115479271
 20
5.9513146385
 40
0.0274922517
100
AcDbArc
 50
0.0
 51
90.0
  0
LINE
  5
27A
100
AcDbEntity
  8
0
100
AcDbLine
 62
7
  6
CONTINUOUS
 10
64.4390401789
 20
5.9513146385
 11
64.4390401789
 21
5.8951783002
  0
LINE
  5
27B
100
AcDbEntity
  8
0
100
AcDbLine
 62
7
  6
CONTINUOUS
 10
64.4115479272
 20
5.8676860485
 11
63.7960365052
 21
5.8676860485
  0
ARC
  5
27C
100
AcDbEntity
  8
0
100
AcDbCircle
 62
7
  6
CONTINUOUS
 10
63.7960365052
 20
5.8401937968
 40
0.0274922517
100
AcDbArc
 50
90.0
 51
180.0
  0
LINE
  5
27D
100
AcDbEntity
  8
0
100
AcDbLine
 62
7
  6
CONTINUOUS
 10
63.7685442535
 20
5.8401937968
 11
63.7685442535
 21
5.7881059608
  0
ARC
  5
27E
100
AcDbEntity
  8
0
100
AcDbCircle
 62
7
  6
CONTINUOUS
 10
63.7960365052
 20
5.7881059608
 40
0.0274922517
100
AcDbArc
 50
180.0
 51
270.0
  0
LINE
  5
27F
100
AcDbEntity
  8
0
100
AcDbLine
 62
7
  6
CONTINUOUS
 10
63.7960365052
 20
5.760613709
 11
64.5601625431
 21
5.760613709
  0
SPLINE
  5
280
100
AcDbEntity
  8
0
100
AcDbSpline
 62
7
  6
CONTINUOUS
 70
0
 71
3
 72
13
 73
9
 74
0
 42
0.0000001
 43
0.0000001
 44
0.0000000001
 40
0.0
 40
0.0
 40
0.0
 40
0.0
 40
0.1604571392
 40
0.3334692485
 40
0.4767982758
 40
0.6242014838
 40
0.7505998515
 40
1.0
 40
1.0
 40
1.0
 40
1.0
 10
64.5601625431
 20
5.760613709
 30
0.0
 10
64.5730458035
 20
5.761234015
 30
0.0
 10
64.5998203746
 20
5.7625231622
 30
0.0
 10
64.6358245887
 20
5.7781545409
 30
0.0
 10
64.6629549502
 20
5.8044295838
 30
0.0
 10
64.6782439759
 20
5.8345529053
 30
0.0
 10
64.6899658438
 20
5.8749636498
 30
0.0
 10
64.6904415177
 20
5.9052051338
 30
0.0
 10
64.6907572003
 20
5.9252750122
 30
0.0
  0
SPLINE
  5
281
100
AcDbEntity
  8
0
100
AcDbSpline
 62
7
  6
CONTINUOUS
 70
0
 71
3
 72
13
 73
9
 74
0
 42
0.0000001
 43
0.0000001
 44
0.0000000001
 40
0.0
 40
0.0
 40
0.0
 40
0.0
 40
0.2494001485
 40
0.3757985162
 40
0.5232017242
 40
0.6665307515
 40
0.8395428608
 40
1.0
 40
1.0
 40
1.0
 40
1.0
 10
64.6907572003
 20
5.9252750122
 30
0.0
 10
64.6904415177
 20
5.945344891
 30
0.0
 10
64.6899658438
 20
5.9755863746
 30
0.0
 10
64.6782439759
 20
6.0159971195
 30
0.0
 10
64.6629549502
 20
6.0461204411
 30
0.0
 10
64.6358245887
 20
6.0723954835
 30
0.0
 10
64.5998203746
 20
6.0880268622
 30
0.0
 10
64.5730458035
 20
6.0893160098
 30
0.0
 10
64.5601625431
 20
6.0899363154
 30
0.0
  0
LINE
  5
282
100
AcDbEntity
  8
0
100
AcDbLine
 62
7
  6
CONTINUOUS
 10
64.5601625431
 20
6.0899363154
 11
64.0391742666
 21
6.0899363154
  0
LINE
  5
283
100
AcDbEntity
  8
0
100
AcDbLine
 62
7
  6
CONTINUOUS
 10
64.0116820149
 20
6.1174285671
 11
64.0116820149
 21
6.1694466654
  0
ARC
  5
284
100
AcDbEntity
  8
0
100
AcDbCircle
 62
7
  6
CONTINUOUS
 10
64.0391742664
 20
6.1694466654
 40
0.0274922517
100
AcDbArc
 50
90.0
 51
180.0
  0
LINE
  5
285
100
AcDbEntity
  8
0
100
AcDbLine
 62
7
  6
CONTINUOUS
 10
64.0391742666
 20
6.1969389171
 11
64.6555211548
 21
6.1969389171
  0
ARC
  5
286
100
AcDbEntity
  8
0
100
AcDbCircle
 62
7
  6
CONTINUOUS
 10
64.6555211548
 20
6.2244311688
 40
0.0274922517
100
AcDbArc
 50
270.0
 51
360.0
  0
LINE
  5
287
100
AcDbEntity
  8
0
100
AcDbLine
 62
7
  6
CONTINUOUS
 10
64.6830134066
 20
6.2244311688
 11
64.6830134066
 21
6.2805314487
  0
ARC
  5
288
100
AcDbEntity
  8
0
100
AcDbCircle
 62
7
  6
CONTINUOUS
 10
64.6555211548
 20
6.2805314487
 40
0.0274922517
100
AcDbArc
 50
0.0
 51
90.0
  0
LINE
  5
289
100
AcDbEntity
  8
0
100
AcDbLine
 62
7
  6
CONTINUOUS
 10
64.6555211548
 20
6.3080237004
 11
63.8835214067
 21
6.3080237004
  0
SPLINE
  5
28A
100
AcDbEntity
  8
0
100
AcDbSpline
 62
7
  6
CONTINUOUS
 70
0
 71
3
 72
13
 73
9
 74
0
 42
0.0000001
 43
0.0000001
 44
0.0000000001
 40
0.0
 40
0.0
 40
0.0
 40
0.0
 40
0.1133740464
 40
0.2392044088
 40
0.3655787964
 40
0.4912154373
 40
0.7445390876
 40
1.0
 40
1.0
 40
1.0
 40
1.0
 10
63.8835214067
 20
6.3080237004
 30
0.0
 10
63.8747022375
 20
6.3075893152
 30
0.0
 10
63.8560949444
 20
6.3066728187
 30
0.0
 10
63.828455651
 20
6.2984150235
 30
0.0
 10
63.8037296096
 20
6.2817399632
 30
0.0
 10
63.7784717378
 20
6.251023866
 30
0.0
 10
63.7625778825
 20
6.2028036801
 30
0.0
 10
63.7608541915
 20
6.1632667849
 30
0.0
 10
63.7599887261
 20
6.1434152953
 30
0.0
  0
SPLINE
  5
28B
100
AcDbEntity
  8
0
100
AcDbSpline
 62
7
  6
CONTINUOUS
 70
0
 71
3
 72
13
 73
9
 74
0
 42
0.0000001
 43
0.0000001
 44
0.0000000001
 40
0.0
 40
0.0
 40
0.0
 40
0.0
 40
0.2554609124
 40
0.5087845627
 40
0.6344212036
 40
0.7607955912
 40
0.8866259536
 40
1.0
 40
1.0
 40
1.0
 40
1.0
 10
63.7599887261
 20
6.1434152953
 30
0.0
 10
63.7608541915
 20
6.1235638056
 30
0.0
 10
63.7625778825
 20
6.08402691
 30
0.0
 10
63.7784717378
 20
6.0358067245
 30
0.0
 10
63.8037296096
 20
6.0050906273
 30
0.0
 10
63.828455651
 20
5.9884155671
 30
0.0
 10
63.8560949444
 20
5.9801577719
 30
0.0
 10
63.8747022375
 20
5.9792412754
 30
0.0
 10
63.8835214067
 20
5.9788068902
 30
0.0
  0
LINE
  5
28C
100
AcDbEntity
  8
0
100
AcDbLine
 62
7
  6
CONTINUOUS
 10
62.8677129018
 20
5.760613709
 11
63.294885117
 21
5.760613709
  0
LINE
  5
28D
100
AcDbEntity
  8
0
100
AcDbLine
 62
7
  6
CONTINUOUS
 10
63.294885117
 20
5.760613709
 11
63.294885117
 21
5.7074865322
  0
ARC
  5
28E
100
AcDbEntity
  8
0
100
AcDbCircle
 62
7
  6
CONTINUOUS
 10
63.30545906
 20
5.7074865322
 40
0.010573943
100
AcDbArc
 50
180.0
 51
270.0
  0
LINE
  5
28F
100
AcDbEntity
  8
0
100
AcDbLine
 62
7
  6
CONTINUOUS
 10
63.30545906
 20
5.6969125893
 11
63.4701061065
 21
5.6969125893
  0
ARC
  5
290
100
AcDbEntity
  8
0
100
AcDbCircle
 62
7
  6
CONTINUOUS
 10
63.4701061065
 20
5.7074865322
 40
0.010573943
100
AcDbArc
 50
270.0
 51
360.0
  0
LINE
  5
291
100
AcDbEntity
  8
0
100
AcDbLine
 62
7
  6
CONTINUOUS
 10
63.4806800495
 20
5.7074865322
 11
63.4806800495
 21
5.760613709
  0
LINE
  5
292
100
AcDbEntity
  8
0
100
AcDbLine
 62
7
  6
CONTINUOUS
 10
63.4806800495
 20
5.760613709
 11
63.5646780947
 21
5.760613709
  0
SPLINE
  5
293
100
AcDbEntity
  8
0
100
AcDbSpline
 62
7
  6
CONTINUOUS
 70
0
 71
3
 72
12
 73
8
 74
0
 42
0.0000001
 43
0.0000001
 44
0.0000000001
 40
0.0
 40
0.0
 40
0.0
 40
0.0
 40
0.2415790084
 40
0.4893269843
 40
0.7378634303
 40
0.8656387112
 40
1.0
 40
1.0
 40
1.0
 40
1.0
 10
63.5646780947
 20
5.760613709
 30
0.0
 10
63.5797397718
 20
5.7610819596
 30
0.0
 10
63.6102477416
 20
5.7620304182
 30
0.0
 10
63.6548929721
 20
5.7779520947
 30
0.0
 10
63.6820068996
 20
5.8080080065
 30
0.0
 10
63.6939523959
 20
5.8380394223
 30
0.0
 10
63.6941676712
 20
5.8544905683
 30
0.0
 10
63.6942780133
 20
5.8629228031
 30
0.0
  0
LINE
  5
294
100
AcDbEntity
  8
0
100
AcDbLine
 62
7
  6
CONTINUOUS
 10
63.6942780133
 20
5.8629228031
 11
63.6942780133
 21
6.2050725599
  0
SPLINE
  5
295
100
AcDbEntity
  8
0
100
AcDbSpline
 62
7
  6
CONTINUOUS
 70
0
 71
3
 72
12
 73
8
 74
0
 42
0.0000001
 43
0.0000001
 44
0.0000000001
 40
0.0
 40
0.0
 40
0.0
 40
0.0
 40
0.1343612888
 40
0.2621365697
 40
0.5106730157
 40
0.7584209916
 40
1.0
 40
1.0
 40
1.0
 40
1.0
 10
63.6942780133
 20
6.2050725599
 30
0.0
 10
63.6941676712
 20
6.2135047951
 30
0.0
 10
63.6939523959
 20
6.2299559411
 30
0.0
 10
63.6820068996
 20
6.2599873569
 30
0.0
 10
63.6548929721
 20
6.2900432687
 30
0.0
 10
63.6102477416
 20
6.3059649448
 30
0.0
 10
63.5797397718
 20
6.3069134034
 30
0.0
 10
63.5646780947
 20
6.307381654
 30
0.0
  0
LINE
  5
296
100
AcDbEntity
  8
0
100
AcDbLine
 62
7
  6
CONTINUOUS
 10
63.5646780947
 20
6.307381654
 11
62.8677129018
 21
6.307381654
  0
SPLINE
  5
297
100
AcDbEntity
  8
0
100
AcDbSpline
 62
7
  6
CONTINUOUS
 70
0
 71
3
 72
12
 73
8
 74
0
 42
0.0000001
 43
0.0000001
 44
0.0000000001
 40
0.0
 40
0.0
 40
0.0
 40
0.0
 40
0.1341799809
 40
0.290831959
 40
0.5815217441
 40
0.760783857
 40
1.0
 40
1.0
 40
1.0
 40
1.0
 10
62.8677129018
 20
6.307381654
 30
0.0
 10
62.8525108535
 20
6.3047834797
 30
0.0
 10
62.8195607711
 20
6.2991519973
 30
0.0
 10
62.7640945954
 20
6.2577133463
 30
0.0
 10
62.7378229996
 20
6.1879969772
 30
0.0
 10
62.7224517239
 20
6.1089670475
 30
0.0
 10
62.7212978504
 20
6.0611661438
 30
0.0
 10
62.7206382575
 20
6.0338415513
 30
0.0
  0
SPLINE
  5
298
100
AcDbEntity
  8
0
100
AcDbSpline
 62
7
  6
CONTINUOUS
 70
0
 71
3
 72
12
 73
8
 74
0
 42
0.0000001
 43
0.0000001
 44
0.0000000001
 40
0.0
 40
0.0
 40
0.0
 40
0.0
 40
0.2392679579
 40
0.4185688994
 40
0.7093216488
 40
0.8660075581
 40
1.0
 40
1.0
 40
1.0
 40
1.0
 10
62.7206382575
 20
6.0338415513
 30
0.0
 10
62.7212981139
 20
6.0065180238
 30
0.0
 10
62.722452448
 20
5.9587189832
 30
0.0
 10
62.7378204069
 20
5.8796756424
 30
0.0
 10
62.7641080539
 20
5.8100241783
 30
0.0
 10
62.8195164815
 20
5.7684509675
 30
0.0
 10
62.8525059316
 20
5.7630865267
 30
0.0
 10
62.8677129018
 20
5.760613709
 30
0.0
  0
LINE
  5
299
100
AcDbEntity
  8
0
100
AcDbLine
 62
7
  6
CONTINUOUS
 10
63.553491448
 20
5.9013832409
 11
63.553491448
 21
6.1755232372
  0
ARC
  5
29A
100
AcDbEntity
  8
0
100
AcDbCircle
 62
7
  6
CONTINUOUS
 10
62.9767138104
 20
5.9013832409
 40
0.0274922517
100
AcDbArc
 50
180.0
 51
270.0
  0
LINE
  5
29B
100
AcDbEntity
  8
0
100
AcDbLine
 62
7
  6
CONTINUOUS
 10
62.9767138104
 20
5.8738909892
 11
63.2924802395
 21
5.8738909892
  0
LINE
  5
29C
100
AcDbEntity
  8
0
100
AcDbLine
 62
7
  6
CONTINUOUS
 10
63.2924802395
 20
5.8738909892
 11
63.2924802395
 21
5.9268535547
  0
ARC
  5
29D
100
AcDbEntity
  8
0
100
AcDbCircle
 62
7
  6
CONTINUOUS
 10
63.3030541827
 20
5.9268535547
 40
0.010573943
100
AcDbArc
 50
90.0
 51
180.0
  0
LINE
  5
29E
100
AcDbEntity
  8
0
100
AcDbLine
 62
7
  6
CONTINUOUS
 10
63.3030541825
 20
5.9374274977
 11
63.4668621507
 21
5.9374274977
  0
ARC
  5
29F
100
AcDbEntity
  8
0
100
AcDbCircle
 62
7
  6
CONTINUOUS
 10
63.4668621503
 20
5.9268535551
 40
0.010573943
100
AcDbArc
 50
0.0
 51
90.0
  0
LINE
  5
2A0
100
AcDbEntity
  8
0
100
AcDbLine
 62
7
  6
CONTINUOUS
 10
63.4774360936
 20
5.8738909892
 11
63.5259991963
 21
5.8738909892
  0
ARC
  5
2A1
100
AcDbEntity
  8
0
100
AcDbCircle
 62
7
  6
CONTINUOUS
 10
63.5259991963
 20
5.9013832409
 40
0.0274922517
100
AcDbArc
 50
270.0
 51
360.0
  0
LINE
  5
2A2
100
AcDbEntity
  8
0
100
AcDbLine
 62
7
  6
CONTINUOUS
 10
63.4774360936
 20
5.8738909892
 11
63.4774360936
 21
5.9268535547
  0
LINE
  5
2A3
100
AcDbEntity
  8
0
100
AcDbLine
 62
7
  6
CONTINUOUS
 10
62.9492215587
 20
5.9013832409
 11
62.9492215587
 21
6.1755232372
  0
ARC
  5
2A4
100
AcDbEntity
  8
0
100
AcDbCircle
 62
7
  6
CONTINUOUS
 10
62.9767138108
 20
6.1755232372
 40
0.0274922517
100
AcDbArc
 50
90.0
 51
180.0
  0
LINE
  5
2A5
100
AcDbEntity
  8
0
100
AcDbLine
 62
7
  6
CONTINUOUS
 10
62.9767138104
 20
6.2030154889
 11
63.5259991963
 21
6.2030154889
  0
ARC
  5
2A6
100
AcDbEntity
  8
0
100
AcDbCircle
 62
7
  6
CONTINUOUS
 10
63.5259991965
 20
6.175523237
 40
0.0274922517
100
AcDbArc
 50
0.0000000277
 51
90.0000000277
  0
ARC
  5
2A7
100
AcDbEntity
  8
0
100
AcDbCircle
 62
7
  6
CONTINUOUS
 10
64.0391742666
 20
6.1174285671
 40
0.0274922517
100
AcDbArc
 50
180.0
 51
270.0
  0
ARC
  5
2A8
100
AcDbEntity
  8
0
100
AcDbCircle
 62
7
  6
CONTINUOUS
 10
64.4115479272
 20
5.8951783002
 40
0.0274922517
100
AcDbArc
 50
270.0
 51
360.0
  0
ARC
  5
2A9
100
AcDbEntity
  8
0
100
AcDbCircle
 62
7
  6
CONTINUOUS
 10
65.0131198339
 20
5.8975599138
 40
0.0274922517
100
AcDbArc
 50
180.0
 51
270.0
  0
ENDBLK
  5
2AA
100
AcDbEntity
  8
0
  6
BYBLOCK
 62
0
100
AcDbBlockEnd
  0
BLOCK
  5
2AB
100
AcDbEntity
  8
0
100
AcDbBlockBegin
  2
_FILLED
 70
64
 10
0.0
 20
0.0
  3
_FILLED
  1

  0
SOLID
  5
2AC
100
AcDbEntity
  8
0
  6
BYBLOCK
 62
0
100
AcDbTrace
 10
0.0
 20
0.0
 11
-1.0
 21
0.1666666667
 12
-1.0
 22
-0.1666666667
 13
-1.0
 23
-0.1666666667
  0
ENDBLK
  5
2AD
100
AcDbEntity
  8
0
  6
BYBLOCK
 62
0
100
AcDbBlockEnd
  0
BLOCK
  5
2AE
100
AcDbEntity
  8
0
100
AcDbBlockBegin
 62
2
  6
CONTINUOUS
  2
*D0
 70
65
 10
0.0
 20
0.0
  3
*D0
  1

  0
MTEXT
  5
2AF
100
AcDbEntity
  8
0
100
AcDbMText
 62
2
  6
CONTINUOUS
  7
STANDARD
 71
2
 72
1
 10
22.1010533448
 20
26.498267261
 30
0.0
 11
1.0
 21
0.0
 31
0.0
 44
0.9
  1
265\P[10.4]
 40
0.3472222222
 41
1.8601190476
  0
LINE
  5
2B0
100
AcDbEntity
  8
0
100
AcDbLine
 62
2
  6
CONTINUOUS
 10
18.7919216134
 20
31.5370577247
 11
22.6020454083
 21
31.5370577247
  0
LINE
  5
2B1
100
AcDbEntity
  8
0
100
AcDbLine
 62
2
  6
CONTINUOUS
 10
18.7919216134
 20
21.1122545751
 11
22.6020454083
 21
21.1122545751
  0
LINE
  5
2B2
100
AcDbEntity
  8
0
100
AcDbLine
 62
2
  6
CONTINUOUS
 10
22.3242676305
 20
31.5370577247
 11
22.3242676305
 21
26.6718783721
  0
LINE
  5
2B3
100
AcDbEntity
  8
0
100
AcDbLine
 62
2
  6
CONTINUOUS
 10
22.3242676305
 20
21.1122545751
 11
22.3242676305
 21
25.4566005943
  0
INSERT
  5
2B4
100
AcDbEntity
  8
0
100
AcDbBlockReference
 62
2
  6
CONTINUOUS
  2
_FILLED
 10
22.3242676305
 20
31.5370577247
 41
0.4166666667
 42
0.4166666667
 43
0.4166666667
 50
90.0
  0
INSERT
  5
2B5
100
AcDbEntity
  8
0
100
AcDbBlockReference
 62
2
  6
CONTINUOUS
  2
_FILLED
 10
22.3242676305
 20
21.1122545751
 41
0.4166666667
 42
0.4166666667
 43
0.4166666667
 50
270.0
  0
ENDBLK
  5
2B6
100
AcDbEntity
  8
0
  6
BYBLOCK
 62
0
100
AcDbBlockEnd
  0
BLOCK
  5
2B7
100
AcDbEntity
  8
0
100
AcDbBlockBegin
 62
2
  6
CONTINUOUS
  2
*D1
 70
65
 10
0.0
 20
0.0
  3
*D1
  1

  0
MTEXT
  5
2B8
100
AcDbEntity
  8
0
100
AcDbMText
 62
2
  6
CONTINUOUS
  7
STANDARD
 71
2
 72
1
 10
16.4046169015
 20
34.4086171097
 30
0.0
 11
1.0
 21
0.0
 31
0.0
 44
0.9
  1
164\P[6.4]
 40
0.3472222222
 41
1.5625
  0
LINE
  5
2B9
100
AcDbEntity
  8
0
100
AcDbLine
 62
2
  6
CONTINUOUS
 10
19.7723240631
 20
37.4565831829
 11
19.7723240631
 21
33.9572282208
  0
LINE
  5
2BA
100
AcDbEntity
  8
0
100
AcDbLine
 62
2
  6
CONTINUOUS
 10
13.3345287875
 20
37.4565831829
 11
13.3345287875
 21
33.9572282208
  0
LINE
  5
2BB
100
AcDbEntity
  8
0
100
AcDbLine
 62
2
  6
CONTINUOUS
 10
19.7723240631
 20
34.2350059986
 11
17.2478708698
 21
34.2350059986
  0
LINE
  5
2BC
100
AcDbEntity
  8
0
100
AcDbLine
 62
2
  6
CONTINUOUS
 10
13.3345287875
 20
34.2350059986
 11
15.8589819809
 21
34.2350059986
  0
INSERT
  5
2BD
100
AcDbEntity
  8
0
100
AcDbBlockReference
 62
2
  6
CONTINUOUS
  2
_FILLED
 10
19.7723240631
 20
34.2350059986
 41
0.4166666667
 42
0.4166666667
 43
0.4166666667
  0
INSERT
  5
2BE
100
AcDbEntity
  8
0
100
AcDbBlockReference
 62
2
  6
CONTINUOUS
  2
_FILLED
 10
13.3345287875
 20
34.2350059986
 41
0.4166666667
 42
0.4166666667
 43
0.4166666667
 50
180.0
  0
ENDBLK
  5
2BF
100
AcDbEntity
  8
0
  6
BYBLOCK
 62
0
100
AcDbBlockEnd
  0
BLOCK
  5
2C0
100
AcDbEntity
  8
0
100
AcDbBlockBegin
 62
2
  6
CONTINUOUS
  2
*D2
 70
65
 10
0.0
 20
0.0
  3
*D2
  1

  0
MTEXT
  5
2C1
100
AcDbEntity
  8
0
100
AcDbMText
 62
2
  6
CONTINUOUS
  7
STANDARD
 71
2
 72
1
 10
21.5099261471
 20
39.6763666475
 30
0.0
 11
1.0
 21
0.0
 31
0.0
 44
0.9
  1
163\P[6.4]
 40
0.3472222222
 41
1.5625
  0
LINE
  5
2C2
100
AcDbEntity
  8
0
100
AcDbLine
 62
2
  6
CONTINUOUS
 10
18.7919216134
 20
36.3009838828
 11
19.5442968854
 21
36.3009838828
  0
LINE
  5
2C3
100
AcDbEntity
  8
0
100
AcDbLine
 62
2
  6
CONTINUOUS
 10
20.079356806
 20
36.3009838828
 11
21.9489142424
 21
36.3009838828
  0
LINE
  5
2C4
100
AcDbEntity
  8
0
100
AcDbLine
 62
2
  6
CONTINUOUS
 10
18.5608192512
 20
42.7045271899
 11
21.9489142424
 21
42.7045271899
  0
LINE
  5
2C5
100
AcDbEntity
  8
0
100
AcDbLine
 62
2
  6
CONTINUOUS
 10
21.6711364646
 20
36.3009838828
 11
21.6711364646
 21
38.6346999808
  0
LINE
  5
2C6
100
AcDbEntity
  8
0
100
AcDbLine
 62
2
  6
CONTINUOUS
 10
21.6711364646
 20
42.7045271899
 11
21.6711364646
 21
39.8499777586
  0
INSERT
  5
2C7
100
AcDbEntity
  8
0
100
AcDbBlockReference
 62
2
  6
CONTINUOUS
  2
_FILLED
 10
21.6711364646
 20
36.3009838828
 41
0.4166666667
 42
0.4166666667
 43
0.4166666667
 50
270.0
  0
INSERT
  5
2C8
100
AcDbEntity
  8
0
100
AcDbBlockReference
 62
2
  6
CONTINUOUS
  2
_FILLED
 10
21.6711364646
 20
42.7045271899
 41
0.4166666667
 42
0.4166666667
 43
0.4166666667
 50
90.0
  0
ENDBLK
  5
2C9
100
AcDbEntity
  8
0
  6
BYBLOCK
 62
0
100
AcDbBlockEnd
  0
BLOCK
  5
2CA
100
AcDbEntity
  8
0
100
AcDbBlockBegin
 62
2
  6
CONTINUOUS
  2
*D3
 70
65
 10
0.0
 20
0.0
  3
*D3
  1

  0
MTEXT
  5
2CB
100
AcDbEntity
  8
0
100
AcDbMText
 62
2
  6
CONTINUOUS
  7
STANDARD
 71
2
 72
1
 10
36.7311347963
 20
16.9192962955
 30
0.0
 11
1.0
 21
0.0
 31
0.0
 44
0.9
  1
232\P[9.1]
 40
0.3472222222
 41
1.4508928571
  0
LINE
  5
2CC
100
AcDbEntity
  8
0
100
AcDbLine
 62
2
  6
CONTINUOUS
 10
41.3817198794
 20
23.3314365523
 11
41.3817198794
 21
16.4679074066
  0
LINE
  5
2CD
100
AcDbEntity
  8
0
100
AcDbLine
 62
2
  6
CONTINUOUS
 10
32.2541608243
 20
20.9733656862
 11
32.2541608243
 21
16.4679074066
  0
LINE
  5
2CE
100
AcDbEntity
  8
0
100
AcDbLine
 62
2
  6
CONTINUOUS
 10
41.3817198794
 20
16.7456851843
 11
37.4751824154
 21
16.7456851843
  0
LINE
  5
2CF
100
AcDbEntity
  8
0
100
AcDbLine
 62
2
  6
CONTINUOUS
 10
32.2541608243
 20
16.7456851843
 11
36.1606982884
 21
16.7456851843
  0
INSERT
  5
2D0
100
AcDbEntity
  8
0
100
AcDbBlockReference
 62
2
  6
CONTINUOUS
  2
_FILLED
 10
41.3817198794
 20
16.7456851843
 41
0.4166666667
 42
0.4166666667
 43
0.4166666667
  0
INSERT
  5
2D1
100
AcDbEntity
  8
0
100
AcDbBlockReference
 62
2
  6
CONTINUOUS
  2
_FILLED
 10
32.2541608243
 20
16.7456851843
 41
0.4166666667
 42
0.4166666667
 43
0.4166666667
 50
180.0
  0
ENDBLK
  5
2D2
100
AcDbEntity
  8
0
  6
BYBLOCK
 62
0
100
AcDbBlockEnd
  0
BLOCK
  5
2D3
100
AcDbEntity
  8
0
100
AcDbBlockBegin
 62
2
  6
CONTINUOUS
  2
*D4
 70
65
 10
0.0
 20
0.0
  3
*D4
  1

  0
MTEXT
  5
2D4
100
AcDbEntity
  8
0
100
AcDbMText
 62
2
  6
CONTINUOUS
  7
STANDARD
 71
2
 72
1
 10
39.7716961324
 20
20.161075723
 30
0.0
 11
1.0
 21
0.0
 31
0.0
 44
0.9
  1
69\P[2.7]
 40
0.3472222222
 41
1.5625
  0
LINE
  5
2D5
100
AcDbEntity
  8
0
100
AcDbLine
 62
2
  6
CONTINUOUS
 10
41.3817198794
 20
23.3314365523
 11
41.3817198794
 21
19.7096868341
  0
LINE
  5
2D6
100
AcDbEntity
  8
0
100
AcDbLine
 62
2
  6
CONTINUOUS
 10
38.6577041314
 20
21.5899567763
 11
38.6577041314
 21
19.7096868341
  0
LINE
  5
2D7
100
AcDbEntity
  8
0
100
AcDbLine
 62
2
  6
CONTINUOUS
 10
41.3817198794
 20
19.9874646119
 11
40.7141564499
 21
19.9874646119
  0
LINE
  5
2D8
100
AcDbEntity
  8
0
100
AcDbLine
 62
2
  6
CONTINUOUS
 10
38.6577041314
 20
19.9874646119
 11
39.325267561
 21
19.9874646119
  0
INSERT
  5
2D9
100
AcDbEntity
  8
0
100
AcDbBlockReference
 62
2
  6
CONTINUOUS
  2
_FILLED
 10
41.3817198794
 20
19.9874646119
 41
0.4166666667
 42
0.4166666667
 43
0.4166666667
  0
INSERT
  5
2DA
100
AcDbEntity
  8
0
100
AcDbBlockReference
 62
2
  6
CONTINUOUS
  2
_FILLED
 10
38.6577041314
 20
19.9874646119
 41
0.4166666667
 42
0.4166666667
 43
0.4166666667
 50
180.0
  0
ENDBLK
  5
2DB
100
AcDbEntity
  8
0
  6
BYBLOCK
 62
0
100
AcDbBlockEnd
  0
BLOCK
  5
2DC
100
AcDbEntity
  8
0
100
AcDbBlockBegin
 62
2
  6
CONTINUOUS
  2
*D5
 70
65
 10
0.0
 20
0.0
  3
*D5
  1

  0
MTEXT
  5
2DD
100
AcDbEntity
  8
0
100
AcDbMText
 62
2
  6
CONTINUOUS
  7
STANDARD
 71
2
 72
1
 10
11.3580334963
 20
15.1190221086
 30
0.0
 11
1.0
 21
0.0
 31
0.0
 44
0.9
  1
151\P[6.0]
 40
0.3472222222
 41
1.5625
  0
LINE
  5
2DE
100
AcDbEntity
  8
0
100
AcDbLine
 62
2
  6
CONTINUOUS
 10
14.5460335994
 20
11.9690330447
 11
11.2786684169
 21
11.9690330447
  0
LINE
  5
2DF
100
AcDbEntity
  8
0
100
AcDbLine
 62
2
  6
CONTINUOUS
 10
15.98874926
 20
17.9217889502
 11
11.2786684169
 21
17.9217889502
  0
LINE
  5
2E0
100
AcDbEntity
  8
0
100
AcDbLine
 62
2
  6
CONTINUOUS
 10
11.5564461947
 20
11.9690330447
 11
11.5564461947
 21
14.0773554419
  0
LINE
  5
2E1
100
AcDbEntity
  8
0
100
AcDbLine
 62
2
  6
CONTINUOUS
 10
11.5564461947
 20
17.9217889502
 11
11.5564461947
 21
15.2926332197
  0
INSERT
  5
2E2
100
AcDbEntity
  8
0
100
AcDbBlockReference
 62
2
  6
CONTINUOUS
  2
_FILLED
 10
11.5564461947
 20
11.9690330447
 41
0.4166666667
 42
0.4166666667
 43
0.4166666667
 50
270.0
  0
INSERT
  5
2E3
100
AcDbEntity
  8
0
100
AcDbBlockReference
 62
2
  6
CONTINUOUS
  2
_FILLED
 10
11.5564461947
 20
17.9217889502
 41
0.4166666667
 42
0.4166666667
 43
0.4166666667
 50
90.0
  0
ENDBLK
  5
2E4
100
AcDbEntity
  8
0
  6
BYBLOCK
 62
0
100
AcDbBlockEnd
  0
BLOCK
  5
2E5
100
AcDbEntity
  8
0
100
AcDbBlockBegin
 62
2
  6
CONTINUOUS
  2
*D6
 70
65
 10
0.0
 20
0.0
  3
*D6
  1

  0
MTEXT
  5
2E6
100
AcDbEntity
  8
0
100
AcDbMText
 62
2
  6
CONTINUOUS
  7
STANDARD
 71
2
 72
1
 10
57.9060644978
 20
25.4155900956
 30
0.0
 11
1.0
 21
0.0
 31
0.0
 44
0.9
  1
70\P[2.8]
 40
0.3472222222
 41
1.5625
  0
LINE
  5
2E7
100
AcDbEntity
  8
0
100
AcDbLine
 62
2
  6
CONTINUOUS
 10
53.4644801197
 20
26.6199317404
 11
58.4318581486
 21
26.6199317404
  0
LINE
  5
2E8
100
AcDbEntity
  8
0
100
AcDbLine
 62
2
  6
CONTINUOUS
 10
53.4569245642
 20
23.8640262286
 11
58.4318581486
 21
23.8640262286
  0
LINE
  5
2E9
100
AcDbEntity
  8
0
100
AcDbLine
 62
2
  6
CONTINUOUS
 10
58.1540803708
 20
26.6199317404
 11
58.1540803708
 21
25.5892012067
  0
LINE
  5
2EA
100
AcDbEntity
  8
0
100
AcDbLine
 62
2
  6
CONTINUOUS
 10
58.1540803708
 20
23.8640262286
 11
58.1540803708
 21
24.373923429
  0
INSERT
  5
2EB
100
AcDbEntity
  8
0
100
AcDbBlockReference
 62
2
  6
CONTINUOUS
  2
_FILLED
 10
58.1540803708
 20
26.6199317404
 41
0.4166666667
 42
0.4166666667
 43
0.4166666667
 50
90.0
  0
INSERT
  5
2EC
100
AcDbEntity
  8
0
100
AcDbBlockReference
 62
2
  6
CONTINUOUS
  2
_FILLED
 10
58.1540803708
 20
23.8640262286
 41
0.4166666667
 42
0.4166666667
 43
0.4166666667
 50
270.0
  0
ENDBLK
  5
2ED
100
AcDbEntity
  8
0
  6
BYBLOCK
 62
0
100
AcDbBlockEnd
  0
BLOCK
  5
2EE
100
AcDbEntity
  8
0
100
AcDbBlockBegin
 62
2
  6
CONTINUOUS
  2
*D7
 70
65
 10
0.0
 20
0.0
  3
*D7
  1

  0
MTEXT
  5
2EF
100
AcDbEntity
  8
0
100
AcDbMText
 62
2
  6
CONTINUOUS
  7
STANDARD
 71
1
 72
1
 10
55.5097419864
 20
20.2805633469
 30
0.0
 11
1.0
 21
0.0
 31
0.0
 44
0.9
  1
51\P[2.0]
 40
0.3472222222
 41
1.5625
  0
LINE
  5
2F0
100
AcDbEntity
  8
0
100
AcDbLine
 62
2
  6
CONTINUOUS
 10
52.1252097785
 20
24.9080166607
 11
52.1252097785
 21
19.829174458
  0
LINE
  5
2F1
100
AcDbEntity
  8
0
100
AcDbLine
 62
2
  6
CONTINUOUS
 10
54.1330837943
 20
24.8644142851
 11
54.1330837943
 21
19.829174458
  0
LINE
  5
2F2
100
AcDbEntity
  8
0
100
AcDbLine
 62
2
  6
CONTINUOUS
 10
52.1252097785
 20
20.1069522358
 11
53.1291467864
 21
20.1069522358
  0
LINE
  5
2F3
100
AcDbEntity
  8
0
100
AcDbLine
 62
2
  6
CONTINUOUS
 10
54.1330837943
 20
20.1069522358
 11
53.1291467864
 21
20.1069522358
  0
LINE
  5
2F4
100
AcDbEntity
  8
0
100
AcDbLine
 62
2
  6
CONTINUOUS
 10
53.1291467864
 20
20.1069522358
 11
55.3361308753
 21
20.1069522358
  0
INSERT
  5
2F5
100
AcDbEntity
  8
0
100
AcDbBlockReference
 62
2
  6
CONTINUOUS
  2
_FILLED
 10
52.1252097785
 20
20.1069522358
 41
0.4166666667
 42
0.4166666667
 43
0.4166666667
 50
180.0
  0
INSERT
  5
2F6
100
AcDbEntity
  8
0
100
AcDbBlockReference
 62
2
  6
CONTINUOUS
  2
_FILLED
 10
54.1330837943
 20
20.1069522358
 41
0.4166666667
 42
0.4166666667
 43
0.4166666667
  0
ENDBLK
  5
2F7
100
AcDbEntity
  8
0
  6
BYBLOCK
 62
0
100
AcDbBlockEnd
  0
BLOCK
  5
2F8
100
AcDbEntity
  8
0
100
AcDbBlockBegin
 62
2
  6
CONTINUOUS
  2
*D8
 70
65
 10
0.0
 20
0.0
  3
*D8
  1

  0
MTEXT
  5
2F9
100
AcDbEntity
  8
0
100
AcDbMText
 62
2
  6
CONTINUOUS
  7
STANDARD
 71
2
 72
1
 10
52.8811309134
 20
18.7283881001
 30
0.0
 11
1.0
 21
0.0
 31
0.0
 44
0.9
  1
70\P[2.8]
 40
0.3472222222
 41
1.5625
  0
LINE
  5
2FA
100
AcDbEntity
  8
0
100
AcDbLine
 62
2
  6
CONTINUOUS
 10
54.5070995423
 20
23.3314365523
 11
54.5070995423
 21
20.3306932783
  0
LINE
  5
2FB
100
AcDbEntity
  8
0
100
AcDbLine
 62
2
  6
CONTINUOUS
 10
54.5070995423
 20
19.9634735745
 11
54.5070995423
 21
18.2769992113
  0
LINE
  5
2FC
100
AcDbEntity
  8
0
100
AcDbLine
 62
2
  6
CONTINUOUS
 10
51.7511940305
 20
23.3314365523
 11
51.7511940305
 21
18.2769992113
  0
LINE
  5
2FD
100
AcDbEntity
  8
0
100
AcDbLine
 62
2
  6
CONTINUOUS
 10
54.5070995423
 20
18.554776989
 11
53.8235912308
 21
18.554776989
  0
LINE
  5
2FE
100
AcDbEntity
  8
0
100
AcDbLine
 62
2
  6
CONTINUOUS
 10
51.7511940305
 20
18.554776989
 11
52.4347023419
 21
18.554776989
  0
INSERT
  5
2FF
100
AcDbEntity
  8
0
100
AcDbBlockReference
 62
2
  6
CONTINUOUS
  2
_FILLED
 10
54.5070995423
 20
18.554776989
 41
0.4166666667
 42
0.4166666667
 43
0.4166666667
  0
INSERT
  5
300
100
AcDbEntity
  8
0
100
AcDbBlockReference
 62
2
  6
CONTINUOUS
  2
_FILLED
 10
51.7511940305
 20
18.554776989
 41
0.4166666667
 42
0.4166666667
 43
0.4166666667
 50
180.0
  0
ENDBLK
  5
301
100
AcDbEntity
  8
0
  6
BYBLOCK
 62
0
100
AcDbBlockEnd
  0
BLOCK
  5
302
100
AcDbEntity
  8
0
100
AcDbBlockBegin
 62
2
  6
CONTINUOUS
  2
*D9
 70
65
 10
0.0
 20
0.0
  3
*D9
  1

  0
MTEXT
  5
303
100
AcDbEntity
  8
0
100
AcDbMText
 62
2
  6
CONTINUOUS
  7
STANDARD
 71
2
 72
1
 10
59.6506074657
 20
25.4155900956
 30
0.0
 11
1.0
 21
0.0
 31
0.0
 44
0.9
  1
90\P[3.5]
 40
0.3472222222
 41
1.4880952381
  0
LINE
  5
304
100
AcDbEntity
  8
0
100
AcDbLine
 62
2
  6
CONTINUOUS
 10
54.6459884312
 20
27.0136325278
 11
60.1515995292
 21
27.0136325278
  0
LINE
  5
305
100
AcDbEntity
  8
0
100
AcDbLine
 62
2
  6
CONTINUOUS
 10
54.6459884312
 20
23.4703254412
 11
60.1515995292
 21
23.4703254412
  0
LINE
  5
306
100
AcDbEntity
  8
0
100
AcDbLine
 62
2
  6
CONTINUOUS
 10
59.8738217514
 20
27.0136325278
 11
59.8738217514
 21
25.5892012067
  0
LINE
  5
307
100
AcDbEntity
  8
0
100
AcDbLine
 62
2
  6
CONTINUOUS
 10
59.8738217514
 20
23.4703254412
 11
59.8738217514
 21
24.373923429
  0
INSERT
  5
308
100
AcDbEntity
  8
0
100
AcDbBlockReference
 62
2
  6
CONTINUOUS
  2
_FILLED
 10
59.8738217514
 20
27.0136325278
 41
0.4166666667
 42
0.4166666667
 43
0.4166666667
 50
90.0
  0
INSERT
  5
309
100
AcDbEntity
  8
0
100
AcDbBlockReference
 62
2
  6
CONTINUOUS
  2
_FILLED
 10
59.8738217514
 20
23.4703254412
 41
0.4166666667
 42
0.4166666667
 43
0.4166666667
 50
270.0
  0
ENDBLK
  5
30A
100
AcDbEntity
  8
0
  6
BYBLOCK
 62
0
100
AcDbBlockEnd
  0
BLOCK
  5
30B
100
AcDbEntity
  8
0
100
AcDbBlockBegin
 62
2
  6
CONTINUOUS
  2
*D10
 70
65
 10
0.0
 20
0.0
  3
*D10
  1

  0
MTEXT
  5
30C
100
AcDbEntity
  8
0
100
AcDbMText
 62
2
  6
CONTINUOUS
  7
STANDARD
 71
2
 72
1
 10
36.9671693545
 20
33.2961012098
 30
0.0
 11
1.0
 21
0.0
 31
0.0
 44
0.9
  1
73\P[2.9]
 40
0.3472222222
 41
1.5625
  0
LINE
  5
30D
100
AcDbEntity
  8
0
100
AcDbLine
 62
2
  6
CONTINUOUS
 10
38.6577041314
 20
31.0593555234
 11
38.6577041314
 21
33.4002678765
  0
LINE
  5
30E
100
AcDbEntity
  8
0
100
AcDbLine
 62
2
  6
CONTINUOUS
 10
35.7974679109
 20
25.6170883458
 11
35.7974679109
 21
33.4002678765
  0
LINE
  5
30F
100
AcDbEntity
  8
0
100
AcDbLine
 62
2
  6
CONTINUOUS
 10
38.6577041314
 20
33.1224900987
 11
37.9220304656
 21
33.1224900987
  0
LINE
  5
310
100
AcDbEntity
  8
0
100
AcDbLine
 62
2
  6
CONTINUOUS
 10
35.7974679109
 20
33.1224900987
 11
36.5331415767
 21
33.1224900987
  0
INSERT
  5
311
100
AcDbEntity
  8
0
100
AcDbBlockReference
 62
2
  6
CONTINUOUS
  2
_FILLED
 10
38.6577041314
 20
33.1224900987
 41
0.4166666667
 42
0.4166666667
 43
0.4166666667
  0
INSERT
  5
312
100
AcDbEntity
  8
0
100
AcDbBlockReference
 62
2
  6
CONTINUOUS
  2
_FILLED
 10
35.7974679109
 20
33.1224900987
 41
0.4166666667
 42
0.4166666667
 43
0.4166666667
 50
180.0
  0
ENDBLK
  5
313
100
AcDbEntity
  8
0
  6
BYBLOCK
 62
0
100
AcDbBlockEnd
  0
BLOCK
  5
314
100
AcDbEntity
  8
0
100
AcDbBlockBegin
 62
2
  6
CONTINUOUS
  2
*D11
 70
65
 10
0.0
 20
0.0
  3
*D11
  1

  0
MTEXT
  5
315
100
AcDbEntity
  8
0
100
AcDbMText
 62
2
  6
CONTINUOUS
  7
STANDARD
 71
2
 72
1
 10
30.2508429036
 20
23.4688381271
 30
0.0
 11
1.0
 21
0.0
 31
0.0
 44
0.9
  1
111\P[4.4]
 40
0.3472222222
 41
1.5625
  0
LINE
  5
316
100
AcDbEntity
  8
0
100
AcDbLine
 62
2
  6
CONTINUOUS
 10
35.658579022
 20
25.4781994569
 11
30.1962794116
 21
25.4781994569
  0
LINE
  5
317
100
AcDbEntity
  8
0
100
AcDbLine
 62
2
  6
CONTINUOUS
 10
32.1152719354
 20
21.1122545751
 11
30.1962794116
 21
21.1122545751
  0
LINE
  5
318
100
AcDbEntity
  8
0
100
AcDbLine
 62
2
  6
CONTINUOUS
 10
30.4740571894
 20
25.4781994569
 11
30.4740571894
 21
23.6424492382
  0
LINE
  5
319
100
AcDbEntity
  8
0
100
AcDbLine
 62
2
  6
CONTINUOUS
 10
30.4740571894
 20
21.1122545751
 11
30.4740571894
 21
22.4271714604
  0
INSERT
  5
31A
100
AcDbEntity
  8
0
100
AcDbBlockReference
 62
2
  6
CONTINUOUS
  2
_FILLED
 10
30.4740571894
 20
25.4781994569
 41
0.4166666667
 42
0.4166666667
 43
0.4166666667
 50
90.0
  0
INSERT
  5
31B
100
AcDbEntity
  8
0
100
AcDbBlockReference
 62
2
  6
CONTINUOUS
  2
_FILLED
 10
30.4740571894
 20
21.1122545751
 41
0.4166666667
 42
0.4166666667
 43
0.4166666667
 50
270.0
  0
ENDBLK
  5
31C
100
AcDbEntity
  8
0
  6
BYBLOCK
 62
0
100
AcDbBlockEnd
  0
BLOCK
  5
31D
100
AcDbEntity
  8
0
100
AcDbBlockBegin
 62
2
  6
CONTINUOUS
  2
*D12
 70
65
 10
0.0
 20
0.0
  3
*D12
  1

  0
MTEXT
  5
31E
100
AcDbEntity
  8
0
100
AcDbMText
 62
2
  6
CONTINUOUS
  7
STANDARD
 71
2
 72
1
 10
38.453185165
 20
18.4976529869
 30
0.0
 11
1.0
 21
0.0
 31
0.0
 44
0.9
  1
142\P[5.6]
 40
0.3472222222
 41
1.525297619
  0
LINE
  5
31F
100
AcDbEntity
  8
0
100
AcDbLine
 62
2
  6
CONTINUOUS
 10
41.3817198794
 20
23.3314365523
 11
41.3817198794
 21
18.046264098
  0
LINE
  5
320
100
AcDbEntity
  8
0
100
AcDbLine
 62
2
  6
CONTINUOUS
 10
35.7974679109
 20
25.3393105681
 11
35.7974679109
 21
18.046264098
  0
LINE
  5
321
100
AcDbEntity
  8
0
100
AcDbLine
 62
2
  6
CONTINUOUS
 10
41.3817198794
 20
18.3240418757
 11
39.271637546
 21
18.3240418757
  0
LINE
  5
322
100
AcDbEntity
  8
0
100
AcDbLine
 62
2
  6
CONTINUOUS
 10
35.7974679109
 20
18.3240418757
 11
37.9075502444
 21
18.3240418757
  0
INSERT
  5
323
100
AcDbEntity
  8
0
100
AcDbBlockReference
 62
2
  6
CONTINUOUS
  2
_FILLED
 10
41.3817198794
 20
18.3240418757
 41
0.4166666667
 42
0.4166666667
 43
0.4166666667
  0
INSERT
  5
324
100
AcDbEntity
  8
0
100
AcDbBlockReference
 62
2
  6
CONTINUOUS
  2
_FILLED
 10
35.7974679109
 20
18.3240418757
 41
0.4166666667
 42
0.4166666667
 43
0.4166666667
 50
180.0
  0
ENDBLK
  5
325
100
AcDbEntity
  8
0
  6
BYBLOCK
 62
0
100
AcDbBlockEnd
  0
BLOCK
  5
326
100
AcDbEntity
  8
0
100
AcDbBlockBegin
 62
2
  6
CONTINUOUS
  2
*D13
 70
65
 10
0.0
 20
0.0
  3
*D13
  1

  0
MTEXT
  5
327
100
AcDbEntity
  8
0
100
AcDbMText
 62
2
  6
CONTINUOUS
  7
STANDARD
 71
1
 72
1
 10
54.7708235864
 20
33.2021115248
 30
0.0
 11
1.0
 21
0.0
 31
0.0
 44
0.9
  1
53\P[2.1]
 40
0.3472222222
 41
1.4508928571
  0
LINE
  5
328
100
AcDbEntity
  8
0
100
AcDbLine
 62
2
  6
CONTINUOUS
 10
52.0907609596
 20
29.4704348025
 11
52.0907609596
 21
33.3062781915
  0
LINE
  5
329
100
AcDbEntity
  8
0
100
AcDbLine
 62
2
  6
CONTINUOUS
 10
54.1675326132
 20
29.4704348025
 11
54.1675326132
 21
33.3062781915
  0
LINE
  5
32A
100
AcDbEntity
  8
0
100
AcDbLine
 62
2
  6
CONTINUOUS
 10
52.0907609596
 20
33.0285004137
 11
53.1291467864
 21
33.0285004137
  0
LINE
  5
32B
100
AcDbEntity
  8
0
100
AcDbLine
 62
2
  6
CONTINUOUS
 10
54.1675326132
 20
33.0285004137
 11
53.1291467864
 21
33.0285004137
  0
LINE
  5
32C
100
AcDbEntity
  8
0
100
AcDbLine
 62
2
  6
CONTINUOUS
 10
53.1291467864
 20
33.0285004137
 11
54.5972124753
 21
33.0285004137
  0
INSERT
  5
32D
100
AcDbEntity
  8
0
100
AcDbBlockReference
 62
2
  6
CONTINUOUS
  2
_FILLED
 10
52.0907609596
 20
33.0285004137
 41
0.4166666667
 42
0.4166666667
 43
0.4166666667
 50
180.0
  0
INSERT
  5
32E
100
AcDbEntity
  8
0
100
AcDbBlockReference
 62
2
  6
CONTINUOUS
  2
_FILLED
 10
54.1675326132
 20
33.0285004137
 41
0.4166666667
 42
0.4166666667
 43
0.4166666667
  0
ENDBLK
  5
32F
100
AcDbEntity
  8
0
  6
BYBLOCK
 62
0
100
AcDbBlockEnd
  0
BLOCK
  5
330
100
AcDbEntity
  8
0
100
AcDbBlockBegin
 62
2
  6
CONTINUOUS
  2
*D14
 70
65
 10
0.0
 20
0.0
  3
*D14
  1

  0
MTEXT
  5
331
100
AcDbEntity
  8
0
100
AcDbMText
 62
2
  6
CONTINUOUS
  7
STANDARD
 71
2
 72
1
 10
48.1291171607
 20
30.5456653439
 30
0.0
 11
1.0
 21
0.0
 31
0.0
 44
0.9
  1
53\P[2.1]
 40
0.3472222222
 41
1.4508928571
  0
LINE
  5
332
100
AcDbEntity
  8
0
100
AcDbLine
 62
2
  6
CONTINUOUS
 10
51.9518720707
 20
29.3315459136
 11
48.0869544623
 21
29.3315459136
  0
LINE
  5
333
100
AcDbEntity
  8
0
100
AcDbLine
 62
2
  6
CONTINUOUS
 10
51.9518720707
 20
27.2547742601
 11
48.0869544623
 21
27.2547742601
  0
LINE
  5
334
100
AcDbEntity
  8
0
100
AcDbLine
 62
2
  6
CONTINUOUS
 10
48.3647322401
 20
29.3315459136
 11
48.3647322401
 21
28.2931600869
  0
LINE
  5
335
100
AcDbEntity
  8
0
100
AcDbLine
 62
2
  6
CONTINUOUS
 10
48.3647322401
 20
28.2931600869
 11
48.3647322401
 21
29.5039986772
  0
LINE
  5
336
100
AcDbEntity
  8
0
100
AcDbLine
 62
2
  6
CONTINUOUS
 10
48.3647322401
 20
27.2547742601
 11
48.3647322401
 21
28.2931600869
  0
INSERT
  5
337
100
AcDbEntity
  8
0
100
AcDbBlockReference
 62
2
  6
CONTINUOUS
  2
_FILLED
 10
48.3647322401
 20
29.3315459136
 41
0.4166666667
 42
0.4166666667
 43
0.4166666667
 50
90.0
  0
INSERT
  5
338
100
AcDbEntity
  8
0
100
AcDbBlockReference
 62
2
  6
CONTINUOUS
  2
_FILLED
 10
48.3647322401
 20
27.2547742601
 41
0.4166666667
 42
0.4166666667
 43
0.4166666667
 50
270.0
  0
ENDBLK
  5
339
100
AcDbEntity
  8
0
  6
BYBLOCK
 62
0
100
AcDbBlockEnd
  0
BLOCK
  5
33A
100
AcDbEntity
  8
0
100
AcDbBlockBegin
 62
2
  6
CONTINUOUS
  2
*D15
 70
65
 10
0.0
 20
0.0
  3
*D15
  1

  0
MTEXT
  5
33B
100
AcDbEntity
  8
0
100
AcDbMText
 62
2
  6
CONTINUOUS
  7
STANDARD
 71
2
 72
1
 10
48.2906996214
 20
24.5465306871
 30
0.0
 11
1.0
 21
0.0
 31
0.0
 44
0.9
  1
156\P[6.1]
 40
0.3472222222
 41
1.4508928571
  0
LINE
  5
33C
100
AcDbEntity
  8
0
100
AcDbLine
 62
2
  6
CONTINUOUS
 10
51.9518720707
 20
27.2547742601
 11
48.1369297802
 21
27.2547742601
  0
LINE
  5
33D
100
AcDbEntity
  8
0
100
AcDbLine
 62
2
  6
CONTINUOUS
 10
50.8906515983
 20
21.1122545751
 11
48.1369297802
 21
21.1122545751
  0
LINE
  5
33E
100
AcDbEntity
  8
0
100
AcDbLine
 62
2
  6
CONTINUOUS
 10
48.414707558
 20
27.2547742601
 11
48.414707558
 21
24.7201417982
  0
LINE
  5
33F
100
AcDbEntity
  8
0
100
AcDbLine
 62
2
  6
CONTINUOUS
 10
48.414707558
 20
21.1122545751
 11
48.414707558
 21
23.5048640204
  0
INSERT
  5
340
100
AcDbEntity
  8
0
100
AcDbBlockReference
 62
2
  6
CONTINUOUS
  2
_FILLED
 10
48.414707558
 20
27.2547742601
 41
0.4166666667
 42
0.4166666667
 43
0.4166666667
 50
90.0
  0
INSERT
  5
341
100
AcDbEntity
  8
0
100
AcDbBlockReference
 62
2
  6
CONTINUOUS
  2
_FILLED
 10
48.414707558
 20
21.1122545751
 41
0.4166666667
 42
0.4166666667
 43
0.4166666667
 50
270.0
  0
ENDBLK
  5
342
100
AcDbEntity
  8
0
  6
BYBLOCK
 62
0
100
AcDbBlockEnd
  0
BLOCK
  5
343
100
AcDbEntity
  8
0
100
AcDbBlockBegin
 62
2
  6
CONTINUOUS
  2
*D16
 70
65
 10
0.0
 20
0.0
  3
*D16
  1

  0
MTEXT
  5
344
100
AcDbEntity
  8
0
100
AcDbMText
 62
2
  6
CONTINUOUS
  7
STANDARD
 71
2
 72
1
 10
10.8050387381
 20
39.9017603483
 30
0.0
 11
1.0
 21
0.0
 31
0.0
 44
0.9
  1
151\P[6.0]
 40
0.3472222222
 41
1.5625
  0
LINE
  5
345
100
AcDbEntity
  8
0
100
AcDbLine
 62
2
  6
CONTINUOUS
 10
16.1096381488
 20
36.7517712844
 11
13.5461417235
 21
36.7517712844
  0
LINE
  5
346
100
AcDbEntity
  8
0
100
AcDbLine
 62
2
  6
CONTINUOUS
 10
13.0513257453
 20
36.7517712844
 11
10.7256736588
 21
36.7517712844
  0
LINE
  5
347
100
AcDbEntity
  8
0
100
AcDbLine
 62
2
  6
CONTINUOUS
 10
14.5460335994
 20
42.7045271899
 11
10.7256736588
 21
42.7045271899
  0
LINE
  5
348
100
AcDbEntity
  8
0
100
AcDbLine
 62
2
  6
CONTINUOUS
 10
11.0034514365
 20
36.7517712844
 11
11.0034514365
 21
38.8600936816
  0
LINE
  5
349
100
AcDbEntity
  8
0
100
AcDbLine
 62
2
  6
CONTINUOUS
 10
11.0034514365
 20
42.7045271899
 11
11.0034514365
 21
40.0753714594
  0
INSERT
  5
34A
100
AcDbEntity
  8
0
100
AcDbBlockReference
 62
2
  6
CONTINUOUS
  2
_FILLED
 10
11.0034514365
 20
36.7517712844
 41
0.4166666667
 42
0.4166666667
 43
0.4166666667
 50
270.0
  0
INSERT
  5
34B
100
AcDbEntity
  8
0
100
AcDbBlockReference
 62
2
  6
CONTINUOUS
  2
_FILLED
 10
11.0034514365
 20
42.7045271899
 41
0.4166666667
 42
0.4166666667
 43
0.4166666667
 50
90.0
  0
ENDBLK
  5
34C
100
AcDbEntity
  8
0
  6
BYBLOCK
 62
0
100
AcDbBlockEnd
  0
ENDSEC
  0
SECTION
  2
ENTITIES
  0
MTEXT
  5
34D
100
AcDbEntity
  8
0
100
AcDbMText
 62
2
  6
CONTINUOUS
  7
STANDARD
 71
1
 72
1
 10
5.4731283216
 20
0.8109259635
 30
0.0
 11
1.0
 21
0.0
 31
0.0
 44
0.9
  1
8
 40
0.3472222222
 41
0.4092261905
  0
MTEXT
  5
34E
100
AcDbEntity
  8
0
100
AcDbMText
 62
2
  6
CONTINUOUS
  7
STANDARD
 71
1
 72
1
 10
14.5009060994
 20
0.8109259635
 30
0.0
 11
1.0
 21
0.0
 31
0.0
 44
0.9
  1
7
 40
0.3472222222
 41
0.4092261905
  0
MTEXT
  5
34F
100
AcDbEntity
  8
0
100
AcDbMText
 62
2
  6
CONTINUOUS
  7
STANDARD
 71
1
 72
1
 10
23.5286838772
 20
0.8109259635
 30
0.0
 11
1.0
 21
0.0
 31
0.0
 44
0.9
  1
6
 40
0.3472222222
 41
0.4092261905
  0
MTEXT
  5
350
100
AcDbEntity
  8
0
100
AcDbMText
 62
2
  6
CONTINUOUS
  7
STANDARD
 71
1
 72
1
 10
32.556461655
 20
0.8109259635
 30
0.0
 11
1.0
 21
0.0
 31
0.0
 44
0.9
  1
5
 40
0.3472222222
 41
0.3720238095
  0
MTEXT
  5
351
100
AcDbEntity
  8
0
100
AcDbMText
 62
2
  6
CONTINUOUS
  7
STANDARD
 71
1
 72
1
 10
41.5842394327
 20
0.8109259635
 30
0.0
 11
1.0
 21
0.0
 31
0.0
 44
0.9
  1
4
 40
0.3472222222
 41
0.4092261905
  0
MTEXT
  5
352
100
AcDbEntity
  8
0
100
AcDbMText
 62
2
  6
CONTINUOUS
  7
STANDARD
 71
1
 72
1
 10
50.6120172105
 20
0.8109259635
 30
0.0
 11
1.0
 21
0.0
 31
0.0
 44
0.9
  1
3
 40
0.3472222222
 41
0.3720238095
  0
MTEXT
  5
353
100
AcDbEntity
  8
0
100
AcDbMText
 62
2
  6
CONTINUOUS
  7
STANDARD
 71
1
 72
1
 10
59.6397949883
 20
0.8109259635
 30
0.0
 11
1.0
 21
0.0
 31
0.0
 44
0.9
  1
2
 40
0.3472222222
 41
0.4092261905
  0
MTEXT
  5
354
100
AcDbEntity
  8
0
100
AcDbMText
 62
2
  6
CONTINUOUS
  7
STANDARD
 71
1
 72
1
 10
68.6675727661
 20
0.8109259635
 30
0.0
 11
1.0
 21
0.0
 31
0.0
 44
0.9
  1
1
 40
0.3472222222
 41
0.2976190476
  0
MTEXT
  5
355
100
AcDbEntity
  8
0
100
AcDbMText
 62
2
  6
CONTINUOUS
  7
STANDARD
 71
1
 72
1
 10
5.4731283216
 20
48.5887037412
 30
0.0
 11
1.0
 21
0.0
 31
0.0
 44
0.9
  1
8
 40
0.3472222222
 41
0.5084325397
  0
MTEXT
  5
356
100
AcDbEntity
  8
0
100
AcDbMText
 62
2
  6
CONTINUOUS
  7
STANDARD
 71
1
 72
1
 10
14.5009060994
 20
48.5887037412
 30
0.0
 11
1.0
 21
0.0
 31
0.0
 44
0.9
  1
7
 40
0.3472222222
 41
0.4092261905
  0
MTEXT
  5
357
100
AcDbEntity
  8
0
100
AcDbMText
 62
2
  6
CONTINUOUS
  7
STANDARD
 71
1
 72
1
 10
23.5286838772
 20
48.5887037412
 30
0.0
 11
1.0
 21
0.0
 31
0.0
 44
0.9
  1
6
 40
0.3472222222
 41
0.4092261905
  0
MTEXT
  5
358
100
AcDbEntity
  8
0
100
AcDbMText
 62
2
  6
CONTINUOUS
  7
STANDARD
 71
1
 72
1
 10
32.556461655
 20
48.5887037412
 30
0.0
 11
1.0
 21
0.0
 31
0.0
 44
0.9
  1
5
 40
0.3472222222
 41
0.3720238095
  0
MTEXT
  5
359
100
AcDbEntity
  8
0
100
AcDbMText
 62
2
  6
CONTINUOUS
  7
STANDARD
 71
1
 72
1
 10
41.5842394327
 20
48.5887037412
 30
0.0
 11
1.0
 21
0.0
 31
0.0
 44
0.9
  1
4
 40
0.3472222222
 41
0.4092261905
  0
MTEXT
  5
35A
100
AcDbEntity
  8
0
100
AcDbMText
 62
2
  6
CONTINUOUS
  7
STANDARD
 71
1
 72
1
 10
50.6120172105
 20
48.5887037412
 30
0.0
 11
1.0
 21
0.0
 31
0.0
 44
0.9
  1
3
 40
0.3472222222
 41
0.3720238095
  0
MTEXT
  5
35B
100
AcDbEntity
  8
0
100
AcDbMText
 62
2
  6
CONTINUOUS
  7
STANDARD
 71
1
 72
1
 10
59.6397949883
 20
48.5887037412
 30
0.0
 11
1.0
 21
0.0
 31
0.0
 44
0.9
  1
2
 40
0.3472222222
 41
0.4092261905
  0
MTEXT
  5
35C
100
AcDbEntity
  8
0
100
AcDbMText
 62
2
  6
CONTINUOUS
  7
STANDARD
 71
1
 72
1
 10
68.6675727661
 20
48.5887037412
 30
0.0
 11
1.0
 21
0.0
 31
0.0
 44
0.9
  1
1
 40
0.3472222222
 41
0.2976190476
  0
MTEXT
  5
35D
100
AcDbEntity
  8
0
100
AcDbMText
 62
2
  6
CONTINUOUS
  7
STANDARD
 71
1
 72
1
 10
0.440487354
 20
7.1544221094
 30
0.0
 11
1.0
 21
0.0
 31
0.0
 44
0.9
  1
A
 40
0.3472222222
 41
0.4464285714
  0
MTEXT
  5
35E
100
AcDbEntity
  8
0
100
AcDbMText
 62
2
  6
CONTINUOUS
  7
STANDARD
 71
1
 72
1
 10
0.440487354
 20
18.8210887761
 30
0.0
 11
1.0
 21
0.0
 31
0.0
 44
0.9
  1
B
 40
0.3472222222
 41
0.4092261905
  0
MTEXT
  5
35F
100
AcDbEntity
  8
0
100
AcDbMText
 62
2
  6
CONTINUOUS
  7
STANDARD
 71
1
 72
1
 10
0.440487354
 20
30.4877554427
 30
0.0
 11
1.0
 21
0.0
 31
0.0
 44
0.9
  1
C
 40
0.3472222222
 41
0.4340277778
  0
MTEXT
  5
360
100
AcDbEntity
  8
0
100
AcDbMText
 62
2
  6
CONTINUOUS
  7
STANDARD
 71
1
 72
1
 10
0.440487354
 20
42.1544221094
 30
0.0
 11
1.0
 21
0.0
 31
0.0
 44
0.9
  1
D
 40
0.3472222222
 41
0.4712301587
  0
MTEXT
  5
361
100
AcDbEntity
  8
0
100
AcDbMText
 62
2
  6
CONTINUOUS
  7
STANDARD
 71
1
 72
1
 10
73.7738206873
 20
7.1544221094
 30
0.0
 11
1.0
 21
0.0
 31
0.0
 44
0.9
  1
A
 40
0.3472222222
 41
0.4464285714
  0
MTEXT
  5
362
100
AcDbEntity
  8
0
100
AcDbMText
 62
2
  6
CONTINUOUS
  7
STANDARD
 71
1
 72
1
 10
73.7738206873
 20
18.8210887761
 30
0.0
 11
1.0
 21
0.0
 31
0.0
 44
0.9
  1
B
 40
0.3472222222
 41
0.4092261905
  0
MTEXT
  5
363
100
AcDbEntity
  8
0
100
AcDbMText
 62
2
  6
CONTINUOUS
  7
STANDARD
 71
1
 72
1
 10
73.7738206873
 20
30.4877554427
 30
0.0
 11
1.0
 21
0.0
 31
0.0
 44
0.9
  1
C
 40
0.3472222222
 41
0.4340277778
  0
MTEXT
  5
364
100
AcDbEntity
  8
0
100
AcDbMText
 62
2
  6
CONTINUOUS
  7
STANDARD
 71
1
 72
1
 10
73.7738206873
 20
42.1544221094
 30
0.0
 11
1.0
 21
0.0
 31
0.0
 44
0.9
  1
D
 40
0.3472222222
 41
0.4712301587
  0
MTEXT
  5
365
100
AcDbEntity
  8
0
100
AcDbMText
 62
5
  6
CONTINUOUS
  7
STANDARD
 71
1
 72
1
 10
1.2584213569
 20
47.6804047009
 30
0.0
 11
1.0
 21
0.0
 31
0.0
 44
0.9
  1
THIS DOCUMENT CONTAINS PROPRIETARY INFORMATION\PWHICH IS THE PROPERTY OF QSC AUDIO PRODUCTS, THAT\PMAY NOT BE DISCLOSED, REPRODUCED OR USED WITHOUT\PEXPRESS WRITTEN CONSENT FROM QSC AUDIO PRODUCTS.
 40
0.1666666667
 41
9.8095238095
  0
MTEXT
  5
366
100
AcDbEntity
  8
0
100
AcDbMText
 62
2
  6
CONTINUOUS
  7
STANDARD
 71
2
 72
1
 10
53.8873646786
 20
6.6183499229
 30
0.0
 11
1.0
 21
0.0
 31
0.0
 44
0.9
  1
UNLESS OTHERWISE SPECIFIED\PDIMENSIONS IN MILLIMETERS [IN]
 40
0.2222222222
 41
7.3015873016
  0
MTEXT
  5
367
100
AcDbEntity
  8
0
100
AcDbMText
 62
2
  6
CONTINUOUS
  7
STANDARD
 71
2
 72
1
 10
53.8554383982
 20
5.7599677747
 30
0.0
 11
1.0
 21
0.0
 31
0.0
 44
0.9
  1
TOLERANCES ARE:
 40
0.2
 41
3.4357142857
  0
MTEXT
  5
368
100
AcDbEntity
  8
0
100
AcDbMText
 62
2
  6
CONTINUOUS
  7
STANDARD
 71
2
 72
1
 10
52.2206147575
 20
5.2526790505
 30
0.0
 11
1.0
 21
0.0
 31
0.0
 44
0.9
  1
DECIMALS\P.X\Fgdt;{\Fgdt;`}\Ftxt;.5[.02]
 40
0.2
 41
2.0642857143
  0
MTEXT
  5
369
100
AcDbEntity
  8
0
100
AcDbMText
 62
2
  6
CONTINUOUS
  7
STANDARD
 71
2
 72
1
 10
54.1666666667
 20
5.2388888889
 30
0.0
 11
1.0
 21
0.0
 31
0.0
 44
0.9
  1
DECIMALS\P.XX\Fgdt;{\Fgdt;`}\Ftxt;.25[.010]
 40
0.2
 41
2.7285714286
  0
MTEXT
  5
36A
100
AcDbEntity
  8
0
100
AcDbMText
 62
2
  6
CONTINUOUS
  7
STANDARD
 71
2
 72
1
 10
55.8428822097
 20
5.2500015436
 30
0.0
 11
1.0
 21
0.0
 31
0.0
 44
0.9
  1
ANGLES\P\Fgdt;{\Fgdt;`}\Ftxt; 1/2
 40
0.2
 41
1.4285714286
  0
MTEXT
  5
36B
100
AcDbEntity
  8
0
100
AcDbMText
 62
2
  6
CONTINUOUS
  7
STANDARD
 71
2
 72
1
 10
53.8888888889
 20
4.4055555556
 30
0.0
 11
1.0
 21
0.0
 31
0.0
 44
0.9
  1
DEBURR EDGES .25 [.010] R MAX
 40
0.2
 41
6.5357142857
  0
MTEXT
  5
36C
100
AcDbEntity
  8
0
100
AcDbMText
 62
2
  6
CONTINUOUS
  7
STANDARD
 71
2
 72
1
 10
52.1309432907
 20
3.7471553724
 30
0.0
 11
1.0
 21
0.0
 31
0.0
 44
0.9
  1
MATERIAL
 40
0.2
 41
1.9214285714
  0
MTEXT
  5
36D
100
AcDbEntity
  8
0
100
AcDbMText
 62
2
  6
CONTINUOUS
  7
STANDARD
 71
2
 72
1
 10
51.9180882578
 20
2.393659171
 30
0.0
 11
1.0
 21
0.0
 31
0.0
 44
0.9
  1
FINISH
 40
0.2
 41
1.3642857143
  0
MTEXT
  5
36E
100
AcDbEntity
  8
0
100
AcDbMText
 62
2
  6
CONTINUOUS
  7
STANDARD
 71
2
 72
1
 10
67.266205144
 20
1.5131168039
 30
0.0
 11
1.0
 21
0.0
 31
0.0
 44
0.9
  1
DO NOT SCALE DRAWING
 40
0.2777777778
 41
6.9246031746
  0
MTEXT
  5
36F
100
AcDbEntity
  8
0
100
AcDbMText
 62
2
  6
CONTINUOUS
  7
STANDARD
 71
2
 72
1
 10
57.1578592095
 20
6.686524707
 30
0.0
 11
1.0
 21
0.0
 31
0.0
 44
0.9
  1
DESIGNER
 40
0.2
 41
1.8928571429
  0
MTEXT
  5
370
100
AcDbEntity
  8
0
100
AcDbMText
 62
2
  6
CONTINUOUS
  7
STANDARD
 71
2
 72
1
 10
57.0796473314
 20
5.5479999675
 30
0.0
 11
1.0
 21
0.0
 31
0.0
 44
0.9
  1
ENGINEER
 40
0.2
 41
1.8357142857
  0
MTEXT
  5
371
100
AcDbEntity
  8
0
100
AcDbMText
 62
2
  6
CONTINUOUS
  7
STANDARD
 71
2
 72
1
 10
57.9329839491
 20
4.388055843
 30
0.0
 11
1.0
 21
0.0
 31
0.0
 44
0.9
  1
TECHNICAL DIRECTOR
 40
0.2
 41
4.2714285714
  0
MTEXT
  5
372
100
AcDbEntity
  8
0
100
AcDbMText
 62
2
  6
CONTINUOUS
  7
STANDARD
 71
2
 72
1
 10
58.2292472866
 20
3.2273598395
 30
0.0
 11
1.0
 21
0.0
 31
0.0
 44
0.9
  1
MANUFACTURING ENGINEER
 40
0.2
 41
5.1714285714
  0
MTEXT
  5
373
100
AcDbEntity
  8
0
100
AcDbMText
 62
2
  6
CONTINUOUS
  7
STANDARD
 71
2
 72
1
 10
57.6811633342
 20
1.5022277086
 30
0.0
 11
1.0
 21
0.0
 31
0.0
 44
0.9
  1
MODEL INFO:
 40
0.2
 41
2.45
  0
MTEXT
  5
374
100
AcDbEntity
  8
0
100
AcDbMText
 62
2
  6
CONTINUOUS
  7
STANDARD
 71
2
 72
1
 10
57.4752242073
 20
2.0408023144
 30
0.0
 11
1.0
 21
0.0
 31
0.0
 44
0.9
  1
DRAWING INFO:
 40
0.2
 41
3.1142857143
  0
MTEXT
  5
375
100
AcDbEntity
  8
0
100
AcDbMText
 62
2
  6
CONTINUOUS
  7
STANDARD
 71
2
 72
1
 10
62.7541435142
 20
1.4822674005
 30
0.0
 11
1.0
 21
0.0
 31
0.0
 44
0.9
  1
SCALE:
 40
0.2
 41
1.3142857143
  0
MTEXT
  5
376
100
AcDbEntity
  8
0
100
AcDbMText
 62
2
  6
CONTINUOUS
  7
STANDARD
 71
2
 72
1
 10
70.2583171873
 20
1.4859575256
 30
0.0
 11
1.0
 21
0.0
 31
0.0
 44
0.9
  1
SHEET
 40
0.2
 41
1.2142857143
  0
MTEXT
  5
377
100
AcDbEntity
  8
0
100
AcDbMText
 62
2
  6
CONTINUOUS
  7
STANDARD
 71
2
 72
1
 10
62.7599543351
 20
2.6896214829
 30
0.0
 11
1.0
 21
0.0
 31
0.0
 44
0.9
  1
SIZE
 40
0.2
 41
0.9357142857
  0
MTEXT
  5
378
100
AcDbEntity
  8
0
100
AcDbMText
 62
2
  6
CONTINUOUS
  7
STANDARD
 71
2
 72
1
 10
64.4082169082
 20
2.6920365402
 30
0.0
 11
1.0
 21
0.0
 31
0.0
 44
0.9
  1
CAGE CODE
 40
0.2
 41
2.2214285714
  0
MTEXT
  5
379
100
AcDbEntity
  8
0
100
AcDbMText
 62
2
  6
CONTINUOUS
  7
STANDARD
 71
2
 72
1
 10
66.5354438845
 20
2.6874065905
 30
0.0
 11
1.0
 21
0.0
 31
0.0
 44
0.9
  1
DRAWING NO.
 40
0.2
 41
2.7714285714
  0
MTEXT
  5
37A
100
AcDbEntity
  8
0
100
AcDbMText
 62
2
  6
CONTINUOUS
  7
STANDARD
 71
2
 72
1
 10
72.8047392432
 20
2.6903864593
 30
0.0
 11
1.0
 21
0.0
 31
0.0
 44
0.9
  1
REV
 40
0.2
 41
0.7571428571
  0
MTEXT
  5
37B
100
AcDbEntity
  8
0
100
AcDbMText
 62
2
  6
CONTINUOUS
  7
STANDARD
 71
2
 72
1
 10
69.6313248071
 20
6.6384409649
 30
0.0
 11
1.0
 21
0.0
 31
0.0
 44
0.9
  1
QSC AUDIO PRODUCTS, LLC
 40
0.3472222222
 41
9.4866071429
  0
MTEXT
  5
37C
100
AcDbEntity
  8
0
100
AcDbMText
 62
2
  6
CONTINUOUS
  7
STANDARD
 71
1
 72
1
 10
66.471405364
 20
6.1206448086
 30
0.0
 11
1.0
 21
0.0
 31
0.0
 44
0.9
  1
1675  MACARTHUR BOULEVARD\PCOSTA MESA, CA  92626
 40
0.2777777778
 41
8.2936507937
  0
MTEXT
  5
37D
100
AcDbEntity
  8
0
100
AcDbMText
 62
2
  6
CONTINUOUS
  7
STANDARD
 71
1
 72
1
 10
63.6224633087
 20
2.2139477595
 30
0.0
 11
1.0
 21
0.0
 31
0.0
 44
0.9
  1
00PW4
 40
0.3472222222
 41
2.4429563492
  0
INSERT
  5
37E
100
AcDbEntity
  8
0
100
AcDbBlockReference
 62
7
  6
CONTINUOUS
  2
SYMBOL_0_BL0
 10
64.1973784418
 20
6.0024681448
  0
DIMENSION
  5
37F
100
AcDbEntity
  8
0
100
AcDbDimension
 62
2
  6
CONTINUOUS
  2
*D0
 10
22.3242676305
 20
21.1122545751
 11
22.3242676305
 21
26.0642394832
 70
160
 71
2
 42
264.79
  3
DIMSTYLE_1
100
AcDbAlignedDimension
 13
18.7294216134
 23
31.5370577247
 14
18.7294216134
 24
21.1122545751
 50
270.0
100
AcDbRotatedDimension
  0
DIMENSION
  5
380
100
AcDbEntity
  8
0
100
AcDbDimension
 62
2
  6
CONTINUOUS
  2
*D1
 10
13.3345287875
 20
34.2350059986
 11
16.5534264253
 21
33.9745893319
 70
160
 71
2
 42
163.52
  3
DIMSTYLE_1
100
AcDbAlignedDimension
 13
19.7723240631
 23
37.5190831829
 14
13.3345287875
 24
37.5190831829
 50
180.0
100
AcDbRotatedDimension
  0
DIMENSION
  5
381
100
AcDbEntity
  8
0
100
AcDbDimension
 62
2
  6
CONTINUOUS
  2
*D2
 10
21.6711364646
 20
42.7045271899
 11
21.6711364646
 21
39.2423388697
 70
160
 71
2
 42
162.65
  3
DIMSTYLE_1
100
AcDbAlignedDimension
 13
18.7294216134
 23
36.3009838828
 14
18.4983192512
 24
42.7045271899
 50
90.0
100
AcDbRotatedDimension
  0
DIMENSION
  5
382
100
AcDbEntity
  8
0
100
AcDbDimension
 62
2
  6
CONTINUOUS
  2
*D3
 10
32.2541608243
 20
16.7456851843
 11
36.8179403519
 21
16.4852685177
 70
160
 71
2
 42
231.84
  3
DIMSTYLE_1
100
AcDbAlignedDimension
 13
41.3817198794
 23
23.3939365523
 14
32.2541608243
 24
21.0358656862
 50
180.0
100
AcDbRotatedDimension
  0
DIMENSION
  5
383
100
AcDbEntity
  8
0
100
AcDbDimension
 62
2
  6
CONTINUOUS
  2
*D4
 10
38.6577041314
 20
19.9874646119
 11
40.0197120054
 21
19.7270479453
 70
160
 71
2
 42
69.19
  3
DIMSTYLE_1
100
AcDbAlignedDimension
 13
41.3817198794
 23
23.3939365523
 14
38.6577041314
 24
21.6524567763
 50
180.0
100
AcDbRotatedDimension
  0
DIMENSION
  5
384
100
AcDbEntity
  8
0
100
AcDbDimension
 62
2
  6
CONTINUOUS
  2
*D5
 10
11.5564461947
 20
17.9217889502
 11
11.5564461947
 21
14.6849943308
 70
160
 71
2
 42
151.2
  3
DIMSTYLE_1
100
AcDbAlignedDimension
 13
14.6085335994
 23
11.9690330447
 14
16.05124926
 24
17.9217889502
 50
90.0
100
AcDbRotatedDimension
  0
DIMENSION
  5
385
100
AcDbEntity
  8
0
100
AcDbDimension
 62
2
  6
CONTINUOUS
  2
*D6
 10
58.1540803708
 20
23.8640262286
 11
58.1540803708
 21
24.9815623178
 70
160
 71
2
 42
70.0
  3
DIMSTYLE_1
100
AcDbAlignedDimension
 13
53.4019801197
 23
26.6199317404
 14
53.3944245642
 24
23.8640262286
 50
270.0
100
AcDbRotatedDimension
  0
DIMENSION
  5
386
100
AcDbEntity
  8
0
100
AcDbDimension
 62
2
  6
CONTINUOUS
  2
*D7
 10
54.1330837943
 20
20.1069522358
 11
56.0305753197
 21
19.8465355692
 70
160
 71
1
 42
51.0
  3
DIMSTYLE_1
100
AcDbAlignedDimension
 13
52.1252097785
 23
24.9705166607
 14
54.1330837943
 24
24.9269142851
100
AcDbRotatedDimension
  0
DIMENSION
  5
387
100
AcDbEntity
  8
0
100
AcDbDimension
 62
2
  6
CONTINUOUS
  2
*D8
 10
51.7511940305
 20
18.554776989
 11
53.1291467864
 21
18.2943603224
 70
160
 71
2
 42
70.0
  3
DIMSTYLE_1
100
AcDbAlignedDimension
 13
54.5070995423
 23
23.3939365523
 14
51.7511940305
 24
23.3939365523
 50
180.0
100
AcDbRotatedDimension
  0
DIMENSION
  5
388
100
AcDbEntity
  8
0
100
AcDbDimension
 62
2
  6
CONTINUOUS
  2
*D9
 10
59.8738217514
 20
23.4703254412
 11
59.8738217514
 21
24.9815623178
 70
160
 71
2
 42
90.0
  3
DIMSTYLE_1
100
AcDbAlignedDimension
 13
54.5834884312
 23
27.0136325278
 14
54.5834884312
 24
23.4703254412
 50
270.0
100
AcDbRotatedDimension
  0
DIMENSION
  5
389
100
AcDbEntity
  8
0
100
AcDbDimension
 62
2
  6
CONTINUOUS
  2
*D10
 10
35.7974679109
 20
33.1224900987
 11
37.2275860212
 21
32.862073432
 70
160
 71
2
 42
72.65
  3
DIMSTYLE_1
100
AcDbAlignedDimension
 13
38.6577041314
 23
30.9968555234
 14
35.7974679109
 24
25.5545883458
 50
180.0
100
AcDbRotatedDimension
  0
DIMENSION
  5
38A
100
AcDbEntity
  8
0
100
AcDbDimension
 62
2
  6
CONTINUOUS
  2
*D11
 10
30.4740571894
 20
21.1122545751
 11
30.4740571894
 21
23.0348103493
 70
160
 71
2
 42
110.895
  3
DIMSTYLE_1
100
AcDbAlignedDimension
 13
35.721079022
 23
25.4781994569
 14
32.1777719354
 24
21.1122545751
 50
270.0
100
AcDbRotatedDimension
  0
DIMENSION
  5
38B
100
AcDbEntity
  8
0
100
AcDbDimension
 62
2
  6
CONTINUOUS
  2
*D12
 10
35.7974679109
 20
18.3240418757
 11
38.5895938952
 21
18.0636252091
 70
160
 71
2
 42
141.84
  3
DIMSTYLE_1
100
AcDbAlignedDimension
 13
41.3817198794
 23
23.3939365523
 14
35.7974679109
 24
25.4018105681
 50
180.0
100
AcDbRotatedDimension
  0
DIMENSION
  5
38C
100
AcDbEntity
  8
0
100
AcDbDimension
 62
2
  6
CONTINUOUS
  2
*D13
 10
54.1675326132
 20
33.0285004137
 11
55.2544545388
 21
32.768083747
 70
160
 71
1
 42
52.75
  3
DIMSTYLE_1
100
AcDbAlignedDimension
 13
52.0907609596
 23
29.4079348025
 14
54.1675326132
 24
29.4079348025
100
AcDbRotatedDimension
  0
DIMENSION
  5
38D
100
AcDbEntity
  8
0
100
AcDbDimension
 62
2
  6
CONTINUOUS
  2
*D14
 10
48.3647322401
 20
27.2547742601
 11
48.3647322401
 21
30.1116375661
 70
160
 71
2
 42
52.75
  3
DIMSTYLE_1
100
AcDbAlignedDimension
 13
52.0143720707
 23
29.3315459136
 14
52.0143720707
 24
27.2547742601
 50
270.0
100
AcDbRotatedDimension
  0
DIMENSION
  5
38E
100
AcDbEntity
  8
0
100
AcDbDimension
 62
2
  6
CONTINUOUS
  2
*D15
 10
48.414707558
 20
21.1122545751
 11
48.414707558
 21
24.1125029093
 70
160
 71
2
 42
156.02
  3
DIMSTYLE_1
100
AcDbAlignedDimension
 13
52.0143720707
 23
27.2547742601
 14
50.9531515983
 24
21.1122545751
 50
270.0
100
AcDbRotatedDimension
  0
DIMENSION
  5
38F
100
AcDbEntity
  8
0
100
AcDbDimension
 62
2
  6
CONTINUOUS
  2
*D16
 10
11.0034514365
 20
42.7045271899
 11
11.0034514365
 21
39.4677325705
 70
160
 71
2
 42
151.2
  3
DIMSTYLE_1
100
AcDbAlignedDimension
 13
16.1721381488
 23
36.7517712844
 14
14.6085335994
 24
42.7045271899
 50
90.0
100
AcDbRotatedDimension
  0
LINE
  5
390
100
AcDbEntity
  8
0
100
AcDbLine
 62
2
  6
CONTINUOUS
 10
51.3888888889
 20
3.8888888889
 11
56.3888888889
 21
3.8888888889
  0
LINE
  5
391
100
AcDbEntity
  8
0
100
AcDbLine
 62
2
  6
CONTINUOUS
 10
51.3888888889
 20
3.8888888889
 11
51.3888888889
 21
2.5
  0
LINE
  5
392
100
AcDbEntity
  8
0
100
AcDbLine
 62
2
  6
CONTINUOUS
 10
51.3888888889
 20
2.5
 11
56.3888888889
 21
2.5
  0
LINE
  5
393
100
AcDbEntity
  8
0
100
AcDbLine
 62
2
  6
CONTINUOUS
 10
56.3888888889
 20
3.8888888889
 11
56.3888888889
 21
2.5
  0
LINE
  5
394
100
AcDbEntity
  8
0
100
AcDbLine
 62
2
  6
CONTINUOUS
 10
51.3888888889
 20
2.5
 11
56.3888888889
 21
2.5
  0
LINE
  5
395
100
AcDbEntity
  8
0
100
AcDbLine
 62
2
  6
CONTINUOUS
 10
51.3888888889
 20
2.5
 11
51.3888888889
 21
1.1111111111
  0
LINE
  5
396
100
AcDbEntity
  8
0
100
AcDbLine
 62
2
  6
CONTINUOUS
 10
51.3888888889
 20
1.1111111111
 11
56.3888888889
 21
1.1111111111
  0
LINE
  5
397
100
AcDbEntity
  8
0
100
AcDbLine
 62
2
  6
CONTINUOUS
 10
56.3888888889
 20
2.5
 11
56.3888888889
 21
1.1111111111
  0
LINE
  5
398
100
AcDbEntity
  8
0
100
AcDbLine
 62
2
  6
CONTINUOUS
 10
56.3882466348
 20
6.803880921
 11
62.2215799681
 21
6.803880921
  0
LINE
  5
399
100
AcDbEntity
  8
0
100
AcDbLine
 62
2
  6
CONTINUOUS
 10
56.3882466348
 20
6.803880921
 11
56.3882466348
 21
5.6705475877
  0
LINE
  5
39A
100
AcDbEntity
  8
0
100
AcDbLine
 62
2
  6
CONTINUOUS
 10
56.3882466348
 20
5.6705475877
 11
62.2215799681
 21
5.6705475877
  0
LINE
  5
39B
100
AcDbEntity
  8
0
100
AcDbLine
 62
2
  6
CONTINUOUS
 10
62.2215799681
 20
6.803880921
 11
62.2215799681
 21
5.6705475877
  0
MTEXT
  5
39C
100
AcDbEntity
  8
0
100
AcDbMText
 62
2
  6
CONTINUOUS
  7
STANDARD
 71
1
 72
1
 10
56.5271355237
 20
6.191380921
 30
0.0
 11
1.0
 21
0.0
 31
0.0
 44
0.9
  1
ENG. SERVICES
 40
0.3472222222
 41
5.1711309524
  0
LINE
  5
39D
100
AcDbEntity
  8
0
100
AcDbLine
 62
2
  6
CONTINUOUS
 10
56.3888888889
 20
5.6580811965
 11
62.2222222222
 21
5.6580811965
  0
LINE
  5
39E
100
AcDbEntity
  8
0
100
AcDbLine
 62
2
  6
CONTINUOUS
 10
56.3888888889
 20
5.6580811965
 11
56.3888888889
 21
4.5247478632
  0
LINE
  5
39F
100
AcDbEntity
  8
0
100
AcDbLine
 62
2
  6
CONTINUOUS
 10
56.3888888889
 20
4.5247478632
 11
62.2222222222
 21
4.5247478632
  0
LINE
  5
3A0
100
AcDbEntity
  8
0
100
AcDbLine
 62
2
  6
CONTINUOUS
 10
62.2222222222
 20
5.6580811965
 11
62.2222222222
 21
4.5247478632
  0
MTEXT
  5
3A1
100
AcDbEntity
  8
0
100
AcDbMText
 62
2
  6
CONTINUOUS
  7
STANDARD
 71
1
 72
1
 10
56.5277777778
 20
5.0455811965
 30
0.0
 11
1.0
 21
0.0
 31
0.0
 44
0.9
  1
N/A
 40
0.3472222222
 41
1.3516865079
  0
LINE
  5
3A2
100
AcDbEntity
  8
0
100
AcDbLine
 62
2
  6
CONTINUOUS
 10
56.3888888889
 20
4.4973322479
 11
62.2222222222
 21
4.4973322479
  0
LINE
  5
3A3
100
AcDbEntity
  8
0
100
AcDbLine
 62
2
  6
CONTINUOUS
 10
56.3888888889
 20
4.4973322479
 11
56.3888888889
 21
3.3639989146
  0
LINE
  5
3A4
100
AcDbEntity
  8
0
100
AcDbLine
 62
2
  6
CONTINUOUS
 10
56.3888888889
 20
3.3639989146
 11
62.2222222222
 21
3.3639989146
  0
LINE
  5
3A5
100
AcDbEntity
  8
0
100
AcDbLine
 62
2
  6
CONTINUOUS
 10
62.2222222222
 20
4.4973322479
 11
62.2222222222
 21
3.3639989146
  0
MTEXT
  5
3A6
100
AcDbEntity
  8
0
100
AcDbMText
 62
2
  6
CONTINUOUS
  7
STANDARD
 71
1
 72
1
 10
56.5277777778
 20
3.8848322479
 30
0.0
 11
1.0
 21
0.0
 31
0.0
 44
0.9
  1
N/A
 40
0.3472222222
 41
1.3516865079
  0
LINE
  5
3A7
100
AcDbEntity
  8
0
100
AcDbLine
 62
2
  6
CONTINUOUS
 10
56.3888888889
 20
3.3332568935
 11
62.2222222222
 21
3.3332568935
  0
LINE
  5
3A8
100
AcDbEntity
  8
0
100
AcDbLine
 62
2
  6
CONTINUOUS
 10
56.3888888889
 20
3.3332568935
 11
56.3888888889
 21
2.1999235602
  0
LINE
  5
3A9
100
AcDbEntity
  8
0
100
AcDbLine
 62
2
  6
CONTINUOUS
 10
56.3888888889
 20
2.1999235602
 11
62.2222222222
 21
2.1999235602
  0
LINE
  5
3AA
100
AcDbEntity
  8
0
100
AcDbLine
 62
2
  6
CONTINUOUS
 10
62.2222222222
 20
3.3332568935
 11
62.2222222222
 21
2.1999235602
  0
MTEXT
  5
3AB
100
AcDbEntity
  8
0
100
AcDbMText
 62
2
  6
CONTINUOUS
  7
STANDARD
 71
1
 72
1
 10
56.5277777778
 20
2.7207568935
 30
0.0
 11
1.0
 21
0.0
 31
0.0
 44
0.9
  1
N/A
 40
0.3472222222
 41
1.3516865079
  0
LINE
  5
3AC
100
AcDbEntity
  8
0
100
AcDbLine
 62
2
  6
CONTINUOUS
 10
56.3888888889
 20
2.2222222222
 11
62.2222222222
 21
2.2222222222
  0
LINE
  5
3AD
100
AcDbEntity
  8
0
100
AcDbLine
 62
2
  6
CONTINUOUS
 10
56.3888888889
 20
2.2222222222
 11
56.3888888889
 21
1.6666666667
  0
LINE
  5
3AE
100
AcDbEntity
  8
0
100
AcDbLine
 62
2
  6
CONTINUOUS
 10
56.3888888889
 20
1.6666666667
 11
62.2222222222
 21
1.6666666667
  0
LINE
  5
3AF
100
AcDbEntity
  8
0
100
AcDbLine
 62
2
  6
CONTINUOUS
 10
62.2222222222
 20
2.2222222222
 11
62.2222222222
 21
1.6666666667
  0
MTEXT
  5
3B0
100
AcDbEntity
  8
0
100
AcDbMText
 62
2
  6
CONTINUOUS
  7
STANDARD
 71
3
 72
1
 10
62.0833333333
 20
2.0847222222
 30
0.0
 11
1.0
 21
0.0
 31
0.0
 44
0.9
  1
FG-020004-2D.A.1
 40
0.2444444444
 41
4.3650793651
  0
LINE
  5
3B1
100
AcDbEntity
  8
0
100
AcDbLine
 62
2
  6
CONTINUOUS
 10
56.3888888889
 20
1.6666666667
 11
62.2222222222
 21
1.6666666667
  0
LINE
  5
3B2
100
AcDbEntity
  8
0
100
AcDbLine
 62
2
  6
CONTINUOUS
 10
56.3888888889
 20
1.6666666667
 11
56.3888888889
 21
1.1111111111
  0
LINE
  5
3B3
100
AcDbEntity
  8
0
100
AcDbLine
 62
2
  6
CONTINUOUS
 10
56.3888888889
 20
1.1111111111
 11
62.2222222222
 21
1.1111111111
  0
LINE
  5
3B4
100
AcDbEntity
  8
0
100
AcDbLine
 62
2
  6
CONTINUOUS
 10
62.2222222222
 20
1.6666666667
 11
62.2222222222
 21
1.1111111111
  0
MTEXT
  5
3B5
100
AcDbEntity
  8
0
100
AcDbMText
 62
2
  6
CONTINUOUS
  7
STANDARD
 71
3
 72
1
 10
62.0833333333
 20
1.5291666667
 30
0.0
 11
1.0
 21
0.0
 31
0.0
 44
0.9
  1
FG-020004-3D.A.0
 40
0.2444444444
 41
4.4174603175
  0
LINE
  5
3B6
100
AcDbEntity
  8
0
100
AcDbLine
 62
2
  6
CONTINUOUS
 10
62.2222222222
 20
5.2777777778
 11
73.3333333333
 21
5.2777777778
  0
LINE
  5
3B7
100
AcDbEntity
  8
0
100
AcDbLine
 62
2
  6
CONTINUOUS
 10
62.2222222222
 20
5.2777777778
 11
62.2222222222
 21
2.7777777778
  0
LINE
  5
3B8
100
AcDbEntity
  8
0
100
AcDbLine
 62
2
  6
CONTINUOUS
 10
62.2222222222
 20
2.7777777778
 11
73.3333333333
 21
2.7777777778
  0
LINE
  5
3B9
100
AcDbEntity
  8
0
100
AcDbLine
 62
2
  6
CONTINUOUS
 10
73.3333333333
 20
5.2777777778
 11
73.3333333333
 21
2.7777777778
  0
MTEXT
  5
3BA
100
AcDbEntity
  8
0
100
AcDbMText
 62
2
  6
CONTINUOUS
  7
STANDARD
 71
2
 72
1
 10
67.7777777778
 20
4.7055555556
 30
0.0
 11
1.0
 21
0.0
 31
0.0
 44
1.02
  1
SPEAKER FINISHED,\PAD S4T
 40
0.4444444444
 41
8.5079365079
  0
LINE
  5
3BB
100
AcDbEntity
  8
0
100
AcDbLine
 62
2
  6
CONTINUOUS
 10
62.2246495621
 20
2.7732010389
 11
63.3357606732
 21
2.7732010389
  0
LINE
  5
3BC
100
AcDbEntity
  8
0
100
AcDbLine
 62
2
  6
CONTINUOUS
 10
62.2246495621
 20
2.7732010389
 11
62.2246495621
 21
1.6620899278
  0
LINE
  5
3BD
100
AcDbEntity
  8
0
100
AcDbLine
 62
2
  6
CONTINUOUS
 10
62.2246495621
 20
1.6620899278
 11
63.3357606732
 21
1.6620899278
  0
LINE
  5
3BE
100
AcDbEntity
  8
0
100
AcDbLine
 62
2
  6
CONTINUOUS
 10
63.3357606732
 20
2.7732010389
 11
63.3357606732
 21
1.6620899278
  0
MTEXT
  5
3BF
100
AcDbEntity
  8
0
100
AcDbMText
 62
2
  6
CONTINUOUS
  7
STANDARD
 71
2
 72
1
 10
62.7802051176
 20
2.2801454833
 30
0.0
 11
1.0
 21
0.0
 31
0.0
 44
0.9
  1
D
 40
0.4444444444
 41
0.6031746032
  0
LINE
  5
3C0
100
AcDbEntity
  8
0
100
AcDbLine
 62
2
  6
CONTINUOUS
 10
65.5567055502
 20
2.766610198
 11
72.2233722169
 21
2.766610198
  0
LINE
  5
3C1
100
AcDbEntity
  8
0
100
AcDbLine
 62
2
  6
CONTINUOUS
 10
65.5567055502
 20
2.766610198
 11
65.5567055502
 21
1.6554990869
  0
LINE
  5
3C2
100
AcDbEntity
  8
0
100
AcDbLine
 62
2
  6
CONTINUOUS
 10
65.5567055502
 20
1.6554990869
 11
72.2233722169
 21
1.6554990869
  0
LINE
  5
3C3
100
AcDbEntity
  8
0
100
AcDbLine
 62
2
  6
CONTINUOUS
 10
72.2233722169
 20
2.766610198
 11
72.2233722169
 21
1.6554990869
  0
MTEXT
  5
3C4
100
AcDbEntity
  8
0
100
AcDbMText
 62
2
  6
CONTINUOUS
  7
STANDARD
 71
2
 72
1
 10
68.8900388835
 20
2.3402213092
 30
0.0
 11
1.0
 21
0.0
 31
0.0
 44
0.9
  1
FG-020004-2D
 40
0.5111111111
 41
7.1555555556
  0
LINE
  5
3C5
100
AcDbEntity
  8
0
100
AcDbLine
 62
2
  6
CONTINUOUS
 10
72.2193331028
 20
2.7739729392
 11
73.3304442139
 21
2.7739729392
  0
LINE
  5
3C6
100
AcDbEntity
  8
0
100
AcDbLine
 62
2
  6
CONTINUOUS
 10
72.2193331028
 20
2.7739729392
 11
72.2193331028
 21
1.662861828
  0
LINE
  5
3C7
100
AcDbEntity
  8
0
100
AcDbLine
 62
2
  6
CONTINUOUS
 10
72.2193331028
 20
1.662861828
 11
73.3304442139
 21
1.662861828
  0
LINE
  5
3C8
100
AcDbEntity
  8
0
100
AcDbLine
 62
2
  6
CONTINUOUS
 10
73.3304442139
 20
2.7739729392
 11
73.3304442139
 21
1.662861828
  0
MTEXT
  5
3C9
100
AcDbEntity
  8
0
100
AcDbMText
 62
2
  6
CONTINUOUS
  7
STANDARD
 71
2
 72
1
 10
72.7748886584
 20
2.2364729392
 30
0.0
 11
1.0
 21
0.0
 31
0.0
 44
0.9
  1
A
 40
0.4
 41
0.5142857143
  0
LINE
  5
3CA
100
AcDbEntity
  8
0
100
AcDbLine
 62
2
  6
CONTINUOUS
 10
69.7236013764
 20
1.6509530747
 11
73.3347124875
 21
1.6509530747
  0
LINE
  5
3CB
100
AcDbEntity
  8
0
100
AcDbLine
 62
2
  6
CONTINUOUS
 10
69.7236013764
 20
1.6509530747
 11
69.7236013764
 21
1.0953975192
  0
LINE
  5
3CC
100
AcDbEntity
  8
0
100
AcDbLine
 62
2
  6
CONTINUOUS
 10
69.7236013764
 20
1.0953975192
 11
73.3347124875
 21
1.0953975192
  0
LINE
  5
3CD
100
AcDbEntity
  8
0
100
AcDbLine
 62
2
  6
CONTINUOUS
 10
73.3347124875
 20
1.6509530747
 11
73.3347124875
 21
1.0953975192
  0
MTEXT
  5
3CE
100
AcDbEntity
  8
0
100
AcDbMText
 62
2
  6
CONTINUOUS
  7
STANDARD
 71
3
 72
1
 10
73.1958235986
 20
1.5801197414
 30
0.0
 11
1.0
 21
0.0
 31
0.0
 44
0.9
  1
1 OF 1
 40
0.3111111111
 41
1.9666666667
  0
LINE
  5
3CF
100
AcDbEntity
  8
0
100
AcDbLine
 62
2
  6
CONTINUOUS
 10
62.218355138
 20
1.6640515931
 11
64.858355138
 21
1.6640515931
  0
LINE
  5
3D0
100
AcDbEntity
  8
0
100
AcDbLine
 62
2
  6
CONTINUOUS
 10
62.218355138
 20
1.6640515931
 11
62.218355138
 21
1.099815482
  0
LINE
  5
3D1
100
AcDbEntity
  8
0
100
AcDbLine
 62
2
  6
CONTINUOUS
 10
62.218355138
 20
1.099815482
 11
64.858355138
 21
1.099815482
  0
LINE
  5
3D2
100
AcDbEntity
  8
0
100
AcDbLine
 62
2
  6
CONTINUOUS
 10
64.858355138
 20
1.6640515931
 11
64.858355138
 21
1.099815482
  0
MTEXT
  5
3D3
100
AcDbEntity
  8
0
100
AcDbMText
 62
2
  6
CONTINUOUS
  7
STANDARD
 71
3
 72
1
 10
64.7194662491
 20
1.5400932598
 30
0.0
 11
1.0
 21
0.0
 31
0.0
 44
0.9
  1
0.450
 40
0.2666666667
 41
1.4571428571
  0
LWPOLYLINE
  5
3D4
100
AcDbEntity
  8
0
100
AcDbPolyline
 62
2
  6
CONTINUOUS
 90
2
 70
0
 43
0.0444444444
 10
73.3401478482
 20
47.7670719332
 10
50.9345922927
 20
47.7670719332
  0
LWPOLYLINE
  5
3D5
100
AcDbEntity
  8
0
100
AcDbPolyline
 62
2
  6
CONTINUOUS
 90
2
 70
0
 43
0.0444444444
 10
73.317925626
 20
47.7670719332
 10
73.317925626
 20
44.294849711
  0
LWPOLYLINE
  5
3D6
100
AcDbEntity
  8
0
100
AcDbPolyline
 62
2
  6
CONTINUOUS
 90
2
 70
0
 43
0.0444444444
 10
73.317925626
 20
47.0726274888
 10
50.9568145149
 20
47.0726274888
  0
LWPOLYLINE
  5
3D7
100
AcDbEntity
  8
0
100
AcDbPolyline
 62
2
  6
CONTINUOUS
 90
2
 70
0
 43
0.0444444444
 10
73.317925626
 20
46.3781830443
 10
50.9568145149
 20
46.3781830443
  0
LWPOLYLINE
  5
3D8
100
AcDbEntity
  8
0
100
AcDbPolyline
 62
2
  6
CONTINUOUS
 90
2
 70
0
 43
0.0444444444
 10
73.317925626
 20
45.6837385999
 10
50.9568145149
 20
45.6837385999
  0
LWPOLYLINE
  5
3D9
100
AcDbEntity
  8
0
100
AcDbPolyline
 62
2
  6
CONTINUOUS
 90
2
 70
0
 43
0.0444444444
 10
73.317925626
 20
44.9892941554
 10
50.9568145149
 20
44.9892941554
  0
LWPOLYLINE
  5
3DA
100
AcDbEntity
  8
0
100
AcDbPolyline
 62
2
  6
CONTINUOUS
 90
2
 70
0
 43
0.0444444444
 10
73.3401478482
 20
44.294849711
 10
50.9345922927
 20
44.294849711
  0
LWPOLYLINE
  5
3DB
100
AcDbEntity
  8
0
100
AcDbPolyline
 62
2
  6
CONTINUOUS
 90
2
 70
0
 43
0.0444444444
 10
70.5401478482
 20
47.0726274888
 10
70.5401478482
 20
44.294849711
  0
LWPOLYLINE
  5
3DC
100
AcDbEntity
  8
0
100
AcDbPolyline
 62
2
  6
CONTINUOUS
 90
2
 70
0
 43
0.0444444444
 10
69.4290367371
 20
47.0726274888
 10
69.4290367371
 20
44.294849711
  0
LWPOLYLINE
  5
3DD
100
AcDbEntity
  8
0
100
AcDbPolyline
 62
2
  6
CONTINUOUS
 90
2
 70
0
 43
0.0444444444
 10
52.067925626
 20
47.0726274888
 10
52.067925626
 20
44.294849711
  0
LWPOLYLINE
  5
3DE
100
AcDbEntity
  8
0
100
AcDbPolyline
 62
2
  6
CONTINUOUS
 90
2
 70
0
 43
0.0444444444
 10
50.9568145149
 20
47.7670719332
 10
50.9568145149
 20
44.294849711
  0
MTEXT
  5
3DF
100
AcDbEntity
  8
0
100
AcDbMText
 62
2
  6
CONTINUOUS
  7
STANDARD
 71
2
 72
1
 10
62.1373700705
 20
47.5934608221
 30
0.0
 11
1.0
 21
0.0
 31
0.0
 44
0.9
  1
REVISIONS
 40
0.3472222222
 41
3.5218253968
  0
MTEXT
  5
3E0
100
AcDbEntity
  8
0
100
AcDbMText
 62
2
  6
CONTINUOUS
  7
STANDARD
 71
2
 72
1
 10
71.9290367371
 20
46.8990163776
 30
0.0
 11
1.0
 21
0.0
 31
0.0
 44
0.9
  1
DATE 
 40
0.3472222222
 41
2.1453373016
  0
MTEXT
  5
3E1
100
AcDbEntity
  8
0
100
AcDbMText
 62
2
  6
CONTINUOUS
  7
STANDARD
 71
2
 72
1
 10
69.9845922927
 20
46.8990163776
 30
0.0
 11
1.0
 21
0.0
 31
0.0
 44
0.9
  1
BY
 40
0.3472222222
 41
0.8556547619
  0
MTEXT
  5
3E2
100
AcDbEntity
  8
0
100
AcDbMText
 62
2
  6
CONTINUOUS
  7
STANDARD
 71
2
 72
1
 10
60.7484811816
 20
46.8987385999
 30
0.0
 11
1.0
 21
0.0
 31
0.0
 44
0.9
  1
DESCRIPTION
 40
0.3466666667
 41
4.4323809524
  0
MTEXT
  5
3E3
100
AcDbEntity
  8
0
100
AcDbMText
 62
2
  6
CONTINUOUS
  7
STANDARD
 71
2
 72
1
 10
51.5123700705
 20
46.8987385999
 30
0.0
 11
1.0
 21
0.0
 31
0.0
 44
0.9
  1
REV
 40
0.3466666667
 41
1.2133333333
  0
MTEXT
  5
3E4
100
AcDbEntity
  8
0
100
AcDbMText
 62
2
  6
CONTINUOUS
  7
STANDARD
 71
2
 72
1
 10
71.9290367371
 20
46.2045719332
 30
0.0
 11
1.0
 21
0.0
 31
0.0
 44
0.9
  1
15-JAN-15
 40
0.3472222222
 41
3.373015873
  0
MTEXT
  5
3E5
100
AcDbEntity
  8
0
100
AcDbMText
 62
2
  6
CONTINUOUS
  7
STANDARD
 71
2
 72
1
 10
69.9845922927
 20
46.2045719332
 30
0.0
 11
1.0
 21
0.0
 31
0.0
 44
0.9
  1
JD
 40
0.3472222222
 41
0.9052579365
  0
MTEXT
  5
3E6
100
AcDbEntity
  8
0
100
AcDbMText
 62
2
  6
CONTINUOUS
  7
STANDARD
 71
1
 72
1
 10
52.2068145149
 20
46.2045719332
 30
0.0
 11
1.0
 21
0.0
 31
0.0
 44
0.9
  1
RELEASE
 40
0.3472222222
 41
2.8149801587
  0
MTEXT
  5
3E7
100
AcDbEntity
  8
0
100
AcDbMText
 62
2
  6
CONTINUOUS
  7
STANDARD
 71
2
 72
1
 10
51.5123700705
 20
46.2045719332
 30
0.0
 11
1.0
 21
0.0
 31
0.0
 44
0.9
  1
A
 40
0.3472222222
 41
0.5456349206
  0
MTEXT
  5
3E8
100
AcDbEntity
  8
0
100
AcDbMText
 62
2
  6
CONTINUOUS
  7
STANDARD
 71
1
 72
1
 10
1.4457410285
 20
5.4314384486
 30
0.0
 11
1.0
 21
0.0
 31
0.0
 44
1.2
  3
4. PARTS ARE SYMMETRICAL ABOUT CENTER LINES  UNLESS OTHERWISE NOTED.\P3. SYMBOL     INDICATES CENTER OF BALANCE.\P2. TOLERANCES (MM): X \Fgdt;{\Fgdt;`}\Ftxt; 5, ANGLES: \Fgdt;{\Fgdt;`}\Ftxt; 1\Fgdt;{\Fgdt;~}\Ftxt;.\P1. NET WEIGHT APPROX. 3.3 KG (7.2 
  1
LBS)\P \PNOTE:  UNLESS OTHERWISE SPECIFIED
 40
0.3472222222
 41
27.8149801587
  0
MTEXT
  5
3E9
100
AcDbEntity
  8
0
100
AcDbMText
 62
2
  6
CONTINUOUS
  7
STANDARD
 71
3
 72
1
 10
68.8304198268
 20
32.6996989047
 30
0.0
 11
1.0
 21
0.0
 31
0.0
 44
0.9
  1
SCALE  0.350
 40
0.3472222222
 41
4.6750992063
  0
INSERT
  5
3EA
100
AcDbEntity
  8
0
100
AcDbBlockReference
 62
2
  6
CONTINUOUS
  2
SYMBOL_6_BL1
 10
4.4070438882
 20
4.54362887
  0
INSERT
  5
3EB
100
AcDbEntity
  8
0
100
AcDbBlockReference
 62
2
  6
CONTINUOUS
  2
SYMBOL_18_BL2
 10
16.553426424
 20
25.4781991726
  0
INSERT
  5
3EC
100
AcDbEntity
  8
0
100
AcDbBlockReference
 62
2
  6
CONTINUOUS
  2
SYMBOL_15_BL3
 10
35.7959194284
 20
25.4785984634
  0
INSERT
  5
3ED
100
AcDbEntity
  8
0
100
AcDbBlockReference
 62
2
  6
CONTINUOUS
  2
SYMBOL_17_BL4
 10
53.1274790122
 20
25.4829042572
  0
LINE
  5
3EE
100
AcDbEntity
  8
DEFAULT_3
100
AcDbLine
 62
7
  6
PHANTOM
 10
0.0
 20
-0.0
 11
0.0
 21
48.8888888889
  0
LWPOLYLINE
  5
3EF
100
AcDbEntity
  8
0
100
AcDbPolyline
 62
7
  6
CONTINUOUS
 90
2
 70
0
 43
0.0444444463
 10
0.5832504936
 20
24.0696558015
 10
0.5832504936
 20
24.8192330874
  0
LWPOLYLINE
  5
3F0
100
AcDbEntity
  8
0
100
AcDbPolyline
 62
7
  6
CONTINUOUS
 90
2
 70
0
 43
0.0666666672
 10
1.1111111111
 20
47.7777777778
 10
1.1111111111
 20
1.1111111111
  0
LWPOLYLINE
  5
3F1
100
AcDbEntity
  8
0
100
AcDbPolyline
 62
7
  6
CONTINUOUS
 90
2
 70
0
 43
0.0666666672
 10
7.9166666667
 20
47.7777777778
 10
7.9166666667
 20
46.6666666667
  0
LWPOLYLINE
  5
3F2
100
AcDbEntity
  8
0
100
AcDbPolyline
 62
7
  6
CONTINUOUS
 90
2
 70
0
 43
0.0444444463
 10
10.1388888889
 20
1.1111111111
 10
10.1388888889
 20
-0.0
  0
LWPOLYLINE
  5
3F3
100
AcDbEntity
  8
0
100
AcDbPolyline
 62
7
  6
CONTINUOUS
 90
2
 70
0
 43
0.0444444463
 10
10.1388888889
 20
47.7777777778
 10
10.1388888889
 20
48.8888888889
  0
LINE
  5
3F4
100
AcDbEntity
  8
0
100
AcDbLine
 62
7
  6
CONTINUOUS
 10
56.3766843511
 20
3.8850848687
 11
51.4265613694
 21
2.4996270314
  0
LINE
  5
3F5
100
AcDbEntity
  8
0
100
AcDbLine
 62
7
  6
CONTINUOUS
 10
56.4216305543
 20
2.4235018411
 11
51.4027899921
 21
1.1307145255
  0
LINE
  5
3F6
100
AcDbEntity
  8
DEFAULT_3
100
AcDbLine
 62
7
  6
PHANTOM
 10
0.0
 20
-0.0
 11
75.5555555556
 21
-0.0
  0
LWPOLYLINE
  5
3F7
100
AcDbEntity
  8
0
100
AcDbPolyline
 62
7
  6
CONTINUOUS
 90
2
 70
0
 43
0.0444444463
 10
36.8474335793
 20
0.5832504936
 10
37.5970108652
 20
0.5832504936
  0
LWPOLYLINE
  5
3F8
100
AcDbEntity
  8
0
100
AcDbPolyline
 62
7
  6
CONTINUOUS
 90
2
 70
0
 43
0.0444444463
 10
1.1111111111
 20
24.4444444444
 10
0.5832504936
 20
24.0696558015
  0
LWPOLYLINE
  5
3F9
100
AcDbEntity
  8
0
100
AcDbPolyline
 62
7
  6
CONTINUOUS
 90
2
 70
0
 43
0.0666666672
 10
1.1111111111
 20
1.1111111111
 10
73.3333333333
 20
1.1111111111
  0
LWPOLYLINE
  5
3FA
100
AcDbEntity
  8
0
100
AcDbPolyline
 62
7
  6
CONTINUOUS
 90
2
 70
0
 43
0.0444444463
 10
56.3888888889
 20
1.6666666667
 10
73.3333333333
 20
1.6666666667
  0
LWPOLYLINE
  5
3FB
100
AcDbEntity
  8
0
100
AcDbPolyline
 62
7
  6
CONTINUOUS
 90
2
 70
0
 43
0.0444444463
 10
56.3888888889
 20
2.2222222222
 10
62.2222222222
 20
2.2222222222
  0
LWPOLYLINE
  5
3FC
100
AcDbEntity
  8
0
100
AcDbPolyline
 62
7
  6
CONTINUOUS
 90
2
 70
0
 43
0.0444444463
 10
56.3888888889
 20
2.5
 10
51.3888888889
 20
2.5
  0
LWPOLYLINE
  5
3FD
100
AcDbEntity
  8
0
100
AcDbPolyline
 62
7
  6
CONTINUOUS
 90
2
 70
0
 43
0.0444444463
 10
62.2222222222
 20
2.7777777778
 10
73.3333333333
 20
2.7777777778
  0
LWPOLYLINE
  5
3FE
100
AcDbEntity
  8
0
100
AcDbPolyline
 62
7
  6
CONTINUOUS
 90
2
 70
0
 43
0.0444444463
 10
56.4034875927
 20
3.3594118777
 10
62.236820926
 20
3.3594118777
  0
LWPOLYLINE
  5
3FF
100
AcDbEntity
  8
0
100
AcDbPolyline
 62
7
  6
CONTINUOUS
 90
2
 70
0
 43
0.0444444463
 10
1.1111111111
 20
24.4444444444
 10
0.5832504936
 20
24.8192330874
  0
LWPOLYLINE
  5
400
100
AcDbEntity
  8
0
100
AcDbPolyline
 62
7
  6
CONTINUOUS
 90
2
 70
0
 43
0.0444444463
 10
19.1666666667
 20
1.1111111111
 10
19.1666666667
 20
-0.0
  0
LWPOLYLINE
  5
401
100
AcDbEntity
  8
0
100
AcDbPolyline
 62
7
  6
CONTINUOUS
 90
2
 70
0
 43
0.0444444463
 10
19.1666666667
 20
47.7777777778
 10
19.1666666667
 20
48.8888888889
  0
LWPOLYLINE
  5
402
100
AcDbEntity
  8
0
100
AcDbPolyline
 62
7
  6
CONTINUOUS
 90
2
 70
0
 43
0.0444444463
 10
51.3888888889
 20
3.8888888889
 10
56.3888888889
 20
3.8888888889
  0
LWPOLYLINE
  5
403
100
AcDbEntity
  8
0
100
AcDbPolyline
 62
7
  6
CONTINUOUS
 90
2
 70
0
 43
0.0444444463
 10
56.4065402381
 20
4.502042301
 10
62.2398735714
 20
4.502042301
  0
LWPOLYLINE
  5
404
100
AcDbEntity
  8
0
100
AcDbPolyline
 62
7
  6
CONTINUOUS
 90
2
 70
0
 43
0.0444444463
 10
62.2222222222
 20
5.2777777778
 10
73.3333333333
 20
5.2777777778
  0
LWPOLYLINE
  5
405
100
AcDbEntity
  8
0
100
AcDbPolyline
 62
7
  6
CONTINUOUS
 90
2
 70
0
 43
0.0444444463
 10
56.3888888889
 20
5.6833996189
 10
62.2222222222
 20
5.6833996189
  0
LWPOLYLINE
  5
406
100
AcDbEntity
  8
0
100
AcDbPolyline
 62
7
  6
CONTINUOUS
 90
2
 70
0
 43
0.0444444463
 10
51.3888888889
 20
6.8055555556
 10
73.3333333333
 20
6.8055555556
  0
LWPOLYLINE
  5
407
100
AcDbEntity
  8
0
100
AcDbPolyline
 62
7
  6
CONTINUOUS
 90
2
 70
0
 43
0.0444444463
 10
37.2222222222
 20
47.7777777778
 10
37.5970108652
 20
48.3056383953
  0
LWPOLYLINE
  5
408
100
AcDbEntity
  8
0
100
AcDbPolyline
 62
7
  6
CONTINUOUS
 90
2
 70
0
 43
0.0444444463
 10
37.2222222222
 20
1.1111111111
 10
37.5970108652
 20
0.5832504936
  0
LWPOLYLINE
  5
409
100
AcDbEntity
  8
0
100
AcDbPolyline
 62
7
  6
CONTINUOUS
 90
2
 70
0
 43
0.0444444463
 10
1.1111111111
 20
12.7777777778
 10
0.0
 20
12.7777777778
  0
LWPOLYLINE
  5
40A
100
AcDbEntity
  8
0
100
AcDbPolyline
 62
7
  6
CONTINUOUS
 90
2
 70
0
 43
0.0444444463
 10
73.3479863352
 20
12.7796467576
 10
74.4590974463
 20
12.7796467576
  0
LWPOLYLINE
  5
40B
100
AcDbEntity
  8
0
100
AcDbPolyline
 62
7
  6
CONTINUOUS
 90
2
 70
0
 43
0.0444444463
 10
28.1944444444
 20
1.1111111111
 10
28.1944444444
 20
-0.0
  0
LWPOLYLINE
  5
40C
100
AcDbEntity
  8
0
100
AcDbPolyline
 62
7
  6
CONTINUOUS
 90
2
 70
0
 43
0.0444444463
 10
28.1944444444
 20
47.7777777778
 10
28.1944444444
 20
48.8888888889
  0
LINE
  5
40D
100
AcDbEntity
  8
0
100
AcDbLine
 62
7
  6
CONTINUOUS
 10
51.4206085031
 20
6.7770582793
 11
56.3766843511
 21
3.8963438677
  0
LWPOLYLINE
  5
40E
100
AcDbEntity
  8
0
100
AcDbPolyline
 62
7
  6
CONTINUOUS
 90
2
 70
0
 43
0.0444444463
 10
37.2222222222
 20
1.1111111111
 10
37.2222222222
 20
-0.0
  0
LWPOLYLINE
  5
40F
100
AcDbEntity
  8
0
100
AcDbPolyline
 62
7
  6
CONTINUOUS
 90
2
 70
0
 43
0.0444444463
 10
37.2222222222
 20
47.7777777778
 10
37.2222222222
 20
48.8888888889
  0
LWPOLYLINE
  5
410
100
AcDbEntity
  8
0
100
AcDbPolyline
 62
7
  6
CONTINUOUS
 90
2
 70
0
 43
0.0444444463
 10
1.1111111111
 20
24.4444444444
 10
-0.0
 20
24.4444444444
  0
LWPOLYLINE
  5
411
100
AcDbEntity
  8
0
100
AcDbPolyline
 62
7
  6
CONTINUOUS
 90
2
 70
0
 43
0.0444444463
 10
73.3357318799
 20
24.4474662181
 10
74.446842991
 20
24.4474662181
  0
LWPOLYLINE
  5
412
100
AcDbEntity
  8
0
100
AcDbPolyline
 62
7
  6
CONTINUOUS
 90
2
 70
0
 43
0.0444444463
 10
46.25
 20
1.1111111111
 10
46.25
 20
-0.0
  0
LWPOLYLINE
  5
413
100
AcDbEntity
  8
0
100
AcDbPolyline
 62
7
  6
CONTINUOUS
 90
2
 70
0
 43
0.0444444463
 10
46.25
 20
47.7777777778
 10
46.25
 20
48.8888888889
  0
LWPOLYLINE
  5
414
100
AcDbEntity
  8
0
100
AcDbPolyline
 62
7
  6
CONTINUOUS
 90
2
 70
0
 43
0.0444444463
 10
37.2222222222
 20
1.1111111111
 10
36.8474335793
 20
0.5832504936
  0
LWPOLYLINE
  5
415
100
AcDbEntity
  8
0
100
AcDbPolyline
 62
7
  6
CONTINUOUS
 90
2
 70
0
 43
0.0444444463
 10
1.1111111111
 20
36.1111111111
 10
0.0
 20
36.1111111111
  0
LWPOLYLINE
  5
416
100
AcDbEntity
  8
0
100
AcDbPolyline
 62
7
  6
CONTINUOUS
 90
2
 70
0
 43
0.0444444463
 10
73.3333333333
 20
36.1111111111
 10
74.4444444444
 20
36.1111111111
  0
LWPOLYLINE
  5
417
100
AcDbEntity
  8
0
100
AcDbPolyline
 62
7
  6
CONTINUOUS
 90
2
 70
0
 43
0.0444444463
 10
37.2222222222
 20
47.7777777778
 10
36.8474335793
 20
48.3056383953
  0
LWPOLYLINE
  5
418
100
AcDbEntity
  8
0
100
AcDbPolyline
 62
7
  6
CONTINUOUS
 90
2
 70
0
 43
0.0444444463
 10
51.3888888889
 20
1.1111111111
 10
51.3888888889
 20
6.8055555556
  0
LWPOLYLINE
  5
419
100
AcDbEntity
  8
0
100
AcDbPolyline
 62
7
  6
CONTINUOUS
 90
2
 70
0
 43
0.0444444463
 10
55.2777777778
 20
1.1111111111
 10
55.2777777778
 20
-0.0
  0
LWPOLYLINE
  5
41A
100
AcDbEntity
  8
0
100
AcDbPolyline
 62
7
  6
CONTINUOUS
 90
2
 70
0
 43
0.0444444463
 10
55.2777777778
 20
47.7777777778
 10
55.2777777778
 20
48.8888888889
  0
LWPOLYLINE
  5
41B
100
AcDbEntity
  8
0
100
AcDbPolyline
 62
7
  6
CONTINUOUS
 90
2
 70
0
 43
0.0444444463
 10
56.3888888889
 20
1.1111111111
 10
56.3888888889
 20
6.8055555556
  0
LWPOLYLINE
  5
41C
100
AcDbEntity
  8
0
100
AcDbPolyline
 62
7
  6
CONTINUOUS
 90
2
 70
0
 43
0.0444444463
 10
73.3357318799
 20
24.4474662181
 10
73.8635924974
 20
24.8222548611
  0
LWPOLYLINE
  5
41D
100
AcDbEntity
  8
0
100
AcDbPolyline
 62
7
  6
CONTINUOUS
 90
2
 70
0
 43
0.0444444463
 10
73.3357318799
 20
24.4474662181
 10
73.8635924974
 20
24.0726775751
  0
LWPOLYLINE
  5
41E
100
AcDbEntity
  8
0
100
AcDbPolyline
 62
7
  6
CONTINUOUS
 90
2
 70
0
 43
0.0666666672
 10
7.9166666667
 20
46.6666666667
 10
1.1111111111
 20
46.6666666667
  0
LWPOLYLINE
  5
41F
100
AcDbEntity
  8
0
100
AcDbPolyline
 62
7
  6
CONTINUOUS
 90
2
 70
0
 43
0.0666666672
 10
73.3333333333
 20
47.7777777778
 10
1.1111111111
 20
47.7777777778
  0
LWPOLYLINE
  5
420
100
AcDbEntity
  8
0
100
AcDbPolyline
 62
7
  6
CONTINUOUS
 90
2
 70
0
 43
0.0444444463
 10
36.8474335793
 20
48.3056383953
 10
37.5970108652
 20
48.3056383953
  0
LWPOLYLINE
  5
421
100
AcDbEntity
  8
0
100
AcDbPolyline
 62
7
  6
CONTINUOUS
 90
2
 70
0
 43
0.0444444463
 10
62.2222222222
 20
1.1111111111
 10
62.2222222222
 20
6.8055555556
  0
LWPOLYLINE
  5
422
100
AcDbEntity
  8
0
100
AcDbPolyline
 62
7
  6
CONTINUOUS
 90
2
 70
0
 43
0.0444444463
 10
63.3333333333
 20
1.6666666667
 10
63.3333333333
 20
2.7777777778
  0
LWPOLYLINE
  5
423
100
AcDbEntity
  8
0
100
AcDbPolyline
 62
7
  6
CONTINUOUS
 90
2
 70
0
 43
0.0444444463
 10
64.3055555556
 20
1.1111111111
 10
64.3055555556
 20
-0.0
  0
LWPOLYLINE
  5
424
100
AcDbEntity
  8
0
100
AcDbPolyline
 62
7
  6
CONTINUOUS
 90
2
 70
0
 43
0.0444444463
 10
64.3055555556
 20
47.7777777778
 10
64.3055555556
 20
48.8888888889
  0
LINE
  5
425
100
AcDbEntity
  8
0
100
AcDbLine
 62
7
  6
CONTINUOUS
 10
56.4152769665
 20
6.7286979082
 11
51.381981198
 21
3.8838478751
  0
LINE
  5
426
100
AcDbEntity
  8
DEFAULT_3
100
AcDbLine
 62
7
  6
PHANTOM
 10
0.0
 20
48.8888888889
 11
75.5555555556
 21
48.8888888889
  0
LWPOLYLINE
  5
427
100
AcDbEntity
  8
0
100
AcDbPolyline
 62
7
  6
CONTINUOUS
 90
2
 70
0
 43
0.0444444463
 10
64.8525088146
 20
1.1216670123
 10
64.8525088146
 20
1.6772225679
  0
LWPOLYLINE
  5
428
100
AcDbEntity
  8
0
100
AcDbPolyline
 62
7
  6
CONTINUOUS
 90
2
 70
0
 43
0.0444444463
 10
65.5555555556
 20
1.6666666667
 10
65.5555555556
 20
2.7777777778
  0
LWPOLYLINE
  5
429
100
AcDbEntity
  8
0
100
AcDbPolyline
 62
7
  6
CONTINUOUS
 90
2
 70
0
 43
0.0444444463
 10
69.7222222222
 20
1.1111111111
 10
69.7222222222
 20
1.6666666667
  0
LWPOLYLINE
  5
42A
100
AcDbEntity
  8
0
100
AcDbPolyline
 62
7
  6
CONTINUOUS
 90
2
 70
0
 43
0.0444444463
 10
72.2222222222
 20
1.6666666667
 10
72.2222222222
 20
2.7777777778
  0
LWPOLYLINE
  5
42B
100
AcDbEntity
  8
0
100
AcDbPolyline
 62
7
  6
CONTINUOUS
 90
2
 70
0
 43
0.0666666672
 10
73.3333333333
 20
47.7777777778
 10
73.3333333333
 20
1.1111111111
  0
LWPOLYLINE
  5
42C
100
AcDbEntity
  8
0
100
AcDbPolyline
 62
7
  6
CONTINUOUS
 90
2
 70
0
 43
0.0444444463
 10
73.8635924974
 20
24.0726775751
 10
73.8635924974
 20
24.8222548611
  0
LINE
  5
42D
100
AcDbEntity
  8
DEFAULT_3
100
AcDbLine
 62
7
  6
PHANTOM
 10
75.5555555556
 20
-0.0
 11
75.5555555556
 21
48.8888888889
  0
LINE
  5
42E
100
AcDbEntity
  8
3_AXES_OTHER
100
AcDbLine
 62
7
  6
CONTINUOUS
 10
14.4538201261
 20
21.1122545751
 11
18.6530327245
 21
21.1122545751
  0
LINE
  5
42F
100
AcDbEntity
  8
3_AXES_OTHER
100
AcDbLine
 62
7
  6
CONTINUOUS
 10
13.6908951297
 20
21.3366640239
 11
19.415957334
 21
21.3366640239
  0
LINE
  5
430
100
AcDbEntity
  8
3_AXES_OTHER
100
AcDbLine
 62
7
  6
CONTINUOUS
 10
13.3345287875
 20
21.2368996107
 11
13.3345287875
 21
31.412412689
  0
LINE
  5
431
100
AcDbEntity
  8
3_AXES_OTHER
100
AcDbLine
 62
7
  6
CONTINUOUS
 10
13.6908951297
 20
21.3366640239
 11
13.6908951297
 21
31.3126482758
  0
LINE
  5
432
100
AcDbEntity
  8
3_AXES_OTHER
100
AcDbLine
 62
7
  6
CONTINUOUS
 10
14.4538201261
 20
21.1122545751
 11
14.4538201261
 21
21.3366640239
  0
LINE
  5
433
100
AcDbEntity
  8
3_AXES_OTHER
100
AcDbLine
 62
7
  6
CONTINUOUS
 10
14.4538201261
 20
31.3126482758
 11
14.4538201261
 21
31.5370577247
  0
LINE
  5
434
100
AcDbEntity
  8
3_ALL_AXES
100
AcDbLine
 62
7
  6
CENTER
 10
16.5534264253
 20
24.0411915829
 11
14.061066173
 21
24.0411915829
  0
LINE
  5
435
100
AcDbEntity
  8
3_ALL_AXES
100
AcDbLine
 62
7
  6
CENTER
 10
16.5534264253
 20
24.0411915829
 11
19.0457866777
 21
24.0411915829
  0
LINE
  5
436
100
AcDbEntity
  8
3_ALL_AXES
100
AcDbLine
 62
7
  6
CENTER
 10
16.5534264253
 20
28.6868608743
 11
16.5534264253
 21
26.1772488884
  0
LINE
  5
437
100
AcDbEntity
  8
3_ALL_AXES
100
AcDbLine
 62
7
  6
CENTER
 10
16.5534264253
 20
26.1772488884
 11
16.5534264253
 21
20.5013895782
  0
LINE
  5
438
100
AcDbEntity
  8
3_ALL_AXES
100
AcDbLine
 62
7
  6
CENTER
 10
16.5534264253
 20
28.6868608743
 11
16.5534264253
 21
32.2261895782
  0
LINE
  5
439
100
AcDbEntity
  8
3_ALL_AXES
100
AcDbLine
 62
7
  6
CENTER
 10
16.5534264253
 20
26.3246561499
 11
12.8344507857
 21
26.3246561499
  0
LINE
  5
43A
100
AcDbEntity
  8
3_ALL_AXES
100
AcDbLine
 62
7
  6
CENTER
 10
16.5534264253
 20
26.3246561499
 11
20.0925627857
 21
26.3246561499
  0
LINE
  5
43B
100
AcDbEntity
  8
3_AXES_OTHER
100
AcDbLine
 62
7
  6
CONTINUOUS
 10
18.6530327245
 20
21.1122545751
 11
18.6530327245
 21
21.3366640239
  0
LINE
  5
43C
100
AcDbEntity
  8
3_AXES_OTHER
100
AcDbLine
 62
7
  6
CONTINUOUS
 10
18.6530327245
 20
31.3126482758
 11
18.6530327245
 21
31.5370577247
  0
LINE
  5
43D
100
AcDbEntity
  8
3_ALL_AXES
100
AcDbLine
 62
7
  6
CENTER
 10
16.5534264253
 20
28.6868608743
 11
14.0260855157
 21
28.6868608743
  0
LINE
  5
43E
100
AcDbEntity
  8
3_ALL_AXES
100
AcDbLine
 62
7
  6
CENTER
 10
16.5534264253
 20
28.6868608743
 11
19.1903871226
 21
28.6868608743
  0
LINE
  5
43F
100
AcDbEntity
  8
3_AXES_OTHER
100
AcDbLine
 62
7
  6
CONTINUOUS
 10
19.415957334
 20
21.3366640239
 11
19.415957334
 21
31.3126482758
  0
LINE
  5
440
100
AcDbEntity
  8
3_AXES_OTHER
100
AcDbLine
 62
7
  6
CONTINUOUS
 10
19.7723240631
 20
21.2368996107
 11
19.7723240631
 21
31.412412689
  0
LINE
  5
441
100
AcDbEntity
  8
3_AXES_OTHER
100
AcDbLine
 62
7
  6
CONTINUOUS
 10
13.6908951297
 20
31.3126482758
 11
19.415957334
 21
31.3126482758
  0
LINE
  5
442
100
AcDbEntity
  8
3_AXES_OTHER
100
AcDbLine
 62
7
  6
CONTINUOUS
 10
14.4538201261
 20
31.5370577247
 11
18.6530327245
 21
31.5370577247
  0
LINE
  5
443
100
AcDbEntity
  8
3_AXES_OTHER
100
AcDbLine
 62
7
  6
CONTINUOUS
 10
14.4538201261
 20
36.3009838828
 11
18.6530327245
 21
36.3009838828
  0
LINE
  5
444
100
AcDbEntity
  8
3_ALL_AXES
100
AcDbLine
 62
7
  6
CENTER
 10
16.5534264253
 20
36.7517712844
 11
16.2485270377
 21
36.7517712844
  0
LINE
  5
445
100
AcDbEntity
  8
3_ALL_AXES
100
AcDbLine
 62
7
  6
CENTER
 10
16.5534264253
 20
36.7517712844
 11
16.9686752055
 21
36.7517712844
  0
LINE
  5
446
100
AcDbEntity
  8
3_AXES_OTHER
100
AcDbLine
 62
7
  6
CONTINUOUS
 10
15.1754736694
 20
45.4285429379
 11
15.1754736694
 21
44.8379917568
  0
LINE
  5
447
100
AcDbEntity
  8
3_ALL_AXES
100
AcDbLine
 62
7
  6
CONTINUOUS
 10
15.9628752442
 20
44.8379917568
 11
15.9628752442
 21
42.7045271899
  0
LINE
  5
448
100
AcDbEntity
  8
3_ALL_AXES
100
AcDbLine
 62
7
  6
CENTER
 10
16.5534264253
 20
36.7517712844
 11
16.5534264253
 21
35.8021705393
  0
LINE
  5
449
100
AcDbEntity
  8
3_ALL_AXES
100
AcDbLine
 62
7
  6
CENTER
 10
16.5534264253
 20
36.7517712844
 11
16.5534264253
 21
46.4464712507
  0
LINE
  5
44A
100
AcDbEntity
  8
3_ALL_AXES
100
AcDbLine
 62
7
  6
CONTINUOUS
 10
17.1439776064
 20
44.8379917568
 11
17.1439776064
 21
42.7045271899
  0
LINE
  5
44B
100
AcDbEntity
  8
3_AXES_OTHER
100
AcDbLine
 62
7
  6
CONTINUOUS
 10
17.9313791812
 20
45.4285429379
 11
17.9313791812
 21
44.8379917568
  0
LINE
  5
44C
100
AcDbEntity
  8
3_AXES_OTHER
100
AcDbLine
 62
7
  6
CONTINUOUS
 10
18.4219303623
 20
42.7045271899
 11
14.6849224883
 21
42.7045271899
  0
LINE
  5
44D
100
AcDbEntity
  8
3_AXES_OTHER
100
AcDbLine
 62
7
  6
CONTINUOUS
 10
15.1754736694
 20
44.8379917568
 11
17.9313791812
 21
44.8379917568
  0
LINE
  5
44E
100
AcDbEntity
  8
3_AXES_OTHER
100
AcDbLine
 62
7
  6
CONTINUOUS
 10
15.1754736694
 20
45.4285429379
 11
17.9313791812
 21
45.4285429379
  0
LINE
  5
44F
100
AcDbEntity
  8
3_AXES_OTHER
100
AcDbLine
 62
7
  6
CONTINUOUS
 10
17.9313791812
 20
9.2450172967
 11
15.1754736694
 21
9.2450172967
  0
LINE
  5
450
100
AcDbEntity
  8
3_AXES_OTHER
100
AcDbLine
 62
7
  6
CONTINUOUS
 10
17.9313791812
 20
9.8355684778
 11
15.1754736694
 21
9.8355684778
  0
LINE
  5
451
100
AcDbEntity
  8
3_AXES_OTHER
100
AcDbLine
 62
7
  6
CONTINUOUS
 10
18.4219303623
 20
11.9690330447
 11
14.6849224883
 21
11.9690330447
  0
LINE
  5
452
100
AcDbEntity
  8
3_AXES_OTHER
100
AcDbLine
 62
7
  6
CONTINUOUS
 10
15.1754736694
 20
9.2450172967
 11
15.1754736694
 21
9.8355684778
  0
LINE
  5
453
100
AcDbEntity
  8
3_ALL_AXES
100
AcDbLine
 62
7
  6
CONTINUOUS
 10
15.9628752442
 20
11.9690330447
 11
15.9628752442
 21
9.8355684778
  0
LINE
  5
454
100
AcDbEntity
  8
3_ALL_AXES
100
AcDbLine
 62
7
  6
CENTER
 10
16.5534264253
 20
17.9217889502
 11
16.5534264253
 21
17.4536343537
  0
LINE
  5
455
100
AcDbEntity
  8
3_ALL_AXES
100
AcDbLine
 62
7
  6
CENTER
 10
16.5534264253
 20
17.9217889502
 11
16.5534264253
 21
18.3899435467
  0
LINE
  5
456
100
AcDbEntity
  8
3_ALL_AXES
100
AcDbLine
 62
7
  6
CONTINUOUS
 10
17.1439776064
 20
11.9690330447
 11
17.1439776064
 21
9.8355684778
  0
LINE
  5
457
100
AcDbEntity
  8
3_AXES_OTHER
100
AcDbLine
 62
7
  6
CONTINUOUS
 10
17.9313791812
 20
9.2450172967
 11
17.9313791812
 21
9.8355684778
  0
LINE
  5
458
100
AcDbEntity
  8
3_ALL_AXES
100
AcDbLine
 62
7
  6
CENTER
 10
16.5534264253
 20
17.9217889502
 11
16.0852718288
 21
17.9217889502
  0
LINE
  5
459
100
AcDbEntity
  8
3_ALL_AXES
100
AcDbLine
 62
7
  6
CENTER
 10
16.5534264253
 20
17.9217889502
 11
17.0215810218
 21
17.9217889502
  0
LINE
  5
45A
100
AcDbEntity
  8
3_AXES_OTHER
100
AcDbLine
 62
7
  6
CONTINUOUS
 10
14.4538201261
 20
18.3725763518
 11
18.6530327245
 21
18.3725763518
  0
LINE
  5
45B
100
AcDbEntity
  8
3_AXES_OTHER
100
AcDbLine
 62
7
  6
CONTINUOUS
 10
32.2541608243
 20
21.1122545751
 11
32.2541608243
 21
21.3366640239
  0
LINE
  5
45C
100
AcDbEntity
  8
3_AXES_OTHER
100
AcDbLine
 62
7
  6
CONTINUOUS
 10
32.2541608243
 20
31.3126482758
 11
32.2541608243
 21
31.5370577247
  0
LINE
  5
45D
100
AcDbEntity
  8
3_AXES_OTHER
100
AcDbLine
 62
7
  6
CONTINUOUS
 10
32.2541608243
 20
21.1122545751
 11
38.6583260444
 21
21.7289055486
  0
LINE
  5
45E
100
AcDbEntity
  8
3_AXES_OTHER
100
AcDbLine
 62
7
  6
CONTINUOUS
 10
32.2541608243
 20
21.3366640239
 11
32.825026966
 21
21.3366640239
  0
LINE
  5
45F
100
AcDbEntity
  8
3_AXES_OTHER
100
AcDbLine
 62
7
  6
CONTINUOUS
 10
32.825026966
 20
21.3366640239
 11
32.825026966
 21
31.3126482758
  0
LINE
  5
460
100
AcDbEntity
  8
3_AXES_OTHER
100
AcDbLine
 62
7
  6
CONTINUOUS
 10
33.5486490133
 20
21.2368996107
 11
33.5486490133
 21
31.412412689
  0
LINE
  5
461
100
AcDbEntity
  8
3_AXES_OTHER
100
AcDbLine
 62
7
  6
CONTINUOUS
 10
41.3817198794
 20
23.4703254412
 11
40.7911686983
 21
23.4703254412
  0
LINE
  5
462
100
AcDbEntity
  8
3_ALL_AXES
100
AcDbLine
 62
7
  6
CONTINUOUS
 10
38.6577041314
 20
24.6514278034
 11
40.7911686983
 21
24.6514278034
  0
LINE
  5
463
100
AcDbEntity
  8
3_ALL_AXES
100
AcDbLine
 62
7
  6
CONTINUOUS
 10
38.6577041314
 20
25.8325301656
 11
40.7911686983
 21
25.8325301656
  0
LINE
  5
464
100
AcDbEntity
  8
3_ALL_AXES
100
AcDbLine
 62
7
  6
CENTER
 10
39.3925828544
 20
26.3246561499
 11
32.4253164052
 21
26.3246561499
  0
LINE
  5
465
100
AcDbEntity
  8
3_AXES_OTHER
100
AcDbLine
 62
7
  6
CONTINUOUS
 10
41.3817198794
 20
27.0136325278
 11
40.7911686983
 21
27.0136325278
  0
LINE
  5
466
100
AcDbEntity
  8
3_AXES_OTHER
100
AcDbLine
 62
7
  6
CONTINUOUS
 10
38.0679403519
 20
21.6720578722
 11
38.0679403519
 21
30.9772544275
  0
LINE
  5
467
100
AcDbEntity
  8
3_AXES_OTHER
100
AcDbLine
 62
7
  6
CONTINUOUS
 10
38.6582052354
 20
21.728893916
 11
38.6582052354
 21
30.9204183837
  0
LINE
  5
468
100
AcDbEntity
  8
3_AXES_OTHER
100
AcDbLine
 62
7
  6
CONTINUOUS
 10
40.7911686983
 20
27.0136325278
 11
40.7911686983
 21
23.4703254412
  0
LINE
  5
469
100
AcDbEntity
  8
3_AXES_OTHER
100
AcDbLine
 62
7
  6
CONTINUOUS
 10
41.3817198794
 20
27.0136325278
 11
41.3817198794
 21
23.4703254412
  0
LINE
  5
46A
100
AcDbEntity
  8
3_AXES_OTHER
100
AcDbLine
 62
7
  6
CONTINUOUS
 10
32.2541608243
 20
31.3126482758
 11
32.825026966
 21
31.3126482758
  0
LINE
  5
46B
100
AcDbEntity
  8
3_AXES_OTHER
100
AcDbLine
 62
7
  6
CONTINUOUS
 10
32.2541608243
 20
31.5370577247
 11
38.6583250038
 21
30.9204068513
  0
LINE
  5
46C
100
AcDbEntity
  8
3_AXES_OTHER
100
AcDbLine
 62
7
  6
CONTINUOUS
 10
55.2287530856
 20
21.1122545751
 11
51.0295404872
 21
21.1122545751
  0
LINE
  5
46D
100
AcDbEntity
  8
3_AXES_OTHER
100
AcDbLine
 62
7
  6
CONTINUOUS
 10
51.2606428494
 20
21.7288456652
 11
54.9976507234
 21
21.7288456652
  0
LINE
  5
46E
100
AcDbEntity
  8
3_AXES_OTHER
100
AcDbLine
 62
7
  6
CONTINUOUS
 10
49.9102491486
 20
21.2368996107
 11
49.9102491486
 21
31.412412689
  0
LINE
  5
46F
100
AcDbEntity
  8
3_AXES_OTHER
100
AcDbLine
 62
7
  6
CONTINUOUS
 10
51.7511940305
 20
23.4703254412
 11
54.5070995423
 21
23.4703254412
  0
LINE
  5
470
100
AcDbEntity
  8
3_AXES_OTHER
100
AcDbLine
 62
7
  6
CONTINUOUS
 10
50.5128082037
 20
21.6720578722
 11
50.5128082037
 21
30.9772544275
  0
LINE
  5
471
100
AcDbEntity
  8
3_ALL_AXES
100
AcDbLine
 62
7
  6
CENTER
 10
53.1291467864
 20
23.8640262286
 11
52.8700467851
 21
23.8640262286
  0
LINE
  5
472
100
AcDbEntity
  8
3_ALL_AXES
100
AcDbLine
 62
7
  6
CENTER
 10
53.1291467864
 20
23.8640262286
 11
53.3950635874
 21
23.8640262286
  0
LINE
  5
473
100
AcDbEntity
  8
3_AXES_OTHER
100
AcDbLine
 62
7
  6
CONTINUOUS
 10
51.2606428494
 20
21.7288456652
 11
51.2606428494
 21
30.9204666345
  0
LINE
  5
474
100
AcDbEntity
  8
3_AXES_OTHER
100
AcDbLine
 62
7
  6
CONTINUOUS
 10
51.7511940305
 20
27.0136325278
 11
51.7511940305
 21
23.4703254412
  0
LINE
  5
475
100
AcDbEntity
  8
3_AXES_OTHER
100
AcDbLine
 62
7
  6
CONTINUOUS
 10
52.0907609596
 20
29.3315459136
 11
52.0907609596
 21
27.2547742601
  0
LINE
  5
476
100
AcDbEntity
  8
3_ALL_AXES
100
AcDbLine
 62
7
  6
CENTER
 10
52.1252097785
 20
25.2419789845
 11
52.1252097785
 21
25.0018775481
  0
LINE
  5
477
100
AcDbEntity
  8
3_ALL_AXES
100
AcDbLine
 62
7
  6
CENTER
 10
52.1252097785
 20
25.2419789845
 11
52.1252097785
 21
25.4820804209
  0
LINE
  5
478
100
AcDbEntity
  8
3_ALL_AXES
100
AcDbLine
 62
7
  6
CENTER
 10
54.1330837943
 20
25.2419789845
 11
53.8965504237
 21
25.2419789845
  0
LINE
  5
479
100
AcDbEntity
  8
3_ALL_AXES
100
AcDbLine
 62
7
  6
CENTER
 10
53.1291467864
 20
25.2419789845
 11
52.3163733831
 21
25.2419789845
  0
LINE
  5
47A
100
AcDbEntity
  8
3_ALL_AXES
100
AcDbLine
 62
7
  6
CENTER
 10
52.1252097785
 20
25.2419789845
 11
51.8851083421
 21
25.2419789845
  0
LINE
  5
47B
100
AcDbEntity
  8
3_ALL_AXES
100
AcDbLine
 62
7
  6
CENTER
 10
52.1252097785
 20
25.2419789845
 11
52.3163733831
 21
25.2419789845
  0
LINE
  5
47C
100
AcDbEntity
  8
3_ALL_AXES
100
AcDbLine
 62
7
  6
CENTER
 10
53.1291467864
 20
25.2419789845
 11
53.8965504237
 21
25.2419789845
  0
LINE
  5
47D
100
AcDbEntity
  8
3_ALL_AXES
100
AcDbLine
 62
7
  6
CENTER
 10
54.1330837943
 20
25.2419789845
 11
54.3696171648
 21
25.2419789845
  0
LINE
  5
47E
100
AcDbEntity
  8
3_AXES_OTHER
100
AcDbLine
 62
7
  6
CONTINUOUS
 10
52.6370208021
 20
28.1110734727
 11
52.6370208021
 21
27.5992624491
  0
LINE
  5
47F
100
AcDbEntity
  8
3_ALL_AXES
100
AcDbLine
 62
7
  6
CENTER
 10
53.1291467864
 20
26.6199317404
 11
53.1291467864
 21
26.4288420681
  0
LINE
  5
480
100
AcDbEntity
  8
3_ALL_AXES
100
AcDbLine
 62
7
  6
CENTER
 10
53.1291467864
 20
26.3246561499
 11
53.1291467864
 21
26.1024299906
  0
LINE
  5
481
100
AcDbEntity
  8
3_ALL_AXES
100
AcDbLine
 62
7
  6
CENTER
 10
53.1291467864
 20
25.2419789845
 11
53.1291467864
 21
20.7652598027
  0
LINE
  5
482
100
AcDbEntity
  8
3_ALL_AXES
100
AcDbLine
 62
7
  6
CENTER
 10
53.1291467864
 20
26.3246561499
 11
53.1291467864
 21
26.4288420681
  0
LINE
  5
483
100
AcDbEntity
  8
3_ALL_AXES
100
AcDbLine
 62
7
  6
CENTER
 10
53.1291467864
 20
26.6199317404
 11
53.1291467864
 21
26.8439077076
  0
LINE
  5
484
100
AcDbEntity
  8
3_ALL_AXES
100
AcDbLine
 62
7
  6
CENTER
 10
53.1291467864
 20
25.2419789845
 11
53.1291467864
 21
26.1024299906
  0
LINE
  5
485
100
AcDbEntity
  8
3_ALL_AXES
100
AcDbLine
 62
7
  6
CENTER
 10
53.1291467864
 20
26.8439077076
 11
53.1291467864
 21
32.0133945325
  0
LINE
  5
486
100
AcDbEntity
  8
3_ALL_AXES
100
AcDbLine
 62
7
  6
CENTER
 10
53.1291467864
 20
26.3246561499
 11
50.0584229106
 21
26.3246561499
  0
LINE
  5
487
100
AcDbEntity
  8
3_ALL_AXES
100
AcDbLine
 62
7
  6
CENTER
 10
53.1291467864
 20
26.3246561499
 11
56.2319141106
 21
26.3246561499
  0
LINE
  5
488
100
AcDbEntity
  8
3_ALL_AXES
100
AcDbLine
 62
7
  6
CENTER
 10
53.1291467864
 20
26.6199317404
 11
52.7987449593
 21
26.6199317404
  0
LINE
  5
489
100
AcDbEntity
  8
3_ALL_AXES
100
AcDbLine
 62
7
  6
CENTER
 10
53.1291467864
 20
26.6199317404
 11
53.4144714708
 21
26.6199317404
  0
LINE
  5
48A
100
AcDbEntity
  8
3_AXES_OTHER
100
AcDbLine
 62
7
  6
CONTINUOUS
 10
53.6212727706
 20
27.5992624491
 11
53.6212727706
 21
28.1110734727
  0
LINE
  5
48B
100
AcDbEntity
  8
3_AXES_OTHER
100
AcDbLine
 62
7
  6
CONTINUOUS
 10
54.5070995423
 20
27.0136325278
 11
51.7511940305
 21
27.0136325278
  0
LINE
  5
48C
100
AcDbEntity
  8
3_ALL_AXES
100
AcDbLine
 62
7
  6
CENTER
 10
54.1330837943
 20
25.2419789845
 11
54.1330837943
 21
25.005445614
  0
LINE
  5
48D
100
AcDbEntity
  8
3_ALL_AXES
100
AcDbLine
 62
7
  6
CENTER
 10
54.1330837943
 20
25.2419789845
 11
54.1330837943
 21
25.478512355
  0
LINE
  5
48E
100
AcDbEntity
  8
3_AXES_OTHER
100
AcDbLine
 62
7
  6
CONTINUOUS
 10
54.1675326132
 20
27.2547742601
 11
54.1675326132
 21
29.3315459136
  0
LINE
  5
48F
100
AcDbEntity
  8
3_AXES_OTHER
100
AcDbLine
 62
7
  6
CONTINUOUS
 10
52.0907609596
 20
27.2547742601
 11
54.1675326132
 21
27.2547742601
  0
LINE
  5
490
100
AcDbEntity
  8
3_AXES_OTHER
100
AcDbLine
 62
7
  6
CONTINUOUS
 10
52.6370208021
 20
27.5992624491
 11
53.6212727706
 21
27.5992624491
  0
LINE
  5
491
100
AcDbEntity
  8
3_AXES_OTHER
100
AcDbLine
 62
7
  6
CONTINUOUS
 10
54.5070995423
 20
23.4703254412
 11
54.5070995423
 21
27.0136325278
  0
LINE
  5
492
100
AcDbEntity
  8
3_AXES_OTHER
100
AcDbLine
 62
7
  6
CONTINUOUS
 10
54.9976507234
 20
21.7288456652
 11
54.9976507234
 21
30.9204666345
  0
LINE
  5
493
100
AcDbEntity
  8
3_AXES_OTHER
100
AcDbLine
 62
7
  6
CONTINUOUS
 10
53.6212727706
 20
28.1110734727
 11
52.6370208021
 21
28.1110734727
  0
LINE
  5
494
100
AcDbEntity
  8
3_AXES_OTHER
100
AcDbLine
 62
7
  6
CONTINUOUS
 10
55.7454853691
 20
21.6720578722
 11
55.7454853691
 21
30.9772544275
  0
LINE
  5
495
100
AcDbEntity
  8
3_AXES_OTHER
100
AcDbLine
 62
7
  6
CONTINUOUS
 10
56.3480444242
 20
21.2368996107
 11
56.3480444242
 21
31.412412689
  0
LINE
  5
496
100
AcDbEntity
  8
3_AXES_OTHER
100
AcDbLine
 62
7
  6
CONTINUOUS
 10
54.1675326132
 20
29.3315459136
 11
52.0907609596
 21
29.3315459136
  0
LINE
  5
497
100
AcDbEntity
  8
3_AXES_OTHER
100
AcDbLine
 62
7
  6
CONTINUOUS
 10
51.2606428494
 20
30.9204666345
 11
54.9976507234
 21
30.9204666345
  0
LINE
  5
498
100
AcDbEntity
  8
3_AXES_OTHER
100
AcDbLine
 62
7
  6
CONTINUOUS
 10
55.2287530856
 20
31.5370577247
 11
51.0295404872
 21
31.5370577247
  0
LINE
  5
499
100
AcDbEntity
  8
3_AXES_OTHER
100
AcDbLine
 62
7
  6
CONTINUOUS
 10
63.1910594463
 20
34.5595494263
 11
65.5005085494
 21
33.2258391924
  0
LINE
  5
49A
100
AcDbEntity
  8
3_AXES_OTHER
100
AcDbLine
 62
7
  6
CONTINUOUS
 10
63.1910594463
 20
34.702042633
 11
65.5005085494
 21
33.3683323991
  0
LINE
  5
49B
100
AcDbEntity
  8
3_AXES_OTHER
100
AcDbLine
 62
7
  6
CONTINUOUS
 10
63.0854324653
 20
35.1256675029
 11
66.2340560376
 21
33.307332786
  0
LINE
  5
49C
100
AcDbEntity
  8
3_AXES_OTHER
100
AcDbLine
 62
7
  6
CONTINUOUS
 10
63.0684504434
 20
41.4583599166
 11
63.0684504434
 21
41.3380797877
  0
LINE
  5
49D
100
AcDbEntity
  8
3_AXES_OTHER
100
AcDbLine
 62
7
  6
CONTINUOUS
 10
63.0684504434
 20
35.0036317803
 11
63.0684504434
 21
34.8833516514
  0
LINE
  5
49E
100
AcDbEntity
  8
3_AXES_OTHER
100
AcDbLine
 62
7
  6
CONTINUOUS
 10
63.0854324653
 20
35.1256675029
 11
63.0854324653
 21
41.2205923059
  0
LINE
  5
49F
100
AcDbEntity
  8
3_AXES_OTHER
100
AcDbLine
 62
7
  6
CONTINUOUS
 10
63.1910594463
 20
34.5595494263
 11
63.1910594463
 21
34.702042633
  0
LINE
  5
4A0
100
AcDbEntity
  8
3_AXES_OTHER
100
AcDbLine
 62
7
  6
CONTINUOUS
 10
63.1910594463
 20
41.0364906404
 11
63.1910594463
 21
41.1789838471
  0
LINE
  5
4A1
100
AcDbEntity
  8
3_AXES_OTHER
100
AcDbLine
 62
7
  6
CONTINUOUS
 10
63.0854324653
 20
35.1256675029
 11
63.0684578711
 21
35.0036317591
  0
LINE
  5
4A2
100
AcDbEntity
  8
3_AXES_OTHER
100
AcDbLine
 62
7
  6
CONTINUOUS
 10
65.5005085494
 20
33.2258391924
 11
65.5005085494
 21
33.3683323991
  0
LINE
  5
4A3
100
AcDbEntity
  8
3_AXES_OTHER
100
AcDbLine
 62
7
  6
CONTINUOUS
 10
65.5005085494
 20
39.7027804065
 11
65.5005085494
 21
39.8452736132
  0
LINE
  5
4A4
100
AcDbEntity
  8
3_AXES_OTHER
100
AcDbLine
 62
7
  6
CONTINUOUS
 10
66.2340560376
 20
33.307332786
 11
66.2340560376
 21
39.6417807934
  0
LINE
  5
4A5
100
AcDbEntity
  8
3_AXES_OTHER
100
AcDbLine
 62
7
  6
CONTINUOUS
 10
70.123520719
 20
40.1012400203
 11
69.7987341397
 21
39.9136752958
  0
LINE
  5
4A6
100
AcDbEntity
  8
3_AXES_OTHER
100
AcDbLine
 62
7
  6
CONTINUOUS
 10
66.8280195612
 20
33.3606292184
 11
66.8280195612
 21
39.8217719904
  0
LINE
  5
4A7
100
AcDbEntity
  8
3_ALL_AXES
100
AcDbLine
 62
7
  6
CONTINUOUS
 10
69.0736740251
 20
38.714898709
 11
69.2706026825
 21
38.8286252966
  0
LINE
  5
4A8
100
AcDbEntity
  8
3_AXES_OTHER
100
AcDbLine
 62
7
  6
CONTINUOUS
 10
63.1910594463
 20
41.0364906404
 11
65.5005085494
 21
39.7027804065
  0
LINE
  5
4A9
100
AcDbEntity
  8
3_AXES_OTHER
100
AcDbLine
 62
7
  6
CONTINUOUS
 10
63.1910594463
 20
41.1789838471
 11
65.5005085494
 21
39.8452736132
  0
LINE
  5
4AA
100
AcDbEntity
  8
3_AXES_OTHER
100
AcDbLine
 62
7
  6
CONTINUOUS
 10
69.7987341397
 20
37.6637825587
 11
69.0736740251
 21
38.082505835
  0
LINE
  5
4AB
100
AcDbEntity
  8
3_AXES_OTHER
100
AcDbLine
 62
7
  6
CONTINUOUS
 10
70.123520719
 20
37.8513472831
 11
69.7987341397
 21
37.6637825587
  0
LINE
  5
4AC
100
AcDbEntity
  8
3_AXES_OTHER
100
AcDbLine
 62
7
  6
CONTINUOUS
 10
68.9821124172
 20
35.2636903964
 11
68.9821124172
 21
41.1722085225
  0
LINE
  5
4AD
100
AcDbEntity
  8
3_AXES_OTHER
100
AcDbLine
 62
7
  6
CONTINUOUS
 10
69.0736740251
 20
35.466519569
 11
69.0736740251
 21
41.3301355233
  0
LINE
  5
4AE
100
AcDbEntity
  8
3_AXES_OTHER
100
AcDbLine
 62
7
  6
CONTINUOUS
 10
69.7987341397
 20
39.9136752958
 11
69.7987341397
 21
37.6637825587
  0
LINE
  5
4AF
100
AcDbEntity
  8
3_AXES_OTHER
100
AcDbLine
 62
7
  6
CONTINUOUS
 10
69.0736740251
 20
40.3323985722
 11
69.7987341397
 21
39.9136752958
  0
LINE
  5
4B0
100
AcDbEntity
  8
3_AXES_OTHER
100
AcDbLine
 62
7
  6
CONTINUOUS
 10
70.123520719
 20
40.1012400203
 11
70.123520719
 21
37.8513472831
  0
LINE
  5
4B1
100
AcDbEntity
  8
3_AXES_OTHER
100
AcDbLine
 62
7
  6
CONTINUOUS
 10
69.0736740251
 20
40.7075280211
 11
70.123520719
 21
40.1012400203
  0
LINE
  5
4B2
100
AcDbEntity
  8
3_AXES_OTHER
100
AcDbLine
 62
7
  6
CONTINUOUS
 10
68.8951778761
 20
41.5609840938
 11
66.8399284024
 21
42.7478936701
  0
CIRCLE
  5
4B3
100
AcDbEntity
  8
7_ALL_ROUNDS
100
AcDbCircle
 62
7
  6
CONTINUOUS
 10
16.5534264253
 20
28.6868608743
 40
2.084076949
  0
CIRCLE
  5
4B4
100
AcDbEntity
  8
3_AXES_OTHER
100
AcDbCircle
 62
7
  6
CONTINUOUS
 10
16.5534264253
 20
24.0411915829
 40
1.8897637795
  0
CIRCLE
  5
4B5
100
AcDbEntity
  8
7_ALL_ROUNDS
100
AcDbCircle
 62
7
  6
CONTINUOUS
 10
16.5534264253
 20
28.6868608743
 40
0.9082346762
  0
CIRCLE
  5
4B6
100
AcDbEntity
  8
3_AXES_OTHER
100
AcDbCircle
 62
7
  6
CONTINUOUS
 10
16.5534264253
 20
24.0411915829
 40
0.718503937
  0
CIRCLE
  5
4B7
100
AcDbEntity
  8
3_AXES_OTHER
100
AcDbCircle
 62
7
  6
CONTINUOUS
 10
16.5534264253
 20
28.6868608743
 40
0.4133858268
  0
ARC
  5
4B8
100
AcDbEntity
  8
3_AXES_OTHER
100
AcDbCircle
 62
7
  6
CONTINUOUS
 10
55.5703683684
 20
34.2639648391
 40
42.3670282832
100
AcDbArc
 50
169.3211174083
 51
175.4899227994
  0
ARC
  5
4B9
100
AcDbEntity
  8
3_AXES_OTHER
100
AcDbCircle
 62
7
  6
CONTINUOUS
 10
-22.4625596857
 20
34.2640922806
 40
42.3660653895
100
AcDbArc
 50
4.5100070307
 51
10.6789527616
  0
CIRCLE
  5
4BA
100
AcDbEntity
  8
3_ALL_AXES
100
AcDbCircle
 62
7
  6
CONTINUOUS
 10
16.5534264253
 20
36.7517712844
 40
0.0826771654
  0
ARC
  5
4BB
100
AcDbEntity
  8
3_AXES_OTHER
100
AcDbCircle
 62
7
  6
CONTINUOUS
 10
55.5703683684
 20
20.4095953955
 40
42.3670282832
100
AcDbArc
 50
184.5100772006
 51
190.6788825917
  0
ARC
  5
4BC
100
AcDbEntity
  8
3_AXES_OTHER
100
AcDbCircle
 62
7
  6
CONTINUOUS
 10
-22.4625596857
 20
20.409467954
 40
42.3660653895
100
AcDbArc
 50
349.3210472384
 51
355.4899929693
  0
CIRCLE
  5
4BD
100
AcDbEntity
  8
3_ALL_AXES
100
AcDbCircle
 62
7
  6
CONTINUOUS
 10
16.5534264253
 20
17.9217889502
 40
0.0826771654
  0
CIRCLE
  5
4BE
100
AcDbEntity
  8
3_ALL_AXES
100
AcDbCircle
 62
7
  6
CONTINUOUS
 10
52.1252097785
 20
25.2419789845
 40
0.1377952756
  0
CIRCLE
  5
4BF
100
AcDbEntity
  8
3_ALL_AXES
100
AcDbCircle
 62
7
  6
CONTINUOUS
 10
54.1330837943
 20
25.2419789845
 40
0.1377952756
  0
CIRCLE
  5
4C0
100
AcDbEntity
  8
3_ALL_AXES
100
AcDbCircle
 62
7
  6
CONTINUOUS
 10
53.1291467864
 20
23.8640262286
 40
0.1377952756
  0
CIRCLE
  5
4C1
100
AcDbEntity
  8
3_ALL_AXES
100
AcDbCircle
 62
7
  6
CONTINUOUS
 10
53.1291467864
 20
26.6199317404
 40
0.1377952756
  0
ARC
  5
4C2
100
AcDbEntity
  8
3_AXES_OTHER
100
AcDbCircle
 62
7
  6
CONTINUOUS
 10
63.4925203298
 20
35.0031867107
 40
0.4240701199
100
AcDbArc
 50
179.9398698566
 51
195.5071687566
  0
SPLINE
  5
4C3
100
AcDbEntity
  8
3_AXES_OTHER
100
AcDbSpline
 62
7
  6
CONTINUOUS
 70
0
 71
3
 72
11
 73
7
 74
0
 42
0.0000001
 43
0.0000001
 44
0.0000000001
 40
0.0
 40
0.0
 40
0.0
 40
0.0
 40
0.15407652
 40
0.3645957631
 40
0.6488732975
 40
1.0
 40
1.0
 40
1.0
 40
1.0
 10
13.3345287875
 20
21.2368996107
 30
0.0
 10
13.3904315764
 20
21.221608698
 30
0.0
 10
13.5241926987
 20
21.1906297087
 30
0.0
 10
13.7658992273
 20
21.155177985
 30
0.0
 10
14.0829888162
 20
21.127437606
 30
0.0
 10
14.3217981098
 20
21.1160749666
 30
0.0
 10
14.4538201261
 20
21.1122545751
 30
0.0
  0
SPLINE
  5
4C4
100
AcDbEntity
  8
3_AXES_OTHER
100
AcDbSpline
 62
7
  6
CONTINUOUS
 70
0
 71
3
 72
11
 73
7
 74
0
 42
0.0000001
 43
0.0000001
 44
0.0000000001
 40
0.0
 40
0.0
 40
0.0
 40
0.0
 40
0.3511266914
 40
0.6354042296
 40
0.8459234731
 40
1.0
 40
1.0
 40
1.0
 40
1.0
 10
14.4538201261
 20
31.5370577247
 30
0.0
 10
14.321798114
 20
31.5332373332
 30
0.0
 10
14.0829888232
 20
31.5218746932
 30
0.0
 10
13.7658992365
 20
31.4941343179
 30
0.0
 10
13.5241927041
 20
31.4586825917
 30
0.0
 10
13.3904315788
 20
31.4277036024
 30
0.0
 10
13.3345287875
 20
31.412412689
 30
0.0
  0
SPLINE
  5
4C5
100
AcDbEntity
  8
3_AXES_OTHER
100
AcDbSpline
 62
7
  6
CONTINUOUS
 70
0
 71
3
 72
11
 73
7
 74
0
 42
0.0000001
 43
0.0000001
 44
0.0000000001
 40
0.0
 40
0.0
 40
0.0
 40
0.0
 40
0.1540785882
 40
0.3645958111
 40
0.6488733033
 40
1.0
 40
1.0
 40
1.0
 40
1.0
 10
19.7723240631
 20
31.412412689
 30
0.0
 10
19.7164202914
 20
31.4277029492
 30
0.0
 10
19.5826592873
 20
31.4586822255
 30
0.0
 10
19.3409528244
 20
31.4941346252
 30
0.0
 10
19.0238639937
 20
31.5218746348
 30
0.0
 10
18.7850547321
 20
31.5332372702
 30
0.0
 10
18.6530327245
 20
31.5370577247
 30
0.0
  0
SPLINE
  5
4C6
100
AcDbEntity
  8
3_AXES_OTHER
100
AcDbSpline
 62
7
  6
CONTINUOUS
 70
0
 71
3
 72
11
 73
7
 74
0
 42
0.0000001
 43
0.0000001
 44
0.0000000001
 40
0.0
 40
0.0
 40
0.0
 40
0.0
 40
0.3511266906
 40
0.635404183
 40
0.8459214046
 40
1.0
 40
1.0
 40
1.0
 40
1.0
 10
18.6530327245
 20
21.1122545751
 30
0.0
 10
18.7850547298
 20
21.1160750294
 30
0.0
 10
19.023863989
 20
21.1274376655
 30
0.0
 10
19.3409528175
 20
21.1551776716
 30
0.0
 10
19.5826592823
 20
21.1906300737
 30
0.0
 10
19.7164202888
 20
21.2216093498
 30
0.0
 10
19.7723240631
 20
21.2368996107
 30
0.0
  0
SPLINE
  5
4C7
100
AcDbEntity
  8
3_AXES_OTHER
100
AcDbSpline
 62
7
  6
CONTINUOUS
 70
0
 71
3
 72
10
 73
6
 74
0
 42
0.0000001
 43
0.0000001
 44
0.0000000001
 40
0.0
 40
0.0
 40
0.0
 40
0.0
 40
0.4803788564
 40
0.9614406656
 40
1.0
 40
1.0
 40
1.0
 40
1.0
 10
14.4538201261
 20
36.3009838828
 30
0.0
 10
14.1834889759
 20
36.3822259028
 30
0.0
 10
13.6973997257
 20
36.7451741846
 30
0.0
 10
13.4449971214
 20
37.2870523767
 30
0.0
 10
13.3420331105
 20
37.574154656
 30
0.0
 10
13.3345287875
 20
37.5954720718
 30
0.0
  0
SPLINE
  5
4C8
100
AcDbEntity
  8
3_AXES_OTHER
100
AcDbSpline
 62
7
  6
CONTINUOUS
 70
0
 71
3
 72
10
 73
6
 74
0
 42
0.0000001
 43
0.0000001
 44
0.0000000001
 40
0.0
 40
0.0
 40
0.0
 40
0.0
 40
0.0385814484
 40
0.5196283266
 40
1.0
 40
1.0
 40
1.0
 40
1.0
 10
19.7723240631
 20
37.5954720718
 30
0.0
 10
19.7648150471
 20
37.5741426098
 30
0.0
 10
19.6618439989
 20
37.2870385098
 30
0.0
 10
19.4094420627
 20
36.7451597612
 30
0.0
 10
18.9233595682
 20
36.3822259517
 30
0.0
 10
18.6530327245
 20
36.3009838828
 30
0.0
  0
SPLINE
  5
4C9
100
AcDbEntity
  8
3_AXES_OTHER
100
AcDbSpline
 62
7
  6
CONTINUOUS
 70
0
 71
3
 72
9
 73
5
 74
0
 42
0.0000001
 43
0.0000001
 44
0.0000000001
 40
0.0
 40
0.0
 40
0.0
 40
0.0
 40
0.4957793218
 40
1.0
 40
1.0
 40
1.0
 40
1.0
 10
19.169765008
 20
42.1147634104
 30
0.0
 10
19.138087212
 20
42.2787755751
 30
0.0
 10
18.9387133005
 20
42.588605649
 30
0.0
 10
18.5916153114
 20
42.7112805685
 30
0.0
 10
18.4219303623
 20
42.7045271899
 30
0.0
  0
SPLINE
  5
4CA
100
AcDbEntity
  8
3_AXES_OTHER
100
AcDbSpline
 62
7
  6
CONTINUOUS
 70
0
 71
3
 72
9
 73
5
 74
0
 42
0.0000001
 43
0.0000001
 44
0.0000000001
 40
0.0
 40
0.0
 40
0.0
 40
0.0
 40
0.5041928907
 40
1.0
 40
1.0
 40
1.0
 40
1.0
 10
14.6849224883
 20
42.7045271899
 30
0.0
 10
14.5152453078
 20
42.7112867757
 30
0.0
 10
14.1681388492
 20
42.5886237969
 30
0.0
 10
13.9687590789
 20
42.2787876534
 30
0.0
 10
13.9370878426
 20
42.1147634104
 30
0.0
  0
SPLINE
  5
4CB
100
AcDbEntity
  8
3_AXES_OTHER
100
AcDbSpline
 62
7
  6
CONTINUOUS
 70
0
 71
3
 72
10
 73
6
 74
0
 42
0.0000001
 43
0.0000001
 44
0.0000000001
 40
0.0
 40
0.0
 40
0.0
 40
0.0
 40
0.0385593344
 40
0.5196211436
 40
1.0
 40
1.0
 40
1.0
 40
1.0
 10
13.3345287875
 20
17.0780881628
 30
0.0
 10
13.3420331105
 20
17.0994055786
 30
0.0
 10
13.4449971214
 20
17.386507858
 30
0.0
 10
13.6973997257
 20
17.9283860501
 30
0.0
 10
14.1834889759
 20
18.2913343318
 30
0.0
 10
14.4538201261
 20
18.3725763518
 30
0.0
  0
SPLINE
  5
4CC
100
AcDbEntity
  8
3_AXES_OTHER
100
AcDbSpline
 62
7
  6
CONTINUOUS
 70
0
 71
3
 72
10
 73
6
 74
0
 42
0.0000001
 43
0.0000001
 44
0.0000000001
 40
0.0
 40
0.0
 40
0.0
 40
0.0
 40
0.4803716734
 40
0.9614185516
 40
1.0
 40
1.0
 40
1.0
 40
1.0
 10
18.6530327245
 20
18.3725763518
 30
0.0
 10
18.9233595682
 20
18.291334283
 30
0.0
 10
19.4094420627
 20
17.9284004734
 30
0.0
 10
19.6618439989
 20
17.3865217249
 30
0.0
 10
19.7648150471
 20
17.0994176248
 30
0.0
 10
19.7723240631
 20
17.0780881628
 30
0.0
  0
SPLINE
  5
4CD
100
AcDbEntity
  8
3_AXES_OTHER
100
AcDbSpline
 62
7
  6
CONTINUOUS
 70
0
 71
3
 72
9
 73
5
 74
0
 42
0.0000001
 43
0.0000001
 44
0.0000000001
 40
0.0
 40
0.0
 40
0.0
 40
0.0
 40
0.5042206782
 40
1.0
 40
1.0
 40
1.0
 40
1.0
 10
18.4219303623
 20
11.9690330447
 30
0.0
 10
18.5916153114
 20
11.9622796661
 30
0.0
 10
18.9387133005
 20
12.0849545856
 30
0.0
 10
19.138087212
 20
12.3947846596
 30
0.0
 10
19.169765008
 20
12.5587968242
 30
0.0
  0
SPLINE
  5
4CE
100
AcDbEntity
  8
3_AXES_OTHER
100
AcDbSpline
 62
7
  6
CONTINUOUS
 70
0
 71
3
 72
9
 73
5
 74
0
 42
0.0000001
 43
0.0000001
 44
0.0000000001
 40
0.0
 40
0.0
 40
0.0
 40
0.0
 40
0.4958071093
 40
1.0
 40
1.0
 40
1.0
 40
1.0
 10
13.9370878426
 20
12.5587968242
 30
0.0
 10
13.9687590789
 20
12.3947725812
 30
0.0
 10
14.1681388492
 20
12.0849364378
 30
0.0
 10
14.5152453078
 20
11.9622734589
 30
0.0
 10
14.6849224883
 20
11.9690330447
 30
0.0
  0
SPLINE
  5
4CF
100
AcDbEntity
  8
3_AXES_OTHER
100
AcDbSpline
 62
7
  6
CONTINUOUS
 70
0
 71
3
 72
11
 73
7
 74
0
 42
0.0000001
 43
0.0000001
 44
0.0000000001
 40
0.0
 40
0.0
 40
0.0
 40
0.0
 40
0.15407652
 40
0.3645957631
 40
0.6488732975
 40
1.0
 40
1.0
 40
1.0
 40
1.0
 10
56.3480444242
 20
21.2368996107
 30
0.0
 10
56.2921416353
 20
21.221608698
 30
0.0
 10
56.158380513
 20
21.1906297087
 30
0.0
 10
55.9166739844
 20
21.155177985
 30
0.0
 10
55.5995843955
 20
21.127437606
 30
0.0
 10
55.3607751019
 20
21.1160749666
 30
0.0
 10
55.2287530856
 20
21.1122545751
 30
0.0
  0
SPLINE
  5
4D0
100
AcDbEntity
  8
3_AXES_OTHER
100
AcDbSpline
 62
7
  6
CONTINUOUS
 70
0
 71
3
 72
11
 73
7
 74
0
 42
0.0000001
 43
0.0000001
 44
0.0000000001
 40
0.0
 40
0.0
 40
0.0
 40
0.0
 40
0.3511266914
 40
0.6354042296
 40
0.8459234731
 40
1.0
 40
1.0
 40
1.0
 40
1.0
 10
55.2287530856
 20
31.5370577247
 30
0.0
 10
55.3607750977
 20
31.5332373332
 30
0.0
 10
55.5995843885
 20
31.5218746932
 30
0.0
 10
55.9166739752
 20
31.4941343179
 30
0.0
 10
56.1583805077
 20
31.4586825917
 30
0.0
 10
56.2921416329
 20
31.4277036024
 30
0.0
 10
56.3480444242
 20
31.412412689
 30
0.0
  0
SPLINE
  5
4D1
100
AcDbEntity
  8
3_AXES_OTHER
100
AcDbSpline
 62
7
  6
CONTINUOUS
 70
0
 71
3
 72
11
 73
7
 74
0
 42
0.0000001
 43
0.0000001
 44
0.0000000001
 40
0.0
 40
0.0
 40
0.0
 40
0.0
 40
0.1540785882
 40
0.3645958111
 40
0.6488733033
 40
1.0
 40
1.0
 40
1.0
 40
1.0
 10
49.9102491486
 20
31.412412689
 30
0.0
 10
49.9661529203
 20
31.4277029492
 30
0.0
 10
50.0999139244
 20
31.4586822255
 30
0.0
 10
50.3416203873
 20
31.4941346252
 30
0.0
 10
50.658709218
 20
31.5218746348
 30
0.0
 10
50.8975184796
 20
31.5332372702
 30
0.0
 10
51.0295404872
 20
31.5370577247
 30
0.0
  0
SPLINE
  5
4D2
100
AcDbEntity
  8
3_AXES_OTHER
100
AcDbSpline
 62
7
  6
CONTINUOUS
 70
0
 71
3
 72
11
 73
7
 74
0
 42
0.0000001
 43
0.0000001
 44
0.0000000001
 40
0.0
 40
0.0
 40
0.0
 40
0.0
 40
0.3511266906
 40
0.635404183
 40
0.8459214046
 40
1.0
 40
1.0
 40
1.0
 40
1.0
 10
51.0295404872
 20
21.1122545751
 30
0.0
 10
50.8975184819
 20
21.1160750294
 30
0.0
 10
50.6587092227
 20
21.1274376655
 30
0.0
 10
50.3416203942
 20
21.1551776716
 30
0.0
 10
50.0999139294
 20
21.1906300737
 30
0.0
 10
49.9661529229
 20
21.2216093498
 30
0.0
 10
49.9102491486
 20
21.2368996107
 30
0.0
  0
SPLINE
  5
4D3
100
AcDbEntity
  8
3_AXES_OTHER
100
AcDbSpline
 62
7
  6
CONTINUOUS
 70
0
 71
3
 72
14
 73
10
 74
0
 42
0.0000001
 43
0.0000001
 44
0.0000000001
 40
0.0
 40
0.0
 40
0.0
 40
0.0
 40
0.3377544064
 40
0.4946761042
 40
0.6379056099
 40
0.7635881787
 40
0.868267919
 40
0.9484449823
 40
1.0
 40
1.0
 40
1.0
 40
1.0
 10
51.2606428494
 20
21.7288456652
 30
0.0
 10
51.1759739485
 20
21.7291701382
 30
0.0
 10
51.0519408372
 20
21.7273354411
 30
0.0
 10
50.8921676704
 20
21.7206199909
 30
0.0
 10
50.785604699
 20
21.7139716983
 30
0.0
 10
50.6923337032
 20
21.7057511865
 30
0.0
 10
50.6149322383
 20
21.6964574619
 30
0.0
 10
50.5567543673
 20
21.6860816078
 30
0.0
 10
50.5243745403
 20
21.6778241269
 30
0.0
 10
50.5128082037
 20
21.6720578722
 30
0.0
  0
SPLINE
  5
4D4
100
AcDbEntity
  8
3_AXES_OTHER
100
AcDbSpline
 62
7
  6
CONTINUOUS
 70
0
 71
3
 72
14
 73
10
 74
0
 42
0.0000001
 43
0.0000001
 44
0.0000000001
 40
0.0
 40
0.0
 40
0.0
 40
0.0
 40
0.0515489679
 40
0.1317230695
 40
0.2364021479
 40
0.3620855824
 40
0.5053169973
 40
0.6622412016
 40
1.0
 40
1.0
 40
1.0
 40
1.0
 10
55.7454853691
 20
21.6720578722
 30
0.0
 10
55.7339210299
 20
21.6778247499
 30
0.0
 10
55.7015431687
 20
21.6860821055
 30
0.0
 10
55.6433679672
 20
21.6964582002
 30
0.0
 10
55.5659670618
 20
21.7057519305
 30
0.0
 10
55.4726955255
 20
21.7139725434
 30
0.0
 10
55.3661311552
 20
21.720620805
 30
0.0
 10
55.2063556879
 20
21.7273360585
 30
0.0
 10
55.0823207699
 20
21.7291704557
 30
0.0
 10
54.9976507234
 20
21.7288456652
 30
0.0
  0
SPLINE
  5
4D5
100
AcDbEntity
  8
3_AXES_OTHER
100
AcDbSpline
 62
7
  6
CONTINUOUS
 70
0
 71
3
 72
14
 73
10
 74
0
 42
0.0000001
 43
0.0000001
 44
0.0000000001
 40
0.0
 40
0.0
 40
0.0
 40
0.0
 40
0.3377587984
 40
0.4946830027
 40
0.6379144176
 40
0.7635978521
 40
0.8682769305
 40
0.9484510321
 40
1.0
 40
1.0
 40
1.0
 40
1.0
 10
54.9976507234
 20
30.9204666345
 30
0.0
 10
55.0823207699
 20
30.920141844
 30
0.0
 10
55.2063556879
 20
30.9219762412
 30
0.0
 10
55.3661311552
 20
30.9286914948
 30
0.0
 10
55.4726955255
 20
30.9353397563
 30
0.0
 10
55.5659670618
 20
30.9435603692
 30
0.0
 10
55.6433679672
 20
30.9528540995
 30
0.0
 10
55.7015431687
 20
30.9632301942
 30
0.0
 10
55.7339210299
 20
30.9714875498
 30
0.0
 10
55.7454853691
 20
30.9772544275
 30
0.0
  0
SPLINE
  5
4D6
100
AcDbEntity
  8
3_AXES_OTHER
100
AcDbSpline
 62
7
  6
CONTINUOUS
 70
0
 71
3
 72
9
 73
5
 74
0
 42
0.0000001
 43
0.0000001
 44
0.0000000001
 40
0.0
 40
0.0
 40
0.0
 40
0.0
 40
0.5651816327
 40
1.0
 40
1.0
 40
1.0
 40
1.0
 10
55.7454853691
 20
21.6720578722
 30
0.0
 10
55.8708218679
 20
21.6081183481
 30
0.0
 10
56.0871286383
 20
21.4839381752
 30
0.0
 10
56.2794455757
 20
21.3206379236
 30
0.0
 10
56.3480444242
 20
21.2368996107
 30
0.0
  0
SPLINE
  5
4D7
100
AcDbEntity
  8
3_AXES_OTHER
100
AcDbSpline
 62
7
  6
CONTINUOUS
 70
0
 71
3
 72
9
 73
5
 74
0
 42
0.0000001
 43
0.0000001
 44
0.0000000001
 40
0.0
 40
0.0
 40
0.0
 40
0.0
 40
0.4348183673
 40
1.0
 40
1.0
 40
1.0
 40
1.0
 10
56.3480444242
 20
31.412412689
 30
0.0
 10
56.2794455757
 20
31.3286743761
 30
0.0
 10
56.0871286383
 20
31.1653741246
 30
0.0
 10
55.8708218679
 20
31.0411939517
 30
0.0
 10
55.7454853691
 20
30.9772544275
 30
0.0
  0
SPLINE
  5
4D8
100
AcDbEntity
  8
3_AXES_OTHER
100
AcDbSpline
 62
7
  6
CONTINUOUS
 70
0
 71
3
 72
14
 73
10
 74
0
 42
0.0000001
 43
0.0000001
 44
0.0000000001
 40
0.0
 40
0.0
 40
0.0
 40
0.0
 40
0.0515550177
 40
0.131732081
 40
0.2364118213
 40
0.3620943901
 40
0.5053238958
 40
0.6622455936
 40
1.0
 40
1.0
 40
1.0
 40
1.0
 10
50.5128082037
 20
30.9772544275
 30
0.0
 10
50.5243745403
 20
30.9714881728
 30
0.0
 10
50.5567543673
 20
30.9632306919
 30
0.0
 10
50.6149322383
 20
30.9528548378
 30
0.0
 10
50.6923337032
 20
30.9435611132
 30
0.0
 10
50.785604699
 20
30.9353406014
 30
0.0
 10
50.8921676704
 20
30.9286923088
 30
0.0
 10
51.0519408372
 20
30.9219768586
 30
0.0
 10
51.1759739485
 20
30.9201421615
 30
0.0
 10
51.2606428494
 20
30.9204666345
 30
0.0
  0
SPLINE
  5
4D9
100
AcDbEntity
  8
3_AXES_OTHER
100
AcDbSpline
 62
7
  6
CONTINUOUS
 70
0
 71
3
 72
9
 73
5
 74
0
 42
0.0000001
 43
0.0000001
 44
0.0000000001
 40
0.0
 40
0.0
 40
0.0
 40
0.0
 40
0.4348169037
 40
1.0
 40
1.0
 40
1.0
 40
1.0
 10
49.9102491486
 20
21.2368996107
 30
0.0
 10
49.9788471409
 20
21.3206381853
 30
0.0
 10
50.1711640647
 20
21.4839388478
 30
0.0
 10
50.387471175
 20
21.6081185157
 30
0.0
 10
50.5128082037
 20
21.6720578722
 30
0.0
  0
SPLINE
  5
4DA
100
AcDbEntity
  8
3_AXES_OTHER
100
AcDbSpline
 62
7
  6
CONTINUOUS
 70
0
 71
3
 72
9
 73
5
 74
0
 42
0.0000001
 43
0.0000001
 44
0.0000000001
 40
0.0
 40
0.0
 40
0.0
 40
0.0
 40
0.5651830963
 40
1.0
 40
1.0
 40
1.0
 40
1.0
 10
50.5128082037
 20
30.9772544275
 30
0.0
 10
50.387471175
 20
31.041193784
 30
0.0
 10
50.1711640647
 20
31.1653734519
 30
0.0
 10
49.9788471409
 20
31.3286741144
 30
0.0
 10
49.9102491486
 20
31.412412689
 30
0.0
  0
SPLINE
  5
4DB
100
AcDbEntity
  8
3_AXES_OTHER
100
AcDbSpline
 62
7
  6
CONTINUOUS
 70
0
 71
3
 72
9
 73
5
 74
0
 42
0.0000001
 43
0.0000001
 44
0.0000000001
 40
0.0
 40
0.0
 40
0.0
 40
0.0
 40
0.4898940457
 40
1.0
 40
1.0
 40
1.0
 40
1.0
 10
65.5005085494
 20
39.7027804065
 30
0.0
 10
65.615811034
 20
39.6669676418
 30
0.0
 10
65.8614660458
 20
39.6271196971
 30
0.0
 10
66.1088687825
 20
39.6302470672
 30
0.0
 10
66.2340560376
 20
39.6417807934
 30
0.0
  0
SPLINE
  5
4DC
100
AcDbEntity
  8
3_AXES_OTHER
100
AcDbSpline
 62
7
  6
CONTINUOUS
 70
0
 71
3
 72
11
 73
7
 74
0
 42
0.0000001
 43
0.0000001
 44
0.0000000001
 40
0.0
 40
0.0
 40
0.0
 40
0.0
 40
0.2447960179
 40
0.4997681493
 40
0.7529738928
 40
1.0
 40
1.0
 40
1.0
 40
1.0
 10
65.5005085494
 20
33.2258391924
 30
0.0
 10
65.6067820167
 20
33.1955609648
 30
0.0
 10
65.832801243
 20
33.1655205844
 30
0.0
 10
66.1735899147
 20
33.1818838324
 30
0.0
 10
66.5083490391
 20
33.2523209869
 30
0.0
 10
66.7230679397
 20
33.3229533326
 30
0.0
 10
66.8280195612
 20
33.3606292184
 30
0.0
  0
SPLINE
  5
4DD
100
AcDbEntity
  8
3_AXES_OTHER
100
AcDbSpline
 62
7
  6
CONTINUOUS
 70
0
 71
3
 72
9
 73
5
 74
0
 42
0.0000001
 43
0.0000001
 44
0.0000000001
 40
0.0
 40
0.0
 40
0.0
 40
0.0
 40
0.2546277162
 40
1.0
 40
1.0
 40
1.0
 40
1.0
 10
66.8280195612
 20
33.3606292184
 30
0.0
 10
67.0188384179
 20
33.5127308131
 30
0.0
 10
67.7608609671
 20
34.1192490623
 30
0.0
 10
68.4727643071
 20
34.7628647762
 30
0.0
 10
68.9821124172
 20
35.2636903964
 30
0.0
  0
SPLINE
  5
4DE
100
AcDbEntity
  8
3_ALL_AXES
100
AcDbSpline
 62
7
  6
CONTINUOUS
 70
0
 71
3
 72
12
 73
8
 74
0
 42
0.0000001
 43
0.0000001
 44
0.0000000001
 40
0.0
 40
0.0
 40
0.0
 40
0.0
 40
0.1832716406
 40
0.3014699805
 40
0.4362077708
 40
0.7289493337
 40
1.0
 40
1.0
 40
1.0
 40
1.0
 10
69.5394402518
 20
39.0003259254
 30
0.0
 10
69.5506489495
 20
39.0067996934
 30
0.0
 10
69.5751975496
 20
39.0055443404
 30
0.0
 10
69.6018877316
 20
38.9904194905
 30
0.0
 10
69.6311184194
 20
38.9647449423
 30
0.0
 10
69.6582630866
 20
38.9225782597
 30
0.0
 10
69.668819508
 20
38.8828982756
 30
0.0
 10
69.668819508
 20
38.863754817
 30
0.0
  0
SPLINE
  5
4DF
100
AcDbEntity
  8
3_AXES_OTHER
100
AcDbSpline
 62
7
  6
CONTINUOUS
 70
0
 71
3
 72
11
 73
7
 74
0
 42
0.0000001
 43
0.0000001
 44
0.0000000001
 40
0.0
 40
0.0
 40
0.0
 40
0.0
 40
0.2323681863
 40
0.4911669621
 40
0.7545528837
 40
1.0
 40
1.0
 40
1.0
 40
1.0
 10
66.8399284024
 20
42.7478936701
 30
0.0
 10
66.7901035085
 20
42.778825509
 30
0.0
 10
66.6738213504
 20
42.8261797626
 30
0.0
 10
66.4864764505
 20
42.8641597796
 30
0.0
 10
66.2920581411
 20
42.8703634069
 30
0.0
 10
66.1636630659
 20
42.8518153949
 30
0.0
 10
66.1042868003
 20
42.8341570241
 30
0.0
  0
SPLINE
  5
4E0
100
AcDbEntity
  8
3_ALL_AXES
100
AcDbSpline
 62
7
  6
CONTINUOUS
 70
0
 71
3
 72
9
 73
5
 74
0
 42
0.0000001
 43
0.0000001
 44
0.0000000001
 40
0.0
 40
0.0
 40
0.0
 40
0.0
 40
0.2611529627
 40
1.0
 40
1.0
 40
1.0
 40
1.0
 10
69.074076461
 20
38.4109246378
 30
0.0
 10
69.0805577144
 20
38.4035373193
 30
0.0
 10
69.1027361798
 20
38.3732349282
 30
0.0
 10
69.1166823232
 20
38.3354601726
 30
0.0
 10
69.1166823232
 20
38.3076565619
 30
0.0
  0
SPLINE
  5
4E1
100
AcDbEntity
  8
3_AXES_OTHER
100
AcDbSpline
 62
7
  6
CONTINUOUS
 70
0
 71
3
 72
9
 73
5
 74
0
 42
0.0000001
 43
0.0000001
 44
0.0000000001
 40
0.0
 40
0.0
 40
0.0
 40
0.0
 40
0.2448185017
 40
1.0
 40
1.0
 40
1.0
 40
1.0
 10
63.2874127982
 20
41.8664775731
 30
0.0
 10
63.5138940634
 20
41.9548082124
 30
0.0
 10
64.4428077086
 20
42.3057794261
 30
0.0
 10
65.3861579737
 20
42.6182934889
 30
0.0
 10
66.1042868003
 20
42.8341570241
 30
0.0
  0
SPLINE
  5
4E2
100
AcDbEntity
  8
3_ALL_AXES
100
AcDbSpline
 62
7
  6
CONTINUOUS
 70
0
 71
3
 72
9
 73
5
 74
0
 42
0.0000001
 43
0.0000001
 44
0.0000000001
 40
0.0
 40
0.0
 40
0.0
 40
0.0
 40
0.2611529627
 40
1.0
 40
1.0
 40
1.0
 40
1.0
 10
69.074076461
 20
40.1608412111
 30
0.0
 10
69.0805577144
 20
40.1534538926
 30
0.0
 10
69.1027361798
 20
40.1231515015
 30
0.0
 10
69.1166823232
 20
40.085376746
 30
0.0
 10
69.1166823232
 20
40.0575731352
 30
0.0
  0
SPLINE
  5
4E3
100
AcDbEntity
  8
3_ALL_AXES
100
AcDbSpline
 62
7
  6
CONTINUOUS
 70
0
 71
3
 72
11
 73
7
 74
0
 42
0.0000001
 43
0.0000001
 44
0.0000000001
 40
0.0
 40
0.0
 40
0.0
 40
0.0
 40
0.2715664683
 40
0.5647857346
 40
0.8164055175
 40
1.0
 40
1.0
 40
1.0
 40
1.0
 10
64.6391745412
 20
34.152102861
 30
0.0
 10
64.629224313
 20
34.1463565897
 30
0.0
 10
64.6053862765
 20
34.1398463667
 30
0.0
 10
64.5705295947
 20
34.1419534033
 30
0.0
 10
64.5409248806
 20
34.1530548268
 30
0.0
 10
64.5293990092
 20
34.1706186969
 30
0.0
 10
64.5294022654
 20
34.1783867875
 30
0.0
  0
SPLINE
  5
4E4
100
AcDbEntity
  8
3_ALL_AXES
100
AcDbSpline
 62
7
  6
CONTINUOUS
 70
0
 71
3
 72
9
 73
5
 74
0
 42
0.0000001
 43
0.0000001
 44
0.0000000001
 40
0.0
 40
0.0
 40
0.0
 40
0.0
 40
0.2208989402
 40
1.0
 40
1.0
 40
1.0
 40
1.0
 10
64.6580065748
 20
34.1783370573
 30
0.0
 10
64.658005549
 20
34.1758899142
 30
0.0
 10
64.6560190425
 20
34.1647370156
 30
0.0
 10
64.6466486903
 20
34.156419193
 30
0.0
 10
64.6391745412
 20
34.152102861
 30
0.0
  0
SPLINE
  5
4E5
100
AcDbEntity
  8
7_ALL_ROUNDS
100
AcDbSpline
 62
7
  6
CONTINUOUS
 70
0
 71
3
 72
14
 73
10
 74
0
 42
0.0000001
 43
0.0000001
 44
0.0000000001
 40
0.0
 40
0.0
 40
0.0
 40
0.0
 40
0.0778721134
 40
0.2068140563
 40
0.5382462867
 40
0.705988851
 40
0.8517800578
 40
0.9557026714
 40
1.0
 40
1.0
 40
1.0
 40
1.0
 10
65.4471788531
 20
38.7219023304
 30
0.0
 10
65.4471788531
 20
38.7508780004
 30
0.0
 10
65.4383069063
 20
38.8277256301
 30
0.0
 10
65.3890419969
 20
39.0222428656
 30
0.0
 10
65.2869507622
 20
39.2358959327
 30
0.0
 10
65.1483621643
 20
39.4321573015
 30
0.0
 10
65.0434874608
 20
39.5475449335
 30
0.0
 10
64.9593249404
 20
39.6177277746
 30
0.0
 10
64.9127266135
 20
39.647846527
 30
0.0
 10
64.8977335469
 20
39.6546940258
 30
0.0
  0
SPLINE
  5
4E6
100
AcDbEntity
  8
3_ALL_AXES
100
AcDbSpline
 62
7
  6
CONTINUOUS
 70
0
 71
3
 72
9
 73
5
 74
0
 42
0.0000001
 43
0.0000001
 44
0.0000000001
 40
0.0
 40
0.0
 40
0.0
 40
0.0
 40
0.5508264657
 40
1.0
 40
1.0
 40
1.0
 40
1.0
 10
69.1166823232
 20
40.0575731352
 30
0.0
 10
69.1166823232
 20
40.0473412395
 30
0.0
 10
69.1142025462
 20
40.0283281827
 30
0.0
 10
69.1017196353
 20
40.0127052223
 30
0.0
 10
69.0944945091
 20
40.0085322317
 30
0.0
  0
SPLINE
  5
4E7
100
AcDbEntity
  8
3_ALL_AXES
100
AcDbSpline
 62
7
  6
CONTINUOUS
 70
0
 71
3
 72
9
 73
5
 74
0
 42
0.0000001
 43
0.0000001
 44
0.0000000001
 40
0.0
 40
0.0
 40
0.0
 40
0.0
 40
0.5508264657
 40
1.0
 40
1.0
 40
1.0
 40
1.0
 10
69.1166823232
 20
38.3076565619
 30
0.0
 10
69.1166823232
 20
38.2974246662
 30
0.0
 10
69.1142025462
 20
38.2784116094
 30
0.0
 10
69.1017196353
 20
38.262788649
 30
0.0
 10
69.0944945091
 20
38.2586156583
 30
0.0
  0
SPLINE
  5
4E8
100
AcDbEntity
  8
3_ALL_AXES
100
AcDbSpline
 62
7
  6
CONTINUOUS
 70
0
 71
3
 72
9
 73
5
 74
0
 42
0.0000001
 43
0.0000001
 44
0.0000000001
 40
0.0
 40
0.0
 40
0.0
 40
0.0
 40
0.5508264657
 40
1.0
 40
1.0
 40
1.0
 40
1.0
 10
69.668819508
 20
38.863754817
 30
0.0
 10
69.668819508
 20
38.8535229213
 30
0.0
 10
69.666339731
 20
38.8345098645
 30
0.0
 10
69.6538568201
 20
38.8188869041
 30
0.0
 10
69.6466316939
 20
38.8147139135
 30
0.0
  0
SPLINE
  5
4E9
100
AcDbEntity
  8
7_ALL_ROUNDS
100
AcDbSpline
 62
7
  6
CONTINUOUS
 70
0
 71
3
 72
9
 73
5
 74
0
 42
0.0000001
 43
0.0000001
 44
0.0000000001
 40
0.0
 40
0.0
 40
0.0
 40
0.0
 40
0.1380426671
 40
1.0
 40
1.0
 40
1.0
 40
1.0
 10
65.4465211002
 20
38.7044149542
 30
0.0
 10
65.4465974555
 20
38.7052166894
 30
0.0
 10
65.4470593674
 20
38.7110330831
 30
0.0
 10
65.4471788531
 20
38.7168735343
 30
0.0
 10
65.4471788531
 20
38.7219023304
 30
0.0
  0
SPLINE
  5
4EA
100
AcDbEntity
  8
3_AXES_OTHER
100
AcDbSpline
 62
7
  6
CONTINUOUS
 70
0
 71
3
 72
11
 73
7
 74
0
 42
0.0000001
 43
0.0000001
 44
0.0000000001
 40
0.0
 40
0.0
 40
0.0
 40
0.0
 40
0.2062700376
 40
0.4350155238
 40
0.6976110512
 40
1.0
 40
1.0
 40
1.0
 40
1.0
 10
69.0736780584
 20
41.3301352894
 30
0.0
 10
69.0736640443
 20
41.3510964117
 30
0.0
 10
69.0647613058
 20
41.395562796
 30
0.0
 10
69.0282826277
 20
41.4574547545
 30
0.0
 10
68.9707228445
 20
41.5149136311
 30
0.0
 10
68.9222439407
 20
41.5464347963
 30
0.0
 10
68.8951778761
 20
41.5609840938
 30
0.0
  0
SPLINE
  5
4EB
100
AcDbEntity
  8
3_AXES_OTHER
100
AcDbSpline
 62
7
  6
CONTINUOUS
 70
0
 71
3
 72
9
 73
5
 74
0
 42
0.0000001
 43
0.0000001
 44
0.0000000001
 40
0.0
 40
0.0
 40
0.0
 40
0.0
 40
0.471167769
 40
1.0
 40
1.0
 40
1.0
 40
1.0
 10
69.0736780584
 20
35.4665197815
 30
0.0
 10
69.0736977094
 20
35.4308691191
 30
0.0
 10
69.0562879502
 20
35.3545946049
 30
0.0
 10
69.0105232054
 20
35.2918672111
 30
0.0
 10
68.9821124172
 20
35.2636903964
 30
0.0
  0
SPLINE
  5
4EC
100
AcDbEntity
  8
3_AXES_OTHER
100
AcDbSpline
 62
7
  6
CONTINUOUS
 70
0
 71
3
 72
9
 73
5
 74
0
 42
0.0000001
 43
0.0000001
 44
0.0000000001
 40
0.0
 40
0.0
 40
0.0
 40
0.0
 40
0.4853572138
 40
1.0
 40
1.0
 40
1.0
 40
1.0
 10
63.068448312
 20
34.8833515395
 30
0.0
 10
63.0684466058
 20
34.8263664961
 30
0.0
 10
63.0880929974
 20
34.7078184087
 30
0.0
 10
63.1508467136
 20
34.6046484894
 30
0.0
 10
63.1910594463
 20
34.5595494263
 30
0.0
  0
SPLINE
  5
4ED
100
AcDbEntity
  8
3_AXES_OTHER
100
AcDbSpline
 62
7
  6
CONTINUOUS
 70
0
 71
3
 72
9
 73
5
 74
0
 42
0.0000001
 43
0.0000001
 44
0.0000000001
 40
0.0
 40
0.0
 40
0.0
 40
0.0
 40
0.4795518311
 40
1.0
 40
1.0
 40
1.0
 40
1.0
 10
63.0684504434
 20
41.3380797665
 30
0.0
 10
63.068450446
 20
41.2850798673
 30
0.0
 10
63.0894164696
 20
41.1734464493
 30
0.0
 10
63.151858044
 20
41.0785830562
 30
0.0
 10
63.1910594463
 20
41.0364906404
 30
0.0
  0
SPLINE
  5
4EE
100
AcDbEntity
  8
3_AXES_OTHER
100
AcDbSpline
 62
7
  6
CONTINUOUS
 70
0
 71
3
 72
11
 73
7
 74
0
 42
0.0000001
 43
0.0000001
 44
0.0000000001
 40
0.0
 40
0.0
 40
0.0
 40
0.0
 40
0.2316380666
 40
0.4730812281
 40
0.7297481468
 40
1.0
 40
1.0
 40
1.0
 40
1.0
 10
63.0684483157
 20
41.4583600403
 30
0.0
 10
63.0684496482
 20
41.4949691741
 30
0.0
 10
63.0806389329
 20
41.5701390896
 30
0.0
 10
63.1303015076
 20
41.6753079804
 30
0.0
 10
63.2015591241
 20
41.7741377398
 30
0.0
 10
63.2577113645
 20
41.8357835108
 30
0.0
 10
63.2874127982
 20
41.8664775731
 30
0.0
  0
SPLINE
  5
4EF
100
AcDbEntity
  8
7_ALL_ROUNDS
100
AcDbSpline
 62
7
  6
CONTINUOUS
 70
0
 71
3
 72
15
 73
11
 74
0
 42
0.0000001
 43
0.0000001
 44
0.0000000001
 40
0.0
 40
0.0
 40
0.0
 40
0.0
 40
0.1473389191
 40
0.2801946729
 40
0.4002259632
 40
0.5117394259
 40
0.6212058651
 40
0.7357256953
 40
0.8609438218
 40
1.0
 40
1.0
 40
1.0
 40
1.0
 10
64.4502049951
 20
39.3395713942
 30
0.0
 10
64.4502049951
 20
39.3731166274
 30
0.0
 10
64.4549857804
 20
39.4370977627
 30
0.0
 10
64.4790797414
 20
39.5256643072
 30
0.0
 10
64.5195656861
 20
39.5991843829
 30
0.0
 10
64.5758038282
 20
39.6545195982
 30
0.0
 10
64.6457123411
 20
39.6885028748
 30
0.0
 10
64.7255933065
 20
39.6996160595
 30
0.0
 10
64.811914825
 20
39.6883800374
 30
0.0
 10
64.8689353869
 20
39.6678465138
 30
0.0
 10
64.8977335469
 20
39.6546940256
 30
0.0
  0
SPLINE
  5
4F0
100
AcDbEntity
  8
3_AXES_OTHER
100
AcDbSpline
 62
7
  6
CONTINUOUS
 70
0
 71
3
 72
19
 73
15
 74
0
 42
0.0000001
 43
0.0000001
 44
0.0000000001
 40
0.0
 40
0.0
 40
0.0
 40
0.0
 40
0.0604538862
 40
0.1145476831
 40
0.1631870154
 40
0.2086140241
 40
0.2540362296
 40
0.3026705592
 40
0.3567431506
 40
0.4171900693
 40
0.5554321946
 40
0.7085800506
 40
0.861733398
 40
1.0
 40
1.0
 40
1.0
 40
1.0
 10
65.0711406916
 20
36.6276034454
 30
0.0
 10
65.0466134605
 20
36.6417679572
 30
0.0
 10
64.9978353224
 20
36.6649897705
 30
0.0
 10
64.9228702564
 20
36.6831042201
 30
0.0
 10
64.8524793919
 20
36.6813225685
 30
0.0
 10
64.7898293993
 20
36.6586273478
 30
0.0
 10
64.7388277887
 20
36.6157437972
 30
0.0
 10
64.7020843203
 20
36.555700572
 30
0.0
 10
64.6802558058
 20
36.4817228428
 30
0.0
 10
64.6708759162
 20
36.3630203659
 30
0.0
 10
64.7003087477
 20
36.1982533575
 30
0.0
 10
64.7849626793
 20
36.0062225669
 30
0.0
 10
64.9088813063
 20
35.8369051869
 30
0.0
 10
65.0150434395
 20
35.7475431916
 30
0.0
 10
65.0711406916
 20
35.7151469465
 30
0.0
  0
SPLINE
  5
4F1
100
AcDbEntity
  8
3_AXES_OTHER
100
AcDbSpline
 62
7
  6
CONTINUOUS
 70
0
 71
3
 72
19
 73
15
 74
0
 42
0.0000001
 43
0.0000001
 44
0.0000000001
 40
0.0
 40
0.0
 40
0.0
 40
0.0
 40
0.138266602
 40
0.2914199494
 40
0.4445678054
 40
0.5828099307
 40
0.6432568494
 40
0.6973294408
 40
0.7459637704
 40
0.7913859759
 40
0.8368129846
 40
0.8854523169
 40
0.9395461138
 40
1.0
 40
1.0
 40
1.0
 40
1.0
 10
65.0711406916
 20
36.6276034454
 30
0.0
 10
65.1272379437
 20
36.5952072003
 30
0.0
 10
65.2334000769
 20
36.5058452049
 30
0.0
 10
65.3573187039
 20
36.336527825
 30
0.0
 10
65.4419726355
 20
36.1444970344
 30
0.0
 10
65.471405467
 20
35.979730026
 30
0.0
 10
65.4620255775
 20
35.861027549
 30
0.0
 10
65.440197063
 20
35.7870498199
 30
0.0
 10
65.4034535945
 20
35.7270065947
 30
0.0
 10
65.3524519839
 20
35.6841230441
 30
0.0
 10
65.2898019913
 20
35.6614278234
 30
0.0
 10
65.2194111268
 20
35.6596461718
 30
0.0
 10
65.1444460608
 20
35.6777606214
 30
0.0
 10
65.0956679227
 20
35.7009824347
 30
0.0
 10
65.0711406916
 20
35.7151469465
 30
0.0
  0
SPLINE
  5
4F2
100
AcDbEntity
  8
3_ALL_AXES
100
AcDbSpline
 62
7
  6
CONTINUOUS
 70
0
 71
3
 72
12
 73
8
 74
0
 42
0.0000001
 43
0.0000001
 44
0.0000000001
 40
0.0
 40
0.0
 40
0.0
 40
0.0
 40
0.1832716406
 40
0.3014699805
 40
0.4362077708
 40
0.7289493337
 40
1.0
 40
1.0
 40
1.0
 40
1.0
 10
69.6466316939
 20
38.8147139135
 30
0.0
 10
69.6354229961
 20
38.8082401454
 30
0.0
 10
69.610874396
 20
38.8094954984
 30
0.0
 10
69.584184214
 20
38.8246203484
 30
0.0
 10
69.5549535262
 20
38.8502948965
 30
0.0
 10
69.5278088591
 20
38.8924615791
 30
0.0
 10
69.5172524376
 20
38.9321415633
 30
0.0
 10
69.5172524376
 20
38.9512850218
 30
0.0
  0
SPLINE
  5
4F3
100
AcDbEntity
  8
3_ALL_AXES
100
AcDbSpline
 62
7
  6
CONTINUOUS
 70
0
 71
3
 72
9
 73
5
 74
0
 42
0.0000001
 43
0.0000001
 44
0.0000000001
 40
0.0
 40
0.0
 40
0.0
 40
0.0
 40
0.2208989402
 40
1.0
 40
1.0
 40
1.0
 40
1.0
 10
64.5294022654
 20
34.1783867875
 30
0.0
 10
64.5294032911
 20
34.1808339305
 30
0.0
 10
64.5313897976
 20
34.1919868291
 30
0.0
 10
64.5407601499
 20
34.2003046518
 30
0.0
 10
64.548234299
 20
34.2046209838
 30
0.0
  0
SPLINE
  5
4F4
100
AcDbEntity
  8
3_AXES_OTHER
100
AcDbSpline
 62
7
  6
CONTINUOUS
 70
0
 71
3
 72
9
 73
5
 74
0
 42
0.0000001
 43
0.0000001
 44
0.0000000001
 40
0.0
 40
0.0
 40
0.0
 40
0.0
 40
0.2719874963
 40
1.0
 40
1.0
 40
1.0
 40
1.0
 10
63.1910594463
 20
41.1789838471
 30
0.0
 10
63.1785634435
 20
41.1918045385
 30
0.0
 10
63.1349920016
 20
41.2411390478
 30
0.0
 10
63.1017845562
 20
41.3000361441
 30
0.0
 10
63.0867613846
 20
41.345540421
 30
0.0
  0
SPLINE
  5
4F5
100
AcDbEntity
  8
3_AXES_OTHER
100
AcDbSpline
 62
7
  6
CONTINUOUS
 70
0
 71
3
 72
9
 73
5
 74
0
 42
0.0000001
 43
0.0000001
 44
0.0000000001
 40
0.0
 40
0.0
 40
0.0
 40
0.0
 40
0.2562831753
 40
1.0
 40
1.0
 40
1.0
 40
1.0
 10
63.0867613846
 20
41.345540421
 30
0.0
 10
63.0836929112
 20
41.3548346412
 30
0.0
 10
63.0731357717
 20
41.3915523199
 30
0.0
 10
63.0684472818
 20
41.4299569324
 30
0.0
 10
63.0684483157
 20
41.4583600403
 30
0.0
  0
SPLINE
  5
4F6
100
AcDbEntity
  8
3_ALL_AXES
100
AcDbSpline
 62
7
  6
CONTINUOUS
 70
0
 71
3
 72
8
 73
4
 74
0
 42
0.0000001
 43
0.0000001
 44
0.0000000001
 40
0.0
 40
0.0
 40
0.0
 40
0.0
 40
1.0
 40
1.0
 40
1.0
 40
1.0
 10
69.0944945091
 20
38.2586156583
 30
0.0
 10
69.0884255513
 20
38.2551104318
 30
0.0
 10
69.081084136
 20
38.2534918291
 30
0.0
 10
69.074076461
 20
38.2535983815
 30
0.0
  0
SPLINE
  5
4F7
100
AcDbEntity
  8
3_AXES_OTHER
100
AcDbSpline
 62
7
  6
CONTINUOUS
 70
0
 71
3
 72
11
 73
7
 74
0
 42
0.0000001
 43
0.0000001
 44
0.0000000001
 40
0.0
 40
0.0
 40
0.0
 40
0.0
 40
0.2406801586
 40
0.4917650056
 40
0.7494709677
 40
1.0
 40
1.0
 40
1.0
 40
1.0
 10
66.8280195612
 20
39.8217719904
 30
0.0
 10
66.7223825855
 20
39.8012217971
 30
0.0
 10
66.5053950678
 20
39.7645055695
 30
0.0
 10
66.1702679759
 20
39.7407563952
 30
0.0
 10
65.8305433015
 20
39.7622258615
 30
0.0
 10
65.606686598
 20
39.8095671959
 30
0.0
 10
65.5005085494
 20
39.8452736132
 30
0.0
  0
SPLINE
  5
4F8
100
AcDbEntity
  8
3_ALL_AXES
100
AcDbSpline
 62
7
  6
CONTINUOUS
 70
0
 71
3
 72
10
 73
6
 74
0
 42
0.0000001
 43
0.0000001
 44
0.0000000001
 40
0.0
 40
0.0
 40
0.0
 40
0.0
 40
0.5476895026
 40
0.7815581289
 40
1.0
 40
1.0
 40
1.0
 40
1.0
 10
69.3656853673
 20
39.0388152265
 30
0.0
 10
69.3656853673
 20
38.994968655
 30
0.0
 10
69.3563607676
 20
38.9303884508
 30
0.0
 10
69.3140939283
 20
38.8612033196
 30
0.0
 10
69.2857455798
 20
38.8373732231
 30
0.0
 10
69.2706015683
 20
38.828627665
 30
0.0
  0
SPLINE
  5
4F9
100
AcDbEntity
  8
3_AXES_OTHER
100
AcDbSpline
 62
7
  6
CONTINUOUS
 70
0
 71
3
 72
9
 73
5
 74
0
 42
0.0000001
 43
0.0000001
 44
0.0000000001
 40
0.0
 40
0.0
 40
0.0
 40
0.0
 40
0.4898940457
 40
1.0
 40
1.0
 40
1.0
 40
1.0
 10
65.5005085494
 20
33.3683323991
 30
0.0
 10
65.615811034
 20
33.3325196344
 30
0.0
 10
65.8614660458
 20
33.2926716897
 30
0.0
 10
66.1088687825
 20
33.2957990598
 30
0.0
 10
66.2340560376
 20
33.307332786
 30
0.0
  0
SPLINE
  5
4FA
100
AcDbEntity
  8
3_ALL_AXES
100
AcDbSpline
 62
7
  6
CONTINUOUS
 70
0
 71
3
 72
9
 73
5
 74
0
 42
0.0000001
 43
0.0000001
 44
0.0000000001
 40
0.0
 40
0.0
 40
0.0
 40
0.0
 40
0.5508264657
 40
1.0
 40
1.0
 40
1.0
 40
1.0
 10
69.5172524376
 20
38.9512850218
 30
0.0
 10
69.5172524376
 20
38.9615169175
 30
0.0
 10
69.5197322146
 20
38.9805299743
 30
0.0
 10
69.5322151256
 20
38.9961529347
 30
0.0
 10
69.5394402518
 20
39.0003259254
 30
0.0
  0
SPLINE
  5
4FB
100
AcDbEntity
  8
3_ALL_AXES
100
AcDbSpline
 62
7
  6
CONTINUOUS
 70
0
 71
3
 72
8
 73
4
 74
0
 42
0.0000001
 43
0.0000001
 44
0.0000000001
 40
0.0
 40
0.0
 40
0.0
 40
0.0
 40
1.0
 40
1.0
 40
1.0
 40
1.0
 10
69.0944945091
 20
40.0085322317
 30
0.0
 10
69.0884255513
 20
40.0050270051
 30
0.0
 10
69.081084136
 20
40.0034084024
 30
0.0
 10
69.074076461
 20
40.0035149548
 30
0.0
  0
SPLINE
  5
4FC
100
AcDbEntity
  8
7_ALL_ROUNDS
100
AcDbSpline
 62
7
  6
CONTINUOUS
 70
0
 71
3
 72
19
 73
15
 74
0
 42
0.0000001
 43
0.0000001
 44
0.0000000001
 40
0.0
 40
0.0
 40
0.0
 40
0.0
 40
0.0571369536
 40
0.1083771271
 40
0.1552083459
 40
0.2001946699
 40
0.2464833339
 40
0.2968088806
 40
0.3528292598
 40
0.4150643944
 40
0.5556750572
 40
0.7094077336
 40
0.8621242756
 40
1.0
 40
1.0
 40
1.0
 40
1.0
 10
65.4465154654
 20
38.7044188865
 30
0.0
 10
65.4434108103
 20
38.6718292348
 30
0.0
 10
65.4321926413
 20
38.6102602493
 30
0.0
 10
65.3966981114
 20
38.5277258167
 30
0.0
 10
65.3438716003
 20
38.4633537235
 30
0.0
 10
65.2752902811
 20
38.420936595
 30
0.0
 10
65.1947795505
 20
38.402967625
 30
0.0
 10
65.1065555082
 20
38.4093257034
 30
0.0
 10
65.0137931542
 20
38.4386806127
 30
0.0
 10
64.8826581011
 20
38.5094081916
 30
0.0
 10
64.7283074946
 20
38.6473873906
 30
0.0
 10
64.5796342337
 20
38.8582309836
 30
0.0
 10
64.4788632968
 20
39.093950806
 30
0.0
 10
64.4502049951
 20
39.2605740919
 30
0.0
 10
64.4502049951
 20
39.3395713942
 30
0.0
  0
SPLINE
  5
4FD
100
AcDbEntity
  8
3_AXES_OTHER
100
AcDbSpline
 62
7
  6
CONTINUOUS
 70
0
 71
3
 72
9
 73
5
 74
0
 42
0.0000001
 43
0.0000001
 44
0.0000000001
 40
0.0
 40
0.0
 40
0.0
 40
0.0
 40
0.2432791624
 40
1.0
 40
1.0
 40
1.0
 40
1.0
 10
68.9821124172
 20
41.1722085225
 30
0.0
 10
68.8138921409
 20
41.0529074272
 30
0.0
 10
68.1150874704
 20
40.5728997201
 30
0.0
 10
67.388734525
 20
40.1333716936
 30
0.0
 10
66.8280195612
 20
39.8217719904
 30
0.0
  0
SPLINE
  5
4FE
100
AcDbEntity
  8
3_AXES_OTHER
100
AcDbSpline
 62
7
  6
CONTINUOUS
 70
0
 71
3
 72
9
 73
5
 74
0
 42
0.0000001
 43
0.0000001
 44
0.0000000001
 40
0.0
 40
0.0
 40
0.0
 40
0.0
 40
0.4514580428
 40
1.0
 40
1.0
 40
1.0
 40
1.0
 10
65.0848346487
 20
39.4997259162
 30
0.0
 10
65.065836975
 20
39.4858701355
 30
0.0
 10
65.0344868215
 20
39.4403498982
 30
0.0
 10
65.0278358144
 20
39.3873867611
 30
0.0
 10
65.0278358144
 20
39.3588165467
 30
0.0
  0
SPLINE
  5
4FF
100
AcDbEntity
  8
7_ALL_ROUNDS
100
AcDbSpline
 62
7
  6
CONTINUOUS
 70
0
 71
3
 72
19
 73
15
 74
0
 42
0.0000001
 43
0.0000001
 44
0.0000000001
 40
0.0
 40
0.0
 40
0.0
 40
0.0
 40
0.0604487174
 40
0.1145187386
 40
0.1631541738
 40
0.2085767378
 40
0.2540027816
 40
0.3026465957
 40
0.356731905
 40
0.417191753
 40
0.5554538785
 40
0.7086103132
 40
0.8617594557
 40
1.0
 40
1.0
 40
1.0
 40
1.0
 10
65.8059282025
 20
38.2217297319
 30
0.0
 10
65.8059282025
 20
38.1395821195
 30
0.0
 10
65.7935136351
 20
37.9834103492
 30
0.0
 10
65.7302251482
 20
37.7688973982
 30
0.0
 10
65.6236497074
 20
37.5947169514
 30
0.0
 10
65.4757143384
 20
37.4703380193
 30
0.0
 10
65.2939876306
 20
37.4044896607
 30
0.0
 10
65.0898342864
 20
37.399351567
 30
0.0
 10
64.872315252
 20
37.4518749774
 30
0.0
 10
64.5605011899
 20
37.6005396508
 30
0.0
 10
64.1892629521
 20
37.9134756233
 30
0.0
 10
63.8296328639
 20
38.4046507643
 30
0.0
 10
63.5840519432
 20
38.9614690344
 30
0.0
 10
63.5135605132
 20
39.3577115432
 30
0.0
 10
63.5135605132
 20
39.5455754244
 30
0.0
  0
SPLINE
  5
500
100
AcDbEntity
  8
7_ALL_ROUNDS
100
AcDbSpline
 62
7
  6
CONTINUOUS
 70
0
 71
3
 72
15
 73
11
 74
0
 42
0.0000001
 43
0.0000001
 44
0.0000000001
 40
0.0
 40
0.0
 40
0.0
 40
0.0
 40
0.1482688747
 40
0.282359154
 40
0.4038059973
 40
0.5164587609
 40
0.6262973317
 40
0.7400894002
 40
0.8635090848
 40
1.0
 40
1.0
 40
1.0
 40
1.0
 10
63.5135605132
 20
39.5455754244
 30
0.0
 10
63.5135605132
 20
39.6203973609
 30
0.0
 10
63.5239351672
 20
39.7632794925
 30
0.0
 10
63.5760835596
 20
39.9616883851
 30
0.0
 10
63.6635663179
 20
40.127842363
 30
0.0
 10
63.7851532885
 20
40.2552870388
 30
0.0
 10
63.9368678533
 20
40.3374323899
 30
0.0
 10
64.111390488
 20
40.3705114984
 30
0.0
 10
64.3011538177
 20
40.3550290319
 30
0.0
 10
64.4273552634
 20
40.3158342973
 30
0.0
 10
64.4911784156
 20
40.2899338813
 30
0.0
  0
SPLINE
  5
501
100
AcDbEntity
  8
7_ALL_ROUNDS
100
AcDbSpline
 62
7
  6
CONTINUOUS
 70
0
 71
3
 72
11
 73
7
 74
0
 42
0.0000001
 43
0.0000001
 44
0.0000000001
 40
0.0
 40
0.0
 40
0.0
 40
0.0
 40
0.2457847383
 40
0.5085360178
 40
0.7667166619
 40
1.0
 40
1.0
 40
1.0
 40
1.0
 10
64.8283108319
 20
40.0952393267
 30
0.0
 10
64.9709584646
 20
39.9883694159
 30
0.0
 10
65.2357850942
 20
39.7258783202
 30
0.0
 10
65.5429088948
 20
39.2582269406
 30
0.0
 10
65.7484599958
 20
38.7476314551
 30
0.0
 10
65.8059282025
 20
38.3909039466
 30
0.0
 10
65.8059282025
 20
38.2217297319
 30
0.0
  0
SPLINE
  5
502
100
AcDbEntity
  8
3_AXES_OTHER
100
AcDbSpline
 62
7
  6
CONTINUOUS
 70
0
 71
3
 72
19
 73
15
 74
0
 42
0.0000001
 43
0.0000001
 44
0.0000000001
 40
0.0
 40
0.0
 40
0.0
 40
0.0
 40
0.0604616213
 40
0.1145440514
 40
0.1631885818
 40
0.2086144218
 40
0.2540370568
 40
0.3026716359
 40
0.3567444073
 40
0.4171912233
 40
0.555432679
 40
0.7085812218
 40
0.8617382629
 40
1.0
 40
1.0
 40
1.0
 40
1.0
 10
64.6597443579
 20
37.1337360048
 30
0.0
 10
64.5952259815
 20
37.1709954615
 30
0.0
 10
64.4669401201
 20
37.2320834767
 30
0.0
 10
64.2697652057
 20
37.2796974822
 30
0.0
 10
64.0846349629
 20
37.2750418137
 30
0.0
 10
63.9198551339
 20
37.2153330486
 30
0.0
 10
63.7857108885
 20
37.1025497623
 30
0.0
 10
63.6890736675
 20
36.9446227297
 30
0.0
 10
63.6316627646
 20
36.7500506634
 30
0.0
 10
63.6069939899
 20
36.4378466288
 30
0.0
 10
63.6844029956
 20
36.0044860797
 30
0.0
 10
63.9070551977
 20
35.4994114619
 30
0.0
 10
64.2329879168
 20
35.0540901212
 30
0.0
 10
64.5122057607
 20
34.8190541741
 30
0.0
 10
64.6597443579
 20
34.7338504185
 30
0.0
  0
SPLINE
  5
503
100
AcDbEntity
  8
3_AXES_OTHER
100
AcDbSpline
 62
7
  6
CONTINUOUS
 70
0
 71
3
 72
19
 73
15
 74
0
 42
0.0000001
 43
0.0000001
 44
0.0000000001
 40
0.0
 40
0.0
 40
0.0
 40
0.0
 40
0.0604616213
 40
0.1145440514
 40
0.1631885818
 40
0.2086144218
 40
0.2540370568
 40
0.3026716359
 40
0.3567444073
 40
0.4171912233
 40
0.555432679
 40
0.7085812218
 40
0.8617382629
 40
1.0
 40
1.0
 40
1.0
 40
1.0
 10
64.6597443579
 20
34.7338504185
 30
0.0
 10
64.7242627342
 20
34.6965909618
 30
0.0
 10
64.8525485956
 20
34.6355029466
 30
0.0
 10
65.04972351
 20
34.5878889411
 30
0.0
 10
65.2348537528
 20
34.5925446096
 30
0.0
 10
65.3996335819
 20
34.6522533747
 30
0.0
 10
65.5337778272
 20
34.765036661
 30
0.0
 10
65.6304150482
 20
34.9229636936
 30
0.0
 10
65.6878259511
 20
35.1175357599
 30
0.0
 10
65.7124947258
 20
35.4297397945
 30
0.0
 10
65.6350857201
 20
35.8631003437
 30
0.0
 10
65.412433518
 20
36.3681749614
 30
0.0
 10
65.0865007989
 20
36.8134963022
 30
0.0
 10
64.807282955
 20
37.0485322492
 30
0.0
 10
64.6597443579
 20
37.1337360048
 30
0.0
  0
SPLINE
  5
504
100
AcDbEntity
  8
3_ALL_AXES
100
AcDbSpline
 62
7
  6
CONTINUOUS
 70
0
 71
3
 72
11
 73
7
 74
0
 42
0.0000001
 43
0.0000001
 44
0.0000000001
 40
0.0
 40
0.0
 40
0.0
 40
0.0
 40
0.2715664683
 40
0.5647857346
 40
0.8164055175
 40
1.0
 40
1.0
 40
1.0
 40
1.0
 10
64.548234299
 20
34.2046209838
 30
0.0
 10
64.5581845271
 20
34.2103672551
 30
0.0
 10
64.5820225636
 20
34.2168774781
 30
0.0
 10
64.6168792454
 20
34.2147704414
 30
0.0
 10
64.6464839595
 20
34.203669018
 30
0.0
 10
64.6580098309
 20
34.1861051479
 30
0.0
 10
64.6580065748
 20
34.1783370573
 30
0.0
  0
SPLINE
  5
505
100
AcDbEntity
  8
3_AXES_OTHER
100
AcDbSpline
 62
7
  6
CONTINUOUS
 70
0
 71
3
 72
9
 73
5
 74
0
 42
0.0000001
 43
0.0000001
 44
0.0000000001
 40
0.0
 40
0.0
 40
0.0
 40
0.0
 40
0.2387131535
 40
1.0
 40
1.0
 40
1.0
 40
1.0
 10
63.0838876305
 20
34.8898077722
 30
0.0
 10
63.088514246
 20
34.873140768
 30
0.0
 10
63.112120796
 20
34.8045127315
 30
0.0
 10
63.1534641529
 20
34.7424104931
 30
0.0
 10
63.1910594463
 20
34.702042633
 30
0.0
  0
SPLINE
  5
506
100
AcDbEntity
  8
3_AXES_OTHER
100
AcDbSpline
 62
7
  6
CONTINUOUS
 70
0
 71
3
 72
9
 73
5
 74
0
 42
0.0000001
 43
0.0000001
 44
0.0000000001
 40
0.0
 40
0.0
 40
0.0
 40
0.0
 40
0.5379360858
 40
1.0
 40
1.0
 40
1.0
 40
1.0
 10
68.9821124172
 20
41.1722085225
 30
0.0
 10
69.009522377
 20
41.1918395474
 30
0.0
 10
69.0555957007
 20
41.2376852354
 30
0.0
 10
69.07369742
 20
41.3011757956
 30
0.0
 10
69.0736780584
 20
41.3301352894
 30
0.0
  0
SPLINE
  5
507
100
AcDbEntity
  8
3_ALL_AXES
100
AcDbSpline
 62
7
  6
CONTINUOUS
 70
0
 71
3
 72
11
 73
7
 74
0
 42
0.0000001
 43
0.0000001
 44
0.0000000001
 40
0.0
 40
0.0
 40
0.0
 40
0.0
 40
0.2432615017
 40
0.5060657645
 40
0.7655960463
 40
1.0
 40
1.0
 40
1.0
 40
1.0
 10
69.0738794302
 20
39.5803748966
 30
0.0
 10
69.1161245224
 20
39.5509986381
 30
0.0
 10
69.1949665032
 20
39.4766349168
 30
0.0
 10
69.2865841177
 20
39.3418088199
 30
0.0
 10
69.3482939049
 20
39.1929619314
 30
0.0
 10
69.3656853673
 20
39.0883966226
 30
0.0
 10
69.3656853673
 20
39.0388152265
 30
0.0
  0
SPLINE
  5
508
100
AcDbEntity
  8
3_AXES_OTHER
100
AcDbSpline
 62
7
  6
CONTINUOUS
 70
0
 71
3
 72
14
 73
10
 74
0
 42
0.0000001
 43
0.0000001
 44
0.0000000001
 40
0.0
 40
0.0
 40
0.0
 40
0.0
 40
0.1277365535
 40
0.2681316891
 40
0.4868486889
 40
0.6922929545
 40
0.7834000452
 40
0.864639278
 40
1.0
 40
1.0
 40
1.0
 40
1.0
 10
65.0278358144
 20
39.3588165467
 30
0.0
 10
65.0278358144
 20
39.3320921138
 30
0.0
 10
65.0351091768
 20
39.2759263298
 30
0.0
 10
65.0671923507
 20
39.1787883919
 30
0.0
 10
65.127059097
 20
39.0756389487
 30
0.0
 10
65.2028976166
 20
38.9969125337
 30
0.0
 10
65.2704637136
 20
38.9548886483
 30
0.0
 10
65.3306011276
 20
38.9318491384
 30
0.0
 10
65.3798791081
 20
38.9324358611
 30
0.0
 10
65.40577211
 20
38.943905297
 30
0.0
  0
ELLIPSE
  5
509
100
AcDbEntity
  8
3_ALL_AXES
100
AcDbEllipse
 62
7
  6
CONTINUOUS
 10
53.1291467864
 20
31.4936518348
 30
0.0
 11
0.0826771654
 21
0.0
 31
0.0
 40
0.0962890482
 41
0.0
 42
6.2831853072
  0
ELLIPSE
  5
50A
100
AcDbEntity
  8
3_ALL_AXES
100
AcDbEllipse
 62
7
  6
CONTINUOUS
 10
53.1291467864
 20
21.1556604649
 30
0.0
 11
0.0826771654
 21
-0.0
 31
0.0
 40
0.0962890482
 41
0.0
 42
6.2831853072
  0
ELLIPSE
  5
50B
100
AcDbEntity
  8
3_ALL_AXES
100
AcDbEllipse
 62
7
  6
CONTINUOUS
 10
64.5937044201
 20
40.6277417104
 30
0.0
 11
0.0642539977
 21
-0.0049009347
 31
0.0
 40
0.5197127932
 41
0.0
 42
6.2831853072
  0
ENDSEC
  0
SECTION
  2
OBJECTS
  0
DICTIONARY
  5
C
100
AcDbDictionary
280
0
281
1
  3
ACAD_GROUP
350
D
  3
ACAD_MLINESTYLE
350
17
  3
ACAD_LAYOUT
350
1A
  3
ACAD_PLOTSETTINGS
350
19
  3
ACAD_PLOTSTYLENAME
350
E
  0
DICTIONARY
  5
D
102
{ACAD_REACTORS
330
C
102
}
100
AcDbDictionary
280
0
281
1
  0
ACDBDICTIONARYWDFLT
  5
E
102
{ACAD_REACTORS
330
C
102
}
100
AcDbDictionary
281
1
  3
Normal
350
F
100
AcDbDictionaryWithDefault
340
F
  0
DICTIONARY
  5
17
102
{ACAD_REACTORS
330
C
102
}
100
AcDbDictionary
280
0
281
1
  3
Standard
350
18
  0
DICTIONARY
  5
19
102
{ACAD_REACTORS
330
C
102
}
100
AcDbDictionary
281
1
  0
DICTIONARY
  5
1A
102
{ACAD_REACTORS
330
C
102
}
100
AcDbDictionary
281
1
  3
Model
350
50C
  3
Layout1
350
50D
  0
ACDBPLACEHOLDER
  5
F
102
{ACAD_REACTORS
330
E
102
}
  0
MLINESTYLE
  5
18
102
{ACAD_REACTORS
330
17
102
}
100
AcDbMlineStyle
  2
STANDARD
 70
0
  3

 62
256
 51
90.0
 52
90.0
 71
2
 49
0.5
 62
256
  6
BYLAYER
 49
-0.5
 62
256
  6
BYLAYER
  0
LAYOUT
  5
50C
102
{ACAD_REACTORS
330
1A
102
}
100
AcDbPlotSettings
  1

  2
none_device
  4
ANSI_D_(34.00_x_22.00_Inches)
  6

 40
0.0
 41
0.0
 42
0.0
 43
0.0
 44
863.6
 45
558.8
 46
0.0
 47
0.0
 48
0.0
 49
0.0
140
0.0
141
0.0
142
1.0
143
1.0
 70
1024
 72
0
 73
0
 74
0
  7

 75
0
147
1.0
148
0.0
149
0.0
100
AcDbLayout
  1
Model
 70
0
 71
0
 10
0.0
 20
0.0
 11
34.0
 21
22.0
 12
0.0
 22
0.0
 32
0.0
 14
0.0
 24
0.0
 34
0.0
 15
0.0
 25
0.0
 35
0.0
146
0.0
 13
0.0
 23
0.0
 33
0.0
 16
1.0
 26
0.0
 36
0.0
 17
0.0
 27
1.0
 37
0.0
 76
0
330
211
345
0
346
0
  0
LAYOUT
  5
50D
102
{ACAD_REACTORS
330
1A
102
}
100
AcDbPlotSettings
  1

  2
none_device
  4
ANSI_D_(34.00_x_22.00_Inches)
  6

 40
0.0
 41
0.0
 42
0.0
 43
0.0
 44
863.6
 45
558.8
 46
0.0
 47
0.0
 48
0.0
 49
0.0
140
0.0
141
0.0
142
1.0
143
1.0
 70
0
 72
0
 73
0
 74
0
  7

 75
0
147
1.0
148
0.0
149
0.0
100
AcDbLayout
  1
Layout1
 70
0
 71
1
 10
0.0
 20
0.0
 11
34.0
 21
22.0
 12
0.0
 22
0.0
 32
0.0
 14
0.0
 24
0.0
 34
0.0
 15
0.0
 25
0.0
 35
0.0
146
0.0
 13
0.0
 23
0.0
 33
0.0
 16
1.0
 26
0.0
 36
0.0
 17
0.0
 27
1.0
 37
0.0
 76
0
330
212
345
0
346
0
  0
ENDSEC
  0
EOF
