999
DXF file: fg-901251-2d-a.dxf
999
Pro/ENGINEER 2018260 by Parametric Technology Corporation
  0
SECTION
  2
HEADER
  9
$ACADVER
  1
AC1015
  9
$DWGCODEPAGE
  3
ANSI_1252
  9
$EXTMAX
 10
863.6
 20
558.8
 30
0.0
  9
$EXTMIN
 10
0.0
 20
0.0
 30
0.0
  9
$LIMMIN
 10
0.0
 20
0.0
  9
$LIMMAX
 10
863.6
 20
558.8
  9
$VIEWCTR
 10
431.8
 20
279.4
  9
$VIEWSIZE
 40
558.8
  9
$CLAYER
  8
0
  9
$LTSCALE
 40
47.498
  9
$CELTYPE
  6
BYLAYER
  9
$DIMSCALE
 40
1.0
  9
$DIMASZ
 40
4.0
  9
$DIMEXO
 40
1.5875
  9
$DIMDLI
 40
32.8168
  9
$DIMEXE
 40
3.175
  9
$DIMCEN
 40
7.7724
  9
$DIMLFAC
 40
1.0
  9
$DIMBLK
  1
_FILLED
  9
$DIMALT
 70
1
  9
$DIMALTD
 70
1
  9
$DIMALTTD
 70
2
  9
$DIMALTF
 40
0.0393700787
  9
$DIMTXT
 40
4.572
  9
$DIMTOL
 70
1
  9
$DIMLIM
 70
0
  9
$DIMTFAC
 40
1.0
  9
$DIMTP
 40
0.02
  9
$DIMTM
 40
0.02
  9
$DIMGAP
 40
0.625
  9
$DIMDSEP
 70
46
  9
$AUNITS
 70
0
  9
$PDMODE
 70
3
  9
$PDSIZE
 40
7.9375
  9
$HANDSEED
  5
5D5
  9
$TILEMODE
 70
1
  9
$MEASUREMENT
 70
1
  9
$INSUNITS
 70
4
  0
ENDSEC
  0
SECTION
  2
CLASSES
  0
CLASS
  1
ACDBDICTIONARYWDFLT
  2
AcDbDictionaryWithDefault
  3
AutoCAD 2000
 90
0
280
0
281
0
  0
CLASS
  1
ACDBPLACEHOLDER
  2
AcDbPlaceHolder
  3
AutoCAD 2000
 90
0
280
0
281
0
  0
CLASS
  1
LAYOUT
  2
AcDbLayout
  3
AutoCAD 2000
 90
0
280
0
281
0
  0
ENDSEC
  0
SECTION
  2
TABLES
  0
TABLE
  2
VPORT
  5
8
100
AcDbSymbolTable
 70
2
  0
VPORT
  5
1F4
100
AcDbSymbolTableRecord
100
AcDbViewportTableRecord
  2
*ACTIVE
 70
0
 10
0.0
 20
0.0
 11
1.0
 21
1.0
 12
431.8
 22
279.4
 13
0.0
 23
0.0
 14
1.0
 24
1.0
 15
0.0
 25
0.0
 16
0.0
 26
0.0
 36
1.0
 17
0.0
 27
0.0
 37
0.0
 40
558.8
 41
1.5454545455
 42
50.0
 43
0.0
 44
0.0
 50
0.0
 51
0.0
 71
0
 72
100
 73
1
 74
1
 75
0
 76
0
 77
0
 78
0
  0
ENDTAB
  0
TABLE
  2
LTYPE
  5
5
100
AcDbSymbolTable
 70
6
  0
LTYPE
  5
14
100
AcDbSymbolTableRecord
100
AcDbLinetypeTableRecord
  2
BYBLOCK
 70
0
  3

 72
65
 73
0
 40
0.0
  0
LTYPE
  5
15
100
AcDbSymbolTableRecord
100
AcDbLinetypeTableRecord
  2
BYLAYER
 70
0
  3

 72
65
 73
0
 40
0.0
  0
LTYPE
  5
16
100
AcDbSymbolTableRecord
100
AcDbLinetypeTableRecord
  2
CONTINUOUS
 70
64
  3
Solid line
 72
65
 73
0
 40
0.0
  0
LTYPE
  5
1F5
100
AcDbSymbolTableRecord
100
AcDbLinetypeTableRecord
  2
CENTER
 70
64
  3
____ _ ____ _ ____ _ ____ _ ____ _ ____ _ ____
 72
65
 73
4
 40
0.6
 49
0.375
 74
0
 49
-0.075
 74
0
 49
0.075
 74
0
 49
-0.075
 74
0
  0
LTYPE
  5
1F6
100
AcDbSymbolTableRecord
100
AcDbLinetypeTableRecord
  2
HIDDEN
 70
64
  3
- - - - - - - - - - - - - - - - - - - -
 72
65
 73
2
 40
0.2
 49
0.1
 74
0
 49
-0.1
 74
0
  0
LTYPE
  5
1F7
100
AcDbSymbolTableRecord
100
AcDbLinetypeTableRecord
  2
PHANTOM
 70
64
  3
_____ _ _ _____ _ _ _____ _ _ _____
 72
65
 73
6
 40
0.8
 49
0.45
 74
0
 49
-0.05
 74
0
 49
0.1
 74
0
 49
-0.05
 74
0
 49
0.1
 74
0
 49
-0.05
 74
0
  0
LTYPE
  5
1F8
100
AcDbSymbolTableRecord
100
AcDbLinetypeTableRecord
  2
DOT
 70
64
  3
. . . . . . . . . . . . . . . . . . . .
 72
65
 73
2
 40
0.2
 49
0.1
 74
0
 49
-0.1
 74
0
  0
LTYPE
  5
1F9
100
AcDbSymbolTableRecord
100
AcDbLinetypeTableRecord
  2
DASHED
 70
64
  3
- - - - - - - - - - - - - - - - - - - -
 72
65
 73
2
 40
0.2
 49
0.1
 74
0
 49
-0.1
 74
0
  0
ENDTAB
  0
TABLE
  2
LAYER
  5
2
100
AcDbSymbolTable
 70
36
  0
LAYER
  5
10
100
AcDbSymbolTableRecord
100
AcDbLayerTableRecord
  2
0
 70
0
 62
7
  6
CONTINUOUS
370
-3
390
F
  0
LAYER
  5
1FA
100
AcDbSymbolTableRecord
100
AcDbLayerTableRecord
  2
DEFAULT_1
 70
0
 62
7
  6
CENTER
370
-3
390
F
  0
LAYER
  5
1FB
100
AcDbSymbolTableRecord
100
AcDbLayerTableRecord
  2
DEFAULT_2
 70
0
 62
8
  6
HIDDEN
370
-3
390
F
  0
LAYER
  5
1FC
100
AcDbSymbolTableRecord
100
AcDbLayerTableRecord
  2
DEFAULT_3
 70
0
 62
7
  6
PHANTOM
370
-3
390
F
  0
LAYER
  5
1FD
100
AcDbSymbolTableRecord
100
AcDbLayerTableRecord
  2
1_ALL_PLANES
 70
0
 62
7
  6
CONTINUOUS
370
-3
390
F
  0
LAYER
  5
1FE
100
AcDbSymbolTableRecord
100
AcDbLayerTableRecord
  2
1_DEF_PLANES
 70
0
 62
7
  6
CONTINUOUS
370
-3
390
F
  0
LAYER
  5
1FF
100
AcDbSymbolTableRecord
100
AcDbLayerTableRecord
  2
2_ALL_CSYS
 70
0
 62
7
  6
CONTINUOUS
370
-3
390
F
  0
LAYER
  5
200
100
AcDbSymbolTableRecord
100
AcDbLayerTableRecord
  2
2_DEF_CSYS
 70
0
 62
7
  6
CONTINUOUS
370
-3
390
F
  0
LAYER
  5
201
100
AcDbSymbolTableRecord
100
AcDbLayerTableRecord
  2
3_ALL_AXES
 70
0
 62
7
  6
CONTINUOUS
370
-3
390
F
  0
LAYER
  5
202
100
AcDbSymbolTableRecord
100
AcDbLayerTableRecord
  2
3_AXES_OTHER
 70
0
 62
7
  6
CONTINUOUS
370
-3
390
F
  0
LAYER
  5
203
100
AcDbSymbolTableRecord
100
AcDbLayerTableRecord
  2
3_HOLES
 70
0
 62
7
  6
CONTINUOUS
370
-3
390
F
  0
LAYER
  5
204
100
AcDbSymbolTableRecord
100
AcDbLayerTableRecord
  2
4_ALL_POINTS
 70
0
 62
7
  6
CONTINUOUS
370
-3
390
F
  0
LAYER
  5
205
100
AcDbSymbolTableRecord
100
AcDbLayerTableRecord
  2
5_ALL_CURVES
 70
0
 62
7
  6
CONTINUOUS
370
-3
390
F
  0
LAYER
  5
206
100
AcDbSymbolTableRecord
100
AcDbLayerTableRecord
  2
6_ALL_SURFS
 70
0
 62
7
  6
CONTINUOUS
370
-3
390
F
  0
LAYER
  5
207
100
AcDbSymbolTableRecord
100
AcDbLayerTableRecord
  2
6_COPYGEOM
 70
0
 62
7
  6
CONTINUOUS
370
-3
390
F
  0
LAYER
  5
208
100
AcDbSymbolTableRecord
100
AcDbLayerTableRecord
  2
7_ALL_ROUNDS
 70
0
 62
7
  6
CONTINUOUS
370
-3
390
F
  0
LAYER
  5
209
100
AcDbSymbolTableRecord
100
AcDbLayerTableRecord
  2
7_MERGES
 70
0
 62
7
  6
CONTINUOUS
370
-3
390
F
  0
LAYER
  5
20A
100
AcDbSymbolTableRecord
100
AcDbLayerTableRecord
  2
8_GDT
 70
0
 62
7
  6
CONTINUOUS
370
-3
390
F
  0
LAYER
  5
20B
100
AcDbSymbolTableRecord
100
AcDbLayerTableRecord
  2
8_SET_DATUMS
 70
0
 62
7
  6
CONTINUOUS
370
-3
390
F
  0
LAYER
  5
20C
100
AcDbSymbolTableRecord
100
AcDbLayerTableRecord
  2
9_COSMETICS
 70
0
 62
7
  6
CONTINUOUS
370
-3
390
F
  0
LAYER
  5
20D
100
AcDbSymbolTableRecord
100
AcDbLayerTableRecord
  2
9_THREADS
 70
0
 62
7
  6
CONTINUOUS
370
-3
390
F
  0
ENDTAB
  0
TABLE
  2
STYLE
  5
3
100
AcDbSymbolTable
 70
1
  0
STYLE
  5
11
100
AcDbSymbolTableRecord
100
AcDbTextStyleTableRecord
  2
STANDARD
 70
0
 40
0.0
 41
1.0
 50
0.0
 71
0
 42
0.2
  3
gothic.ttf
  4

  0
STYLE
  5
20E
100
AcDbSymbolTableRecord
100
AcDbTextStyleTableRecord
  2
TEXTSTYLE_1
 70
0
 40
0.0
 41
0.8
 50
0.0
 71
0
 42
0.2
  3
gdt
  4

  0
STYLE
  5
20F
100
AcDbSymbolTableRecord
100
AcDbTextStyleTableRecord
  2
TEXTSTYLE_2
 70
0
 40
0.0
 41
1.0
 50
0.0
 71
0
 42
0.2
  3
gothic.ttf
  4

  0
ENDTAB
  0
TABLE
  2
VIEW
  5
6
100
AcDbSymbolTable
 70
0
  0
ENDTAB
  0
TABLE
  2
UCS
  5
7
100
AcDbSymbolTable
 70
0
  0
ENDTAB
  0
TABLE
  2
APPID
  5
9
100
AcDbSymbolTable
 70
1
  0
APPID
  5
210
100
AcDbSymbolTableRecord
100
AcDbRegAppTableRecord
  2
ACAD
 70
0
  0
ENDTAB
  0
TABLE
  2
BLOCK_RECORD
  5
1
100
AcDbSymbolTable
 70
0
  0
BLOCK_RECORD
  5
211
100
AcDbSymbolTableRecord
100
AcDbBlockTableRecord
  2
*Model_Space
  0
BLOCK_RECORD
  5
212
100
AcDbSymbolTableRecord
100
AcDbBlockTableRecord
  2
*Paper_Space
  0
BLOCK_RECORD
  5
213
100
AcDbSymbolTableRecord
100
AcDbBlockTableRecord
  2
_FILLED
  0
BLOCK_RECORD
  5
214
100
AcDbSymbolTableRecord
100
AcDbBlockTableRecord
  2
*D0
  0
BLOCK_RECORD
  5
215
100
AcDbSymbolTableRecord
100
AcDbBlockTableRecord
  2
*D1
  0
BLOCK_RECORD
  5
216
100
AcDbSymbolTableRecord
100
AcDbBlockTableRecord
  2
*D2
  0
BLOCK_RECORD
  5
217
100
AcDbSymbolTableRecord
100
AcDbBlockTableRecord
  2
*D3
  0
BLOCK_RECORD
  5
218
100
AcDbSymbolTableRecord
100
AcDbBlockTableRecord
  2
*D4
  0
BLOCK_RECORD
  5
219
100
AcDbSymbolTableRecord
100
AcDbBlockTableRecord
  2
*D5
  0
BLOCK_RECORD
  5
21A
100
AcDbSymbolTableRecord
100
AcDbBlockTableRecord
  2
*D6
  0
BLOCK_RECORD
  5
21B
100
AcDbSymbolTableRecord
100
AcDbBlockTableRecord
  2
*D7
  0
BLOCK_RECORD
  5
21C
100
AcDbSymbolTableRecord
100
AcDbBlockTableRecord
  2
*D8
  0
BLOCK_RECORD
  5
21D
100
AcDbSymbolTableRecord
100
AcDbBlockTableRecord
  2
*D9
  0
ENDTAB
  0
TABLE
  2
DIMSTYLE
  5
A
100
AcDbSymbolTable
 70
1
100
AcDbDimStyleTable
 71
0
  0
DIMSTYLE
105
21E
100
AcDbSymbolTableRecord
100
AcDbDimStyleTableRecord
  2
STANDARD
 70
0
  3

  4

 40
1.0
 41
4.0
 42
1.5875
 43
0.38
 44
3.175
 45
0.0
 46
0.0
 47
0.02
 48
0.02
140
4.572
141
0.09
142
0.0
143
0.0393700787
144
1.0
145
0.0
146
1.0
147
0.625
 71
1.0
 72
0.0
 73
1
 74
1
 75
0
 76
0
 77
0
 78
4
 79
1
170
1
171
1
172
0
173
0
174
0
175
0
176
0
177
0
178
0
270
2
179
2
271
2
272
2
273
2
274
2
275
0
280
0
281
0
282
0
283
1
284
4
285
0
286
0
287
3
288
0
340
11
278
46
341
213
342
213
343
213
344
213
  0
DIMSTYLE
105
21F
100
AcDbSymbolTableRecord
100
AcDbDimStyleTableRecord
  2
DIMSTYLE_1
 70
0
  3
<>
  4

 40
1.0
 41
4.0
 42
1.5875
 43
0.38
 44
3.175
 45
0.0
 46
0.0
 47
0.02
 48
0.02
140
4.572
141
0.09
142
0.0
143
0.0393700787
144
1.0
145
0.0
146
1.0
147
0.625
 71
0.0
 72
0.0
 73
1
 74
1
 75
0
 76
0
 77
0
 78
4
 79
1
170
1
171
2
172
0
173
0
174
0
175
0
176
0
177
0
178
0
270
2
179
2
271
1
272
1
273
2
274
2
275
0
280
0
281
0
282
0
283
1
284
4
285
0
286
0
287
3
288
1
340
11
278
46
289
1
341
213
342
213
343
213
344
213
  0
DIMSTYLE
105
220
100
AcDbSymbolTableRecord
100
AcDbDimStyleTableRecord
  2
DIMSTYLE_2
 70
0
  3

  4

 40
1.0
 41
4.0
 42
1.5875
 43
0.38
 44
3.175
 45
0.0
 46
0.0
 47
0.02
 48
0.02
140
4.572
141
0.09
142
0.0
143
0.0393700787
144
1.0
145
0.0
146
1.0
147
1.143
 71
0.0
 72
0.0
 73
1
 74
1
 75
0
 76
0
 77
0
 78
4
 79
1
170
1
171
2
172
0
173
0
174
0
175
0
176
0
177
0
178
0
270
2
179
2
271
1
272
1
273
2
274
2
275
0
280
0
281
0
282
0
283
1
284
4
285
0
286
0
287
3
288
0
340
11
278
46
341
213
342
213
343
213
344
213
  0
DIMSTYLE
105
221
100
AcDbSymbolTableRecord
100
AcDbDimStyleTableRecord
  2
DIMSTYLE_3
 70
0
  3
<>
  4

 40
1.0
 41
4.0
 42
1.5875
 43
0.38
 44
3.175
 45
0.0
 46
0.0
 47
0.02
 48
0.02
140
4.572
141
0.09
142
0.0
143
0.0393700787
144
1.0
145
0.0
146
1.0
147
0.625
 71
0.0
 72
0.0
 73
1
 74
1
 75
0
 76
0
 77
0
 78
4
 79
1
170
1
171
1
172
0
173
0
174
0
175
0
176
0
177
0
178
0
270
2
179
2
271
0
272
0
273
2
274
1
275
0
280
0
281
0
282
0
283
1
284
4
285
0
286
0
287
3
288
1
340
11
278
46
289
1
341
213
342
213
343
213
344
213
  0
ENDTAB
  0
ENDSEC
  0
SECTION
  2
BLOCKS
  0
BLOCK
  5
20
100
AcDbEntity
  8
0
100
AcDbBlockBegin
  2
*Model_Space
 70
0
 10
0.0
 20
0.0
 30
0.0
  3
*Model_Space
  1

  0
ENDBLK
  5
21
100
AcDbEntity
  8
0
100
AcDbBlockEnd
  0
BLOCK
  5
1C
100
AcDbEntity
  8
0
100
AcDbBlockBegin
  2
*Paper_Space
 70
0
 10
0.0
 20
0.0
 30
0.0
  3
*Paper_Space
  1

  0
ENDBLK
  5
1D
100
AcDbEntity
  8
0
100
AcDbBlockEnd
  0
BLOCK
  5
222
100
AcDbEntity
  8
0
100
AcDbBlockBegin
  2
_FILLED
 70
64
 10
0.0
 20
0.0
  3
_FILLED
  1

  0
SOLID
  5
223
100
AcDbEntity
  8
0
  6
BYBLOCK
 62
0
100
AcDbTrace
 10
0.0
 20
0.0
 11
-1.0
 21
0.1275
 12
-1.0
 22
-0.1275
 13
-1.0
 23
-0.1275
  0
ENDBLK
  5
224
100
AcDbEntity
  8
0
  6
BYBLOCK
 62
0
100
AcDbBlockEnd
  0
BLOCK
  5
225
100
AcDbEntity
  8
0
100
AcDbBlockBegin
 62
2
  6
CONTINUOUS
  2
*D0
 70
65
 10
0.0
 20
0.0
  3
*D0
  1

  0
MTEXT
  5
226
100
AcDbEntity
  8
0
100
AcDbMText
 62
2
  6
CONTINUOUS
  7
TEXTSTYLE_1
 71
3
 72
1
 10
264.7555097424
 20
349.1078724943
 30
0.0
 11
1.0
 21
0.0
 31
0.0
 73
2
 44
0.9
  1
{\fgdt;n}\fCentury Gothic;9,0{\ftxt.shx;\W0.981413;\H4.572000; } SUSPENSION CONNECTION\P[.35]
 40
4.572
 41
103.4167137546
  0
LINE
  5
227
100
AcDbEntity
  8
0
100
AcDbLine
 62
2
  6
CONTINUOUS
 10
316.1112579951
 20
308.4676675603
 11
277.4555097424
 21
346.8218724943
  0
LINE
  5
228
100
AcDbEntity
  8
0
100
AcDbLine
 62
2
  6
CONTINUOUS
 10
277.4555097424
 20
346.8218724943
 11
267.0415097424
 21
346.8218724943
  0
INSERT
  5
229
100
AcDbEntity
  8
0
100
AcDbBlockReference
 62
2
  6
CONTINUOUS
  2
_FILLED
 10
316.1112579951
 20
308.4676675603
 41
4.0
 42
4.0
 43
4.0
 50
315.2243485482
  0
ENDBLK
  5
22A
100
AcDbEntity
  8
0
  6
BYBLOCK
 62
0
100
AcDbBlockEnd
  0
BLOCK
  5
22B
100
AcDbEntity
  8
0
100
AcDbBlockBegin
 62
2
  6
CONTINUOUS
  2
*D1
 70
65
 10
0.0
 20
0.0
  3
*D1
  1

  0
MTEXT
  5
22C
100
AcDbEntity
  8
0
100
AcDbMText
 62
2
  6
CONTINUOUS
  7
STANDARD
 71
3
 72
1
 10
252.877186243
 20
329.6417330377
 30
0.0
 11
1.0
 21
0.0
 31
0.0
 73
2
 44
0.9
  1
2X \fgdt;{\fgdt;n}\fCentury Gothic;6,5\P[.26]
 40
4.572
 41
24.1120594796
  0
LINE
  5
22D
100
AcDbEntity
  8
0
100
AcDbLine
 62
2
  6
CONTINUOUS
 10
305.9502185784
 20
307.8502266035
 11
270.0642048304
 21
327.3557330377
  0
LINE
  5
22E
100
AcDbEntity
  8
0
100
AcDbLine
 62
2
  6
CONTINUOUS
 10
270.0642048304
 20
327.3557330377
 11
259.6502048304
 21
327.3557330377
  0
INSERT
  5
22F
100
AcDbEntity
  8
0
100
AcDbBlockReference
 62
2
  6
CONTINUOUS
  2
_FILLED
 10
305.9502185784
 20
307.8502266035
 41
4.0
 42
4.0
 43
4.0
 50
331.4741229077
  0
ENDBLK
  5
230
100
AcDbEntity
  8
0
  6
BYBLOCK
 62
0
100
AcDbBlockEnd
  0
BLOCK
  5
231
100
AcDbEntity
  8
0
100
AcDbBlockBegin
 62
2
  6
CONTINUOUS
  2
*D2
 70
65
 10
0.0
 20
0.0
  3
*D2
  1

  0
MTEXT
  5
232
100
AcDbEntity
  8
0
100
AcDbMText
 62
2
  6
CONTINUOUS
  7
STANDARD
 71
2
 72
1
 10
229.9513476352
 20
266.7857056134
 30
0.0
 11
1.0
 21
0.0
 31
0.0
 73
2
 44
0.9
  1
117,8\P[4.64]
 40
4.572
 41
16.8603122677
  0
LINE
  5
233
100
AcDbEntity
  8
0
100
AcDbLine
 62
2
  6
CONTINUOUS
 10
306.5506735146
 20
305.2981708355
 11
224.077243546
 21
305.2981708355
  0
LINE
  5
234
100
AcDbEntity
  8
0
100
AcDbLine
 62
2
  6
CONTINUOUS
 10
265.84605145
 20
187.5481708355
 11
224.077243546
 21
187.5481708355
  0
LINE
  5
235
100
AcDbEntity
  8
0
100
AcDbLine
 62
2
  6
CONTINUOUS
 10
230.427243546
 20
305.2981708355
 11
230.427243546
 21
269.0717056134
  0
LINE
  5
236
100
AcDbEntity
  8
0
100
AcDbLine
 62
2
  6
CONTINUOUS
 10
230.427243546
 20
187.5481708355
 11
230.427243546
 21
253.0697056134
  0
INSERT
  5
237
100
AcDbEntity
  8
0
100
AcDbBlockReference
 62
2
  6
CONTINUOUS
  2
_FILLED
 10
230.427243546
 20
305.2981708355
 41
4.0
 42
4.0
 43
4.0
 50
90.0
  0
INSERT
  5
238
100
AcDbEntity
  8
0
100
AcDbBlockReference
 62
2
  6
CONTINUOUS
  2
_FILLED
 10
230.427243546
 20
187.5481708355
 41
4.0
 42
4.0
 43
4.0
 50
270.0
  0
ENDBLK
  5
239
100
AcDbEntity
  8
0
  6
BYBLOCK
 62
0
100
AcDbBlockEnd
  0
BLOCK
  5
23A
100
AcDbEntity
  8
0
100
AcDbBlockBegin
 62
2
  6
CONTINUOUS
  2
*D3
 70
65
 10
0.0
 20
0.0
  3
*D3
  1

  0
MTEXT
  5
23B
100
AcDbEntity
  8
0
100
AcDbMText
 62
2
  6
CONTINUOUS
  7
STANDARD
 71
3
 72
1
 10
257.079762575
 20
296.4030221391
 30
0.0
 11
1.0
 21
0.0
 31
0.0
 73
2
 44
0.9
  1
2X 1,0\P[.04]
 40
4.572
 41
18.0160594796
  0
LINE
  5
23C
100
AcDbEntity
  8
0
100
AcDbLine
 62
2
  6
CONTINUOUS
 10
297.3006735146
 20
306.2981708355
 11
267.9167811623
 21
306.2981708355
  0
LINE
  5
23D
100
AcDbEntity
  8
0
100
AcDbLine
 62
2
  6
CONTINUOUS
 10
306.5506735146
 20
305.2981708355
 11
267.9167811623
 21
305.2981708355
  0
LINE
  5
23E
100
AcDbEntity
  8
0
100
AcDbLine
 62
2
  6
CONTINUOUS
 10
274.2667811623
 20
306.2981708355
 11
274.2667811623
 21
314.2981708355
  0
LINE
  5
23F
100
AcDbEntity
  8
0
100
AcDbLine
 62
2
  6
CONTINUOUS
 10
274.2667811623
 20
305.2981708355
 11
274.2667811623
 21
294.1170221391
  0
LINE
  5
240
100
AcDbEntity
  8
0
100
AcDbLine
 62
2
  6
CONTINUOUS
 10
274.2667811623
 20
294.1170221391
 11
263.8527811623
 21
294.1170221391
  0
INSERT
  5
241
100
AcDbEntity
  8
0
100
AcDbBlockReference
 62
2
  6
CONTINUOUS
  2
_FILLED
 10
274.2667811623
 20
306.2981708355
 41
4.0
 42
4.0
 43
4.0
 50
270.0
  0
INSERT
  5
242
100
AcDbEntity
  8
0
100
AcDbBlockReference
 62
2
  6
CONTINUOUS
  2
_FILLED
 10
274.2667811623
 20
305.2981708355
 41
4.0
 42
4.0
 43
4.0
 50
90.0
  0
ENDBLK
  5
243
100
AcDbEntity
  8
0
  6
BYBLOCK
 62
0
100
AcDbBlockEnd
  0
BLOCK
  5
244
100
AcDbEntity
  8
0
100
AcDbBlockBegin
 62
2
  6
CONTINUOUS
  2
*D4
 70
65
 10
0.0
 20
0.0
  3
*D4
  1

  0
MTEXT
  5
245
100
AcDbEntity
  8
0
100
AcDbMText
 62
2
  6
CONTINUOUS
  7
STANDARD
 71
2
 72
1
 10
318.8297776038
 20
366.9769872897
 30
0.0
 11
1.0
 21
0.0
 31
0.0
 73
2
 44
0.9
  1
21,0\P[.83]
 40
4.572
 41
13.3250855019
  0
LINE
  5
246
100
AcDbEntity
  8
0
100
AcDbLine
 62
2
  6
CONTINUOUS
 10
308.8056735146
 20
317.8031708355
 11
308.8056735146
 21
371.0409872897
  0
LINE
  5
247
100
AcDbEntity
  8
0
100
AcDbLine
 62
2
  6
CONTINUOUS
 10
329.8056735146
 20
317.8031708355
 11
329.8056735146
 21
371.0409872897
  0
LINE
  5
248
100
AcDbEntity
  8
0
100
AcDbLine
 62
2
  6
CONTINUOUS
 10
308.8056735146
 20
364.6909872897
 11
300.8056735146
 21
364.6909872897
  0
LINE
  5
249
100
AcDbEntity
  8
0
100
AcDbLine
 62
2
  6
CONTINUOUS
 10
329.8056735146
 20
364.6909872897
 11
337.8056735146
 21
364.6909872897
  0
INSERT
  5
24A
100
AcDbEntity
  8
0
100
AcDbBlockReference
 62
2
  6
CONTINUOUS
  2
_FILLED
 10
308.8056735146
 20
364.6909872897
 41
4.0
 42
4.0
 43
4.0
  0
INSERT
  5
24B
100
AcDbEntity
  8
0
100
AcDbBlockReference
 62
2
  6
CONTINUOUS
  2
_FILLED
 10
329.8056735146
 20
364.6909872897
 41
4.0
 42
4.0
 43
4.0
 50
180.0
  0
ENDBLK
  5
24C
100
AcDbEntity
  8
0
  6
BYBLOCK
 62
0
100
AcDbBlockEnd
  0
BLOCK
  5
24D
100
AcDbEntity
  8
0
100
AcDbBlockBegin
 62
2
  6
CONTINUOUS
  2
*D5
 70
65
 10
0.0
 20
0.0
  3
*D5
  1

  0
MTEXT
  5
24E
100
AcDbEntity
  8
0
100
AcDbMText
 62
2
  6
CONTINUOUS
  7
STANDARD
 71
2
 72
1
 10
401.2248097232
 20
263.0324599137
 30
0.0
 11
1.0
 21
0.0
 31
0.0
 73
2
 44
0.9
  1
123,8\P[4.87]
 40
4.572
 41
16.8603122677
  0
LINE
  5
24F
100
AcDbEntity
  8
0
100
AcDbLine
 62
2
  6
CONTINUOUS
 10
333.3416307346
 20
311.2981708355
 11
408.050705634
 21
311.2981708355
  0
LINE
  5
250
100
AcDbEntity
  8
0
100
AcDbLine
 62
2
  6
CONTINUOUS
 10
372.7652789884
 20
187.5481708355
 11
408.050705634
 21
187.5481708355
  0
LINE
  5
251
100
AcDbEntity
  8
0
100
AcDbLine
 62
2
  6
CONTINUOUS
 10
401.700705634
 20
311.2981708355
 11
401.700705634
 21
265.3184599137
  0
LINE
  5
252
100
AcDbEntity
  8
0
100
AcDbLine
 62
2
  6
CONTINUOUS
 10
401.700705634
 20
187.5481708355
 11
401.700705634
 21
249.3164599137
  0
INSERT
  5
253
100
AcDbEntity
  8
0
100
AcDbBlockReference
 62
2
  6
CONTINUOUS
  2
_FILLED
 10
401.700705634
 20
311.2981708355
 41
4.0
 42
4.0
 43
4.0
 50
90.0
  0
INSERT
  5
254
100
AcDbEntity
  8
0
100
AcDbBlockReference
 62
2
  6
CONTINUOUS
  2
_FILLED
 10
401.700705634
 20
187.5481708355
 41
4.0
 42
4.0
 43
4.0
 50
270.0
  0
ENDBLK
  5
255
100
AcDbEntity
  8
0
  6
BYBLOCK
 62
0
100
AcDbBlockEnd
  0
BLOCK
  5
256
100
AcDbEntity
  8
0
100
AcDbBlockBegin
 62
2
  6
CONTINUOUS
  2
*D6
 70
65
 10
0.0
 20
0.0
  3
*D6
  1

  0
MTEXT
  5
257
100
AcDbEntity
  8
0
100
AcDbMText
 62
2
  6
CONTINUOUS
  7
TEXTSTYLE_1
 71
1
 72
1
 10
396.39434824
 20
145.3262609899
 30
0.0
 11
1.0
 21
0.0
 31
0.0
 73
2
 44
0.9
  1
{\fgdt;n}\fCentury Gothic;110\P[4.3]
 40
4.572
 41
16.7016802974
  0
LINE
  5
258
100
AcDbEntity
  8
0
100
AcDbLine
 62
2
  6
CONTINUOUS
 10
364.5697881147
 20
129.8395333785
 11
383.69434824
 21
143.0402609899
  0
LINE
  5
259
100
AcDbEntity
  8
0
100
AcDbLine
 62
2
  6
CONTINUOUS
 10
383.69434824
 20
143.0402609899
 11
394.10834824
 21
143.0402609899
  0
INSERT
  5
25A
100
AcDbEntity
  8
0
100
AcDbBlockReference
 62
2
  6
CONTINUOUS
  2
_FILLED
 10
364.5697881147
 20
129.8395333785
 41
4.0
 42
4.0
 43
4.0
 50
214.6153782991
  0
ENDBLK
  5
25B
100
AcDbEntity
  8
0
  6
BYBLOCK
 62
0
100
AcDbBlockEnd
  0
BLOCK
  5
25C
100
AcDbEntity
  8
0
100
AcDbBlockBegin
 62
2
  6
CONTINUOUS
  2
*D7
 70
65
 10
0.0
 20
0.0
  3
*D7
  1

  0
MTEXT
  5
25D
100
AcDbEntity
  8
0
100
AcDbMText
 62
2
  6
CONTINUOUS
  7
STANDARD
 71
2
 72
1
 10
385.6286643568
 20
245.6114524481
 30
0.0
 11
1.0
 21
0.0
 31
0.0
 73
2
 44
0.9
  1
114,8\P[4.52]
 40
4.572
 41
16.8603122677
  0
LINE
  5
25E
100
AcDbEntity
  8
0
100
AcDbLine
 62
2
  6
CONTINUOUS
 10
351.7072135559
 20
302.2981708355
 11
392.4545602676
 21
302.2981708355
  0
LINE
  5
25F
100
AcDbEntity
  8
0
100
AcDbLine
 62
2
  6
CONTINUOUS
 10
372.7652789884
 20
187.5481708355
 11
392.4545602676
 21
187.5481708355
  0
LINE
  5
260
100
AcDbEntity
  8
0
100
AcDbLine
 62
2
  6
CONTINUOUS
 10
386.1045602676
 20
302.2981708355
 11
386.1045602676
 21
247.8974524481
  0
LINE
  5
261
100
AcDbEntity
  8
0
100
AcDbLine
 62
2
  6
CONTINUOUS
 10
386.1045602676
 20
187.5481708355
 11
386.1045602676
 21
231.8954524481
  0
INSERT
  5
262
100
AcDbEntity
  8
0
100
AcDbBlockReference
 62
2
  6
CONTINUOUS
  2
_FILLED
 10
386.1045602676
 20
302.2981708355
 41
4.0
 42
4.0
 43
4.0
 50
90.0
  0
INSERT
  5
263
100
AcDbEntity
  8
0
100
AcDbBlockReference
 62
2
  6
CONTINUOUS
  2
_FILLED
 10
386.1045602676
 20
187.5481708355
 41
4.0
 42
4.0
 43
4.0
 50
270.0
  0
ENDBLK
  5
264
100
AcDbEntity
  8
0
  6
BYBLOCK
 62
0
100
AcDbBlockEnd
  0
BLOCK
  5
265
100
AcDbEntity
  8
0
100
AcDbBlockBegin
 62
2
  6
CONTINUOUS
  2
*D8
 70
65
 10
0.0
 20
0.0
  3
*D8
  1

  0
MTEXT
  5
266
100
AcDbEntity
  8
0
100
AcDbMText
 62
2
  6
CONTINUOUS
  7
TEXTSTYLE_1
 71
1
 72
1
 10
402.9922236645
 20
481.9401352527
 30
0.0
 11
1.0
 21
0.0
 31
0.0
 73
2
 44
0.9
  1
{\fgdt;n}\fCentury Gothic;50\P[2.0]
 40
4.572
 41
13.3250855019
  0
LINE
  5
267
100
AcDbEntity
  8
0
100
AcDbLine
 62
2
  6
CONTINUOUS
 10
342.3471637956
 20
459.0457486854
 11
390.2922236645
 21
479.6541352527
  0
LINE
  5
268
100
AcDbEntity
  8
0
100
AcDbLine
 62
2
  6
CONTINUOUS
 10
390.2922236645
 20
479.6541352527
 11
400.7062236645
 21
479.6541352527
  0
INSERT
  5
269
100
AcDbEntity
  8
0
100
AcDbBlockReference
 62
2
  6
CONTINUOUS
  2
_FILLED
 10
342.3471637956
 20
459.0457486854
 41
4.0
 42
4.0
 43
4.0
 50
203.2596468458
  0
ENDBLK
  5
26A
100
AcDbEntity
  8
0
  6
BYBLOCK
 62
0
100
AcDbBlockEnd
  0
BLOCK
  5
26B
100
AcDbEntity
  8
0
100
AcDbBlockBegin
 62
2
  6
CONTINUOUS
  2
*D9
 70
65
 10
0.0
 20
0.0
  3
*D9
  1

  0
MTEXT
  5
26C
100
AcDbEntity
  8
0
100
AcDbMText
 62
2
  6
CONTINUOUS
  7
STANDARD
 71
3
 72
1
 10
234.0365799676
 20
476.9325546609
 30
0.0
 11
1.0
 21
0.0
 31
0.0
 73
2
 44
0.9
  1
10,4\P[.41]
 40
4.572
 41
13.3250855019
  0
LINE
  5
26D
100
AcDbEntity
  8
0
100
AcDbLine
 62
2
  6
CONTINUOUS
 10
305.2697162946
 20
450.1417437462
 11
241.3383717891
 21
450.1417437462
  0
LINE
  5
26E
100
AcDbEntity
  8
0
100
AcDbLine
 62
2
  6
CONTINUOUS
 10
308.6306652192
 20
460.5417437462
 11
241.3383717891
 21
460.5417437462
  0
LINE
  5
26F
100
AcDbEntity
  8
0
100
AcDbLine
 62
2
  6
CONTINUOUS
 10
247.6883717891
 20
450.1417437462
 11
247.6883717891
 21
455.3417437462
  0
LINE
  5
270
100
AcDbEntity
  8
0
100
AcDbLine
 62
2
  6
CONTINUOUS
 10
247.6883717891
 20
460.5417437462
 11
247.6883717891
 21
455.3417437462
  0
LINE
  5
271
100
AcDbEntity
  8
0
100
AcDbLine
 62
2
  6
CONTINUOUS
 10
247.6883717891
 20
455.3417437462
 11
247.6883717891
 21
474.6465546609
  0
LINE
  5
272
100
AcDbEntity
  8
0
100
AcDbLine
 62
2
  6
CONTINUOUS
 10
247.6883717891
 20
474.6465546609
 11
237.2743717891
 21
474.6465546609
  0
INSERT
  5
273
100
AcDbEntity
  8
0
100
AcDbBlockReference
 62
2
  6
CONTINUOUS
  2
_FILLED
 10
247.6883717891
 20
450.1417437462
 41
4.0
 42
4.0
 43
4.0
 50
270.0
  0
INSERT
  5
274
100
AcDbEntity
  8
0
100
AcDbBlockReference
 62
2
  6
CONTINUOUS
  2
_FILLED
 10
247.6883717891
 20
460.5417437462
 41
4.0
 42
4.0
 43
4.0
 50
90.0
  0
ENDBLK
  5
275
100
AcDbEntity
  8
0
  6
BYBLOCK
 62
0
100
AcDbBlockEnd
  0
ENDSEC
  0
SECTION
  2
ENTITIES
  0
MTEXT
  5
276
100
AcDbEntity
  8
0
100
AcDbMText
 62
2
  6
CONTINUOUS
  7
TEXTSTYLE_2
 71
1
 72
1
 10
11.5355724153
 20
86.7590547869
 30
0.0
 11
1.0
 21
0.0
 31
0.0
 73
2
 44
1.0
  1
A
 40
4.7625
 41
4.9041356877
  0
MTEXT
  5
277
100
AcDbEntity
  8
0
100
AcDbMText
 62
2
  6
CONTINUOUS
  7
TEXTSTYLE_2
 71
1
 72
1
 10
11.5167575215
 20
217.5033430121
 30
0.0
 11
1.0
 21
0.0
 31
0.0
 73
2
 44
1.0
  1
B
 40
4.7625
 41
3.8064591078
  0
MTEXT
  5
278
100
AcDbEntity
  8
0
100
AcDbMText
 62
2
  6
CONTINUOUS
  7
TEXTSTYLE_2
 71
1
 72
1
 10
11.5176689709
 20
348.2717100805
 30
0.0
 11
1.0
 21
0.0
 31
0.0
 73
2
 44
1.0
  1
C
 40
4.7625
 41
5.3998605948
  0
MTEXT
  5
279
100
AcDbEntity
  8
0
100
AcDbMText
 62
2
  6
CONTINUOUS
  7
TEXTSTYLE_2
 71
1
 72
1
 10
11.5078552265
 20
479.0903049539
 30
0.0
 11
1.0
 21
0.0
 31
0.0
 73
2
 44
1.0
  1
D
 40
4.7625
 41
4.9395446097
  0
MTEXT
  5
27A
100
AcDbEntity
  8
0
100
AcDbMText
 62
2
  6
CONTINUOUS
  7
TEXTSTYLE_2
 71
1
 72
1
 10
729.4165296132
 20
23.6333024637
 30
0.0
 11
1.0
 21
0.0
 31
0.0
 73
2
 44
1.0000002
  1
SCALE:  
 40
2.645834
 41
14.3111095539
  0
MTEXT
  5
27B
100
AcDbEntity
  8
0
100
AcDbMText
 62
2
  6
CONTINUOUS
  7
TEXTSTYLE_2
 71
1
 72
1
 10
729.6354550516
 20
37.1378746144
 30
0.0
 11
1.0
 21
0.0
 31
0.0
 73
2
 44
1.0000002
  1
SIZE
 40
2.645834
 41
6.4227866245
  0
MTEXT
  5
27C
100
AcDbEntity
  8
0
100
AcDbMText
 62
2
  6
CONTINUOUS
  7
TEXTSTYLE_2
 71
1
 72
1
 10
753.0370533836
 20
23.4438579757
 30
0.0
 11
1.0
 21
0.0
 31
0.0
 73
2
 44
1.0000002
  1
CAD FILE:                   
 40
2.664
 41
36.503732342
  0
MTEXT
  5
27D
100
AcDbEntity
  8
0
100
AcDbMText
 62
2
  6
CONTINUOUS
  7
TEXTSTYLE_2
 71
1
 72
1
 10
762.9366430334
 20
37.0455346812
 30
0.0
 11
1.0
 21
0.0
 31
0.0
 73
2
 44
1.0000002
  1
DWG. NO.
 40
2.645834
 41
18.5011663717
  0
MTEXT
  5
27E
100
AcDbEntity
  8
0
100
AcDbMText
 62
2
  6
CONTINUOUS
  7
TEXTSTYLE_2
 71
1
 72
1
 10
731.2353751691
 20
31.3072735418
 30
0.0
 11
1.0
 21
0.0
 31
0.0
 73
2
 44
1.0000002
  1
B
 40
3.704166
 41
2.9605787732
  0
MTEXT
  5
27F
100
AcDbEntity
  8
0
100
AcDbMText
 62
2
  6
CONTINUOUS
  7
TEXTSTYLE_2
 71
1
 72
1
 10
812.2297568324
 20
23.5419168077
 30
0.0
 11
1.0
 21
0.0
 31
0.0
 73
2
 44
1.0000002
  1
SHEET:
 40
2.645834
 41
10.9079178662
  0
MTEXT
  5
280
100
AcDbEntity
  8
0
100
AcDbMText
 62
2
  6
CONTINUOUS
  7
TEXTSTYLE_2
 71
1
 72
1
 10
660.6861936248
 20
70.9038261961
 30
0.0
 11
1.0
 21
0.0
 31
0.0
 73
2
 44
1.0000002
  1
DRAWN BY
 40
2.645834
 41
19.297867316
  0
MTEXT
  5
281
100
AcDbEntity
  8
0
100
AcDbMText
 62
2
  6
CONTINUOUS
  7
TEXTSTYLE_2
 71
1
 72
1
 10
660.9545804089
 20
57.484572034
 30
0.0
 11
1.0
 21
0.0
 31
0.0
 73
2
 44
1.0000002
  1
MECH ENGINEER
 40
2.645834
 41
29.5861288922
  0
MTEXT
  5
282
100
AcDbEntity
  8
0
100
AcDbMText
 62
2
  6
CONTINUOUS
  7
TEXTSTYLE_2
 71
1
 72
1
 10
660.9545804089
 20
44.0556047
 30
0.0
 11
1.0
 21
0.0
 31
0.0
 73
2
 44
1.0000002
  1
TECH DIRECTOR
 40
2.645834
 41
27.9140404907
  0
MTEXT
  5
283
100
AcDbEntity
  8
0
100
AcDbMText
 62
2
  6
CONTINUOUS
  7
TEXTSTYLE_2
 71
1
 72
1
 10
660.9545804089
 20
30.410702414
 30
0.0
 11
1.0
 21
0.0
 31
0.0
 73
2
 44
1.0000002
  1
MFG ENGINEER
 40
2.645834
 41
27.0976679182
  0
MTEXT
  5
284
100
AcDbEntity
  8
0
100
AcDbMText
 62
2
  6
CONTINUOUS
  7
TEXTSTYLE_2
 71
1
 72
1
 10
599.7003344819
 20
74.678534764
 30
0.0
 11
1.0
 21
0.0
 31
0.0
 73
2
 44
1.0000002
  1
DECIMALS                    ANGLES
 40
2.645834
 41
52.8576651152
  0
MTEXT
  5
285
100
AcDbEntity
  8
0
100
AcDbMText
 62
2
  6
CONTINUOUS
  7
TEXTSTYLE_2
 71
1
 72
1
 10
592.9775590942
 20
54.1575615687
 30
0.0
 11
1.0
 21
0.0
 31
0.0
 73
2
 44
1.0000002
  1
MATERIAL
 40
2.645834
 41
17.1733314647
  0
MTEXT
  5
286
100
AcDbEntity
  8
0
100
AcDbMText
 62
2
  6
CONTINUOUS
  7
TEXTSTYLE_2
 71
1
 72
1
 10
593.1590604272
 20
44.9001080648
 30
0.0
 11
1.0
 21
0.0
 31
0.0
 73
2
 44
1.0000002
  1
FINISH
 40
2.645834
 41
10.5439927435
  0
MTEXT
  5
287
100
AcDbEntity
  8
0
100
AcDbMText
 62
2
  6
CONTINUOUS
  7
TEXTSTYLE_2
 71
1
 72
1
 10
596.6161079432
 20
34.3780579843
 30
0.0
 11
1.0
 21
0.0
 31
0.0
 73
2
 44
1.0000002
  1
DO  NOT  SCALE  DRAWING
 40
3.175
 41
58.6371747212
  0
MTEXT
  5
288
100
AcDbEntity
  8
0
100
AcDbMText
 62
2
  6
CONTINUOUS
  7
TEXTSTYLE_2
 71
1
 72
1
 10
792.4297605179
 20
17.5420071073
 30
0.0
 11
1.0
 21
0.0
 31
0.0
 73
2
 44
1.0
  1
1
 40
4.7625
 41
3.682527881
  0
MTEXT
  5
289
100
AcDbEntity
  8
0
100
AcDbMText
 62
2
  6
CONTINUOUS
  7
TEXTSTYLE_2
 71
1
 72
1
 10
688.9016225613
 20
17.7074339573
 30
0.0
 11
1.0
 21
0.0
 31
0.0
 73
2
 44
1.0
  1
2
 40
4.7625
 41
3.682527881
  0
MTEXT
  5
28A
100
AcDbEntity
  8
0
100
AcDbMText
 62
2
  6
CONTINUOUS
  7
TEXTSTYLE_2
 71
1
 72
1
 10
585.3050074083
 20
17.6019630583
 30
0.0
 11
1.0
 21
0.0
 31
0.0
 73
2
 44
1.0
  1
3
 40
4.7625
 41
3.682527881
  0
MTEXT
  5
28B
100
AcDbEntity
  8
0
100
AcDbMText
 62
2
  6
CONTINUOUS
  7
TEXTSTYLE_2
 71
1
 72
1
 10
481.8744000289
 20
17.6636947891
 30
0.0
 11
1.0
 21
0.0
 31
0.0
 73
2
 44
1.0
  1
4
 40
4.7625
 41
3.682527881
  0
MTEXT
  5
28C
100
AcDbEntity
  8
0
100
AcDbMText
 62
2
  6
CONTINUOUS
  7
TEXTSTYLE_2
 71
1
 72
1
 10
378.4542010969
 20
17.6111613725
 30
0.0
 11
1.0
 21
0.0
 31
0.0
 73
2
 44
1.0
  1
5
 40
4.7625
 41
3.682527881
  0
MTEXT
  5
28D
100
AcDbEntity
  8
0
100
AcDbMText
 62
2
  6
CONTINUOUS
  7
TEXTSTYLE_2
 71
1
 72
1
 10
274.9367143553
 20
17.7524928729
 30
0.0
 11
1.0
 21
0.0
 31
0.0
 73
2
 44
1.0
  1
6
 40
4.7625
 41
3.682527881
  0
MTEXT
  5
28E
100
AcDbEntity
  8
0
100
AcDbMText
 62
2
  6
CONTINUOUS
  7
TEXTSTYLE_2
 71
1
 72
1
 10
171.3970305927
 20
17.6710648077
 30
0.0
 11
1.0
 21
0.0
 31
0.0
 73
2
 44
1.0
  1
7
 40
4.7625
 41
3.682527881
  0
MTEXT
  5
28F
100
AcDbEntity
  8
0
100
AcDbMText
 62
2
  6
CONTINUOUS
  7
TEXTSTYLE_2
 71
1
 72
1
 10
67.8143679311
 20
17.5987813799
 30
0.0
 11
1.0
 21
0.0
 31
0.0
 73
2
 44
1.0
  1
8
 40
4.7625
 41
3.682527881
  0
MTEXT
  5
290
100
AcDbEntity
  8
0
100
AcDbMText
 62
2
  6
CONTINUOUS
  7
TEXTSTYLE_2
 71
1
 72
1
 10
69.2524536441
 20
547.236995091
 30
0.0
 11
1.0
 21
0.0
 31
0.0
 73
2
 44
1.0000002
  1
8
 40
4.7625
 41
3.682527881
  0
MTEXT
  5
291
100
AcDbEntity
  8
0
100
AcDbMText
 62
2
  6
CONTINUOUS
  7
TEXTSTYLE_2
 71
1
 72
1
 10
592.8251111497
 20
24.8169001798
 30
0.0
 11
1.0
 21
0.0
 31
0.0
 73
2
 44
1.0000002
  1
PROJECTION SYMBOL
 40
3.14
 41
45.3257249071
  0
MTEXT
  5
292
100
AcDbEntity
  8
0
100
AcDbMText
 62
2
  6
CONTINUOUS
  7
TEXTSTYLE_2
 71
1
 72
1
 10
682.311115392
 20
76.484528308
 30
0.0
 11
1.0
 21
0.0
 31
0.0
 73
2
 44
1.0000002
  1
APPROVALS
 40
2.645834
 41
21.3928957249
  0
MTEXT
  5
293
100
AcDbEntity
  8
0
100
AcDbMText
 62
2
  6
CONTINUOUS
  7
TEXTSTYLE_2
 71
1
 72
1
 10
171.5631137361
 20
547.2817053909
 30
0.0
 11
1.0
 21
0.0
 31
0.0
 73
2
 44
1.0000002
  1
7
 40
4.7625
 41
3.682527881
  0
MTEXT
  5
294
100
AcDbEntity
  8
0
100
AcDbMText
 62
2
  6
CONTINUOUS
  7
TEXTSTYLE_2
 71
1
 72
1
 10
378.4646611939
 20
547.0818746057
 30
0.0
 11
1.0
 21
0.0
 31
0.0
 73
2
 44
1.0
  1
5
 40
4.7625
 41
3.682527881
  0
MTEXT
  5
295
100
AcDbEntity
  8
0
100
AcDbMText
 62
2
  6
CONTINUOUS
  7
TEXTSTYLE_2
 71
1
 72
1
 10
481.9526075661
 20
547.0988914145
 30
0.0
 11
1.0
 21
0.0
 31
0.0
 73
2
 44
1.0
  1
4
 40
4.7625
 41
3.682527881
  0
MTEXT
  5
296
100
AcDbEntity
  8
0
100
AcDbMText
 62
2
  6
CONTINUOUS
  7
TEXTSTYLE_2
 71
1
 72
1
 10
585.3992890161
 20
547.0865992415
 30
0.0
 11
1.0
 21
0.0
 31
0.0
 73
2
 44
1.0
  1
3
 40
4.7625
 41
3.682527881
  0
MTEXT
  5
297
100
AcDbEntity
  8
0
100
AcDbMText
 62
2
  6
CONTINUOUS
  7
TEXTSTYLE_2
 71
1
 72
1
 10
688.9330902435
 20
547.1921258119
 30
0.0
 11
1.0
 21
0.0
 31
0.0
 73
2
 44
1.0
  1
2
 40
4.7625
 41
3.682527881
  0
MTEXT
  5
298
100
AcDbEntity
  8
0
100
AcDbMText
 62
2
  6
CONTINUOUS
  7
TEXTSTYLE_2
 71
1
 72
1
 10
792.6212282733
 20
547.2335497189
 30
0.0
 11
1.0
 21
0.0
 31
0.0
 73
2
 44
1.0
  1
1
 40
4.7625
 41
3.682527881
  0
MTEXT
  5
299
100
AcDbEntity
  8
0
100
AcDbMText
 62
2
  6
CONTINUOUS
  7
TEXTSTYLE_2
 71
1
 72
1
 10
847.6788250939
 20
478.9495762071
 30
0.0
 11
1.0
 21
0.0
 31
0.0
 73
2
 44
1.0
  1
D
 40
4.7625
 41
4.9395446097
  0
MTEXT
  5
29A
100
AcDbEntity
  8
0
100
AcDbMText
 62
2
  6
CONTINUOUS
  7
TEXTSTYLE_2
 71
1
 72
1
 10
847.1518560779
 20
348.2406549467
 30
0.0
 11
1.0
 21
0.0
 31
0.0
 73
2
 44
1.0
  1
C
 40
4.7625
 41
5.3998605948
  0
MTEXT
  5
29B
100
AcDbEntity
  8
0
100
AcDbMText
 62
2
  6
CONTINUOUS
  7
TEXTSTYLE_2
 71
1
 72
1
 10
848.6055115009
 20
217.3107242703
 30
0.0
 11
1.0
 21
0.0
 31
0.0
 73
2
 44
1.0
  1
B
 40
4.7625
 41
3.8064591078
  0
MTEXT
  5
29C
100
AcDbEntity
  8
0
100
AcDbMText
 62
2
  6
CONTINUOUS
  7
TEXTSTYLE_2
 71
1
 72
1
 10
847.5597664337
 20
86.5809338559
 30
0.0
 11
1.0
 21
0.0
 31
0.0
 73
2
 44
1.0
  1
A
 40
4.7625
 41
4.9041356877
  0
MTEXT
  5
29D
100
AcDbEntity
  8
0
100
AcDbMText
 62
2
  6
CONTINUOUS
  7
TEXTSTYLE_2
 71
1
 72
1
 10
593.3094183385
 20
92.9976253959
 30
0.0
 11
1.0
 21
0.0
 31
0.0
 73
2
 44
1.2
  1
UNLESS  OTHERWISE  SPECIFIED\PDIMENSIONS ARE IN MM [IN]\PTOLERANCES ARE:
 40
3.175
 41
64.1845724907
  0
MTEXT
  5
29E
100
AcDbEntity
  8
0
100
AcDbMText
 62
2
  6
CONTINUOUS
  7
TEXTSTYLE_2
 71
1
 72
1
 10
662.3738151923
 20
91.494856462
 30
0.0
 11
1.0
 21
0.0
 31
0.0
 73
2
 44
1.0000002
  1
CAD GENERATED DRAWING\PDO NOT MANUALLY UPDATE
 40
3.175
 41
59.6640334572
  0
MTEXT
  5
29F
100
AcDbEntity
  8
0
100
AcDbMText
 62
2
  6
CONTINUOUS
  7
TEXTSTYLE_2
 71
1
 72
1
 10
20.0457756745
 20
536.0767387134
 30
0.0
 11
1.0
 21
0.0
 31
0.0
 73
2
 44
1.0000002
  1
PROPERTY OF QSC, LLC, THAT MAY NOT BE DISCLOSED, REPRODUCED OR
 40
2.645834
 41
128.9081799405
  0
MTEXT
  5
2A0
100
AcDbEntity
  8
0
100
AcDbMText
 62
2
  6
CONTINUOUS
  7
TEXTSTYLE_2
 71
1
 72
1
 10
20.0457756745
 20
539.8995961636
 30
0.0
 11
1.0
 21
0.0
 31
0.0
 73
2
 44
1.0000002
  1
THIS DOCUMENT CONTAINS PROPRIETARY INFORMATION WHICH IS THE
 40
2.645834
 41
123.6066761264
  0
MTEXT
  5
2A1
100
AcDbEntity
  8
0
100
AcDbMText
 62
2
  6
CONTINUOUS
  7
TEXTSTYLE_2
 71
1
 72
1
 10
19.9880020493
 20
532.1145614756
 30
0.0
 11
1.0
 21
0.0
 31
0.0
 73
2
 44
1.0000002
  1
USED WITHOUT THE EXPRESS WRITTEN CONSENT FROM QSC, LLC.
 40
2.645834
 41
111.8528782454
  0
MTEXT
  5
2A2
100
AcDbEntity
  8
0
100
AcDbMText
 62
2
  6
CONTINUOUS
  7
TEXTSTYLE_2
 71
1
 72
1
 10
832.2530383777
 20
37.1358332294
 30
0.0
 11
1.0
 21
0.0
 31
0.0
 73
2
 44
1.0000002
  1
REV
 40
2.645834
 41
6.8063833755
  0
MTEXT
  5
2A3
100
AcDbEntity
  8
0
100
AcDbMText
 62
2
  6
CONTINUOUS
  7
TEXTSTYLE_2
 71
1
 72
1
 10
274.9426728409
 20
547.1560376195
 30
0.0
 11
1.0
 21
0.0
 31
0.0
 73
2
 44
1.0
  1
6
 40
4.7625
 41
3.682527881
  0
MTEXT
  5
2A4
100
AcDbEntity
  8
0
100
AcDbMText
 62
2
  6
CONTINUOUS
  7
TEXTSTYLE_2
 71
1
 72
1
 10
738.0413407232
 20
36.9151098617
 30
0.0
 11
1.0
 21
0.0
 31
0.0
 73
2
 44
1.0000002
  1
CAGE CODE
 40
2.645834
 41
22.8682678439
  0
MTEXT
  5
2A5
100
AcDbEntity
  8
0
100
AcDbMText
 62
2
  6
CONTINUOUS
  7
TEXTSTYLE_2
 71
1
 72
1
 10
741.3953751691
 20
31.3072735418
 30
0.0
 11
1.0
 21
0.0
 31
0.0
 73
2
 44
1.0000002
  1
00PW4
 40
3.704166
 41
16.6067813978
  0
MTEXT
  5
2A6
100
AcDbEntity
  8
0
100
AcDbMText
 62
2
  6
CONTINUOUS
  7
TEXTSTYLE_2
 71
1
 72
1
 10
781.6863301165
 20
85.8283742673
 30
0.0
 11
1.0
 21
0.0
 31
0.0
 73
2
 44
1.0000002
  1
1675 MACARTHUR BOULEVARD\PCOSTA MESA, CA 92626 USA
 40
3.048
 41
63.1128624535
  0
MTEXT
  5
2A7
100
AcDbEntity
  8
0
100
AcDbMText
 62
2
  6
CONTINUOUS
  7
TEXTSTYLE_2
 71
1
 72
1
 10
782.1163593987
 20
93.0140666413
 30
0.0
 11
1.0
 21
0.0
 31
0.0
 73
2
 44
1.0000002
  1
QSC, LLC
 40
5.08
 41
31.6886245353
  0
MTEXT
  5
2A8
100
AcDbEntity
  8
0
100
AcDbMText
 62
2
  6
CONTINUOUS
  7
TEXTSTYLE_2
 71
3
 72
1
 10
845.3293919971
 20
14.8295256017
 30
0.0
 11
1.0
 21
0.0
 31
0.0
 73
2
 44
1.0000002
  1
Form: QMS100206 Rev B
 40
2.0
 41
32.0520446097
  0
DIMENSION
  5
2A9
100
AcDbEntity
  8
0
100
AcDbDimension
 62
2
  6
CONTINUOUS
  2
*D0
 10
316.1112579951
 20
308.4676675603
 11
213.0471528651
 21
343.3928724943
 70
163
 71
3
 72
2
 41
0.9
 42
9.0
  1
%%c<> SUSPENSION CONNECTION\P[]
  3
DIMSTYLE_1
100
AcDbDiametricDimension
 15
322.5000890342
 25
302.1286741107
  0
DIMENSION
  5
2AA
100
AcDbEntity
  8
0
100
AcDbDimension
 62
2
  6
CONTINUOUS
  2
*D1
 10
305.9502185784
 20
307.8502266035
 11
243.0646657969
 21
323.9267330377
 70
163
 71
3
 72
2
 41
0.9
 42
6.5
  1
2X %%c<>\P[]
  3
DIMSTYLE_1
100
AcDbDiametricDimension
 15
311.6611284508
 25
304.7461150674
  0
DIMENSION
  5
2AB
100
AcDbEntity
  8
0
100
AcDbDimension
 62
2
  6
CONTINUOUS
  2
*D2
 10
230.427243546
 20
187.5481708355
 11
230.427243546
 21
261.0707056134
 70
160
 71
2
 72
2
 41
0.9
 42
117.75
  1
<>\P[]
  3
DIMSTYLE_2
100
AcDbAlignedDimension
 13
308.1381735146
 23
305.2981708355
 14
267.43355145
 24
187.5481708355
 50
270.0
100
AcDbRotatedDimension
  0
DIMENSION
  5
2AC
100
AcDbEntity
  8
0
100
AcDbDimension
 62
2
  6
CONTINUOUS
  2
*D3
 10
274.2667811623
 20
305.2981708355
 11
250.3152421289
 21
290.6880221391
 70
160
 71
3
 72
2
 41
0.9
 42
1.0
  1
2X <>\P[]
  3
DIMSTYLE_2
100
AcDbAlignedDimension
 13
298.8881735146
 23
306.2981708355
 14
308.1381735146
 24
305.2981708355
 50
270.0
100
AcDbRotatedDimension
  0
DIMENSION
  5
2AD
100
AcDbEntity
  8
0
100
AcDbDimension
 62
2
  6
CONTINUOUS
  2
*D4
 10
329.8056735146
 20
364.6909872897
 11
319.3056735146
 21
361.2619872897
 70
160
 71
2
 72
2
 41
0.9
 42
21.0
  1
<>\P[]
  3
DIMSTYLE_2
100
AcDbAlignedDimension
 13
308.8056735146
 23
316.2156708355
 14
329.8056735146
 24
316.2156708355
100
AcDbRotatedDimension
  0
DIMENSION
  5
2AE
100
AcDbEntity
  8
0
100
AcDbDimension
 62
2
  6
CONTINUOUS
  2
*D5
 10
401.700705634
 20
187.5481708355
 11
401.700705634
 21
257.3174599137
 70
160
 71
2
 72
2
 41
0.9
 42
123.75
  1
<>\P[]
  3
DIMSTYLE_2
100
AcDbAlignedDimension
 13
331.7541307346
 23
311.2981708355
 14
371.1777789884
 24
187.5481708355
 50
270.0
100
AcDbRotatedDimension
  0
DIMENSION
  5
2AF
100
AcDbEntity
  8
0
100
AcDbDimension
 62
2
  6
CONTINUOUS
  2
*D6
 10
364.5697881147
 20
129.8395333785
 11
406.104890991
 21
139.6112609899
 70
163
 71
1
 72
2
 41
0.9
 42
110.0000165909
  1
%%c<>\P[]
  3
DIMSTYLE_3
100
AcDbDiametricDimension
 15
274.0415423237
 25
67.3524117933
  0
DIMENSION
  5
2B0
100
AcDbEntity
  8
0
100
AcDbDimension
 62
2
  6
CONTINUOUS
  2
*D7
 10
386.1045602676
 20
187.5481708355
 11
386.1045602676
 21
239.8964524481
 70
160
 71
2
 72
2
 41
0.9
 42
114.75
  1
<>\P[]
  3
DIMSTYLE_2
100
AcDbAlignedDimension
 13
350.1197135559
 23
302.2981708355
 14
371.1777789884
 24
187.5481708355
 50
270.0
100
AcDbRotatedDimension
  0
DIMENSION
  5
2B1
100
AcDbEntity
  8
0
100
AcDbDimension
 62
2
  6
CONTINUOUS
  2
*D8
 10
342.3471637956
 20
459.0457486854
 11
412.7027664154
 21
476.2251352527
 70
163
 71
1
 72
2
 41
0.9
 42
50.159743639
  1
%%c<>\P[]
  3
DIMSTYLE_3
100
AcDbDiametricDimension
 15
296.2641666428
 25
439.2377388071
  0
DIMENSION
  5
2B2
100
AcDbEntity
  8
0
100
AcDbDimension
 62
2
  6
CONTINUOUS
  2
*D9
 10
247.6883717891
 20
460.5417437462
 11
228.3258290382
 21
471.2175546609
 70
160
 71
3
 72
2
 41
0.9
 42
10.4
  1
<>\P[]
  3
DIMSTYLE_2
100
AcDbAlignedDimension
 13
306.8572162946
 23
450.1417437462
 14
310.2181652192
 24
460.5417437462
 50
90.0
100
AcDbRotatedDimension
  0
LINE
  5
2B3
100
AcDbEntity
  8
0
100
AcDbLine
 62
2
  6
CONTINUOUS
 10
728.2411507602
 20
76.0303264662
 11
846.0411507602
 21
76.0303264662
  0
LINE
  5
2B4
100
AcDbEntity
  8
0
100
AcDbLine
 62
2
  6
CONTINUOUS
 10
728.2411507602
 20
76.0303264662
 11
728.2411507602
 21
37.8115764662
  0
LINE
  5
2B5
100
AcDbEntity
  8
0
100
AcDbLine
 62
2
  6
CONTINUOUS
 10
728.2411507602
 20
37.8115764662
 11
846.0411507602
 21
37.8115764662
  0
LINE
  5
2B6
100
AcDbEntity
  8
0
100
AcDbLine
 62
2
  6
CONTINUOUS
 10
846.0411507602
 20
76.0303264662
 11
846.0411507602
 21
37.8115764662
  0
MTEXT
  5
2B7
100
AcDbEntity
  8
0
100
AcDbMText
 62
2
  6
CONTINUOUS
  7
TEXTSTYLE_2
 71
2
 72
1
 10
787.1411507602
 20
69.6209514662
 30
0.0
 11
1.0
 21
0.0
 31
0.0
 73
2
 44
0.9
  1
FINISHED GOOD, \PLOUDSPEAKER,\PAD-P.SAT,2.5" 
 40
6.35
 41
73.6977695167
  0
LINE
  5
2B8
100
AcDbEntity
  8
0
100
AcDbLine
 62
2
  6
CONTINUOUS
 10
825.0321026544
 20
37.7950426652
 11
845.9571026544
 21
37.7950426652
  0
LINE
  5
2B9
100
AcDbEntity
  8
0
100
AcDbLine
 62
2
  6
CONTINUOUS
 10
825.0321026544
 20
37.7950426652
 11
825.0321026544
 21
25.2950426652
  0
LINE
  5
2BA
100
AcDbEntity
  8
0
100
AcDbLine
 62
2
  6
CONTINUOUS
 10
825.0321026544
 20
25.2950426652
 11
845.9571026544
 21
25.2950426652
  0
LINE
  5
2BB
100
AcDbEntity
  8
0
100
AcDbLine
 62
2
  6
CONTINUOUS
 10
845.9571026544
 20
37.7950426652
 11
845.9571026544
 21
25.2950426652
  0
MTEXT
  5
2BC
100
AcDbEntity
  8
0
100
AcDbMText
 62
2
  6
CONTINUOUS
  7
TEXTSTYLE_2
 71
2
 72
1
 10
835.4946026544
 20
32.9512926652
 30
0.0
 11
1.0
 21
0.0
 31
0.0
 73
2
 44
0.9
  1
A
 40
6.35
 41
6.5388475836
  0
LINE
  5
2BD
100
AcDbEntity
  8
0
100
AcDbLine
 62
2
  6
CONTINUOUS
 10
761.7061477801
 20
37.7560934166
 11
824.7061477801
 21
37.7560934166
  0
LINE
  5
2BE
100
AcDbEntity
  8
0
100
AcDbLine
 62
2
  6
CONTINUOUS
 10
761.7061477801
 20
37.7560934166
 11
761.7061477801
 21
25.2873434166
  0
LINE
  5
2BF
100
AcDbEntity
  8
0
100
AcDbLine
 62
2
  6
CONTINUOUS
 10
761.7061477801
 20
25.2873434166
 11
824.7061477801
 21
25.2873434166
  0
LINE
  5
2C0
100
AcDbEntity
  8
0
100
AcDbLine
 62
2
  6
CONTINUOUS
 10
824.7061477801
 20
37.7560934166
 11
824.7061477801
 21
25.2873434166
  0
MTEXT
  5
2C1
100
AcDbEntity
  8
0
100
AcDbMText
 62
2
  6
CONTINUOUS
  7
TEXTSTYLE_2
 71
2
 72
1
 10
793.2061477801
 20
33.4435934166
 30
0.0
 11
1.0
 21
0.0
 31
0.0
 73
2
 44
0.9
  1
FG-901251-2D
 40
6.35
 41
58.8732342007
  0
LINE
  5
2C2
100
AcDbEntity
  8
0
100
AcDbLine
 62
2
  6
CONTINUOUS
 10
591.9383260001
 20
55.282842653
 11
658.9383260001
 21
55.282842653
  0
LINE
  5
2C3
100
AcDbEntity
  8
0
100
AcDbLine
 62
2
  6
CONTINUOUS
 10
591.9383260001
 20
55.282842653
 11
591.9383260001
 21
46.079717653
  0
LINE
  5
2C4
100
AcDbEntity
  8
0
100
AcDbLine
 62
2
  6
CONTINUOUS
 10
591.9383260001
 20
46.079717653
 11
658.9383260001
 21
46.079717653
  0
LINE
  5
2C5
100
AcDbEntity
  8
0
100
AcDbLine
 62
2
  6
CONTINUOUS
 10
658.9383260001
 20
55.282842653
 11
658.9383260001
 21
46.079717653
  0
MTEXT
  5
2C6
100
AcDbEntity
  8
0
100
AcDbMText
 62
2
  6
CONTINUOUS
  7
TEXTSTYLE_2
 71
2
 72
1
 10
632.1383260001
 20
52.967280153
 30
0.0
 11
1.0
 21
0.0
 31
0.0
 73
2
 44
0.9
  1
N/A
 40
4.572
 41
12.203330855
  0
LINE
  5
2C7
100
AcDbEntity
  8
0
100
AcDbLine
 62
2
  6
CONTINUOUS
 10
591.9801901909
 20
45.9734248112
 11
658.9801901909
 21
45.9734248112
  0
LINE
  5
2C8
100
AcDbEntity
  8
0
100
AcDbLine
 62
2
  6
CONTINUOUS
 10
591.9801901909
 20
45.9734248112
 11
591.9801901909
 21
36.7702998112
  0
LINE
  5
2C9
100
AcDbEntity
  8
0
100
AcDbLine
 62
2
  6
CONTINUOUS
 10
591.9801901909
 20
36.7702998112
 11
658.9801901909
 21
36.7702998112
  0
LINE
  5
2CA
100
AcDbEntity
  8
0
100
AcDbLine
 62
2
  6
CONTINUOUS
 10
658.9801901909
 20
45.9734248112
 11
658.9801901909
 21
36.7702998112
  0
MTEXT
  5
2CB
100
AcDbEntity
  8
0
100
AcDbMText
 62
2
  6
CONTINUOUS
  7
TEXTSTYLE_2
 71
2
 72
1
 10
632.1801901909
 20
43.6578623112
 30
0.0
 11
1.0
 21
0.0
 31
0.0
 73
2
 44
0.9
  1
N/A
 40
4.572
 41
12.203330855
  0
LINE
  5
2CC
100
AcDbEntity
  8
0
100
AcDbLine
 62
2
  6
CONTINUOUS
 10
659.0415105717
 20
72.1470071488
 11
728.0415105717
 21
72.1470071488
  0
LINE
  5
2CD
100
AcDbEntity
  8
0
100
AcDbLine
 62
2
  6
CONTINUOUS
 10
659.0415105717
 20
72.1470071488
 11
659.0415105717
 21
59.2720071488
  0
LINE
  5
2CE
100
AcDbEntity
  8
0
100
AcDbLine
 62
2
  6
CONTINUOUS
 10
659.0415105717
 20
59.2720071488
 11
728.0415105717
 21
59.2720071488
  0
LINE
  5
2CF
100
AcDbEntity
  8
0
100
AcDbLine
 62
2
  6
CONTINUOUS
 10
728.0415105717
 20
72.1470071488
 11
728.0415105717
 21
59.2720071488
  0
MTEXT
  5
2D0
100
AcDbEntity
  8
0
100
AcDbMText
 62
2
  6
CONTINUOUS
  7
TEXTSTYLE_2
 71
1
 72
1
 10
659.1665105717
 20
65.6876321488
 30
0.0
 11
1.0
 21
0.0
 31
0.0
 73
2
 44
0.9
  1
 S. STASIAK
 40
3.175
 41
22.3548327138
  0
LINE
  5
2D1
100
AcDbEntity
  8
0
100
AcDbLine
 62
2
  6
CONTINUOUS
 10
659.0605816765
 20
59.3381641415
 11
728.0605816765
 21
59.3381641415
  0
LINE
  5
2D2
100
AcDbEntity
  8
0
100
AcDbLine
 62
2
  6
CONTINUOUS
 10
659.0605816765
 20
59.3381641415
 11
659.0605816765
 21
45.7131641415
  0
LINE
  5
2D3
100
AcDbEntity
  8
0
100
AcDbLine
 62
2
  6
CONTINUOUS
 10
659.0605816765
 20
45.7131641415
 11
728.0605816765
 21
45.7131641415
  0
LINE
  5
2D4
100
AcDbEntity
  8
0
100
AcDbLine
 62
2
  6
CONTINUOUS
 10
728.0605816765
 20
59.3381641415
 11
728.0605816765
 21
45.7131641415
  0
MTEXT
  5
2D5
100
AcDbEntity
  8
0
100
AcDbMText
 62
2
  6
CONTINUOUS
  7
TEXTSTYLE_2
 71
1
 72
1
 10
659.1855816765
 20
52.4100391415
 30
0.0
 11
1.0
 21
0.0
 31
0.0
 73
2
 44
0.9
  1
 B. HAWKINS
 40
3.175
 41
25.8603159851
  0
LINE
  5
2D6
100
AcDbEntity
  8
0
100
AcDbLine
 62
2
  6
CONTINUOUS
 10
659.0747294121
 20
45.6864695945
 11
728.0747294121
 21
45.6864695945
  0
LINE
  5
2D7
100
AcDbEntity
  8
0
100
AcDbLine
 62
2
  6
CONTINUOUS
 10
659.0747294121
 20
45.6864695945
 11
659.0747294121
 21
32.0614695945
  0
LINE
  5
2D8
100
AcDbEntity
  8
0
100
AcDbLine
 62
2
  6
CONTINUOUS
 10
659.0747294121
 20
32.0614695945
 11
728.0747294121
 21
32.0614695945
  0
LINE
  5
2D9
100
AcDbEntity
  8
0
100
AcDbLine
 62
2
  6
CONTINUOUS
 10
728.0747294121
 20
45.6864695945
 11
728.0747294121
 21
32.0614695945
  0
MTEXT
  5
2DA
100
AcDbEntity
  8
0
100
AcDbMText
 62
2
  6
CONTINUOUS
  7
TEXTSTYLE_2
 71
1
 72
1
 10
659.1997294121
 20
38.7583445945
 30
0.0
 11
1.0
 21
0.0
 31
0.0
 73
2
 44
0.9
  1
 J. HALLEY
 40
3.175
 41
21.18633829
  0
LINE
  5
2DB
100
AcDbEntity
  8
0
100
AcDbLine
 62
2
  6
CONTINUOUS
 10
659.06538326
 20
32.2368780771
 11
728.06538326
 21
32.2368780771
  0
LINE
  5
2DC
100
AcDbEntity
  8
0
100
AcDbLine
 62
2
  6
CONTINUOUS
 10
659.06538326
 20
32.2368780771
 11
659.06538326
 21
18.6118780771
  0
LINE
  5
2DD
100
AcDbEntity
  8
0
100
AcDbLine
 62
2
  6
CONTINUOUS
 10
659.06538326
 20
18.6118780771
 11
728.06538326
 21
18.6118780771
  0
LINE
  5
2DE
100
AcDbEntity
  8
0
100
AcDbLine
 62
2
  6
CONTINUOUS
 10
728.06538326
 20
32.2368780771
 11
728.06538326
 21
18.6118780771
  0
MTEXT
  5
2DF
100
AcDbEntity
  8
0
100
AcDbMText
 62
2
  6
CONTINUOUS
  7
TEXTSTYLE_2
 71
1
 72
1
 10
659.19038326
 20
25.3087530771
 30
0.0
 11
1.0
 21
0.0
 31
0.0
 73
2
 44
0.9
  1
 M. JEN
 40
3.175
 41
15.5327137546
  0
LINE
  5
2E0
100
AcDbEntity
  8
0
100
AcDbLine
 62
2
  6
CONTINUOUS
 10
728.2206127557
 20
24.9032409292
 11
751.8206127557
 21
24.9032409292
  0
LINE
  5
2E1
100
AcDbEntity
  8
0
100
AcDbLine
 62
2
  6
CONTINUOUS
 10
728.2206127557
 20
24.9032409292
 11
728.2206127557
 21
18.7001159292
  0
LINE
  5
2E2
100
AcDbEntity
  8
0
100
AcDbLine
 62
2
  6
CONTINUOUS
 10
728.2206127557
 20
18.7001159292
 11
751.8206127557
 21
18.7001159292
  0
LINE
  5
2E3
100
AcDbEntity
  8
0
100
AcDbLine
 62
2
  6
CONTINUOUS
 10
751.8206127557
 20
24.9032409292
 11
751.8206127557
 21
18.7001159292
  0
MTEXT
  5
2E4
100
AcDbEntity
  8
0
100
AcDbMText
 62
2
  6
CONTINUOUS
  7
TEXTSTYLE_2
 71
2
 72
1
 10
745.9206127557
 20
23.5796784292
 30
0.0
 11
1.0
 21
0.0
 31
0.0
 73
2
 44
0.9
  1
1:2
 40
3.556
 41
6.8740520446
  0
LINE
  5
2E5
100
AcDbEntity
  8
0
100
AcDbLine
 62
2
  6
CONTINUOUS
 10
811.585863426
 20
24.9502160449
 11
846.085863426
 21
24.9502160449
  0
LINE
  5
2E6
100
AcDbEntity
  8
0
100
AcDbLine
 62
2
  6
CONTINUOUS
 10
811.585863426
 20
24.9502160449
 11
811.585863426
 21
18.9345910449
  0
LINE
  5
2E7
100
AcDbEntity
  8
0
100
AcDbLine
 62
2
  6
CONTINUOUS
 10
811.585863426
 20
18.9345910449
 11
846.085863426
 21
18.9345910449
  0
LINE
  5
2E8
100
AcDbEntity
  8
0
100
AcDbLine
 62
2
  6
CONTINUOUS
 10
846.085863426
 20
24.9502160449
 11
846.085863426
 21
18.9345910449
  0
MTEXT
  5
2E9
100
AcDbEntity
  8
0
100
AcDbMText
 62
2
  6
CONTINUOUS
  7
TEXTSTYLE_2
 71
2
 72
1
 10
835.735863426
 20
23.7944865449
 30
0.0
 11
1.0
 21
0.0
 31
0.0
 73
2
 44
0.9
  1
1 OF 1
 40
3.704166
 41
15.5877914944
  0
LINE
  5
2EA
100
AcDbEntity
  8
0
100
AcDbLine
 62
2
  6
CONTINUOUS
 10
751.8060459738
 20
24.9363350682
 11
811.4060459738
 21
24.9363350682
  0
LINE
  5
2EB
100
AcDbEntity
  8
0
100
AcDbLine
 62
2
  6
CONTINUOUS
 10
751.8060459738
 20
24.9363350682
 11
751.8060459738
 21
18.9207100682
  0
LINE
  5
2EC
100
AcDbEntity
  8
0
100
AcDbLine
 62
2
  6
CONTINUOUS
 10
751.8060459738
 20
18.9207100682
 11
811.4060459738
 21
18.9207100682
  0
LINE
  5
2ED
100
AcDbEntity
  8
0
100
AcDbLine
 62
2
  6
CONTINUOUS
 10
811.4060459738
 20
24.9363350682
 11
811.4060459738
 21
18.9207100682
  0
MTEXT
  5
2EE
100
AcDbEntity
  8
0
100
AcDbMText
 62
2
  6
CONTINUOUS
  7
TEXTSTYLE_2
 71
2
 72
1
 10
789.0560459738
 20
23.1985225682
 30
0.0
 11
1.0
 21
0.0
 31
0.0
 73
2
 44
0.9
  1
FG-901251-2D.A.3 
 40
2.54
 41
31.0748698885
  0
LINE
  5
2EF
100
AcDbEntity
  8
0
100
AcDbLine
 62
2
  6
CONTINUOUS
 10
592.1164069397
 20
94.7599373907
 11
658.8664069397
 21
94.7599373907
  0
LINE
  5
2F0
100
AcDbEntity
  8
0
100
AcDbLine
 62
2
  6
CONTINUOUS
 10
592.1164069397
 20
94.7599373907
 11
592.1164069397
 21
55.6349373907
  0
LINE
  5
2F1
100
AcDbEntity
  8
0
100
AcDbLine
 62
2
  6
CONTINUOUS
 10
592.1164069397
 20
55.6349373907
 11
658.8664069397
 21
55.6349373907
  0
LINE
  5
2F2
100
AcDbEntity
  8
0
100
AcDbLine
 62
2
  6
CONTINUOUS
 10
658.8664069397
 20
94.7599373907
 11
658.8664069397
 21
55.6349373907
  0
MTEXT
  5
2F3
100
AcDbEntity
  8
0
100
AcDbMText
 62
2
  6
CONTINUOUS
  7
TEXTSTYLE_2
 71
1
 72
1
 10
598.9164069397
 20
67.0036873907
 30
0.0
 11
1.0
 21
0.0
 31
0.0
 73
2
 44
0.9
  1
.X \fgdt;{\fgdt;`}\fCentury Gothic;{\ftxt.shx;\W0.166667;\H3.175000; } 3 [.12]               \fgdt;{\fgdt;`}\fCentury Gothic;1\fgdt;{\fgdt;~}
 40
3.175
 41
50.2314900867
  0
LINE
  5
2F4
100
AcDbEntity
  8
0
100
AcDbLine
 62
2
  6
CONTINUOUS
 10
561.998658031
 20
541.7675106862
 11
845.828658031
 21
541.7675106862
  0
LINE
  5
2F5
100
AcDbEntity
  8
0
100
AcDbLine
 62
2
  6
CONTINUOUS
 10
561.998658031
 20
541.7675106862
 11
561.998658031
 21
514.3355106862
  0
LINE
  5
2F6
100
AcDbEntity
  8
0
100
AcDbLine
 62
2
  6
CONTINUOUS
 10
561.998658031
 20
532.6235106862
 11
845.828658031
 21
532.6235106862
  0
LINE
  5
2F7
100
AcDbEntity
  8
0
100
AcDbLine
 62
2
  6
CONTINUOUS
 10
561.998658031
 20
523.4795106862
 11
845.828658031
 21
523.4795106862
  0
LINE
  5
2F8
100
AcDbEntity
  8
0
100
AcDbLine
 62
2
  6
CONTINUOUS
 10
561.998658031
 20
514.3355106862
 11
845.828658031
 21
514.3355106862
  0
LINE
  5
2F9
100
AcDbEntity
  8
0
100
AcDbLine
 62
2
  6
CONTINUOUS
 10
581.750658031
 20
532.6235106862
 11
581.750658031
 21
514.3355106862
  0
LINE
  5
2FA
100
AcDbEntity
  8
0
100
AcDbLine
 62
2
  6
CONTINUOUS
 10
788.770658031
 20
532.6235106862
 11
788.770658031
 21
514.3355106862
  0
LINE
  5
2FB
100
AcDbEntity
  8
0
100
AcDbLine
 62
2
  6
CONTINUOUS
 10
807.058658031
 20
532.6235106862
 11
807.058658031
 21
514.3355106862
  0
LINE
  5
2FC
100
AcDbEntity
  8
0
100
AcDbLine
 62
2
  6
CONTINUOUS
 10
845.828658031
 20
541.7675106862
 11
845.828658031
 21
514.3355106862
  0
MTEXT
  5
2FD
100
AcDbEntity
  8
0
100
AcDbMText
 62
2
  6
CONTINUOUS
  7
TEXTSTYLE_2
 71
2
 72
1
 10
703.913658031
 20
539.4815106862
 30
0.0
 11
1.0
 21
0.0
 31
0.0
 73
2
 44
0.9
  1
REVISION
 40
4.572
 41
28.0778587361
  0
MTEXT
  5
2FE
100
AcDbEntity
  8
0
100
AcDbMText
 62
2
  6
CONTINUOUS
  7
TEXTSTYLE_2
 71
2
 72
1
 10
571.874658031
 20
530.3375106862
 30
0.0
 11
1.0
 21
0.0
 31
0.0
 73
2
 44
0.9
  1
REV
 40
4.572
 41
11.7614275093
  0
MTEXT
  5
2FF
100
AcDbEntity
  8
0
100
AcDbMText
 62
2
  6
CONTINUOUS
  7
TEXTSTYLE_2
 71
1
 72
1
 10
583.579458031
 20
530.3375106862
 30
0.0
 11
1.0
 21
0.0
 31
0.0
 73
2
 44
0.9
  1
                                                  DESCRIPTION
 40
4.572
 41
128.4069144981
  0
MTEXT
  5
300
100
AcDbEntity
  8
0
100
AcDbMText
 62
2
  6
CONTINUOUS
  7
TEXTSTYLE_2
 71
2
 72
1
 10
797.914658031
 20
530.3375106862
 30
0.0
 11
1.0
 21
0.0
 31
0.0
 73
2
 44
0.9
  1
BY
 40
4.572
 41
7.4273754647
  0
MTEXT
  5
301
100
AcDbEntity
  8
0
100
AcDbMText
 62
2
  6
CONTINUOUS
  7
TEXTSTYLE_2
 71
2
 72
1
 10
826.443658031
 20
530.3375106862
 30
0.0
 11
1.0
 21
0.0
 31
0.0
 73
2
 44
0.9
  1
DATE
 40
4.572
 41
15.5855910781
  0
MTEXT
  5
302
100
AcDbEntity
  8
0
100
AcDbMText
 62
2
  6
CONTINUOUS
  7
STANDARD
 71
2
 72
1
 10
571.874658031
 20
521.1935106862
 30
0.0
 11
1.0
 21
0.0
 31
0.0
 73
2
 44
0.9
  1
A
 40
4.572
 41
4.7079702602
  0
MTEXT
  5
303
100
AcDbEntity
  8
0
100
AcDbMText
 62
2
  6
CONTINUOUS
  7
STANDARD
 71
1
 72
1
 10
583.579458031
 20
521.1935106862
 30
0.0
 11
1.0
 21
0.0
 31
0.0
 73
2
 44
0.9
  1
INITIAL RELEASE
 40
4.572
 41
46.1279107807
  0
MTEXT
  5
304
100
AcDbEntity
  8
0
100
AcDbMText
 62
2
  6
CONTINUOUS
  7
STANDARD
 71
2
 72
1
 10
797.914658031
 20
521.1935106862
 30
0.0
 11
1.0
 21
0.0
 31
0.0
 73
2
 44
0.9
  1
SS
 40
4.572
 41
6.3566096654
  0
MTEXT
  5
305
100
AcDbEntity
  8
0
100
AcDbMText
 62
2
  6
CONTINUOUS
  7
STANDARD
 71
2
 72
1
 10
826.443658031
 20
521.1935106862
 30
0.0
 11
1.0
 21
0.0
 31
0.0
 73
2
 44
0.9
  1
10-OCT-18
 40
4.572
 41
31.8340371747
  0
MTEXT
  5
306
100
AcDbEntity
  8
0
100
AcDbMText
 62
2
  6
CONTINUOUS
  7
STANDARD
 71
1
 72
1
 10
23.1329250417
 20
522.3255380577
 30
0.0
 11
1.0
 21
0.0
 31
0.0
 73
2
 44
0.9
  1
NOTE: UNLESS OTHERWISE SPECIFIED\P 1. NET WEIGHT APPROX. 0.93 LBS (0.42 KG)\P 2. TOLERANCES (MM[IN]): X +/-3 [.12], ANGLES +/- 1 DEGREE.\P 4. PARTS ARE SYMMETRICAL ABOVE CENTER LINES UNLESS OTHERWISE NOTED.
 40
4.572
 41
235.5514795539
  0
MTEXT
  5
307
100
AcDbEntity
  8
0
100
AcDbMText
 62
2
  6
CONTINUOUS
  7
TEXTSTYLE_1
 71
1
 72
1
 10
316.2189075005
 20
174.4760933051
 30
0.0
 11
1.0
 21
0.0
 31
0.0
 73
2
 44
0.9
  1
{\fgdt;q}
 40
4.572
 41
7.239
  0
LEADER
  5
308
100
AcDbEntity
  8
0
100
AcDbLeader
 62
2
  6
CONTINUOUS
  3
STANDARD
 71
1
 72
0
 73
0
 75
0
 40
4.572
 41
15.228669145
 76
3
 10
324.5256652192
 20
461.6890440704
 30
0.0
 10
396.3787265166
 20
505.6300827632
 30
0.0
 10
409.0787265166
 20
505.6300827632
 30
0.0
340
309
1001
ACAD
1000
DSTYLE
1002
{
1070
77
1070
0
1002
}
  0
MTEXT
  5
309
102
{ACAD_REACTORS
330
308
102
}
100
AcDbEntity
  8
0
100
AcDbMText
 62
2
  6
CONTINUOUS
  7
STANDARD
 71
1
 72
1
 10
409.0787265166
 20
507.9160827632
 30
0.0
 11
1.0
 21
0.0
 31
0.0
 73
2
 44
0.9
  1
2 PIN\PEURO PLUG
 40
4.572
 41
35.2332936803
  0
LEADER
  5
30A
100
AcDbEntity
  8
0
100
AcDbLeader
 62
2
  6
CONTINUOUS
  3
STANDARD
 71
1
 72
0
 73
0
 75
0
 40
4.572
 41
63.5151078067
 76
3
 10
549.8416519865
 20
320.6859543938
 30
0.0
 10
569.7210920818
 20
349.9974754323
 30
0.0
 10
582.4210920818
 20
349.9974754323
 30
0.0
340
30B
1001
ACAD
1000
DSTYLE
1002
{
1070
77
1070
0
1002
}
  0
MTEXT
  5
30B
102
{ACAD_REACTORS
330
30A
102
}
100
AcDbEntity
  8
0
100
AcDbMText
 62
2
  6
CONTINUOUS
  7
STANDARD
 71
1
 72
1
 10
582.4210920818
 20
352.2834754323
 30
0.0
 11
1.0
 21
0.0
 31
0.0
 73
2
 44
0.9
  1
SUSPENSION DEVICE:\PREFERENCE THE ASSEMBLY INSTRUCTIONS\PTHAT SHIP WITH THIS PRODUCT.
 40
4.572
 41
123.7839256506
  0
LWPOLYLINE
  5
30C
100
AcDbEntity
  8
0
100
AcDbPolyline
 62
7
  6
CONTINUOUS
 90
2
 70
0
 43
0.4999999978
 10
14.7836909449
 20
282.2062278161
 10
14.7836909449
 20
278.5400536067
  0
LWPOLYLINE
  5
30D
100
AcDbEntity
  8
0
100
AcDbPolyline
 62
7
  6
CONTINUOUS
 90
2
 70
0
 43
0.4999999978
 10
17.9586909449
 20
541.9931407115
 10
17.9586909449
 20
18.7531407115
  0
LWPOLYLINE
  5
30E
100
AcDbEntity
  8
0
100
AcDbPolyline
 62
7
  6
CONTINUOUS
 90
2
 70
0
 43
0.4999999978
 10
121.4636909449
 20
18.7531407115
 10
121.4636909449
 20
12.4031407115
  0
LWPOLYLINE
  5
30F
100
AcDbEntity
  8
0
100
AcDbPolyline
 62
7
  6
CONTINUOUS
 90
2
 70
0
 43
0.4999999978
 10
121.4636909449
 20
541.9931407115
 10
121.4636909449
 20
548.3431407115
  0
LWPOLYLINE
  5
310
100
AcDbEntity
  8
0
100
AcDbPolyline
 62
7
  6
CONTINUOUS
 90
2
 70
0
 43
0.4999999978
 10
150.0386909449
 20
541.9931407115
 10
150.0386909449
 20
528.0231407115
  0
LWPOLYLINE
  5
311
100
AcDbEntity
  8
0
100
AcDbPolyline
 62
7
  6
CONTINUOUS
 90
2
 70
0
 43
0.4999999978
 10
649.1116392743
 20
24.7678626661
 10
656.7316392745
 20
26.0378626661
  0
LWPOLYLINE
  5
312
100
AcDbEntity
  8
0
100
AcDbPolyline
 62
7
  6
CONTINUOUS
 90
2
 70
0
 43
0.4999999978
 10
433.8117780495
 20
15.5781407115
 10
430.1456038403
 20
15.5781407115
  0
LWPOLYLINE
  5
313
100
AcDbEntity
  8
0
100
AcDbPolyline
 62
7
  6
CONTINUOUS
 90
2
 70
0
 43
0.4999999978
 10
845.9986909449
 20
18.7531407115
 10
17.9586909449
 20
18.7531407115
  0
LWPOLYLINE
  5
314
100
AcDbEntity
  8
0
100
AcDbPolyline
 62
7
  6
CONTINUOUS
 90
2
 70
0
 43
0.199999994
 10
640.7397992743
 20
23.4978626661
 10
647.3234792745
 20
23.4978626661
  0
LWPOLYLINE
  5
315
100
AcDbEntity
  8
0
100
AcDbPolyline
 62
7
  6
CONTINUOUS
 90
2
 70
0
 43
0.199999994
 10
648.1658662907
 20
23.4978626661
 10
657.5088962895
 20
23.4978626661
  0
LWPOLYLINE
  5
316
100
AcDbEntity
  8
0
100
AcDbPolyline
 62
7
  6
CONTINUOUS
 90
2
 70
0
 43
0.4999999978
 10
728.2264600745
 20
25.1031407115
 10
845.9986909449
 20
25.1031407115
  0
LWPOLYLINE
  5
317
100
AcDbEntity
  8
0
100
AcDbPolyline
 62
7
  6
CONTINUOUS
 90
2
 70
0
 43
0.4999999978
 10
591.9986909449
 20
27.8971407115
 10
658.9017153087
 20
27.8971407115
  0
LWPOLYLINE
  5
318
100
AcDbEntity
  8
0
100
AcDbPolyline
 62
7
  6
CONTINUOUS
 90
2
 70
0
 43
0.4999999978
 10
658.8294548489
 20
32.2531407115
 10
728.1541996147
 20
32.2531407115
  0
LWPOLYLINE
  5
319
100
AcDbEntity
  8
0
100
AcDbPolyline
 62
7
  6
CONTINUOUS
 90
2
 70
0
 43
0.4999999978
 10
591.9986909449
 20
37.0411407115
 10
658.9017153087
 20
37.0411407115
  0
LWPOLYLINE
  5
31A
100
AcDbEntity
  8
0
100
AcDbPolyline
 62
7
  6
CONTINUOUS
 90
2
 70
0
 43
0.4999999978
 10
728.2264600745
 20
38.0031407115
 10
845.9986909449
 20
38.0031407115
  0
LWPOLYLINE
  5
31B
100
AcDbEntity
  8
0
100
AcDbPolyline
 62
7
  6
CONTINUOUS
 90
2
 70
0
 43
0.4999999978
 10
14.7836909449
 20
278.5400536067
 10
17.9586909449
 20
280.3731407115
  0
LWPOLYLINE
  5
31C
100
AcDbEntity
  8
0
100
AcDbPolyline
 62
7
  6
CONTINUOUS
 90
2
 70
0
 43
0.4999999978
 10
658.9017153087
 20
45.7531407115
 10
728.2264600745
 20
45.7531407115
  0
LWPOLYLINE
  5
31D
100
AcDbEntity
  8
0
100
AcDbPolyline
 62
7
  6
CONTINUOUS
 90
2
 70
0
 43
0.4999999978
 10
591.9986909449
 20
46.1851407115
 10
658.9017153087
 20
46.1851407115
  0
LWPOLYLINE
  5
31E
100
AcDbEntity
  8
0
100
AcDbPolyline
 62
7
  6
CONTINUOUS
 90
2
 70
0
 43
0.4999999978
 10
658.9017153087
 20
55.4633752059
 10
591.9986909449
 20
55.4633752059
  0
LWPOLYLINE
  5
31F
100
AcDbEntity
  8
0
100
AcDbPolyline
 62
7
  6
CONTINUOUS
 90
2
 70
0
 43
0.4999999978
 10
658.9017153087
 20
59.2531407115
 10
728.2264600745
 20
59.2531407115
  0
LWPOLYLINE
  5
320
100
AcDbEntity
  8
0
100
AcDbPolyline
 62
7
  6
CONTINUOUS
 90
2
 70
0
 43
0.4999999978
 10
658.9017153087
 20
72.2027351129
 10
728.2264600745
 20
72.2027351129
  0
LWPOLYLINE
  5
321
100
AcDbEntity
  8
0
100
AcDbPolyline
 62
7
  6
CONTINUOUS
 90
2
 70
0
 43
0.4999999978
 10
649.1116392743
 20
22.2278626661
 10
656.7316392745
 20
20.9578626661
  0
LWPOLYLINE
  5
322
100
AcDbEntity
  8
0
100
AcDbPolyline
 62
7
  6
CONTINUOUS
 90
2
 70
0
 43
0.4999999978
 10
224.9686909449
 20
18.7531407115
 10
224.9686909449
 20
12.4031407115
  0
LWPOLYLINE
  5
323
100
AcDbEntity
  8
0
100
AcDbPolyline
 62
7
  6
CONTINUOUS
 90
2
 70
0
 43
0.4999999978
 10
224.9686909449
 20
541.9931407115
 10
224.9686909449
 20
548.3431407115
  0
LWPOLYLINE
  5
324
100
AcDbEntity
  8
0
100
AcDbPolyline
 62
7
  6
CONTINUOUS
 90
2
 70
0
 43
0.4999999978
 10
728.2264600745
 20
75.9031407115
 10
845.9986909449
 20
75.9031407115
  0
LWPOLYLINE
  5
325
100
AcDbEntity
  8
0
100
AcDbPolyline
 62
7
  6
CONTINUOUS
 90
2
 70
0
 43
0.4999999978
 10
658.9017153087
 20
77.5367351129
 10
728.2264600745
 20
77.5367351129
  0
LINE
  5
326
100
AcDbEntity
  8
0
100
AcDbLine
 62
7
  6
CONTINUOUS
 10
740.5854313108
 20
79.9862632414
 11
743.2953899814
 21
79.9862632414
  0
LINE
  5
327
100
AcDbEntity
  8
0
100
AcDbLine
 62
7
  6
CONTINUOUS
 10
733.3804797434
 20
81.0347327121
 11
740.41139267
 21
81.0347327121
  0
LINE
  5
328
100
AcDbEntity
  8
0
100
AcDbLine
 62
7
  6
CONTINUOUS
 10
743.4694286222
 20
81.0347327121
 11
744.8519692498
 21
81.0347327121
  0
LINE
  5
329
100
AcDbEntity
  8
0
100
AcDbLine
 62
7
  6
CONTINUOUS
 10
748.6599435991
 20
81.0347327084
 11
761.2368468801
 21
81.0347327084
  0
LINE
  5
32A
100
AcDbEntity
  8
0
100
AcDbLine
 62
7
  6
CONTINUOUS
 10
758.7907691961
 20
82.7970577596
 11
748.6599435991
 21
82.7970577596
  0
LINE
  5
32B
100
AcDbEntity
  8
0
100
AcDbLine
 62
7
  6
CONTINUOUS
 10
779.1191723722
 20
82.836257214
 11
768.6921615217
 21
82.836257214
  0
LINE
  5
32C
100
AcDbEntity
  8
0
100
AcDbLine
 62
7
  6
CONTINUOUS
 10
735.1745474994
 20
82.899186119
 11
740.3718103094
 21
82.899186119
  0
LINE
  5
32D
100
AcDbEntity
  8
0
100
AcDbLine
 62
7
  6
CONTINUOUS
 10
743.4160356924
 20
82.8991861281
 11
744.2153455228
 21
82.8991861281
  0
LINE
  5
32E
100
AcDbEntity
  8
0
100
AcDbLine
 62
7
  6
CONTINUOUS
 10
740.5458489521
 20
83.9449462206
 11
743.241997059
 21
83.9449462206
  0
LINE
  5
32F
100
AcDbEntity
  8
0
100
AcDbLine
 62
7
  6
CONTINUOUS
 10
750.0998750889
 20
84.6260179167
 11
758.7907691978
 21
84.6260179167
  0
LINE
  5
330
100
AcDbEntity
  8
0
100
AcDbLine
 62
7
  6
CONTINUOUS
 10
761.2368468801
 20
86.4551193487
 11
752.6617966404
 21
86.4551193487
  0
LINE
  5
331
100
AcDbEntity
  8
0
100
AcDbLine
 62
7
  6
CONTINUOUS
 10
752.6617966386
 20
88.21629657
 11
762.8063733449
 21
88.21629657
  0
LINE
  5
332
100
AcDbEntity
  8
0
100
AcDbLine
 62
7
  6
CONTINUOUS
 10
768.6921615236
 20
88.2343503745
 11
779.1191723703
 21
88.2343503745
  0
LINE
  5
333
100
AcDbEntity
  8
0
100
AcDbLine
 62
7
  6
CONTINUOUS
 10
735.1745475012
 20
88.3163120876
 11
744.2153455191
 21
88.3163120876
  0
LINE
  5
334
100
AcDbEntity
  8
0
100
AcDbLine
 62
7
  6
CONTINUOUS
 10
744.8519692498
 20
90.0340956705
 11
733.3804797434
 21
90.0340956705
  0
LINE
  5
335
100
AcDbEntity
  8
0
100
AcDbLine
 62
7
  6
CONTINUOUS
 10
779.1191723727
 20
90.0446632414
 11
766.9542386542
 21
90.0446632414
  0
LINE
  5
336
100
AcDbEntity
  8
0
100
AcDbLine
 62
7
  6
CONTINUOUS
 10
762.8063733449
 20
90.0446632396
 11
750.0998750889
 21
90.0446632396
  0
LWPOLYLINE
  5
337
100
AcDbEntity
  8
0
100
AcDbPolyline
 62
7
  6
CONTINUOUS
 90
2
 70
0
 43
0.4999999978
 10
591.9986909449
 20
94.9531407115
 10
845.9986909449
 20
94.9531407115
  0
LINE
  5
338
100
AcDbEntity
  8
0
100
AcDbLine
 62
7
  6
CONTINUOUS
 10
766.9542386542
 20
81.0347372767
 11
779.120159998
 21
81.0196351695
  0
LWPOLYLINE
  5
339
100
AcDbEntity
  8
0
100
AcDbPolyline
 62
7
  6
CONTINUOUS
 90
2
 70
0
 43
0.4999999978
 10
17.9586909449
 20
280.3731407115
 10
14.7836909449
 20
282.2062278161
  0
LWPOLYLINE
  5
33A
100
AcDbEntity
  8
0
100
AcDbPolyline
 62
7
  6
CONTINUOUS
 90
2
 70
0
 43
0.4999999978
 10
431.9786909449
 20
541.9931407115
 10
433.8117780495
 20
545.1681407115
  0
LWPOLYLINE
  5
33B
100
AcDbEntity
  8
0
100
AcDbPolyline
 62
7
  6
CONTINUOUS
 90
2
 70
0
 43
0.4999999978
 10
17.9586909449
 20
149.5631407115
 10
11.6086909449
 20
149.5631407115
  0
LWPOLYLINE
  5
33C
100
AcDbEntity
  8
0
100
AcDbPolyline
 62
7
  6
CONTINUOUS
 90
2
 70
0
 43
0.4999999978
 10
845.9986909449
 20
149.5631407115
 10
852.3486909449
 20
149.5631407115
  0
LWPOLYLINE
  5
33D
100
AcDbEntity
  8
0
100
AcDbPolyline
 62
7
  6
CONTINUOUS
 90
2
 70
0
 43
0.4999999978
 10
431.9786909449
 20
18.7531407115
 10
433.8117780495
 20
15.5781407115
  0
LWPOLYLINE
  5
33E
100
AcDbEntity
  8
0
100
AcDbPolyline
 62
7
  6
CONTINUOUS
 90
2
 70
0
 43
0.4999999978
 10
328.4736909449
 20
18.7531407115
 10
328.4736909449
 20
12.4031407115
  0
LWPOLYLINE
  5
33F
100
AcDbEntity
  8
0
100
AcDbPolyline
 62
7
  6
CONTINUOUS
 90
2
 70
0
 43
0.4999999978
 10
328.4736909449
 20
541.9931407115
 10
328.4736909449
 20
548.3431407115
  0
LWPOLYLINE
  5
340
100
AcDbEntity
  8
0
100
AcDbPolyline
 62
7
  6
CONTINUOUS
 90
2
 70
0
 43
0.4999999978
 10
431.9786909449
 20
18.7531407115
 10
431.9786909449
 20
12.4031407115
  0
LWPOLYLINE
  5
341
100
AcDbEntity
  8
0
100
AcDbPolyline
 62
7
  6
CONTINUOUS
 90
2
 70
0
 43
0.4999999978
 10
431.9786909449
 20
541.9931407115
 10
431.9786909449
 20
548.3431407115
  0
LWPOLYLINE
  5
342
100
AcDbEntity
  8
0
100
AcDbPolyline
 62
7
  6
CONTINUOUS
 90
2
 70
0
 43
0.4999999978
 10
17.9586909449
 20
280.3731407115
 10
11.6086909449
 20
280.3731407115
  0
LWPOLYLINE
  5
343
100
AcDbEntity
  8
0
100
AcDbPolyline
 62
7
  6
CONTINUOUS
 90
2
 70
0
 43
0.4999999978
 10
845.9986909449
 20
280.3731407115
 10
852.3486909449
 20
280.3731407115
  0
LWPOLYLINE
  5
344
100
AcDbEntity
  8
0
100
AcDbPolyline
 62
7
  6
CONTINUOUS
 90
2
 70
0
 43
0.4999999978
 10
535.4836909449
 20
18.7531407115
 10
535.4836909449
 20
12.4031407115
  0
LWPOLYLINE
  5
345
100
AcDbEntity
  8
0
100
AcDbPolyline
 62
7
  6
CONTINUOUS
 90
2
 70
0
 43
0.4999999978
 10
535.4836909449
 20
541.9931407115
 10
535.4836909449
 20
548.3431407115
  0
LWPOLYLINE
  5
346
100
AcDbEntity
  8
0
100
AcDbPolyline
 62
7
  6
CONTINUOUS
 90
2
 70
0
 43
0.4999999978
 10
431.9786909449
 20
18.7531407115
 10
430.1456038403
 20
15.5781407115
  0
LWPOLYLINE
  5
347
100
AcDbEntity
  8
0
100
AcDbPolyline
 62
7
  6
CONTINUOUS
 90
2
 70
0
 43
0.4999999978
 10
17.9586909449
 20
411.1831407115
 10
11.6086909449
 20
411.1831407115
  0
LWPOLYLINE
  5
348
100
AcDbEntity
  8
0
100
AcDbPolyline
 62
7
  6
CONTINUOUS
 90
2
 70
0
 43
0.4999999978
 10
845.9986909449
 20
411.1831407115
 10
852.3486909449
 20
411.1831407115
  0
LWPOLYLINE
  5
349
100
AcDbEntity
  8
0
100
AcDbPolyline
 62
7
  6
CONTINUOUS
 90
2
 70
0
 43
0.4999999978
 10
431.9786909449
 20
541.9931407115
 10
430.1456038403
 20
545.1681407115
  0
LWPOLYLINE
  5
34A
100
AcDbEntity
  8
0
100
AcDbPolyline
 62
7
  6
CONTINUOUS
 90
2
 70
0
 43
0.4999999978
 10
591.9986909449
 20
18.7531407115
 10
591.9986909449
 20
94.9531407115
  0
LWPOLYLINE
  5
34B
100
AcDbEntity
  8
0
100
AcDbPolyline
 62
7
  6
CONTINUOUS
 90
2
 70
0
 43
0.4999999978
 10
638.9886909449
 20
12.4031407115
 10
638.9886909449
 20
27.8971407115
  0
LWPOLYLINE
  5
34C
100
AcDbEntity
  8
0
100
AcDbPolyline
 62
7
  6
CONTINUOUS
 90
2
 70
0
 43
0.4999999978
 10
638.9886909449
 20
541.9931407115
 10
638.9886909449
 20
548.3431407115
  0
LWPOLYLINE
  5
34D
100
AcDbEntity
  8
0
100
AcDbPolyline
 62
7
  6
CONTINUOUS
 90
2
 70
0
 43
0.199999994
 10
644.0316392743
 20
20.2060226661
 10
644.0316392743
 20
26.7897026661
  0
LWPOLYLINE
  5
34E
100
AcDbEntity
  8
0
100
AcDbPolyline
 62
7
  6
CONTINUOUS
 90
2
 70
0
 43
0.4999999978
 10
845.9986909449
 20
280.3731407115
 10
849.1736909449
 20
282.2062278161
  0
LWPOLYLINE
  5
34F
100
AcDbEntity
  8
0
100
AcDbPolyline
 62
7
  6
CONTINUOUS
 90
2
 70
0
 43
0.4999999978
 10
849.1736909449
 20
278.5400536067
 10
845.9986909449
 20
280.3731407115
  0
LWPOLYLINE
  5
350
100
AcDbEntity
  8
0
100
AcDbPolyline
 62
7
  6
CONTINUOUS
 90
2
 70
0
 43
0.4999999978
 10
649.1116392743
 20
24.7678626661
 10
649.1116392743
 20
22.2278626661
  0
LWPOLYLINE
  5
351
100
AcDbEntity
  8
0
100
AcDbPolyline
 62
7
  6
CONTINUOUS
 90
2
 70
0
 43
0.4999999978
 10
656.7316392745
 20
26.0378626661
 10
656.7316392745
 20
20.9578626661
  0
LWPOLYLINE
  5
352
100
AcDbEntity
  8
0
100
AcDbPolyline
 62
7
  6
CONTINUOUS
 90
2
 70
0
 43
0.4999999978
 10
658.9017153087
 20
94.9531407115
 10
658.9017153087
 20
18.7531407115
  0
LWPOLYLINE
  5
353
100
AcDbEntity
  8
0
100
AcDbPolyline
 62
7
  6
CONTINUOUS
 90
2
 70
0
 43
0.4999999978
 10
17.9586909449
 20
527.8231407115
 10
150.0386909449
 20
527.8231407115
  0
LWPOLYLINE
  5
354
100
AcDbEntity
  8
0
100
AcDbPolyline
 62
7
  6
CONTINUOUS
 90
2
 70
0
 43
0.4999999978
 10
17.9586909449
 20
541.7931407115
 10
845.9986909449
 20
541.7931407115
  0
LWPOLYLINE
  5
355
100
AcDbEntity
  8
0
100
AcDbPolyline
 62
7
  6
CONTINUOUS
 90
2
 70
0
 43
0.4999999978
 10
433.8117780495
 20
545.1681407115
 10
430.1456038403
 20
545.1681407115
  0
LWPOLYLINE
  5
356
100
AcDbEntity
  8
0
100
AcDbPolyline
 62
7
  6
CONTINUOUS
 90
2
 70
0
 43
0.4999999978
 10
728.2264600745
 20
94.9531407115
 10
728.2264600745
 20
18.7531407115
  0
LINE
  5
357
100
AcDbEntity
  8
0
100
AcDbLine
 62
7
  6
CONTINUOUS
 10
734.7220470289
 20
83.3516865895
 11
734.7220470289
 21
87.8638116153
  0
LINE
  5
358
100
AcDbEntity
  8
0
100
AcDbLine
 62
7
  6
CONTINUOUS
 10
764.3983548695
 20
85.5554081313
 11
764.3991490551
 21
85.4865564119
  0
LWPOLYLINE
  5
359
100
AcDbEntity
  8
0
100
AcDbPolyline
 62
7
  6
CONTINUOUS
 90
2
 70
0
 43
0.4999999978
 10
737.4064712439
 20
37.8031407115
 10
737.4064712439
 20
25.1031407115
  0
LINE
  5
35A
100
AcDbEntity
  8
0
100
AcDbLine
 62
7
  6
CONTINUOUS
 10
740.3718103094
 20
82.899186119
 11
740.3718103094
 21
83.770907578
  0
LINE
  5
35B
100
AcDbEntity
  8
0
100
AcDbLine
 62
7
  6
CONTINUOUS
 10
740.41139267
 20
81.0347327121
 11
740.41139267
 21
80.1603018822
  0
LWPOLYLINE
  5
35C
100
AcDbEntity
  8
0
100
AcDbPolyline
 62
7
  6
CONTINUOUS
 90
2
 70
0
 43
0.4999999978
 10
742.4936909449
 20
18.7531407115
 10
742.4936909449
 20
12.4031407115
  0
LWPOLYLINE
  5
35D
100
AcDbEntity
  8
0
100
AcDbPolyline
 62
7
  6
CONTINUOUS
 90
2
 70
0
 43
0.4999999978
 10
742.4936909449
 20
541.9931407115
 10
742.4936909449
 20
548.3431407115
  0
LINE
  5
35E
100
AcDbEntity
  8
0
100
AcDbLine
 62
7
  6
CONTINUOUS
 10
743.4160356924
 20
82.8991861281
 11
743.4160356924
 21
83.7709075834
  0
LINE
  5
35F
100
AcDbEntity
  8
0
100
AcDbLine
 62
7
  6
CONTINUOUS
 10
743.4694286222
 20
80.1603018822
 11
743.4694286222
 21
81.0347327121
  0
LINE
  5
360
100
AcDbEntity
  8
0
100
AcDbLine
 62
7
  6
CONTINUOUS
 10
744.6678459914
 20
83.3516865967
 11
744.6678459914
 21
87.8638116226
  0
LINE
  5
361
100
AcDbEntity
  8
0
100
AcDbLine
 62
7
  6
CONTINUOUS
 10
746.9850802276
 20
82.7186585519
 11
746.9850802276
 21
88.350169827
  0
LINE
  5
362
100
AcDbEntity
  8
0
100
AcDbLine
 62
7
  6
CONTINUOUS
 10
748.2074431287
 20
82.344557289
 11
748.2074431287
 21
81.4872331788
  0
LWPOLYLINE
  5
363
100
AcDbEntity
  8
0
100
AcDbPolyline
 62
7
  6
CONTINUOUS
 90
2
 70
0
 43
0.4999999978
 10
751.9138500071
 20
25.1031407115
 10
751.9138500071
 20
18.7531407115
  0
LINE
  5
364
100
AcDbEntity
  8
0
100
AcDbLine
 62
7
  6
CONTINUOUS
 10
752.20929617
 20
86.9076198191
 11
752.20929617
 21
87.7637961014
  0
LINE
  5
365
100
AcDbEntity
  8
0
100
AcDbLine
 62
7
  6
CONTINUOUS
 10
759.2432696647
 20
84.1735174463
 11
759.2432696647
 21
83.2495582282
  0
LWPOLYLINE
  5
366
100
AcDbEntity
  8
0
100
AcDbPolyline
 62
7
  6
CONTINUOUS
 90
2
 70
0
 43
0.4999999978
 10
761.5364712439
 20
37.8031407115
 10
761.5364712439
 20
25.1031407115
  0
LINE
  5
367
100
AcDbEntity
  8
0
100
AcDbLine
 62
7
  6
CONTINUOUS
 10
763.2588738153
 20
88.6687970406
 11
763.2588738153
 21
89.5921627654
  0
LINE
  5
368
100
AcDbEntity
  8
0
100
AcDbLine
 62
7
  6
CONTINUOUS
 10
768.2396610513
 20
83.2887576844
 11
768.2396610513
 21
87.7818499022
  0
LINE
  5
369
100
AcDbEntity
  8
0
100
AcDbLine
 62
7
  6
CONTINUOUS
 10
779.5716728409
 20
81.4721345598
 11
779.5716728409
 21
82.3837567454
  0
LINE
  5
36A
100
AcDbEntity
  8
0
100
AcDbLine
 62
7
  6
CONTINUOUS
 10
779.5716728409
 20
88.686850845
 11
779.5716728409
 21
89.592162777
  0
LWPOLYLINE
  5
36B
100
AcDbEntity
  8
0
100
AcDbPolyline
 62
7
  6
CONTINUOUS
 90
2
 70
0
 43
0.4999999978
 10
811.3860502701
 20
25.1031407115
 10
811.3860502701
 20
18.7531407115
  0
LWPOLYLINE
  5
36C
100
AcDbEntity
  8
0
100
AcDbPolyline
 62
7
  6
CONTINUOUS
 90
2
 70
0
 43
0.4999999978
 10
824.9032052723
 20
37.8031407115
 10
824.9032052723
 20
25.1031407115
  0
LWPOLYLINE
  5
36D
100
AcDbEntity
  8
0
100
AcDbPolyline
 62
7
  6
CONTINUOUS
 90
2
 70
0
 43
0.4999999978
 10
845.9986909449
 20
18.7531407115
 10
845.9986909449
 20
541.9931407115
  0
LWPOLYLINE
  5
36E
100
AcDbEntity
  8
0
100
AcDbPolyline
 62
7
  6
CONTINUOUS
 90
2
 70
0
 43
0.4999999978
 10
849.1736909449
 20
282.2062278161
 10
849.1736909449
 20
278.5400536067
  0
LINE
  5
36F
100
AcDbEntity
  8
0
100
AcDbLine
 62
7
  6
CONTINUOUS
 10
369.5902789884
 20
187.5481708355
 11
269.02105145
 21
187.5481708355
  0
LINE
  5
370
100
AcDbEntity
  8
7_ALL_ROUNDS
100
AcDbLine
 62
7
  6
CONTINUOUS
 10
266.7259252463
 20
188.2981708355
 11
371.8854051921
 21
188.2981708355
  0
LINE
  5
371
100
AcDbEntity
  8
7_ALL_ROUNDS
100
AcDbLine
 62
9
  6
CONTINUOUS
 10
264.7271435922
 20
190.2283718421
 11
373.8841868462
 21
190.2283718421
  0
LINE
  5
372
100
AcDbEntity
  8
0
100
AcDbLine
 62
7
  6
CONTINUOUS
 10
374.3056735146
 20
202.2981708355
 11
264.3056569238
 21
202.2981708355
  0
LINE
  5
373
100
AcDbEntity
  8
0
100
AcDbLine
 62
7
  6
CONTINUOUS
 10
372.1651246205
 20
206.8885927526
 11
266.4462058179
 21
206.8885927526
  0
LINE
  5
374
100
AcDbEntity
  8
7_ALL_ROUNDS
100
AcDbLine
 62
7
  6
CONTINUOUS
 10
264.7271435922
 20
190.2283718421
 11
264.3056569238
 21
202.2981708355
  0
LINE
  5
375
100
AcDbEntity
  8
7_ALL_ROUNDS
100
AcDbLine
 62
7
  6
CONTINUOUS
 10
284.3537460448
 20
295.3619872546
 11
289.2804813724
 21
301.8999858586
  0
LINE
  5
376
100
AcDbEntity
  8
0
100
AcDbLine
 62
7
  6
CONTINUOUS
 10
303.4587197452
 20
306.6721205766
 11
303.1306735147
 21
302.2981708355
  0
LINE
  5
377
100
AcDbEntity
  8
0
100
AcDbLine
 62
7
  6
CONTINUOUS
 10
264.3056569238
 20
202.2981708355
 11
266.4462058179
 21
206.8885927526
  0
LINE
  5
378
100
AcDbEntity
  8
3_AXES_OTHER
100
AcDbLine
 62
7
  6
CENTER
 10
308.8056735146
 20
306.2981708355
 11
308.8056735146
 21
297.9681708355
  0
LINE
  5
379
100
AcDbEntity
  8
3_AXES_OTHER
100
AcDbLine
 62
7
  6
CENTER
 10
308.8056735146
 20
306.2981708355
 11
308.8056735146
 21
314.6281708355
  0
LINE
  5
37A
100
AcDbEntity
  8
0
100
AcDbLine
 62
7
  6
CONTINUOUS
 10
316.9056652192
 20
308.0630157105
 11
316.9056652192
 21
309.0988254176
  0
LINE
  5
37B
100
AcDbEntity
  8
0
100
AcDbLine
 62
7
  6
CONTINUOUS
 10
316.9056652192
 20
311.2981708355
 11
316.9056652192
 21
319.8450169419
  0
LINE
  5
37C
100
AcDbEntity
  8
0
100
AcDbLine
 62
7
  6
CONTINUOUS
 10
317.7056652192
 20
308.0630157105
 11
317.7056652192
 21
309.4641731759
  0
LINE
  5
37D
100
AcDbEntity
  8
0
100
AcDbLine
 62
7
  6
CONTINUOUS
 10
317.7056652192
 20
311.2981708355
 11
317.7056652192
 21
319.8450169419
  0
LINE
  5
37E
100
AcDbEntity
  8
0
100
AcDbLine
 62
7
  6
CONTINUOUS
 10
317.8056652192
 20
329.6981708355
 11
317.8056652192
 21
320.6981708355
  0
LINE
  5
37F
100
AcDbEntity
  8
0
100
AcDbLine
 62
9
  6
CONTINUOUS
 10
317.8056652192
 20
320.5508020186
 11
317.8056652192
 21
319.8981708355
  0
LINE
  5
380
100
AcDbEntity
  8
0
100
AcDbLine
 62
7
  6
CONTINUOUS
 10
317.8056652192
 20
319.8981708355
 11
317.8056652192
 21
305.3182042024
  0
LINE
  5
381
100
AcDbEntity
  8
0
100
AcDbLine
 62
7
  6
CONTINUOUS
 10
318.6556652192
 20
330.2981708355
 11
318.6556652192
 21
348.7981708355
  0
LINE
  5
382
100
AcDbEntity
  8
3_AXES_OTHER
100
AcDbLine
 62
7
  6
CENTER
 10
319.3056735146
 20
305.2981708355
 11
319.3056735146
 21
178.5485923659
  0
LINE
  5
383
100
AcDbEntity
  8
3_AXES_OTHER
100
AcDbLine
 62
7
  6
CENTER
 10
319.3056735146
 20
305.2981708355
 11
319.3056735146
 21
314.8781708355
  0
LINE
  5
384
100
AcDbEntity
  8
0
100
AcDbLine
 62
7
  6
CONTINUOUS
 10
319.9556652192
 20
330.2981708355
 11
319.9556652192
 21
348.7981708355
  0
LINE
  5
385
100
AcDbEntity
  8
0
100
AcDbLine
 62
9
  6
CONTINUOUS
 10
317.8104432709
 20
320.6606939503
 11
317.8056652192
 21
320.5508020186
  0
LINE
  5
386
100
AcDbEntity
  8
0
100
AcDbLine
 62
9
  6
CONTINUOUS
 10
320.8008871675
 20
320.6606939503
 11
320.8056652192
 21
320.5508022475
  0
LINE
  5
387
100
AcDbEntity
  8
0
100
AcDbLine
 62
7
  6
CONTINUOUS
 10
320.8056652192
 20
329.6981708355
 11
320.8056652192
 21
320.6981708355
  0
LINE
  5
388
100
AcDbEntity
  8
0
100
AcDbLine
 62
9
  6
CONTINUOUS
 10
320.8056652192
 20
320.5508022475
 11
320.8056652192
 21
319.8981708355
  0
LINE
  5
389
100
AcDbEntity
  8
0
100
AcDbLine
 62
7
  6
CONTINUOUS
 10
320.8056652192
 20
319.8981708355
 11
320.8056652192
 21
305.3182042005
  0
LINE
  5
38A
100
AcDbEntity
  8
0
100
AcDbLine
 62
7
  6
CONTINUOUS
 10
320.9056652192
 20
319.8450169419
 11
320.9056652192
 21
311.2981708355
  0
LINE
  5
38B
100
AcDbEntity
  8
0
100
AcDbLine
 62
7
  6
CONTINUOUS
 10
320.9056652192
 20
309.4641807527
 11
320.9056652192
 21
308.0630157105
  0
LINE
  5
38C
100
AcDbEntity
  8
0
100
AcDbLine
 62
7
  6
CONTINUOUS
 10
321.7056652192
 20
319.8450169419
 11
321.7056652192
 21
311.2981708355
  0
LINE
  5
38D
100
AcDbEntity
  8
0
100
AcDbLine
 62
7
  6
CONTINUOUS
 10
321.7056652192
 20
309.0988329944
 11
321.7056652192
 21
308.0630157105
  0
LINE
  5
38E
100
AcDbEntity
  8
3_AXES_OTHER
100
AcDbLine
 62
7
  6
CENTER
 10
329.8056735146
 20
306.2981708355
 11
329.8056735146
 21
297.9681708355
  0
LINE
  5
38F
100
AcDbEntity
  8
3_AXES_OTHER
100
AcDbLine
 62
7
  6
CENTER
 10
329.8056735146
 20
306.2981708355
 11
329.8056735146
 21
314.6281708355
  0
LINE
  5
390
100
AcDbEntity
  8
0
100
AcDbLine
 62
7
  6
CONTINUOUS
 10
335.4806735146
 20
302.2981708355
 11
335.152627284
 21
306.6721205767
  0
LINE
  5
391
100
AcDbEntity
  8
0
100
AcDbLine
 62
7
  6
CONTINUOUS
 10
374.3056735146
 20
202.2981708355
 11
372.1651246205
 21
206.8885927526
  0
LINE
  5
392
100
AcDbEntity
  8
0
100
AcDbLine
 62
7
  6
CONTINUOUS
 10
354.2575843936
 20
295.3619872546
 11
284.3537460448
 21
295.3619872546
  0
LINE
  5
393
100
AcDbEntity
  8
7_ALL_ROUNDS
100
AcDbLine
 62
9
  6
CONTINUOUS
 10
289.2804813724
 20
301.8999858586
 11
349.3308490659
 21
301.8999858586
  0
LINE
  5
394
100
AcDbEntity
  8
7_ALL_ROUNDS
100
AcDbLine
 62
7
  6
CONTINUOUS
 10
290.0791168825
 20
302.2981708355
 11
348.5322135559
 21
302.2981708355
  0
LINE
  5
395
100
AcDbEntity
  8
3_AXES_OTHER
100
AcDbLine
 62
7
  6
CENTER
 10
319.3056735146
 20
305.2981708355
 11
309.7256735146
 21
305.2981708355
  0
LINE
  5
396
100
AcDbEntity
  8
3_AXES_OTHER
100
AcDbLine
 62
7
  6
CENTER
 10
319.3056735146
 20
305.2981708355
 11
328.8856735146
 21
305.2981708355
  0
LINE
  5
397
100
AcDbEntity
  8
3_AXES_OTHER
100
AcDbLine
 62
7
  6
CENTER
 10
329.8056735146
 20
306.2981708355
 11
321.4756735146
 21
306.2981708355
  0
LINE
  5
398
100
AcDbEntity
  8
3_AXES_OTHER
100
AcDbLine
 62
7
  6
CENTER
 10
308.8056735146
 20
306.2981708355
 11
300.4756735146
 21
306.2981708355
  0
LINE
  5
399
100
AcDbEntity
  8
3_AXES_OTHER
100
AcDbLine
 62
7
  6
CENTER
 10
308.8056735146
 20
306.2981708355
 11
317.1356735146
 21
306.2981708355
  0
LINE
  5
39A
100
AcDbEntity
  8
3_AXES_OTHER
100
AcDbLine
 62
7
  6
CENTER
 10
329.8056735146
 20
306.2981708355
 11
338.1356735146
 21
306.2981708355
  0
LINE
  5
39B
100
AcDbEntity
  8
0
100
AcDbLine
 62
7
  6
CONTINUOUS
 10
330.1666307346
 20
311.2981708355
 11
320.8056652192
 21
311.2981708355
  0
LINE
  5
39C
100
AcDbEntity
  8
0
100
AcDbLine
 62
7
  6
CONTINUOUS
 10
317.8056652192
 20
311.2981708355
 11
308.4447162946
 21
311.2981708355
  0
LINE
  5
39D
100
AcDbEntity
  8
7_ALL_ROUNDS
100
AcDbLine
 62
7
  6
CONTINUOUS
 10
354.2575843936
 20
295.3619872546
 11
349.3308490659
 21
301.8999858586
  0
LINE
  5
39E
100
AcDbEntity
  8
0
100
AcDbLine
 62
9
  6
CONTINUOUS
 10
320.8056652192
 20
317.6133488081
 11
317.8056652192
 21
317.6133488081
  0
LINE
  5
39F
100
AcDbEntity
  8
7_ALL_ROUNDS
100
AcDbLine
 62
7
  6
CONTINUOUS
 10
373.8841868462
 20
190.2283718421
 11
374.3056735146
 21
202.2981708355
  0
LINE
  5
3A0
100
AcDbEntity
  8
7_ALL_ROUNDS
100
AcDbLine
 62
9
  6
CONTINUOUS
 10
317.8056652192
 20
329.6981708355
 11
320.8056652192
 21
329.6981708355
  0
LINE
  5
3A1
100
AcDbEntity
  8
7_ALL_ROUNDS
100
AcDbLine
 62
7
  6
CONTINUOUS
 10
318.4056652192
 20
330.2981708355
 11
320.2056652189
 21
330.2981708355
  0
LINE
  5
3A2
100
AcDbEntity
  8
0
100
AcDbLine
 62
7
  6
CONTINUOUS
 10
318.6556652192
 20
348.7981708355
 11
319.9556652192
 21
348.7981708355
  0
LINE
  5
3A3
100
AcDbEntity
  8
0
100
AcDbLine
 62
7
  6
CONTINUOUS
 10
302.3056735147
 20
450.1417437462
 11
302.3056735147
 21
448.1417437462
  0
LINE
  5
3A4
100
AcDbEntity
  8
0
100
AcDbLine
 62
9
  6
CONTINUOUS
 10
303.4587197452
 20
448.1417437462
 11
303.4587197452
 21
450.1417437462
  0
LINE
  5
3A5
100
AcDbEntity
  8
0
100
AcDbLine
 62
9
  6
CONTINUOUS
 10
308.4447162946
 20
448.1417437462
 11
308.4447162946
 21
450.1417437462
  0
LINE
  5
3A6
100
AcDbEntity
  8
7_ALL_ROUNDS
100
AcDbLine
 62
7
  6
CONTINUOUS
 10
308.8056652192
 20
465.4817437462
 11
308.8056652192
 21
456.5517437462
  0
LINE
  5
3A7
100
AcDbEntity
  8
0
100
AcDbLine
 62
7
  6
CONTINUOUS
 10
309.1156652192
 20
456.8517437462
 11
309.1156652192
 21
464.4517437462
  0
LINE
  5
3A8
100
AcDbEntity
  8
0
100
AcDbLine
 62
7
  6
CONTINUOUS
 10
316.2856652192
 20
460.1117437462
 11
316.4856652192
 21
460.3117437462
  0
LINE
  5
3A9
100
AcDbEntity
  8
0
100
AcDbLine
 62
7
  6
CONTINUOUS
 10
317.3056652192
 20
461.1217437462
 11
317.1056652192
 21
460.9217437462
  0
LINE
  5
3AA
100
AcDbEntity
  8
7_ALL_ROUNDS
100
AcDbLine
 62
7
  6
CONTINUOUS
 10
313.9556652192
 20
468.1617437462
 11
313.9556652192
 21
465.8817437463
  0
LINE
  5
3AB
100
AcDbEntity
  8
0
100
AcDbLine
 62
7
  6
CONTINUOUS
 10
314.0856652192
 20
463.4417437462
 11
314.0856652192
 21
458.3417437462
  0
LINE
  5
3AC
100
AcDbEntity
  8
0
100
AcDbLine
 62
7
  6
CONTINUOUS
 10
321.3056652192
 20
460.1117437462
 11
321.5056652192
 21
460.3117437462
  0
LINE
  5
3AD
100
AcDbEntity
  8
0
100
AcDbLine
 62
7
  6
CONTINUOUS
 10
322.3256652192
 20
461.1217437462
 11
322.1256652192
 21
460.9217437462
  0
LINE
  5
3AE
100
AcDbEntity
  8
7_ALL_ROUNDS
100
AcDbLine
 62
7
  6
CONTINUOUS
 10
318.6464744063
 20
454.6583994106
 11
318.2290130521
 21
454.3767869084
  0
LINE
  5
3AF
100
AcDbEntity
  8
7_ALL_ROUNDS
100
AcDbLine
 62
7
  6
CONTINUOUS
 10
317.8056652192
 20
453.3869280036
 11
317.805669434
 21
453.383768116
  0
LINE
  5
3B0
100
AcDbEntity
  8
0
100
AcDbLine
 62
7
  6
CONTINUOUS
 10
316.2856652192
 20
464.4517437462
 11
316.2856652192
 21
463.4417437462
  0
LINE
  5
3B1
100
AcDbEntity
  8
0
100
AcDbLine
 62
7
  6
CONTINUOUS
 10
316.2856652192
 20
461.1217437462
 11
316.2856652192
 21
460.1117437462
  0
LINE
  5
3B2
100
AcDbEntity
  8
0
100
AcDbLine
 62
7
  6
CONTINUOUS
 10
316.4856652192
 20
460.9217437462
 11
316.4856652192
 21
460.3117437462
  0
LINE
  5
3B3
100
AcDbEntity
  8
0
100
AcDbLine
 62
7
  6
CONTINUOUS
 10
316.9056652192
 20
454.8470902797
 11
316.9056652192
 21
449.3530528771
  0
LINE
  5
3B4
100
AcDbEntity
  8
0
100
AcDbLine
 62
7
  6
CONTINUOUS
 10
317.1056652192
 20
460.3117437462
 11
317.1056652192
 21
460.9217437462
  0
LINE
  5
3B5
100
AcDbEntity
  8
0
100
AcDbLine
 62
7
  6
CONTINUOUS
 10
317.2856652192
 20
463.4417437462
 11
317.2856652192
 21
464.4517437462
  0
LINE
  5
3B6
100
AcDbEntity
  8
0
100
AcDbLine
 62
7
  6
CONTINUOUS
 10
317.3056652192
 20
460.1117437462
 11
317.3056652192
 21
461.1217437462
  0
LINE
  5
3B7
100
AcDbEntity
  8
0
100
AcDbLine
 62
7
  6
CONTINUOUS
 10
317.7056652192
 20
454.8470902797
 11
317.7056652192
 21
449.5417437462
  0
LINE
  5
3B8
100
AcDbEntity
  8
0
100
AcDbLine
 62
9
  6
CONTINUOUS
 10
317.8056652192
 20
449.5417437462
 11
317.8056652192
 21
449.1417421132
  0
LINE
  5
3B9
100
AcDbEntity
  8
0
100
AcDbLine
 62
7
  6
CONTINUOUS
 10
317.8056652192
 20
448.7417445259
 11
317.8056652192
 21
444.218799604
  0
LINE
  5
3BA
100
AcDbEntity
  8
0
100
AcDbLine
 62
7
  6
CONTINUOUS
 10
317.8056652192
 20
450.1417437462
 11
317.8056652192
 21
453.3869579027
  0
LINE
  5
3BB
100
AcDbEntity
  8
0
100
AcDbLine
 62
9
  6
CONTINUOUS
 10
317.8056652192
 20
454.6583994106
 11
317.8056652192
 21
455.4583994106
  0
LINE
  5
3BC
100
AcDbEntity
  8
0
100
AcDbLine
 62
9
  6
CONTINUOUS
 10
319.3056652192
 20
454.4612377614
 11
319.3056652123
 21
454.6607972433
  0
LINE
  5
3BD
100
AcDbEntity
  8
0
100
AcDbLine
 62
9
  6
CONTINUOUS
 10
317.8104432709
 20
448.9726964416
 11
317.8056652192
 21
448.7417437462
  0
LWPOLYLINE
  5
3BE
100
AcDbEntity
  8
7_ALL_ROUNDS
100
AcDbPolyline
 62
7
  6
CONTINUOUS
 90
4
 70
0
 10
318.2290130521
 20
454.3767869084
 10
317.9288810809
 20
453.9514518597
 10
317.8074207318
 20
453.4547955361
 10
317.8057103585
 20
453.3835300249
  0
LINE
  5
3BF
100
AcDbEntity
  8
0
100
AcDbLine
 62
7
  6
CONTINUOUS
 10
336.3056735146
 20
448.1417437462
 11
320.8056652192
 21
448.1417437462
  0
LINE
  5
3C0
100
AcDbEntity
  8
0
100
AcDbLine
 62
7
  6
CONTINUOUS
 10
317.8056652192
 20
448.1417437462
 11
302.3056735147
 21
448.1417437462
  0
LINE
  5
3C1
100
AcDbEntity
  8
0
100
AcDbLine
 62
7
  6
CONTINUOUS
 10
317.8056652192
 20
448.7417437462
 11
317.8599819897
 21
448.7417437462
  0
LINE
  5
3C2
100
AcDbEntity
  8
0
100
AcDbLine
 62
7
  6
CONTINUOUS
 10
320.7513484487
 20
448.7417437462
 11
320.8056652192
 21
448.7417437462
  0
LINE
  5
3C3
100
AcDbEntity
  8
0
100
AcDbLine
 62
7
  6
CONTINUOUS
 10
317.8056652192
 20
449.5417437462
 11
317.8599819897
 21
449.5417437462
  0
LINE
  5
3C4
100
AcDbEntity
  8
0
100
AcDbLine
 62
7
  6
CONTINUOUS
 10
320.7513484487
 20
449.5417437462
 11
320.8056652192
 21
449.5417437462
  0
LINE
  5
3C5
100
AcDbEntity
  8
0
100
AcDbLine
 62
9
  6
CONTINUOUS
 10
320.8008871675
 20
448.9726964416
 11
320.8056652192
 21
448.7417437462
  0
LINE
  5
3C6
100
AcDbEntity
  8
7_ALL_ROUNDS
100
AcDbLine
 62
7
  6
CONTINUOUS
 10
320.8056652192
 20
453.3869618185
 11
320.8056637002
 21
453.3888548494
  0
LINE
  5
3C7
100
AcDbEntity
  8
0
100
AcDbLine
 62
9
  6
CONTINUOUS
 10
320.8056652192
 20
449.5417437462
 11
320.8056652192
 21
449.1417443
  0
LINE
  5
3C8
100
AcDbEntity
  8
0
100
AcDbLine
 62
7
  6
CONTINUOUS
 10
320.8056652192
 20
448.7417437462
 11
320.8056652192
 21
444.2187996046
  0
LINE
  5
3C9
100
AcDbEntity
  8
0
100
AcDbLine
 62
7
  6
CONTINUOUS
 10
320.8056652192
 20
450.1417437462
 11
320.8056652192
 21
453.3869750544
  0
LINE
  5
3CA
100
AcDbEntity
  8
0
100
AcDbLine
 62
9
  6
CONTINUOUS
 10
320.8056652192
 20
454.6583994106
 11
320.8056652192
 21
455.4583994106
  0
LINE
  5
3CB
100
AcDbEntity
  8
0
100
AcDbLine
 62
7
  6
CONTINUOUS
 10
320.9056652192
 20
449.5417437462
 11
320.9056652192
 21
454.8470902797
  0
LINE
  5
3CC
100
AcDbEntity
  8
0
100
AcDbLine
 62
7
  6
CONTINUOUS
 10
321.2856652192
 20
464.4517437462
 11
321.2856652192
 21
463.4417437462
  0
LINE
  5
3CD
100
AcDbEntity
  8
0
100
AcDbLine
 62
7
  6
CONTINUOUS
 10
321.3056652192
 20
461.1217437462
 11
321.3056652192
 21
460.1117437462
  0
LINE
  5
3CE
100
AcDbEntity
  8
0
100
AcDbLine
 62
7
  6
CONTINUOUS
 10
321.5056652192
 20
460.9217437462
 11
321.5056652192
 21
460.3117437462
  0
LINE
  5
3CF
100
AcDbEntity
  8
0
100
AcDbLine
 62
7
  6
CONTINUOUS
 10
321.7056652192
 20
449.3530528771
 11
321.7056652192
 21
454.8470902797
  0
LINE
  5
3D0
100
AcDbEntity
  8
0
100
AcDbLine
 62
7
  6
CONTINUOUS
 10
322.1256652192
 20
460.3117437462
 11
322.1256652192
 21
460.9217437462
  0
LINE
  5
3D1
100
AcDbEntity
  8
0
100
AcDbLine
 62
7
  6
CONTINUOUS
 10
322.2856652192
 20
463.4417437462
 11
322.2856652192
 21
464.4517437462
  0
LINE
  5
3D2
100
AcDbEntity
  8
0
100
AcDbLine
 62
7
  6
CONTINUOUS
 10
322.3256652192
 20
460.1117437462
 11
322.3256652192
 21
461.1217437462
  0
LINE
  5
3D3
100
AcDbEntity
  8
0
100
AcDbLine
 62
7
  6
CONTINUOUS
 10
324.5256652192
 20
458.3417437462
 11
324.5256652192
 21
463.4417437462
  0
LINE
  5
3D4
100
AcDbEntity
  8
7_ALL_ROUNDS
100
AcDbLine
 62
7
  6
CONTINUOUS
 10
324.6556652192
 20
465.8817437463
 11
324.6556652192
 21
468.1617437462
  0
LINE
  5
3D5
100
AcDbEntity
  8
0
100
AcDbLine
 62
7
  6
CONTINUOUS
 10
336.3056735146
 20
450.1417437462
 11
321.7056652192
 21
450.1417437462
  0
LINE
  5
3D6
100
AcDbEntity
  8
0
100
AcDbLine
 62
7
  6
CONTINUOUS
 10
320.9056652192
 20
450.1417437462
 11
320.3949284169
 21
450.1417437462
  0
LINE
  5
3D7
100
AcDbEntity
  8
0
100
AcDbLine
 62
7
  6
CONTINUOUS
 10
318.2164019395
 20
450.1417437462
 11
317.7056652192
 21
450.1417437462
  0
LINE
  5
3D8
100
AcDbEntity
  8
0
100
AcDbLine
 62
7
  6
CONTINUOUS
 10
316.9056652192
 20
450.1417437462
 11
302.3056735147
 21
450.1417437462
  0
LINE
  5
3D9
100
AcDbEntity
  8
0
100
AcDbLine
 62
7
  6
CONTINUOUS
 10
320.8056652192
 20
454.6583994106
 11
317.8056652192
 21
454.6583994106
  0
LINE
  5
3DA
100
AcDbEntity
  8
7_ALL_ROUNDS
100
AcDbLine
 62
7
  6
CONTINUOUS
 10
320.4001046109
 20
454.3592184187
 11
319.9730536666
 21
454.6583994106
  0
LWPOLYLINE
  5
3DB
100
AcDbEntity
  8
7_ALL_ROUNDS
100
AcDbPolyline
 62
7
  6
CONTINUOUS
 90
3
 70
0
 10
320.8056247431
 20
453.3891417977
 10
320.6911024053
 20
453.9321397999
 10
320.4001046109
 20
454.3592184187
  0
LINE
  5
3DC
100
AcDbEntity
  8
0
100
AcDbLine
 62
7
  6
CONTINUOUS
 10
329.4956652192
 20
456.8517437462
 11
329.4956652192
 21
464.4517437462
  0
LINE
  5
3DD
100
AcDbEntity
  8
7_ALL_ROUNDS
100
AcDbLine
 62
7
  6
CONTINUOUS
 10
329.8056652192
 20
456.5517437462
 11
329.8056652192
 21
465.4817437462
  0
LINE
  5
3DE
100
AcDbEntity
  8
0
100
AcDbLine
 62
9
  6
CONTINUOUS
 10
330.1666307346
 20
448.1417437462
 11
330.1666307346
 21
450.1417437462
  0
LINE
  5
3DF
100
AcDbEntity
  8
0
100
AcDbLine
 62
7
  6
CONTINUOUS
 10
320.8056652192
 20
455.4583994106
 11
317.8056652192
 21
455.4583994106
  0
LINE
  5
3E0
100
AcDbEntity
  8
7_ALL_ROUNDS
100
AcDbLine
 62
7
  6
CONTINUOUS
 10
309.0056652192
 20
456.3517437462
 11
329.6056652192
 21
456.3517437462
  0
LINE
  5
3E1
100
AcDbEntity
  8
0
100
AcDbLine
 62
7
  6
CONTINUOUS
 10
309.1156652192
 20
456.8517437462
 11
329.4956652192
 21
456.8517437462
  0
LINE
  5
3E2
100
AcDbEntity
  8
0
100
AcDbLine
 62
7
  6
CONTINUOUS
 10
314.0856652192
 20
458.3417437462
 11
314.8256652192
 21
458.3417437462
  0
LINE
  5
3E3
100
AcDbEntity
  8
0
100
AcDbLine
 62
7
  6
CONTINUOUS
 10
318.7856652192
 20
458.3417437462
 11
319.7856652192
 21
458.3417437462
  0
LINE
  5
3E4
100
AcDbEntity
  8
0
100
AcDbLine
 62
7
  6
CONTINUOUS
 10
323.7856652192
 20
458.3417437462
 11
324.5256652192
 21
458.3417437462
  0
LINE
  5
3E5
100
AcDbEntity
  8
0
100
AcDbLine
 62
7
  6
CONTINUOUS
 10
316.2856652192
 20
460.1117437462
 11
317.3056652192
 21
460.1117437462
  0
LINE
  5
3E6
100
AcDbEntity
  8
0
100
AcDbLine
 62
7
  6
CONTINUOUS
 10
321.3056652192
 20
460.1117437462
 11
322.3256652192
 21
460.1117437462
  0
LINE
  5
3E7
100
AcDbEntity
  8
0
100
AcDbLine
 62
7
  6
CONTINUOUS
 10
316.2856652192
 20
461.1217437462
 11
316.4856652192
 21
460.9217437462
  0
LINE
  5
3E8
100
AcDbEntity
  8
0
100
AcDbLine
 62
7
  6
CONTINUOUS
 10
317.3056652192
 20
460.1117437462
 11
317.1056652192
 21
460.3117437462
  0
LINE
  5
3E9
100
AcDbEntity
  8
0
100
AcDbLine
 62
7
  6
CONTINUOUS
 10
321.3056652192
 20
461.1217437462
 11
321.5056652192
 21
460.9217437462
  0
LINE
  5
3EA
100
AcDbEntity
  8
0
100
AcDbLine
 62
7
  6
CONTINUOUS
 10
322.3256652192
 20
460.1117437462
 11
322.1256652192
 21
460.3117437462
  0
LINE
  5
3EB
100
AcDbEntity
  8
0
100
AcDbLine
 62
9
  6
CONTINUOUS
 10
335.152627284
 20
448.1417437462
 11
335.152627284
 21
450.1417437462
  0
LINE
  5
3EC
100
AcDbEntity
  8
0
100
AcDbLine
 62
7
  6
CONTINUOUS
 10
316.4856652192
 20
460.3117437462
 11
317.1056652192
 21
460.3117437462
  0
LINE
  5
3ED
100
AcDbEntity
  8
0
100
AcDbLine
 62
7
  6
CONTINUOUS
 10
321.5056652192
 20
460.3117437462
 11
322.1256652192
 21
460.3117437462
  0
LINE
  5
3EE
100
AcDbEntity
  8
0
100
AcDbLine
 62
7
  6
CONTINUOUS
 10
322.1256652192
 20
460.9217437462
 11
321.5056652192
 21
460.9217437462
  0
LINE
  5
3EF
100
AcDbEntity
  8
0
100
AcDbLine
 62
7
  6
CONTINUOUS
 10
317.1056652192
 20
460.9217437462
 11
316.4856652192
 21
460.9217437462
  0
LINE
  5
3F0
100
AcDbEntity
  8
0
100
AcDbLine
 62
7
  6
CONTINUOUS
 10
322.3256652192
 20
461.1217437462
 11
321.3056652192
 21
461.1217437462
  0
LINE
  5
3F1
100
AcDbEntity
  8
0
100
AcDbLine
 62
7
  6
CONTINUOUS
 10
317.3056652192
 20
461.1217437462
 11
316.2856652192
 21
461.1217437462
  0
LINE
  5
3F2
100
AcDbEntity
  8
0
100
AcDbLine
 62
7
  6
CONTINUOUS
 10
324.5256652192
 20
463.4417437462
 11
322.2856652192
 21
463.4417437462
  0
LINE
  5
3F3
100
AcDbEntity
  8
0
100
AcDbLine
 62
7
  6
CONTINUOUS
 10
321.2856652192
 20
463.4417437462
 11
317.2856652192
 21
463.4417437462
  0
LINE
  5
3F4
100
AcDbEntity
  8
0
100
AcDbLine
 62
7
  6
CONTINUOUS
 10
316.2856652192
 20
463.4417437462
 11
314.0856652192
 21
463.4417437462
  0
LINE
  5
3F5
100
AcDbEntity
  8
0
100
AcDbLine
 62
7
  6
CONTINUOUS
 10
329.4956652192
 20
463.9517437462
 11
322.2856652192
 21
463.9517437462
  0
LINE
  5
3F6
100
AcDbEntity
  8
0
100
AcDbLine
 62
7
  6
CONTINUOUS
 10
321.2856652192
 20
463.9517437462
 11
317.2856652192
 21
463.9517437462
  0
LINE
  5
3F7
100
AcDbEntity
  8
0
100
AcDbLine
 62
7
  6
CONTINUOUS
 10
316.2856652192
 20
463.9517437462
 11
309.1156652192
 21
463.9517437462
  0
LINE
  5
3F8
100
AcDbEntity
  8
0
100
AcDbLine
 62
7
  6
CONTINUOUS
 10
329.4956652192
 20
464.4517437462
 11
309.1156652192
 21
464.4517437462
  0
LINE
  5
3F9
100
AcDbEntity
  8
0
100
AcDbLine
 62
7
  6
CONTINUOUS
 10
336.3056735146
 20
450.1417437462
 11
336.3056735146
 21
448.1417437462
  0
LINE
  5
3FA
100
AcDbEntity
  8
7_ALL_ROUNDS
100
AcDbLine
 62
7
  6
CONTINUOUS
 10
329.6056652192
 20
465.6817437462
 11
324.8556652192
 21
465.6817437462
  0
LINE
  5
3FB
100
AcDbEntity
  8
7_ALL_ROUNDS
100
AcDbLine
 62
7
  6
CONTINUOUS
 10
313.7556652192
 20
465.6817437462
 11
309.0056652192
 21
465.6817437462
  0
LINE
  5
3FC
100
AcDbEntity
  8
7_ALL_ROUNDS
100
AcDbLine
 62
7
  6
CONTINUOUS
 10
324.4556652192
 20
468.3617437462
 11
314.1556652192
 21
468.3617437462
  0
LINE
  5
3FD
100
AcDbEntity
  8
0
100
AcDbLine
 62
7
  6
CONTINUOUS
 10
498.0576274118
 20
187.5481708355
 11
598.6256765611
 21
187.5481708355
  0
LINE
  5
3FE
100
AcDbEntity
  8
7_ALL_ROUNDS
100
AcDbLine
 62
7
  6
CONTINUOUS
 10
495.7619120135
 20
188.2981708355
 11
600.9213919594
 21
188.2981708355
  0
LINE
  5
3FF
100
AcDbEntity
  8
7_ALL_ROUNDS
100
AcDbLine
 62
9
  6
CONTINUOUS
 10
493.7631303595
 20
190.2283718421
 11
602.9201736134
 21
190.2283718421
  0
LINE
  5
400
100
AcDbEntity
  8
0
100
AcDbLine
 62
7
  6
CONTINUOUS
 10
493.341643691
 20
202.2981708355
 11
603.3416602819
 21
202.2981708355
  0
LINE
  5
401
100
AcDbEntity
  8
0
100
AcDbLine
 62
7
  6
CONTINUOUS
 10
495.4821925852
 20
206.8885927526
 11
601.2011113878
 21
206.8885927526
  0
LINE
  5
402
100
AcDbEntity
  8
0
100
AcDbLine
 62
7
  6
CONTINUOUS
 10
493.7631303595
 20
190.2283718421
 11
493.341643691
 21
202.2981708355
  0
LINE
  5
403
100
AcDbEntity
  8
0
100
AcDbLine
 62
9
  6
CONTINUOUS
 10
548.9154842322
 20
320.0140642466
 11
548.1904380025
 21
319.6759696373
  0
LINE
  5
404
100
AcDbEntity
  8
0
100
AcDbLine
 62
7
  6
CONTINUOUS
 10
513.3897328121
 20
295.3619872546
 11
518.3164681397
 21
301.8999858586
  0
LINE
  5
405
100
AcDbEntity
  8
0
100
AcDbLine
 62
9
  6
CONTINUOUS
 10
554.4095216348
 20
308.2320630152
 11
553.6844754052
 21
307.8939684058
  0
LINE
  5
406
100
AcDbEntity
  8
0
100
AcDbLine
 62
7
  6
CONTINUOUS
 10
493.341643691
 20
202.2981708355
 11
495.4821925852
 21
206.8885927526
  0
LINE
  5
407
100
AcDbEntity
  8
7_ALL_ROUNDS
100
AcDbLine
 62
7
  6
CONTINUOUS
 10
546.8416519865
 20
329.6981708355
 11
546.8416519865
 21
317.6133488081
  0
LINE
  5
408
100
AcDbEntity
  8
0
100
AcDbLine
 62
7
  6
CONTINUOUS
 10
547.3416519865
 20
302.2981708355
 11
547.3416519865
 21
311.2981708355
  0
LINE
  5
409
100
AcDbEntity
  8
0
100
AcDbLine
 62
7
  6
CONTINUOUS
 10
547.6916519865
 20
330.2981708355
 11
547.6916519865
 21
348.7981708355
  0
LINE
  5
40A
100
AcDbEntity
  8
0
100
AcDbLine
 62
7
  6
CONTINUOUS
 10
548.9916519865
 20
330.2981708355
 11
548.9916519865
 21
348.7981708355
  0
LINE
  5
40B
100
AcDbEntity
  8
0
100
AcDbLine
 62
7
  6
CONTINUOUS
 10
549.3416519865
 20
302.2981708355
 11
549.3416519865
 21
311.2981708355
  0
LINE
  5
40C
100
AcDbEntity
  8
7_ALL_ROUNDS
100
AcDbLine
 62
7
  6
CONTINUOUS
 10
549.8416519865
 20
329.6981708355
 11
549.8416519865
 21
318.027891088
  0
LINE
  5
40D
100
AcDbEntity
  8
0
100
AcDbLine
 62
9
  6
CONTINUOUS
 10
547.0291519865
 20
313.4417371591
 11
545.9041519865
 21
316.2228115918
  0
LINE
  5
40E
100
AcDbEntity
  8
0
100
AcDbLine
 62
7
  6
CONTINUOUS
 10
547.9791288717
 20
320.1291235308
 11
553.895784536
 21
307.4408145123
  0
LINE
  5
40F
100
AcDbEntity
  8
0
100
AcDbLine
 62
7
  6
CONTINUOUS
 10
603.3416602819
 20
202.2981708355
 11
601.2011113878
 21
206.8885927526
  0
LINE
  5
410
100
AcDbEntity
  8
0
100
AcDbLine
 62
7
  6
CONTINUOUS
 10
548.7041751013
 20
320.4672181402
 11
554.6208307657
 21
307.7789091216
  0
LINE
  5
411
100
AcDbEntity
  8
0
100
AcDbLine
 62
7
  6
CONTINUOUS
 10
513.3897328121
 20
295.3619872546
 11
583.2935711609
 21
295.3619872546
  0
LINE
  5
412
100
AcDbEntity
  8
7_ALL_ROUNDS
100
AcDbLine
 62
9
  6
CONTINUOUS
 10
518.3164681397
 20
301.8999858586
 11
578.3668358332
 21
301.8999858586
  0
LINE
  5
413
100
AcDbEntity
  8
7_ALL_ROUNDS
100
AcDbLine
 62
7
  6
CONTINUOUS
 10
519.1156156505
 20
302.2981708355
 11
577.5682003232
 21
302.2981708355
  0
LINE
  5
414
100
AcDbEntity
  8
0
100
AcDbLine
 62
9
  6
CONTINUOUS
 10
547.3416519865
 20
306.6721205767
 11
549.3416519865
 21
306.6721205767
  0
LINE
  5
415
100
AcDbEntity
  8
7_ALL_ROUNDS
100
AcDbLine
 62
7
  6
CONTINUOUS
 10
553.6611460016
 20
307.7166295243
 11
552.0175094497
 21
308.4830698357
  0
LINE
  5
416
100
AcDbEntity
  8
7_ALL_ROUNDS
100
AcDbLine
 62
9
  6
CONTINUOUS
 10
553.6676830629
 20
306.9954721739
 11
553.9227536529
 21
306.8652883507
  0
LINE
  5
417
100
AcDbEntity
  8
0
100
AcDbLine
 62
7
  6
CONTINUOUS
 10
547.3416519865
 20
311.2981708355
 11
549.3416519865
 21
311.2981708355
  0
LINE
  5
418
100
AcDbEntity
  8
0
100
AcDbLine
 62
7
  6
CONTINUOUS
 10
583.2935711609
 20
295.3619872546
 11
578.3668358332
 21
301.8999858586
  0
LINE
  5
419
100
AcDbEntity
  8
0
100
AcDbLine
 62
9
  6
CONTINUOUS
 10
549.152253891
 20
317.6133488081
 11
546.8416519865
 21
317.6133488081
  0
LINE
  5
41A
100
AcDbEntity
  8
0
100
AcDbLine
 62
7
  6
CONTINUOUS
 10
602.9201736134
 20
190.2283718421
 11
603.3416602819
 21
202.2981708355
  0
LINE
  5
41B
100
AcDbEntity
  8
7_ALL_ROUNDS
100
AcDbLine
 62
9
  6
CONTINUOUS
 10
546.8416519865
 20
329.6981708355
 11
549.8416519865
 21
329.6981708355
  0
LINE
  5
41C
100
AcDbEntity
  8
7_ALL_ROUNDS
100
AcDbLine
 62
7
  6
CONTINUOUS
 10
547.4416519865
 20
330.2981708355
 11
549.2416519865
 21
330.2981708355
  0
LINE
  5
41D
100
AcDbEntity
  8
0
100
AcDbLine
 62
7
  6
CONTINUOUS
 10
547.6916519865
 20
348.7981708355
 11
548.9916519865
 21
348.7981708355
  0
LINE
  5
41E
100
AcDbEntity
  8
0
100
AcDbLine
 62
7
  6
CONTINUOUS
 10
711.823360347
 20
382.4451001905
 11
711.4020022957
 21
392.2927463762
  0
LINE
  5
41F
100
AcDbEntity
  8
0
100
AcDbLine
 62
7
  6
CONTINUOUS
 10
736.8130323639
 20
479.8132458015
 11
740.9814551806
 21
483.6341608233
  0
LINE
  5
420
100
AcDbEntity
  8
0
100
AcDbLine
 62
7
  6
CONTINUOUS
 10
756.9119924538
 20
487.1552062466
 11
755.4977788914
 21
486.3384958465
  0
LINE
  5
421
100
AcDbEntity
  8
0
100
AcDbLine
 62
9
  6
CONTINUOUS
 10
757.9982698569
 20
486.0906005754
 11
759.4124834193
 21
486.9073109755
  0
LINE
  5
422
100
AcDbEntity
  8
7_ALL_ROUNDS
100
AcDbLine
 62
7
  6
CONTINUOUS
 10
768.7764179446
 20
475.6924131084
 11
766.4717774499
 21
474.3614798529
  0
LINE
  5
423
100
AcDbEntity
  8
0
100
AcDbLine
 62
7
  6
CONTINUOUS
 10
768.7940907662
 20
475.6127168948
 11
766.5398335848
 21
474.3108800763
  0
LINE
  5
424
100
AcDbEntity
  8
0
100
AcDbLine
 62
9
  6
CONTINUOUS
 10
773.3579828577
 20
477.2203438587
 11
774.7721964201
 21
478.0370542588
  0
LINE
  5
425
100
AcDbEntity
  8
0
100
AcDbLine
 62
7
  6
CONTINUOUS
 10
772.8057568459
 20
473.870409233
 11
772.6085652401
 21
473.7565307924
  0
LINE
  5
426
100
AcDbEntity
  8
7_ALL_ROUNDS
100
AcDbLine
 62
7
  6
CONTINUOUS
 10
775.0630678645
 20
473.4841247681
 11
774.629481391
 21
473.2337279457
  0
LINE
  5
427
100
AcDbEntity
  8
0
100
AcDbLine
 62
7
  6
CONTINUOUS
 10
774.7220162229
 20
473.1802889449
 11
774.3613917645
 21
472.9720277929
  0
LINE
  5
428
100
AcDbEntity
  8
0
100
AcDbLine
 62
7
  6
CONTINUOUS
 10
775.3064684786
 20
472.701100577
 11
775.0684985457
 21
472.5636725928
  0
LINE
  5
429
100
AcDbEntity
  8
0
100
AcDbLine
 62
7
  6
CONTINUOUS
 10
775.0755696135
 20
471.6700482793
 11
774.6216654997
 21
471.4079179898
  0
LINE
  5
42A
100
AcDbEntity
  8
0
100
AcDbLine
 62
9
  6
CONTINUOUS
 10
776.8836148288
 20
471.4076266871
 11
778.2978283912
 21
472.2243370872
  0
LINE
  5
42B
100
AcDbEntity
  8
0
100
AcDbLine
 62
7
  6
CONTINUOUS
 10
778.96465691
 20
470.7301577446
 11
778.6040324516
 21
470.5218965926
  0
LINE
  5
42C
100
AcDbEntity
  8
0
100
AcDbLine
 62
7
  6
CONTINUOUS
 10
778.6111035194
 20
469.628272279
 11
778.4656320466
 21
469.5442622907
  0
LINE
  5
42D
100
AcDbEntity
  8
0
100
AcDbLine
 62
7
  6
CONTINUOUS
 10
778.5219329578
 20
468.6450527186
 11
780.1879516415
 21
469.6071809444
  0
LINE
  5
42E
100
AcDbEntity
  8
7_ALL_ROUNDS
100
AcDbLine
 62
7
  6
CONTINUOUS
 10
782.0052160691
 20
470.3872035265
 11
783.6174195302
 21
471.3182533826
  0
LINE
  5
42F
100
AcDbEntity
  8
0
100
AcDbLine
 62
7
  6
CONTINUOUS
 10
779.042438656
 20
464.8865948318
 11
784.0628968024
 21
467.7859167522
  0
LINE
  5
430
100
AcDbEntity
  8
7_ALL_ROUNDS
100
AcDbLine
 62
7
  6
CONTINUOUS
 10
779.0495097238
 20
464.4742202297
 11
785.3639732798
 21
468.1208321662
  0
LINE
  5
431
100
AcDbEntity
  8
0
100
AcDbLine
 62
7
  6
CONTINUOUS
 10
754.4726378858
 20
484.3499986406
 11
753.6573110772
 21
472.2697176112
  0
LWPOLYLINE
  5
432
100
AcDbEntity
  8
7_ALL_ROUNDS
100
AcDbPolyline
 62
7
  6
CONTINUOUS
 90
3
 70
0
 10
770.8240783438
 20
480.3170982207
 10
770.8367534249
 20
480.360405322
 10
770.8312607727
 20
480.6383797571
  0
LINE
  5
433
100
AcDbEntity
  8
0
100
AcDbLine
 62
7
  6
CONTINUOUS
 10
764.8852272727
 20
497.0854003708
 11
764.8852272727
 21
487.2194767415
  0
LINE
  5
434
100
AcDbEntity
  8
0
100
AcDbLine
 62
7
  6
CONTINUOUS
 10
765.7352272727
 20
497.575234161
 11
765.7352272727
 21
512.6784426922
  0
LINE
  5
435
100
AcDbEntity
  8
0
100
AcDbLine
 62
7
  6
CONTINUOUS
 10
767.0352272727
 20
497.575234161
 11
767.0352272727
 21
512.6784426922
  0
LINE
  5
436
100
AcDbEntity
  8
0
100
AcDbLine
 62
7
  6
CONTINUOUS
 10
767.8852272727
 20
497.0854003708
 11
767.8852272727
 21
488.9756886014
  0
LINE
  5
437
100
AcDbEntity
  8
0
100
AcDbLine
 62
7
  6
CONTINUOUS
 10
767.8852272727
 20
487.5734836541
 11
767.8852272727
 21
487.2194767415
  0
LINE
  5
438
100
AcDbEntity
  8
0
100
AcDbLine
 62
7
  6
CONTINUOUS
 10
772.8057568459
 20
473.360309045
 11
772.8057568459
 21
473.870409233
  0
LINE
  5
439
100
AcDbEntity
  8
0
100
AcDbLine
 62
7
  6
CONTINUOUS
 10
777.5465285506
 20
460.8199052589
 11
776.8836148288
 21
471.4076266871
  0
LINE
  5
43A
100
AcDbEntity
  8
7_ALL_ROUNDS
100
AcDbLine
 62
9
  6
CONTINUOUS
 10
774.156330798
 20
473.506973105
 11
774.156330798
 21
474.7566041671
  0
LINE
  5
43B
100
AcDbEntity
  8
0
100
AcDbLine
 62
7
  6
CONTINUOUS
 10
774.3613917645
 20
471.5675277574
 11
774.3613917645
 21
472.9720277929
  0
LINE
  5
43C
100
AcDbEntity
  8
7_ALL_ROUNDS
100
AcDbLine
 62
9
  6
CONTINUOUS
 10
774.4391735104
 20
473.343631025
 11
774.4391735104
 21
474.6689925321
  0
LINE
  5
43D
100
AcDbEntity
  8
0
100
AcDbLine
 62
7
  6
CONTINUOUS
 10
775.0684985457
 20
471.231580326
 11
775.0755696135
 21
472.9762717198
  0
LINE
  5
43E
100
AcDbEntity
  8
0
100
AcDbLine
 62
7
  6
CONTINUOUS
 10
778.6040324516
 20
468.8074783269
 11
778.6111035194
 21
470.9344957195
  0
LINE
  5
43F
100
AcDbEntity
  8
0
100
AcDbLine
 62
7
  6
CONTINUOUS
 10
779.042438656
 20
464.4742202297
 11
779.042438656
 21
464.8865948318
  0
LINE
  5
440
100
AcDbEntity
  8
0
100
AcDbLine
 62
7
  6
CONTINUOUS
 10
778.9819808617
 20
461.2974011467
 11
778.2978283912
 21
472.2243370872
  0
LINE
  5
441
100
AcDbEntity
  8
7_ALL_ROUNDS
100
AcDbLine
 62
7
  6
CONTINUOUS
 10
781.9466374254
 20
469.0080596368
 11
781.9466374254
 21
470.3055324865
  0
LINE
  5
442
100
AcDbEntity
  8
7_ALL_ROUNDS
100
AcDbLine
 62
9
  6
CONTINUOUS
 10
782.0052160691
 20
468.9742303844
 11
782.0052160691
 21
470.2238614465
  0
LINE
  5
443
100
AcDbEntity
  8
7_ALL_ROUNDS
100
AcDbLine
 62
9
  6
CONTINUOUS
 10
783.6174195302
 20
471.4815954627
 11
783.6174195302
 21
471.3182533826
  0
LINE
  5
444
100
AcDbEntity
  8
7_ALL_ROUNDS
100
AcDbLine
 62
9
  6
CONTINUOUS
 10
785.3639732798
 20
468.2841742462
 11
785.3639732798
 21
468.1208321662
  0
LINE
  5
445
100
AcDbEntity
  8
0
100
AcDbLine
 62
7
  6
CONTINUOUS
 10
768.6513988474
 20
482.3827833588
 11
767.323351741
 21
484.9039978342
  0
LINE
  5
446
100
AcDbEntity
  8
0
100
AcDbLine
 62
7
  6
CONTINUOUS
 10
764.8774724801
 20
489.5473468302
 11
764.7665277439
 21
489.7579684818
  0
LINE
  5
447
100
AcDbEntity
  8
0
100
AcDbLine
 62
7
  6
CONTINUOUS
 10
769.3592070191
 20
482.7556205781
 11
767.6906587747
 21
485.9232551947
  0
LINE
  5
448
100
AcDbEntity
  8
7_ALL_ROUNDS
100
AcDbLine
 62
7
  6
CONTINUOUS
 10
770.8312607727
 20
480.6383797571
 11
770.7254168614
 21
480.8849586641
  0
LINE
  5
449
100
AcDbEntity
  8
0
100
AcDbLine
 62
7
  6
CONTINUOUS
 10
753.6573110772
 20
472.2697176112
 11
774.5780711472
 21
460.1879480808
  0
LINE
  5
44A
100
AcDbEntity
  8
0
100
AcDbLine
 62
7
  6
CONTINUOUS
 10
767.5949548686
 20
488.1245476816
 11
771.4798259721
 21
480.7493625586
  0
LINE
  5
44B
100
AcDbEntity
  8
0
100
AcDbLine
 62
7
  6
CONTINUOUS
 10
768.3027630403
 20
488.4973849009
 11
772.1876341438
 21
481.1221997779
  0
LINE
  5
44C
100
AcDbEntity
  8
0
100
AcDbLine
 62
7
  6
CONTINUOUS
 10
778.6111035194
 20
470.9344957195
 11
778.3698716941
 21
471.0736980265
  0
LINE
  5
44D
100
AcDbEntity
  8
0
100
AcDbLine
 62
7
  6
CONTINUOUS
 10
778.7465573007
 20
465.0574667471
 11
779.042438656
 21
464.8865948318
  0
LINE
  5
44E
100
AcDbEntity
  8
0
100
AcDbLine
 62
7
  6
CONTINUOUS
 10
778.6040324516
 20
468.8074783269
 11
778.7036105809
 21
468.7499718116
  0
LINE
  5
44F
100
AcDbEntity
  8
0
100
AcDbLine
 62
7
  6
CONTINUOUS
 10
780.1879516415
 20
469.6071809444
 11
778.6040324516
 21
470.5218965926
  0
LINE
  5
450
100
AcDbEntity
  8
0
100
AcDbLine
 62
7
  6
CONTINUOUS
 10
775.3441740215
 20
472.4044696025
 11
775.0684985457
 21
472.5636725928
  0
LINE
  5
451
100
AcDbEntity
  8
0
100
AcDbLine
 62
7
  6
CONTINUOUS
 10
774.3613917645
 20
472.9720277929
 11
772.8057568459
 21
473.870409233
  0
LINE
  5
452
100
AcDbEntity
  8
0
100
AcDbLine
 62
7
  6
CONTINUOUS
 10
784.416450193
 20
467.5818995271
 11
778.96465691
 21
470.7301577446
  0
LINE
  5
453
100
AcDbEntity
  8
0
100
AcDbLine
 62
7
  6
CONTINUOUS
 10
775.0755696135
 20
472.9762717198
 11
772.3291311888
 21
474.562183551
  0
LINE
  5
454
100
AcDbEntity
  8
7_ALL_ROUNDS
100
AcDbLine
 62
7
  6
CONTINUOUS
 10
770.7254168614
 20
480.8849586641
 11
770.5554221515
 21
481.0800303083
  0
LINE
  5
455
100
AcDbEntity
  8
7_ALL_ROUNDS
100
AcDbLine
 62
7
  6
CONTINUOUS
 10
770.268743794
 20
481.2834720033
 11
770.1717152065
 21
481.3367026872
  0
LINE
  5
456
100
AcDbEntity
  8
7_ALL_ROUNDS
100
AcDbLine
 62
7
  6
CONTINUOUS
 10
785.3639732798
 20
468.2841742462
 11
782.0052160691
 21
470.2238614465
  0
LINE
  5
457
100
AcDbEntity
  8
7_ALL_ROUNDS
100
AcDbLine
 62
7
  6
CONTINUOUS
 10
774.156330798
 20
474.7566041671
 11
772.2800250092
 21
475.8401735036
  0
LINE
  5
458
100
AcDbEntity
  8
7_ALL_ROUNDS
100
AcDbLine
 62
7
  6
CONTINUOUS
 10
782.3451827336
 20
470.5835347723
 11
778.1600926128
 21
473.0004304364
  0
LINE
  5
459
100
AcDbEntity
  8
0
100
AcDbLine
 62
7
  6
CONTINUOUS
 10
773.3579828577
 20
477.2203438587
 11
765.2369551805
 21
481.9102492167
  0
LINE
  5
45A
100
AcDbEntity
  8
0
100
AcDbLine
 62
7
  6
CONTINUOUS
 10
762.6493316876
 20
483.4046055674
 11
757.9982698569
 21
486.0906005754
  0
LINE
  5
45B
100
AcDbEntity
  8
7_ALL_ROUNDS
100
AcDbLine
 62
7
  6
CONTINUOUS
 10
783.6174195302
 20
471.4815954627
 11
777.4528036721
 21
475.0416701345
  0
LINE
  5
45C
100
AcDbEntity
  8
0
100
AcDbLine
 62
7
  6
CONTINUOUS
 10
774.7721964201
 20
478.0370542588
 11
766.0885249751
 21
483.0518872154
  0
LINE
  5
45D
100
AcDbEntity
  8
0
100
AcDbLine
 62
7
  6
CONTINUOUS
 10
763.4540657356
 20
484.5732912783
 11
759.4124834193
 21
486.9073109755
  0
LINE
  5
45E
100
AcDbEntity
  8
0
100
AcDbLine
 62
7
  6
CONTINUOUS
 10
771.4295555095
 20
480.5099103202
 11
770.669992386
 21
480.9485591346
  0
LINE
  5
45F
100
AcDbEntity
  8
0
100
AcDbLine
 62
7
  6
CONTINUOUS
 10
769.6126360045
 20
481.559183991
 11
769.3082351659
 21
481.7349759204
  0
LINE
  5
460
100
AcDbEntity
  8
0
100
AcDbLine
 62
7
  6
CONTINUOUS
 10
770.9837100562
 20
481.6912076352
 11
769.7083137204
 21
482.427750884
  0
LINE
  5
461
100
AcDbEntity
  8
0
100
AcDbLine
 62
7
  6
CONTINUOUS
 10
770.2669991056
 20
481.2844854615
 11
770.268743794
 21
481.2834720033
  0
LWPOLYLINE
  5
462
100
AcDbEntity
  8
7_ALL_ROUNDS
100
AcDbPolyline
 62
7
  6
CONTINUOUS
 90
3
 70
0
 10
770.5554221515
 20
481.0800303083
 10
770.3335115614
 20
481.244537452
 10
770.2669991056
 20
481.2844854615
  0
LWPOLYLINE
  5
463
100
AcDbEntity
  8
7_ALL_ROUNDS
100
AcDbPolyline
 62
7
  6
CONTINUOUS
 90
3
 70
0
 10
769.0582677681
 20
481.69097054
 10
768.7424365329
 20
481.7095103297
 10
768.4786371674
 20
481.6715939296
  0
LINE
  5
464
100
AcDbEntity
  8
7_ALL_ROUNDS
100
AcDbLine
 62
9
  6
CONTINUOUS
 10
770.8449966808
 20
480.6782716106
 11
770.8127266901
 21
480.6815576195
  0
LINE
  5
465
100
AcDbEntity
  8
7_ALL_ROUNDS
100
AcDbLine
 62
9
  6
CONTINUOUS
 10
770.8619667042
 20
480.7322949523
 11
770.8295989522
 21
480.7356732457
  0
LINE
  5
466
100
AcDbEntity
  8
7_ALL_ROUNDS
100
AcDbLine
 62
7
  6
CONTINUOUS
 10
769.4184488341
 20
481.6201080771
 11
769.0582677681
 21
481.69097054
  0
LINE
  5
467
100
AcDbEntity
  8
7_ALL_ROUNDS
100
AcDbLine
 62
7
  6
CONTINUOUS
 10
769.8034065049
 20
481.4993318475
 11
769.4184488341
 21
481.6201080771
  0
LINE
  5
468
100
AcDbEntity
  8
7_ALL_ROUNDS
100
AcDbLine
 62
7
  6
CONTINUOUS
 10
770.1717152065
 20
481.3367026872
 11
769.8034065049
 21
481.4993318475
  0
LINE
  5
469
100
AcDbEntity
  8
0
100
AcDbLine
 62
9
  6
CONTINUOUS
 10
767.6459267217
 20
489.1451923393
 11
767.6458346461
 21
489.1452454642
  0
LINE
  5
46A
100
AcDbEntity
  8
0
100
AcDbLine
 62
7
  6
CONTINUOUS
 10
767.2268137861
 20
488.4634097587
 11
767.2458481673
 21
488.4524173757
  0
LINE
  5
46B
100
AcDbEntity
  8
0
100
AcDbLine
 62
7
  6
CONTINUOUS
 10
767.6268923405
 20
489.1561847223
 11
767.6459267217
 21
489.1451923393
  0
LINE
  5
46C
100
AcDbEntity
  8
0
100
AcDbLine
 62
7
  6
CONTINUOUS
 10
820.9470941985
 20
382.4451001905
 11
821.3684522498
 21
392.2927463762
  0
LINE
  5
46D
100
AcDbEntity
  8
0
100
AcDbLine
 62
7
  6
CONTINUOUS
 10
795.9574221816
 20
479.8132458015
 11
791.7889993649
 21
483.6341608233
  0
LWPOLYLINE
  5
46E
100
AcDbEntity
  8
0
100
AcDbPolyline
 62
7
  6
CONTINUOUS
 90
2
 70
1
 43
0.5
 10
641.4916392743
 20
23.4978626661
 42
1.0
 10
646.5716392743
 20
23.4978626661
 42
1.0
  0
LWPOLYLINE
  5
46F
100
AcDbEntity
  8
0
100
AcDbPolyline
 62
7
  6
CONTINUOUS
 90
2
 70
1
 43
0.5
 10
642.7616392743
 20
23.4978626661
 42
1.0
 10
645.3016392743
 20
23.4978626661
 42
1.0
  0
ARC
  5
470
100
AcDbEntity
  8
0
100
AcDbCircle
 62
7
  6
CONTINUOUS
 10
768.6921615236
 20
87.7818499022
 40
0.4525004723
100
AcDbArc
 50
90.0
 51
180.0
  0
ARC
  5
471
100
AcDbEntity
  8
0
100
AcDbCircle
 62
7
  6
CONTINUOUS
 10
735.1745475012
 20
87.8638116153
 40
0.4525004723
100
AcDbArc
 50
90.0
 51
180.0
  0
ARC
  5
472
100
AcDbEntity
  8
0
100
AcDbCircle
 62
7
  6
CONTINUOUS
 10
779.1191723703
 20
88.686850845
 40
0.4525004705
100
AcDbArc
 50
270.0
 51
360.0
  0
ARC
  5
473
100
AcDbEntity
  8
0
100
AcDbCircle
 62
7
  6
CONTINUOUS
 10
758.7907691943
 20
84.1735174463
 40
0.4525004705
100
AcDbArc
 50
0.0
 51
89.9999995368
  0
ARC
  5
474
100
AcDbEntity
  8
0
100
AcDbCircle
 62
7
  6
CONTINUOUS
 10
748.6599435991
 20
82.344557289
 40
0.4525004705
100
AcDbArc
 50
90.0
 51
180.0
  0
ARC
  5
475
100
AcDbEntity
  8
0
100
AcDbCircle
 62
7
  6
CONTINUOUS
 10
748.6599435991
 20
81.4872331788
 40
0.4525004705
100
AcDbArc
 50
180.0
 51
270.0
  0
ARC
  5
476
100
AcDbEntity
  8
0
100
AcDbCircle
 62
7
  6
CONTINUOUS
 10
762.8063733449
 20
88.6687970406
 40
0.4525004705
100
AcDbArc
 50
270.0
 51
360.0
  0
ARC
  5
477
100
AcDbEntity
  8
0
100
AcDbCircle
 62
7
  6
CONTINUOUS
 10
762.8063733449
 20
89.592162769
 40
0.4525004705
100
AcDbArc
 50
359.9999995369
 51
90.0
  0
ARC
  5
478
100
AcDbEntity
  8
0
100
AcDbCircle
 62
7
  6
CONTINUOUS
 10
735.1745474994
 20
83.3516865895
 40
0.4525004705
100
AcDbArc
 50
180.0
 51
270.0
  0
ARC
  5
479
100
AcDbEntity
  8
0
100
AcDbCircle
 62
7
  6
CONTINUOUS
 10
752.6617966404
 20
86.9076198191
 40
0.4525004705
100
AcDbArc
 50
180.0
 51
270.0
  0
ARC
  5
47A
100
AcDbEntity
  8
0
100
AcDbCircle
 62
7
  6
CONTINUOUS
 10
768.6921615217
 20
83.2887576844
 40
0.4525004705
100
AcDbArc
 50
180.0
 51
270.0
  0
ARC
  5
47B
100
AcDbEntity
  8
0
100
AcDbCircle
 62
7
  6
CONTINUOUS
 10
779.1191723722
 20
89.5921627727
 40
0.4525004686
100
AcDbArc
 50
0.000000539
 51
89.9999999245
  0
ARC
  5
47C
100
AcDbEntity
  8
0
100
AcDbCircle
 62
7
  6
CONTINUOUS
 10
779.1191723727
 20
81.4721345598
 40
0.452500468
100
AcDbArc
 50
270.1250535673
 51
360.0
  0
ARC
  5
47D
100
AcDbEntity
  8
0
100
AcDbCircle
 62
7
  6
CONTINUOUS
 10
779.1191723722
 20
82.3837567454
 40
0.4525004686
100
AcDbArc
 50
0.0
 51
90.0
  0
ARC
  5
47E
100
AcDbEntity
  8
0
100
AcDbCircle
 62
7
  6
CONTINUOUS
 10
752.6617966386
 20
87.7637961014
 40
0.4525004686
100
AcDbArc
 50
90.0
 51
180.0
  0
ARC
  5
47F
100
AcDbEntity
  8
0
100
AcDbCircle
 62
7
  6
CONTINUOUS
 10
744.2153455228
 20
83.3516865967
 40
0.4525004686
100
AcDbArc
 50
270.0
 51
360.0
  0
ARC
  5
480
100
AcDbEntity
  8
0
100
AcDbCircle
 62
7
  6
CONTINUOUS
 10
744.2153455228
 20
87.863811619
 40
0.4525004686
100
AcDbArc
 50
0.0000004631
 51
90.0000004631
  0
ARC
  5
481
100
AcDbEntity
  8
0
100
AcDbCircle
 62
7
  6
CONTINUOUS
 10
758.7907691961
 20
83.2495582282
 40
0.4525004686
100
AcDbArc
 50
270.0
 51
360.0
  0
ARC
  5
482
100
AcDbEntity
  8
0
100
AcDbCircle
 62
7
  6
CONTINUOUS
 10
740.5458489521
 20
83.770907578
 40
0.1740386426
100
AcDbArc
 50
90.0000000001
 51
180.0
  0
ARC
  5
483
100
AcDbEntity
  8
0
100
AcDbCircle
 62
7
  6
CONTINUOUS
 10
740.5854313108
 20
80.1603018822
 40
0.1740386408
100
AcDbArc
 50
180.0
 51
270.0
  0
ARC
  5
484
100
AcDbEntity
  8
0
100
AcDbCircle
 62
7
  6
CONTINUOUS
 10
743.2953899814
 20
80.1603018822
 40
0.1740386408
100
AcDbArc
 50
270.0
 51
360.0
  0
ARC
  5
485
100
AcDbEntity
  8
0
100
AcDbCircle
 62
7
  6
CONTINUOUS
 10
743.2419970553
 20
83.7709075834
 40
0.1740386371
100
AcDbArc
 50
0.0
 51
89.9999987958
  0
ARC
  5
486
100
AcDbEntity
  8
0
100
AcDbCircle
 62
7
  6
CONTINUOUS
 10
42.2034527395
 20
186.1513851769
 40
330.6126686752
100
AcDbArc
 50
3.5961566215
 51
19.2886813711
  0
ARC
  5
487
100
AcDbEntity
  8
0
100
AcDbCircle
 62
7
  6
CONTINUOUS
 10
596.4078776989
 20
186.1513851769
 40
330.6126686752
100
AcDbArc
 50
160.7113186289
 51
176.4038433785
  0
ARC
  5
488
100
AcDbEntity
  8
0
100
AcDbCircle
 62
7
  6
CONTINUOUS
 10
308.4447162946
 20
306.2981708355
 40
5.0
100
AcDbArc
 50
90.0
 51
175.7108466717
  0
ARC
  5
489
100
AcDbEntity
  8
0
100
AcDbCircle
 62
7
  6
CONTINUOUS
 10
330.1666307346
 20
306.2981708355
 40
5.0
100
AcDbArc
 50
4.2891533288
 51
90.0
  0
ARC
  5
48A
100
AcDbEntity
  8
0
100
AcDbCircle
 62
7
  6
CONTINUOUS
 10
319.3056735146
 20
305.2981708355
 40
4.5
100
AcDbArc
 50
109.6036192197
 51
221.9340350677
  0
ARC
  5
48B
100
AcDbEntity
  8
0
100
AcDbCircle
 62
7
  6
CONTINUOUS
 10
319.3056735146
 20
305.2981708355
 40
4.5
100
AcDbArc
 50
318.0659649323
 51
70.3966136545
  0
CIRCLE
  5
48C
100
AcDbEntity
  8
0
100
AcDbCircle
 62
7
  6
CONTINUOUS
 10
329.8056735146
 20
306.2981708355
 40
3.25
  0
CIRCLE
  5
48D
100
AcDbEntity
  8
0
100
AcDbCircle
 62
7
  6
CONTINUOUS
 10
308.8056735146
 20
306.2981708355
 40
3.25
  0
ARC
  5
48E
100
AcDbEntity
  8
0
100
AcDbCircle
 62
7
  6
CONTINUOUS
 10
369.5902789884
 20
189.5481708355
 40
2.0
100
AcDbArc
 50
270.0
 51
321.3178125465
  0
ARC
  5
48F
100
AcDbEntity
  8
0
100
AcDbCircle
 62
7
  6
CONTINUOUS
 10
269.02105145
 20
189.5481708355
 40
2.0
100
AcDbArc
 50
218.6821874535
 51
270.0
  0
ARC
  5
490
100
AcDbEntity
  8
7_ALL_ROUNDS
100
AcDbCircle
 62
7
  6
CONTINUOUS
 10
266.7259252463
 20
190.2981708355
 40
2.0
100
AcDbArc
 50
182.0
 51
270.0
  0
ARC
  5
491
100
AcDbEntity
  8
7_ALL_ROUNDS
100
AcDbCircle
 62
7
  6
CONTINUOUS
 10
371.8854051921
 20
190.2981708355
 40
2.0
100
AcDbArc
 50
270.0
 51
358.0
  0
ARC
  5
492
100
AcDbEntity
  8
0
100
AcDbCircle
 62
7
  6
CONTINUOUS
 10
322.3949121363
 20
320.2710359581
 40
1.6456112966
100
AcDbArc
 50
166.2993838486
 51
170.2488876793
  0
ARC
  5
493
100
AcDbEntity
  8
0
100
AcDbCircle
 62
7
  6
CONTINUOUS
 10
319.3056652192
 20
305.197150321
 40
1.5
100
AcDbArc
 50
180.0
 51
360.0
  0
ARC
  5
494
100
AcDbEntity
  8
7_ALL_ROUNDS
100
AcDbCircle
 62
7
  6
CONTINUOUS
 10
348.5322135559
 20
301.2981708355
 40
1.0
100
AcDbArc
 50
37.0000000038
 51
90.0
  0
ARC
  5
495
100
AcDbEntity
  8
7_ALL_ROUNDS
100
AcDbCircle
 62
7
  6
CONTINUOUS
 10
290.0791168825
 20
301.2981708355
 40
1.0
100
AcDbArc
 50
90.0
 51
142.9999999962
  0
ARC
  5
496
100
AcDbEntity
  8
0
100
AcDbCircle
 62
7
  6
CONTINUOUS
 10
320.8055570863
 20
308.149649615
 40
0.9397878042
100
AcDbArc
 50
270.0065925059
 51
273.9210235683
  0
ARC
  5
497
100
AcDbEntity
  8
0
100
AcDbCircle
 62
7
  6
CONTINUOUS
 10
317.8057749832
 20
308.1494923211
 40
0.9396305106
100
AcDbArc
 50
266.0648581053
 51
269.9933069292
  0
ARC
  5
498
100
AcDbEntity
  8
7_ALL_ROUNDS
100
AcDbCircle
 62
7
  6
CONTINUOUS
 10
320.2056652192
 20
329.6981708355
 40
0.6
100
AcDbArc
 50
0.0
 51
90.0
  0
ARC
  5
499
100
AcDbEntity
  8
7_ALL_ROUNDS
100
AcDbCircle
 62
7
  6
CONTINUOUS
 10
318.4056652192
 20
329.6981708355
 40
0.6
100
AcDbArc
 50
90.0
 51
180.0
  0
ARC
  5
49A
100
AcDbEntity
  8
0
100
AcDbCircle
 62
7
  6
CONTINUOUS
 10
317.8051163685
 20
450.2969589958
 40
0.7552150381
100
AcDbArc
 50
263.3957844128
 51
270.0416396029
  0
ARC
  5
49B
100
AcDbEntity
  8
0
100
AcDbCircle
 62
9
  6
CONTINUOUS
 10
317.350018576
 20
449.3421566151
 40
0.3579985207
100
AcDbArc
 50
32.4630710018
 51
40.8856581119
  0
ARC
  5
49C
100
AcDbEntity
  8
0
100
AcDbCircle
 62
7
  6
CONTINUOUS
 10
316.8056652192
 20
460.8937037773
 40
3.23
100
AcDbArc
 50
232.1930354436
 51
307.8069645564
  0
CIRCLE
  5
49D
100
AcDbEntity
  8
0
100
AcDbCircle
 62
7
  6
CONTINUOUS
 10
311.8056652192
 20
460.5417437462
 40
1.0
  0
ARC
  5
49E
100
AcDbEntity
  8
7_ALL_ROUNDS
100
AcDbCircle
 62
7
  6
CONTINUOUS
 10
313.7556652192
 20
465.8817437462
 40
0.2
100
AcDbArc
 50
269.9999999999
 51
360.0
  0
ARC
  5
49F
100
AcDbEntity
  8
7_ALL_ROUNDS
100
AcDbCircle
 62
7
  6
CONTINUOUS
 10
314.1556652192
 20
468.1617437462
 40
0.2
100
AcDbArc
 50
90.0
 51
180.0
  0
ARC
  5
4A0
100
AcDbEntity
  8
7_ALL_ROUNDS
100
AcDbCircle
 62
7
  6
CONTINUOUS
 10
309.0056652192
 20
465.4817437462
 40
0.2
100
AcDbArc
 50
90.0
 51
180.0
  0
ARC
  5
4A1
100
AcDbEntity
  8
7_ALL_ROUNDS
100
AcDbCircle
 62
7
  6
CONTINUOUS
 10
309.0056652192
 20
456.5517437462
 40
0.2
100
AcDbArc
 50
180.0
 51
270.0
  0
CIRCLE
  5
4A2
100
AcDbEntity
  8
0
100
AcDbCircle
 62
7
  6
CONTINUOUS
 10
319.3056652192
 20
449.1417437462
 40
55.0000082954
  0
CIRCLE
  5
4A3
100
AcDbEntity
  8
0
100
AcDbCircle
 62
7
  6
CONTINUOUS
 10
319.3056652192
 20
449.1417437462
 40
52.8594594013
  0
CIRCLE
  5
4A4
100
AcDbEntity
  8
0
100
AcDbCircle
 62
7
  6
CONTINUOUS
 10
319.3056652192
 20
449.1417437462
 40
34.9519191744
  0
CIRCLE
  5
4A5
100
AcDbEntity
  8
7_ALL_ROUNDS
100
AcDbCircle
 62
9
  6
CONTINUOUS
 10
319.3056652192
 20
449.1417437462
 40
30.0251838467
  0
CIRCLE
  5
4A6
100
AcDbEntity
  8
7_ALL_ROUNDS
100
AcDbCircle
 62
9
  6
CONTINUOUS
 10
319.3056652192
 20
449.1417437462
 40
29.2265483367
  0
CIRCLE
  5
4A7
100
AcDbEntity
  8
7_ALL_ROUNDS
100
AcDbCircle
 62
9
  6
CONTINUOUS
 10
319.3056652192
 20
449.1417437462
 40
26.8787147682
  0
CIRCLE
  5
4A8
100
AcDbEntity
  8
7_ALL_ROUNDS
100
AcDbCircle
 62
9
  6
CONTINUOUS
 10
319.3056652192
 20
449.1417437462
 40
25.8825200701
  0
CIRCLE
  5
4A9
100
AcDbEntity
  8
7_ALL_ROUNDS
100
AcDbCircle
 62
9
  6
CONTINUOUS
 10
319.3056652192
 20
449.1417437462
 40
25.0798718195
  0
CIRCLE
  5
4AA
100
AcDbEntity
  8
7_ALL_ROUNDS
100
AcDbCircle
 62
9
  6
CONTINUOUS
 10
319.3056652192
 20
449.1417437462
 40
24.0836771214
  0
ARC
  5
4AB
100
AcDbEntity
  8
0
100
AcDbCircle
 62
7
  6
CONTINUOUS
 10
320.8055707161
 20
453.9245831046
 40
1.5338163089
100
AcDbArc
 50
87.4755491986
 51
89.9964698327
  0
CIRCLE
  5
4AC
100
AcDbEntity
  8
7_ALL_ROUNDS
100
AcDbCircle
 62
7
  6
CONTINUOUS
 10
319.3056652192
 20
449.1417437462
 40
1.5
  0
ARC
  5
4AD
100
AcDbEntity
  8
0
100
AcDbCircle
 62
7
  6
CONTINUOUS
 10
319.3056652192
 20
444.1417437462
 40
1.5
100
AcDbArc
 50
180.0
 51
360.0
  0
ARC
  5
4AE
100
AcDbEntity
  8
0
100
AcDbCircle
 62
7
  6
CONTINUOUS
 10
319.3056652192
 20
449.1417437462
 40
1.5
100
AcDbArc
 50
90.0
 51
117.8320840075
  0
ARC
  5
4AF
100
AcDbEntity
  8
0
100
AcDbCircle
 62
7
  6
CONTINUOUS
 10
319.3056652192
 20
449.1417437462
 40
1.5
100
AcDbArc
 50
130.0000149628
 51
144.0927601386
  0
ARC
  5
4B0
100
AcDbEntity
  8
0
100
AcDbCircle
 62
7
  6
CONTINUOUS
 10
319.3056652192
 20
449.1417437462
 40
1.5
100
AcDbArc
 50
150.0000062719
 51
158.8422286017
  0
ARC
  5
4B1
100
AcDbEntity
  8
0
100
AcDbCircle
 62
7
  6
CONTINUOUS
 10
319.3056652192
 20
449.1417437462
 40
1.5
100
AcDbArc
 50
42.4843193119
 51
50.0000024497
  0
ARC
  5
4B2
100
AcDbEntity
  8
0
100
AcDbCircle
 62
7
  6
CONTINUOUS
 10
319.3056652192
 20
449.1417437462
 40
1.5
100
AcDbArc
 50
63.270832631
 51
70.0000012422
  0
CIRCLE
  5
4B3
100
AcDbEntity
  8
7_ALL_ROUNDS
100
AcDbCircle
 62
9
  6
CONTINUOUS
 10
319.3056652192
 20
449.1417437462
 40
0.9
  0
ARC
  5
4B4
100
AcDbEntity
  8
0
100
AcDbCircle
 62
7
  6
CONTINUOUS
 10
320.8062739958
 20
453.9044645219
 40
0.7539351345
100
AcDbArc
 50
83.3981059015
 51
90.0462643711
  0
CIRCLE
  5
4B5
100
AcDbEntity
  8
0
100
AcDbCircle
 62
7
  6
CONTINUOUS
 10
319.3056652192
 20
449.1417437462
 40
0.65
  0
ARC
  5
4B6
100
AcDbEntity
  8
0
100
AcDbCircle
 62
9
  6
CONTINUOUS
 10
321.2613220331
 20
449.3421493633
 40
0.3580109946
100
AcDbArc
 50
139.1059172388
 51
147.5368234745
  0
ARC
  5
4B7
100
AcDbEntity
  8
0
100
AcDbCircle
 62
7
  6
CONTINUOUS
 10
321.7856652192
 20
460.8780599726
 40
3.23
100
AcDbArc
 50
231.7426237006
 51
308.2573762994
  0
CIRCLE
  5
4B8
100
AcDbEntity
  8
0
100
AcDbCircle
 62
7
  6
CONTINUOUS
 10
326.8056652192
 20
460.5417437462
 40
1.0
  0
ARC
  5
4B9
100
AcDbEntity
  8
7_ALL_ROUNDS
100
AcDbCircle
 62
7
  6
CONTINUOUS
 10
324.8556652192
 20
465.8817437462
 40
0.2
100
AcDbArc
 50
179.9999999999
 51
270.0000000001
  0
ARC
  5
4BA
100
AcDbEntity
  8
7_ALL_ROUNDS
100
AcDbCircle
 62
7
  6
CONTINUOUS
 10
329.6056652192
 20
456.5517437462
 40
0.2
100
AcDbArc
 50
270.0
 51
360.0
  0
ARC
  5
4BB
100
AcDbEntity
  8
7_ALL_ROUNDS
100
AcDbCircle
 62
7
  6
CONTINUOUS
 10
329.6056652192
 20
465.4817437462
 40
0.2
100
AcDbArc
 50
0.0
 51
90.0
  0
ARC
  5
4BC
100
AcDbEntity
  8
7_ALL_ROUNDS
100
AcDbCircle
 62
7
  6
CONTINUOUS
 10
324.4556652192
 20
468.1617437462
 40
0.2
100
AcDbArc
 50
0.0
 51
90.0
  0
ARC
  5
4BD
100
AcDbEntity
  8
0
100
AcDbCircle
 62
7
  6
CONTINUOUS
 10
271.2394395068
 20
186.1513851769
 40
330.6126686752
100
AcDbArc
 50
3.5961566215
 51
19.2886813711
  0
ARC
  5
4BE
100
AcDbEntity
  8
7_ALL_ROUNDS
100
AcDbCircle
 62
7
  6
CONTINUOUS
 10
495.7619120135
 20
190.2981708355
 40
2.0
100
AcDbArc
 50
182.0
 51
270.0
  0
ARC
  5
4BF
100
AcDbEntity
  8
0
100
AcDbCircle
 62
7
  6
CONTINUOUS
 10
498.0570382173
 20
189.5481708355
 40
2.0
100
AcDbArc
 50
218.6821874535
 51
270.0
  0
ARC
  5
4C0
100
AcDbEntity
  8
0
100
AcDbCircle
 62
7
  6
CONTINUOUS
 10
545.3416519865
 20
317.6133488081
 40
4.5
100
AcDbArc
 50
292.024312837
 51
345.5324735906
  0
ARC
  5
4C1
100
AcDbEntity
  8
0
100
AcDbCircle
 62
7
  6
CONTINUOUS
 10
545.3416519865
 20
317.6133488081
 40
1.5
100
AcDbArc
 50
292.024312837
 51
360.0
  0
ARC
  5
4C2
100
AcDbEntity
  8
7_ALL_ROUNDS
100
AcDbCircle
 62
7
  6
CONTINUOUS
 10
519.1151036498
 20
301.2981708355
 40
1.0
100
AcDbArc
 50
90.0
 51
143.0
  0
ARC
  5
4C3
100
AcDbEntity
  8
7_ALL_ROUNDS
100
AcDbCircle
 62
7
  6
CONTINUOUS
 10
547.4416519865
 20
329.6981708355
 40
0.6
100
AcDbArc
 50
90.0
 51
180.0
  0
ARC
  5
4C4
100
AcDbEntity
  8
0
100
AcDbCircle
 62
7
  6
CONTINUOUS
 10
825.4438644662
 20
186.1513851769
 40
330.6126686752
100
AcDbArc
 50
160.7113186289
 51
176.4038433785
  0
ARC
  5
4C5
100
AcDbEntity
  8
7_ALL_ROUNDS
100
AcDbCircle
 62
7
  6
CONTINUOUS
 10
600.9213919594
 20
190.2981708355
 40
2.0
100
AcDbArc
 50
270.0
 51
358.0
  0
ARC
  5
4C6
100
AcDbEntity
  8
0
100
AcDbCircle
 62
7
  6
CONTINUOUS
 10
598.6262657557
 20
189.5481708355
 40
2.0
100
AcDbArc
 50
270.0
 51
321.3178125465
  0
ARC
  5
4C7
100
AcDbEntity
  8
7_ALL_ROUNDS
100
AcDbCircle
 62
7
  6
CONTINUOUS
 10
548.3416519865
 20
310.197150321
 40
6.5
100
AcDbArc
 50
112.024312837
 51
261.1032833922
  0
ARC
  5
4C8
100
AcDbEntity
  8
7_ALL_ROUNDS
100
AcDbCircle
 62
7
  6
CONTINUOUS
 10
548.3416519865
 20
310.197150321
 40
6.5
100
AcDbArc
 50
278.9190528554
 51
329.1632203913
  0
ARC
  5
4C9
100
AcDbEntity
  8
7_ALL_ROUNDS
100
AcDbCircle
 62
7
  6
CONTINUOUS
 10
548.3416519865
 20
310.197150321
 40
3.5
100
AcDbArc
 50
112.024312837
 51
253.2155961639
  0
ARC
  5
4CA
100
AcDbEntity
  8
7_ALL_ROUNDS
100
AcDbCircle
 62
7
  6
CONTINUOUS
 10
548.3416519865
 20
310.197150321
 40
3.5
100
AcDbArc
 50
286.7650760753
 51
326.5850319372
  0
ARC
  5
4CB
100
AcDbEntity
  8
0
100
AcDbCircle
 62
7
  6
CONTINUOUS
 10
553.4075750445
 20
307.1728448521
 40
0.6
100
AcDbArc
 50
46.3693768216
 51
64.9999999999
  0
ARC
  5
4CC
100
AcDbEntity
  8
0
100
AcDbCircle
 62
7
  6
CONTINUOUS
 10
553.4075750445
 20
307.1728448521
 40
0.6
100
AcDbArc
 50
329.1632203361
 51
13.4230343487
  0
ARC
  5
4CD
100
AcDbEntity
  8
7_ALL_ROUNDS
100
AcDbCircle
 62
7
  6
CONTINUOUS
 10
551.7639384927
 20
307.9392851634
 40
0.6
100
AcDbArc
 50
65.0000000087
 51
146.5850318284
  0
CIRCLE
  5
4CE
100
AcDbEntity
  8
0
100
AcDbCircle
 62
7
  6
CONTINUOUS
 10
554.2583076508
 20
307.609861817
 40
0.4
  0
ARC
  5
4CF
100
AcDbEntity
  8
7_ALL_ROUNDS
100
AcDbCircle
 62
7
  6
CONTINUOUS
 10
549.2416519865
 20
329.6981708355
 40
0.6
100
AcDbArc
 50
0.0
 51
90.0
  0
ARC
  5
4D0
100
AcDbEntity
  8
0
100
AcDbCircle
 62
7
  6
CONTINUOUS
 10
548.3416519865
 20
320.2981708355
 40
0.4
100
AcDbArc
 50
115.0
 51
269.9999206802
  0
ARC
  5
4D1
100
AcDbEntity
  8
0
100
AcDbCircle
 62
7
  6
CONTINUOUS
 10
548.3416519865
 20
320.2981708355
 40
0.4
100
AcDbArc
 50
295.0
 51
89.9999206867
  0
ARC
  5
4D2
100
AcDbEntity
  8
7_ALL_ROUNDS
100
AcDbCircle
 62
7
  6
CONTINUOUS
 10
577.5682003232
 20
301.2981708355
 40
1.0
100
AcDbArc
 50
37.0
 51
90.0
  0
ARC
  5
4D3
100
AcDbEntity
  8
0
100
AcDbCircle
 62
7
  6
CONTINUOUS
 10
582.5181176918
 20
379.9441093668
 40
237.3759671303
100
AcDbArc
 50
4.4064609802
 51
5.7204310138
  0
ARC
  5
4D4
100
AcDbEntity
  8
0
100
AcDbCircle
 62
7
  6
CONTINUOUS
 10
950.2501125784
 20
379.9442764889
 40
237.3737365896
100
AcDbArc
 50
174.2795226302
 51
175.5935379901
  0
ARC
  5
4D5
100
AcDbEntity
  8
7_ALL_ROUNDS
100
AcDbCircle
 62
9
  6
CONTINUOUS
 10
778.0931524318
 20
407.5514995539
 40
53.8126489202
100
AcDbArc
 50
297.8314319785
 51
299.1963470911
  0
ARC
  5
4D6
100
AcDbEntity
  8
7_ALL_ROUNDS
100
AcDbCircle
 62
9
  6
CONTINUOUS
 10
778.993796929
 20
405.9337803538
 40
51.9611178904
100
AcDbArc
 50
299.1995552188
 51
300.0047291499
  0
ARC
  5
4D7
100
AcDbEntity
  8
7_ALL_ROUNDS
100
AcDbCircle
 62
7
  6
CONTINUOUS
 10
779.1707041314
 20
404.0536420977
 40
50.7815307632
100
AcDbArc
 50
300.0044881186
 51
300.9498290698
  0
ARC
  5
4D8
100
AcDbEntity
  8
7_ALL_ROUNDS
100
AcDbCircle
 62
9
  6
CONTINUOUS
 10
766.3935960668
 20
444.3592152109
 40
44.5589038242
100
AcDbArc
 50
87.5417556063
 51
87.9213335602
  0
ARC
  5
4D9
100
AcDbEntity
  8
7_ALL_ROUNDS
100
AcDbCircle
 62
9
  6
CONTINUOUS
 10
766.3988830695
 20
444.4816668828
 40
44.4363380727
100
AcDbArc
 50
87.1077896047
 51
87.541794322
  0
ARC
  5
4DA
100
AcDbEntity
  8
7_ALL_ROUNDS
100
AcDbCircle
 62
9
  6
CONTINUOUS
 10
766.4870178639
 20
438.9701968581
 40
41.9906300808
100
AcDbArc
 50
83.5305803612
 51
84.019574319
  0
ARC
  5
4DB
100
AcDbEntity
  8
7_ALL_ROUNDS
100
AcDbCircle
 62
9
  6
CONTINUOUS
 10
766.3844396164
 20
438.000666871
 40
41.6437046717
100
AcDbArc
 50
89.5213008672
 51
92.7490527542
  0
ARC
  5
4DC
100
AcDbEntity
  8
7_ALL_ROUNDS
100
AcDbCircle
 62
9
  6
CONTINUOUS
 10
768.0243687323
 20
499.2162497679
 40
41.2134914325
100
AcDbArc
 50
285.5171360576
 51
285.788995227
  0
ARC
  5
4DD
100
AcDbEntity
  8
7_ALL_ROUNDS
100
AcDbCircle
 62
9
  6
CONTINUOUS
 10
766.1058855133
 20
440.3335903246
 40
40.61565557
100
AcDbArc
 50
97.8770869581
 51
99.245703349
  0
ARC
  5
4DE
100
AcDbEntity
  8
7_ALL_ROUNDS
100
AcDbCircle
 62
9
  6
CONTINUOUS
 10
766.0197949106
 20
440.8720560938
 40
40.0703533005
100
AcDbArc
 50
99.2479087446
 51
99.7379148604
  0
ARC
  5
4DF
100
AcDbEntity
  8
7_ALL_ROUNDS
100
AcDbCircle
 62
7
  6
CONTINUOUS
 10
759.6249568529
 20
461.7533189417
 40
28.8081388532
100
AcDbArc
 50
119.1838635641
 51
120.0047054459
  0
ARC
  5
4E0
100
AcDbEntity
  8
7_ALL_ROUNDS
100
AcDbCircle
 62
9
  6
CONTINUOUS
 10
759.27888622
 20
463.1692257091
 40
27.1159064907
100
AcDbArc
 50
120.0048706537
 51
120.8493417878
  0
ARC
  5
4E1
100
AcDbEntity
  8
7_ALL_ROUNDS
100
AcDbCircle
 62
9
  6
CONTINUOUS
 10
772.5825866201
 20
485.921973902
 40
25.6143080029
100
AcDbArc
 50
299.0825863865
 51
300.0041537518
  0
ARC
  5
4E2
100
AcDbEntity
  8
7_ALL_ROUNDS
100
AcDbCircle
 62
7
  6
CONTINUOUS
 10
772.9434544696
 20
484.4804317846
 40
23.8924761672
100
AcDbArc
 50
300.004314298
 51
300.9651904647
  0
ARC
  5
4E3
100
AcDbEntity
  8
7_ALL_ROUNDS
100
AcDbCircle
 62
9
  6
CONTINUOUS
 10
730.2285267865
 20
383.2350669088
 40
18.4220664325
100
AcDbArc
 50
182.4576832886
 51
191.343071029
  0
ARC
  5
4E4
100
AcDbEntity
  8
7_ALL_ROUNDS
100
AcDbCircle
 62
9
  6
CONTINUOUS
 10
768.6920663401
 20
478.5956587011
 40
3.0846278511
100
AcDbArc
 50
66.869809019
 51
72.4412092497
  0
ARC
  5
4E5
100
AcDbEntity
  8
7_ALL_ROUNDS
100
AcDbCircle
 62
9
  6
CONTINUOUS
 10
770.4068213116
 20
483.8354827692
 40
2.9336593108
100
AcDbArc
 50
254.4325650634
 51
258.0051468245
  0
ARC
  5
4E6
100
AcDbEntity
  8
0
100
AcDbCircle
 62
7
  6
CONTINUOUS
 10
770.4418780067
 20
483.5761600619
 40
2.1643741282
100
AcDbArc
 50
229.2443214842
 51
230.0863054711
  0
ARC
  5
4E7
100
AcDbEntity
  8
0
100
AcDbCircle
 62
7
  6
CONTINUOUS
 10
770.4302770312
 20
483.5622020528
 40
2.1462246026
100
AcDbArc
 50
230.0847615362
 51
231.359858495
  0
ARC
  5
4E8
100
AcDbEntity
  8
7_ALL_ROUNDS
100
AcDbCircle
 62
7
  6
CONTINUOUS
 10
766.4953239581
 20
496.5074819044
 40
1.6826181753
100
AcDbArc
 50
64.8276972261
 51
70.8996380096
  0
ARC
  5
4E9
100
AcDbEntity
  8
7_ALL_ROUNDS
100
AcDbCircle
 62
7
  6
CONTINUOUS
 10
766.5722899142
 20
496.6726035449
 40
1.5004409486
100
AcDbArc
 50
60.0365043436
 51
64.8056856919
  0
ARC
  5
4EA
100
AcDbEntity
  8
0
100
AcDbCircle
 62
7
  6
CONTINUOUS
 10
766.9465591635
 20
487.9352498639
 40
1.3975242947
100
AcDbArc
 50
58.5772165845
 51
59.9756928806
  0
ARC
  5
4EB
100
AcDbEntity
  8
0
100
AcDbCircle
 62
7
  6
CONTINUOUS
 10
770.005163824
 20
482.9411684987
 40
1.3930578202
100
AcDbArc
 50
238.5679644017
 51
239.9810132461
  0
ARC
  5
4EC
100
AcDbEntity
  8
0
100
AcDbCircle
 62
7
  6
CONTINUOUS
 10
770.4514630936
 20
483.5845537529
 40
1.3769502726
100
AcDbArc
 50
225.4704850096
 51
230.2863111704
  0
ARC
  5
4ED
100
AcDbEntity
  8
0
100
AcDbCircle
 62
7
  6
CONTINUOUS
 10
769.4578783163
 20
482.8084919362
 40
0.9119412956
100
AcDbArc
 50
207.8277989463
 51
210.8889484529
  0
ARC
  5
4EE
100
AcDbEntity
  8
0
100
AcDbCircle
 62
7
  6
CONTINUOUS
 10
767.4963237355
 20
488.0716881364
 40
0.9119002619
100
AcDbArc
 50
27.8283205967
 51
30.9024943638
  0
ARC
  5
4EF
100
AcDbEntity
  8
0
100
AcDbCircle
 62
7
  6
CONTINUOUS
 10
765.1243686463
 20
490.0528913093
 40
0.4310145901
100
AcDbArc
 50
124.6096609725
 51
138.1611090076
  0
ARC
  5
4F0
100
AcDbEntity
  8
0
100
AcDbCircle
 62
9
  6
CONTINUOUS
 10
771.9810701111
 20
481.0129030889
 40
0.2336639377
100
AcDbArc
 50
20.1478635965
 51
27.8841160067
  0
CIRCLE
  5
4F1
100
AcDbEntity
  8
0
100
AcDbCircle
 62
7
  6
CONTINUOUS
 10
319.3056652192
 20
98.5959725859
 40
55.0000082954
  0
CIRCLE
  5
4F2
100
AcDbEntity
  8
7_ALL_ROUNDS
100
AcDbCircle
 62
9
  6
CONTINUOUS
 10
319.3056652192
 20
98.5959725859
 40
54.578521627
  0
CIRCLE
  5
4F3
100
AcDbEntity
  8
7_ALL_ROUNDS
100
AcDbCircle
 62
9
  6
CONTINUOUS
 10
319.3056652192
 20
98.5959725859
 40
52.5797399729
  0
CIRCLE
  5
4F4
100
AcDbEntity
  8
0
100
AcDbCircle
 62
7
  6
CONTINUOUS
 10
319.3056652192
 20
98.5959725859
 40
51.8458632688
  0
CIRCLE
  5
4F5
100
AcDbEntity
  8
0
100
AcDbCircle
 62
9
  6
CONTINUOUS
 10
319.3056652192
 20
98.5959725859
 40
50.2846137692
  0
SPLINE
  5
4F6
100
AcDbEntity
  8
0
100
AcDbSpline
 62
7
  6
CONTINUOUS
 70
0
 71
3
 72
13
 73
9
 74
0
 42
0.0000001
 43
0.0000001
 44
0.0000000001
 40
0.0
 40
0.0
 40
0.0
 40
0.0
 40
0.1317357684
 40
0.2713541552
 40
0.4178991716
 40
0.5930152361
 40
0.7698067128
 40
1.0
 40
1.0
 40
1.0
 40
1.0
 10
766.9542386542
 20
90.0446632414
 30
0.0
 10
766.6985206738
 20
90.0256171964
 30
0.0
 10
766.1717834397
 20
89.9863854606
 30
0.0
 10
765.4579495852
 20
89.5440533193
 30
0.0
 10
764.9455020639
 20
88.8014573165
 30
0.0
 10
764.6122822096
 20
87.8934258711
 30
0.0
 10
764.42459244
 20
86.7834339628
 30
0.0
 10
764.4073112895
 20
85.9990941881
 30
0.0
 10
764.3983548695
 20
85.5554081313
 30
0.0
  0
SPLINE
  5
4F7
100
AcDbEntity
  8
0
100
AcDbSpline
 62
7
  6
CONTINUOUS
 70
0
 71
3
 72
13
 73
9
 74
0
 42
0.0000001
 43
0.0000001
 44
0.0000000001
 40
0.0
 40
0.0
 40
0.0
 40
0.0
 40
0.2249509061
 40
0.4029463322
 40
0.5792549365
 40
0.726797924
 40
0.8673671114
 40
1.0
 40
1.0
 40
1.0
 40
1.0
 10
764.3991490551
 20
85.4865564118
 30
0.0
 10
764.4079289594
 20
85.0559131957
 30
0.0
 10
764.426769513
 20
84.2847521306
 30
0.0
 10
764.612282056
 20
83.1876270372
 30
0.0
 10
764.9455059008
 20
82.2796971488
 30
0.0
 10
765.4579374384
 20
81.5367859925
 30
0.0
 10
766.1718257727
 20
81.0955112085
 30
0.0
 10
766.6984345885
 20
81.0537897261
 30
0.0
 10
766.9542386542
 20
81.0347372767
 30
0.0
  0
SPLINE
  5
4F8
100
AcDbEntity
  8
0
100
AcDbSpline
 62
7
  6
CONTINUOUS
 70
0
 71
3
 72
13
 73
9
 74
0
 42
0.0000001
 43
0.0000001
 44
0.0000000001
 40
0.0
 40
0.0
 40
0.0
 40
0.0
 40
0.1604571392
 40
0.3334692485
 40
0.4767982758
 40
0.6242014838
 40
0.7505998515
 40
1.0
 40
1.0
 40
1.0
 40
1.0
 10
761.2368468801
 20
81.0347327083
 30
0.0
 10
761.4488950404
 20
81.0449424489
 30
0.0
 10
761.8895830612
 20
81.066160779
 30
0.0
 10
762.4821836203
 20
81.3234407667
 30
0.0
 10
762.9287276672
 20
81.7559069527
 30
0.0
 10
763.1803728003
 20
82.2517127268
 30
0.0
 10
763.3733053701
 20
82.9168412518
 30
0.0
 10
763.3811345799
 20
83.4145918852
 30
0.0
 10
763.3863304641
 20
83.7449260285
 30
0.0
  0
SPLINE
  5
4F9
100
AcDbEntity
  8
0
100
AcDbSpline
 62
7
  6
CONTINUOUS
 70
0
 71
3
 72
13
 73
9
 74
0
 42
0.0000001
 43
0.0000001
 44
0.0000000001
 40
0.0
 40
0.0
 40
0.0
 40
0.0
 40
0.2494001485
 40
0.3757985162
 40
0.5232017242
 40
0.6665307515
 40
0.8395428608
 40
1.0
 40
1.0
 40
1.0
 40
1.0
 10
763.3863304641
 20
83.7449260285
 30
0.0
 10
763.3811345799
 20
84.0752601755
 30
0.0
 10
763.3733053701
 20
84.5730108053
 30
0.0
 10
763.1803728003
 20
85.2381393375
 30
0.0
 10
762.9287276672
 20
85.7339451117
 30
0.0
 10
762.4821836203
 20
86.1664112903
 30
0.0
 10
761.8895830612
 20
86.423691278
 30
0.0
 10
761.4488950404
 20
86.4449096155
 30
0.0
 10
761.2368468801
 20
86.4551193487
 30
0.0
  0
SPLINE
  5
4FA
100
AcDbEntity
  8
0
100
AcDbSpline
 62
7
  6
CONTINUOUS
 70
0
 71
3
 72
13
 73
9
 74
0
 42
0.0000001
 43
0.0000001
 44
0.0000000001
 40
0.0
 40
0.0
 40
0.0
 40
0.0
 40
0.1133740464
 40
0.2392044088
 40
0.3655787964
 40
0.4912154373
 40
0.7445390876
 40
1.0
 40
1.0
 40
1.0
 40
1.0
 10
750.099875089
 20
90.0446632395
 30
0.0
 10
749.9547186207
 20
90.0375136044
 30
0.0
 10
749.6484574619
 20
90.0224288062
 30
0.0
 10
749.1935368051
 20
89.8865121049
 30
0.0
 10
748.7865659419
 20
89.61205395
 30
0.0
 10
748.3708415788
 20
89.1064915644
 30
0.0
 10
748.1092414387
 20
88.3128258827
 30
0.0
 10
748.080870862
 20
87.662080215
 30
0.0
 10
748.066625995
 20
87.3353405781
 30
0.0
  0
SPLINE
  5
4FB
100
AcDbEntity
  8
0
100
AcDbSpline
 62
7
  6
CONTINUOUS
 70
0
 71
3
 72
13
 73
9
 74
0
 42
0.0000001
 43
0.0000001
 44
0.0000000001
 40
0.0
 40
0.0
 40
0.0
 40
0.0
 40
0.2554609124
 40
0.5087845627
 40
0.6344212036
 40
0.7607955912
 40
0.8866259536
 40
1.0
 40
1.0
 40
1.0
 40
1.0
 10
748.066625995
 20
87.3353405781
 30
0.0
 10
748.080870862
 20
87.0086009376
 30
0.0
 10
748.1092414387
 20
86.3578552662
 30
0.0
 10
748.3708415788
 20
85.5641895881
 30
0.0
 10
748.7865659419
 20
85.0586272026
 30
0.0
 10
749.1935368051
 20
84.7841690514
 30
0.0
 10
749.6484574619
 20
84.6482523464
 30
0.0
 10
749.9547186207
 20
84.6331675481
 30
0.0
 10
750.099875089
 20
84.6260179167
 30
0.0
  0
SPLINE
  5
4FC
100
AcDbEntity
  8
0
100
AcDbSpline
 62
7
  6
CONTINUOUS
 70
0
 71
3
 72
12
 73
8
 74
0
 42
0.0000001
 43
0.0000001
 44
0.0000000001
 40
0.0
 40
0.0
 40
0.0
 40
0.0
 40
0.2415790084
 40
0.4893269843
 40
0.7378634303
 40
0.8656387112
 40
1.0
 40
1.0
 40
1.0
 40
1.0
 10
744.8519692499
 20
81.034732712
 30
0.0
 10
745.0998724022
 20
81.0424397397
 30
0.0
 10
745.602009182
 20
81.0580506106
 30
0.0
 10
746.3368339589
 20
81.3201086675
 30
0.0
 10
746.7831075117
 20
81.8148049307
 30
0.0
 10
746.9797208268
 20
82.3090980092
 30
0.0
 10
746.9832640865
 20
82.5798707115
 30
0.0
 10
746.9850802276
 20
82.718658552
 30
0.0
  0
SPLINE
  5
4FD
100
AcDbEntity
  8
0
100
AcDbSpline
 62
7
  6
CONTINUOUS
 70
0
 71
3
 72
12
 73
8
 74
0
 42
0.0000001
 43
0.0000001
 44
0.0000000001
 40
0.0
 40
0.0
 40
0.0
 40
0.0
 40
0.1343612888
 40
0.2621365697
 40
0.5106730157
 40
0.7584209916
 40
1.0
 40
1.0
 40
1.0
 40
1.0
 10
746.9850802276
 20
88.3501698269
 30
0.0
 10
746.9832640865
 20
88.4889576747
 30
0.0
 10
746.9797208268
 20
88.7597303769
 30
0.0
 10
746.7831075117
 20
89.2540234555
 30
0.0
 10
746.3368339589
 20
89.7487197186
 30
0.0
 10
745.602009182
 20
90.0107777719
 30
0.0
 10
745.0998724022
 20
90.0263886391
 30
0.0
 10
744.8519692499
 20
90.0340956705
 30
0.0
  0
SPLINE
  5
4FE
100
AcDbEntity
  8
0
100
AcDbSpline
 62
7
  6
CONTINUOUS
 70
0
 71
3
 72
12
 73
8
 74
0
 42
0.0000001
 43
0.0000001
 44
0.0000000001
 40
0.0
 40
0.0
 40
0.0
 40
0.0
 40
0.1341799809
 40
0.290831959
 40
0.5815217441
 40
0.760783857
 40
1.0
 40
1.0
 40
1.0
 40
1.0
 10
733.3804797435
 20
90.0340956705
 30
0.0
 10
733.1302661914
 20
89.9913317977
 30
0.0
 10
732.5879341944
 20
89.8986421055
 30
0.0
 10
731.675005314
 20
89.2165950591
 30
0.0
 10
731.2425958685
 20
88.0691193967
 30
0.0
 10
730.9895969662
 20
86.7683499801
 30
0.0
 10
730.9706051306
 20
85.9815853447
 30
0.0
 10
730.9597487593
 20
85.5318444127
 30
0.0
  0
SPLINE
  5
4FF
100
AcDbEntity
  8
0
100
AcDbSpline
 62
7
  6
CONTINUOUS
 70
0
 71
3
 72
12
 73
8
 74
0
 42
0.0000001
 43
0.0000001
 44
0.0000000001
 40
0.0
 40
0.0
 40
0.0
 40
0.0
 40
0.2392679579
 40
0.4185688994
 40
0.7093216488
 40
0.8660075581
 40
1.0
 40
1.0
 40
1.0
 40
1.0
 10
730.9597487593
 20
85.5318444127
 30
0.0
 10
730.9706094685
 20
85.082121008
 30
0.0
 10
730.9896088826
 20
84.2953870378
 30
0.0
 10
731.2425531916
 20
82.9943968851
 30
0.0
 10
731.6752268329
 20
81.8479895052
 30
0.0
 10
732.5872052237
 20
81.1637277162
 30
0.0
 10
733.1301851792
 20
81.0754333107
 30
0.0
 10
733.3804797435
 20
81.034732712
 30
0.0
  0
SPLINE
  5
500
100
AcDbEntity
  8
0
100
AcDbSpline
 62
7
  6
CONTINUOUS
 70
0
 71
3
 72
9
 73
5
 74
0
 42
0.0000001
 43
0.0000001
 44
0.0000000001
 40
0.0
 40
0.0
 40
0.0
 40
0.0
 40
0.1744100617
 40
1.0
 40
1.0
 40
1.0
 40
1.0
 10
317.7056652192
 20
319.8450169419
 30
0.0
 10
317.7056652192
 20
319.8518605797
 30
0.0
 10
317.7306026477
 20
319.8869097283
 30
0.0
 10
317.7732724937
 20
319.8978168238
 30
0.0
 10
317.8056664419
 20
319.8980947897
 30
0.0
  0
SPLINE
  5
501
100
AcDbEntity
  8
0
100
AcDbSpline
 62
7
  6
CONTINUOUS
 70
0
 71
3
 72
8
 73
4
 74
0
 42
0.0000001
 43
0.0000001
 44
0.0000000001
 40
0.0
 40
0.0
 40
0.0
 40
0.0
 40
1.0
 40
1.0
 40
1.0
 40
1.0
 10
316.9056652192
 20
319.8450169419
 30
0.0
 10
316.9056652192
 20
319.9553585387
 30
0.0
 10
316.9292365116
 20
320.0678275729
 30
0.0
 10
316.972992673
 20
320.16912252
 30
0.0
  0
SPLINE
  5
502
100
AcDbEntity
  8
0
100
AcDbSpline
 62
7
  6
CONTINUOUS
 70
0
 71
3
 72
9
 73
5
 74
0
 42
0.0000001
 43
0.0000001
 44
0.0000000001
 40
0.0
 40
0.0
 40
0.0
 40
0.0
 40
0.4973014502
 40
1.0
 40
1.0
 40
1.0
 40
1.0
 10
316.972992673
 20
320.16912252
 30
0.0
 10
317.0183656341
 20
320.2741603373
 30
0.0
 10
317.1554935664
 20
320.4679402661
 30
0.0
 10
317.3564137871
 20
320.5927716417
 30
0.0
 10
317.4642678955
 20
320.6345429634
 30
0.0
  0
SPLINE
  5
503
100
AcDbEntity
  8
0
100
AcDbSpline
 62
7
  6
CONTINUOUS
 70
0
 71
3
 72
8
 73
4
 74
0
 42
0.0000001
 43
0.0000001
 44
0.0000000001
 40
0.0
 40
0.0
 40
0.0
 40
0.0
 40
1.0
 40
1.0
 40
1.0
 40
1.0
 10
317.4642678955
 20
320.6345429634
 30
0.0
 10
317.5722134943
 20
320.6763497188
 30
0.0
 10
317.6899066055
 20
320.6981456789
 30
0.0
 10
317.8056652186
 20
320.6981698573
 30
0.0
  0
SPLINE
  5
504
100
AcDbEntity
  8
0
100
AcDbSpline
 62
7
  6
CONTINUOUS
 70
0
 71
3
 72
8
 73
4
 74
0
 42
0.0000001
 43
0.0000001
 44
0.0000000001
 40
0.0
 40
0.0
 40
0.0
 40
0.0
 40
1.0
 40
1.0
 40
1.0
 40
1.0
 10
317.7412907729
 20
307.2120771073
 30
0.0
 10
317.6442772113
 20
307.2187411885
 30
0.0
 10
317.5471236428
 20
307.2405358817
 30
0.0
 10
317.4567534232
 20
307.2764422116
 30
0.0
  0
SPLINE
  5
505
100
AcDbEntity
  8
0
100
AcDbSpline
 62
7
  6
CONTINUOUS
 70
0
 71
3
 72
9
 73
5
 74
0
 42
0.0000001
 43
0.0000001
 44
0.0000000001
 40
0.0
 40
0.0
 40
0.0
 40
0.0
 40
0.5026706722
 40
1.0
 40
1.0
 40
1.0
 40
1.0
 10
317.4567534232
 20
307.2764422116
 30
0.0
 10
317.3503218508
 20
307.3187301154
 30
0.0
 10
317.1523447313
 20
307.4436937063
 30
0.0
 10
317.0172930464
 20
307.6359350869
 30
0.0
 10
316.9725140064
 20
307.7400193154
 30
0.0
  0
SPLINE
  5
506
100
AcDbEntity
  8
0
100
AcDbSpline
 62
7
  6
CONTINUOUS
 70
0
 71
3
 72
8
 73
4
 74
0
 42
0.0000001
 43
0.0000001
 44
0.0000000001
 40
0.0
 40
0.0
 40
0.0
 40
0.0
 40
1.0
 40
1.0
 40
1.0
 40
1.0
 10
316.9725140064
 20
307.7400193154
 30
0.0
 10
316.9290631328
 20
307.8410163593
 30
0.0
 10
316.9056652192
 20
307.9530685355
 30
0.0
 10
316.9056652192
 20
308.0630157105
 30
0.0
  0
SPLINE
  5
507
100
AcDbEntity
  8
0
100
AcDbSpline
 62
7
  6
CONTINUOUS
 70
0
 71
3
 72
9
 73
5
 74
0
 42
0.0000001
 43
0.0000001
 44
0.0000000001
 40
0.0
 40
0.0
 40
0.0
 40
0.0
 40
0.4100834764
 40
1.0
 40
1.0
 40
1.0
 40
1.0
 10
317.8056652192
 20
308.009861817
 30
0.0
 10
317.7903693038
 20
308.009861817
 30
0.0
 10
317.7542379476
 20
308.0155377526
 30
0.0
 10
317.7157350525
 20
308.0360037304
 30
0.0
 10
317.7073230927
 20
308.0563359067
 30
0.0
  0
SPLINE
  5
508
100
AcDbEntity
  8
0
100
AcDbSpline
 62
7
  6
CONTINUOUS
 70
0
 71
3
 72
8
 73
4
 74
0
 42
0.0000001
 43
0.0000001
 44
0.0000000001
 40
0.0
 40
0.0
 40
0.0
 40
0.0
 40
1.0
 40
1.0
 40
1.0
 40
1.0
 10
321.7056652192
 20
308.0630157105
 30
0.0
 10
321.7056652192
 20
307.9533728779
 30
0.0
 10
321.6824044401
 20
307.8416406085
 30
0.0
 10
321.6391846251
 20
307.7408755435
 30
0.0
  0
SPLINE
  5
509
100
AcDbEntity
  8
0
100
AcDbSpline
 62
7
  6
CONTINUOUS
 70
0
 71
3
 72
9
 73
5
 74
0
 42
0.0000001
 43
0.0000001
 44
0.0000000001
 40
0.0
 40
0.0
 40
0.0
 40
0.0
 40
0.4973233418
 40
1.0
 40
1.0
 40
1.0
 40
1.0
 10
321.6391846251
 20
307.7408755435
 30
0.0
 10
321.5943798803
 20
307.6364152857
 30
0.0
 10
321.4589672434
 20
307.4434659294
 30
0.0
 10
321.2602278185
 20
307.3182535608
 30
0.0
 10
321.1534025752
 20
307.2759757808
 30
0.0
  0
SPLINE
  5
50A
100
AcDbEntity
  8
0
100
AcDbSpline
 62
7
  6
CONTINUOUS
 70
0
 71
3
 72
8
 73
4
 74
0
 42
0.0000001
 43
0.0000001
 44
0.0000000001
 40
0.0
 40
0.0
 40
0.0
 40
0.0
 40
1.0
 40
1.0
 40
1.0
 40
1.0
 10
321.1534025752
 20
307.2759757808
 30
0.0
 10
321.063303829
 20
307.2403177766
 30
0.0
 10
320.9664931599
 20
307.2186784563
 30
0.0
 10
320.8698210609
 20
307.2120616145
 30
0.0
  0
SPLINE
  5
50B
100
AcDbEntity
  8
0
100
AcDbSpline
 62
7
  6
CONTINUOUS
 70
0
 71
3
 72
9
 73
5
 74
0
 42
0.0000001
 43
0.0000001
 44
0.0000000001
 40
0.0
 40
0.0
 40
0.0
 40
0.0
 40
0.1748449952
 40
1.0
 40
1.0
 40
1.0
 40
1.0
 10
320.9056652192
 20
308.0630157105
 30
0.0
 10
320.9056652192
 20
308.0561561721
 30
0.0
 10
320.8804706283
 20
308.0212797309
 30
0.0
 10
320.8380377923
 20
308.009861817
 30
0.0
 10
320.8056652192
 20
308.009861817
 30
0.0
  0
SPLINE
  5
50C
100
AcDbEntity
  8
0
100
AcDbSpline
 62
7
  6
CONTINUOUS
 70
0
 71
3
 72
9
 73
5
 74
0
 42
0.0000001
 43
0.0000001
 44
0.0000000001
 40
0.0
 40
0.0
 40
0.0
 40
0.0
 40
0.8255542398
 40
1.0
 40
1.0
 40
1.0
 40
1.0
 10
320.8056638682
 20
319.8980946138
 30
0.0
 10
320.8380561568
 20
319.8978153211
 30
0.0
 10
320.8807193509
 20
319.8869069302
 30
0.0
 10
320.9056652192
 20
319.8518619282
 30
0.0
 10
320.9056652192
 20
319.8450169419
 30
0.0
  0
SPLINE
  5
50D
100
AcDbEntity
  8
0
100
AcDbSpline
 62
7
  6
CONTINUOUS
 70
0
 71
3
 72
8
 73
4
 74
0
 42
0.0000001
 43
0.0000001
 44
0.0000000001
 40
0.0
 40
0.0
 40
0.0
 40
0.0
 40
1.0
 40
1.0
 40
1.0
 40
1.0
 10
320.8056652199
 20
320.6981698443
 30
0.0
 10
320.921853752
 20
320.6981452498
 30
0.0
 10
321.0399980631
 20
320.6761808894
 30
0.0
 10
321.1482858045
 20
320.6340674635
 30
0.0
  0
SPLINE
  5
50E
100
AcDbEntity
  8
0
100
AcDbSpline
 62
7
  6
CONTINUOUS
 70
0
 71
3
 72
9
 73
5
 74
0
 42
0.0000001
 43
0.0000001
 44
0.0000000001
 40
0.0
 40
0.0
 40
0.0
 40
0.0
 40
0.5026927472
 40
1.0
 40
1.0
 40
1.0
 40
1.0
 10
321.1482858045
 20
320.6340674635
 30
0.0
 10
321.2557378765
 20
320.5922790319
 30
0.0
 10
321.4558758256
 20
320.4676894182
 30
0.0
 10
321.5926277872
 20
320.2746255316
 30
0.0
 10
321.637971049
 20
320.1699692938
 30
0.0
  0
SPLINE
  5
50F
100
AcDbEntity
  8
0
100
AcDbSpline
 62
7
  6
CONTINUOUS
 70
0
 71
3
 72
8
 73
4
 74
0
 42
0.0000001
 43
0.0000001
 44
0.0000000001
 40
0.0
 40
0.0
 40
0.0
 40
0.0
 40
1.0
 40
1.0
 40
1.0
 40
1.0
 10
321.637971049
 20
320.1699692938
 30
0.0
 10
321.6819571132
 20
320.0684455872
 30
0.0
 10
321.7056652192
 20
319.9556597766
 30
0.0
 10
321.7056652192
 20
319.8450169419
 30
0.0
  0
SPLINE
  5
510
100
AcDbEntity
  8
0
100
AcDbSpline
 62
7
  6
CONTINUOUS
 70
0
 71
3
 72
9
 73
5
 74
0
 42
0.0000001
 43
0.0000001
 44
0.0000000001
 40
0.0
 40
0.0
 40
0.0
 40
0.0
 40
0.0641950289
 40
1.0
 40
1.0
 40
1.0
 40
1.0
 10
320.805665219
 20
320.6981708349
 30
0.0
 10
320.8054518336
 20
320.6973734981
 30
0.0
 10
320.8021596087
 20
320.6849445138
 30
0.0
 10
320.7989581014
 20
320.6724904124
 30
0.0
 10
320.7961241206
 20
320.66079668
 30
0.0
  0
SPLINE
  5
511
100
AcDbEntity
  8
0
100
AcDbSpline
 62
9
  6
CONTINUOUS
 70
0
 71
3
 72
13
 73
9
 74
0
 42
0.0000001
 43
0.0000001
 44
0.0000000001
 40
0.0
 40
0.0
 40
0.0
 40
0.0
 40
0.1836559323
 40
0.3315005022
 40
0.5
 40
0.6684994978
 40
0.8163440677
 40
1.0
 40
1.0
 40
1.0
 40
1.0
 10
316.9056652192
 20
319.8450169419
 30
0.0
 10
316.9056652192
 20
319.7892078605
 30
0.0
 10
317.016402076
 20
319.7180881992
 30
0.0
 10
317.1564816325
 20
319.6848341813
 30
0.0
 10
317.3056652192
 20
319.6712479707
 30
0.0
 10
317.4548488058
 20
319.6848341813
 30
0.0
 10
317.5949283624
 20
319.7180881992
 30
0.0
 10
317.7056652192
 20
319.7892078605
 30
0.0
 10
317.7056652192
 20
319.8450169419
 30
0.0
  0
SPLINE
  5
512
100
AcDbEntity
  8
0
100
AcDbSpline
 62
7
  6
CONTINUOUS
 70
0
 71
3
 72
9
 73
5
 74
0
 42
0.0000001
 43
0.0000001
 44
0.0000000001
 40
0.0
 40
0.0
 40
0.0
 40
0.0
 40
0.4320375595
 40
1.0
 40
1.0
 40
1.0
 40
1.0
 10
317.815206335
 20
320.6607964874
 30
0.0
 10
317.81389793
 20
320.6661952973
 30
0.0
 10
317.8108191159
 20
320.6786797617
 30
0.0
 10
317.8074913427
 20
320.6911001057
 30
0.0
 10
317.8056652193
 20
320.6981709045
 30
0.0
  0
SPLINE
  5
513
100
AcDbEntity
  8
0
100
AcDbSpline
 62
9
  6
CONTINUOUS
 70
0
 71
3
 72
11
 73
7
 74
0
 42
0.0000001
 43
0.0000001
 44
0.0000000001
 40
0.0
 40
0.0
 40
0.0
 40
0.0
 40
0.2586792937
 40
0.5123621068
 40
0.7588059595
 40
1.0
 40
1.0
 40
1.0
 40
1.0
 10
319.3056652192
 20
316.2228115918
 30
0.0
 10
319.1110976808
 20
316.2228115918
 30
0.0
 10
318.7219456422
 20
316.1522120637
 30
0.0
 10
318.2239880402
 20
315.8468550914
 30
0.0
 10
317.8859535591
 20
315.3848659897
 30
0.0
 10
317.8056652192
 20
315.0136902517
 30
0.0
 10
317.8056652192
 20
314.8322743755
 30
0.0
  0
SPLINE
  5
514
100
AcDbEntity
  8
0
100
AcDbSpline
 62
9
  6
CONTINUOUS
 70
0
 71
3
 72
11
 73
7
 74
0
 42
0.0000001
 43
0.0000001
 44
0.0000000001
 40
0.0
 40
0.0
 40
0.0
 40
0.0
 40
0.2411940405
 40
0.4876378932
 40
0.7413207063
 40
1.0
 40
1.0
 40
1.0
 40
1.0
 10
320.8056652192
 20
314.8322743755
 30
0.0
 10
320.8056652192
 20
315.0136902517
 30
0.0
 10
320.7253768792
 20
315.3848659897
 30
0.0
 10
320.3873423982
 20
315.8468550914
 30
0.0
 10
319.8893847962
 20
316.1522120637
 30
0.0
 10
319.5002327576
 20
316.2228115918
 30
0.0
 10
319.3056652192
 20
316.2228115918
 30
0.0
  0
SPLINE
  5
515
100
AcDbEntity
  8
0
100
AcDbSpline
 62
7
  6
CONTINUOUS
 70
0
 71
3
 72
10
 73
6
 74
0
 42
0.0000001
 43
0.0000001
 44
0.0000000001
 40
0.0
 40
0.0
 40
0.0
 40
0.0
 40
0.0683724755
 40
0.2668310945
 40
1.0
 40
1.0
 40
1.0
 40
1.0
 10
317.8056652192
 20
319.898170897
 30
0.0
 10
317.806168205
 20
319.8946706552
 30
0.0
 10
317.8107313392
 20
319.9244180129
 30
0.0
 10
317.8217063963
 20
319.9506026763
 30
0.0
 10
317.8324771695
 20
320.0123287921
 30
0.0
 10
317.8387881781
 20
320.0497191223
 30
0.0
  0
SPLINE
  5
516
100
AcDbEntity
  8
0
100
AcDbSpline
 62
7
  6
CONTINUOUS
 70
0
 71
3
 72
9
 73
5
 74
0
 42
0.0000001
 43
0.0000001
 44
0.0000000001
 40
0.0
 40
0.0
 40
0.0
 40
0.0
 40
0.2289848989
 40
1.0
 40
1.0
 40
1.0
 40
1.0
 10
317.8387881781
 20
320.0497191223
 30
0.0
 10
317.8408465225
 20
320.0619140317
 30
0.0
 10
317.8491931878
 20
320.11527472
 30
0.0
 10
317.8548446878
 20
320.1690755646
 30
0.0
 10
317.8573347786
 20
320.2106433247
 30
0.0
  0
SPLINE
  5
517
100
AcDbEntity
  8
0
100
AcDbSpline
 62
7
  6
CONTINUOUS
 70
0
 71
3
 72
9
 73
5
 74
0
 42
0.0000001
 43
0.0000001
 44
0.0000000001
 40
0.0
 40
0.0
 40
0.0
 40
0.0
 40
0.298649437
 40
1.0
 40
1.0
 40
1.0
 40
1.0
 10
317.8573347786
 20
320.2106433247
 30
0.0
 10
317.8600326895
 20
320.2556802817
 30
0.0
 10
317.8621378777
 20
320.406913494
 30
0.0
 10
317.8402290468
 20
320.557838885
 30
0.0
 10
317.815206335
 20
320.6607964874
 30
0.0
  0
SPLINE
  5
518
100
AcDbEntity
  8
0
100
AcDbSpline
 62
9
  6
CONTINUOUS
 70
0
 71
3
 72
13
 73
9
 74
0
 42
0.0000001
 43
0.0000001
 44
0.0000000001
 40
0.0
 40
0.0
 40
0.0
 40
0.0
 40
0.1836559323
 40
0.3315005022
 40
0.5
 40
0.6684994978
 40
0.8163440677
 40
1.0
 40
1.0
 40
1.0
 40
1.0
 10
321.7056652192
 20
319.8450169419
 30
0.0
 10
321.7056652192
 20
319.7892078605
 30
0.0
 10
321.5949283624
 20
319.7180881992
 30
0.0
 10
321.4548488058
 20
319.6848341813
 30
0.0
 10
321.3056652192
 20
319.6712479707
 30
0.0
 10
321.1564816325
 20
319.6848341813
 30
0.0
 10
321.016402076
 20
319.7180881992
 30
0.0
 10
320.9056652192
 20
319.7892078605
 30
0.0
 10
320.9056652192
 20
319.8450169419
 30
0.0
  0
SPLINE
  5
519
100
AcDbEntity
  8
0
100
AcDbSpline
 62
7
  6
CONTINUOUS
 70
0
 71
3
 72
9
 73
5
 74
0
 42
0.0000001
 43
0.0000001
 44
0.0000000001
 40
0.0
 40
0.0
 40
0.0
 40
0.0
 40
0.2244215623
 40
1.0
 40
1.0
 40
1.0
 40
1.0
 10
320.7730753627
 20
320.5497509006
 30
0.0
 10
320.7687934673
 20
320.5246776756
 30
0.0
 10
320.7523500535
 20
320.4125316683
 30
0.0
 10
320.7487395312
 20
320.2983975965
 30
0.0
 10
320.7539952667
 20
320.2106498293
 30
0.0
  0
SPLINE
  5
51A
100
AcDbEntity
  8
0
100
AcDbSpline
 62
7
  6
CONTINUOUS
 70
0
 71
3
 72
9
 73
5
 74
0
 42
0.0000001
 43
0.0000001
 44
0.0000000001
 40
0.0
 40
0.0
 40
0.0
 40
0.0
 40
0.3942557239
 40
1.0
 40
1.0
 40
1.0
 40
1.0
 10
320.7539952667
 20
320.2106498293
 30
0.0
 10
320.7564868959
 20
320.1690505331
 30
0.0
 10
320.7674766104
 20
320.0637932323
 30
0.0
 10
320.7891674055
 20
319.9600376363
 30
0.0
 10
320.8056652192
 20
319.8981708355
 30
0.0
  0
SPLINE
  5
51B
100
AcDbEntity
  8
0
100
AcDbSpline
 62
9
  6
CONTINUOUS
 70
0
 71
3
 72
13
 73
9
 74
0
 42
0.0000001
 43
0.0000001
 44
0.0000000001
 40
0.0
 40
0.0
 40
0.0
 40
0.0
 40
0.1836559323
 40
0.3315005022
 40
0.5
 40
0.6684994978
 40
0.8163440677
 40
1.0
 40
1.0
 40
1.0
 40
1.0
 10
321.7056652192
 20
308.0630157105
 30
0.0
 10
321.7056652192
 20
308.007206629
 30
0.0
 10
321.5949283624
 20
307.9360869677
 30
0.0
 10
321.4548488058
 20
307.9028329498
 30
0.0
 10
321.3056652192
 20
307.8892467392
 30
0.0
 10
321.1564816325
 20
307.9028329498
 30
0.0
 10
321.016402076
 20
307.9360869677
 30
0.0
 10
320.9056652192
 20
308.007206629
 30
0.0
 10
320.9056652192
 20
308.0630157105
 30
0.0
  0
SPLINE
  5
51C
100
AcDbEntity
  8
0
100
AcDbSpline
 62
9
  6
CONTINUOUS
 70
0
 71
3
 72
13
 73
9
 74
0
 42
0.0000001
 43
0.0000001
 44
0.0000000001
 40
0.0
 40
0.0
 40
0.0
 40
0.0
 40
0.1836559323
 40
0.3315005022
 40
0.5
 40
0.6684994978
 40
0.8163440677
 40
1.0
 40
1.0
 40
1.0
 40
1.0
 10
316.9056652192
 20
308.0630157105
 30
0.0
 10
316.9056652192
 20
308.007206629
 30
0.0
 10
317.016402076
 20
307.9360869677
 30
0.0
 10
317.1564816325
 20
307.9028329498
 30
0.0
 10
317.3056652192
 20
307.8892467392
 30
0.0
 10
317.4548488058
 20
307.9028329498
 30
0.0
 10
317.5949283624
 20
307.9360869677
 30
0.0
 10
317.7056652192
 20
308.007206629
 30
0.0
 10
317.7056652192
 20
308.0630157105
 30
0.0
  0
SPLINE
  5
51D
100
AcDbEntity
  8
0
100
AcDbSpline
 62
7
  6
CONTINUOUS
 70
0
 71
3
 72
9
 73
5
 74
0
 42
0.0000001
 43
0.0000001
 44
0.0000000001
 40
0.0
 40
0.0
 40
0.0
 40
0.0
 40
0.5055527105
 40
1.0
 40
1.0
 40
1.0
 40
1.0
 10
316.9056652192
 20
449.3530528771
 30
0.0
 10
316.9056652192
 20
449.2799284086
 30
0.0
 10
316.9393692266
 20
449.1333036661
 30
0.0
 10
317.030743368
 20
449.0160426799
 30
0.0
 10
317.0834824252
 20
448.9677370093
 30
0.0
  0
SPLINE
  5
51E
100
AcDbEntity
  8
0
100
AcDbSpline
 62
7
  6
CONTINUOUS
 70
0
 71
3
 72
8
 73
4
 74
0
 42
0.0000001
 43
0.0000001
 44
0.0000000001
 40
0.0
 40
0.0
 40
0.0
 40
0.0
 40
1.0
 40
1.0
 40
1.0
 40
1.0
 10
317.0834824252
 20
448.9677370093
 30
0.0
 10
317.1446615554
 20
448.9117007608
 30
0.0
 10
317.2182195933
 20
448.8682959296
 30
0.0
 10
317.2946150342
 20
448.8359434377
 30
0.0
  0
SPLINE
  5
51F
100
AcDbEntity
  8
0
100
AcDbSpline
 62
7
  6
CONTINUOUS
 70
0
 71
3
 72
9
 73
5
 74
0
 42
0.0000001
 43
0.0000001
 44
0.0000000001
 40
0.0
 40
0.0
 40
0.0
 40
0.0
 40
0.2390813551
 40
1.0
 40
1.0
 40
1.0
 40
1.0
 10
317.2946150342
 20
448.8359434377
 30
0.0
 10
317.3328984741
 20
448.8197308906
 30
0.0
 10
317.4973964229
 20
448.762291735
 30
0.0
 10
317.6733454911
 20
448.7418079285
 30
0.0
 10
317.8056647979
 20
448.7417587958
 30
0.0
  0
SPLINE
  5
520
100
AcDbEntity
  8
0
100
AcDbSpline
 62
7
  6
CONTINUOUS
 70
0
 71
3
 72
11
 73
7
 74
0
 42
0.0000001
 43
0.0000001
 44
0.0000000001
 40
0.0
 40
0.0
 40
0.0
 40
0.0
 40
0.1068526543
 40
0.229569864
 40
0.5510393448
 40
1.0
 40
1.0
 40
1.0
 40
1.0
 10
317.6136991927
 20
449.5661096468
 30
0.0
 10
317.6099970018
 20
449.5691224756
 30
0.0
 10
317.5944133348
 20
449.5794221541
 30
0.0
 10
317.6324194579
 20
449.5605047744
 30
0.0
 10
317.6606238471
 20
449.5571891354
 30
0.0
 10
317.6983390018
 20
449.549082851
 30
0.0
 10
317.7182589068
 20
449.5467553334
 30
0.0
  0
SPLINE
  5
521
100
AcDbEntity
  8
0
100
AcDbSpline
 62
7
  6
CONTINUOUS
 70
0
 71
3
 72
8
 73
4
 74
0
 42
0.0000001
 43
0.0000001
 44
0.0000000001
 40
0.0
 40
0.0
 40
0.0
 40
0.0
 40
1.0
 40
1.0
 40
1.0
 40
1.0
 10
317.8056652192
 20
454.6583994106
 30
0.0
 10
317.7715334769
 20
454.6583994106
 30
0.0
 10
317.7373043447
 20
454.656233459
 30
0.0
 10
317.703502959
 20
454.6514961433
 30
0.0
  0
SPLINE
  5
522
100
AcDbEntity
  8
0
100
AcDbSpline
 62
7
  6
CONTINUOUS
 70
0
 71
3
 72
8
 73
4
 74
0
 42
0.0000001
 43
0.0000001
 44
0.0000000001
 40
0.0
 40
0.0
 40
0.0
 40
0.0
 40
1.0
 40
1.0
 40
1.0
 40
1.0
 10
317.8056652192
 20
455.4583994106
 30
0.0
 10
317.7069245825
 20
455.4583994106
 30
0.0
 10
317.6076299582
 20
455.4492754041
 30
0.0
 10
317.5108253883
 20
455.4298180517
 30
0.0
  0
SPLINE
  5
523
100
AcDbEntity
  8
0
100
AcDbSpline
 62
7
  6
CONTINUOUS
 70
0
 71
3
 72
8
 73
4
 74
0
 42
0.0000001
 43
0.0000001
 44
0.0000000001
 40
0.0
 40
0.0
 40
0.0
 40
0.0
 40
1.0
 40
1.0
 40
1.0
 40
1.0
 10
317.5108253883
 20
455.4298180517
 30
0.0
 10
317.4230621415
 20
455.4121779711
 30
0.0
 10
317.3361582574
 20
455.3853693249
 30
0.0
 10
317.2555269301
 20
455.3464829649
 30
0.0
  0
SPLINE
  5
524
100
AcDbEntity
  8
0
100
AcDbSpline
 62
7
  6
CONTINUOUS
 70
0
 71
3
 72
8
 73
4
 74
0
 42
0.0000001
 43
0.0000001
 44
0.0000000001
 40
0.0
 40
0.0
 40
0.0
 40
0.0
 40
1.0
 40
1.0
 40
1.0
 40
1.0
 10
317.2555269301
 20
455.3464829649
 30
0.0
 10
317.1864635548
 20
455.3131755226
 30
0.0
 10
317.1206272449
 20
455.2698933904
 30
0.0
 10
317.0660963267
 20
455.215990566
 30
0.0
  0
SPLINE
  5
525
100
AcDbEntity
  8
0
100
AcDbSpline
 62
7
  6
CONTINUOUS
 70
0
 71
3
 72
9
 73
5
 74
0
 42
0.0000001
 43
0.0000001
 44
0.0000000001
 40
0.0
 40
0.0
 40
0.0
 40
0.0
 40
0.4947178782
 40
1.0
 40
1.0
 40
1.0
 40
1.0
 10
317.0660963267
 20
455.215990566
 30
0.0
 10
317.0179555992
 20
455.1684043292
 30
0.0
 10
316.9356541995
 20
455.0547219438
 30
0.0
 10
316.9056652192
 20
454.9162260652
 30
0.0
 10
316.9056652192
 20
454.8470902797
 30
0.0
  0
SPLINE
  5
526
100
AcDbEntity
  8
0
100
AcDbSpline
 62
7
  6
CONTINUOUS
 70
0
 71
3
 72
9
 73
5
 74
0
 42
0.0000001
 43
0.0000001
 44
0.0000000001
 40
0.0
 40
0.0
 40
0.0
 40
0.0
 40
0.2578187344
 40
1.0
 40
1.0
 40
1.0
 40
1.0
 10
321.7056652192
 20
454.8470902797
 30
0.0
 10
321.7056652192
 20
454.8732479287
 30
0.0
 10
321.6976720114
 20
454.9746415302
 30
0.0
 10
321.6571415929
 20
455.0727391941
 30
0.0
 10
321.6139958641
 20
455.1344523727
 30
0.0
  0
SPLINE
  5
527
100
AcDbEntity
  8
0
100
AcDbSpline
 62
7
  6
CONTINUOUS
 70
0
 71
3
 72
9
 73
5
 74
0
 42
0.0000001
 43
0.0000001
 44
0.0000000001
 40
0.0
 40
0.0
 40
0.0
 40
0.0
 40
0.4804341177
 40
1.0
 40
1.0
 40
1.0
 40
1.0
 10
321.6139958641
 20
455.1344523727
 30
0.0
 10
321.5379464578
 20
455.2432290865
 30
0.0
 10
321.2935545212
 20
455.4083525466
 30
0.0
 10
321.0165252237
 20
455.4505968205
 30
0.0
 10
320.8731287662
 20
455.4569108696
 30
0.0
  0
SPLINE
  5
528
100
AcDbEntity
  8
0
100
AcDbSpline
 62
7
  6
CONTINUOUS
 70
0
 71
3
 72
9
 73
5
 74
0
 42
0.0000001
 43
0.0000001
 44
0.0000000001
 40
0.0
 40
0.0
 40
0.0
 40
0.0
 40
0.260833328
 40
1.0
 40
1.0
 40
1.0
 40
1.0
 10
320.8056654255
 20
448.7417617826
 30
0.0
 10
320.8519219844
 20
448.7417827198
 30
0.0
 10
321.0289294381
 20
448.7496153896
 30
0.0
 10
321.2064866929
 20
448.7876414814
 30
0.0
 10
321.3265730115
 20
448.8402012247
 30
0.0
  0
SPLINE
  5
529
100
AcDbEntity
  8
0
100
AcDbSpline
 62
7
  6
CONTINUOUS
 70
0
 71
3
 72
8
 73
4
 74
0
 42
0.0000001
 43
0.0000001
 44
0.0000000001
 40
0.0
 40
0.0
 40
0.0
 40
0.0
 40
1.0
 40
1.0
 40
1.0
 40
1.0
 10
321.3265730115
 20
448.8402012247
 30
0.0
 10
321.4008258482
 20
448.872700431
 30
0.0
 10
321.4721467686
 20
448.9158900414
 30
0.0
 10
321.5315044815
 20
448.9710837376
 30
0.0
  0
SPLINE
  5
52A
100
AcDbEntity
  8
0
100
AcDbSpline
 62
7
  6
CONTINUOUS
 70
0
 71
3
 72
9
 73
5
 74
0
 42
0.0000001
 43
0.0000001
 44
0.0000000001
 40
0.0
 40
0.0
 40
0.0
 40
0.0
 40
0.494373824
 40
1.0
 40
1.0
 40
1.0
 40
1.0
 10
321.5315044815
 20
448.9710837376
 30
0.0
 10
321.5832856237
 20
449.0192323689
 30
0.0
 10
321.6727526147
 20
449.1357962592
 30
0.0
 10
321.7056652192
 20
449.2807358226
 30
0.0
 10
321.7056652192
 20
449.3530528771
 30
0.0
  0
SPLINE
  5
52B
100
AcDbEntity
  8
0
100
AcDbSpline
 62
7
  6
CONTINUOUS
 70
0
 71
3
 72
9
 73
5
 74
0
 42
0.0000001
 43
0.0000001
 44
0.0000000001
 40
0.0
 40
0.0
 40
0.0
 40
0.0
 40
0.2989923751
 40
1.0
 40
1.0
 40
1.0
 40
1.0
 10
320.8056652185
 20
449.541744161
 30
0.0
 10
320.8247793975
 20
449.5417485317
 30
0.0
 10
320.8885411771
 20
449.5443531009
 30
0.0
 10
320.9529706328
 20
449.5534707983
 30
0.0
 10
320.9950840632
 20
449.5687938501
 30
0.0
  0
SPLINE
  5
52C
100
AcDbEntity
  8
0
100
AcDbSpline
 62
7
  6
CONTINUOUS
 70
0
 71
3
 72
9
 73
5
 74
0
 42
0.0000001
 43
0.0000001
 44
0.0000000001
 40
0.0
 40
0.0
 40
0.0
 40
0.0
 40
0.6603693263
 40
1.0
 40
1.0
 40
1.0
 40
1.0
 10
320.9950840632
 20
449.5687938501
 30
0.0
 10
320.9980754961
 20
449.5698822886
 30
0.0
 10
321.0025647545
 20
449.5716520617
 30
0.0
 10
321.0069283
 20
449.5737053489
 30
0.0
 10
321.0083906352
 20
449.5744415148
 30
0.0
  0
SPLINE
  5
52D
100
AcDbEntity
  8
0
100
AcDbSpline
 62
9
  6
CONTINUOUS
 70
0
 71
3
 72
11
 73
7
 74
0
 42
0.0000001
 43
0.0000001
 44
0.0000000001
 40
0.0
 40
0.0
 40
0.0
 40
0.0
 40
0.2413740624
 40
0.5
 40
0.7586259376
 40
1.0
 40
1.0
 40
1.0
 40
1.0
 10
320.9056652192
 20
454.8470902797
 30
0.0
 10
320.9056652192
 20
454.9410572388
 30
0.0
 10
321.002024052
 20
455.1409405116
 30
0.0
 10
321.3056652192
 20
455.2451345721
 30
0.0
 10
321.6093063864
 20
455.1409405116
 30
0.0
 10
321.7056652192
 20
454.9410572388
 30
0.0
 10
321.7056652192
 20
454.8470902797
 30
0.0
  0
SPLINE
  5
52E
100
AcDbEntity
  8
0
100
AcDbSpline
 62
9
  6
CONTINUOUS
 70
0
 71
3
 72
11
 73
7
 74
0
 42
0.0000001
 43
0.0000001
 44
0.0000000001
 40
0.0
 40
0.0
 40
0.0
 40
0.0
 40
0.2413740624
 40
0.5
 40
0.7586259376
 40
1.0
 40
1.0
 40
1.0
 40
1.0
 10
317.7056652192
 20
454.8470902797
 30
0.0
 10
317.7056652192
 20
454.9410572388
 30
0.0
 10
317.6093063864
 20
455.1409405116
 30
0.0
 10
317.3056652192
 20
455.2451345721
 30
0.0
 10
317.002024052
 20
455.1409405116
 30
0.0
 10
316.9056652192
 20
454.9410572388
 30
0.0
 10
316.9056652192
 20
454.8470902797
 30
0.0
  0
SPLINE
  5
52F
100
AcDbEntity
  8
0
100
AcDbSpline
 62
9
  6
CONTINUOUS
 70
0
 71
3
 72
8
 73
4
 74
0
 42
0.0000001
 43
0.0000001
 44
0.0000000001
 40
0.0
 40
0.0
 40
0.0
 40
0.0
 40
1.0
 40
1.0
 40
1.0
 40
1.0
 10
317.7056652192
 20
449.3530528771
 30
0.0
 10
317.7056652192
 20
449.4160587172
 30
0.0
 10
317.6858459915
 20
449.4811234415
 30
0.0
 10
317.6520753807
 20
449.5343144345
 30
0.0
  0
SPLINE
  5
530
100
AcDbEntity
  8
0
100
AcDbSpline
 62
9
  6
CONTINUOUS
 70
0
 71
3
 72
8
 73
4
 74
0
 42
0.0000001
 43
0.0000001
 44
0.0000000001
 40
0.0
 40
0.0
 40
0.0
 40
0.0
 40
1.0
 40
1.0
 40
1.0
 40
1.0
 10
317.6206716638
 20
449.5764851172
 30
0.0
 10
317.5887647318
 20
449.613390765
 30
0.0
 10
317.548904828
 20
449.6444147295
 30
0.0
 10
317.5056652192
 20
449.667007104
 30
0.0
  0
SPLINE
  5
531
100
AcDbEntity
  8
0
100
AcDbSpline
 62
9
  6
CONTINUOUS
 70
0
 71
3
 72
11
 73
7
 74
0
 42
0.0000001
 43
0.0000001
 44
0.0000000001
 40
0.0
 40
0.0
 40
0.0
 40
0.0
 40
0.2578342939
 40
0.5156685878
 40
0.7632062601
 40
1.0
 40
1.0
 40
1.0
 40
1.0
 10
317.5056652192
 20
449.667007104
 30
0.0
 10
317.4448604944
 20
449.6987771212
 30
0.0
 10
317.3053733232
 20
449.7321749479
 30
0.0
 10
317.1006558411
 20
449.6833368405
 30
0.0
 10
316.9454274409
 20
449.547430698
 30
0.0
 10
316.9056652192
 20
449.4160587172
 30
0.0
 10
316.9056652192
 20
449.3530528771
 30
0.0
  0
SPLINE
  5
532
100
AcDbEntity
  8
7_ALL_ROUNDS
100
AcDbSpline
 62
9
  6
CONTINUOUS
 70
0
 71
3
 72
13
 73
9
 74
0
 42
0.0000001
 43
0.0000001
 44
0.0000000001
 40
0.0
 40
0.0
 40
0.0
 40
0.0
 40
0.2560045866
 40
0.3798355633
 40
0.5002529034
 40
0.620673877
 40
0.7443997905
 40
1.0
 40
1.0
 40
1.0
 40
1.0
 10
319.3056652192
 20
454.4612377614
 30
0.0
 10
319.0782474418
 20
454.4611874388
 30
0.0
 10
318.7225411718
 20
454.3323737997
 30
0.0
 10
318.4538402408
 20
453.9654724569
 30
0.0
 10
318.3816545411
 20
453.6390461058
 30
0.0
 10
318.4550349074
 20
453.3130635312
 30
0.0
 10
318.7236371785
 20
452.9469248772
 30
0.0
 10
319.0786066598
 20
452.8176267012
 30
0.0
 10
319.3056652192
 20
452.8176012094
 30
0.0
  0
SPLINE
  5
533
100
AcDbEntity
  8
7_ALL_ROUNDS
100
AcDbSpline
 62
9
  6
CONTINUOUS
 70
0
 71
3
 72
13
 73
9
 74
0
 42
0.0000001
 43
0.0000001
 44
0.0000000001
 40
0.0
 40
0.0
 40
0.0
 40
0.0
 40
0.2559628899
 40
0.3797951942
 40
0.5002211641
 40
0.6206320731
 40
0.744356733
 40
1.0
 40
1.0
 40
1.0
 40
1.0
 10
319.3056652192
 20
452.8176012094
 30
0.0
 10
319.5330461323
 20
452.8176514431
 30
0.0
 10
319.888493312
 20
452.9473518597
 30
0.0
 10
320.1568557703
 20
453.3142384177
 30
0.0
 10
320.2296779787
 20
453.6404514024
 30
0.0
 10
320.1569331397
 20
453.9666462936
 30
0.0
 10
319.8879920351
 20
454.3327993174
 30
0.0
 10
319.532762204
 20
454.4612122199
 30
0.0
 10
319.3056652192
 20
454.4612377614
 30
0.0
  0
SPLINE
  5
534
100
AcDbEntity
  8
7_ALL_ROUNDS
100
AcDbSpline
 62
9
  6
CONTINUOUS
 70
0
 71
3
 72
11
 73
7
 74
0
 42
0.0000001
 43
0.0000001
 44
0.0000000001
 40
0.0
 40
0.0
 40
0.0
 40
0.0
 40
0.2644049079
 40
0.5202138818
 40
0.7641357705
 40
1.0
 40
1.0
 40
1.0
 40
1.0
 10
319.3056652192
 20
452.0632078376
 30
0.0
 10
319.5001535588
 20
452.0632169737
 30
0.0
 10
319.8862815034
 20
452.1289598276
 30
0.0
 10
320.3838991885
 20
452.4163258981
 30
0.0
 10
320.7244019567
 20
452.8560221194
 30
0.0
 10
320.805574321
 20
453.2134736199
 30
0.0
 10
320.8056217746
 20
453.3869682841
 30
0.0
  0
SPLINE
  5
535
100
AcDbEntity
  8
0
100
AcDbSpline
 62
9
  6
CONTINUOUS
 70
0
 71
3
 72
12
 73
8
 74
0
 42
0.0000001
 43
0.0000001
 44
0.0000000001
 40
0.0
 40
0.0
 40
0.0
 40
0.0
 40
0.1437248674
 40
0.2436522331
 40
0.364565995
 40
0.6604763212
 40
1.0
 40
1.0
 40
1.0
 40
1.0
 10
320.8056652192
 20
447.2667437462
 30
0.0
 10
320.8056652192
 20
447.1855212432
 30
0.0
 10
320.7162048653
 20
447.0553109234
 30
0.0
 10
320.5451983475
 20
446.9446765059
 30
0.0
 10
320.2765856935
 20
446.8245486355
 30
0.0
 10
319.8570065959
 20
446.7299430841
 30
0.0
 10
319.4975385084
 20
446.7042437462
 30
0.0
 10
319.3056652192
 20
446.7042437462
 30
0.0
  0
SPLINE
  5
536
100
AcDbEntity
  8
0
100
AcDbSpline
 62
9
  6
CONTINUOUS
 70
0
 71
3
 72
8
 73
4
 74
0
 42
0.0000001
 43
0.0000001
 44
0.0000000001
 40
0.0
 40
0.0
 40
0.0
 40
0.0
 40
1.0
 40
1.0
 40
1.0
 40
1.0
 10
320.9056652192
 20
449.3530528771
 30
0.0
 10
320.9056652192
 20
449.4160587172
 30
0.0
 10
320.9254844469
 20
449.4811234415
 30
0.0
 10
320.9592550577
 20
449.5343144345
 30
0.0
  0
SPLINE
  5
537
100
AcDbEntity
  8
0
100
AcDbSpline
 62
9
  6
CONTINUOUS
 70
0
 71
3
 72
8
 73
4
 74
0
 42
0.0000001
 43
0.0000001
 44
0.0000000001
 40
0.0
 40
0.0
 40
0.0
 40
0.0
 40
1.0
 40
1.0
 40
1.0
 40
1.0
 10
320.9906939741
 20
449.5765258253
 30
0.0
 10
321.0225947656
 20
449.6134134995
 30
0.0
 10
321.0624412203
 20
449.6444228856
 30
0.0
 10
321.1056652192
 20
449.667007104
 30
0.0
  0
SPLINE
  5
538
100
AcDbEntity
  8
0
100
AcDbSpline
 62
9
  6
CONTINUOUS
 70
0
 71
3
 72
11
 73
7
 74
0
 42
0.0000001
 43
0.0000001
 44
0.0000000001
 40
0.0
 40
0.0
 40
0.0
 40
0.0
 40
0.2578342939
 40
0.5156685878
 40
0.7632062601
 40
1.0
 40
1.0
 40
1.0
 40
1.0
 10
321.1056652192
 20
449.667007104
 30
0.0
 10
321.1664699439
 20
449.6987771212
 30
0.0
 10
321.3059571152
 20
449.7321749479
 30
0.0
 10
321.5106745973
 20
449.6833368405
 30
0.0
 10
321.6659029975
 20
449.547430698
 30
0.0
 10
321.7056652192
 20
449.4160587172
 30
0.0
 10
321.7056652192
 20
449.3530528771
 30
0.0
  0
SPLINE
  5
539
100
AcDbEntity
  8
0
100
AcDbSpline
 62
9
  6
CONTINUOUS
 70
0
 71
3
 72
12
 73
8
 74
0
 42
0.0000001
 43
0.0000001
 44
0.0000000001
 40
0.0
 40
0.0
 40
0.0
 40
0.0
 40
0.3395236788
 40
0.635434005
 40
0.7563477669
 40
0.8562751326
 40
1.0
 40
1.0
 40
1.0
 40
1.0
 10
319.3056652192
 20
446.7042437462
 30
0.0
 10
319.11379193
 20
446.7042437462
 30
0.0
 10
318.7543238424
 20
446.7299430841
 30
0.0
 10
318.3347447449
 20
446.8245486355
 30
0.0
 10
318.0661320909
 20
446.9446765059
 30
0.0
 10
317.8951255731
 20
447.0553109234
 30
0.0
 10
317.8056652192
 20
447.1855212432
 30
0.0
 10
317.8056652192
 20
447.2667437462
 30
0.0
  0
SPLINE
  5
53A
100
AcDbEntity
  8
7_ALL_ROUNDS
100
AcDbSpline
 62
9
  6
CONTINUOUS
 70
0
 71
3
 72
11
 73
7
 74
0
 42
0.0000001
 43
0.0000001
 44
0.0000000001
 40
0.0
 40
0.0
 40
0.0
 40
0.0
 40
0.2360858404
 40
0.4800451433
 40
0.7356680413
 40
1.0
 40
1.0
 40
1.0
 40
1.0
 10
317.8057127455
 20
453.3838071833
 30
0.0
 10
317.8061280525
 20
453.2103910197
 30
0.0
 10
317.8882675359
 20
452.8534760737
 30
0.0
 10
318.2290458713
 20
452.41500941
 30
0.0
 10
318.7261260478
 20
452.1287440109
 30
0.0
 10
319.1115003952
 20
452.0632111931
 30
0.0
 10
319.3056652192
 20
452.0632078369
 30
0.0
  0
SPLINE
  5
53B
100
AcDbEntity
  8
0
100
AcDbSpline
 62
7
  6
CONTINUOUS
 70
0
 71
3
 72
8
 73
4
 74
0
 42
0.0000001
 43
0.0000001
 44
0.0000000001
 40
0.0
 40
0.0
 40
0.0
 40
0.0
 40
1.0
 40
1.0
 40
1.0
 40
1.0
 10
548.3416525402
 20
320.6981708355
 30
0.0
 10
548.2839856059
 20
320.6981709153
 30
0.0
 10
548.2249744882
 20
320.6852245952
 30
0.0
 10
548.1727370278
 20
320.66079668
 30
0.0
  0
SPLINE
  5
53C
100
AcDbEntity
  8
0
100
AcDbSpline
 62
7
  6
CONTINUOUS
 70
0
 71
3
 72
8
 73
4
 74
0
 42
0.0000001
 43
0.0000001
 44
0.0000000001
 40
0.0
 40
0.0
 40
0.0
 40
0.0
 40
1.0
 40
1.0
 40
1.0
 40
1.0
 10
548.3416514327
 20
319.8981708355
 30
0.0
 10
548.3988631294
 20
319.8981707563
 30
0.0
 10
548.4572854067
 20
319.9109501186
 30
0.0
 10
548.5093721436
 20
319.9346176086
 30
0.0
  0
SPLINE
  5
53D
100
AcDbEntity
  8
7_ALL_ROUNDS
100
AcDbSpline
 62
9
  6
CONTINUOUS
 70
0
 71
3
 72
9
 73
5
 74
0
 42
0.0000001
 43
0.0000001
 44
0.0000000001
 40
0.0
 40
0.0
 40
0.0
 40
0.0
 40
0.2628380963
 40
1.0
 40
1.0
 40
1.0
 40
1.0
 10
551.2631160778
 20
308.2697044559
 30
0.0
 10
551.3057969201
 20
308.2476953332
 30
0.0
 10
551.4638880273
 20
308.1559358019
 30
0.0
 10
551.6251627728
 20
308.0700907246
 30
0.0
 10
551.7435245486
 20
308.0058277944
 30
0.0
  0
SPLINE
  5
53E
100
AcDbEntity
  8
7_ALL_ROUNDS
100
AcDbSpline
 62
9
  6
CONTINUOUS
 70
0
 71
3
 72
9
 73
5
 74
0
 42
0.0000001
 43
0.0000001
 44
0.0000000001
 40
0.0
 40
0.0
 40
0.0
 40
0.0
 40
0.2487830354
 40
1.0
 40
1.0
 40
1.0
 40
1.0
 10
551.7435245486
 20
308.0058277944
 30
0.0
 10
551.9024645825
 20
307.9195334459
 30
0.0
 10
552.5428920393
 20
307.5755350299
 30
0.0
 10
553.1881809653
 20
307.2406584467
 30
0.0
 10
553.6743871592
 20
306.9919942179
 30
0.0
  0
SPLINE
  5
53F
100
AcDbEntity
  8
0
100
AcDbSpline
 62
7
  6
CONTINUOUS
 70
0
 71
3
 72
13
 73
9
 74
0
 42
0.0000001
 43
0.0000001
 44
0.0000000001
 40
0.0
 40
0.0
 40
0.0
 40
0.0
 40
0.0871432707
 40
0.1868452447
 40
0.3045481076
 40
0.4386917248
 40
0.730064824
 40
1.0
 40
1.0
 40
1.0
 40
1.0
 10
780.7495422774
 20
467.4918991711
 30
0.0
 10
780.7495660762
 20
467.4342212233
 30
0.0
 10
780.7145029132
 20
467.3094957783
 30
0.0
 10
780.5787806801
 20
467.1545869844
 30
0.0
 10
780.377857518
 20
467.0322336375
 30
0.0
 10
780.0345473761
 20
466.9178900592
 30
0.0
 10
779.5669569098
 20
466.8940315047
 30
0.0
 10
779.197155522
 20
466.9941965917
 30
0.0
 10
779.042438656
 20
467.0835458081
 30
0.0
  0
SPLINE
  5
540
100
AcDbEntity
  8
7_ALL_ROUNDS
100
AcDbSpline
 62
7
  6
CONTINUOUS
 70
0
 71
3
 72
8
 73
4
 74
0
 42
0.0000001
 43
0.0000001
 44
0.0000000001
 40
0.0
 40
0.0
 40
0.0
 40
0.0
 40
1.0
 40
1.0
 40
1.0
 40
1.0
 10
783.6760238681
 20
471.3999244226
 30
0.0
 10
783.6760238681
 20
471.3897023079
 30
0.0
 10
783.6735151899
 20
471.3792896187
 30
0.0
 10
783.6691833393
 20
471.3700307472
 30
0.0
  0
SPLINE
  5
541
100
AcDbEntity
  8
7_ALL_ROUNDS
100
AcDbSpline
 62
7
  6
CONTINUOUS
 70
0
 71
3
 72
9
 73
5
 74
0
 42
0.0000001
 43
0.0000001
 44
0.0000000001
 40
0.0
 40
0.0
 40
0.0
 40
0.0
 40
0.7222775726
 40
1.0
 40
1.0
 40
1.0
 40
1.0
 10
783.6691833393
 20
471.3700307472
 30
0.0
 10
783.661654837
 20
471.3539393718
 30
0.0
 10
783.6438465219
 20
471.3351015855
 30
0.0
 10
783.6233349407
 20
471.3216695408
 30
0.0
 10
783.6174195302
 20
471.3182533826
 30
0.0
  0
SPLINE
  5
542
100
AcDbEntity
  8
0
100
AcDbSpline
 62
7
  6
CONTINUOUS
 70
0
 71
3
 72
12
 73
8
 74
0
 42
0.0000001
 43
0.0000001
 44
0.0000000001
 40
0.0
 40
0.0
 40
0.0
 40
0.0
 40
0.2711309869
 40
0.5637880174
 40
0.698566236
 40
0.8167112834
 40
1.0
 40
1.0
 40
1.0
 40
1.0
 10
766.8448466805
 20
512.9438735722
 30
0.0
 10
766.7442800702
 20
513.0019509367
 30
0.0
 10
766.5038671741
 20
513.0669182284
 30
0.0
 10
766.2001080226
 20
513.052026288
 30
0.0
 10
765.9766193556
 20
512.9764702216
 30
0.0
 10
765.8163581829
 20
512.8819733186
 30
0.0
 10
765.7352834415
 20
512.7569497905
 30
0.0
 10
765.7352535596
 20
512.6784428309
 30
0.0
  0
SPLINE
  5
543
100
AcDbEntity
  8
7_ALL_ROUNDS
100
AcDbSpline
 62
7
  6
CONTINUOUS
 70
0
 71
3
 72
8
 73
4
 74
0
 42
0.0000001
 43
0.0000001
 44
0.0000000001
 40
0.0
 40
0.0
 40
0.0
 40
0.0
 40
1.0
 40
1.0
 40
1.0
 40
1.0
 10
785.4225776177
 20
468.2025032062
 30
0.0
 10
785.4225776177
 20
468.1922810915
 30
0.0
 10
785.4200689394
 20
468.1818684022
 30
0.0
 10
785.4157370888
 20
468.1726095308
 30
0.0
  0
SPLINE
  5
544
100
AcDbEntity
  8
7_ALL_ROUNDS
100
AcDbSpline
 62
7
  6
CONTINUOUS
 70
0
 71
3
 72
9
 73
5
 74
0
 42
0.0000001
 43
0.0000001
 44
0.0000000001
 40
0.0
 40
0.0
 40
0.0
 40
0.0
 40
0.7222775726
 40
1.0
 40
1.0
 40
1.0
 40
1.0
 10
785.4157370888
 20
468.1726095308
 30
0.0
 10
785.4082085865
 20
468.1565181553
 30
0.0
 10
785.3904002714
 20
468.1376803691
 30
0.0
 10
785.3698886903
 20
468.1242483244
 30
0.0
 10
785.3639732798
 20
468.1208321662
 30
0.0
  0
SPLINE
  5
545
100
AcDbEntity
  8
0
100
AcDbSpline
 62
7
  6
CONTINUOUS
 70
0
 71
3
 72
11
 73
7
 74
0
 42
0.0000001
 43
0.0000001
 44
0.0000000001
 40
0.0
 40
0.0
 40
0.0
 40
0.0
 40
0.2219293405
 40
0.4569228608
 40
0.714938576
 40
1.0
 40
1.0
 40
1.0
 40
1.0
 10
755.4978648806
 20
486.3383459949
 30
0.0
 10
755.3489399296
 20
486.2524094066
 30
0.0
 10
755.0687970197
 20
486.0254718717
 30
0.0
 10
754.7550522343
 20
485.5610063693
 30
0.0
 10
754.5491430393
 20
484.9892161447
 30
0.0
 10
754.4875099475
 20
484.5703503857
 30
0.0
 10
754.4726378858
 20
484.3499986406
 30
0.0
  0
SPLINE
  5
546
100
AcDbEntity
  8
0
100
AcDbSpline
 62
7
  6
CONTINUOUS
 70
0
 71
3
 72
9
 73
5
 74
0
 42
0.0000001
 43
0.0000001
 44
0.0000000001
 40
0.0
 40
0.0
 40
0.0
 40
0.0
 40
0.2264856507
 40
1.0
 40
1.0
 40
1.0
 40
1.0
 10
768.5405223418
 20
473.4662990619
 30
0.0
 10
768.425590022
 20
473.4648543837
 30
0.0
 10
767.9173529158
 20
473.5036011818
 30
0.0
 10
767.4322831205
 20
473.7037735931
 30
0.0
 10
767.0923399197
 20
473.9000912886
 30
0.0
  0
SPLINE
  5
547
100
AcDbEntity
  8
0
100
AcDbSpline
 62
7
  6
CONTINUOUS
 70
0
 71
3
 72
9
 73
5
 74
0
 42
0.0000001
 43
0.0000001
 44
0.0000000001
 40
0.0
 40
0.0
 40
0.0
 40
0.0
 40
0.234319606
 40
1.0
 40
1.0
 40
1.0
 40
1.0
 10
764.6997752544
 20
480.8179431029
 30
0.0
 10
764.7804883513
 20
480.8014338796
 30
0.0
 10
765.1214398841
 20
480.7139269989
 30
0.0
 10
765.4450033753
 20
480.5655166045
 30
0.0
 10
765.6781263573
 20
480.4308877415
 30
0.0
  0
SPLINE
  5
548
100
AcDbEntity
  8
0
100
AcDbSpline
 62
7
  6
CONTINUOUS
 70
0
 71
3
 72
9
 73
5
 74
0
 42
0.0000001
 43
0.0000001
 44
0.0000000001
 40
0.0
 40
0.0
 40
0.0
 40
0.0
 40
0.2333077904
 40
1.0
 40
1.0
 40
1.0
 40
1.0
 10
760.4210440569
 20
479.7362416872
 30
0.0
 10
760.3590905012
 20
479.7472145454
 30
0.0
 10
760.0961180793
 20
479.8086987094
 30
0.0
 10
759.846765853
 20
479.9212976197
 30
0.0
 10
759.6677187172
 20
480.0246976025
 30
0.0
  0
SPLINE
  5
549
100
AcDbEntity
  8
7_ALL_ROUNDS
100
AcDbSpline
 62
7
  6
CONTINUOUS
 70
0
 71
3
 72
9
 73
5
 74
0
 42
0.0000001
 43
0.0000001
 44
0.0000000001
 40
0.0
 40
0.0
 40
0.0
 40
0.0
 40
0.2938868289
 40
1.0
 40
1.0
 40
1.0
 40
1.0
 10
782.0052160691
 20
470.3872035265
 30
0.0
 10
781.996489635
 20
470.382163998
 30
0.0
 10
781.9683894376
 20
470.3632057854
 30
0.0
 10
781.9466117313
 20
470.329744383
 30
0.0
 10
781.9466117313
 20
470.3055324865
 30
0.0
  0
SPLINE
  5
54A
100
AcDbEntity
  8
0
100
AcDbSpline
 62
7
  6
CONTINUOUS
 70
0
 71
3
 72
11
 73
7
 74
0
 42
0.0000001
 43
0.0000001
 44
0.0000000001
 40
0.0
 40
0.0
 40
0.0
 40
0.0
 40
0.2177219614
 40
0.4508571488
 40
0.7104372027
 40
1.0
 40
1.0
 40
1.0
 40
1.0
 10
756.6282449061
 20
484.6755499157
 30
0.0
 10
756.7354377967
 20
484.7374469003
 30
0.0
 10
756.9816887345
 20
484.8270867923
 30
0.0
 10
757.3910470573
 20
484.8373446714
 30
0.0
 10
757.8271270874
 20
484.7317466948
 30
0.0
 10
758.1109463291
 20
484.5968478598
 30
0.0
 10
758.2535051548
 20
484.5145199295
 30
0.0
  0
SPLINE
  5
54B
100
AcDbEntity
  8
0
100
AcDbSpline
 62
7
  6
CONTINUOUS
 70
0
 71
3
 72
15
 73
11
 74
0
 42
0.0000001
 43
0.0000001
 44
0.0000000001
 40
0.0
 40
0.0
 40
0.0
 40
0.0
 40
0.1288226384
 40
0.2705935792
 40
0.417907624
 40
0.5624137607
 40
0.6962251645
 40
0.8136105277
 40
0.9130736996
 40
1.0
 40
1.0
 40
1.0
 40
1.0
 10
773.1027475598
 20
475.9390607284
 30
0.0
 10
773.3432698867
 20
475.8001587329
 30
0.0
 10
773.8101914863
 20
475.4407597596
 30
0.0
 10
774.4079191141
 20
474.7608675503
 30
0.0
 10
774.8998613978
 20
473.9606348987
 30
0.0
 10
775.2454885248
 20
473.1056676827
 30
0.0
 10
775.4171600431
 20
472.2640813113
 30
0.0
 10
775.3991710185
 20
471.5002010305
 30
0.0
 10
775.1849580601
 20
470.8659773287
 30
0.0
 10
774.8903109037
 20
470.5652175903
 30
0.0
 10
774.7280078085
 20
470.471498015
 30
0.0
  0
SPLINE
  5
54C
100
AcDbEntity
  8
0
100
AcDbSpline
 62
7
  6
CONTINUOUS
 70
0
 71
3
 72
15
 73
11
 74
0
 42
0.0000001
 43
0.0000001
 44
0.0000000001
 40
0.0
 40
0.0
 40
0.0
 40
0.0
 40
0.1288226384
 40
0.2705935792
 40
0.417907624
 40
0.5624137607
 40
0.6962251645
 40
0.8136105277
 40
0.9130736996
 40
1.0
 40
1.0
 40
1.0
 40
1.0
 10
758.2535051548
 20
484.5145199295
 30
0.0
 10
758.4940274817
 20
484.3756179341
 30
0.0
 10
758.9609490813
 20
484.0162189607
 30
0.0
 10
759.5586767091
 20
483.3363267515
 30
0.0
 10
760.0506189928
 20
482.5360940999
 30
0.0
 10
760.3962461199
 20
481.6811268839
 30
0.0
 10
760.5679176382
 20
480.8395405125
 30
0.0
 10
760.5499286136
 20
480.0756602317
 30
0.0
 10
760.3357156552
 20
479.4414365299
 30
0.0
 10
760.0410684988
 20
479.1406767914
 30
0.0
 10
759.8787654036
 20
479.0469572162
 30
0.0
  0
SPLINE
  5
54D
100
AcDbEntity
  8
0
100
AcDbSpline
 62
7
  6
CONTINUOUS
 70
0
 71
3
 72
9
 73
5
 74
0
 42
0.0000001
 43
0.0000001
 44
0.0000000001
 40
0.0
 40
0.0
 40
0.0
 40
0.0
 40
0.4745999193
 40
1.0
 40
1.0
 40
1.0
 40
1.0
 10
765.6781263573
 20
480.4308877415
 30
0.0
 10
766.1021862249
 20
480.1859925479
 30
0.0
 10
766.9098065773
 20
479.5201171396
 30
0.0
 10
767.5403118307
 20
478.693220839
 30
0.0
 10
767.8236186644
 20
478.2310298239
 30
0.0
  0
SPLINE
  5
54E
100
AcDbEntity
  8
0
100
AcDbSpline
 62
7
  6
CONTINUOUS
 70
0
 71
3
 72
13
 73
9
 74
0
 42
0.0000001
 43
0.0000001
 44
0.0000000001
 40
0.0
 40
0.0
 40
0.0
 40
0.0
 40
0.3055531655
 40
0.5830430279
 40
0.704416806
 40
0.8127161792
 40
0.9097206526
 40
1.0
 40
1.0
 40
1.0
 40
1.0
 10
767.8236186644
 20
478.2310298239
 30
0.0
 10
768.135601055
 20
477.7220570757
 30
0.0
 10
768.6229714218
 20
476.680805981
 30
0.0
 10
768.896101094
 20
475.3105583266
 30
0.0
 10
768.8368523979
 20
474.3159433759
 30
0.0
 10
768.6653391539
 20
473.6949375281
 30
0.0
 10
768.3666961636
 20
473.191138932
 30
0.0
 10
768.0813182734
 20
472.948475285
 30
0.0
 10
767.9285369983
 20
472.8603298621
 30
0.0
  0
SPLINE
  5
54F
100
AcDbEntity
  8
0
100
AcDbSpline
 62
7
  6
CONTINUOUS
 70
0
 71
3
 72
11
 73
7
 74
0
 42
0.0000001
 43
0.0000001
 44
0.0000000001
 40
0.0
 40
0.0
 40
0.0
 40
0.0
 40
0.2496109719
 40
0.5248203856
 40
0.7858593974
 40
1.0
 40
1.0
 40
1.0
 40
1.0
 10
774.5169611221
 20
471.4492384013
 30
0.0
 10
774.1164269801
 20
471.680547454
 30
0.0
 10
773.3790946618
 20
472.347781342
 30
0.0
 10
772.5970058201
 20
473.594077318
 30
0.0
 10
772.1792399949
 20
474.9345441441
 30
0.0
 10
772.2100314182
 20
475.8519516795
 30
0.0
 10
772.3454314314
 20
476.2249366971
 30
0.0
  0
SPLINE
  5
550
100
AcDbEntity
  8
0
100
AcDbSpline
 62
7
  6
CONTINUOUS
 70
0
 71
3
 72
9
 73
5
 74
0
 42
0.0000001
 43
0.0000001
 44
0.0000000001
 40
0.0
 40
0.0
 40
0.0
 40
0.0
 40
0.2333077904
 40
1.0
 40
1.0
 40
1.0
 40
1.0
 10
775.2702864618
 20
471.160782486
 30
0.0
 10
775.2083329061
 20
471.1717553443
 30
0.0
 10
774.9453604842
 20
471.2332395082
 30
0.0
 10
774.696008258
 20
471.3458384186
 30
0.0
 10
774.5169611221
 20
471.4492384013
 30
0.0
  0
SPLINE
  5
551
100
AcDbEntity
  8
0
100
AcDbSpline
 62
7
  6
CONTINUOUS
 70
0
 71
3
 72
11
 73
7
 74
0
 42
0.0000001
 43
0.0000001
 44
0.0000000001
 40
0.0
 40
0.0
 40
0.0
 40
0.0
 40
0.2496109719
 40
0.5248203856
 40
0.7858593974
 40
1.0
 40
1.0
 40
1.0
 40
1.0
 10
759.6677187172
 20
480.0246976025
 30
0.0
 10
759.2671845752
 20
480.2560066551
 30
0.0
 10
758.5298522569
 20
480.9232405432
 30
0.0
 10
757.7477634152
 20
482.1695365192
 30
0.0
 10
757.32999759
 20
483.5100033453
 30
0.0
 10
757.3607890133
 20
484.4274108807
 30
0.0
 10
757.4961890265
 20
484.8003958983
 30
0.0
  0
SPLINE
  5
552
100
AcDbEntity
  8
0
100
AcDbSpline
 62
7
  6
CONTINUOUS
 70
0
 71
3
 72
11
 73
7
 74
0
 42
0.0000001
 43
0.0000001
 44
0.0000000001
 40
0.0
 40
0.0
 40
0.0
 40
0.0
 40
0.2177219614
 40
0.4508571488
 40
0.7104372027
 40
1.0
 40
1.0
 40
1.0
 40
1.0
 10
771.477487311
 20
476.1000907145
 30
0.0
 10
771.5846802016
 20
476.1619876991
 30
0.0
 10
771.8309311394
 20
476.2516275911
 30
0.0
 10
772.2402894622
 20
476.2618854702
 30
0.0
 10
772.6763694923
 20
476.1562874937
 30
0.0
 10
772.9601887341
 20
476.0213886587
 30
0.0
 10
773.1027475598
 20
475.9390607284
 30
0.0
  0
SPLINE
  5
553
100
AcDbEntity
  8
0
100
AcDbSpline
 62
7
  6
CONTINUOUS
 70
0
 71
3
 72
9
 73
5
 74
0
 42
0.0000001
 43
0.0000001
 44
0.0000000001
 40
0.0
 40
0.0
 40
0.0
 40
0.0
 40
0.2329863563
 40
1.0
 40
1.0
 40
1.0
 40
1.0
 10
767.0923399197
 20
473.9000912886
 30
0.0
 10
766.9597198928
 20
473.9766795481
 30
0.0
 10
766.4085453228
 20
474.3364545384
 30
0.0
 10
765.9291533136
 20
474.79992447
 30
0.0
 10
765.6045026694
 20
475.1856605082
 30
0.0
  0
SPLINE
  5
554
100
AcDbEntity
  8
7_ALL_ROUNDS
100
AcDbSpline
 62
7
  6
CONTINUOUS
 70
0
 71
3
 72
12
 73
8
 74
0
 42
0.0000001
 43
0.0000001
 44
0.0000000001
 40
0.0
 40
0.0
 40
0.0
 40
0.0
 40
0.2816780778
 40
0.5385138608
 40
0.7749888554
 40
0.8883556635
 40
1.0
 40
1.0
 40
1.0
 40
1.0
 10
805.2870005174
 20
360.5024890736
 30
0.0
 10
807.544782422
 20
361.8565203992
 30
0.0
 10
811.6730530483
 20
364.7910502408
 30
0.0
 10
816.6681462067
 20
370.112217217
 30
0.0
 10
819.4494658487
 20
375.1448113051
 30
0.0
 10
820.6427841996
 20
379.3049182385
 30
0.0
 10
820.9024872368
 20
381.4025816594
 30
0.0
 10
820.9470941985
 20
382.4451001905
 30
0.0
  0
SPLINE
  5
555
100
AcDbEntity
  8
0
100
AcDbSpline
 62
7
  6
CONTINUOUS
 70
0
 71
3
 72
11
 73
7
 74
0
 42
0.0000001
 43
0.0000001
 44
0.0000000001
 40
0.0
 40
0.0
 40
0.0
 40
0.0
 40
0.2417201937
 40
0.5044991269
 40
0.7648516793
 40
1.0
 40
1.0
 40
1.0
 40
1.0
 10
778.2978283912
 20
472.2243370872
 30
0.0
 10
778.2624773679
 20
472.7889456847
 30
0.0
 10
778.0038911988
 20
473.9572123918
 30
0.0
 10
777.2341539863
 20
475.5867734168
 30
0.0
 10
776.1555839213
 20
477.0113204215
 30
0.0
 10
775.2487680992
 20
477.7618334173
 30
0.0
 10
774.7721964201
 20
478.0370542588
 30
0.0
  0
SPLINE
  5
556
100
AcDbEntity
  8
0
100
AcDbSpline
 62
7
  6
CONTINUOUS
 70
0
 71
3
 72
11
 73
7
 74
0
 42
0.0000001
 43
0.0000001
 44
0.0000000001
 40
0.0
 40
0.0
 40
0.0
 40
0.0
 40
0.2896121525
 40
0.5491308913
 40
0.7822535673
 40
1.0
 40
1.0
 40
1.0
 40
1.0
 10
759.4124834193
 20
486.9073109755
 30
0.0
 10
759.1931240034
 20
487.0339913589
 30
0.0
 10
758.7565117453
 20
487.2415967424
 30
0.0
 10
758.0856153572
 20
487.4039308859
 30
0.0
 10
757.4558674052
 20
487.3882083674
 30
0.0
 10
757.0770374914
 20
487.2502453995
 30
0.0
 10
756.9120784429
 20
487.155056395
 30
0.0
  0
SPLINE
  5
557
100
AcDbEntity
  8
7_ALL_ROUNDS
100
AcDbSpline
 62
7
  6
CONTINUOUS
 70
0
 71
3
 72
19
 73
15
 74
0
 42
0.0000001
 43
0.0000001
 44
0.0000000001
 40
0.0
 40
0.0
 40
0.0
 40
0.0
 40
0.0452715053
 40
0.0921123984
 40
0.14166683
 40
0.1947592495
 40
0.2518205998
 40
0.3128993336
 40
0.3777146417
 40
0.4457236388
 40
0.5880917454
 40
0.7329174507
 40
0.8724356375
 40
1.0
 40
1.0
 40
1.0
 40
1.0
 10
711.823360347
 20
382.4451001905
 30
0.0
 10
711.8931445299
 20
380.8141596148
 30
0.0
 10
712.4591296362
 20
377.5008175633
 30
0.0
 10
714.5043294097
 20
372.7748182645
 30
0.0
 10
717.6533523347
 20
368.357207234
 30
0.0
 10
721.8005884145
 20
364.3242253459
 30
0.0
 10
726.8449776884
 20
360.7286740425
 30
0.0
 10
732.6821827655
 20
357.6206659308
 30
0.0
 10
739.1979412263
 20
355.0474973922
 30
0.0
 10
748.7613475879
 20
352.3494386184
 30
0.0
 10
761.5233308375
 20
350.6106352443
 30
0.0
 10
776.9728343116
 20
351.0856930218
 30
0.0
 10
791.5988116607
 20
354.0508814501
 30
0.0
 10
800.5816241341
 20
357.7771795472
 30
0.0
 10
804.564914347
 20
360.0775354694
 30
0.0
  0
SPLINE
  5
558
100
AcDbEntity
  8
7_ALL_ROUNDS
100
AcDbSpline
 62
7
  6
CONTINUOUS
 70
0
 71
3
 72
9
 73
5
 74
0
 42
0.0000001
 43
0.0000001
 44
0.0000000001
 40
0.0
 40
0.0
 40
0.0
 40
0.0
 40
0.2605006025
 40
1.0
 40
1.0
 40
1.0
 40
1.0
 10
745.21883856
 20
486.7007159987
 30
0.0
 10
744.8250993649
 20
486.4733310378
 30
0.0
 10
743.3349836842
 20
485.5646915024
 30
0.0
 10
741.9329382803
 20
484.5063218849
 30
0.0
 10
740.9814551806
 20
483.6341608233
 30
0.0
  0
SPLINE
  5
559
100
AcDbEntity
  8
7_ALL_ROUNDS
100
AcDbSpline
 62
7
  6
CONTINUOUS
 70
0
 71
3
 72
11
 73
7
 74
0
 42
0.0000001
 43
0.0000001
 44
0.0000000001
 40
0.0
 40
0.0
 40
0.0
 40
0.0
 40
0.2183827102
 40
0.4615764524
 40
0.7248175454
 40
1.0
 40
1.0
 40
1.0
 40
1.0
 10
791.7889993649
 20
483.6341608233
 30
0.0
 10
790.4093574318
 20
484.8987865148
 30
0.0
 10
787.1207994951
 20
487.1724923196
 30
0.0
 10
781.3838999551
 20
489.6299552033
 30
0.0
 10
774.854736847
 20
491.2383696588
 30
0.0
 10
770.2447009585
 20
491.6876922418
 30
0.0
 10
767.8873795796
 20
491.7564284463
 30
0.0
  0
SPLINE
  5
55A
100
AcDbEntity
  8
7_ALL_ROUNDS
100
AcDbSpline
 62
7
  6
CONTINUOUS
 70
0
 71
3
 72
10
 73
6
 74
0
 42
0.0000001
 43
0.0000001
 44
0.0000000001
 40
0.0
 40
0.0
 40
0.0
 40
0.0
 40
0.522607345
 40
0.7690740829
 40
1.0
 40
1.0
 40
1.0
 40
1.0
 10
764.8803681788
 20
491.756322547
 30
0.0
 10
761.3872819003
 20
491.6543348381
 30
0.0
 10
756.2333155988
 20
490.9878528948
 30
0.0
 10
749.8380114893
 20
488.9968374289
 30
0.0
 10
746.925828556
 20
487.6575307832
 30
0.0
 10
745.5777109307
 20
486.9045365303
 30
0.0
  0
SPLINE
  5
55B
100
AcDbEntity
  8
7_ALL_ROUNDS
100
AcDbSpline
 62
7
  6
CONTINUOUS
 70
0
 71
3
 72
17
 73
13
 74
0
 42
0.0000001
 43
0.0000001
 44
0.0000000001
 40
0.0
 40
0.0
 40
0.0
 40
0.0
 40
0.0403808112
 40
0.0836499901
 40
0.1310636312
 40
0.1833207714
 40
0.3022094204
 40
0.4375913323
 40
0.5830608203
 40
0.7306488869
 40
0.8720841943
 40
1.0
 40
1.0
 40
1.0
 40
1.0
 10
740.5523216061
 20
473.0460334705
 30
0.0
 10
740.6250698938
 20
472.3684930924
 30
0.0
 10
740.957910553
 20
470.9796501421
 30
0.0
 10
741.9653109157
 20
468.9920577769
 30
0.0
 10
743.4745096891
 20
467.0921651256
 30
0.0
 10
746.236886691
 20
464.6266797665
 30
0.0
 10
750.8123493482
 20
462.085438255
 30
0.0
 10
757.296880468
 20
460.1010880612
 30
0.0
 10
764.507101579
 20
459.2152305537
 30
0.0
 10
771.8664670464
 20
459.5068467283
 30
0.0
 10
778.7857843092
 20
460.9471562417
 30
0.0
 10
783.0219651074
 20
462.7103249762
 30
0.0
 10
784.8912505619
 20
463.7898400594
 30
0.0
  0
SPLINE
  5
55C
100
AcDbEntity
  8
7_ALL_ROUNDS
100
AcDbSpline
 62
7
  6
CONTINUOUS
 70
0
 71
3
 72
11
 73
7
 74
0
 42
0.0000001
 43
0.0000001
 44
0.0000000001
 40
0.0
 40
0.0
 40
0.0
 40
0.0
 40
0.2932605409
 40
0.5548559139
 40
0.7876127681
 40
1.0
 40
1.0
 40
1.0
 40
1.0
 10
785.2365447812
 20
463.9931101443
 30
0.0
 10
786.2269817804
 20
464.5874577603
 30
0.0
 10
788.024616435
 20
465.8509453891
 30
0.0
 10
790.2051940873
 20
468.087658799
 30
0.0
 10
791.6616493329
 20
470.4930573975
 30
0.0
 10
792.1288258108
 20
472.2142725104
 30
0.0
 10
792.2181329393
 20
473.0460334705
 30
0.0
  0
SPLINE
  5
55D
100
AcDbEntity
  8
0
100
AcDbSpline
 62
7
  6
CONTINUOUS
 70
0
 71
3
 72
9
 73
5
 74
0
 42
0.0000001
 43
0.0000001
 44
0.0000000001
 40
0.0
 40
0.0
 40
0.0
 40
0.0
 40
0.478640242
 40
1.0
 40
1.0
 40
1.0
 40
1.0
 10
732.5213638687
 20
474.0507495231
 30
0.0
 10
732.9876424632
 20
475.1046521395
 30
0.0
 10
734.2405382009
 20
477.1882689055
 30
0.0
 10
735.8876726306
 20
478.9650156747
 30
0.0
 10
736.8130296078
 20
479.8132468042
 30
0.0
  0
SPLINE
  5
55E
100
AcDbEntity
  8
0
100
AcDbSpline
 62
7
  6
CONTINUOUS
 70
0
 71
3
 72
9
 73
5
 74
0
 42
0.0000001
 43
0.0000001
 44
0.0000000001
 40
0.0
 40
0.0
 40
0.0
 40
0.0
 40
0.4951522742
 40
1.0
 40
1.0
 40
1.0
 40
1.0
 10
732.521322553
 20
474.0507556194
 30
0.0
 10
727.6426143614
 20
463.0243624324
 30
0.0
 10
719.60005257
 20
439.9160715022
 30
0.0
 10
715.2838592615
 20
415.8369586683
 30
0.0
 10
714.0584948759
 20
403.6045924119
 30
0.0
  0
SPLINE
  5
55F
100
AcDbEntity
  8
7_ALL_ROUNDS
100
AcDbSpline
 62
7
  6
CONTINUOUS
 70
0
 71
3
 72
9
 73
5
 74
0
 42
0.0000001
 43
0.0000001
 44
0.0000000001
 40
0.0
 40
0.0
 40
0.0
 40
0.0
 40
0.2405035923
 40
1.0
 40
1.0
 40
1.0
 40
1.0
 10
779.0495097238
 20
464.4742202297
 30
0.0
 10
779.0294523592
 20
464.4626370723
 30
0.0
 10
778.9384500431
 20
464.429916989
 30
0.0
 10
778.8300070064
 20
464.4376412899
 30
0.0
 10
778.7666670113
 20
464.4742202297
 30
0.0
  0
SPLINE
  5
560
100
AcDbEntity
  8
0
100
AcDbSpline
 62
7
  6
CONTINUOUS
 70
0
 71
3
 72
8
 73
4
 74
0
 42
0.0000001
 43
0.0000001
 44
0.0000000001
 40
0.0
 40
0.0
 40
0.0
 40
0.0
 40
1.0
 40
1.0
 40
1.0
 40
1.0
 10
768.1570301475
 20
473.5206416464
 30
0.0
 10
768.1478761499
 20
473.5518642359
 30
0.0
 10
768.1429603043
 20
473.5846940117
 30
0.0
 10
768.1429468791
 20
473.6172308461
 30
0.0
  0
SPLINE
  5
561
100
AcDbEntity
  8
0
100
AcDbSpline
 62
7
  6
CONTINUOUS
 70
0
 71
3
 72
9
 73
5
 74
0
 42
0.0000001
 43
0.0000001
 44
0.0000000001
 40
0.0
 40
0.0
 40
0.0
 40
0.0
 40
0.5504841866
 40
1.0
 40
1.0
 40
1.0
 40
1.0
 10
779.042438656
 20
467.0835458081
 30
0.0
 10
778.9597747291
 20
467.1312843467
 30
0.0
 10
778.8177616449
 20
467.2401773277
 30
0.0
 10
778.7495807602
 20
467.4139532392
 30
0.0
 10
778.7495485969
 20
467.4919028452
 30
0.0
  0
SPLINE
  5
562
100
AcDbEntity
  8
0
100
AcDbSpline
 62
7
  6
CONTINUOUS
 70
0
 71
3
 72
9
 73
5
 74
0
 42
0.0000001
 43
0.0000001
 44
0.0000000001
 40
0.0
 40
0.0
 40
0.0
 40
0.0
 40
0.4886512977
 40
1.0
 40
1.0
 40
1.0
 40
1.0
 10
711.4020054904
 20
392.2927464218
 30
0.0
 10
711.325340927
 20
394.08532988
 30
0.0
 10
711.7202060502
 20
397.7965202705
 30
0.0
 10
713.1457762821
 20
401.2329866883
 30
0.0
 10
714.064671223
 20
402.8703233608
 30
0.0
  0
SPLINE
  5
563
100
AcDbEntity
  8
0
100
AcDbSpline
 62
7
  6
CONTINUOUS
 70
0
 71
3
 72
9
 73
5
 74
0
 42
0.0000001
 43
0.0000001
 44
0.0000000001
 40
0.0
 40
0.0
 40
0.0
 40
0.0
 40
0.4786196885
 40
1.0
 40
1.0
 40
1.0
 40
1.0
 10
800.249081381
 20
474.0507481515
 30
0.0
 10
799.7828216045
 20
475.1046085357
 30
0.0
 10
798.5299986966
 20
477.1882821179
 30
0.0
 10
796.8827706716
 20
478.9649595484
 30
0.0
 10
795.957377324
 20
479.8132294809
 30
0.0
  0
SPLINE
  5
564
100
AcDbEntity
  8
0
100
AcDbSpline
 62
7
  6
CONTINUOUS
 70
0
 71
3
 72
9
 73
5
 74
0
 42
0.0000001
 43
0.0000001
 44
0.0000000001
 40
0.0
 40
0.0
 40
0.0
 40
0.0
 40
0.5048472193
 40
1.0
 40
1.0
 40
1.0
 40
1.0
 10
818.7119739699
 20
403.6044565235
 30
0.0
 10
817.4866182057
 20
415.8368342955
 30
0.0
 10
813.1704243395
 20
439.9159937992
 30
0.0
 10
805.1278542756
 20
463.0243305841
 30
0.0
 10
800.2491319925
 20
474.0507556194
 30
0.0
  0
SPLINE
  5
565
100
AcDbEntity
  8
0
100
AcDbSpline
 62
7
  6
CONTINUOUS
 70
0
 71
3
 72
9
 73
5
 74
0
 42
0.0000001
 43
0.0000001
 44
0.0000000001
 40
0.0
 40
0.0
 40
0.0
 40
0.0
 40
0.4884551131
 40
1.0
 40
1.0
 40
1.0
 40
1.0
 10
821.3684048667
 20
392.2927470526
 30
0.0
 10
821.4457860857
 20
394.1007224806
 30
0.0
 10
821.042289358
 20
397.8457935887
 30
0.0
 10
819.5911959084
 20
401.3085998002
 30
0.0
 10
818.656728515
 20
402.9573733202
 30
0.0
  0
SPLINE
  5
566
100
AcDbEntity
  8
0
100
AcDbSpline
 62
7
  6
CONTINUOUS
 70
0
 71
3
 72
9
 73
5
 74
0
 42
0.0000001
 43
0.0000001
 44
0.0000000001
 40
0.0
 40
0.0
 40
0.0
 40
0.0
 40
0.4500476786
 40
1.0
 40
1.0
 40
1.0
 40
1.0
 10
767.0352009858
 20
512.6784425534
 30
0.0
 10
767.0352202894
 20
512.7291579163
 30
0.0
 10
766.9905987472
 20
512.8419892667
 30
0.0
 10
766.8985137992
 20
512.9128807327
 30
0.0
 10
766.8448466805
 20
512.9438735722
 30
0.0
  0
SPLINE
  5
567
100
AcDbEntity
  8
0
100
AcDbSpline
 62
7
  6
CONTINUOUS
 70
0
 71
3
 72
9
 73
5
 74
0
 42
0.0000001
 43
0.0000001
 44
0.0000000001
 40
0.0
 40
0.0
 40
0.0
 40
0.0
 40
0.4800290247
 40
1.0
 40
1.0
 40
1.0
 40
1.0
 10
764.7665277439
 20
489.7579684818
 30
0.0
 10
764.7207453171
 20
489.8448835592
 30
0.0
 10
764.6544562957
 20
490.0486170505
 30
0.0
 10
764.7328088896
 20
490.2619104009
 30
0.0
 10
764.8039430533
 20
490.3410492089
 30
0.0
  0
SPLINE
  5
568
100
AcDbEntity
  8
0
100
AcDbSpline
 62
7
  6
CONTINUOUS
 70
0
 71
3
 72
9
 73
5
 74
0
 42
0.0000001
 43
0.0000001
 44
0.0000000001
 40
0.0
 40
0.0
 40
0.0
 40
0.0
 40
0.2401723938
 40
1.0
 40
1.0
 40
1.0
 40
1.0
 10
769.2787025684
 20
481.7525288836
 30
0.0
 10
769.2629192747
 20
481.7621704594
 30
0.0
 10
769.1979656468
 20
481.8035589076
 30
0.0
 10
769.1358209945
 20
481.8492865332
 30
0.0
 10
769.0901164887
 20
481.8858220943
 30
0.0
  0
SPLINE
  5
569
100
AcDbEntity
  8
0
100
AcDbSpline
 62
7
  6
CONTINUOUS
 70
0
 71
3
 72
8
 73
4
 74
0
 42
0.0000001
 43
0.0000001
 44
0.0000000001
 40
0.0
 40
0.0
 40
0.0
 40
0.0
 40
1.0
 40
1.0
 40
1.0
 40
1.0
 10
769.0288991893
 20
481.9366460399
 30
0.0
 10
768.9585666467
 20
481.9972601948
 30
0.0
 10
768.8918361598
 20
482.0624374113
 30
0.0
 10
768.8303837933
 20
482.1320387689
 30
0.0
  0
SPLINE
  5
56A
100
AcDbEntity
  8
0
100
AcDbSpline
 62
7
  6
CONTINUOUS
 70
0
 71
3
 72
9
 73
5
 74
0
 42
0.0000001
 43
0.0000001
 44
0.0000000001
 40
0.0
 40
0.0
 40
0.0
 40
0.0
 40
0.2629764906
 40
1.0
 40
1.0
 40
1.0
 40
1.0
 10
768.8303837933
 20
482.1320387689
 30
0.0
 10
768.8153061538
 20
482.1491158032
 30
0.0
 10
768.7592240523
 20
482.2151150614
 30
0.0
 10
768.7080128614
 20
482.2855051767
 30
0.0
 10
768.6752831768
 20
482.3403234043
 30
0.0
  0
SPLINE
  5
56B
100
AcDbEntity
  8
0
100
AcDbSpline
 62
7
  6
CONTINUOUS
 70
0
 71
3
 72
9
 73
5
 74
0
 42
0.0000001
 43
0.0000001
 44
0.0000000001
 40
0.0
 40
0.0
 40
0.0
 40
0.0
 40
0.2090903338
 40
1.0
 40
1.0
 40
1.0
 40
1.0
 10
769.7083137204
 20
482.427750884
 30
0.0
 10
769.6981723157
 20
482.43360756
 30
0.0
 10
769.6505577713
 20
482.4631414892
 30
0.0
 10
769.6057260779
 20
482.4970237219
 30
0.0
 10
769.5716584856
 20
482.5253389942
 30
0.0
  0
SPLINE
  5
56C
100
AcDbEntity
  8
0
100
AcDbSpline
 62
7
  6
CONTINUOUS
 70
0
 71
3
 72
9
 73
5
 74
0
 42
0.0000001
 43
0.0000001
 44
0.0000000001
 40
0.0
 40
0.0
 40
0.0
 40
0.0
 40
0.2850594248
 40
1.0
 40
1.0
 40
1.0
 40
1.0
 10
769.4858401009
 20
482.6029406472
 30
0.0
 10
769.4749617371
 20
482.6136493174
 30
0.0
 10
769.4374985503
 20
482.6518907132
 30
0.0
 10
769.4022431926
 20
482.6924906537
 30
0.0
 10
769.3798961999
 20
482.72357658
 30
0.0
  0
SPLINE
  5
56D
100
AcDbEntity
  8
0
100
AcDbSpline
 62
7
  6
CONTINUOUS
 70
0
 71
3
 72
9
 73
5
 74
0
 42
0.0000001
 43
0.0000001
 44
0.0000000001
 40
0.0
 40
0.0
 40
0.0
 40
0.0
 40
0.3534284256
 40
1.0
 40
1.0
 40
1.0
 40
1.0
 10
769.3798961999
 20
482.72357658
 30
0.0
 10
769.3772724041
 20
482.7272264279
 30
0.0
 10
769.3700392777
 20
482.7376803285
 30
0.0
 10
769.3630395113
 20
482.748344831
 30
0.0
 10
769.3592070191
 20
482.7556205781
 30
0.0
  0
SPLINE
  5
56E
100
AcDbEntity
  8
0
100
AcDbSpline
 62
7
  6
CONTINUOUS
 70
0
 71
3
 72
9
 73
5
 74
0
 42
0.0000001
 43
0.0000001
 44
0.0000000001
 40
0.0
 40
0.0
 40
0.0
 40
0.0
 40
0.4896775513
 40
1.0
 40
1.0
 40
1.0
 40
1.0
 10
767.8852272727
 20
487.2194767415
 30
0.0
 10
767.8852272727
 20
486.4841241179
 30
0.0
 10
767.5125140985
 20
484.9817915019
 30
0.0
 10
766.6728755359
 20
483.6996310977
 30
0.0
 10
766.142911308
 20
483.1460624454
 30
0.0
  0
SPLINE
  5
56F
100
AcDbEntity
  8
0
100
AcDbSpline
 62
7
  6
CONTINUOUS
 70
0
 71
3
 72
10
 73
6
 74
0
 42
0.0000001
 43
0.0000001
 44
0.0000000001
 40
0.0
 40
0.0
 40
0.0
 40
0.0
 40
0.1948293491
 40
0.4453626931
 40
1.0
 40
1.0
 40
1.0
 40
1.0
 10
764.8852272727
 20
487.2194767415
 30
0.0
 10
764.8852272727
 20
487.0956405702
 30
0.0
 10
764.8487191439
 20
486.8125959054
 30
0.0
 10
764.664048857
 20
486.2029401231
 30
0.0
 10
764.4070048818
 20
485.7487804783
 30
0.0
 10
764.1907178202
 20
485.4703907901
 30
0.0
  0
SPLINE
  5
570
100
AcDbEntity
  8
0
100
AcDbSpline
 62
7
  6
CONTINUOUS
 70
0
 71
3
 72
9
 73
5
 74
0
 42
0.0000001
 43
0.0000001
 44
0.0000000001
 40
0.0
 40
0.0
 40
0.0
 40
0.0
 40
0.2572816871
 40
1.0
 40
1.0
 40
1.0
 40
1.0
 10
764.1907178202
 20
485.4703907901
 30
0.0
 10
764.1733818121
 20
485.4480770841
 30
0.0
 10
764.1049359277
 20
485.3621842642
 30
0.0
 10
764.032302336
 20
485.2796002591
 30
0.0
 10
763.975892808
 20
485.2206782701
 30
0.0
  0
SPLINE
  5
571
100
AcDbEntity
  8
0
100
AcDbSpline
 62
7
  6
CONTINUOUS
 70
0
 71
3
 72
8
 73
4
 74
0
 42
0.0000001
 43
0.0000001
 44
0.0000000001
 40
0.0
 40
0.0
 40
0.0
 40
0.0
 40
1.0
 40
1.0
 40
1.0
 40
1.0
 10
772.1508940067
 20
480.5397627757
 30
0.0
 10
772.0894823935
 20
480.471021364
 30
0.0
 10
772.0014805446
 20
480.4212806129
 30
0.0
 10
771.9114769374
 20
480.4013778844
 30
0.0
  0
SPLINE
  5
572
100
AcDbEntity
  8
0
100
AcDbSpline
 62
7
  6
CONTINUOUS
 70
0
 71
3
 72
9
 73
5
 74
0
 42
0.0000001
 43
0.0000001
 44
0.0000000001
 40
0.0
 40
0.0
 40
0.0
 40
0.0
 40
0.2605135542
 40
1.0
 40
1.0
 40
1.0
 40
1.0
 10
771.9114769374
 20
480.4013778844
 30
0.0
 10
771.8689298523
 20
480.3919693384
 30
0.0
 10
771.6996159058
 20
480.380234259
 30
0.0
 10
771.5366676913
 20
480.4480528786
 30
0.0
 10
771.4295555095
 20
480.5099103202
 30
0.0
  0
SPLINE
  5
573
100
AcDbEntity
  8
0
100
AcDbSpline
 62
7
  6
CONTINUOUS
 70
0
 71
3
 72
11
 73
7
 74
0
 42
0.0000001
 43
0.0000001
 44
0.0000000001
 40
0.0
 40
0.0
 40
0.0
 40
0.0
 40
0.2360045403
 40
0.4761122133
 40
0.7287654414
 40
1.0
 40
1.0
 40
1.0
 40
1.0
 10
763.132354274
 20
475.5375202811
 30
0.0
 10
763.5327872307
 20
475.3055050765
 30
0.0
 10
764.4582322942
 20
475.0192191394
 30
0.0
 10
765.9086430327
 20
475.178230055
 30
0.0
 10
767.2901402203
 20
475.8036172512
 30
0.0
 10
768.10570462
 20
476.442812661
 30
0.0
 10
768.49202023
 20
476.8083998959
 30
0.0
  0
SPLINE
  5
574
100
AcDbEntity
  8
0
100
AcDbSpline
 62
7
  6
CONTINUOUS
 70
0
 71
3
 72
13
 73
9
 74
0
 42
0.0000001
 43
0.0000001
 44
0.0000000001
 40
0.0
 40
0.0
 40
0.0
 40
0.0
 40
0.3525900634
 40
0.6903707689
 40
0.8271453513
 40
0.926573725
 40
0.980582511
 40
1.0
 40
1.0
 40
1.0
 40
1.0
 10
766.142911308
 20
483.1460624454
 30
0.0
 10
765.6927656969
 20
482.6758675035
 30
0.0
 10
764.9570207464
 20
481.6139554566
 30
0.0
 10
764.4230133895
 20
480.1552682869
 30
0.0
 10
764.3276008393
 20
479.097006147
 30
0.0
 10
764.3885247875
 20
478.554651917
 30
0.0
 10
764.5140833205
 20
478.2626754148
 30
0.0
 10
764.6006678434
 20
478.1492685089
 30
0.0
 10
764.6329249262
 20
478.1336311149
 30
0.0
  0
SPLINE
  5
575
100
AcDbEntity
  8
0
100
AcDbSpline
 62
7
  6
CONTINUOUS
 70
0
 71
3
 72
12
 73
8
 74
0
 42
0.0000001
 43
0.0000001
 44
0.0000000001
 40
0.0
 40
0.0
 40
0.0
 40
0.0
 40
0.0612878209
 40
0.1367981065
 40
0.2507473089
 40
0.5789155346
 40
1.0
 40
1.0
 40
1.0
 40
1.0
 10
764.6329249262
 20
478.1336311149
 30
0.0
 10
764.6822326847
 20
478.1097279971
 30
0.0
 10
764.8079049668
 20
478.0915831251
 30
0.0
 10
765.0302271848
 20
478.1234016888
 30
0.0
 10
765.4741656198
 20
478.2629720808
 30
0.0
 10
766.1348421939
 20
478.6835156144
 30
0.0
 10
766.615640745
 20
479.1551836612
 30
0.0
 10
766.8602324799
 20
479.4413898093
 30
0.0
  0
SPLINE
  5
576
100
AcDbEntity
  8
0
100
AcDbSpline
 62
7
  6
CONTINUOUS
 70
0
 71
3
 72
13
 73
9
 74
0
 42
0.0000001
 43
0.0000001
 44
0.0000000001
 40
0.0
 40
0.0
 40
0.0
 40
0.0
 40
0.2731072465
 40
0.5389475831
 40
0.6618036311
 40
0.7776803793
 40
0.8894644293
 40
1.0
 40
1.0
 40
1.0
 40
1.0
 10
763.975892808
 20
485.2206782701
 30
0.0
 10
763.2868716259
 20
484.5009683216
 30
0.0
 10
762.1557060933
 20
482.853733562
 30
0.0
 10
761.3873317988
 20
480.5177652672
 30
0.0
 10
761.315918101
 20
478.6660284688
 30
0.0
 10
761.5652847733
 20
477.3967130476
 30
0.0
 10
762.1553617088
 20
476.2887477283
 30
0.0
 10
762.7834327522
 20
475.7396892009
 30
0.0
 10
763.132354274
 20
475.5375202811
 30
0.0
  0
SPLINE
  5
577
100
AcDbEntity
  8
0
100
AcDbSpline
 62
7
  6
CONTINUOUS
 70
0
 71
3
 72
9
 73
5
 74
0
 42
0.0000001
 43
0.0000001
 44
0.0000000001
 40
0.0
 40
0.0
 40
0.0
 40
0.0
 40
0.4811082541
 40
1.0
 40
1.0
 40
1.0
 40
1.0
 10
772.1876341438
 20
481.1221997779
 30
0.0
 10
772.2207144386
 20
481.0593989046
 30
0.0
 10
772.2747176164
 20
480.9190499987
 30
0.0
 10
772.2640538471
 20
480.7647262465
 30
0.0
 10
772.2396537897
 20
480.6921637322
 30
0.0
  0
SPLINE
  5
578
100
AcDbEntity
  8
0
100
AcDbSpline
 62
7
  6
CONTINUOUS
 70
0
 71
3
 72
8
 73
4
 74
0
 42
0.0000001
 43
0.0000001
 44
0.0000000001
 40
0.0
 40
0.0
 40
0.0
 40
0.0
 40
1.0
 40
1.0
 40
1.0
 40
1.0
 10
772.2396537897
 20
480.6921637322
 30
0.0
 10
772.2209165285
 20
480.6364416181
 30
0.0
 10
772.1900603424
 20
480.5836038192
 30
0.0
 10
772.1508940067
 20
480.5397627757
 30
0.0
  0
SPLINE
  5
579
100
AcDbEntity
  8
7_ALL_ROUNDS
100
AcDbSpline
 62
7
  6
CONTINUOUS
 70
0
 71
3
 72
10
 73
6
 74
0
 42
0.0000001
 43
0.0000001
 44
0.0000000001
 40
0.0
 40
0.0
 40
0.0
 40
0.0
 40
0.248727355
 40
0.495587659
 40
1.0
 40
1.0
 40
1.0
 40
1.0
 10
764.8852272727
 20
497.0854003708
 30
0.0
 10
764.8852272727
 20
497.2008660297
 30
0.0
 10
764.931000249
 20
497.4333902337
 30
0.0
 10
765.1844542732
 20
497.8318819742
 30
0.0
 10
765.5025057909
 20
498.0207182859
 30
0.0
 10
765.7237784213
 20
498.0973335884
 30
0.0
  0
SPLINE
  5
57A
100
AcDbEntity
  8
0
100
AcDbSpline
 62
7
  6
CONTINUOUS
 70
0
 71
3
 72
9
 73
5
 74
0
 42
0.0000001
 43
0.0000001
 44
0.0000000001
 40
0.0
 40
0.0
 40
0.0
 40
0.0
 40
0.2065284471
 40
1.0
 40
1.0
 40
1.0
 40
1.0
 10
767.2460871695
 20
488.4522458225
 30
0.0
 10
767.2585346419
 20
488.4450234014
 30
0.0
 10
767.3176058861
 20
488.408001146
 30
0.0
 10
767.3724668101
 20
488.3645125788
 30
0.0
 10
767.4139224203
 20
488.327928585
 30
0.0
  0
SPLINE
  5
57B
100
AcDbEntity
  8
0
100
AcDbSpline
 62
7
  6
CONTINUOUS
 70
0
 71
3
 72
9
 73
5
 74
0
 42
0.0000001
 43
0.0000001
 44
0.0000000001
 40
0.0
 40
0.0
 40
0.0
 40
0.0
 40
0.6327647423
 40
1.0
 40
1.0
 40
1.0
 40
1.0
 10
767.4139224203
 20
488.327928585
 30
0.0
 10
767.457092792
 20
488.2898313381
 30
0.0
 10
767.5206912684
 20
488.2249639156
 30
0.0
 10
767.5793816472
 20
488.1541124696
 30
0.0
 10
767.5949548686
 20
488.1245476816
 30
0.0
  0
SPLINE
  5
57C
100
AcDbEntity
  8
7_ALL_ROUNDS
100
AcDbSpline
 62
7
  6
CONTINUOUS
 70
0
 71
3
 72
9
 73
5
 74
0
 42
0.0000001
 43
0.0000001
 44
0.0000000001
 40
0.0
 40
0.0
 40
0.0
 40
0.0
 40
0.5027067385
 40
1.0
 40
1.0
 40
1.0
 40
1.0
 10
767.3216823473
 20
497.9725012414
 30
0.0
 10
767.4797089226
 20
497.8812406539
 30
0.0
 10
767.7663814851
 20
497.6355058271
 30
0.0
 10
767.8852272727
 20
497.2659205723
 30
0.0
 10
767.8852272727
 20
497.0854003708
 30
0.0
  0
SPLINE
  5
57D
100
AcDbEntity
  8
0
100
AcDbSpline
 62
7
  6
CONTINUOUS
 70
0
 71
3
 72
9
 73
5
 74
0
 42
0.0000001
 43
0.0000001
 44
0.0000000001
 40
0.0
 40
0.0
 40
0.0
 40
0.0
 40
0.2395104774
 40
1.0
 40
1.0
 40
1.0
 40
1.0
 10
767.6751570589
 20
489.1278182104
 30
0.0
 10
767.6939003668
 20
489.1163724535
 30
0.0
 10
767.7710802361
 20
489.0668298234
 30
0.0
 10
767.8443658528
 20
489.0113288521
 30
0.0
 10
767.8979359087
 20
488.9666873365
 30
0.0
  0
SPLINE
  5
57E
100
AcDbEntity
  8
0
100
AcDbSpline
 62
7
  6
CONTINUOUS
 70
0
 71
3
 72
8
 73
4
 74
0
 42
0.0000001
 43
0.0000001
 44
0.0000000001
 40
0.0
 40
0.0
 40
0.0
 40
0.0
 40
1.0
 40
1.0
 40
1.0
 40
1.0
 10
767.8979359087
 20
488.9666873365
 30
0.0
 10
767.9778968272
 20
488.9000535328
 30
0.0
 10
768.0534573053
 20
488.827599237
 30
0.0
 10
768.1224319525
 20
488.7496485452
 30
0.0
  0
SPLINE
  5
57F
100
AcDbEntity
  8
0
100
AcDbSpline
 62
7
  6
CONTINUOUS
 70
0
 71
3
 72
9
 73
5
 74
0
 42
0.0000001
 43
0.0000001
 44
0.0000000001
 40
0.0
 40
0.0
 40
0.0
 40
0.0
 40
0.2630369346
 40
1.0
 40
1.0
 40
1.0
 40
1.0
 10
768.1224319525
 20
488.7496485452
 30
0.0
 10
768.137637383
 20
488.7324643497
 30
0.0
 10
768.1941786482
 20
488.6660591863
 30
0.0
 10
768.2458040489
 20
488.5952109829
 30
0.0
 10
768.2787729597
 20
488.5400206029
 30
0.0
  0
SPLINE
  5
580
100
AcDbEntity
  8
0
100
AcDbSpline
 62
7
  6
CONTINUOUS
 70
0
 71
3
 72
15
 73
11
 74
0
 42
0.0000001
 43
0.0000001
 44
0.0000000001
 40
0.0
 40
0.0
 40
0.0
 40
0.0
 40
0.1288226384
 40
0.2705935792
 40
0.417907624
 40
0.5624137607
 40
0.6962251645
 40
0.8136105277
 40
0.9130736996
 40
1.0
 40
1.0
 40
1.0
 40
1.0
 10
773.1027475598
 20
470.6325280012
 30
0.0
 10
772.8622252329
 20
470.7714299967
 30
0.0
 10
772.3953036333
 20
471.13082897
 30
0.0
 10
771.7975760054
 20
471.8107211792
 30
0.0
 10
771.3056337217
 20
472.6109538308
 30
0.0
 10
770.9600065947
 20
473.4659210468
 30
0.0
 10
770.7883350764
 20
474.3075074182
 30
0.0
 10
770.806324101
 20
475.071387699
 30
0.0
 10
771.0205370594
 20
475.7056114008
 30
0.0
 10
771.3151842158
 20
476.0063711393
 30
0.0
 10
771.477487311
 20
476.1000907145
 30
0.0
  0
SPLINE
  5
581
100
AcDbEntity
  8
0
100
AcDbSpline
 62
7
  6
CONTINUOUS
 70
0
 71
3
 72
15
 73
11
 74
0
 42
0.0000001
 43
0.0000001
 44
0.0000000001
 40
0.0
 40
0.0
 40
0.0
 40
0.0
 40
0.1288226384
 40
0.2705935792
 40
0.417907624
 40
0.5624137607
 40
0.6962251645
 40
0.8136105277
 40
0.9130736996
 40
1.0
 40
1.0
 40
1.0
 40
1.0
 10
758.2535051548
 20
479.2079872024
 30
0.0
 10
758.0129828279
 20
479.3468891978
 30
0.0
 10
757.5460612283
 20
479.7062881712
 30
0.0
 10
756.9483336005
 20
480.3861803804
 30
0.0
 10
756.4563913168
 20
481.186413032
 30
0.0
 10
756.1107641898
 20
482.041380248
 30
0.0
 10
755.9390926715
 20
482.8829666194
 30
0.0
 10
755.9570816961
 20
483.6468469002
 30
0.0
 10
756.1712946545
 20
484.281070602
 30
0.0
 10
756.4659418108
 20
484.5818303405
 30
0.0
 10
756.6282449061
 20
484.6755499157
 30
0.0
  0
SPLINE
  5
582
100
AcDbEntity
  8
0
100
AcDbSpline
 62
9
  6
CONTINUOUS
 70
0
 71
3
 72
10
 73
6
 74
0
 42
0.0000001
 43
0.0000001
 44
0.0000000001
 40
0.0
 40
0.0
 40
0.0
 40
0.0
 40
0.3540156725
 40
0.6398327898
 40
1.0
 40
1.0
 40
1.0
 40
1.0
 10
764.6616544936
 20
485.0888907495
 30
0.0
 10
764.5874109126
 20
485.1317665261
 30
0.0
 10
764.4466432491
 20
485.2025942533
 30
0.0
 10
764.2267452905
 20
485.2820720164
 30
0.0
 10
764.0362050835
 20
485.2836903953
 30
0.0
 10
763.9759729269
 20
485.220601589
 30
0.0
  0
SPLINE
  5
583
100
AcDbEntity
  8
0
100
AcDbSpline
 62
9
  6
CONTINUOUS
 70
0
 71
3
 72
8
 73
4
 74
0
 42
0.0000001
 43
0.0000001
 44
0.0000000001
 40
0.0
 40
0.0
 40
0.0
 40
0.0
 40
1.0
 40
1.0
 40
1.0
 40
1.0
 10
770.1466775633
 20
481.3121405886
 30
0.0
 10
770.1877986749
 20
481.3137495051
 30
0.0
 10
770.2313058333
 20
481.3049677784
 30
0.0
 10
770.266997241
 20
481.2844822263
 30
0.0
  0
SPLINE
  5
584
100
AcDbEntity
  8
0
100
AcDbSpline
 62
7
  6
CONTINUOUS
 70
0
 71
3
 72
13
 73
9
 74
0
 42
0.0000001
 43
0.0000001
 44
0.0000000001
 40
0.0
 40
0.0
 40
0.0
 40
0.0
 40
0.0871432707
 40
0.1868452447
 40
0.3045481076
 40
0.4386917248
 40
0.730064824
 40
1.0
 40
1.0
 40
1.0
 40
1.0
 10
778.7495485969
 20
467.4919028452
 30
0.0
 10
778.7495247981
 20
467.549580793
 30
0.0
 10
778.7845879611
 20
467.674306238
 30
0.0
 10
778.9203101942
 20
467.8292150319
 30
0.0
 10
779.1212333563
 20
467.9515683788
 30
0.0
 10
779.4645434982
 20
468.0659119571
 30
0.0
 10
779.9321339645
 20
468.0897705116
 30
0.0
 10
780.3019353523
 20
467.9896054246
 30
0.0
 10
780.4566522183
 20
467.9002562082
 30
0.0
  0
SPLINE
  5
585
100
AcDbEntity
  8
7_ALL_ROUNDS
100
AcDbSpline
 62
9
  6
CONTINUOUS
 70
0
 71
3
 72
10
 73
6
 74
0
 42
0.0000001
 43
0.0000001
 44
0.0000000001
 40
0.0
 40
0.0
 40
0.0
 40
0.0
 40
0.5319148833
 40
0.7587784179
 40
1.0
 40
1.0
 40
1.0
 40
1.0
 10
765.7319736345
 20
497.9327505545
 30
0.0
 10
765.6313664977
 20
497.8714079724
 30
0.0
 10
765.4921386212
 20
497.7410961957
 30
0.0
 10
765.4780212368
 20
497.5100764974
 30
0.0
 10
765.5261698032
 20
497.4132843808
 30
0.0
 10
765.5580644283
 20
497.3704095605
 30
0.0
  0
SPLINE
  5
586
100
AcDbEntity
  8
7_ALL_ROUNDS
100
AcDbSpline
 62
9
  6
CONTINUOUS
 70
0
 71
3
 72
9
 73
5
 74
0
 42
0.0000001
 43
0.0000001
 44
0.0000000001
 40
0.0
 40
0.0
 40
0.0
 40
0.0
 40
0.2313137336
 40
1.0
 40
1.0
 40
1.0
 40
1.0
 10
765.5580644283
 20
497.3704095605
 30
0.0
 10
765.5696493205
 20
497.3548363984
 30
0.0
 10
765.6241459996
 20
497.2907970287
 30
0.0
 10
765.6929755605
 20
497.2399711768
 30
0.0
 10
765.7488311697
 20
497.2077144809
 30
0.0
  0
SPLINE
  5
587
100
AcDbEntity
  8
7_ALL_ROUNDS
100
AcDbSpline
 62
9
  6
CONTINUOUS
 70
0
 71
3
 72
12
 73
8
 74
0
 42
0.0000001
 43
0.0000001
 44
0.0000000001
 40
0.0
 40
0.0
 40
0.0
 40
0.0
 40
0.1090580887
 40
0.219122423
 40
0.4504330749
 40
0.7086734648
 40
1.0
 40
1.0
 40
1.0
 40
1.0
 10
740.5523381084
 20
473.046034061
 30
0.0
 10
740.4960592798
 20
473.5705344198
 30
0.0
 10
740.4793974882
 20
474.6374477887
 30
0.0
 10
740.8460344852
 20
476.7960012545
 30
0.0
 10
742.1057363214
 20
479.4728994311
 30
0.0
 10
744.6655053302
 20
482.3031700896
 30
0.0
 10
746.8632518014
 20
483.8356412905
 30
0.0
 10
748.0835218169
 20
484.5403490088
 30
0.0
  0
SPLINE
  5
588
100
AcDbEntity
  8
7_ALL_ROUNDS
100
AcDbSpline
 62
9
  6
CONTINUOUS
 70
0
 71
3
 72
13
 73
9
 74
0
 42
0.0000001
 43
0.0000001
 44
0.0000000001
 40
0.0
 40
0.0
 40
0.0
 40
0.0
 40
0.0963570557
 40
0.2000013992
 40
0.3124030456
 40
0.4340977502
 40
0.7033888976
 40
1.0
 40
1.0
 40
1.0
 40
1.0
 10
790.9452949164
 20
469.4146565634
 30
0.0
 10
790.6983264614
 20
470.1043889515
 30
0.0
 10
790.015543575
 20
471.4787394535
 30
0.0
 10
788.5488730146
 20
473.3628941751
 30
0.0
 10
786.6442581524
 20
475.101235282
 30
0.0
 10
783.4666932363
 20
477.2537845648
 30
0.0
 10
778.6230019853
 20
479.3394894272
 30
0.0
 10
774.3979153334
 20
480.2698136437
 30
0.0
 10
772.1635269785
 20
480.5752716491
 30
0.0
  0
SPLINE
  5
589
100
AcDbEntity
  8
7_ALL_ROUNDS
100
AcDbSpline
 62
9
  6
CONTINUOUS
 70
0
 71
3
 72
9
 73
5
 74
0
 42
0.0000001
 43
0.0000001
 44
0.0000000001
 40
0.0
 40
0.0
 40
0.0
 40
0.0
 40
0.2607286197
 40
1.0
 40
1.0
 40
1.0
 40
1.0
 10
754.0687597176
 20
479.0981222515
 30
0.0
 10
753.5794167458
 20
478.9388084825
 30
0.0
 10
751.7173213545
 20
478.2845835476
 30
0.0
 10
749.9146723985
 20
477.4524970275
 30
0.0
 10
748.6510798379
 20
476.7227704761
 30
0.0
  0
SPLINE
  5
58A
100
AcDbEntity
  8
7_ALL_ROUNDS
100
AcDbSpline
 62
9
  6
CONTINUOUS
 70
0
 71
3
 72
21
 73
17
 74
0
 42
0.0000001
 43
0.0000001
 44
0.0000000001
 40
0.0
 40
0.0
 40
0.0
 40
0.0
 40
0.0532585679
 40
0.101582759
 40
0.1469138644
 40
0.1920032475
 40
0.2396731196
 40
0.292032667
 40
0.3501586664
 40
0.414189022
 40
0.4835457419
 40
0.557142855
 40
0.7109311139
 40
0.8626480379
 40
0.9337997944
 40
1.0
 40
1.0
 40
1.0
 40
1.0
 10
740.9814485617
 20
483.6341632314
 30
0.0
 10
740.0594824078
 20
482.7890325098
 30
0.0
 10
738.4452141743
 20
481.0019527878
 30
0.0
 10
736.8109246244
 20
477.91598758
 30
0.0
 10
736.1891034941
 20
474.6619989105
 30
0.0
 10
736.6363338763
 20
471.3941783527
 30
0.0
 10
738.1111258758
 20
468.2717692794
 30
0.0
 10
740.5174178927
 20
465.4000308888
 30
0.0
 10
743.7557446949
 20
462.8503452327
 30
0.0
 10
747.7192132707
 20
460.6884639703
 30
0.0
 10
752.283114004
 20
458.9755012184
 30
0.0
 10
759.071229381
 20
457.3386803257
 30
0.0
 10
768.0211099557
 20
456.7107188683
 30
0.0
 10
776.862890868
 20
457.8937798369
 30
0.0
 10
783.3424253298
 20
459.9663286006
 30
0.0
 10
786.269982642
 20
461.3528452455
 30
0.0
 10
787.6162383771
 20
462.1303099011
 30
0.0
  0
SPLINE
  5
58B
100
AcDbEntity
  8
0
100
AcDbSpline
 62
9
  6
CONTINUOUS
 70
0
 71
3
 72
11
 73
7
 74
0
 42
0.0000001
 43
0.0000001
 44
0.0000000001
 40
0.0
 40
0.0
 40
0.0
 40
0.0
 40
0.2971127022
 40
0.5823235749
 40
0.8181427136
 40
1.0
 40
1.0
 40
1.0
 40
1.0
 10
767.3229743562
 20
489.0276847728
 30
0.0
 10
767.2824827033
 20
488.9793566576
 30
0.0
 10
767.2158901791
 20
488.8734037565
 30
0.0
 10
767.160416422
 20
488.7071041167
 30
0.0
 10
767.1589345429
 20
488.5537408408
 30
0.0
 10
767.2124183681
 20
488.4717069391
 30
0.0
 10
767.2458455943
 20
488.4524222613
 30
0.0
  0
SPLINE
  5
58C
100
AcDbEntity
  8
0
100
AcDbSpline
 62
7
  6
CONTINUOUS
 70
0
 71
3
 72
11
 73
7
 74
0
 42
0.0000001
 43
0.0000001
 44
0.0000000001
 40
0.0
 40
0.0
 40
0.0
 40
0.0
 40
0.1997835201
 40
0.4272440875
 40
0.6948948675
 40
1.0
 40
1.0
 40
1.0
 40
1.0
 10
768.1429468791
 20
473.6172308461
 30
0.0
 10
768.1429236599
 20
473.6735042673
 30
0.0
 10
768.1761214903
 20
473.7948791766
 30
0.0
 10
768.3056145287
 20
473.9471895698
 30
0.0
 10
768.4982646347
 20
474.0687275011
 30
0.0
 10
768.651546306
 20
474.122917408
 30
0.0
 10
768.734767437
 20
474.1443616181
 30
0.0
  0
SPLINE
  5
58D
100
AcDbEntity
  8
0
100
AcDbSpline
 62
9
  6
CONTINUOUS
 70
0
 71
3
 72
11
 73
7
 74
0
 42
0.0000001
 43
0.0000001
 44
0.0000000001
 40
0.0
 40
0.0
 40
0.0
 40
0.0
 40
0.2723719609
 40
0.5417722507
 40
0.7847534754
 40
1.0
 40
1.0
 40
1.0
 40
1.0
 10
768.2317016669
 20
488.1476242112
 30
0.0
 10
768.1875746902
 20
488.0983839482
 30
0.0
 10
768.0780992644
 20
488.0184563369
 30
0.0
 10
767.8896405474
 20
487.9689969733
 30
0.0
 10
767.7081793324
 20
487.9976945343
 30
0.0
 10
767.6194235589
 20
488.0783787875
 30
0.0
 10
767.5949844404
 20
488.1245633005
 30
0.0
  0
SPLINE
  5
58E
100
AcDbEntity
  8
7_ALL_ROUNDS
100
AcDbSpline
 62
7
  6
CONTINUOUS
 70
0
 71
3
 72
9
 73
5
 74
0
 42
0.0000001
 43
0.0000001
 44
0.0000000001
 40
0.0
 40
0.0
 40
0.0
 40
0.0
 40
0.2938868289
 40
1.0
 40
1.0
 40
1.0
 40
1.0
 10
785.3639732798
 20
468.2841742462
 30
0.0
 10
785.3726997139
 20
468.2791347177
 30
0.0
 10
785.4007999113
 20
468.2601765051
 30
0.0
 10
785.4225776177
 20
468.2267151027
 30
0.0
 10
785.4225776177
 20
468.2025032062
 30
0.0
  0
SPLINE
  5
58F
100
AcDbEntity
  8
7_ALL_ROUNDS
100
AcDbSpline
 62
7
  6
CONTINUOUS
 70
0
 71
3
 72
9
 73
5
 74
0
 42
0.0000001
 43
0.0000001
 44
0.0000000001
 40
0.0
 40
0.0
 40
0.0
 40
0.0
 40
0.2938868289
 40
1.0
 40
1.0
 40
1.0
 40
1.0
 10
783.6174195302
 20
471.4815954627
 30
0.0
 10
783.6261459644
 20
471.4765559342
 30
0.0
 10
783.6542461618
 20
471.4575977216
 30
0.0
 10
783.6760238681
 20
471.4241363192
 30
0.0
 10
783.6760238681
 20
471.3999244226
 30
0.0
  0
SPLINE
  5
590
100
AcDbEntity
  8
0
100
AcDbSpline
 62
7
  6
CONTINUOUS
 70
0
 71
3
 72
9
 73
5
 74
0
 42
0.0000001
 43
0.0000001
 44
0.0000000001
 40
0.0
 40
0.0
 40
0.0
 40
0.0
 40
0.5504841866
 40
1.0
 40
1.0
 40
1.0
 40
1.0
 10
780.4566522183
 20
467.9002562082
 30
0.0
 10
780.5393161452
 20
467.8525176696
 30
0.0
 10
780.6813292294
 20
467.7436246887
 30
0.0
 10
780.7495101142
 20
467.5698487771
 30
0.0
 10
780.7495422774
 20
467.4918991711
 30
0.0
  0
SPLINE
  5
591
100
AcDbEntity
  8
7_ALL_ROUNDS
100
AcDbSpline
 62
9
  6
CONTINUOUS
 70
0
 71
3
 72
13
 73
9
 74
0
 42
0.0000001
 43
0.0000001
 44
0.0000000001
 40
0.0
 40
0.0
 40
0.0
 40
0.0
 40
0.269990062
 40
0.561477523
 40
0.6956003855
 40
0.8132097734
 40
0.9128566785
 40
1.0
 40
1.0
 40
1.0
 40
1.0
 10
765.7488311697
 20
497.2077144809
 30
0.0
 10
765.8882067746
 20
497.1272248653
 30
0.0
 10
766.2214089484
 20
497.0371089044
 30
0.0
 10
766.6426491026
 20
497.0586155482
 30
0.0
 10
766.9517826032
 20
497.1619671517
 30
0.0
 10
767.1323842863
 20
497.2724772306
 30
0.0
 10
767.2545195241
 20
497.4120819607
 30
0.0
 10
767.2854252577
 20
497.5245934467
 30
0.0
 10
767.2852244265
 20
497.5765413057
 30
0.0
  0
SPLINE
  5
592
100
AcDbEntity
  8
7_ALL_ROUNDS
100
AcDbSpline
 62
9
  6
CONTINUOUS
 70
0
 71
3
 72
9
 73
5
 74
0
 42
0.0000001
 43
0.0000001
 44
0.0000000001
 40
0.0
 40
0.0
 40
0.0
 40
0.0
 40
0.240016372
 40
1.0
 40
1.0
 40
1.0
 40
1.0
 10
767.2852244265
 20
497.5765413057
 30
0.0
 10
767.285156896
 20
497.5940090468
 30
0.0
 10
767.2785138837
 20
497.6668013632
 30
0.0
 10
767.2454026207
 20
497.7356812165
 30
0.0
 10
767.2123901171
 20
497.7800587614
 30
0.0
  0
SPLINE
  5
593
100
AcDbEntity
  8
7_ALL_ROUNDS
100
AcDbSpline
 62
9
  6
CONTINUOUS
 70
0
 71
3
 72
9
 73
5
 74
0
 42
0.0000001
 43
0.0000001
 44
0.0000000001
 40
0.0
 40
0.0
 40
0.0
 40
0.0
 40
0.2313137336
 40
1.0
 40
1.0
 40
1.0
 40
1.0
 10
767.2123901171
 20
497.7800587614
 30
0.0
 10
767.200805225
 20
497.7956319235
 30
0.0
 10
767.1463085459
 20
497.8596712932
 30
0.0
 10
767.0774789849
 20
497.9104971451
 30
0.0
 10
767.0216233758
 20
497.942753841
 30
0.0
  0
SPLINE
  5
594
100
AcDbEntity
  8
0
100
AcDbSpline
 62
9
  6
CONTINUOUS
 70
0
 71
3
 72
8
 73
4
 74
0
 42
0.0000001
 43
0.0000001
 44
0.0000000001
 40
0.0
 40
0.0
 40
0.0
 40
0.0
 40
1.0
 40
1.0
 40
1.0
 40
1.0
 10
772.1165727704
 20
480.7724390882
 30
0.0
 10
772.0708451291
 20
480.721412681
 30
0.0
 10
772.0127964895
 20
480.6798445839
 30
0.0
 10
771.9505077558
 20
480.6512994429
 30
0.0
  0
SPLINE
  5
595
100
AcDbEntity
  8
0
100
AcDbSpline
 62
9
  6
CONTINUOUS
 70
0
 71
3
 72
8
 73
4
 74
0
 42
0.0000001
 43
0.0000001
 44
0.0000000001
 40
0.0
 40
0.0
 40
0.0
 40
0.0
 40
1.0
 40
1.0
 40
1.0
 40
1.0
 10
771.9505077558
 20
480.6512994429
 30
0.0
 10
771.8891742837
 20
480.623192071
 30
0.0
 10
771.8206189764
 20
480.606631756
 30
0.0
 10
771.7531522514
 20
480.6063864462
 30
0.0
  0
SPLINE
  5
596
100
AcDbEntity
  8
0
100
AcDbSpline
 62
9
  6
CONTINUOUS
 70
0
 71
3
 72
9
 73
5
 74
0
 42
0.0000001
 43
0.0000001
 44
0.0000000001
 40
0.0
 40
0.0
 40
0.0
 40
0.0
 40
0.5288368028
 40
1.0
 40
1.0
 40
1.0
 40
1.0
 10
771.7531522514
 20
480.6063864462
 30
0.0
 10
771.6966689842
 20
480.6061810724
 30
0.0
 10
771.5869075337
 20
480.626572999
 30
0.0
 10
771.5033927187
 20
480.7048981381
 30
0.0
 10
771.4798555439
 20
480.7493781776
 30
0.0
  0
SPLINE
  5
597
100
AcDbEntity
  8
0
100
AcDbSpline
 62
9
  6
CONTINUOUS
 70
0
 71
3
 72
9
 73
5
 74
0
 42
0.0000001
 43
0.0000001
 44
0.0000000001
 40
0.0
 40
0.0
 40
0.0
 40
0.0
 40
0.5805984498
 40
1.0
 40
1.0
 40
1.0
 40
1.0
 10
769.3887399477
 20
482.3082921752
 30
0.0
 10
769.435197839
 20
482.3601334513
 30
0.0
 10
769.5273429216
 20
482.4421842073
 30
0.0
 10
769.6647670279
 20
482.4528959521
 30
0.0
 10
769.7082699591
 20
482.4276752052
 30
0.0
  0
SPLINE
  5
598
100
AcDbEntity
  8
7_ALL_ROUNDS
100
AcDbSpline
 62
7
  6
CONTINUOUS
 70
0
 71
3
 72
9
 73
5
 74
0
 42
0.0000001
 43
0.0000001
 44
0.0000000001
 40
0.0
 40
0.0
 40
0.0
 40
0.0
 40
0.2209068391
 40
1.0
 40
1.0
 40
1.0
 40
1.0
 10
781.9466117313
 20
470.3055324865
 30
0.0
 10
781.9466117313
 20
470.297914668
 30
0.0
 10
781.9527801898
 20
470.2631942089
 30
0.0
 10
781.9819505339
 20
470.2372973271
 30
0.0
 10
782.0052160691
 20
470.2238614465
 30
0.0
  0
SPLINE
  5
599
100
AcDbEntity
  8
0
100
AcDbSpline
 62
9
  6
CONTINUOUS
 70
0
 71
3
 72
9
 73
5
 74
0
 42
0.0000001
 43
0.0000001
 44
0.0000000001
 40
0.0
 40
0.0
 40
0.0
 40
0.0
 40
0.5344725512
 40
1.0
 40
1.0
 40
1.0
 40
1.0
 10
769.2881456457
 20
482.4058598885
 30
0.0
 10
769.3326234123
 20
482.4554915896
 30
0.0
 10
769.3992948078
 20
482.5686002003
 30
0.0
 10
769.386327487
 20
482.7042974062
 30
0.0
 10
769.3591774472
 20
482.7556049592
 30
0.0
  0
SPLINE
  5
59A
100
AcDbEntity
  8
0
100
AcDbSpline
 62
7
  6
CONTINUOUS
 70
0
 71
3
 72
9
 73
5
 74
0
 42
0.0000001
 43
0.0000001
 44
0.0000000001
 40
0.0
 40
0.0
 40
0.0
 40
0.0
 40
0.4745213909
 40
1.0
 40
1.0
 40
1.0
 40
1.0
 10
765.6781263573
 20
473.0833808885
 30
0.0
 10
765.2383972725
 20
473.3373250779
 30
0.0
 10
764.4040104442
 20
474.0332590018
 30
0.0
 10
763.759641762
 20
474.8985985696
 30
0.0
 10
763.4729066704
 20
475.3823184195
 30
0.0
  0
SPLINE
  5
59B
100
AcDbEntity
  8
7_ALL_ROUNDS
100
AcDbSpline
 62
9
  6
CONTINUOUS
 70
0
 71
3
 72
18
 73
14
 74
0
 42
0.0000001
 43
0.0000001
 44
0.0000000001
 40
0.0
 40
0.0
 40
0.0
 40
0.0
 40
0.0432786493
 40
0.0891603032
 40
0.1385824175
 40
0.1920615586
 40
0.2497353571
 40
0.3114310438
 40
0.4448940519
 40
0.5873612123
 40
0.7320094883
 40
0.8716770688
 40
1.0
 40
1.0
 40
1.0
 40
1.0
 10
712.1662970552
 20
379.611755057
 30
0.0
 10
712.4579104779
 20
378.1521134931
 30
0.0
 10
713.4202861316
 20
375.2084243377
 30
0.0
 10
715.8414848697
 20
371.0687388921
 30
0.0
 10
719.206548652
 20
367.180416751
 30
0.0
 10
723.4442800548
 20
363.6093570252
 30
0.0
 10
728.4746452441
 20
360.4121994952
 30
0.0
 10
736.3194928473
 20
356.6242639287
 30
0.0
 10
747.5063471573
 20
353.2400821901
 30
0.0
 10
761.9148666883
 20
351.4235919859
 30
0.0
 10
776.6489267198
 20
351.8750047882
 30
0.0
 10
790.6442941725
 20
354.5586518283
 30
0.0
 10
799.314040543
 20
357.9027921138
 30
0.0
 10
803.2167630504
 20
359.9636295312
 30
0.0
  0
SPLINE
  5
59C
100
AcDbEntity
  8
0
100
AcDbSpline
 62
7
  6
CONTINUOUS
 70
0
 71
3
 72
12
 73
8
 74
0
 42
0.0000001
 43
0.0000001
 44
0.0000000001
 40
0.0
 40
0.0
 40
0.0
 40
0.0
 40
0.2711142672
 40
0.5637600996
 40
0.6984896632
 40
0.8167066585
 40
1.0
 40
1.0
 40
1.0
 40
1.0
 10
765.925607865
 20
497.3098032809
 30
0.0
 10
766.0261738279
 20
497.2517262903
 30
0.0
 10
766.2665885308
 20
497.1867968715
 30
0.0
 10
766.5703509085
 20
497.2016087237
 30
0.0
 10
766.7938215979
 20
497.2772279963
 30
0.0
 10
766.9542121386
 20
497.3715585624
 30
0.0
 10
767.0352576147
 20
497.496719691
 30
0.0
 10
767.0352252189
 20
497.5752329669
 30
0.0
  0
SPLINE
  5
59D
100
AcDbEntity
  8
7_ALL_ROUNDS
100
AcDbSpline
 62
9
  6
CONTINUOUS
 70
0
 71
3
 72
13
 73
9
 74
0
 42
0.0000001
 43
0.0000001
 44
0.0000000001
 40
0.0
 40
0.0
 40
0.0
 40
0.0
 40
0.2698775469
 40
0.5612858787
 40
0.6954224992
 40
0.8131090801
 40
0.9128357938
 40
1.0
 40
1.0
 40
1.0
 40
1.0
 10
765.3245671009
 20
496.4728675707
 30
0.0
 10
765.5566010939
 20
496.3388676013
 30
0.0
 10
766.1112963075
 20
496.188662301
 30
0.0
 10
766.8126692743
 20
496.2242352292
 30
0.0
 10
767.3277067926
 20
496.3958335741
 30
0.0
 10
767.6289140194
 20
496.579474441
 30
0.0
 10
767.8330525142
 20
496.8115853483
 30
0.0
 10
767.8851095827
 20
496.9988596203
 30
0.0
 10
767.8851733609
 20
497.085400384
 30
0.0
  0
SPLINE
  5
59E
100
AcDbEntity
  8
0
100
AcDbSpline
 62
7
  6
CONTINUOUS
 70
0
 71
3
 72
12
 73
8
 74
0
 42
0.0000001
 43
0.0000001
 44
0.0000000001
 40
0.0
 40
0.0
 40
0.0
 40
0.0
 40
0.2711309869
 40
0.5637880174
 40
0.698566236
 40
0.8167112834
 40
1.0
 40
1.0
 40
1.0
 40
1.0
 10
765.925607865
 20
512.4130118121
 30
0.0
 10
766.0261744752
 20
512.3549344477
 30
0.0
 10
766.2665873713
 20
512.2899671559
 30
0.0
 10
766.5703465228
 20
512.3048590963
 30
0.0
 10
766.7938351898
 20
512.3804151627
 30
0.0
 10
766.9540963625
 20
512.4749120658
 30
0.0
 10
767.035171104
 20
512.5999355938
 30
0.0
 10
767.0352009858
 20
512.6784425534
 30
0.0
  0
SPLINE
  5
59F
100
AcDbEntity
  8
0
100
AcDbSpline
 62
9
  6
CONTINUOUS
 70
0
 71
3
 72
9
 73
5
 74
0
 42
0.0000001
 43
0.0000001
 44
0.0000000001
 40
0.0
 40
0.0
 40
0.0
 40
0.0
 40
0.5507201556
 40
1.0
 40
1.0
 40
1.0
 40
1.0
 10
765.3245671009
 20
486.6069439414
 30
0.0
 10
765.2005094854
 20
486.6785873958
 30
0.0
 10
764.9873980431
 20
486.8418420056
 30
0.0
 10
764.8851630677
 20
487.1026056416
 30
0.0
 10
764.8852272727
 20
487.2194767415
 30
0.0
  0
SPLINE
  5
5A0
100
AcDbEntity
  8
7_ALL_ROUNDS
100
AcDbSpline
 62
9
  6
CONTINUOUS
 70
0
 71
3
 72
12
 73
8
 74
0
 42
0.0000001
 43
0.0000001
 44
0.0000000001
 40
0.0
 40
0.0
 40
0.0
 40
0.0
 40
0.2887367315
 40
0.5479794619
 40
0.781671858
 40
0.8920255037
 40
1.0
 40
1.0
 40
1.0
 40
1.0
 10
804.9780700223
 20
360.9362768204
 30
0.0
 10
807.3026355305
 20
362.2787168004
 30
0.0
 10
811.5312199956
 20
365.1774686971
 30
0.0
 10
816.6322651509
 20
370.4309653243
 30
0.0
 10
819.4554102604
 20
375.3721678292
 30
0.0
 10
820.6480084709
 20
379.4176944173
 30
0.0
 10
820.9041691317
 20
381.4421903971
 30
0.0
 10
820.9470492427
 20
382.4451008315
 30
0.0
  0
SPLINE
  5
5A1
100
AcDbEntity
  8
0
100
AcDbSpline
 62
7
  6
CONTINUOUS
 70
0
 71
3
 72
9
 73
5
 74
0
 42
0.0000001
 43
0.0000001
 44
0.0000000001
 40
0.0
 40
0.0
 40
0.0
 40
0.0
 40
0.4500476786
 40
1.0
 40
1.0
 40
1.0
 40
1.0
 10
765.7352535596
 20
512.6784428309
 30
0.0
 10
765.735234256
 20
512.627727468
 30
0.0
 10
765.7798557983
 20
512.5148961176
 30
0.0
 10
765.8719407462
 20
512.4440046517
 30
0.0
 10
765.925607865
 20
512.4130118121
 30
0.0
  0
SPLINE
  5
5A2
100
AcDbEntity
  8
0
100
AcDbSpline
 62
7
  6
CONTINUOUS
 70
0
 71
3
 72
9
 73
5
 74
0
 42
0.0000001
 43
0.0000001
 44
0.0000000001
 40
0.0
 40
0.0
 40
0.0
 40
0.0
 40
0.4495158134
 40
1.0
 40
1.0
 40
1.0
 40
1.0
 10
765.7352293266
 20
497.5752353551
 30
0.0
 10
765.7352502327
 20
497.5245681112
 30
0.0
 10
765.7795678077
 20
497.4116137686
 30
0.0
 10
765.8718763125
 20
497.340833331
 30
0.0
 10
765.925607865
 20
497.3098032809
 30
0.0
  0
SPLINE
  5
5A3
100
AcDbEntity
  8
0
100
AcDbSpline
 62
7
  6
CONTINUOUS
 70
0
 71
3
 72
12
 73
8
 74
0
 42
0.0000001
 43
0.0000001
 44
0.0000000001
 40
0.0
 40
0.0
 40
0.0
 40
0.0
 40
0.2887356896
 40
0.5479803281
 40
0.781671443
 40
0.8920256043
 40
1.0
 40
1.0
 40
1.0
 40
1.0
 10
805.2761061037
 20
370.6178195275
 30
0.0
 10
807.6186155191
 20
371.97062214
 30
0.0
 10
811.8798345492
 20
374.8917842838
 30
0.0
 10
817.0203789734
 20
380.1857862344
 30
0.0
 10
819.8651555153
 20
385.1652264999
 30
0.0
 10
821.0671555343
 20
389.241942545
 30
0.0
 10
821.3251489928
 20
391.2820941038
 30
0.0
 10
821.3684048667
 20
392.2927470526
 30
0.0
  0
SPLINE
  5
5A4
100
AcDbEntity
  8
0
100
AcDbSpline
 62
7
  6
CONTINUOUS
 70
0
 71
3
 72
14
 73
10
 74
0
 42
0.0000001
 43
0.0000001
 44
0.0000000001
 40
0.0
 40
0.0
 40
0.0
 40
0.0
 40
0.2905128762
 40
0.4236975064
 40
0.5492263747
 40
0.6680089304
 40
0.7814456121
 40
0.8913831809
 40
1.0
 40
1.0
 40
1.0
 40
1.0
 10
803.7625094653
 20
375.2394967432
 30
0.0
 10
806.2063564934
 20
376.6508219753
 30
0.0
 10
809.6176154949
 20
379.0206031403
 30
0.0
 10
813.4215573572
 20
382.7767070434
 30
0.0
 10
815.6920046852
 20
385.6708318284
 30
0.0
 10
817.4338335985
 20
388.6929845258
 30
0.0
 10
818.6244646807
 20
391.8126611422
 30
0.0
 10
819.2459256176
 20
394.9935288424
 30
0.0
 10
819.2735089448
 20
397.1300480724
 30
0.0
 10
819.1924200748
 20
398.1820515498
 30
0.0
  0
SPLINE
  5
5A5
100
AcDbEntity
  8
7_ALL_ROUNDS
100
AcDbSpline
 62
9
  6
CONTINUOUS
 70
0
 71
3
 72
16
 73
12
 74
0
 42
0.0000001
 43
0.0000001
 44
0.0000000001
 40
0.0
 40
0.0
 40
0.0
 40
0.0
 40
0.1496371261
 40
0.2194280566
 40
0.2859023272
 40
0.4096969806
 40
0.5243662567
 40
0.6350122378
 40
0.7477385795
 40
0.8681169476
 40
1.0
 40
1.0
 40
1.0
 40
1.0
 10
787.6162383771
 20
462.1303099011
 30
0.0
 10
788.7559802864
 20
462.7885125202
 30
0.0
 10
790.3659458295
 20
463.8725994757
 30
0.0
 10
792.2491484162
 20
465.5439585203
 30
0.0
 10
793.8083517737
 20
467.2212025021
 30
0.0
 10
795.3242971176
 20
469.4645524872
 30
0.0
 10
796.3592919739
 20
472.3962093409
 30
0.0
 10
796.50658326
 20
475.4099899177
 30
0.0
 10
795.7545562846
 20
478.3811574152
 30
0.0
 10
794.1543433834
 20
481.2006835807
 30
0.0
 10
792.6441207889
 20
482.850370322
 30
0.0
 10
791.7889863942
 20
483.6341561037
 30
0.0
  0
SPLINE
  5
5A6
100
AcDbEntity
  8
0
100
AcDbSpline
 62
7
  6
CONTINUOUS
 70
0
 71
3
 72
14
 73
10
 74
0
 42
0.0000001
 43
0.0000001
 44
0.0000000001
 40
0.0
 40
0.0
 40
0.0
 40
0.0
 40
0.2928099636
 40
0.4241158084
 40
0.5464781134
 40
0.662009339
 40
0.7737171939
 40
0.8851760021
 40
1.0
 40
1.0
 40
1.0
 40
1.0
 10
791.0999663364
 20
454.7808975165
 30
0.0
 10
793.0861349382
 20
455.9279127882
 30
0.0
 10
795.8209436252
 20
457.9021561832
 30
0.0
 10
798.6453156865
 20
461.1397709908
 30
0.0
 10
800.1531169488
 20
463.6273080112
 30
0.0
 10
801.0918579841
 20
466.2208563981
 30
0.0
 10
801.4356919987
 20
468.8742555578
 30
0.0
 10
801.1735556528
 20
471.5305275971
 30
0.0
 10
800.6129850125
 20
473.2282375249
 30
0.0
 10
800.249081381
 20
474.0507481515
 30
0.0
  0
SPLINE
  5
5A7
100
AcDbEntity
  8
7_ALL_ROUNDS
100
AcDbSpline
 62
9
  6
CONTINUOUS
 70
0
 71
3
 72
10
 73
6
 74
0
 42
0.0000001
 43
0.0000001
 44
0.0000000001
 40
0.0
 40
0.0
 40
0.0
 40
0.0
 40
0.2290806183
 40
0.4751792856
 40
1.0
 40
1.0
 40
1.0
 40
1.0
 10
747.3791057905
 20
485.692386898
 30
0.0
 10
748.5726768077
 20
486.3816759056
 30
0.0
 10
751.1667868953
 20
487.6125508501
 30
0.0
 10
756.9039453022
 20
489.4596913507
 30
0.0
 10
761.5491297194
 20
490.0943074507
 30
0.0
 10
764.7047511058
 20
490.2084255132
 30
0.0
  0
SPLINE
  5
5A8
100
AcDbEntity
  8
7_ALL_ROUNDS
100
AcDbSpline
 62
9
  6
CONTINUOUS
 70
0
 71
3
 72
19
 73
15
 74
0
 42
0.0000001
 43
0.0000001
 44
0.0000000001
 40
0.0
 40
0.0
 40
0.0
 40
0.0
 40
0.1636173193
 40
0.3168344566
 40
0.452941949
 40
0.513675912
 40
0.5696000145
 40
0.6214440368
 40
0.670491274
 40
0.7184930215
 40
0.7673979607
 40
0.818984721
 40
0.8745715482
 40
1.0
 40
1.0
 40
1.0
 40
1.0
 10
767.8868936111
 20
490.214574256
 30
0.0
 10
770.4190342646
 20
490.1327136767
 30
0.0
 10
775.3216742807
 20
489.5756527108
 30
0.0
 10
782.0800953141
 20
487.573077938
 30
0.0
 10
786.8993876269
 20
484.9579276033
 30
0.0
 10
789.8651260385
 20
482.3812875053
 30
0.0
 10
791.5294349244
 20
480.353013318
 30
0.0
 10
792.6780979051
 20
478.1927634505
 30
0.0
 10
793.2754376657
 20
475.9427985889
 30
0.0
 10
793.2969225562
 20
473.6587391856
 30
0.0
 10
792.7416978263
 20
471.4042562978
 30
0.0
 10
791.6325343853
 20
469.235421594
 30
0.0
 10
789.374275688
 20
466.4064261439
 30
0.0
 10
787.0731847479
 20
464.7115237503
 30
0.0
 10
785.3913487549
 20
463.7402610051
 30
0.0
  0
SPLINE
  5
5A9
100
AcDbEntity
  8
7_ALL_ROUNDS
100
AcDbSpline
 62
9
  6
CONTINUOUS
 70
0
 71
3
 72
23
 73
19
 74
0
 42
0.0000001
 43
0.0000001
 44
0.0000000001
 40
0.0
 40
0.0
 40
0.0
 40
0.0
 40
0.0671356936
 40
0.1393742177
 40
0.2152324413
 40
0.2928982466
 40
0.3704226844
 40
0.4458663207
 40
0.5174556101
 40
0.5837517146
 40
0.6438514918
 40
0.6976406341
 40
0.7460882237
 40
0.7914299506
 40
0.8368523012
 40
0.885515569
 40
0.9395916852
 40
1.0
 40
1.0
 40
1.0
 40
1.0
 10
785.0329281072
 20
463.5371180543
 30
0.0
 10
783.7170724735
 20
462.8051759259
 30
0.0
 10
780.8524428288
 20
461.5186372925
 30
0.0
 10
776.206706307
 20
460.1629860285
 30
0.0
 10
771.1975286631
 20
459.3458197691
 30
0.0
 10
766.0106651786
 20
459.0981385222
 30
0.0
 10
760.8375782826
 20
459.4287071464
 30
0.0
 10
755.8696477284
 20
460.3254821079
 30
0.0
 10
751.2894434461
 20
461.755786732
 30
0.0
 10
747.2633295626
 20
463.6692314871
 30
0.0
 10
743.935638314
 20
466.002805206
 30
0.0
 10
741.4284175256
 20
468.6879860711
 30
0.0
 10
739.8536030024
 20
471.653172662
 30
0.0
 10
739.3266835338
 20
474.7922843308
 30
0.0
 10
739.9060404537
 20
477.9266294214
 30
0.0
 10
741.5283942213
 20
480.8803112502
 30
0.0
 10
744.0765353892
 20
483.5499018473
 30
0.0
 10
746.2058523887
 20
485.0148313429
 30
0.0
 10
747.3791057905
 20
485.692386898
 30
0.0
  0
SPLINE
  5
5AA
100
AcDbEntity
  8
7_ALL_ROUNDS
100
AcDbSpline
 62
9
  6
CONTINUOUS
 70
0
 71
3
 72
16
 73
12
 74
0
 42
0.0000001
 43
0.0000001
 44
0.0000000001
 40
0.0
 40
0.0
 40
0.0
 40
0.0
 40
0.1500368892
 40
0.2201117234
 40
0.2869166618
 40
0.4114562871
 40
0.5267933225
 40
0.6377503344
 40
0.7501959063
 40
0.8696289059
 40
1.0
 40
1.0
 40
1.0
 40
1.0
 10
787.0515177923
 20
462.7815109586
 30
0.0
 10
788.1413378726
 20
463.4108836485
 30
0.0
 10
789.6823445893
 20
464.445883807
 30
0.0
 10
791.4911383212
 20
466.0378450527
 30
0.0
 10
792.9960724869
 20
467.6359967757
 30
0.0
 10
794.4713951864
 20
469.7714210429
 30
0.0
 10
795.5115423405
 20
472.5613478327
 30
0.0
 10
795.7238181483
 20
475.435201306
 30
0.0
 10
795.0927678635
 20
478.2803415815
 30
0.0
 10
793.6602081006
 20
480.9941049513
 30
0.0
 10
792.2795938667
 20
482.5929571884
 30
0.0
 10
791.4944511801
 20
483.3541321154
 30
0.0
  0
SPLINE
  5
5AB
100
AcDbEntity
  8
7_ALL_ROUNDS
100
AcDbSpline
 62
9
  6
CONTINUOUS
 70
0
 71
3
 72
11
 73
7
 74
0
 42
0.0000001
 43
0.0000001
 44
0.0000000001
 40
0.0
 40
0.0
 40
0.0
 40
0.0
 40
0.214615271
 40
0.4571748904
 40
0.7220026014
 40
1.0
 40
1.0
 40
1.0
 40
1.0
 10
791.4944511801
 20
483.3541321154
 30
0.0
 10
790.1851709447
 20
484.6234444385
 30
0.0
 10
786.994580325
 20
486.9190819944
 30
0.0
 10
781.3527174689
 20
489.4057659033
 30
0.0
 10
774.8554377397
 20
491.0439259034
 30
0.0
 10
770.2475141418
 20
491.5022610355
 30
0.0
 10
767.8864468278
 20
491.5724163761
 30
0.0
  0
SPLINE
  5
5AC
100
AcDbEntity
  8
7_ALL_ROUNDS
100
AcDbSpline
 62
9
  6
CONTINUOUS
 70
0
 71
3
 72
10
 73
6
 74
0
 42
0.0000001
 43
0.0000001
 44
0.0000000001
 40
0.0
 40
0.0
 40
0.0
 40
0.0
 40
0.5248630256
 40
0.7710327642
 40
1.0
 40
1.0
 40
1.0
 40
1.0
 10
764.8801561514
 20
491.5722695195
 30
0.0
 10
761.3917247884
 20
491.468409262
 30
0.0
 10
756.2525825379
 20
490.7921391137
 30
0.0
 10
749.9060136333
 20
488.7692671129
 30
0.0
 10
747.0373517642
 20
487.4125235412
 30
0.0
 10
745.7189367532
 20
486.6511369445
 30
0.0
  0
SPLINE
  5
5AD
100
AcDbEntity
  8
7_ALL_ROUNDS
100
AcDbSpline
 62
9
  6
CONTINUOUS
 70
0
 71
3
 72
9
 73
5
 74
0
 42
0.0000001
 43
0.0000001
 44
0.0000000001
 40
0.0
 40
0.0
 40
0.0
 40
0.0
 40
0.2622639214
 40
1.0
 40
1.0
 40
1.0
 40
1.0
 10
745.3743268523
 20
486.4487363054
 30
0.0
 10
744.984080225
 20
486.2156317634
 30
0.0
 10
743.519291493
 20
485.28941582
 30
0.0
 10
742.1494471332
 20
484.2064644242
 30
0.0
 10
741.2342305564
 20
483.3135019474
 30
0.0
  0
SPLINE
  5
5AE
100
AcDbEntity
  8
7_ALL_ROUNDS
100
AcDbSpline
 62
9
  6
CONTINUOUS
 70
0
 71
3
 72
20
 73
16
 74
0
 42
0.0000001
 43
0.0000001
 44
0.0000000001
 40
0.0
 40
0.0
 40
0.0
 40
0.0
 40
0.0533567357
 40
0.1023735729
 40
0.1485269816
 40
0.1938880186
 40
0.2407098866
 40
0.2909149989
 40
0.3457717117
 40
0.4058469901
 40
0.4711103682
 40
0.5410702238
 40
0.6913247447
 40
0.8477795046
 40
1.0
 40
1.0
 40
1.0
 40
1.0
 10
741.2342305564
 20
483.3135019474
 30
0.0
 10
740.4786593362
 20
482.5763029441
 30
0.0
 10
739.1458712928
 20
481.0307969566
 30
0.0
 10
737.7405477579
 20
478.4196498538
 30
0.0
 10
737.0780333655
 20
475.6841440229
 30
0.0
 10
737.196886762
 20
472.9135699947
 30
0.0
 10
738.0894116264
 20
470.2075037791
 30
0.0
 10
739.7088761697
 20
467.6462115161
 30
0.0
 10
741.9961075261
 20
465.2866778376
 30
0.0
 10
744.8875964085
 20
463.176973418
 30
0.0
 10
748.3114624722
 20
461.3618439563
 30
0.0
 10
753.5986461472
 20
459.3438540373
 30
0.0
 10
760.9568171231
 20
457.8510634926
 30
0.0
 10
770.0774978671
 20
457.694443515
 30
0.0
 10
776.1482632845
 20
458.6992838208
 30
0.0
 10
779.0500726226
 20
459.5049701387
 30
0.0
  0
SPLINE
  5
5AF
100
AcDbEntity
  8
7_ALL_ROUNDS
100
AcDbSpline
 62
9
  6
CONTINUOUS
 70
0
 71
3
 72
9
 73
5
 74
0
 42
0.0000001
 43
0.0000001
 44
0.0000000001
 40
0.0
 40
0.0
 40
0.0
 40
0.0
 40
0.2623926526
 40
1.0
 40
1.0
 40
1.0
 40
1.0
 10
779.2383713754
 20
459.5577321357
 30
0.0
 10
779.9507161758
 20
459.7591597672
 30
0.0
 10
782.6434080698
 20
460.5998468457
 30
0.0
 10
785.2494576043
 20
461.7408185651
 30
0.0
 10
787.0515177923
 20
462.7815109586
 30
0.0
  0
SPLINE
  5
5B0
100
AcDbEntity
  8
0
100
AcDbSpline
 62
7
  6
CONTINUOUS
 70
0
 71
3
 72
9
 73
5
 74
0
 42
0.0000001
 43
0.0000001
 44
0.0000000001
 40
0.0
 40
0.0
 40
0.0
 40
0.0
 40
0.2322756295
 40
1.0
 40
1.0
 40
1.0
 40
1.0
 10
767.445887836
 20
489.1253609438
 30
0.0
 10
767.4352603581
 20
489.1192235721
 30
0.0
 10
767.3904766723
 20
489.0911398674
 30
0.0
 10
767.3491834314
 20
489.0576258615
 30
0.0
 10
767.3196999563
 20
489.0297676994
 30
0.0
  0
SPLINE
  5
5B1
100
AcDbEntity
  8
0
100
AcDbSpline
 62
9
  6
CONTINUOUS
 70
0
 71
3
 72
8
 73
4
 74
0
 42
0.0000001
 43
0.0000001
 44
0.0000000001
 40
0.0
 40
0.0
 40
0.0
 40
0.0
 40
1.0
 40
1.0
 40
1.0
 40
1.0
 10
764.7665573157
 20
489.7579841007
 30
0.0
 10
764.7912988177
 20
489.71122815
 30
0.0
 10
764.8342769805
 20
489.6720802648
 30
0.0
 10
764.8818351623
 20
489.6489182226
 30
0.0
  0
SPLINE
  5
5B2
100
AcDbEntity
  8
0
100
AcDbSpline
 62
7
  6
CONTINUOUS
 70
0
 71
3
 72
20
 73
16
 74
0
 42
0.0000001
 43
0.0000001
 44
0.0000000001
 40
0.0
 40
0.0
 40
0.0
 40
0.0
 40
0.0621871904
 40
0.128280188
 40
0.2691550543
 40
0.4156790965
 40
0.5596946009
 40
0.6283720069
 40
0.6936567104
 40
0.7549121133
 40
0.8117450367
 40
0.8640843745
 40
0.9122701889
 40
0.9571321318
 40
1.0
 40
1.0
 40
1.0
 40
1.0
 10
805.2761061037
 20
370.6178195275
 30
0.0
 10
803.3214337699
 20
369.4889933966
 30
0.0
 10
799.1352377516
 20
367.4205549649
 30
0.0
 10
789.9420612209
 20
364.0723950253
 30
0.0
 10
777.2897908105
 20
361.5008411068
 30
0.0
 10
761.5746477213
 20
360.9990978961
 30
0.0
 10
748.5785465836
 20
362.7400870925
 30
0.0
 10
738.8466376413
 20
365.4541112124
 30
0.0
 10
732.2339858921
 20
368.0375921411
 30
0.0
 10
726.3313009947
 20
371.1473854335
 30
0.0
 10
721.2592525308
 20
374.7236935462
 30
0.0
 10
717.123311985
 20
378.6998991621
 30
0.0
 10
714.0152128739
 20
383.0067878573
 30
0.0
 10
712.0178106442
 20
387.5618690065
 30
0.0
 10
711.4684901097
 20
390.7381920929
 30
0.0
 10
711.4020054904
 20
392.2927464218
 30
0.0
  0
SPLINE
  5
5B3
100
AcDbEntity
  8
0
100
AcDbSpline
 62
7
  6
CONTINUOUS
 70
0
 71
3
 72
20
 73
16
 74
0
 42
0.0000001
 43
0.0000001
 44
0.0000000001
 40
0.0
 40
0.0
 40
0.0
 40
0.0
 40
0.062833063
 40
0.1297064885
 40
0.2722997112
 40
0.4202720131
 40
0.5648845823
 40
0.6334138294
 40
0.6982200696
 40
0.7586881294
 40
0.814495368
 40
0.8657054462
 40
0.9128692958
 40
0.9570947595
 40
1.0
 40
1.0
 40
1.0
 40
1.0
 10
803.7625094653
 20
375.2394967432
 30
0.0
 10
801.8263411049
 20
374.121356684
 30
0.0
 10
797.6721074436
 20
372.0788081237
 30
0.0
 10
788.5379339818
 20
368.8012853535
 30
0.0
 10
775.9715773547
 20
366.3541617224
 30
0.0
 10
760.4226823687
 20
366.0473961927
 30
0.0
 10
747.6403893286
 20
367.9866196132
 30
0.0
 10
738.1664789331
 20
370.877877885
 30
0.0
 10
731.8077175684
 20
373.5854403368
 30
0.0
 10
726.2095356532
 20
376.8118341672
 30
0.0
 10
721.4931704254
 20
380.4925928763
 30
0.0
 10
717.7639466861
 20
384.5570016133
 30
0.0
 10
715.1147361103
 20
388.931106657
 30
0.0
 10
713.6301895035
 20
393.5221580351
 30
0.0
 10
713.4607969083
 20
396.659828864
 30
0.0
 10
713.5780756572
 20
398.1820504916
 30
0.0
  0
SPLINE
  5
5B4
100
AcDbEntity
  8
0
100
AcDbSpline
 62
9
  6
CONTINUOUS
 70
0
 71
3
 72
11
 73
7
 74
0
 42
0.0000001
 43
0.0000001
 44
0.0000000001
 40
0.0
 40
0.0
 40
0.0
 40
0.0
 40
0.2152465246
 40
0.4582277493
 40
0.7276280391
 40
1.0
 40
1.0
 40
1.0
 40
1.0
 10
768.6514284192
 20
482.3827989778
 30
0.0
 10
768.6758675377
 20
482.3366144647
 30
0.0
 10
768.7646233111
 20
482.2559302116
 30
0.0
 10
768.9460845262
 20
482.2272326505
 30
0.0
 10
769.1345432431
 20
482.2766920141
 30
0.0
 10
769.2440186689
 20
482.3566196255
 30
0.0
 10
769.2881456457
 20
482.4058598885
 30
0.0
  0
SPLINE
  5
5B5
100
AcDbEntity
  8
0
100
AcDbSpline
 62
7
  6
CONTINUOUS
 70
0
 71
3
 72
11
 73
7
 74
0
 42
0.0000001
 43
0.0000001
 44
0.0000000001
 40
0.0
 40
0.0
 40
0.0
 40
0.0
 40
0.2177531772
 40
0.4508716566
 40
0.7103413564
 40
1.0
 40
1.0
 40
1.0
 40
1.0
 10
767.9285369983
 20
472.8603298621
 30
0.0
 10
767.7800615308
 20
472.774668626
 30
0.0
 10
767.4390614469
 20
472.6506363367
 30
0.0
 10
766.8723499577
 20
472.6364423781
 30
0.0
 10
766.2685094993
 20
472.7824458277
 30
0.0
 10
765.8755825988
 20
472.9693496203
 30
0.0
 10
765.6781263573
 20
473.0833808885
 30
0.0
  0
SPLINE
  5
5B6
100
AcDbEntity
  8
0
100
AcDbSpline
 62
7
  6
CONTINUOUS
 70
0
 71
3
 72
19
 73
15
 74
0
 42
0.0000001
 43
0.0000001
 44
0.0000000001
 40
0.0
 40
0.0
 40
0.0
 40
0.0
 40
0.133308189
 40
0.2805105385
 40
0.4320512195
 40
0.5774072884
 40
0.6449101997
 40
0.7077214346
 40
0.765379293
 40
0.8179101396
 40
0.8659712462
 40
0.9109475905
 40
0.9548644753
 40
1.0
 40
1.0
 40
1.0
 40
1.0
 10
791.0999663364
 20
454.7808975165
 30
0.0
 10
788.2220431517
 20
453.1188926693
 30
0.0
 10
781.6438053709
 20
450.5115623907
 30
0.0
 10
770.9662808635
 20
448.6972169128
 30
0.0
 10
759.8356512069
 20
448.8767654615
 30
0.0
 10
750.8693622585
 20
450.7225308427
 30
0.0
 10
744.4526254975
 20
453.2239366441
 30
0.0
 10
740.32359966
 20
455.4709538822
 30
0.0
 10
736.8660534688
 20
458.0800773418
 30
0.0
 10
734.1700657015
 20
460.9946199288
 30
0.0
 10
732.3158180325
 20
464.1531342724
 30
0.0
 10
731.3789739853
 20
467.4809545449
 30
0.0
 10
731.4135961905
 20
470.8667996517
 30
0.0
 10
732.0660986911
 20
473.0217398978
 30
0.0
 10
732.5213638687
 20
474.0507495231
 30
0.0
  0
SPLINE
  5
5B7
100
AcDbEntity
  8
0
100
AcDbSpline
 62
7
  6
CONTINUOUS
 70
0
 71
3
 72
11
 73
7
 74
0
 42
0.0000001
 43
0.0000001
 44
0.0000000001
 40
0.0
 40
0.0
 40
0.0
 40
0.0
 40
0.2918136628
 40
0.5650614054
 40
0.7975545477
 40
1.0
 40
1.0
 40
1.0
 40
1.0
 10
767.3196999563
 20
489.0297676994
 30
0.0
 10
767.2733506075
 20
488.9860370773
 30
0.0
 10
767.1928261043
 20
488.8907530023
 30
0.0
 10
767.1197692637
 20
488.7289598974
 30
0.0
 10
767.1230630768
 20
488.5662109174
 30
0.0
 10
767.1885222086
 20
488.4855195552
 30
0.0
 10
767.2267979496
 20
488.4633994543
 30
0.0
  0
SPLINE
  5
5B8
100
AcDbEntity
  8
0
100
AcDbSpline
 62
9
  6
CONTINUOUS
 70
0
 71
3
 72
11
 73
7
 74
0
 42
0.0000001
 43
0.0000001
 44
0.0000000001
 40
0.0
 40
0.0
 40
0.0
 40
0.0
 40
0.1817953125
 40
0.4173921663
 40
0.7026875488
 40
1.0
 40
1.0
 40
1.0
 40
1.0
 10
769.3082789272
 20
481.7350515992
 30
0.0
 10
769.2748950305
 20
481.7544058538
 30
0.0
 10
769.2212531213
 20
481.8362571697
 30
0.0
 10
769.2230502237
 20
481.9895999639
 30
0.0
 10
769.2774140104
 20
482.1564046527
 30
0.0
 10
769.3466224485
 20
482.2612942413
 30
0.0
 10
769.3887399477
 20
482.3082921752
 30
0.0
  0
SPLINE
  5
5B9
100
AcDbEntity
  8
7_ALL_ROUNDS
100
AcDbSpline
 62
9
  6
CONTINUOUS
 70
0
 71
3
 72
13
 73
9
 74
0
 42
0.0000001
 43
0.0000001
 44
0.0000000001
 40
0.0
 40
0.0
 40
0.0
 40
0.0
 40
0.0964500861
 40
0.1997201203
 40
0.3115457569
 40
0.4326987464
 40
0.701715302
 40
1.0
 40
1.0
 40
1.0
 40
1.0
 10
790.1274467606
 20
468.0695841297
 30
0.0
 10
789.9328793935
 20
468.7297621992
 30
0.0
 10
789.3651482151
 20
470.0519499139
 30
0.0
 10
788.0796525591
 20
471.8811757373
 30
0.0
 10
786.3698897534
 20
473.5799827525
 30
0.0
 10
783.4715685415
 20
475.7034443099
 30
0.0
 10
778.978732882
 20
477.801168056
 30
0.0
 10
775.0270318607
 20
478.7791932727
 30
0.0
 10
772.9262409674
 20
479.1216000079
 30
0.0
  0
SPLINE
  5
5BA
100
AcDbEntity
  8
7_ALL_ROUNDS
100
AcDbSpline
 62
9
  6
CONTINUOUS
 70
0
 71
3
 72
9
 73
5
 74
0
 42
0.0000001
 43
0.0000001
 44
0.0000000001
 40
0.0
 40
0.0
 40
0.0
 40
0.0
 40
0.2598517985
 40
1.0
 40
1.0
 40
1.0
 40
1.0
 10
753.9724911481
 20
477.6548015451
 30
0.0
 10
753.5576758106
 20
477.5107284485
 30
0.0
 10
751.9734693927
 20
476.9226190451
 30
0.0
 10
750.4386272283
 20
476.1962425333
 30
0.0
 10
749.3554958643
 20
475.5707325869
 30
0.0
  0
SPLINE
  5
5BB
100
AcDbEntity
  8
7_ALL_ROUNDS
100
AcDbSpline
 62
9
  6
CONTINUOUS
 70
0
 71
3
 72
11
 73
7
 74
0
 42
0.0000001
 43
0.0000001
 44
0.0000000001
 40
0.0
 40
0.0
 40
0.0
 40
0.0
 40
0.282800484
 40
0.5422659773
 40
0.7798670289
 40
1.0
 40
1.0
 40
1.0
 40
1.0
 10
749.3554958643
 20
475.5707325869
 30
0.0
 10
748.5152520518
 20
475.0854905565
 30
0.0
 10
746.9602567356
 20
474.0506412913
 30
0.0
 10
744.9808946624
 20
472.2311562618
 30
0.0
 10
743.5001043262
 20
470.2458002281
 30
0.0
 10
742.8563566771
 20
468.793657626
 30
0.0
 10
742.642879083
 20
468.0691747578
 30
0.0
  0
SPLINE
  5
5BC
100
AcDbEntity
  8
0
100
AcDbSpline
 62
7
  6
CONTINUOUS
 70
0
 71
3
 72
11
 73
7
 74
0
 42
0.0000001
 43
0.0000001
 44
0.0000000001
 40
0.0
 40
0.0
 40
0.0
 40
0.0
 40
0.2177219614
 40
0.4508571488
 40
0.7104372027
 40
1.0
 40
1.0
 40
1.0
 40
1.0
 10
759.8787654036
 20
479.0469572162
 30
0.0
 10
759.771572513
 20
478.9850602316
 30
0.0
 10
759.5253215752
 20
478.8954203396
 30
0.0
 10
759.1159632523
 20
478.8851624605
 30
0.0
 10
758.6798832223
 20
478.9907604371
 30
0.0
 10
758.3960639805
 20
479.1256592721
 30
0.0
 10
758.2535051548
 20
479.2079872024
 30
0.0
  0
SPLINE
  5
5BD
100
AcDbEntity
  8
0
100
AcDbSpline
 62
7
  6
CONTINUOUS
 70
0
 71
3
 72
11
 73
7
 74
0
 42
0.0000001
 43
0.0000001
 44
0.0000000001
 40
0.0
 40
0.0
 40
0.0
 40
0.0
 40
0.2896121525
 40
0.5491308913
 40
0.7822535673
 40
1.0
 40
1.0
 40
1.0
 40
1.0
 10
757.9982698569
 20
486.0906005754
 30
0.0
 10
757.778910441
 20
486.2172809588
 30
0.0
 10
757.3422981829
 20
486.4248863423
 30
0.0
 10
756.6714017948
 20
486.5872204858
 30
0.0
 10
756.0416538428
 20
486.5714979673
 30
0.0
 10
755.662823929
 20
486.4335349994
 30
0.0
 10
755.4978648806
 20
486.3383459949
 30
0.0
  0
SPLINE
  5
5BE
100
AcDbEntity
  8
0
100
AcDbSpline
 62
9
  6
CONTINUOUS
 70
0
 71
3
 72
13
 73
9
 74
0
 42
0.0000001
 43
0.0000001
 44
0.0000000001
 40
0.0
 40
0.0
 40
0.0
 40
0.0
 40
0.0871673655
 40
0.186891035
 40
0.3045607784
 40
0.4386985883
 40
0.7300968155
 40
1.0
 40
1.0
 40
1.0
 40
1.0
 10
767.8852272727
 20
487.2194767415
 30
0.0
 10
767.885179729
 20
487.1329338097
 30
0.0
 10
767.8329292757
 20
486.9457016716
 30
0.0
 10
767.6288765121
 20
486.7136068479
 30
0.0
 10
767.3277060964
 20
486.5299200963
 30
0.0
 10
766.8127203885
 20
486.3582673016
 30
0.0
 10
766.1113287945
 20
486.3227597617
 30
0.0
 10
765.556620511
 20
486.4729327578
 30
0.0
 10
765.3245671009
 20
486.6069439414
 30
0.0
  0
SPLINE
  5
5BF
100
AcDbEntity
  8
7_ALL_ROUNDS
100
AcDbSpline
 62
7
  6
CONTINUOUS
 70
0
 71
3
 72
9
 73
5
 74
0
 42
0.0000001
 43
0.0000001
 44
0.0000000001
 40
0.0
 40
0.0
 40
0.0
 40
0.0
 40
0.231088721
 40
1.0
 40
1.0
 40
1.0
 40
1.0
 10
774.156330798
 20
474.7566041671
 30
0.0
 10
774.1717548751
 20
474.74769674
 30
0.0
 10
774.243686993
 20
474.7187573373
 30
0.0
 10
774.3262007688
 20
474.718248113
 30
0.0
 10
774.3833487005
 20
474.7339450057
 30
0.0
  0
SPLINE
  5
5C0
100
AcDbEntity
  8
7_ALL_ROUNDS
100
AcDbSpline
 62
9
  6
CONTINUOUS
 70
0
 71
3
 72
9
 73
5
 74
0
 42
0.0000001
 43
0.0000001
 44
0.0000000001
 40
0.0
 40
0.0
 40
0.0
 40
0.0
 40
0.4492024984
 40
1.0
 40
1.0
 40
1.0
 40
1.0
 10
764.8852811845
 20
497.0854003575
 30
0.0
 10
764.8851950696
 20
496.968550865
 30
0.0
 10
764.9873476701
 20
496.707752571
 30
0.0
 10
765.2004936271
 20
496.5445201848
 30
0.0
 10
765.3245671009
 20
496.4728675707
 30
0.0
  0
SPLINE
  5
5C1
100
AcDbEntity
  8
0
100
AcDbSpline
 62
9
  6
CONTINUOUS
 70
0
 71
3
 72
9
 73
5
 74
0
 42
0.0000001
 43
0.0000001
 44
0.0000000001
 40
0.0
 40
0.0
 40
0.0
 40
0.0
 40
0.4126811901
 40
1.0
 40
1.0
 40
1.0
 40
1.0
 10
771.4295992708
 20
480.509985999
 30
0.0
 10
771.3790128627
 20
480.5393133789
 30
0.0
 10
771.3201652326
 20
480.6955257466
 30
0.0
 10
771.363741907
 20
480.8339183692
 30
0.0
 10
771.3979036006
 20
480.9098005498
 30
0.0
  0
SPLINE
  5
5C2
100
AcDbEntity
  8
0
100
AcDbSpline
 62
9
  6
CONTINUOUS
 70
0
 71
3
 72
13
 73
9
 74
0
 42
0.0000001
 43
0.0000001
 44
0.0000000001
 40
0.0
 40
0.0
 40
0.0
 40
0.0
 40
0.1323349063
 40
0.2437282905
 40
0.3811380796
 40
0.5362187936
 40
0.6984428914
 40
1.0
 40
1.0
 40
1.0
 40
1.0
 10
766.1428311891
 20
483.1461391265
 30
0.0
 10
766.2208450728
 20
483.2278529997
 30
0.0
 10
766.1702604786
 20
483.4874822874
 30
0.0
 10
766.0277670288
 20
483.7613568922
 30
0.0
 10
765.830445167
 20
484.0517207486
 30
0.0
 10
765.5785655817
 20
484.3457862215
 30
0.0
 10
765.201002639
 20
484.7162561244
 30
0.0
 10
764.8845899961
 20
484.9601451708
 30
0.0
 10
764.6616544936
 20
485.0888907495
 30
0.0
  0
SPLINE
  5
5C3
100
AcDbEntity
  8
0
100
AcDbSpline
 62
7
  6
CONTINUOUS
 70
0
 71
3
 72
11
 73
7
 74
0
 42
0.0000001
 43
0.0000001
 44
0.0000000001
 40
0.0
 40
0.0
 40
0.0
 40
0.0
 40
0.2417201937
 40
0.5044991269
 40
0.7648516793
 40
1.0
 40
1.0
 40
1.0
 40
1.0
 10
776.8836148288
 20
471.4076266871
 30
0.0
 10
776.8482638055
 20
471.9722352846
 30
0.0
 10
776.5896776365
 20
473.1405019917
 30
0.0
 10
775.819940424
 20
474.7700630167
 30
0.0
 10
774.7413703589
 20
476.1946100214
 30
0.0
 10
773.8345545368
 20
476.9451230172
 30
0.0
 10
773.3579828577
 20
477.2203438587
 30
0.0
  0
SPLINE
  5
5C4
100
AcDbEntity
  8
7_ALL_ROUNDS
100
AcDbSpline
 62
9
  6
CONTINUOUS
 70
0
 71
3
 72
10
 73
6
 74
0
 42
0.0000001
 43
0.0000001
 44
0.0000000001
 40
0.0
 40
0.0
 40
0.0
 40
0.0
 40
0.2290330088
 40
0.475162357
 40
1.0
 40
1.0
 40
1.0
 40
1.0
 10
748.0835218169
 20
484.5403490088
 30
0.0
 10
749.2401980844
 20
485.2083312445
 30
0.0
 10
751.7552820024
 20
486.4001459855
 30
0.0
 10
757.3184370555
 20
488.1840427529
 30
0.0
 10
761.8229548776
 20
488.7903412243
 30
0.0
 10
764.8820426157
 20
488.893038413
 30
0.0
  0
SPLINE
  5
5C5
100
AcDbEntity
  8
7_ALL_ROUNDS
100
AcDbSpline
 62
9
  6
CONTINUOUS
 70
0
 71
3
 72
14
 73
10
 74
0
 42
0.0000001
 43
0.0000001
 44
0.0000000001
 40
0.0
 40
0.0
 40
0.0
 40
0.0
 40
0.3098440413
 40
0.4532710771
 40
0.58516538
 40
0.7041854243
 40
0.8107524472
 40
0.9076159244
 40
1.0
 40
1.0
 40
1.0
 40
1.0
 10
768.6410144659
 20
488.8614031158
 30
0.0
 10
771.8638865869
 20
488.698572232
 30
0.0
 10
776.5859687847
 20
487.9558348871
 30
0.0
 10
782.3259044235
 20
485.8634337741
 30
0.0
 10
785.9517752514
 20
483.8956817003
 30
0.0
 10
788.8768447446
 20
481.5539351745
 30
0.0
 10
790.9932190724
 20
478.9013208075
 30
0.0
 10
792.1956057224
 20
476.0141083458
 30
0.0
 10
792.3207653105
 20
474.0027101476
 30
0.0
 10
792.2181153006
 20
473.0460341017
 30
0.0
  0
SPLINE
  5
5C6
100
AcDbEntity
  8
7_ALL_ROUNDS
100
AcDbSpline
 62
9
  6
CONTINUOUS
 70
0
 71
3
 72
9
 73
5
 74
0
 42
0.0000001
 43
0.0000001
 44
0.0000000001
 40
0.0
 40
0.0
 40
0.0
 40
0.0
 40
0.2338741797
 40
1.0
 40
1.0
 40
1.0
 40
1.0
 10
770.1466775633
 20
481.3121405886
 30
0.0
 10
770.1283746887
 20
481.3227080286
 30
0.0
 10
770.0492807547
 20
481.3664425894
 30
0.0
 10
769.9674107938
 20
481.4050578781
 30
0.0
 10
769.9037752369
 20
481.4323276154
 30
0.0
  0
SPLINE
  5
5C7
100
AcDbEntity
  8
7_ALL_ROUNDS
100
AcDbSpline
 62
9
  6
CONTINUOUS
 70
0
 71
3
 72
11
 73
7
 74
0
 42
0.0000001
 43
0.0000001
 44
0.0000000001
 40
0.0
 40
0.0
 40
0.0
 40
0.0
 40
0.3787188673
 40
0.5478996543
 40
0.6951179618
 40
1.0
 40
1.0
 40
1.0
 40
1.0
 10
769.6226499569
 20
481.5365672533
 30
0.0
 10
769.5076540257
 20
481.5730944484
 30
0.0
 10
769.3406561489
 20
481.6174392517
 30
0.0
 10
769.1155148045
 20
481.6502805277
 30
0.0
 10
768.9378938539
 20
481.6656705334
 30
0.0
 10
768.6993242973
 20
481.6379199318
 30
0.0
 10
768.704372419
 20
481.5409174309
 30
0.0
  0
SPLINE
  5
5C8
100
AcDbEntity
  8
0
100
AcDbSpline
 62
7
  6
CONTINUOUS
 70
0
 71
3
 72
11
 73
7
 74
0
 42
0.0000001
 43
0.0000001
 44
0.0000000001
 40
0.0
 40
0.0
 40
0.0
 40
0.0
 40
0.2177219614
 40
0.4508571488
 40
0.7104372027
 40
1.0
 40
1.0
 40
1.0
 40
1.0
 10
774.7280078085
 20
470.471498015
 30
0.0
 10
774.6208149179
 20
470.4096010305
 30
0.0
 10
774.3745639801
 20
470.3199611384
 30
0.0
 10
773.9652056573
 20
470.3097032594
 30
0.0
 10
773.5291256272
 20
470.4153012359
 30
0.0
 10
773.2453063854
 20
470.5502000709
 30
0.0
 10
773.1027475598
 20
470.6325280012
 30
0.0
  0
SPLINE
  5
5C9
100
AcDbEntity
  8
7_ALL_ROUNDS
100
AcDbSpline
 62
9
  6
CONTINUOUS
 70
0
 71
3
 72
11
 73
7
 74
0
 42
0.0000001
 43
0.0000001
 44
0.0000000001
 40
0.0
 40
0.0
 40
0.0
 40
0.0
 40
0.2810458118
 40
0.5402810589
 40
0.7787547486
 40
1.0
 40
1.0
 40
1.0
 40
1.0
 10
748.6510798379
 20
476.7227704761
 30
0.0
 10
747.8241540318
 20
476.245219614
 30
0.0
 10
746.2871468674
 20
475.2298461503
 30
0.0
 10
744.3065880272
 20
473.4587418997
 30
0.0
 10
742.7839138749
 20
471.531447439
 30
0.0
 10
742.0780423344
 20
470.121226782
 30
0.0
 10
741.824723971
 20
469.4134655273
 30
0.0
  0
SPLINE
  5
5CA
100
AcDbEntity
  8
0
100
AcDbSpline
 62
9
  6
CONTINUOUS
 70
0
 71
3
 72
9
 73
5
 74
0
 42
0.0000001
 43
0.0000001
 44
0.0000000001
 40
0.0
 40
0.0
 40
0.0
 40
0.0
 40
0.4678128523
 40
1.0
 40
1.0
 40
1.0
 40
1.0
 10
772.2004354139
 20
481.0933872473
 30
0.0
 10
772.2189133414
 20
481.0430057667
 30
0.0
 10
772.2192706474
 20
480.9199740784
 30
0.0
 10
772.1573147636
 20
480.8179021271
 30
0.0
 10
772.1165727704
 20
480.7724390882
 30
0.0
  0
SPLINE
  5
5CB
100
AcDbEntity
  8
0
100
AcDbSpline
 62
9
  6
CONTINUOUS
 70
0
 71
3
 72
9
 73
5
 74
0
 42
0.0000001
 43
0.0000001
 44
0.0000000001
 40
0.0
 40
0.0
 40
0.0
 40
0.0
 40
0.4655274488
 40
1.0
 40
1.0
 40
1.0
 40
1.0
 10
768.3027334685
 20
488.4973692819
 30
0.0
 10
768.3298835083
 20
488.4460617289
 30
0.0
 10
768.3428508291
 20
488.310364523
 30
0.0
 10
768.2761794335
 20
488.1972559124
 30
0.0
 10
768.2317016669
 20
488.1476242112
 30
0.0
  0
SPLINE
  5
5CC
100
AcDbEntity
  8
0
100
AcDbSpline
 62
9
  6
CONTINUOUS
 70
0
 71
3
 72
8
 73
4
 74
0
 42
0.0000001
 43
0.0000001
 44
0.0000000001
 40
0.0
 40
0.0
 40
0.0
 40
0.0
 40
1.0
 40
1.0
 40
1.0
 40
1.0
 10
767.6458291002
 20
489.1452452133
 30
0.0
 10
767.6230296821
 20
489.1583743492
 30
0.0
 10
767.5954420486
 20
489.1644277531
 30
0.0
 10
767.5691378106
 20
489.1639035947
 30
0.0
  0
SPLINE
  5
5CD
100
AcDbEntity
  8
0
100
AcDbSpline
 62
9
  6
CONTINUOUS
 70
0
 71
3
 72
9
 73
5
 74
0
 42
0.0000001
 43
0.0000001
 44
0.0000000001
 40
0.0
 40
0.0
 40
0.0
 40
0.0
 40
0.2281981499
 40
1.0
 40
1.0
 40
1.0
 40
1.0
 10
767.5691378106
 20
489.1639035947
 30
0.0
 10
767.5592562157
 20
489.1637066865
 30
0.0
 10
767.516023506
 20
489.1591690093
 30
0.0
 10
767.4748352284
 20
489.1420780589
 30
0.0
 10
767.445887836
 20
489.1253609438
 30
0.0
  0
SPLINE
  5
5CE
100
AcDbEntity
  8
0
100
AcDbSpline
 62
7
  6
CONTINUOUS
 70
0
 71
3
 72
8
 73
4
 74
0
 42
0.0000001
 43
0.0000001
 44
0.0000000001
 40
0.0
 40
0.0
 40
0.0
 40
0.0
 40
1.0
 40
1.0
 40
1.0
 40
1.0
 10
767.6268936526
 20
489.1562034428
 30
0.0
 10
767.6076115058
 20
489.1673506329
 30
0.0
 10
767.5832719991
 20
489.1702879383
 30
0.0
 10
767.5611205387
 20
489.1679697848
 30
0.0
  0
SPLINE
  5
5CF
100
AcDbEntity
  8
0
100
AcDbSpline
 62
7
  6
CONTINUOUS
 70
0
 71
3
 72
9
 73
5
 74
0
 42
0.0000001
 43
0.0000001
 44
0.0000000001
 40
0.0
 40
0.0
 40
0.0
 40
0.0
 40
0.2165082332
 40
1.0
 40
1.0
 40
1.0
 40
1.0
 10
767.5611205387
 20
489.1679697848
 30
0.0
 10
767.5522644494
 20
489.1670429938
 30
0.0
 10
767.5117211699
 20
489.1593359183
 30
0.0
 10
767.4737920388
 20
489.141475629
 30
0.0
 10
767.445887836
 20
489.1253609438
 30
0.0
  0
SPLINE
  5
5D0
100
AcDbEntity
  8
7_ALL_ROUNDS
100
AcDbSpline
 62
9
  6
CONTINUOUS
 70
0
 71
3
 72
15
 73
11
 74
0
 42
0.0000001
 43
0.0000001
 44
0.0000000001
 40
0.0
 40
0.0
 40
0.0
 40
0.0
 40
0.2071237092
 40
0.3875128871
 40
0.5339831814
 40
0.6428003202
 40
0.7183043666
 40
0.7839654413
 40
0.8733701249
 40
1.0
 40
1.0
 40
1.0
 40
1.0
 10
769.7971370156
 20
480.965876174
 30
0.0
 10
769.8575493791
 20
480.9530958721
 30
0.0
 10
769.9714982312
 20
480.9330370614
 30
0.0
 10
770.130143376
 20
480.9187913683
 30
0.0
 10
770.2608760059
 20
480.9230496898
 30
0.0
 10
770.3569586302
 20
480.9434439447
 30
0.0
 10
770.424678713
 20
480.9878819473
 30
0.0
 10
770.4315830887
 20
481.0638266051
 30
0.0
 10
770.3829350361
 20
481.1361231061
 30
0.0
 10
770.3362831764
 20
481.1801919405
 30
0.0
 10
770.3070051724
 20
481.2040248353
 30
0.0
  0
SPLINE
  5
5D1
100
AcDbEntity
  8
7_ALL_ROUNDS
100
AcDbSpline
 62
9
  6
CONTINUOUS
 70
0
 71
3
 72
8
 73
4
 74
0
 42
0.0000001
 43
0.0000001
 44
0.0000000001
 40
0.0
 40
0.0
 40
0.0
 40
0.0
 40
1.0
 40
1.0
 40
1.0
 40
1.0
 10
770.3070051724
 20
481.2040248353
 30
0.0
 10
770.2883740904
 20
481.2191909175
 30
0.0
 10
770.2690625564
 20
481.2335371933
 30
0.0
 10
770.2493536371
 20
481.247273487
 30
0.0
  0
SPLINE
  5
5D2
100
AcDbEntity
  8
7_ALL_ROUNDS
100
AcDbSpline
 62
9
  6
CONTINUOUS
 70
0
 71
3
 72
8
 73
4
 74
0
 42
0.0000001
 43
0.0000001
 44
0.0000000001
 40
0.0
 40
0.0
 40
0.0
 40
0.0
 40
1.0
 40
1.0
 40
1.0
 40
1.0
 10
770.2493536371
 20
481.247273487
 30
0.0
 10
770.2161409898
 20
481.2704213151
 30
0.0
 10
770.1817338272
 20
481.2918931135
 30
0.0
 10
770.1466775633
 20
481.3121405886
 30
0.0
  0
ENDSEC
  0
SECTION
  2
OBJECTS
  0
DICTIONARY
  5
C
100
AcDbDictionary
280
0
281
1
  3
ACAD_GROUP
350
D
  3
ACAD_MLINESTYLE
350
17
  3
ACAD_LAYOUT
350
1A
  3
ACAD_PLOTSETTINGS
350
19
  3
ACAD_PLOTSTYLENAME
350
E
  0
DICTIONARY
  5
D
102
{ACAD_REACTORS
330
C
102
}
100
AcDbDictionary
280
0
281
1
  0
ACDBDICTIONARYWDFLT
  5
E
102
{ACAD_REACTORS
330
C
102
}
100
AcDbDictionary
281
1
  3
Normal
350
F
100
AcDbDictionaryWithDefault
340
F
  0
DICTIONARY
  5
17
102
{ACAD_REACTORS
330
C
102
}
100
AcDbDictionary
280
0
281
1
  3
Standard
350
18
  0
DICTIONARY
  5
19
102
{ACAD_REACTORS
330
C
102
}
100
AcDbDictionary
281
1
  0
DICTIONARY
  5
1A
102
{ACAD_REACTORS
330
C
102
}
100
AcDbDictionary
281
1
  3
Model
350
5D3
  3
Layout1
350
5D4
  0
ACDBPLACEHOLDER
  5
F
102
{ACAD_REACTORS
330
E
102
}
  0
MLINESTYLE
  5
18
102
{ACAD_REACTORS
330
17
102
}
100
AcDbMlineStyle
  2
STANDARD
 70
0
  3

 62
256
 51
90.0
 52
90.0
 71
2
 49
0.5
 62
256
  6
BYLAYER
 49
-0.5
 62
256
  6
BYLAYER
  0
LAYOUT
  5
5D3
102
{ACAD_REACTORS
330
1A
102
}
100
AcDbPlotSettings
  1

  2
none_device
  4

  6

 40
0.0
 41
0.0
 42
0.0
 43
0.0
 44
431.8
 45
279.4
 46
0.0
 47
0.0
 48
0.0
 49
0.0
140
0.0
141
0.0
142
1.0
143
1.0
 70
1024
 72
1
 73
0
 74
0
  7

 75
0
147
1.0
148
0.0
149
0.0
100
AcDbLayout
  1
Model
 70
0
 71
0
 10
0.0
 20
0.0
 11
431.8
 21
279.4
 12
0.0
 22
0.0
 32
0.0
 14
0.0
 24
0.0
 34
0.0
 15
0.0
 25
0.0
 35
0.0
146
0.0
 13
0.0
 23
0.0
 33
0.0
 16
1.0
 26
0.0
 36
0.0
 17
0.0
 27
1.0
 37
0.0
 76
0
330
211
345
0
346
0
  0
LAYOUT
  5
5D4
102
{ACAD_REACTORS
330
1A
102
}
100
AcDbPlotSettings
  1

  2
none_device
  4

  6

 40
0.0
 41
0.0
 42
0.0
 43
0.0
 44
431.8
 45
279.4
 46
0.0
 47
0.0
 48
0.0
 49
0.0
140
0.0
141
0.0
142
1.0
143
1.0
 70
0
 72
1
 73
0
 74
0
  7

 75
0
147
1.0
148
0.0
149
0.0
100
AcDbLayout
  1
Layout1
 70
0
 71
1
 10
0.0
 20
0.0
 11
431.8
 21
279.4
 12
0.0
 22
0.0
 32
0.0
 14
0.0
 24
0.0
 34
0.0
 15
0.0
 25
0.0
 35
0.0
146
0.0
 13
0.0
 23
0.0
 33
0.0
 16
1.0
 26
0.0
 36
0.0
 17
0.0
 27
1.0
 37
0.0
 76
0
330
212
345
0
346
0
  0
ENDSEC
  0
EOF
