999
DXF file: Z:\L&T Project Work\K005 WALL CONTROLLER\FOR RELEASE\fg-901150-na-2d-A.dxf
999
Pro/ENGINEER 2016130 by Parametric Technology Corporation
  0
SECTION
  2
HEADER
  9
$ACADVER
  1
AC1015
  9
$DWGCODEPAGE
  3
ANSI_1252
  9
$EXTMAX
 10
431.8
 20
279.4
 30
0.0
  9
$EXTMIN
 10
0.0
 20
0.0
 30
0.0
  9
$LIMMIN
 10
0.0
 20
0.0
  9
$LIMMAX
 10
431.8
 20
279.4
  9
$VIEWCTR
 10
215.9
 20
139.7
  9
$VIEWSIZE
 40
279.4
  9
$CLAYER
  8
0
  9
$LTSCALE
 40
23.749
  9
$CELTYPE
  6
BYLAYER
  9
$DIMSCALE
 40
1.0
  9
$DIMASZ
 40
2.0
  9
$DIMEXO
 40
1.5875
  9
$DIMDLI
 40
16.4084
  9
$DIMEXE
 40
3.175
  9
$DIMCEN
 40
3.8862
  9
$DIMLFAC
 40
1.0
  9
$DIMBLK
  1
_FILLED
  9
$DIMALT
 70
0
  9
$DIMALTF
 40
0.0393700787
  9
$DIMTXT
 40
2.286
  9
$DIMTOL
 70
1
  9
$DIMLIM
 70
0
  9
$DIMTFAC
 40
1.0
  9
$DIMTP
 40
0.02
  9
$DIMTM
 40
0.02
  9
$DIMGAP
 40
0.625
  9
$DIMDSEP
 70
46
  9
$AUNITS
 70
0
  9
$PDMODE
 70
3
  9
$PDSIZE
 40
7.9375
  9
$HANDSEED
  5
88E
  9
$TILEMODE
 70
1
  9
$MEASUREMENT
 70
1
  9
$INSUNITS
 70
4
  0
ENDSEC
  0
SECTION
  2
CLASSES
  0
CLASS
  1
ACDBDICTIONARYWDFLT
  2
AcDbDictionaryWithDefault
  3
AutoCAD 2000
 90
0
280
0
281
0
  0
CLASS
  1
ACDBPLACEHOLDER
  2
AcDbPlaceHolder
  3
AutoCAD 2000
 90
0
280
0
281
0
  0
CLASS
  1
LAYOUT
  2
AcDbLayout
  3
AutoCAD 2000
 90
0
280
0
281
0
  0
ENDSEC
  0
SECTION
  2
TABLES
  0
TABLE
  2
VPORT
  5
8
100
AcDbSymbolTable
 70
2
  0
VPORT
  5
1F4
100
AcDbSymbolTableRecord
100
AcDbViewportTableRecord
  2
*ACTIVE
 70
0
 10
0.0
 20
0.0
 11
1.0
 21
1.0
 12
215.9
 22
139.7
 13
0.0
 23
0.0
 14
1.0
 24
1.0
 15
0.0
 25
0.0
 16
0.0
 26
0.0
 36
1.0
 17
0.0
 27
0.0
 37
0.0
 40
279.4
 41
1.5454545455
 42
50.0
 43
0.0
 44
0.0
 50
0.0
 51
0.0
 71
0
 72
100
 73
1
 74
1
 75
0
 76
0
 77
0
 78
0
  0
ENDTAB
  0
TABLE
  2
LTYPE
  5
5
100
AcDbSymbolTable
 70
6
  0
LTYPE
  5
14
100
AcDbSymbolTableRecord
100
AcDbLinetypeTableRecord
  2
BYBLOCK
 70
0
  3

 72
65
 73
0
 40
0.0
  0
LTYPE
  5
15
100
AcDbSymbolTableRecord
100
AcDbLinetypeTableRecord
  2
BYLAYER
 70
0
  3

 72
65
 73
0
 40
0.0
  0
LTYPE
  5
16
100
AcDbSymbolTableRecord
100
AcDbLinetypeTableRecord
  2
CONTINUOUS
 70
64
  3
Solid line
 72
65
 73
0
 40
0.0
  0
LTYPE
  5
1F5
100
AcDbSymbolTableRecord
100
AcDbLinetypeTableRecord
  2
CENTER
 70
64
  3
____ _ ____ _ ____ _ ____ _ ____ _ ____ _ ____
 72
65
 73
4
 40
0.6
 49
0.375
 74
0
 49
-0.075
 74
0
 49
0.075
 74
0
 49
-0.075
 74
0
  0
LTYPE
  5
1F6
100
AcDbSymbolTableRecord
100
AcDbLinetypeTableRecord
  2
HIDDEN
 70
64
  3
- - - - - - - - - - - - - - - - - - - -
 72
65
 73
2
 40
0.2
 49
0.1
 74
0
 49
-0.1
 74
0
  0
LTYPE
  5
1F7
100
AcDbSymbolTableRecord
100
AcDbLinetypeTableRecord
  2
PHANTOM
 70
64
  3
_____ _ _ _____ _ _ _____ _ _ _____
 72
65
 73
6
 40
0.8
 49
0.45
 74
0
 49
-0.05
 74
0
 49
0.1
 74
0
 49
-0.05
 74
0
 49
0.1
 74
0
 49
-0.05
 74
0
  0
LTYPE
  5
1F8
100
AcDbSymbolTableRecord
100
AcDbLinetypeTableRecord
  2
DOT
 70
64
  3
. . . . . . . . . . . . . . . . . . . .
 72
65
 73
2
 40
0.2
 49
0.1
 74
0
 49
-0.1
 74
0
  0
LTYPE
  5
1F9
100
AcDbSymbolTableRecord
100
AcDbLinetypeTableRecord
  2
DASHED
 70
64
  3
- - - - - - - - - - - - - - - - - - - -
 72
65
 73
2
 40
0.2
 49
0.1
 74
0
 49
-0.1
 74
0
  0
ENDTAB
  0
TABLE
  2
LAYER
  5
2
100
AcDbSymbolTable
 70
36
  0
LAYER
  5
10
100
AcDbSymbolTableRecord
100
AcDbLayerTableRecord
  2
0
 70
0
 62
7
  6
CONTINUOUS
370
-3
390
F
  0
LAYER
  5
1FA
100
AcDbSymbolTableRecord
100
AcDbLayerTableRecord
  2
DEFAULT_1
 70
0
 62
7
  6
CENTER
370
-3
390
F
  0
LAYER
  5
1FB
100
AcDbSymbolTableRecord
100
AcDbLayerTableRecord
  2
DEFAULT_2
 70
0
 62
8
  6
HIDDEN
370
-3
390
F
  0
LAYER
  5
1FC
100
AcDbSymbolTableRecord
100
AcDbLayerTableRecord
  2
DEFAULT_3
 70
0
 62
7
  6
PHANTOM
370
-3
390
F
  0
LAYER
  5
1FD
100
AcDbSymbolTableRecord
100
AcDbLayerTableRecord
  2
1_ALL_PLANES
 70
0
 62
7
  6
CONTINUOUS
370
-3
390
F
  0
LAYER
  5
1FE
100
AcDbSymbolTableRecord
100
AcDbLayerTableRecord
  2
1__DEF_PLANES
 70
0
 62
7
  6
CONTINUOUS
370
-3
390
F
  0
LAYER
  5
1FF
100
AcDbSymbolTableRecord
100
AcDbLayerTableRecord
  2
2_ALL_CSYS
 70
0
 62
7
  6
CONTINUOUS
370
-3
390
F
  0
LAYER
  5
200
100
AcDbSymbolTableRecord
100
AcDbLayerTableRecord
  2
2__DEF_CSYS
 70
0
 62
7
  6
CONTINUOUS
370
-3
390
F
  0
LAYER
  5
201
100
AcDbSymbolTableRecord
100
AcDbLayerTableRecord
  2
3_ALL_AXES
 70
0
 62
7
  6
CONTINUOUS
370
-3
390
F
  0
LAYER
  5
202
100
AcDbSymbolTableRecord
100
AcDbLayerTableRecord
  2
3_AXES_OTHER
 70
0
 62
7
  6
CONTINUOUS
370
-3
390
F
  0
LAYER
  5
203
100
AcDbSymbolTableRecord
100
AcDbLayerTableRecord
  2
3_HOLES
 70
0
 62
7
  6
CONTINUOUS
370
-3
390
F
  0
LAYER
  5
204
100
AcDbSymbolTableRecord
100
AcDbLayerTableRecord
  2
4_ALL_POINTS
 70
0
 62
7
  6
CONTINUOUS
370
-3
390
F
  0
LAYER
  5
205
100
AcDbSymbolTableRecord
100
AcDbLayerTableRecord
  2
5_ALL_CURVES
 70
0
 62
7
  6
CONTINUOUS
370
-3
390
F
  0
LAYER
  5
206
100
AcDbSymbolTableRecord
100
AcDbLayerTableRecord
  2
6_ALL_SURFS
 70
0
 62
7
  6
CONTINUOUS
370
-3
390
F
  0
LAYER
  5
207
100
AcDbSymbolTableRecord
100
AcDbLayerTableRecord
  2
6_COPYGEOM
 70
0
 62
7
  6
CONTINUOUS
370
-3
390
F
  0
LAYER
  5
208
100
AcDbSymbolTableRecord
100
AcDbLayerTableRecord
  2
7_ALL_ROUNDS
 70
0
 62
7
  6
CONTINUOUS
370
-3
390
F
  0
LAYER
  5
209
100
AcDbSymbolTableRecord
100
AcDbLayerTableRecord
  2
7_MERGES
 70
0
 62
7
  6
CONTINUOUS
370
-3
390
F
  0
LAYER
  5
20A
100
AcDbSymbolTableRecord
100
AcDbLayerTableRecord
  2
8_GDT
 70
0
 62
7
  6
CONTINUOUS
370
-3
390
F
  0
LAYER
  5
20B
100
AcDbSymbolTableRecord
100
AcDbLayerTableRecord
  2
8_SET_DATUMS
 70
0
 62
7
  6
CONTINUOUS
370
-3
390
F
  0
LAYER
  5
20C
100
AcDbSymbolTableRecord
100
AcDbLayerTableRecord
  2
9_COSMETICS
 70
0
 62
7
  6
CONTINUOUS
370
-3
390
F
  0
LAYER
  5
20D
100
AcDbSymbolTableRecord
100
AcDbLayerTableRecord
  2
9_THREADS
 70
0
 62
7
  6
CONTINUOUS
370
-3
390
F
  0
ENDTAB
  0
TABLE
  2
STYLE
  5
3
100
AcDbSymbolTable
 70
1
  0
STYLE
  5
11
100
AcDbSymbolTableRecord
100
AcDbTextStyleTableRecord
  2
STANDARD
 70
0
 40
0.0
 41
1.0
 50
0.0
 71
0
 42
0.2
  3
gothic.ttf
  4

  0
STYLE
  5
20E
100
AcDbSymbolTableRecord
100
AcDbTextStyleTableRecord
  2
TEXTSTYLE_1
 70
0
 40
0.0
 41
0.8
 50
0.0
 71
0
 42
0.2
  3
gdt
  4

  0
STYLE
  5
20F
100
AcDbSymbolTableRecord
100
AcDbTextStyleTableRecord
  2
TEXTSTYLE_2
 70
0
 40
0.0
 41
1.0
 50
0.0
 71
0
 42
0.2
  3
gothic.ttf
  4

  0
ENDTAB
  0
TABLE
  2
VIEW
  5
6
100
AcDbSymbolTable
 70
0
  0
ENDTAB
  0
TABLE
  2
UCS
  5
7
100
AcDbSymbolTable
 70
0
  0
ENDTAB
  0
TABLE
  2
APPID
  5
9
100
AcDbSymbolTable
 70
1
  0
APPID
  5
210
100
AcDbSymbolTableRecord
100
AcDbRegAppTableRecord
  2
ACAD
 70
0
  0
ENDTAB
  0
TABLE
  2
BLOCK_RECORD
  5
1
100
AcDbSymbolTable
 70
0
  0
BLOCK_RECORD
  5
211
100
AcDbSymbolTableRecord
100
AcDbBlockTableRecord
  2
*Model_Space
  0
BLOCK_RECORD
  5
212
100
AcDbSymbolTableRecord
100
AcDbBlockTableRecord
  2
*Paper_Space
  0
BLOCK_RECORD
  5
213
100
AcDbSymbolTableRecord
100
AcDbBlockTableRecord
  2
_FILLED
  0
BLOCK_RECORD
  5
214
100
AcDbSymbolTableRecord
100
AcDbBlockTableRecord
  2
*D0
  0
BLOCK_RECORD
  5
215
100
AcDbSymbolTableRecord
100
AcDbBlockTableRecord
  2
*D1
  0
BLOCK_RECORD
  5
216
100
AcDbSymbolTableRecord
100
AcDbBlockTableRecord
  2
*D2
  0
BLOCK_RECORD
  5
217
100
AcDbSymbolTableRecord
100
AcDbBlockTableRecord
  2
*D3
  0
BLOCK_RECORD
  5
218
100
AcDbSymbolTableRecord
100
AcDbBlockTableRecord
  2
*D4
  0
BLOCK_RECORD
  5
219
100
AcDbSymbolTableRecord
100
AcDbBlockTableRecord
  2
*D5
  0
BLOCK_RECORD
  5
21A
100
AcDbSymbolTableRecord
100
AcDbBlockTableRecord
  2
*D6
  0
BLOCK_RECORD
  5
21B
100
AcDbSymbolTableRecord
100
AcDbBlockTableRecord
  2
*D7
  0
BLOCK_RECORD
  5
21C
100
AcDbSymbolTableRecord
100
AcDbBlockTableRecord
  2
*D8
  0
BLOCK_RECORD
  5
21D
100
AcDbSymbolTableRecord
100
AcDbBlockTableRecord
  2
*D9
  0
BLOCK_RECORD
  5
21E
100
AcDbSymbolTableRecord
100
AcDbBlockTableRecord
  2
*D10
  0
BLOCK_RECORD
  5
21F
100
AcDbSymbolTableRecord
100
AcDbBlockTableRecord
  2
*D11
  0
ENDTAB
  0
TABLE
  2
DIMSTYLE
  5
A
100
AcDbSymbolTable
 70
1
100
AcDbDimStyleTable
 71
0
  0
DIMSTYLE
105
220
100
AcDbSymbolTableRecord
100
AcDbDimStyleTableRecord
  2
STANDARD
 70
0
  3

  4

 40
1.0
 41
2.0
 42
1.5875
 43
0.38
 44
3.175
 45
0.0
 46
0.0
 47
0.02
 48
0.02
140
2.286
141
0.09
142
0.0
143
25.4
144
1.0
145
0.0
146
1.0
147
0.625
 71
1.0
 72
0.0
 73
1
 74
1
 75
0
 76
0
 77
0
 78
0
170
0
171
2
172
0
173
0
174
0
175
0
176
0
177
0
178
0
270
2
271
2
272
2
273
2
274
2
275
0
280
0
281
0
282
0
283
1
284
0
285
0
286
0
287
3
288
0
340
11
278
46
341
213
342
213
343
213
344
213
  0
DIMSTYLE
105
221
100
AcDbSymbolTableRecord
100
AcDbDimStyleTableRecord
  2
DIMSTYLE_1
 70
0
  3

  4

 40
1.0
 41
2.0
 42
1.5875
 43
0.38
 44
3.175
 45
0.0
 46
0.0
 47
0.02
 48
0.02
140
2.286
141
0.09
142
0.0
143
25.4
144
1.0
145
0.0
146
1.0
147
1.143
 71
0.0
 72
0.0
 73
1
 74
1
 75
0
 76
0
 77
0
 78
0
170
0
171
2
172
0
173
0
174
0
175
0
176
0
177
0
178
0
270
2
271
1
272
1
273
2
274
2
275
0
280
0
281
0
282
0
283
1
284
0
285
0
286
0
287
3
288
0
340
11
278
46
341
213
342
213
343
213
344
213
  0
DIMSTYLE
105
222
100
AcDbSymbolTableRecord
100
AcDbDimStyleTableRecord
  2
DIMSTYLE_2
 70
0
  3

  4

 40
1.0
 41
2.0
 42
1.5875
 43
0.38
 44
3.175
 45
0.0
 46
0.0
 47
0.1
 48
0.1
140
2.286
141
0.09
142
0.0
143
25.4
144
1.0
145
0.0
146
1.0
147
1.143
 71
0.0
 72
0.0
 73
1
 74
1
 75
0
 76
0
 77
0
 78
0
170
0
171
2
172
0
173
0
174
0
175
0
176
0
177
0
178
0
270
2
271
1
272
1
273
2
274
2
275
0
280
0
281
0
282
0
283
1
284
0
285
0
286
0
287
3
288
0
340
11
278
46
341
213
342
213
343
213
344
213
  0
ENDTAB
  0
ENDSEC
  0
SECTION
  2
BLOCKS
  0
BLOCK
  5
20
100
AcDbEntity
  8
0
100
AcDbBlockBegin
  2
*Model_Space
 70
0
 10
0.0
 20
0.0
 30
0.0
  3
*Model_Space
  1

  0
ENDBLK
  5
21
100
AcDbEntity
  8
0
100
AcDbBlockEnd
  0
BLOCK
  5
1C
100
AcDbEntity
  8
0
100
AcDbBlockBegin
  2
*Paper_Space
 70
0
 10
0.0
 20
0.0
 30
0.0
  3
*Paper_Space
  1

  0
ENDBLK
  5
1D
100
AcDbEntity
  8
0
100
AcDbBlockEnd
  0
BLOCK
  5
223
100
AcDbEntity
  8
0
100
AcDbBlockBegin
  2
_FILLED
 70
64
 10
0.0
 20
0.0
  3
_FILLED
  1

  0
SOLID
  5
224
100
AcDbEntity
  8
0
  6
BYBLOCK
 62
0
100
AcDbTrace
 10
0.0
 20
0.0
 11
-1.0
 21
0.1275
 12
-1.0
 22
-0.1275
 13
-1.0
 23
-0.1275
  0
ENDBLK
  5
225
100
AcDbEntity
  8
0
  6
BYBLOCK
 62
0
100
AcDbBlockEnd
  0
BLOCK
  5
226
100
AcDbEntity
  8
0
100
AcDbBlockBegin
 62
2
  6
CONTINUOUS
  2
*D0
 70
65
 10
0.0
 20
0.0
  3
*D0
  1

  0
MTEXT
  5
227
100
AcDbEntity
  8
0
100
AcDbMText
 62
2
  6
CONTINUOUS
  7
STANDARD
 71
2
 72
1
 10
28.4132721186
 20
104.6428932084
 30
0.0
 11
1.0
 21
0.0
 31
0.0
 44
0.9
  1
23.9\P[0.94]
 40
2.286
 41
8.4301561338
  0
LINE
  5
228
100
AcDbEntity
  8
0
100
AcDbLine
 62
2
  6
CONTINUOUS
 10
67.0222133121
 20
89.1726574326
 11
26.3600267655
 21
89.1726574326
  0
LINE
  5
229
100
AcDbEntity
  8
0
100
AcDbLine
 62
2
  6
CONTINUOUS
 10
53.0243233121
 20
113.0796574326
 11
26.3600267655
 21
113.0796574326
  0
LINE
  5
22A
100
AcDbEntity
  8
0
100
AcDbLine
 62
2
  6
CONTINUOUS
 10
29.5350267655
 20
89.1726574326
 11
29.5350267655
 21
97.7848932084
  0
LINE
  5
22B
100
AcDbEntity
  8
0
100
AcDbLine
 62
2
  6
CONTINUOUS
 10
29.5350267655
 20
113.0796574326
 11
29.5350267655
 21
105.7858932084
  0
INSERT
  5
22C
100
AcDbEntity
  8
0
100
AcDbBlockReference
 62
2
  6
CONTINUOUS
  2
_FILLED
 10
29.5350267655
 20
89.1726574326
 41
2.0
 42
2.0
 43
2.0
 50
270.0
  0
INSERT
  5
22D
100
AcDbEntity
  8
0
100
AcDbBlockReference
 62
2
  6
CONTINUOUS
  2
_FILLED
 10
29.5350267655
 20
113.0796574326
 41
2.0
 42
2.0
 43
2.0
 50
90.0
  0
ENDBLK
  5
22E
100
AcDbEntity
  8
0
  6
BYBLOCK
 62
0
100
AcDbBlockEnd
  0
BLOCK
  5
22F
100
AcDbEntity
  8
0
100
AcDbBlockBegin
 62
2
  6
CONTINUOUS
  2
*D1
 70
65
 10
0.0
 20
0.0
  3
*D1
  1

  0
MTEXT
  5
230
100
AcDbEntity
  8
0
100
AcDbMText
 62
2
  6
CONTINUOUS
  7
STANDARD
 71
2
 72
1
 10
120.4785909007
 20
213.561213328
 30
0.0
 11
1.0
 21
0.0
 31
0.0
 44
0.9
  1
48.0\P[1.89]
 40
2.286
 41
8.4301561338
  0
LINE
  5
231
100
AcDbEntity
  8
0
100
AcDbLine
 62
2
  6
CONTINUOUS
 10
94.9108918055
 20
194.5601574326
 11
94.9108918055
 21
215.593213328
  0
LINE
  5
232
100
AcDbEntity
  8
0
100
AcDbLine
 62
2
  6
CONTINUOUS
 10
142.9108918055
 20
195.2528711481
 11
142.9108918055
 21
215.593213328
  0
LINE
  5
233
100
AcDbEntity
  8
0
100
AcDbLine
 62
2
  6
CONTINUOUS
 10
94.9108918055
 20
212.418213328
 11
116.2422674806
 21
212.418213328
  0
LINE
  5
234
100
AcDbEntity
  8
0
100
AcDbLine
 62
2
  6
CONTINUOUS
 10
142.9108918055
 20
212.418213328
 11
126.9584236145
 21
212.418213328
  0
INSERT
  5
235
100
AcDbEntity
  8
0
100
AcDbBlockReference
 62
2
  6
CONTINUOUS
  2
_FILLED
 10
94.9108918055
 20
212.418213328
 41
2.0
 42
2.0
 43
2.0
 50
180.0
  0
INSERT
  5
236
100
AcDbEntity
  8
0
100
AcDbBlockReference
 62
2
  6
CONTINUOUS
  2
_FILLED
 10
142.9108918055
 20
212.418213328
 41
2.0
 42
2.0
 43
2.0
  0
ENDBLK
  5
237
100
AcDbEntity
  8
0
  6
BYBLOCK
 62
0
100
AcDbBlockEnd
  0
BLOCK
  5
238
100
AcDbEntity
  8
0
100
AcDbBlockBegin
 62
2
  6
CONTINUOUS
  2
*D2
 70
65
 10
0.0
 20
0.0
  3
*D2
  1

  0
MTEXT
  5
239
100
AcDbEntity
  8
0
100
AcDbMText
 62
2
  6
CONTINUOUS
  7
STANDARD
 71
2
 72
1
 10
117.7891371586
 20
204.1205001165
 30
0.0
 11
1.0
 21
0.0
 31
0.0
 44
0.9
  1
32.8\P[1.29]
 40
2.286
 41
8.4301561338
  0
LINE
  5
23A
100
AcDbEntity
  8
0
100
AcDbLine
 62
2
  6
CONTINUOUS
 10
135.3324160517
 20
175.4233486683
 11
135.3324160517
 21
206.1525001165
  0
LINE
  5
23B
100
AcDbEntity
  8
0
100
AcDbLine
 62
2
  6
CONTINUOUS
 10
102.4893675593
 20
174.8829000248
 11
102.4893675593
 21
206.1525001165
  0
LINE
  5
23C
100
AcDbEntity
  8
0
100
AcDbLine
 62
2
  6
CONTINUOUS
 10
135.3324160517
 20
202.9775001165
 11
124.2689698724
 21
202.9775001165
  0
LINE
  5
23D
100
AcDbEntity
  8
0
100
AcDbLine
 62
2
  6
CONTINUOUS
 10
102.4893675593
 20
202.9775001165
 11
113.5528137386
 21
202.9775001165
  0
INSERT
  5
23E
100
AcDbEntity
  8
0
100
AcDbBlockReference
 62
2
  6
CONTINUOUS
  2
_FILLED
 10
135.3324160517
 20
202.9775001165
 41
2.0
 42
2.0
 43
2.0
  0
INSERT
  5
23F
100
AcDbEntity
  8
0
100
AcDbBlockReference
 62
2
  6
CONTINUOUS
  2
_FILLED
 10
102.4893675593
 20
202.9775001165
 41
2.0
 42
2.0
 43
2.0
 50
180.0
  0
ENDBLK
  5
240
100
AcDbEntity
  8
0
  6
BYBLOCK
 62
0
100
AcDbBlockEnd
  0
BLOCK
  5
241
100
AcDbEntity
  8
0
100
AcDbBlockBegin
 62
2
  6
CONTINUOUS
  2
*D3
 70
65
 10
0.0
 20
0.0
  3
*D3
  1

  0
MTEXT
  5
242
100
AcDbEntity
  8
0
100
AcDbMText
 62
2
  6
CONTINUOUS
  7
STANDARD
 71
2
 72
1
 10
172.7769753304
 20
146.2072517917
 30
0.0
 11
1.0
 21
0.0
 31
0.0
 44
0.9
  1
105.8\P[4.17]
 40
2.286
 41
8.4301561338
  0
LINE
  5
243
100
AcDbEntity
  8
0
100
AcDbLine
 62
2
  6
CONTINUOUS
 10
143.1251327861
 20
194.9726574326
 11
176.1899232858
 21
194.9726574326
  0
LINE
  5
244
100
AcDbEntity
  8
0
100
AcDbLine
 62
2
  6
CONTINUOUS
 10
142.4983918055
 20
89.1726574326
 11
176.1899232858
 21
89.1726574326
  0
LINE
  5
245
100
AcDbEntity
  8
0
100
AcDbLine
 62
2
  6
CONTINUOUS
 10
173.0149232858
 20
194.9726574326
 11
173.0149232858
 21
147.3502517917
  0
LINE
  5
246
100
AcDbEntity
  8
0
100
AcDbLine
 62
2
  6
CONTINUOUS
 10
173.0149232858
 20
89.1726574326
 11
173.0149232858
 21
139.3492517917
  0
INSERT
  5
247
100
AcDbEntity
  8
0
100
AcDbBlockReference
 62
2
  6
CONTINUOUS
  2
_FILLED
 10
173.0149232858
 20
194.9726574326
 41
2.0
 42
2.0
 43
2.0
 50
90.0
  0
INSERT
  5
248
100
AcDbEntity
  8
0
100
AcDbBlockReference
 62
2
  6
CONTINUOUS
  2
_FILLED
 10
173.0149232858
 20
89.1726574326
 41
2.0
 42
2.0
 43
2.0
 50
270.0
  0
ENDBLK
  5
249
100
AcDbEntity
  8
0
  6
BYBLOCK
 62
0
100
AcDbBlockEnd
  0
BLOCK
  5
24A
100
AcDbEntity
  8
0
100
AcDbBlockBegin
 62
2
  6
CONTINUOUS
  2
*D4
 70
65
 10
0.0
 20
0.0
  3
*D4
  1

  0
MTEXT
  5
24B
100
AcDbEntity
  8
0
100
AcDbMText
 62
2
  6
CONTINUOUS
  7
STANDARD
 71
2
 72
1
 10
156.8591491951
 20
146.4684682052
 30
0.0
 11
1.0
 21
0.0
 31
0.0
 44
0.9
  1
66.4\P[2.62]
 40
2.286
 41
8.4301561338
  0
LINE
  5
24C
100
AcDbEntity
  8
0
100
AcDbLine
 62
2
  6
CONTINUOUS
 10
135.5291391216
 20
175.2941816788
 11
161.155903842
 21
175.2941816788
  0
LINE
  5
24D
100
AcDbEntity
  8
0
100
AcDbLine
 62
2
  6
CONTINUOUS
 10
134.9211343976
 20
108.8511331864
 11
161.155903842
 21
108.8511331864
  0
LINE
  5
24E
100
AcDbEntity
  8
0
100
AcDbLine
 62
2
  6
CONTINUOUS
 10
157.980903842
 20
175.2941816788
 11
157.980903842
 21
147.6114682052
  0
LINE
  5
24F
100
AcDbEntity
  8
0
100
AcDbLine
 62
2
  6
CONTINUOUS
 10
157.980903842
 20
108.8511331864
 11
157.980903842
 21
139.6104682052
  0
INSERT
  5
250
100
AcDbEntity
  8
0
100
AcDbBlockReference
 62
2
  6
CONTINUOUS
  2
_FILLED
 10
157.980903842
 20
175.2941816788
 41
2.0
 42
2.0
 43
2.0
 50
90.0
  0
INSERT
  5
251
100
AcDbEntity
  8
0
100
AcDbBlockReference
 62
2
  6
CONTINUOUS
  2
_FILLED
 10
157.980903842
 20
108.8511331864
 41
2.0
 42
2.0
 43
2.0
 50
270.0
  0
ENDBLK
  5
252
100
AcDbEntity
  8
0
  6
BYBLOCK
 62
0
100
AcDbBlockEnd
  0
BLOCK
  5
253
100
AcDbEntity
  8
0
100
AcDbBlockBegin
 62
2
  6
CONTINUOUS
  2
*D5
 70
65
 10
0.0
 20
0.0
  3
*D5
  1

  0
MTEXT
  5
254
100
AcDbEntity
  8
0
100
AcDbMText
 62
2
  6
CONTINUOUS
  7
STANDARD
 71
2
 72
1
 10
28.4132721186
 20
146.8007479346
 30
0.0
 11
1.0
 21
0.0
 31
0.0
 44
0.9
  1
58.0\P[2.28]
 40
2.286
 41
8.4301561338
  0
LINE
  5
255
100
AcDbEntity
  8
0
100
AcDbLine
 62
2
  6
CONTINUOUS
 10
53.0243233121
 20
171.0656574326
 11
26.3600267655
 21
171.0656574326
  0
LINE
  5
256
100
AcDbEntity
  8
0
100
AcDbLine
 62
2
  6
CONTINUOUS
 10
53.0243233121
 20
113.0796574326
 11
26.3600267655
 21
113.0796574326
  0
LINE
  5
257
100
AcDbEntity
  8
0
100
AcDbLine
 62
2
  6
CONTINUOUS
 10
29.5350267655
 20
171.0656574326
 11
29.5350267655
 21
147.9437479346
  0
LINE
  5
258
100
AcDbEntity
  8
0
100
AcDbLine
 62
2
  6
CONTINUOUS
 10
29.5350267655
 20
113.0796574326
 11
29.5350267655
 21
139.9427479346
  0
INSERT
  5
259
100
AcDbEntity
  8
0
100
AcDbBlockReference
 62
2
  6
CONTINUOUS
  2
_FILLED
 10
29.5350267655
 20
171.0656574326
 41
2.0
 42
2.0
 43
2.0
 50
90.0
  0
INSERT
  5
25A
100
AcDbEntity
  8
0
100
AcDbBlockReference
 62
2
  6
CONTINUOUS
  2
_FILLED
 10
29.5350267655
 20
113.0796574326
 41
2.0
 42
2.0
 43
2.0
 50
270.0
  0
ENDBLK
  5
25B
100
AcDbEntity
  8
0
  6
BYBLOCK
 62
0
100
AcDbBlockEnd
  0
BLOCK
  5
25C
100
AcDbEntity
  8
0
100
AcDbBlockBegin
 62
2
  6
CONTINUOUS
  2
*D6
 70
65
 10
0.0
 20
0.0
  3
*D6
  1

  0
MTEXT
  5
25D
100
AcDbEntity
  8
0
100
AcDbMText
 62
2
  6
CONTINUOUS
  7
STANDARD
 71
1
 72
1
 10
213.3974880004
 20
202.1484392871
 30
0.0
 11
1.0
 21
0.0
 31
0.0
 44
0.9
  1
1.5\P[0.06]
 40
2.286
 41
8.4301561338
  0
LINE
  5
25E
100
AcDbEntity
  8
0
100
AcDbLine
 62
2
  6
CONTINUOUS
 10
203.7246197548
 20
194.5601574326
 11
203.7246197548
 21
204.1804392871
  0
LINE
  5
25F
100
AcDbEntity
  8
0
100
AcDbLine
 62
2
  6
CONTINUOUS
 10
205.2446197548
 20
194.5601574326
 11
205.2446197548
 21
204.1804392871
  0
LINE
  5
260
100
AcDbEntity
  8
0
100
AcDbLine
 62
2
  6
CONTINUOUS
 10
203.7246197548
 20
201.0054392871
 11
199.7246197548
 21
201.0054392871
  0
LINE
  5
261
100
AcDbEntity
  8
0
100
AcDbLine
 62
2
  6
CONTINUOUS
 10
205.2446197548
 20
201.0054392871
 11
212.2544880004
 21
201.0054392871
  0
INSERT
  5
262
100
AcDbEntity
  8
0
100
AcDbBlockReference
 62
2
  6
CONTINUOUS
  2
_FILLED
 10
203.7246197548
 20
201.0054392871
 41
2.0
 42
2.0
 43
2.0
  0
INSERT
  5
263
100
AcDbEntity
  8
0
100
AcDbBlockReference
 62
2
  6
CONTINUOUS
  2
_FILLED
 10
205.2446197548
 20
201.0054392871
 41
2.0
 42
2.0
 43
2.0
 50
180.0
  0
ENDBLK
  5
264
100
AcDbEntity
  8
0
  6
BYBLOCK
 62
0
100
AcDbBlockEnd
  0
BLOCK
  5
265
100
AcDbEntity
  8
0
100
AcDbBlockBegin
 62
2
  6
CONTINUOUS
  2
*D7
 70
65
 10
0.0
 20
0.0
  3
*D7
  1

  0
MTEXT
  5
266
100
AcDbEntity
  8
0
100
AcDbMText
 62
2
  6
CONTINUOUS
  7
STANDARD
 71
2
 72
1
 10
151.5107835023
 20
250.4232167205
 30
0.0
 11
1.0
 21
0.0
 31
0.0
 44
0.9
  1
27.2\P[1.07]
 40
2.286
 41
8.4301561338
  0
LINE
  5
267
100
AcDbEntity
  8
0
100
AcDbLine
 62
2
  6
CONTINUOUS
 10
136.6026718055
 20
260.8476634104
 11
155.8075381492
 21
260.8476634104
  0
LINE
  5
268
100
AcDbEntity
  8
0
100
AcDbLine
 62
2
  6
CONTINUOUS
 10
144.4983918055
 20
233.6497734104
 11
155.8075381492
 21
233.6497734104
  0
LINE
  5
269
100
AcDbEntity
  8
0
100
AcDbLine
 62
2
  6
CONTINUOUS
 10
152.6325381492
 20
260.8476634104
 11
152.6325381492
 21
251.5662167205
  0
LINE
  5
26A
100
AcDbEntity
  8
0
100
AcDbLine
 62
2
  6
CONTINUOUS
 10
152.6325381492
 20
233.6497734104
 11
152.6325381492
 21
243.5652167205
  0
INSERT
  5
26B
100
AcDbEntity
  8
0
100
AcDbBlockReference
 62
2
  6
CONTINUOUS
  2
_FILLED
 10
152.6325381492
 20
260.8476634104
 41
2.0
 42
2.0
 43
2.0
 50
90.0
  0
INSERT
  5
26C
100
AcDbEntity
  8
0
100
AcDbBlockReference
 62
2
  6
CONTINUOUS
  2
_FILLED
 10
152.6325381492
 20
233.6497734104
 41
2.0
 42
2.0
 43
2.0
 50
270.0
  0
ENDBLK
  5
26D
100
AcDbEntity
  8
0
  6
BYBLOCK
 62
0
100
AcDbBlockEnd
  0
BLOCK
  5
26E
100
AcDbEntity
  8
0
100
AcDbBlockBegin
 62
2
  6
CONTINUOUS
  2
*D8
 70
65
 10
0.0
 20
0.0
  3
*D8
  1

  0
MTEXT
  5
26F
100
AcDbEntity
  8
0
100
AcDbMText
 62
2
  6
CONTINUOUS
  7
STANDARD
 71
2
 72
1
 10
166.936245339
 20
247.4200370246
 30
0.0
 11
1.0
 21
0.0
 31
0.0
 44
0.9
  1
35.7\P[1.41]
 40
2.286
 41
8.4301561338
  0
LINE
  5
270
100
AcDbEntity
  8
0
100
AcDbLine
 62
2
  6
CONTINUOUS
 10
136.6026718055
 20
260.8476634104
 11
171.2329999858
 21
260.8476634104
  0
LINE
  5
271
100
AcDbEntity
  8
0
100
AcDbLine
 62
2
  6
CONTINUOUS
 10
129.3796185186
 20
225.1497734104
 11
171.2329999858
 21
225.1497734104
  0
LINE
  5
272
100
AcDbEntity
  8
0
100
AcDbLine
 62
2
  6
CONTINUOUS
 10
168.0579999858
 20
260.8476634104
 11
168.0579999858
 21
248.5630370246
  0
LINE
  5
273
100
AcDbEntity
  8
0
100
AcDbLine
 62
2
  6
CONTINUOUS
 10
168.0579999858
 20
225.1497734104
 11
168.0579999858
 21
240.5620370246
  0
INSERT
  5
274
100
AcDbEntity
  8
0
100
AcDbBlockReference
 62
2
  6
CONTINUOUS
  2
_FILLED
 10
168.0579999858
 20
260.8476634104
 41
2.0
 42
2.0
 43
2.0
 50
90.0
  0
INSERT
  5
275
100
AcDbEntity
  8
0
100
AcDbBlockReference
 62
2
  6
CONTINUOUS
  2
_FILLED
 10
168.0579999858
 20
225.1497734104
 41
2.0
 42
2.0
 43
2.0
 50
270.0
  0
ENDBLK
  5
276
100
AcDbEntity
  8
0
  6
BYBLOCK
 62
0
100
AcDbBlockEnd
  0
BLOCK
  5
277
100
AcDbEntity
  8
0
100
AcDbBlockBegin
 62
2
  6
CONTINUOUS
  2
*D9
 70
65
 10
0.0
 20
0.0
  3
*D9
  1

  0
MTEXT
  5
278
100
AcDbEntity
  8
0
100
AcDbMText
 62
2
  6
CONTINUOUS
  7
STANDARD
 71
2
 72
1
 10
119.2472569062
 20
26.7994403739
 30
0.0
 11
1.0
 21
0.0
 31
0.0
 44
0.9
  1
45.1\P[1.77]
 40
2.286
 41
8.4301561338
  0
LINE
  5
279
100
AcDbEntity
  8
0
100
AcDbLine
 62
2
  6
CONTINUOUS
 10
96.3538318055
 20
49.0479509298
 11
96.3538318055
 21
22.4814403739
  0
LINE
  5
27A
100
AcDbEntity
  8
0
100
AcDbLine
 62
2
  6
CONTINUOUS
 10
141.4108918055
 20
51.3690171768
 11
141.4108918055
 21
22.4814403739
  0
LINE
  5
27B
100
AcDbEntity
  8
0
100
AcDbLine
 62
2
  6
CONTINUOUS
 10
96.3538318055
 20
25.6564403739
 11
115.0109334861
 21
25.6564403739
  0
LINE
  5
27C
100
AcDbEntity
  8
0
100
AcDbLine
 62
2
  6
CONTINUOUS
 10
141.4108918055
 20
25.6564403739
 11
125.7270896199
 21
25.6564403739
  0
INSERT
  5
27D
100
AcDbEntity
  8
0
100
AcDbBlockReference
 62
2
  6
CONTINUOUS
  2
_FILLED
 10
96.3538318055
 20
25.6564403739
 41
2.0
 42
2.0
 43
2.0
 50
180.0
  0
INSERT
  5
27E
100
AcDbEntity
  8
0
100
AcDbBlockReference
 62
2
  6
CONTINUOUS
  2
_FILLED
 10
141.4108918055
 20
25.6564403739
 41
2.0
 42
2.0
 43
2.0
  0
ENDBLK
  5
27F
100
AcDbEntity
  8
0
  6
BYBLOCK
 62
0
100
AcDbBlockEnd
  0
BLOCK
  5
280
100
AcDbEntity
  8
0
100
AcDbBlockBegin
 62
2
  6
CONTINUOUS
  2
*D10
 70
65
 10
0.0
 20
0.0
  3
*D10
  1

  0
MTEXT
  5
281
100
AcDbEntity
  8
0
100
AcDbMText
 62
2
  6
CONTINUOUS
  7
STANDARD
 71
2
 72
1
 10
323.276401181
 20
147.7941056133
 30
0.0
 11
1.0
 21
0.0
 31
0.0
 44
0.9
  1
83.3\P[3.28]
 40
2.286
 41
8.4301561338
  0
LINE
  5
282
100
AcDbEntity
  8
0
100
AcDbLine
 62
2
  6
CONTINUOUS
 10
289.3498423015
 20
183.7226574326
 11
327.5731558278
 21
183.7226574326
  0
LINE
  5
283
100
AcDbEntity
  8
0
100
AcDbLine
 62
2
  6
CONTINUOUS
 10
289.2518861464
 20
100.4226574326
 11
327.5731558278
 21
100.4226574326
  0
LINE
  5
284
100
AcDbEntity
  8
0
100
AcDbLine
 62
2
  6
CONTINUOUS
 10
324.3981558278
 20
183.7226574326
 11
324.3981558278
 21
148.9371056133
  0
LINE
  5
285
100
AcDbEntity
  8
0
100
AcDbLine
 62
2
  6
CONTINUOUS
 10
324.3981558278
 20
100.4226574326
 11
324.3981558278
 21
140.9361056133
  0
INSERT
  5
286
100
AcDbEntity
  8
0
100
AcDbBlockReference
 62
2
  6
CONTINUOUS
  2
_FILLED
 10
324.3981558278
 20
183.7226574326
 41
2.0
 42
2.0
 43
2.0
 50
90.0
  0
INSERT
  5
287
100
AcDbEntity
  8
0
100
AcDbBlockReference
 62
2
  6
CONTINUOUS
  2
_FILLED
 10
324.3981558278
 20
100.4226574326
 41
2.0
 42
2.0
 43
2.0
 50
270.0
  0
ENDBLK
  5
288
100
AcDbEntity
  8
0
  6
BYBLOCK
 62
0
100
AcDbBlockEnd
  0
BLOCK
  5
289
100
AcDbEntity
  8
0
100
AcDbBlockBegin
 62
2
  6
CONTINUOUS
  2
*D11
 70
65
 10
0.0
 20
0.0
  3
*D11
  1

  0
MTEXT
  5
28A
100
AcDbEntity
  8
0
100
AcDbMText
 62
2
  6
CONTINUOUS
  7
STANDARD
 71
2
 72
1
 10
246.958814912
 20
145.5574221113
 30
0.0
 11
1.0
 21
0.0
 31
0.0
 44
0.9
  1
96.8\P[3.81]
 40
2.286
 41
8.4301561338
  0
LINE
  5
28B
100
AcDbEntity
  8
0
100
AcDbLine
 62
2
  6
CONTINUOUS
 10
277.5250771536
 20
190.4726574326
 11
244.9055695588
 21
190.4726574326
  0
LINE
  5
28C
100
AcDbEntity
  8
0
100
AcDbLine
 62
2
  6
CONTINUOUS
 10
277.5250771536
 20
93.6726574326
 11
244.9055695588
 21
93.6726574326
  0
LINE
  5
28D
100
AcDbEntity
  8
0
100
AcDbLine
 62
2
  6
CONTINUOUS
 10
248.0805695588
 20
190.4726574326
 11
248.0805695588
 21
146.7004221113
  0
LINE
  5
28E
100
AcDbEntity
  8
0
100
AcDbLine
 62
2
  6
CONTINUOUS
 10
248.0805695588
 20
93.6726574326
 11
248.0805695588
 21
138.6994221113
  0
INSERT
  5
28F
100
AcDbEntity
  8
0
100
AcDbBlockReference
 62
2
  6
CONTINUOUS
  2
_FILLED
 10
248.0805695588
 20
190.4726574326
 41
2.0
 42
2.0
 43
2.0
 50
90.0
  0
INSERT
  5
290
100
AcDbEntity
  8
0
100
AcDbBlockReference
 62
2
  6
CONTINUOUS
  2
_FILLED
 10
248.0805695588
 20
93.6726574326
 41
2.0
 42
2.0
 43
2.0
 50
270.0
  0
ENDBLK
  5
291
100
AcDbEntity
  8
0
  6
BYBLOCK
 62
0
100
AcDbBlockEnd
  0
ENDSEC
  0
SECTION
  2
ENTITIES
  0
MTEXT
  5
292
100
AcDbEntity
  8
0
100
AcDbMText
 62
2
  6
CONTINUOUS
  7
TEXTSTYLE_2
 71
1
 72
1
 10
5.7677862077
 20
43.3795273934
 30
0.0
 11
1.0
 21
0.0
 31
0.0
  1
A
 40
2.38125
 41
2.4520678439
  0
MTEXT
  5
293
100
AcDbEntity
  8
0
100
AcDbMText
 62
2
  6
CONTINUOUS
  7
TEXTSTYLE_2
 71
1
 72
1
 10
5.7583787608
 20
108.751671506
 30
0.0
 11
1.0
 21
0.0
 31
0.0
  1
B
 40
2.38125
 41
1.9032295539
  0
MTEXT
  5
294
100
AcDbEntity
  8
0
100
AcDbMText
 62
2
  6
CONTINUOUS
  7
TEXTSTYLE_2
 71
1
 72
1
 10
5.7588344855
 20
174.1358550402
 30
0.0
 11
1.0
 21
0.0
 31
0.0
  1
C
 40
2.38125
 41
2.6999302974
  0
MTEXT
  5
295
100
AcDbEntity
  8
0
100
AcDbMText
 62
2
  6
CONTINUOUS
  7
TEXTSTYLE_2
 71
1
 72
1
 10
5.7539276133
 20
239.5451524769
 30
0.0
 11
1.0
 21
0.0
 31
0.0
  1
D
 40
2.38125
 41
2.4697723048
  0
MTEXT
  5
296
100
AcDbEntity
  8
0
100
AcDbMText
 62
2
  6
CONTINUOUS
  7
TEXTSTYLE_2
 71
1
 72
1
 10
364.7082648066
 20
11.8166512319
 30
0.0
 11
1.0
 21
0.0
 31
0.0
 44
1.0000002
  1
SCALE:  
 40
1.322917
 41
7.155554777
  0
MTEXT
  5
297
100
AcDbEntity
  8
0
100
AcDbMText
 62
2
  6
CONTINUOUS
  7
TEXTSTYLE_2
 71
1
 72
1
 10
364.8177275258
 20
18.5689373072
 30
0.0
 11
1.0
 21
0.0
 31
0.0
 44
1.0000002
  1
SIZE
 40
1.322917
 41
3.2113933123
  0
MTEXT
  5
298
100
AcDbEntity
  8
0
100
AcDbMText
 62
2
  6
CONTINUOUS
  7
TEXTSTYLE_2
 71
1
 72
1
 10
376.5185266918
 20
11.7219289879
 30
0.0
 11
1.0
 21
0.0
 31
0.0
 44
1.0000002
  1
CAD FILE:                   
 40
1.332
 41
18.251866171
  0
MTEXT
  5
299
100
AcDbEntity
  8
0
100
AcDbMText
 62
2
  6
CONTINUOUS
  7
TEXTSTYLE_2
 71
1
 72
1
 10
381.4683215167
 20
18.5227673406
 30
0.0
 11
1.0
 21
0.0
 31
0.0
 44
1.0000002
  1
DWG. NO.
 40
1.322917
 41
9.2505831859
  0
MTEXT
  5
29A
100
AcDbEntity
  8
0
100
AcDbMText
 62
2
  6
CONTINUOUS
  7
TEXTSTYLE_2
 71
1
 72
1
 10
365.6176875846
 20
15.6536367709
 30
0.0
 11
1.0
 21
0.0
 31
0.0
 44
1.0000002
  1
B
 40
1.852083
 41
1.4802893866
  0
MTEXT
  5
29B
100
AcDbEntity
  8
0
100
AcDbMText
 62
2
  6
CONTINUOUS
  7
TEXTSTYLE_2
 71
1
 72
1
 10
406.1148784162
 20
11.7709584038
 30
0.0
 11
1.0
 21
0.0
 31
0.0
 44
1.0000002
  1
SHEET:
 40
1.322917
 41
5.4539589331
  0
MTEXT
  5
29C
100
AcDbEntity
  8
0
100
AcDbMText
 62
2
  6
CONTINUOUS
  7
TEXTSTYLE_2
 71
1
 72
1
 10
330.3430968124
 20
35.451913098
 30
0.0
 11
1.0
 21
0.0
 31
0.0
 44
1.0000002
  1
DRAWN BY
 40
1.322917
 41
9.648933658
  0
MTEXT
  5
29D
100
AcDbEntity
  8
0
100
AcDbMText
 62
2
  6
CONTINUOUS
  7
TEXTSTYLE_2
 71
1
 72
1
 10
330.4772902045
 20
28.742286017
 30
0.0
 11
1.0
 21
0.0
 31
0.0
 44
1.0000002
  1
MECH ENGINEER
 40
1.322917
 41
14.7930644461
  0
MTEXT
  5
29E
100
AcDbEntity
  8
0
100
AcDbMText
 62
2
  6
CONTINUOUS
  7
TEXTSTYLE_2
 71
1
 72
1
 10
330.4772902045
 20
22.02780235
 30
0.0
 11
1.0
 21
0.0
 31
0.0
 44
1.0000002
  1
TECH DIRECTOR
 40
1.322917
 41
13.9570202454
  0
MTEXT
  5
29F
100
AcDbEntity
  8
0
100
AcDbMText
 62
2
  6
CONTINUOUS
  7
TEXTSTYLE_2
 71
1
 72
1
 10
330.4772902045
 20
15.205351207
 30
0.0
 11
1.0
 21
0.0
 31
0.0
 44
1.0000002
  1
MFG ENG
 40
1.322917
 41
8.6702701524
  0
MTEXT
  5
2A0
100
AcDbEntity
  8
0
100
AcDbMText
 62
2
  6
CONTINUOUS
  7
TEXTSTYLE_2
 71
1
 72
1
 10
299.8501672409
 20
37.339267382
 30
0.0
 11
1.0
 21
0.0
 31
0.0
 44
1.0000002
  1
DECIMALS                    ANGLES
 40
1.322917
 41
26.4288325576
  0
MTEXT
  5
2A1
100
AcDbEntity
  8
0
100
AcDbMText
 62
2
  6
CONTINUOUS
  7
TEXTSTYLE_2
 71
1
 72
1
 10
296.4887795471
 20
27.0787807843
 30
0.0
 11
1.0
 21
0.0
 31
0.0
 44
1.0000002
  1
MATERIAL
 40
1.322917
 41
8.5866657323
  0
MTEXT
  5
2A2
100
AcDbEntity
  8
0
100
AcDbMText
 62
2
  6
CONTINUOUS
  7
TEXTSTYLE_2
 71
1
 72
1
 10
296.5795302136
 20
22.4500540324
 30
0.0
 11
1.0
 21
0.0
 31
0.0
 44
1.0000002
  1
FINISH
 40
1.322917
 41
5.2719963717
  0
MTEXT
  5
2A3
100
AcDbEntity
  8
0
100
AcDbMText
 62
2
  6
CONTINUOUS
  7
TEXTSTYLE_2
 71
1
 72
1
 10
298.3080539716
 20
17.1890289922
 30
0.0
 11
1.0
 21
0.0
 31
0.0
 44
1.0000002
  1
DO  NOT  SCALE  DRAWING
 40
1.5875
 41
29.3185873606
  0
MTEXT
  5
2A4
100
AcDbEntity
  8
0
100
AcDbMText
 62
2
  6
CONTINUOUS
  7
TEXTSTYLE_2
 71
1
 72
1
 10
396.214880259
 20
8.7710035536
 30
0.0
 11
1.0
 21
0.0
 31
0.0
  1
1
 40
2.38125
 41
1.8412639405
  0
MTEXT
  5
2A5
100
AcDbEntity
  8
0
100
AcDbMText
 62
2
  6
CONTINUOUS
  7
TEXTSTYLE_2
 71
1
 72
1
 10
344.4508112807
 20
8.8537169786
 30
0.0
 11
1.0
 21
0.0
 31
0.0
  1
2
 40
2.38125
 41
1.8412639405
  0
MTEXT
  5
2A6
100
AcDbEntity
  8
0
100
AcDbMText
 62
2
  6
CONTINUOUS
  7
TEXTSTYLE_2
 71
1
 72
1
 10
292.6525037042
 20
8.8009815291
 30
0.0
 11
1.0
 21
0.0
 31
0.0
  1
3
 40
2.38125
 41
1.8412639405
  0
MTEXT
  5
2A7
100
AcDbEntity
  8
0
100
AcDbMText
 62
2
  6
CONTINUOUS
  7
TEXTSTYLE_2
 71
1
 72
1
 10
240.9372000145
 20
8.8318473945
 30
0.0
 11
1.0
 21
0.0
 31
0.0
  1
4
 40
2.38125
 41
1.8412639405
  0
MTEXT
  5
2A8
100
AcDbEntity
  8
0
100
AcDbMText
 62
2
  6
CONTINUOUS
  7
TEXTSTYLE_2
 71
1
 72
1
 10
189.2271005485
 20
8.8055806862
 30
0.0
 11
1.0
 21
0.0
 31
0.0
  1
5
 40
2.38125
 41
1.8412639405
  0
MTEXT
  5
2A9
100
AcDbEntity
  8
0
100
AcDbMText
 62
2
  6
CONTINUOUS
  7
TEXTSTYLE_2
 71
1
 72
1
 10
137.4683571777
 20
8.8762464364
 30
0.0
 11
1.0
 21
0.0
 31
0.0
  1
6
 40
2.38125
 41
1.8412639405
  0
MTEXT
  5
2AA
100
AcDbEntity
  8
0
100
AcDbMText
 62
2
  6
CONTINUOUS
  7
TEXTSTYLE_2
 71
1
 72
1
 10
85.6985152964
 20
8.8355324038
 30
0.0
 11
1.0
 21
0.0
 31
0.0
  1
7
 40
2.38125
 41
1.8412639405
  0
MTEXT
  5
2AB
100
AcDbEntity
  8
0
100
AcDbMText
 62
2
  6
CONTINUOUS
  7
TEXTSTYLE_2
 71
1
 72
1
 10
33.9071839656
 20
8.7993906899
 30
0.0
 11
1.0
 21
0.0
 31
0.0
  1
8
 40
2.38125
 41
1.8412639405
  0
MTEXT
  5
2AC
100
AcDbEntity
  8
0
100
AcDbMText
 62
2
  6
CONTINUOUS
  7
TEXTSTYLE_2
 71
1
 72
1
 10
34.626226822
 20
273.6184975455
 30
0.0
 11
1.0
 21
0.0
 31
0.0
 44
1.0000002
  1
8
 40
2.38125
 41
1.8412639405
  0
MTEXT
  5
2AD
100
AcDbEntity
  8
0
100
AcDbMText
 62
2
  6
CONTINUOUS
  7
TEXTSTYLE_2
 71
1
 72
1
 10
296.4125555748
 20
12.4084500899
 30
0.0
 11
1.0
 21
0.0
 31
0.0
 44
1.0000002
  1
PROJECTION SYMBOL
 40
1.57
 41
22.6628624535
  0
MTEXT
  5
2AE
100
AcDbEntity
  8
0
100
AcDbMText
 62
2
  6
CONTINUOUS
  7
TEXTSTYLE_2
 71
1
 72
1
 10
341.155557696
 20
38.242264154
 30
0.0
 11
1.0
 21
0.0
 31
0.0
 44
1.0000002
  1
APPROVALS
 40
1.322917
 41
10.6964478625
  0
MTEXT
  5
2AF
100
AcDbEntity
  8
0
100
AcDbMText
 62
2
  6
CONTINUOUS
  7
TEXTSTYLE_2
 71
1
 72
1
 10
85.7815568681
 20
273.6408526954
 30
0.0
 11
1.0
 21
0.0
 31
0.0
 44
1.0000002
  1
7
 40
2.38125
 41
1.8412639405
  0
MTEXT
  5
2B0
100
AcDbEntity
  8
0
100
AcDbMText
 62
2
  6
CONTINUOUS
  7
TEXTSTYLE_2
 71
1
 72
1
 10
189.232330597
 20
273.5409373028
 30
0.0
 11
1.0
 21
0.0
 31
0.0
  1
5
 40
2.38125
 41
1.8412639405
  0
MTEXT
  5
2B1
100
AcDbEntity
  8
0
100
AcDbMText
 62
2
  6
CONTINUOUS
  7
TEXTSTYLE_2
 71
1
 72
1
 10
240.9763037831
 20
273.5494457072
 30
0.0
 11
1.0
 21
0.0
 31
0.0
  1
4
 40
2.38125
 41
1.8412639405
  0
MTEXT
  5
2B2
100
AcDbEntity
  8
0
100
AcDbMText
 62
2
  6
CONTINUOUS
  7
TEXTSTYLE_2
 71
1
 72
1
 10
292.6996445081
 20
273.5432996207
 30
0.0
 11
1.0
 21
0.0
 31
0.0
  1
3
 40
2.38125
 41
1.8412639405
  0
MTEXT
  5
2B3
100
AcDbEntity
  8
0
100
AcDbMText
 62
2
  6
CONTINUOUS
  7
TEXTSTYLE_2
 71
1
 72
1
 10
344.4665451218
 20
273.5960629059
 30
0.0
 11
1.0
 21
0.0
 31
0.0
  1
2
 40
2.38125
 41
1.8412639405
  0
MTEXT
  5
2B4
100
AcDbEntity
  8
0
100
AcDbMText
 62
2
  6
CONTINUOUS
  7
TEXTSTYLE_2
 71
1
 72
1
 10
396.3106141367
 20
273.6167748594
 30
0.0
 11
1.0
 21
0.0
 31
0.0
  1
1
 40
2.38125
 41
1.8412639405
  0
MTEXT
  5
2B5
100
AcDbEntity
  8
0
100
AcDbMText
 62
2
  6
CONTINUOUS
  7
TEXTSTYLE_2
 71
1
 72
1
 10
423.839412547
 20
239.4747881035
 30
0.0
 11
1.0
 21
0.0
 31
0.0
  1
D
 40
2.38125
 41
2.4697723048
  0
MTEXT
  5
2B6
100
AcDbEntity
  8
0
100
AcDbMText
 62
2
  6
CONTINUOUS
  7
TEXTSTYLE_2
 71
1
 72
1
 10
423.575928039
 20
174.1203274733
 30
0.0
 11
1.0
 21
0.0
 31
0.0
  1
C
 40
2.38125
 41
2.6999302974
  0
MTEXT
  5
2B7
100
AcDbEntity
  8
0
100
AcDbMText
 62
2
  6
CONTINUOUS
  7
TEXTSTYLE_2
 71
1
 72
1
 10
424.3027557505
 20
108.6553621351
 30
0.0
 11
1.0
 21
0.0
 31
0.0
  1
B
 40
2.38125
 41
1.9032295539
  0
MTEXT
  5
2B8
100
AcDbEntity
  8
0
100
AcDbMText
 62
2
  6
CONTINUOUS
  7
TEXTSTYLE_2
 71
1
 72
1
 10
423.7798832169
 20
43.2904669279
 30
0.0
 11
1.0
 21
0.0
 31
0.0
  1
A
 40
2.38125
 41
2.4520678439
  0
MTEXT
  5
2B9
100
AcDbEntity
  8
0
100
AcDbMText
 62
2
  6
CONTINUOUS
  7
TEXTSTYLE_2
 71
1
 72
1
 10
296.6547091692
 20
46.4988126979
 30
0.0
 11
1.0
 21
0.0
 31
0.0
 44
1.2
  1
UNLESS  OTHERWISE  SPECIFIED\PDIMENSIONS ARE IN MM [IN]\PTOLERANCES ARE:
 40
1.5875
 41
32.0922862454
  0
MTEXT
  5
2BA
100
AcDbEntity
  8
0
100
AcDbMText
 62
2
  6
CONTINUOUS
  7
TEXTSTYLE_2
 71
1
 72
1
 10
331.1869075961
 20
45.747428231
 30
0.0
 11
1.0
 21
0.0
 31
0.0
 44
1.0000002
  1
CAD GENERATED DRAWING\PDO NOT MANUALLY UPDATE
 40
1.5875
 41
29.8320167286
  0
MTEXT
  5
2BB
100
AcDbEntity
  8
0
100
AcDbMText
 62
2
  6
CONTINUOUS
  7
TEXTSTYLE_2
 71
1
 72
1
 10
10.0228878372
 20
268.0383693567
 30
0.0
 11
1.0
 21
0.0
 31
0.0
 44
1.0000002
  1
PROPERTY OF QSC, LLC, THAT MAY NOT BE DISCLOSED, REPRODUCED OR
 40
1.322917
 41
64.4540899703
  0
MTEXT
  5
2BC
100
AcDbEntity
  8
0
100
AcDbMText
 62
2
  6
CONTINUOUS
  7
TEXTSTYLE_2
 71
1
 72
1
 10
10.0228878372
 20
269.9497980818
 30
0.0
 11
1.0
 21
0.0
 31
0.0
 44
1.0000002
  1
THIS DOCUMENT CONTAINS PROPRIETARY INFORMATION WHICH IS THE
 40
1.322917
 41
61.8033380632
  0
MTEXT
  5
2BD
100
AcDbEntity
  8
0
100
AcDbMText
 62
2
  6
CONTINUOUS
  7
TEXTSTYLE_2
 71
1
 72
1
 10
9.9940010246
 20
266.0572807378
 30
0.0
 11
1.0
 21
0.0
 31
0.0
 44
1.0000002
  1
USED WITHOUT THE EXPRESS WRITTEN CONSENT FROM QSC, LLC.
 40
1.322917
 41
55.9264391227
  0
MTEXT
  5
2BE
100
AcDbEntity
  8
0
100
AcDbMText
 62
2
  6
CONTINUOUS
  7
TEXTSTYLE_2
 71
1
 72
1
 10
416.1265191888
 20
18.5679166147
 30
0.0
 11
1.0
 21
0.0
 31
0.0
 44
1.0000002
  1
REV
 40
1.322917
 41
3.4031916877
  0
MTEXT
  5
2BF
100
AcDbEntity
  8
0
100
AcDbMText
 62
2
  6
CONTINUOUS
  7
TEXTSTYLE_2
 71
1
 72
1
 10
137.4713364205
 20
273.5780188097
 30
0.0
 11
1.0
 21
0.0
 31
0.0
  1
6
 40
2.38125
 41
1.8412639405
  0
MTEXT
  5
2C0
100
AcDbEntity
  8
0
100
AcDbMText
 62
2
  6
CONTINUOUS
  7
TEXTSTYLE_2
 71
1
 72
1
 10
369.0206703616
 20
18.4575549308
 30
0.0
 11
1.0
 21
0.0
 31
0.0
 44
1.0000002
  1
CAGE CODE
 40
1.322917
 41
11.4341339219
  0
MTEXT
  5
2C1
100
AcDbEntity
  8
0
100
AcDbMText
 62
2
  6
CONTINUOUS
  7
TEXTSTYLE_2
 71
1
 72
1
 10
370.6976875846
 20
15.6536367709
 30
0.0
 11
1.0
 21
0.0
 31
0.0
 44
1.0000002
  1
00PW4
 40
1.852083
 41
8.3033906989
  0
MTEXT
  5
2C2
100
AcDbEntity
  8
0
100
AcDbMText
 62
2
  6
CONTINUOUS
  7
TEXTSTYLE_2
 71
1
 72
1
 10
390.8431650583
 20
42.9141871336
 30
0.0
 11
1.0
 21
0.0
 31
0.0
 44
1.0000002
  1
1675 MACARTHUR BOULEVARD\PCOSTA MESA, CA 92626 USA
 40
1.524
 41
31.5564312268
  0
MTEXT
  5
2C3
100
AcDbEntity
  8
0
100
AcDbMText
 62
2
  6
CONTINUOUS
  7
TEXTSTYLE_2
 71
1
 72
1
 10
391.0581796993
 20
46.5070333206
 30
0.0
 11
1.0
 21
0.0
 31
0.0
 44
1.0000002
  1
QSC, LLC
 40
2.54
 41
15.8443122677
  0
MTEXT
  5
2C4
100
AcDbEntity
  8
0
100
AcDbMText
 62
2
  6
CONTINUOUS
  7
TEXTSTYLE_2
 71
3
 72
1
 10
422.6646959986
 20
7.4147628008
 30
0.0
 11
1.0
 21
0.0
 31
0.0
 44
1.0000002
  1
Form: QMS100206 Rev A
 40
1.0
 41
16.2565055762
  0
DIMENSION
  5
2C5
100
AcDbEntity
  8
0
100
AcDbDimension
 62
2
  6
CONTINUOUS
  2
*D0
 10
29.5350267655
 20
113.0796574326
 11
29.5350267655
 21
101.7853932084
 70
160
 71
2
 42
23.907
  3
DIMSTYLE_1
100
AcDbAlignedDimension
 13
68.6097133121
 23
89.1726574326
 14
54.6118233121
 24
113.0796574326
 50
90.0
100
AcDbRotatedDimension
  0
DIMENSION
  5
2C6
100
AcDbEntity
  8
0
100
AcDbDimension
 62
2
  6
CONTINUOUS
  2
*D1
 10
142.9108918055
 20
212.418213328
 11
121.6003455475
 21
210.703713328
 70
160
 71
2
 42
48.0
  3
DIMSTYLE_2
100
AcDbAlignedDimension
 13
94.9108918055
 23
192.9726574326
 14
142.9108918055
 24
193.6653711481
100
AcDbRotatedDimension
  0
DIMENSION
  5
2C7
100
AcDbEntity
  8
0
100
AcDbDimension
 62
2
  6
CONTINUOUS
  2
*D2
 10
102.4893675593
 20
202.9775001165
 11
118.9108918055
 21
201.2630001165
 70
160
 71
2
 42
32.8430484924
  3
DIMSTYLE_2
100
AcDbAlignedDimension
 13
135.3324160517
 23
173.8358486683
 14
102.4893675593
 24
173.2954000248
 50
180.0
100
AcDbRotatedDimension
  0
DIMENSION
  5
2C8
100
AcDbEntity
  8
0
100
AcDbDimension
 62
2
  6
CONTINUOUS
  2
*D3
 10
173.0149232858
 20
89.1726574326
 11
173.0149232858
 21
143.3497517917
 70
160
 71
2
 42
105.8
  3
DIMSTYLE_2
100
AcDbAlignedDimension
 13
141.5376327861
 23
194.9726574326
 14
140.9108918055
 24
89.1726574326
 50
270.0
100
AcDbRotatedDimension
  0
DIMENSION
  5
2C9
100
AcDbEntity
  8
0
100
AcDbDimension
 62
2
  6
CONTINUOUS
  2
*D4
 10
157.980903842
 20
108.8511331864
 11
157.980903842
 21
143.6109682052
 70
160
 71
2
 42
66.4430484924
  3
DIMSTYLE_2
100
AcDbAlignedDimension
 13
133.9416391216
 23
175.2941816788
 14
133.3336343976
 24
108.8511331864
 50
270.0
100
AcDbRotatedDimension
  0
DIMENSION
  5
2CA
100
AcDbEntity
  8
0
100
AcDbDimension
 62
2
  6
CONTINUOUS
  2
*D5
 10
29.5350267655
 20
113.0796574326
 11
29.5350267655
 21
143.9432479346
 70
160
 71
2
 42
57.986
  3
DIMSTYLE_2
100
AcDbAlignedDimension
 13
54.6118233121
 23
171.0656574326
 14
54.6118233121
 24
113.0796574326
 50
270.0
100
AcDbRotatedDimension
  0
DIMENSION
  5
2CB
100
AcDbEntity
  8
0
100
AcDbDimension
 62
2
  6
CONTINUOUS
  2
*D6
 10
205.2446197548
 20
201.0054392871
 11
217.6125660673
 21
199.2909392871
 70
160
 71
1
 42
1.52
  3
DIMSTYLE_2
100
AcDbAlignedDimension
 13
203.7246197548
 23
192.9726574326
 14
205.2446197548
 24
192.9726574326
100
AcDbRotatedDimension
  0
DIMENSION
  5
2CC
100
AcDbEntity
  8
0
100
AcDbDimension
 62
2
  6
CONTINUOUS
  2
*D7
 10
152.6325381492
 20
233.6497734104
 11
152.6325381492
 21
247.5657167205
 70
160
 71
2
 42
27.19789
  3
DIMSTYLE_2
100
AcDbAlignedDimension
 13
135.0151718055
 23
260.8476634104
 14
142.9108918055
 24
233.6497734104
 50
270.0
100
AcDbRotatedDimension
  0
DIMENSION
  5
2CD
100
AcDbEntity
  8
0
100
AcDbDimension
 62
2
  6
CONTINUOUS
  2
*D8
 10
168.0579999858
 20
225.1497734104
 11
168.0579999858
 21
244.5625370246
 70
160
 71
2
 42
35.69789
  3
DIMSTYLE_2
100
AcDbAlignedDimension
 13
135.0151718055
 23
260.8476634104
 14
127.7921185186
 24
225.1497734104
 50
270.0
100
AcDbRotatedDimension
  0
DIMENSION
  5
2CE
100
AcDbEntity
  8
0
100
AcDbDimension
 62
2
  6
CONTINUOUS
  2
*D9
 10
141.4108918055
 20
25.6564403739
 11
120.369011553
 21
23.9419403739
 70
160
 71
2
 42
45.05706
  3
DIMSTYLE_2
100
AcDbAlignedDimension
 13
96.3538318055
 23
50.6354509298
 14
141.4108918055
 24
52.9565171768
100
AcDbRotatedDimension
  0
DIMENSION
  5
2CF
100
AcDbEntity
  8
0
100
AcDbDimension
 62
2
  6
CONTINUOUS
  2
*D10
 10
324.3981558278
 20
100.4226574326
 11
324.3981558278
 21
144.9366056133
 70
160
 71
2
 42
83.3
  3
DIMSTYLE_2
100
AcDbAlignedDimension
 13
287.7623423015
 23
183.7226574326
 14
287.6643861464
 24
100.4226574326
 50
270.0
100
AcDbRotatedDimension
  0
DIMENSION
  5
2D0
100
AcDbEntity
  8
0
100
AcDbDimension
 62
2
  6
CONTINUOUS
  2
*D11
 10
248.0805695588
 20
93.6726574326
 11
248.0805695588
 21
142.6999221113
 70
160
 71
2
 42
96.8
  3
DIMSTYLE_2
100
AcDbAlignedDimension
 13
279.1125771536
 23
190.4726574326
 14
279.1125771536
 24
93.6726574326
 50
270.0
100
AcDbRotatedDimension
  0
LINE
  5
2D1
100
AcDbEntity
  8
0
100
AcDbLine
 62
2
  6
CONTINUOUS
 10
364.1205753801
 20
38.0151632331
 11
423.0205753801
 21
38.0151632331
  0
LINE
  5
2D2
100
AcDbEntity
  8
0
100
AcDbLine
 62
2
  6
CONTINUOUS
 10
364.1205753801
 20
38.0151632331
 11
364.1205753801
 21
18.9057882331
  0
LINE
  5
2D3
100
AcDbEntity
  8
0
100
AcDbLine
 62
2
  6
CONTINUOUS
 10
364.1205753801
 20
18.9057882331
 11
423.0205753801
 21
18.9057882331
  0
LINE
  5
2D4
100
AcDbEntity
  8
0
100
AcDbLine
 62
2
  6
CONTINUOUS
 10
423.0205753801
 20
38.0151632331
 11
423.0205753801
 21
18.9057882331
  0
MTEXT
  5
2D5
100
AcDbEntity
  8
0
100
AcDbMText
 62
2
  6
CONTINUOUS
  7
STANDARD
 71
2
 72
1
 10
393.5705753801
 20
34.4604757331
 30
0.0
 11
1.0
 21
0.0
 31
0.0
 44
0.9
  1
MIXER, MP-MFC-NA,\PMUSIC & PAGING,\PNORTH AMERICA
 40
3.0
 41
40.1710037175
  0
LINE
  5
2D6
100
AcDbEntity
  8
0
100
AcDbLine
 62
2
  6
CONTINUOUS
 10
412.5160513272
 20
18.8975213326
 11
422.9785513272
 21
18.8975213326
  0
LINE
  5
2D7
100
AcDbEntity
  8
0
100
AcDbLine
 62
2
  6
CONTINUOUS
 10
412.5160513272
 20
18.8975213326
 11
412.5160513272
 21
12.6475213326
  0
LINE
  5
2D8
100
AcDbEntity
  8
0
100
AcDbLine
 62
2
  6
CONTINUOUS
 10
412.5160513272
 20
12.6475213326
 11
422.9785513272
 21
12.6475213326
  0
LINE
  5
2D9
100
AcDbEntity
  8
0
100
AcDbLine
 62
2
  6
CONTINUOUS
 10
422.9785513272
 20
18.8975213326
 11
422.9785513272
 21
12.6475213326
  0
MTEXT
  5
2DA
100
AcDbEntity
  8
0
100
AcDbMText
 62
2
  6
CONTINUOUS
  7
TEXTSTYLE_2
 71
2
 72
1
 10
417.7473013272
 20
16.4756463326
 30
0.0
 11
1.0
 21
0.0
 31
0.0
 44
0.9
  1
A
 40
3.175
 41
3.2694237918
  0
LINE
  5
2DB
100
AcDbEntity
  8
0
100
AcDbLine
 62
2
  6
CONTINUOUS
 10
380.85307389
 20
18.8780467083
 11
412.35307389
 21
18.8780467083
  0
LINE
  5
2DC
100
AcDbEntity
  8
0
100
AcDbLine
 62
2
  6
CONTINUOUS
 10
380.85307389
 20
18.8780467083
 11
380.85307389
 21
12.6436717083
  0
LINE
  5
2DD
100
AcDbEntity
  8
0
100
AcDbLine
 62
2
  6
CONTINUOUS
 10
380.85307389
 20
12.6436717083
 11
412.35307389
 21
12.6436717083
  0
LINE
  5
2DE
100
AcDbEntity
  8
0
100
AcDbLine
 62
2
  6
CONTINUOUS
 10
412.35307389
 20
18.8780467083
 11
412.35307389
 21
12.6436717083
  0
MTEXT
  5
2DF
100
AcDbEntity
  8
0
100
AcDbMText
 62
2
  6
CONTINUOUS
  7
TEXTSTYLE_2
 71
2
 72
1
 10
396.60307389
 20
16.7217967083
 30
0.0
 11
1.0
 21
0.0
 31
0.0
 44
0.9
  1
FG-901150-NA-2D
 40
2.5
 41
29.4888475836
  0
LINE
  5
2E0
100
AcDbEntity
  8
0
100
AcDbLine
 62
2
  6
CONTINUOUS
 10
295.9691630001
 20
27.6414213265
 11
329.4691630001
 21
27.6414213265
  0
LINE
  5
2E1
100
AcDbEntity
  8
0
100
AcDbLine
 62
2
  6
CONTINUOUS
 10
295.9691630001
 20
27.6414213265
 11
295.9691630001
 21
23.0398588265
  0
LINE
  5
2E2
100
AcDbEntity
  8
0
100
AcDbLine
 62
2
  6
CONTINUOUS
 10
295.9691630001
 20
23.0398588265
 11
329.4691630001
 21
23.0398588265
  0
LINE
  5
2E3
100
AcDbEntity
  8
0
100
AcDbLine
 62
2
  6
CONTINUOUS
 10
329.4691630001
 20
27.6414213265
 11
329.4691630001
 21
23.0398588265
  0
MTEXT
  5
2E4
100
AcDbEntity
  8
0
100
AcDbMText
 62
2
  6
CONTINUOUS
  7
TEXTSTYLE_2
 71
2
 72
1
 10
316.0691630001
 20
26.4836400765
 30
0.0
 11
1.0
 21
0.0
 31
0.0
 44
0.9
  1
N/A
 40
2.286
 41
6.1016654275
  0
LINE
  5
2E5
100
AcDbEntity
  8
0
100
AcDbLine
 62
2
  6
CONTINUOUS
 10
295.9900950955
 20
22.9867124056
 11
329.4900950955
 21
22.9867124056
  0
LINE
  5
2E6
100
AcDbEntity
  8
0
100
AcDbLine
 62
2
  6
CONTINUOUS
 10
295.9900950955
 20
22.9867124056
 11
295.9900950955
 21
18.3851499056
  0
LINE
  5
2E7
100
AcDbEntity
  8
0
100
AcDbLine
 62
2
  6
CONTINUOUS
 10
295.9900950955
 20
18.3851499056
 11
329.4900950955
 21
18.3851499056
  0
LINE
  5
2E8
100
AcDbEntity
  8
0
100
AcDbLine
 62
2
  6
CONTINUOUS
 10
329.4900950955
 20
22.9867124056
 11
329.4900950955
 21
18.3851499056
  0
MTEXT
  5
2E9
100
AcDbEntity
  8
0
100
AcDbMText
 62
2
  6
CONTINUOUS
  7
TEXTSTYLE_2
 71
2
 72
1
 10
316.0900950955
 20
21.8289311556
 30
0.0
 11
1.0
 21
0.0
 31
0.0
 44
0.9
  1
N/A
 40
2.286
 41
6.1016654275
  0
LINE
  5
2EA
100
AcDbEntity
  8
0
100
AcDbLine
 62
2
  6
CONTINUOUS
 10
329.5207552858
 20
36.0735035744
 11
364.0207552858
 21
36.0735035744
  0
LINE
  5
2EB
100
AcDbEntity
  8
0
100
AcDbLine
 62
2
  6
CONTINUOUS
 10
329.5207552858
 20
36.0735035744
 11
329.5207552858
 21
29.6360035744
  0
LINE
  5
2EC
100
AcDbEntity
  8
0
100
AcDbLine
 62
2
  6
CONTINUOUS
 10
329.5207552858
 20
29.6360035744
 11
364.0207552858
 21
29.6360035744
  0
LINE
  5
2ED
100
AcDbEntity
  8
0
100
AcDbLine
 62
2
  6
CONTINUOUS
 10
364.0207552858
 20
36.0735035744
 11
364.0207552858
 21
29.6360035744
  0
MTEXT
  5
2EE
100
AcDbEntity
  8
0
100
AcDbMText
 62
2
  6
CONTINUOUS
  7
TEXTSTYLE_2
 71
1
 72
1
 10
329.5832552858
 20
32.8438160744
 30
0.0
 11
1.0
 21
0.0
 31
0.0
 44
0.9
  1
 B. SHASTRI
 40
1.5875
 41
11.2541356877
  0
LINE
  5
2EF
100
AcDbEntity
  8
0
100
AcDbLine
 62
2
  6
CONTINUOUS
 10
329.5302908382
 20
29.6690820707
 11
364.0302908382
 21
29.6690820707
  0
LINE
  5
2F0
100
AcDbEntity
  8
0
100
AcDbLine
 62
2
  6
CONTINUOUS
 10
329.5302908382
 20
29.6690820707
 11
329.5302908382
 21
22.8565820707
  0
LINE
  5
2F1
100
AcDbEntity
  8
0
100
AcDbLine
 62
2
  6
CONTINUOUS
 10
329.5302908382
 20
22.8565820707
 11
364.0302908382
 21
22.8565820707
  0
LINE
  5
2F2
100
AcDbEntity
  8
0
100
AcDbLine
 62
2
  6
CONTINUOUS
 10
364.0302908382
 20
29.6690820707
 11
364.0302908382
 21
22.8565820707
  0
MTEXT
  5
2F3
100
AcDbEntity
  8
0
100
AcDbMText
 62
2
  6
CONTINUOUS
  7
TEXTSTYLE_2
 71
1
 72
1
 10
329.5927908382
 20
26.2050195707
 30
0.0
 11
1.0
 21
0.0
 31
0.0
 44
0.9
  1
 D. SIMPSON
 40
1.5875
 41
13.1013011152
  0
LINE
  5
2F4
100
AcDbEntity
  8
0
100
AcDbLine
 62
2
  6
CONTINUOUS
 10
329.537364706
 20
22.8432347972
 11
364.037364706
 21
22.8432347972
  0
LINE
  5
2F5
100
AcDbEntity
  8
0
100
AcDbLine
 62
2
  6
CONTINUOUS
 10
329.537364706
 20
22.8432347972
 11
329.537364706
 21
16.0307347972
  0
LINE
  5
2F6
100
AcDbEntity
  8
0
100
AcDbLine
 62
2
  6
CONTINUOUS
 10
329.537364706
 20
16.0307347972
 11
364.037364706
 21
16.0307347972
  0
LINE
  5
2F7
100
AcDbEntity
  8
0
100
AcDbLine
 62
2
  6
CONTINUOUS
 10
364.037364706
 20
22.8432347972
 11
364.037364706
 21
16.0307347972
  0
MTEXT
  5
2F8
100
AcDbEntity
  8
0
100
AcDbMText
 62
2
  6
CONTINUOUS
  7
TEXTSTYLE_2
 71
1
 72
1
 10
329.599864706
 20
19.3791722972
 30
0.0
 11
1.0
 21
0.0
 31
0.0
 44
0.9
  1
 S. NENADIC
 40
1.5875
 41
12.9832713755
  0
LINE
  5
2F9
100
AcDbEntity
  8
0
100
AcDbLine
 62
2
  6
CONTINUOUS
 10
329.53269163
 20
16.1184390386
 11
364.03269163
 21
16.1184390386
  0
LINE
  5
2FA
100
AcDbEntity
  8
0
100
AcDbLine
 62
2
  6
CONTINUOUS
 10
329.53269163
 20
16.1184390386
 11
329.53269163
 21
9.3059390386
  0
LINE
  5
2FB
100
AcDbEntity
  8
0
100
AcDbLine
 62
2
  6
CONTINUOUS
 10
329.53269163
 20
9.3059390386
 11
364.03269163
 21
9.3059390386
  0
LINE
  5
2FC
100
AcDbEntity
  8
0
100
AcDbLine
 62
2
  6
CONTINUOUS
 10
364.03269163
 20
16.1184390386
 11
364.03269163
 21
9.3059390386
  0
MTEXT
  5
2FD
100
AcDbEntity
  8
0
100
AcDbMText
 62
2
  6
CONTINUOUS
  7
TEXTSTYLE_2
 71
1
 72
1
 10
329.59519163
 20
12.6543765386
 30
0.0
 11
1.0
 21
0.0
 31
0.0
 44
0.9
  1
 C. YOMOGIDA
 40
1.5875
 41
16.5477695167
  0
LINE
  5
2FE
100
AcDbEntity
  8
0
100
AcDbLine
 62
2
  6
CONTINUOUS
 10
364.1103063779
 20
12.4516204646
 11
375.9103063779
 21
12.4516204646
  0
LINE
  5
2FF
100
AcDbEntity
  8
0
100
AcDbLine
 62
2
  6
CONTINUOUS
 10
364.1103063779
 20
12.4516204646
 11
364.1103063779
 21
9.3500579646
  0
LINE
  5
300
100
AcDbEntity
  8
0
100
AcDbLine
 62
2
  6
CONTINUOUS
 10
364.1103063779
 20
9.3500579646
 11
375.9103063779
 21
9.3500579646
  0
LINE
  5
301
100
AcDbEntity
  8
0
100
AcDbLine
 62
2
  6
CONTINUOUS
 10
375.9103063779
 20
12.4516204646
 11
375.9103063779
 21
9.3500579646
  0
MTEXT
  5
302
100
AcDbEntity
  8
0
100
AcDbMText
 62
2
  6
CONTINUOUS
  7
TEXTSTYLE_2
 71
2
 72
1
 10
372.9603063779
 20
11.4008392146
 30
0.0
 11
1.0
 21
0.0
 31
0.0
 44
0.9
  1
1:1
 40
1.0
 41
1.9330855019
  0
LINE
  5
303
100
AcDbEntity
  8
0
100
AcDbLine
 62
2
  6
CONTINUOUS
 10
405.792931713
 20
12.4751080225
 11
423.042931713
 21
12.4751080225
  0
LINE
  5
304
100
AcDbEntity
  8
0
100
AcDbLine
 62
2
  6
CONTINUOUS
 10
405.792931713
 20
12.4751080225
 11
405.792931713
 21
9.4672955225
  0
LINE
  5
305
100
AcDbEntity
  8
0
100
AcDbLine
 62
2
  6
CONTINUOUS
 10
405.792931713
 20
9.4672955225
 11
423.042931713
 21
9.4672955225
  0
LINE
  5
306
100
AcDbEntity
  8
0
100
AcDbLine
 62
2
  6
CONTINUOUS
 10
423.042931713
 20
12.4751080225
 11
423.042931713
 21
9.4672955225
  0
MTEXT
  5
307
100
AcDbEntity
  8
0
100
AcDbMText
 62
2
  6
CONTINUOUS
  7
TEXTSTYLE_2
 71
2
 72
1
 10
417.867931713
 20
11.8972432725
 30
0.0
 11
1.0
 21
0.0
 31
0.0
 44
0.9
  1
1 OF 1
 40
1.852083
 41
7.7938957472
  0
LINE
  5
308
100
AcDbEntity
  8
0
100
AcDbLine
 62
2
  6
CONTINUOUS
 10
375.9030229869
 20
12.4681675341
 11
405.7030229869
 21
12.4681675341
  0
LINE
  5
309
100
AcDbEntity
  8
0
100
AcDbLine
 62
2
  6
CONTINUOUS
 10
375.9030229869
 20
12.4681675341
 11
375.9030229869
 21
9.4603550341
  0
LINE
  5
30A
100
AcDbEntity
  8
0
100
AcDbLine
 62
2
  6
CONTINUOUS
 10
375.9030229869
 20
9.4603550341
 11
405.7030229869
 21
9.4603550341
  0
LINE
  5
30B
100
AcDbEntity
  8
0
100
AcDbLine
 62
2
  6
CONTINUOUS
 10
405.7030229869
 20
12.4681675341
 11
405.7030229869
 21
9.4603550341
  0
MTEXT
  5
30C
100
AcDbEntity
  8
0
100
AcDbMText
 62
2
  6
CONTINUOUS
  7
TEXTSTYLE_2
 71
2
 72
1
 10
394.5280229869
 20
11.5992612841
 30
0.0
 11
1.0
 21
0.0
 31
0.0
 44
0.9
  1
FG-901150-NA-2D.A.2 
 40
1.27
 41
18.7431226766
  0
LINE
  5
30D
100
AcDbEntity
  8
0
100
AcDbLine
 62
2
  6
CONTINUOUS
 10
296.0582034699
 20
47.3799686954
 11
329.4332034699
 21
47.3799686954
  0
LINE
  5
30E
100
AcDbEntity
  8
0
100
AcDbLine
 62
2
  6
CONTINUOUS
 10
296.0582034699
 20
47.3799686954
 11
296.0582034699
 21
27.8174686954
  0
LINE
  5
30F
100
AcDbEntity
  8
0
100
AcDbLine
 62
2
  6
CONTINUOUS
 10
296.0582034699
 20
27.8174686954
 11
329.4332034699
 21
27.8174686954
  0
LINE
  5
310
100
AcDbEntity
  8
0
100
AcDbLine
 62
2
  6
CONTINUOUS
 10
329.4332034699
 20
47.3799686954
 11
329.4332034699
 21
27.8174686954
  0
MTEXT
  5
311
100
AcDbEntity
  8
0
100
AcDbMText
 62
2
  6
CONTINUOUS
  7
TEXTSTYLE_2
 71
1
 72
1
 10
299.4582034699
 20
33.5018436954
 30
0.0
 11
1.0
 21
0.0
 31
0.0
 44
0.9
  1
X \Fgdt;{\Fgdt;`}\Fgothic.ttf;{\Ftxt.shx;\W0.166667;\H1.587500; } 3 [.12]               \Fgdt;{\Fgdt;`}\Fgothic.ttf;1\Fgdt;{\Fgdt;~}
 40
1.5875
 41
24.5019903965
  0
LINE
  5
312
100
AcDbEntity
  8
0
100
AcDbLine
 62
2
  6
CONTINUOUS
 10
280.9993290155
 20
270.8837553431
 11
422.9143290155
 21
270.8837553431
  0
LINE
  5
313
100
AcDbEntity
  8
0
100
AcDbLine
 62
2
  6
CONTINUOUS
 10
280.9993290155
 20
270.8837553431
 11
280.9993290155
 21
257.1677553431
  0
LINE
  5
314
100
AcDbEntity
  8
0
100
AcDbLine
 62
2
  6
CONTINUOUS
 10
280.9993290155
 20
266.3117553431
 11
422.9143290155
 21
266.3117553431
  0
LINE
  5
315
100
AcDbEntity
  8
0
100
AcDbLine
 62
2
  6
CONTINUOUS
 10
280.9993290155
 20
261.7397553431
 11
422.9143290155
 21
261.7397553431
  0
LINE
  5
316
100
AcDbEntity
  8
0
100
AcDbLine
 62
2
  6
CONTINUOUS
 10
280.9993290155
 20
257.1677553431
 11
422.9143290155
 21
257.1677553431
  0
LINE
  5
317
100
AcDbEntity
  8
0
100
AcDbLine
 62
2
  6
CONTINUOUS
 10
290.8753290155
 20
266.3117553431
 11
290.8753290155
 21
257.1677553431
  0
LINE
  5
318
100
AcDbEntity
  8
0
100
AcDbLine
 62
2
  6
CONTINUOUS
 10
394.3853290155
 20
266.3117553431
 11
394.3853290155
 21
257.1677553431
  0
LINE
  5
319
100
AcDbEntity
  8
0
100
AcDbLine
 62
2
  6
CONTINUOUS
 10
403.5293290155
 20
266.3117553431
 11
403.5293290155
 21
257.1677553431
  0
LINE
  5
31A
100
AcDbEntity
  8
0
100
AcDbLine
 62
2
  6
CONTINUOUS
 10
422.9143290155
 20
270.8837553431
 11
422.9143290155
 21
257.1677553431
  0
MTEXT
  5
31B
100
AcDbEntity
  8
0
100
AcDbMText
 62
2
  6
CONTINUOUS
  7
TEXTSTYLE_2
 71
2
 72
1
 10
351.9568290155
 20
269.7407553431
 30
0.0
 11
1.0
 21
0.0
 31
0.0
 44
0.9
  1
REVISION
 40
2.286
 41
14.038929368
  0
MTEXT
  5
31C
100
AcDbEntity
  8
0
100
AcDbMText
 62
2
  6
CONTINUOUS
  7
TEXTSTYLE_2
 71
2
 72
1
 10
285.9373290155
 20
265.1687553431
 30
0.0
 11
1.0
 21
0.0
 31
0.0
 44
0.9
  1
REV
 40
2.286
 41
5.8807137546
  0
MTEXT
  5
31D
100
AcDbEntity
  8
0
100
AcDbMText
 62
2
  6
CONTINUOUS
  7
TEXTSTYLE_2
 71
2
 72
1
 10
342.6303290155
 20
265.1687553431
 30
0.0
 11
1.0
 21
0.0
 31
0.0
 44
0.9
  1
DESCRIPTION
 40
2.286
 41
20.0131226766
  0
MTEXT
  5
31E
100
AcDbEntity
  8
0
100
AcDbMText
 62
2
  6
CONTINUOUS
  7
TEXTSTYLE_2
 71
2
 72
1
 10
398.9573290155
 20
265.1687553431
 30
0.0
 11
1.0
 21
0.0
 31
0.0
 44
0.9
  1
BY
 40
2.286
 41
3.7136877323
  0
MTEXT
  5
31F
100
AcDbEntity
  8
0
100
AcDbMText
 62
2
  6
CONTINUOUS
  7
TEXTSTYLE_2
 71
2
 72
1
 10
413.2218290155
 20
265.1687553431
 30
0.0
 11
1.0
 21
0.0
 31
0.0
 44
0.9
  1
DATE
 40
2.286
 41
7.792795539
  0
MTEXT
  5
320
100
AcDbEntity
  8
0
100
AcDbMText
 62
2
  6
CONTINUOUS
  7
STANDARD
 71
2
 72
1
 10
285.9373290155
 20
260.5967553431
 30
0.0
 11
1.0
 21
0.0
 31
0.0
 44
0.9
  1
A
 40
2.286
 41
2.3539851301
  0
MTEXT
  5
321
100
AcDbEntity
  8
0
100
AcDbMText
 62
2
  6
CONTINUOUS
  7
STANDARD
 71
1
 72
1
 10
291.7897290155
 20
260.5967553431
 30
0.0
 11
1.0
 21
0.0
 31
0.0
 44
0.9
  1
INITIAL RELEASE
 40
2.286
 41
23.0639553903
  0
MTEXT
  5
322
100
AcDbEntity
  8
0
100
AcDbMText
 62
2
  6
CONTINUOUS
  7
STANDARD
 71
2
 72
1
 10
398.9573290155
 20
260.5967553431
 30
0.0
 11
1.0
 21
0.0
 31
0.0
 44
0.9
  1
ES
 40
2.286
 41
3.2972788104
  0
MTEXT
  5
323
100
AcDbEntity
  8
0
100
AcDbMText
 62
2
  6
CONTINUOUS
  7
STANDARD
 71
2
 72
1
 10
413.2218290155
 20
260.5967553431
 30
0.0
 11
1.0
 21
0.0
 31
0.0
 44
0.9
  1
18-APR-18
 40
2.286
 41
15.3731375465
  0
MTEXT
  5
324
100
AcDbEntity
  8
0
100
AcDbMText
 62
2
  6
CONTINUOUS
  7
STANDARD
 71
1
 72
1
 10
11.2896597832
 20
20.9272739462
 30
0.0
 11
1.0
 21
0.0
 31
0.0
 44
0.9
  1
1. NET WEIGHT APPROX. 0.09 KG [0.2 LBS]\P \PNOTES: UNLESS OTHERWISE SPECIFIED.
 40
2.286
 41
62.1214126394
  0
MTEXT
  5
325
100
AcDbEntity
  8
0
100
AcDbMText
 62
2
  6
CONTINUOUS
  7
STANDARD
 71
1
 72
1
 10
364.0698946871
 20
122.9576093261
 30
0.0
 11
1.0
 21
0.0
 31
0.0
 44
0.9
  1
SHOWN WITH WALL PLATE
 40
2.286
 41
39.0489591078
  0
MTEXT
  5
326
100
AcDbEntity
  8
0
100
AcDbMText
 62
2
  6
CONTINUOUS
  7
TEXTSTYLE_1
 71
1
 72
1
 10
117.6311766409
 20
86.1826257289
 30
0.0
 11
1.0
 21
0.0
 31
0.0
 44
0.9
  1
{\Fgdt;q}
 40
2.286
 41
3.6195
  0
MTEXT
  5
327
100
AcDbEntity
  8
0
100
AcDbMText
 62
2
  6
CONTINUOUS
  7
TEXTSTYLE_1
 71
1
 72
1
 10
145.4588179137
 20
145.1611253136
 30
0.0
 11
1.0
 21
0.0
 31
0.0
 44
0.9
  1
{\Fgdt;q}
 40
2.286
 41
3.6195
  0
MTEXT
  5
328
100
AcDbEntity
  8
0
100
AcDbMText
 62
2
  6
CONTINUOUS
  7
TEXTSTYLE_1
 71
1
 72
1
 10
281.5579399929
 20
84.5041515762
 30
0.0
 11
1.0
 21
0.0
 31
0.0
 44
0.9
  1
{\Fgdt;q}
 40
2.286
 41
3.6195
  0
LEADER
  5
329
100
AcDbEntity
  8
0
100
AcDbLeader
 62
2
  6
CONTINUOUS
  3
STANDARD
 71
1
 72
0
 73
0
 75
0
 40
2.286
 41
4.5889962825
 76
3
 10
285.7507771536
 20
185.6712145911
 30
0.0
 10
293.5548665528
 20
204.107611865
 30
0.0
 10
299.9048665528
 20
204.107611865
 30
0.0
340
32A
1001
ACAD
1000
DSTYLE
1002
{
1070
77
1070
0
1002
}
  0
MTEXT
  5
32A
102
{ACAD_REACTORS
330
329
102
}
100
AcDbEntity
  8
0
100
AcDbMText
 62
2
  6
CONTINUOUS
  7
STANDARD
 71
1
 72
1
 10
299.9048665528
 20
205.250611865
 30
0.0
 11
1.0
 21
0.0
 31
0.0
 44
0.9
  1
2X 4.5{\Ftxt.shx;\W1.754647;\H2.286000; } X 7.5{\Ftxt.shx;\W1.754647;\H2.286000; } SLOT FULL R TYP.\P[0.18]{\Ftxt.shx;\W1.620818;\H2.286000; }[0.30]
 40
2.286
 41
50.4109739777
  0
LEADER
  5
32B
100
AcDbEntity
  8
0
100
AcDbLeader
 62
2
  6
CONTINUOUS
  3
STANDARD
 71
1
 72
0
 73
0
 75
0
 40
2.286
 41
13.2486022305
 76
3
 10
282.2598519199
 20
191.6645012687
 30
0.0
 10
270.9857860421
 20
209.1412755719
 30
0.0
 10
264.6357860421
 20
209.1412755719
 30
0.0
340
32C
1001
ACAD
1000
DSTYLE
1002
{
1070
77
1070
0
1002
}
  0
MTEXT
  5
32C
102
{ACAD_REACTORS
330
32B
102
}
100
AcDbEntity
  8
0
100
AcDbMText
 62
2
  6
CONTINUOUS
  7
STANDARD
 71
3
 72
1
 10
264.6357860421
 20
210.2842755719
 30
0.0
 11
1.0
 21
0.0
 31
0.0
 44
0.9
  1
2X #6-32
 40
2.286
 41
13.2486022305
  0
MTEXT
  5
32D
100
AcDbEntity
  8
0
100
AcDbMText
 62
2
  6
CONTINUOUS
  7
TEXTSTYLE_1
 71
1
 72
1
 10
310.268368117
 20
144.9552468795
 30
0.0
 11
1.0
 21
0.0
 31
0.0
 44
0.9
  1
{\Fgdt;q}
 40
2.286
 41
3.6195
  0
LWPOLYLINE
  5
32E
100
AcDbEntity
  8
0
100
AcDbPolyline
 62
7
  6
CONTINUOUS
 90
2
 70
0
 43
0.2499999989
 10
7.3918454724
 20
141.103113908
 10
7.3918454724
 20
139.2700268033
  0
LWPOLYLINE
  5
32F
100
AcDbEntity
  8
0
100
AcDbPolyline
 62
7
  6
CONTINUOUS
 90
2
 70
0
 43
0.2499999989
 10
8.9793454724
 20
270.9965703557
 10
8.9793454724
 20
9.3765703557
  0
LWPOLYLINE
  5
330
100
AcDbEntity
  8
0
100
AcDbPolyline
 62
7
  6
CONTINUOUS
 90
2
 70
0
 43
0.2499999989
 10
60.7318454724
 20
9.3765703557
 10
60.7318454724
 20
6.2015703557
  0
LWPOLYLINE
  5
331
100
AcDbEntity
  8
0
100
AcDbPolyline
 62
7
  6
CONTINUOUS
 90
2
 70
0
 43
0.2499999989
 10
60.7318454724
 20
270.9965703557
 10
60.7318454724
 20
274.1715703557
  0
LWPOLYLINE
  5
332
100
AcDbEntity
  8
0
100
AcDbPolyline
 62
7
  6
CONTINUOUS
 90
2
 70
0
 43
0.2499999989
 10
75.0193454724
 20
270.9965703557
 10
75.0193454724
 20
264.0115703557
  0
LWPOLYLINE
  5
333
100
AcDbEntity
  8
0
100
AcDbPolyline
 62
7
  6
CONTINUOUS
 90
2
 70
0
 43
0.2499999989
 10
324.5558196371
 20
12.383931333
 10
328.3658196372
 20
13.018931333
  0
LWPOLYLINE
  5
334
100
AcDbEntity
  8
0
100
AcDbPolyline
 62
7
  6
CONTINUOUS
 90
2
 70
0
 43
0.2499999989
 10
216.9058890247
 20
7.7890703557
 10
215.0728019201
 20
7.7890703557
  0
LWPOLYLINE
  5
335
100
AcDbEntity
  8
0
100
AcDbPolyline
 62
7
  6
CONTINUOUS
 90
2
 70
0
 43
0.2499999989
 10
422.9993454724
 20
9.3765703557
 10
8.9793454724
 20
9.3765703557
  0
LWPOLYLINE
  5
336
100
AcDbEntity
  8
0
100
AcDbPolyline
 62
7
  6
CONTINUOUS
 90
2
 70
0
 43
0.099999997
 10
320.3698996371
 20
11.748931333
 10
323.6617396372
 20
11.748931333
  0
LWPOLYLINE
  5
337
100
AcDbEntity
  8
0
100
AcDbPolyline
 62
7
  6
CONTINUOUS
 90
2
 70
0
 43
0.099999997
 10
324.0829331453
 20
11.748931333
 10
328.7544481447
 20
11.748931333
  0
LWPOLYLINE
  5
338
100
AcDbEntity
  8
0
100
AcDbPolyline
 62
7
  6
CONTINUOUS
 90
2
 70
0
 43
0.2499999989
 10
364.1132300372
 20
12.5515703557
 10
422.9993454724
 20
12.5515703557
  0
LWPOLYLINE
  5
339
100
AcDbEntity
  8
0
100
AcDbPolyline
 62
7
  6
CONTINUOUS
 90
2
 70
0
 43
0.2499999989
 10
295.9993454724
 20
13.9485703557
 10
329.4508576543
 20
13.9485703557
  0
LWPOLYLINE
  5
33A
100
AcDbEntity
  8
0
100
AcDbPolyline
 62
7
  6
CONTINUOUS
 90
2
 70
0
 43
0.2499999989
 10
329.4147274244
 20
16.1265703557
 10
364.0770998073
 20
16.1265703557
  0
LWPOLYLINE
  5
33B
100
AcDbEntity
  8
0
100
AcDbPolyline
 62
7
  6
CONTINUOUS
 90
2
 70
0
 43
0.2499999989
 10
295.9993454724
 20
18.5205703557
 10
329.4508576543
 20
18.5205703557
  0
LWPOLYLINE
  5
33C
100
AcDbEntity
  8
0
100
AcDbPolyline
 62
7
  6
CONTINUOUS
 90
2
 70
0
 43
0.2499999989
 10
364.1132300372
 20
19.0015703557
 10
422.9993454724
 20
19.0015703557
  0
LWPOLYLINE
  5
33D
100
AcDbEntity
  8
0
100
AcDbPolyline
 62
7
  6
CONTINUOUS
 90
2
 70
0
 43
0.2499999989
 10
7.3918454724
 20
139.2700268033
 10
8.9793454724
 20
140.1865703557
  0
LWPOLYLINE
  5
33E
100
AcDbEntity
  8
0
100
AcDbPolyline
 62
7
  6
CONTINUOUS
 90
2
 70
0
 43
0.2499999989
 10
329.4508576543
 20
22.8765703557
 10
364.1132300372
 20
22.8765703557
  0
LWPOLYLINE
  5
33F
100
AcDbEntity
  8
0
100
AcDbPolyline
 62
7
  6
CONTINUOUS
 90
2
 70
0
 43
0.2499999989
 10
295.9993454724
 20
23.0925703557
 10
329.4508576543
 20
23.0925703557
  0
LWPOLYLINE
  5
340
100
AcDbEntity
  8
0
100
AcDbPolyline
 62
7
  6
CONTINUOUS
 90
2
 70
0
 43
0.2499999989
 10
329.4508576543
 20
27.7316876029
 10
295.9993454724
 20
27.7316876029
  0
LWPOLYLINE
  5
341
100
AcDbEntity
  8
0
100
AcDbPolyline
 62
7
  6
CONTINUOUS
 90
2
 70
0
 43
0.2499999989
 10
329.4508576543
 20
29.6265703557
 10
364.1132300372
 20
29.6265703557
  0
LWPOLYLINE
  5
342
100
AcDbEntity
  8
0
100
AcDbPolyline
 62
7
  6
CONTINUOUS
 90
2
 70
0
 43
0.2499999989
 10
329.4508576543
 20
36.1013675564
 10
364.1132300372
 20
36.1013675564
  0
LWPOLYLINE
  5
343
100
AcDbEntity
  8
0
100
AcDbPolyline
 62
7
  6
CONTINUOUS
 90
2
 70
0
 43
0.2499999989
 10
324.5558196371
 20
11.113931333
 10
328.3658196372
 20
10.478931333
  0
LWPOLYLINE
  5
344
100
AcDbEntity
  8
0
100
AcDbPolyline
 62
7
  6
CONTINUOUS
 90
2
 70
0
 43
0.2499999989
 10
112.4843454724
 20
9.3765703557
 10
112.4843454724
 20
6.2015703557
  0
LWPOLYLINE
  5
345
100
AcDbEntity
  8
0
100
AcDbPolyline
 62
7
  6
CONTINUOUS
 90
2
 70
0
 43
0.2499999989
 10
112.4843454724
 20
270.9965703557
 10
112.4843454724
 20
274.1715703557
  0
LWPOLYLINE
  5
346
100
AcDbEntity
  8
0
100
AcDbPolyline
 62
7
  6
CONTINUOUS
 90
2
 70
0
 43
0.2499999989
 10
364.1132300372
 20
37.9515703557
 10
422.9993454724
 20
37.9515703557
  0
LWPOLYLINE
  5
347
100
AcDbEntity
  8
0
100
AcDbPolyline
 62
7
  6
CONTINUOUS
 90
2
 70
0
 43
0.2499999989
 10
329.4508576543
 20
38.7683675564
 10
364.1132300372
 20
38.7683675564
  0
LINE
  5
348
100
AcDbEntity
  8
0
100
AcDbLine
 62
7
  6
CONTINUOUS
 10
370.2927156554
 20
39.9931316207
 11
371.6476949907
 21
39.9931316207
  0
LINE
  5
349
100
AcDbEntity
  8
0
100
AcDbLine
 62
7
  6
CONTINUOUS
 10
366.6902398717
 20
40.517366356
 11
370.205696335
 21
40.517366356
  0
LINE
  5
34A
100
AcDbEntity
  8
0
100
AcDbLine
 62
7
  6
CONTINUOUS
 10
371.7347143111
 20
40.517366356
 11
372.4259846249
 21
40.517366356
  0
LINE
  5
34B
100
AcDbEntity
  8
0
100
AcDbLine
 62
7
  6
CONTINUOUS
 10
374.3299717996
 20
40.5173663542
 11
380.61842344
 21
40.5173663542
  0
LINE
  5
34C
100
AcDbEntity
  8
0
100
AcDbLine
 62
7
  6
CONTINUOUS
 10
379.395384598
 20
41.3985288798
 11
374.3299717996
 21
41.3985288798
  0
LINE
  5
34D
100
AcDbEntity
  8
0
100
AcDbLine
 62
7
  6
CONTINUOUS
 10
389.5595861861
 20
41.418128607
 11
384.3460807608
 21
41.418128607
  0
LINE
  5
34E
100
AcDbEntity
  8
0
100
AcDbLine
 62
7
  6
CONTINUOUS
 10
367.5872737497
 20
41.4495930595
 11
370.1859051547
 21
41.4495930595
  0
LINE
  5
34F
100
AcDbEntity
  8
0
100
AcDbLine
 62
7
  6
CONTINUOUS
 10
371.7080178462
 20
41.449593064
 11
372.1076727614
 21
41.449593064
  0
LINE
  5
350
100
AcDbEntity
  8
0
100
AcDbLine
 62
7
  6
CONTINUOUS
 10
370.272924476
 20
41.9724731103
 11
371.6209985295
 21
41.9724731103
  0
LINE
  5
351
100
AcDbEntity
  8
0
100
AcDbLine
 62
7
  6
CONTINUOUS
 10
375.0499375444
 20
42.3130089584
 11
379.3953845989
 21
42.3130089584
  0
LINE
  5
352
100
AcDbEntity
  8
0
100
AcDbLine
 62
7
  6
CONTINUOUS
 10
380.61842344
 20
43.2275596744
 11
376.3308983202
 21
43.2275596744
  0
LINE
  5
353
100
AcDbEntity
  8
0
100
AcDbLine
 62
7
  6
CONTINUOUS
 10
376.3308983193
 20
44.108148285
 11
381.4031866724
 21
44.108148285
  0
LINE
  5
354
100
AcDbEntity
  8
0
100
AcDbLine
 62
7
  6
CONTINUOUS
 10
384.3460807618
 20
44.1171751872
 11
389.5595861852
 21
44.1171751872
  0
LINE
  5
355
100
AcDbEntity
  8
0
100
AcDbLine
 62
7
  6
CONTINUOUS
 10
367.5872737506
 20
44.1581560438
 11
372.1076727596
 21
44.1581560438
  0
LINE
  5
356
100
AcDbEntity
  8
0
100
AcDbLine
 62
7
  6
CONTINUOUS
 10
372.4259846249
 20
45.0170478352
 11
366.6902398717
 21
45.0170478352
  0
LINE
  5
357
100
AcDbEntity
  8
0
100
AcDbLine
 62
7
  6
CONTINUOUS
 10
389.5595861864
 20
45.0223316207
 11
383.4771193271
 21
45.0223316207
  0
LINE
  5
358
100
AcDbEntity
  8
0
100
AcDbLine
 62
7
  6
CONTINUOUS
 10
381.4031866724
 20
45.0223316198
 11
375.0499375444
 21
45.0223316198
  0
LWPOLYLINE
  5
359
100
AcDbEntity
  8
0
100
AcDbPolyline
 62
7
  6
CONTINUOUS
 90
2
 70
0
 43
0.2499999989
 10
295.9993454724
 20
47.4765703557
 10
422.9993454724
 20
47.4765703557
  0
LINE
  5
35A
100
AcDbEntity
  8
0
100
AcDbLine
 62
7
  6
CONTINUOUS
 10
383.4771193271
 20
40.5173686384
 11
389.560079999
 21
40.5098175848
  0
LWPOLYLINE
  5
35B
100
AcDbEntity
  8
0
100
AcDbPolyline
 62
7
  6
CONTINUOUS
 90
2
 70
0
 43
0.2499999989
 10
8.9793454724
 20
140.1865703557
 10
7.3918454724
 20
141.103113908
  0
LWPOLYLINE
  5
35C
100
AcDbEntity
  8
0
100
AcDbPolyline
 62
7
  6
CONTINUOUS
 90
2
 70
0
 43
0.2499999989
 10
215.9893454724
 20
270.9965703557
 10
216.9058890247
 20
272.5840703557
  0
LWPOLYLINE
  5
35D
100
AcDbEntity
  8
0
100
AcDbPolyline
 62
7
  6
CONTINUOUS
 90
2
 70
0
 43
0.2499999989
 10
8.9793454724
 20
74.7815703557
 10
5.8043454724
 20
74.7815703557
  0
LWPOLYLINE
  5
35E
100
AcDbEntity
  8
0
100
AcDbPolyline
 62
7
  6
CONTINUOUS
 90
2
 70
0
 43
0.2499999989
 10
422.9993454724
 20
74.7815703557
 10
426.1743454724
 20
74.7815703557
  0
LWPOLYLINE
  5
35F
100
AcDbEntity
  8
0
100
AcDbPolyline
 62
7
  6
CONTINUOUS
 90
2
 70
0
 43
0.2499999989
 10
215.9893454724
 20
9.3765703557
 10
216.9058890247
 20
7.7890703557
  0
LWPOLYLINE
  5
360
100
AcDbEntity
  8
0
100
AcDbPolyline
 62
7
  6
CONTINUOUS
 90
2
 70
0
 43
0.2499999989
 10
164.2368454724
 20
9.3765703557
 10
164.2368454724
 20
6.2015703557
  0
LWPOLYLINE
  5
361
100
AcDbEntity
  8
0
100
AcDbPolyline
 62
7
  6
CONTINUOUS
 90
2
 70
0
 43
0.2499999989
 10
164.2368454724
 20
270.9965703557
 10
164.2368454724
 20
274.1715703557
  0
LWPOLYLINE
  5
362
100
AcDbEntity
  8
0
100
AcDbPolyline
 62
7
  6
CONTINUOUS
 90
2
 70
0
 43
0.2499999989
 10
215.9893454724
 20
9.3765703557
 10
215.9893454724
 20
6.2015703557
  0
LWPOLYLINE
  5
363
100
AcDbEntity
  8
0
100
AcDbPolyline
 62
7
  6
CONTINUOUS
 90
2
 70
0
 43
0.2499999989
 10
215.9893454724
 20
270.9965703557
 10
215.9893454724
 20
274.1715703557
  0
LWPOLYLINE
  5
364
100
AcDbEntity
  8
0
100
AcDbPolyline
 62
7
  6
CONTINUOUS
 90
2
 70
0
 43
0.2499999989
 10
8.9793454724
 20
140.1865703557
 10
5.8043454724
 20
140.1865703557
  0
LWPOLYLINE
  5
365
100
AcDbEntity
  8
0
100
AcDbPolyline
 62
7
  6
CONTINUOUS
 90
2
 70
0
 43
0.2499999989
 10
422.9993454724
 20
140.1865703557
 10
426.1743454724
 20
140.1865703557
  0
LWPOLYLINE
  5
366
100
AcDbEntity
  8
0
100
AcDbPolyline
 62
7
  6
CONTINUOUS
 90
2
 70
0
 43
0.2499999989
 10
267.7418454724
 20
9.3765703557
 10
267.7418454724
 20
6.2015703557
  0
LWPOLYLINE
  5
367
100
AcDbEntity
  8
0
100
AcDbPolyline
 62
7
  6
CONTINUOUS
 90
2
 70
0
 43
0.2499999989
 10
267.7418454724
 20
270.9965703557
 10
267.7418454724
 20
274.1715703557
  0
LWPOLYLINE
  5
368
100
AcDbEntity
  8
0
100
AcDbPolyline
 62
7
  6
CONTINUOUS
 90
2
 70
0
 43
0.2499999989
 10
215.9893454724
 20
9.3765703557
 10
215.0728019201
 20
7.7890703557
  0
LWPOLYLINE
  5
369
100
AcDbEntity
  8
0
100
AcDbPolyline
 62
7
  6
CONTINUOUS
 90
2
 70
0
 43
0.2499999989
 10
8.9793454724
 20
205.5915703557
 10
5.8043454724
 20
205.5915703557
  0
LWPOLYLINE
  5
36A
100
AcDbEntity
  8
0
100
AcDbPolyline
 62
7
  6
CONTINUOUS
 90
2
 70
0
 43
0.2499999989
 10
422.9993454724
 20
205.5915703557
 10
426.1743454724
 20
205.5915703557
  0
LWPOLYLINE
  5
36B
100
AcDbEntity
  8
0
100
AcDbPolyline
 62
7
  6
CONTINUOUS
 90
2
 70
0
 43
0.2499999989
 10
215.9893454724
 20
270.9965703557
 10
215.0728019201
 20
272.5840703557
  0
LWPOLYLINE
  5
36C
100
AcDbEntity
  8
0
100
AcDbPolyline
 62
7
  6
CONTINUOUS
 90
2
 70
0
 43
0.2499999989
 10
295.9993454724
 20
9.3765703557
 10
295.9993454724
 20
47.4765703557
  0
LWPOLYLINE
  5
36D
100
AcDbEntity
  8
0
100
AcDbPolyline
 62
7
  6
CONTINUOUS
 90
2
 70
0
 43
0.2499999989
 10
319.4943454724
 20
6.2015703557
 10
319.4943454724
 20
13.9485703557
  0
LWPOLYLINE
  5
36E
100
AcDbEntity
  8
0
100
AcDbPolyline
 62
7
  6
CONTINUOUS
 90
2
 70
0
 43
0.2499999989
 10
319.4943454724
 20
270.9965703557
 10
319.4943454724
 20
274.1715703557
  0
LWPOLYLINE
  5
36F
100
AcDbEntity
  8
0
100
AcDbPolyline
 62
7
  6
CONTINUOUS
 90
2
 70
0
 43
0.099999997
 10
322.0158196371
 20
10.103011333
 10
322.0158196371
 20
13.394851333
  0
LWPOLYLINE
  5
370
100
AcDbEntity
  8
0
100
AcDbPolyline
 62
7
  6
CONTINUOUS
 90
2
 70
0
 43
0.2499999989
 10
422.9993454724
 20
140.1865703557
 10
424.5868454724
 20
141.103113908
  0
LWPOLYLINE
  5
371
100
AcDbEntity
  8
0
100
AcDbPolyline
 62
7
  6
CONTINUOUS
 90
2
 70
0
 43
0.2499999989
 10
424.5868454724
 20
139.2700268033
 10
422.9993454724
 20
140.1865703557
  0
LWPOLYLINE
  5
372
100
AcDbEntity
  8
0
100
AcDbPolyline
 62
7
  6
CONTINUOUS
 90
2
 70
0
 43
0.2499999989
 10
324.5558196371
 20
12.383931333
 10
324.5558196371
 20
11.113931333
  0
LWPOLYLINE
  5
373
100
AcDbEntity
  8
0
100
AcDbPolyline
 62
7
  6
CONTINUOUS
 90
2
 70
0
 43
0.2499999989
 10
328.3658196372
 20
13.018931333
 10
328.3658196372
 20
10.478931333
  0
LWPOLYLINE
  5
374
100
AcDbEntity
  8
0
100
AcDbPolyline
 62
7
  6
CONTINUOUS
 90
2
 70
0
 43
0.2499999989
 10
329.4508576543
 20
47.4765703557
 10
329.4508576543
 20
9.3765703557
  0
LWPOLYLINE
  5
375
100
AcDbEntity
  8
0
100
AcDbPolyline
 62
7
  6
CONTINUOUS
 90
2
 70
0
 43
0.2499999989
 10
8.9793454724
 20
263.9115703557
 10
75.0193454724
 20
263.9115703557
  0
LWPOLYLINE
  5
376
100
AcDbEntity
  8
0
100
AcDbPolyline
 62
7
  6
CONTINUOUS
 90
2
 70
0
 43
0.2499999989
 10
8.9793454724
 20
270.8965703557
 10
422.9993454724
 20
270.8965703557
  0
LWPOLYLINE
  5
377
100
AcDbEntity
  8
0
100
AcDbPolyline
 62
7
  6
CONTINUOUS
 90
2
 70
0
 43
0.2499999989
 10
216.9058890247
 20
272.5840703557
 10
215.0728019201
 20
272.5840703557
  0
LWPOLYLINE
  5
378
100
AcDbEntity
  8
0
100
AcDbPolyline
 62
7
  6
CONTINUOUS
 90
2
 70
0
 43
0.2499999989
 10
364.1132300372
 20
47.4765703557
 10
364.1132300372
 20
9.3765703557
  0
LINE
  5
379
100
AcDbEntity
  8
0
100
AcDbLine
 62
7
  6
CONTINUOUS
 10
367.3610235144
 20
41.6758432948
 11
367.3610235144
 21
43.9319058076
  0
LINE
  5
37A
100
AcDbEntity
  8
0
100
AcDbLine
 62
7
  6
CONTINUOUS
 10
382.1991774348
 20
42.7777040656
 11
382.1995745276
 21
42.743278206
  0
LWPOLYLINE
  5
37B
100
AcDbEntity
  8
0
100
AcDbPolyline
 62
7
  6
CONTINUOUS
 90
2
 70
0
 43
0.2499999989
 10
368.7032356219
 20
18.9015703557
 10
368.7032356219
 20
12.5515703557
  0
LINE
  5
37C
100
AcDbEntity
  8
0
100
AcDbLine
 62
7
  6
CONTINUOUS
 10
370.1859051547
 20
41.4495930595
 11
370.1859051547
 21
41.885453789
  0
LINE
  5
37D
100
AcDbEntity
  8
0
100
AcDbLine
 62
7
  6
CONTINUOUS
 10
370.205696335
 20
40.517366356
 11
370.205696335
 21
40.0801509411
  0
LWPOLYLINE
  5
37E
100
AcDbEntity
  8
0
100
AcDbPolyline
 62
7
  6
CONTINUOUS
 90
2
 70
0
 43
0.2499999989
 10
371.2468454724
 20
9.3765703557
 10
371.2468454724
 20
6.2015703557
  0
LWPOLYLINE
  5
37F
100
AcDbEntity
  8
0
100
AcDbPolyline
 62
7
  6
CONTINUOUS
 90
2
 70
0
 43
0.2499999989
 10
371.2468454724
 20
270.9965703557
 10
371.2468454724
 20
274.1715703557
  0
LINE
  5
380
100
AcDbEntity
  8
0
100
AcDbLine
 62
7
  6
CONTINUOUS
 10
371.7080178462
 20
41.449593064
 11
371.7080178462
 21
41.8854537917
  0
LINE
  5
381
100
AcDbEntity
  8
0
100
AcDbLine
 62
7
  6
CONTINUOUS
 10
371.7347143111
 20
40.0801509411
 11
371.7347143111
 21
40.517366356
  0
LINE
  5
382
100
AcDbEntity
  8
0
100
AcDbLine
 62
7
  6
CONTINUOUS
 10
372.3339229957
 20
41.6758432984
 11
372.3339229957
 21
43.9319058113
  0
LINE
  5
383
100
AcDbEntity
  8
0
100
AcDbLine
 62
7
  6
CONTINUOUS
 10
373.4925401138
 20
41.359329276
 11
373.4925401138
 21
44.1750849135
  0
LINE
  5
384
100
AcDbEntity
  8
0
100
AcDbLine
 62
7
  6
CONTINUOUS
 10
374.1037215644
 20
41.1722786445
 11
374.1037215644
 21
40.7436165894
  0
LWPOLYLINE
  5
385
100
AcDbEntity
  8
0
100
AcDbPolyline
 62
7
  6
CONTINUOUS
 90
2
 70
0
 43
0.2499999989
 10
375.9569250035
 20
12.5515703557
 10
375.9569250035
 20
9.3765703557
  0
LINE
  5
386
100
AcDbEntity
  8
0
100
AcDbLine
 62
7
  6
CONTINUOUS
 10
376.104648085
 20
43.4538099096
 11
376.104648085
 21
43.8818980507
  0
LINE
  5
387
100
AcDbEntity
  8
0
100
AcDbLine
 62
7
  6
CONTINUOUS
 10
379.6216348324
 20
42.0867587232
 11
379.6216348324
 21
41.6247791141
  0
LWPOLYLINE
  5
388
100
AcDbEntity
  8
0
100
AcDbPolyline
 62
7
  6
CONTINUOUS
 90
2
 70
0
 43
0.2499999989
 10
380.7682356219
 20
18.9015703557
 10
380.7682356219
 20
12.5515703557
  0
LINE
  5
389
100
AcDbEntity
  8
0
100
AcDbLine
 62
7
  6
CONTINUOUS
 10
381.6294369076
 20
44.3343985203
 11
381.6294369076
 21
44.7960813827
  0
LINE
  5
38A
100
AcDbEntity
  8
0
100
AcDbLine
 62
7
  6
CONTINUOUS
 10
384.1198305256
 20
41.6443788422
 11
384.1198305256
 21
43.8909249511
  0
LINE
  5
38B
100
AcDbEntity
  8
0
100
AcDbLine
 62
7
  6
CONTINUOUS
 10
389.7858364204
 20
40.7360672799
 11
389.7858364204
 21
41.1918783727
  0
LINE
  5
38C
100
AcDbEntity
  8
0
100
AcDbLine
 62
7
  6
CONTINUOUS
 10
389.7858364204
 20
44.3434254225
 11
389.7858364204
 21
44.7960813885
  0
LWPOLYLINE
  5
38D
100
AcDbEntity
  8
0
100
AcDbPolyline
 62
7
  6
CONTINUOUS
 90
2
 70
0
 43
0.2499999989
 10
405.693025135
 20
12.5515703557
 10
405.693025135
 20
9.3765703557
  0
LWPOLYLINE
  5
38E
100
AcDbEntity
  8
0
100
AcDbPolyline
 62
7
  6
CONTINUOUS
 90
2
 70
0
 43
0.2499999989
 10
412.4516026361
 20
18.9015703557
 10
412.4516026361
 20
12.5515703557
  0
LWPOLYLINE
  5
38F
100
AcDbEntity
  8
0
100
AcDbPolyline
 62
7
  6
CONTINUOUS
 90
2
 70
0
 43
0.2499999989
 10
422.9993454724
 20
9.3765703557
 10
422.9993454724
 20
270.9965703557
  0
LWPOLYLINE
  5
390
100
AcDbEntity
  8
0
100
AcDbPolyline
 62
7
  6
CONTINUOUS
 90
2
 70
0
 43
0.2499999989
 10
424.5868454724
 20
141.103113908
 10
424.5868454724
 20
139.2700268033
  0
LINE
  5
391
100
AcDbEntity
  8
7_ALL_ROUNDS
100
AcDbLine
 62
7
  6
CONTINUOUS
 10
96.9108918055
 20
89.1726574326
 11
140.9108918055
 21
89.1726574326
  0
LINE
  5
392
100
AcDbEntity
  8
3_AXES_OTHER
100
AcDbLine
 62
7
  6
CENTER
 10
118.9108918055
 20
93.6726574326
 11
114.8976918055
 21
93.6726574326
  0
LINE
  5
393
100
AcDbEntity
  8
3_AXES_OTHER
100
AcDbLine
 62
7
  6
CENTER
 10
118.9108918055
 20
93.6726574326
 11
122.9240918055
 21
93.6726574326
  0
LINE
  5
394
100
AcDbEntity
  8
0
100
AcDbLine
 62
7
  6
CONTINUOUS
 10
120.4108918055
 20
98.1726574326
 11
117.4108918055
 21
98.1726574326
  0
LINE
  5
395
100
AcDbEntity
  8
0
100
AcDbLine
 62
7
  6
CONTINUOUS
 10
117.4108918055
 20
102.6726574326
 11
120.4108918055
 21
102.6726574326
  0
LINE
  5
396
100
AcDbEntity
  8
7_ALL_ROUNDS
100
AcDbLine
 62
7
  6
CONTINUOUS
 10
104.4881492133
 20
108.8511331864
 11
133.3336343976
 21
108.8511331864
  0
LINE
  5
397
100
AcDbEntity
  8
7_ALL_ROUNDS
100
AcDbLine
 62
7
  6
CONTINUOUS
 10
104.6795150301
 20
109.0424990032
 11
133.1422685808
 21
109.0424990032
  0
LINE
  5
398
100
AcDbEntity
  8
7_ALL_ROUNDS
100
AcDbLine
 62
7
  6
CONTINUOUS
 10
105.4108918055
 20
110.7729959714
 11
132.4108918055
 21
110.7729959714
  0
LINE
  5
399
100
AcDbEntity
  8
7_ALL_ROUNDS
100
AcDbLine
 62
7
  6
CONTINUOUS
 10
94.9108918055
 20
192.9726574326
 11
94.9108918055
 21
91.1726574326
  0
LINE
  5
39A
100
AcDbEntity
  8
0
100
AcDbLine
 62
7
  6
CONTINUOUS
 10
97.4108918055
 20
149.3817411633
 11
97.4108918055
 21
147.402574298
  0
LINE
  5
39B
100
AcDbEntity
  8
0
100
AcDbLine
 62
7
  6
CONTINUOUS
 10
97.4108918055
 20
146.9859074326
 11
97.4108918055
 21
145.1109074326
  0
LINE
  5
39C
100
AcDbEntity
  8
0
100
AcDbLine
 62
7
  6
CONTINUOUS
 10
97.4108918055
 20
143.8609074326
 11
97.4108918055
 21
143.6004905673
  0
LINE
  5
39D
100
AcDbEntity
  8
0
100
AcDbLine
 62
7
  6
CONTINUOUS
 10
97.4108918055
 20
142.3504908653
 11
97.4108918055
 21
140.4754907163
  0
LINE
  5
39E
100
AcDbEntity
  8
0
100
AcDbLine
 62
7
  6
CONTINUOUS
 10
97.4108918055
 20
139.3296574326
 11
97.4108918055
 21
138.0796574326
  0
LINE
  5
39F
100
AcDbEntity
  8
0
100
AcDbLine
 62
7
  6
CONTINUOUS
 10
97.6768492206
 20
138.3921574326
 11
97.6768492206
 21
139.3817407163
  0
LINE
  5
3A0
100
AcDbEntity
  8
0
100
AcDbLine
 62
7
  6
CONTINUOUS
 10
97.6768492206
 20
147.402574298
 11
97.6768492206
 21
148.2359074326
  0
LINE
  5
3A1
100
AcDbEntity
  8
0
100
AcDbLine
 62
7
  6
CONTINUOUS
 10
97.6768492206
 20
148.5484074326
 11
97.6768492206
 21
149.3817411633
  0
LINE
  5
3A2
100
AcDbEntity
  8
0
100
AcDbLine
 62
7
  6
CONTINUOUS
 10
97.7300407036
 20
140.7879908653
 11
97.7300407036
 21
142.3504908653
  0
LINE
  5
3A3
100
AcDbEntity
  8
0
100
AcDbLine
 62
7
  6
CONTINUOUS
 10
97.7300407036
 20
143.6004905673
 11
97.7300407036
 21
143.9129905673
  0
LINE
  5
3A4
100
AcDbEntity
  8
0
100
AcDbLine
 62
7
  6
CONTINUOUS
 10
97.7300407036
 20
145.4234074326
 11
97.7300407036
 21
146.9859074326
  0
LINE
  5
3A5
100
AcDbEntity
  8
0
100
AcDbLine
 62
7
  6
CONTINUOUS
 10
97.9959981187
 20
144.2254905673
 11
97.9959981187
 21
144.5379905673
  0
LINE
  5
3A6
100
AcDbEntity
  8
0
100
AcDbLine
 62
7
  6
CONTINUOUS
 10
98.4215301319
 20
146.777574298
 11
98.4215301319
 21
145.4234074326
  0
LINE
  5
3A7
100
AcDbEntity
  8
0
100
AcDbLine
 62
7
  6
CONTINUOUS
 10
98.4215301319
 20
142.1421574326
 11
98.4215301319
 21
140.7879908653
  0
LINE
  5
3A8
100
AcDbEntity
  8
0
100
AcDbLine
 62
7
  6
CONTINUOUS
 10
98.4747216149
 20
143.9129905673
 11
98.4747216149
 21
143.6004905673
  0
LINE
  5
3A9
100
AcDbEntity
  8
0
100
AcDbLine
 62
7
  6
CONTINUOUS
 10
98.4747216149
 20
139.3817407163
 11
98.4747216149
 21
138.3921574326
  0
LINE
  5
3AA
100
AcDbEntity
  8
0
100
AcDbLine
 62
7
  6
CONTINUOUS
 10
98.74067903
 20
140.7879908653
 11
98.74067903
 21
142.1421574326
  0
LINE
  5
3AB
100
AcDbEntity
  8
0
100
AcDbLine
 62
7
  6
CONTINUOUS
 10
98.74067903
 20
145.4234074326
 11
98.74067903
 21
146.777574298
  0
LINE
  5
3AC
100
AcDbEntity
  8
0
100
AcDbLine
 62
7
  6
CONTINUOUS
 10
98.793870513
 20
138.3921574326
 11
98.793870513
 21
139.2775740745
  0
LINE
  5
3AD
100
AcDbEntity
  8
0
100
AcDbLine
 62
7
  6
CONTINUOUS
 10
98.793870513
 20
143.6004905673
 11
98.793870513
 21
143.9129905673
  0
LINE
  5
3AE
100
AcDbEntity
  8
0
100
AcDbLine
 62
7
  6
CONTINUOUS
 10
99.2194024517
 20
143.0796574326
 11
99.2194024517
 21
142.7671574326
  0
LINE
  5
3AF
100
AcDbEntity
  8
0
100
AcDbLine
 62
7
  6
CONTINUOUS
 10
99.5917428701
 20
146.9859074326
 11
99.5917428701
 21
145.4234074326
  0
LINE
  5
3B0
100
AcDbEntity
  8
0
100
AcDbLine
 62
7
  6
CONTINUOUS
 10
99.5917428701
 20
143.9129905673
 11
99.5917428701
 21
143.496324298
  0
LINE
  5
3B1
100
AcDbEntity
  8
0
100
AcDbLine
 62
7
  6
CONTINUOUS
 10
99.5917428701
 20
142.3504908653
 11
99.5917428701
 21
140.7879908653
  0
LINE
  5
3B2
100
AcDbEntity
  8
0
100
AcDbLine
 62
7
  6
CONTINUOUS
 10
99.9108918055
 20
138.0796574326
 11
99.9108918055
 21
138.3921574326
  0
LINE
  5
3B3
100
AcDbEntity
  8
0
100
AcDbLine
 62
7
  6
CONTINUOUS
 10
99.9108918055
 20
139.6942407163
 11
99.9108918055
 21
140.058824149
  0
LINE
  5
3B4
100
AcDbEntity
  8
0
100
AcDbLine
 62
7
  6
CONTINUOUS
 10
99.9108918055
 20
140.4754907163
 11
99.9108918055
 21
142.3504908653
  0
LINE
  5
3B5
100
AcDbEntity
  8
0
100
AcDbLine
 62
7
  6
CONTINUOUS
 10
99.9108918055
 20
143.496324298
 11
99.9108918055
 21
143.9129905673
  0
LINE
  5
3B6
100
AcDbEntity
  8
0
100
AcDbLine
 62
7
  6
CONTINUOUS
 10
99.9108918055
 20
145.1109074326
 11
99.9108918055
 21
146.9859074326
  0
LINE
  5
3B7
100
AcDbEntity
  8
0
100
AcDbLine
 62
7
  6
CONTINUOUS
 10
99.9108918055
 20
148.2359074326
 11
99.9108918055
 21
148.5484074326
  0
LINE
  5
3B8
100
AcDbEntity
  8
0
100
AcDbLine
 62
7
  6
CONTINUOUS
 10
97.4640832885
 20
144.121324298
 11
97.4108918055
 21
143.8609074326
  0
LINE
  5
3B9
100
AcDbEntity
  8
0
100
AcDbLine
 62
7
  6
CONTINUOUS
 10
97.4640832885
 20
139.590074149
 11
97.4108918055
 21
139.3296574326
  0
LINE
  5
3BA
100
AcDbEntity
  8
0
100
AcDbLine
 62
7
  6
CONTINUOUS
 10
98.5279130979
 20
144.1734074326
 11
98.4747216149
 21
143.9129905673
  0
LINE
  5
3BB
100
AcDbEntity
  8
0
100
AcDbLine
 62
7
  6
CONTINUOUS
 10
99.8577003178
 20
143.2359074326
 11
99.9108918055
 21
143.496324298
  0
LINE
  5
3BC
100
AcDbEntity
  8
0
100
AcDbLine
 62
7
  6
CONTINUOUS
 10
98.793870513
 20
143.9129905673
 11
98.8470619961
 21
144.121324298
  0
LINE
  5
3BD
100
AcDbEntity
  8
0
100
AcDbLine
 62
7
  6
CONTINUOUS
 10
98.74067903
 20
143.3921574326
 11
98.793870513
 21
143.6004905673
  0
LINE
  5
3BE
100
AcDbEntity
  8
0
100
AcDbLine
 62
7
  6
CONTINUOUS
 10
99.5917428701
 20
143.496324298
 11
99.5385513871
 21
143.2879905673
  0
LINE
  5
3BF
100
AcDbEntity
  8
0
100
AcDbLine
 62
7
  6
CONTINUOUS
 10
97.7300407036
 20
143.9129905673
 11
97.7832321866
 21
144.0692405673
  0
LINE
  5
3C0
100
AcDbEntity
  8
0
100
AcDbLine
 62
7
  6
CONTINUOUS
 10
98.4747216149
 20
143.6004905673
 11
98.4215301319
 21
143.4442405673
  0
LINE
  5
3C1
100
AcDbEntity
  8
0
100
AcDbLine
 62
7
  6
CONTINUOUS
 10
97.6768492206
 20
139.3817407163
 11
97.7300407036
 21
139.5379907163
  0
LINE
  5
3C2
100
AcDbEntity
  8
0
100
AcDbLine
 62
7
  6
CONTINUOUS
 10
98.634296064
 20
144.3817405673
 11
98.5279130979
 21
144.1734074326
  0
LINE
  5
3C3
100
AcDbEntity
  8
7_ALL_ROUNDS
100
AcDbLine
 62
7
  6
CONTINUOUS
 10
110.4014696479
 20
120.8303820355
 11
127.4203139631
 21
120.8303820355
  0
LINE
  5
3C4
100
AcDbEntity
  8
7_ALL_ROUNDS
100
AcDbLine
 62
7
  6
CONTINUOUS
 10
110.4107395006
 20
120.8396518883
 11
127.4110441103
 21
120.8396518883
  0
LINE
  5
3C5
100
AcDbEntity
  8
7_ALL_ROUNDS
100
AcDbLine
 62
7
  6
CONTINUOUS
 10
110.5119815586
 20
120.9238994906
 11
127.3098020524
 21
120.9238994906
  0
LINE
  5
3C6
100
AcDbEntity
  8
7_ALL_ROUNDS
100
AcDbLine
 62
9
  6
CONTINUOUS
 10
110.52958894
 20
120.941506872
 11
127.292194671
 21
120.941506872
  0
LINE
  5
3C7
100
AcDbEntity
  8
7_ALL_ROUNDS
100
AcDbLine
 62
9
  6
CONTINUOUS
 10
110.52958894
 20
121.4414307195
 11
127.292194671
 21
121.4414307195
  0
LINE
  5
3C8
100
AcDbEntity
  8
7_ALL_ROUNDS
100
AcDbLine
 62
9
  6
CONTINUOUS
 10
110.0296650924
 20
121.9413545671
 11
109.5297412448
 21
121.9413545671
  0
LINE
  5
3C9
100
AcDbEntity
  8
7_ALL_ROUNDS
100
AcDbLine
 62
9
  6
CONTINUOUS
 10
127.7921185186
 20
121.9413545671
 11
128.2920423662
 21
121.9413545671
  0
LINE
  5
3CA
100
AcDbEntity
  8
0
100
AcDbLine
 62
7
  6
CONTINUOUS
 10
104.4108918055
 20
123.0226574326
 11
109.4042507882
 21
123.0226574326
  0
LINE
  5
3CB
100
AcDbEntity
  8
0
100
AcDbLine
 62
7
  6
CONTINUOUS
 10
128.4175328227
 20
123.0226574326
 11
133.4108918055
 21
123.0226574326
  0
LINE
  5
3CC
100
AcDbEntity
  8
0
100
AcDbLine
 62
7
  6
CONTINUOUS
 10
115.2186509271
 20
117.4454156969
 11
118.9108918055
 21
114.8121561968
  0
LINE
  5
3CD
100
AcDbEntity
  8
0
100
AcDbLine
 62
7
  6
CONTINUOUS
 10
118.9108918055
 20
115.5645392397
 11
115.5835660076
 21
117.9375459193
  0
LINE
  5
3CE
100
AcDbEntity
  8
0
100
AcDbLine
 62
7
  6
CONTINUOUS
 10
118.9108918055
 20
115.5816734636
 11
115.5835660076
 21
117.9546801432
  0
LINE
  5
3CF
100
AcDbEntity
  8
7_ALL_ROUNDS
100
AcDbLine
 62
9
  6
CONTINUOUS
 10
109.4108918055
 20
124.8058152818
 11
109.4028223847
 21
124.8138847027
  0
LINE
  5
3D0
100
AcDbEntity
  8
7_ALL_ROUNDS
100
AcDbLine
 62
9
  6
CONTINUOUS
 10
109.5121338634
 20
124.7215676795
 11
109.5297412448
 21
124.7039602981
  0
LINE
  5
3D1
100
AcDbEntity
  8
0
100
AcDbLine
 62
7
  6
CONTINUOUS
 10
98.687487547
 20
139.590074149
 11
98.581104581
 21
139.7984074326
  0
LINE
  5
3D2
100
AcDbEntity
  8
0
100
AcDbLine
 62
7
  6
CONTINUOUS
 10
98.4215301319
 20
139.5379907163
 11
98.4747216149
 21
139.3817407163
  0
LINE
  5
3D3
100
AcDbEntity
  8
0
100
AcDbLine
 62
7
  6
CONTINUOUS
 10
97.7832321866
 20
143.4442405673
 11
97.7300407036
 21
143.6004905673
  0
LINE
  5
3D4
100
AcDbEntity
  8
0
100
AcDbLine
 62
7
  6
CONTINUOUS
 10
97.4108918055
 20
143.6004905673
 11
97.4640832885
 21
143.3921574326
  0
LINE
  5
3D5
100
AcDbEntity
  8
3_AXES_OTHER
100
AcDbLine
 62
7
  6
CENTER
 10
100.8904175593
 20
135.0796574326
 11
100.8904175593
 21
131.7407039908
  0
LINE
  5
3D6
100
AcDbEntity
  8
3_AXES_OTHER
100
AcDbLine
 62
7
  6
CENTER
 10
100.8904175593
 20
135.0796574326
 11
100.8904175593
 21
138.4186108744
  0
LINE
  5
3D7
100
AcDbEntity
  8
7_ALL_ROUNDS
100
AcDbLine
 62
7
  6
CONTINUOUS
 10
102.4893675593
 20
173.2954000248
 11
102.4893675593
 21
137.1796574326
  0
LINE
  5
3D8
100
AcDbEntity
  8
7_ALL_ROUNDS
100
AcDbLine
 62
7
  6
CONTINUOUS
 10
102.4893675593
 20
132.9796574326
 11
102.4893675593
 21
110.8499148405
  0
LINE
  5
3D9
100
AcDbEntity
  8
0
100
AcDbLine
 62
7
  6
CONTINUOUS
 10
102.4893675593
 20
132.9796574326
 11
102.4893675593
 21
137.1796574326
  0
LINE
  5
3DA
100
AcDbEntity
  8
7_ALL_ROUNDS
100
AcDbLine
 62
7
  6
CONTINUOUS
 10
102.6807333761
 20
173.104034208
 11
102.6807333761
 21
111.0412806573
  0
LINE
  5
3DB
100
AcDbEntity
  8
7_ALL_ROUNDS
100
AcDbLine
 62
7
  6
CONTINUOUS
 10
103.7608918055
 20
172.952815862
 11
103.7608918055
 21
136.602815862
  0
LINE
  5
3DC
100
AcDbEntity
  8
0
100
AcDbLine
 62
7
  6
CONTINUOUS
 10
98.634296064
 20
143.183824298
 11
98.74067903
 21
143.3921574326
  0
LINE
  5
3DD
100
AcDbEntity
  8
0
100
AcDbLine
 62
7
  6
CONTINUOUS
 10
99.6981258548
 20
142.9754908653
 11
99.8577003178
 21
143.2359074326
  0
LINE
  5
3DE
100
AcDbEntity
  8
0
100
AcDbLine
 62
7
  6
CONTINUOUS
 10
98.8470619961
 20
144.121324298
 11
98.9534449621
 21
144.277574298
  0
LINE
  5
3DF
100
AcDbEntity
  8
0
100
AcDbLine
 62
7
  6
CONTINUOUS
 10
98.4215301319
 20
143.4442405673
 11
98.3151471659
 21
143.2879905673
  0
LINE
  5
3E0
100
AcDbEntity
  8
0
100
AcDbLine
 62
7
  6
CONTINUOUS
 10
97.6236577376
 20
144.3296574326
 11
97.4640832885
 21
144.121324298
  0
LINE
  5
3E1
100
AcDbEntity
  8
0
100
AcDbLine
 62
7
  6
CONTINUOUS
 10
97.6236577376
 20
139.7984074326
 11
97.4640832885
 21
139.590074149
  0
LINE
  5
3E2
100
AcDbEntity
  8
0
100
AcDbLine
 62
7
  6
CONTINUOUS
 10
97.7832321866
 20
144.0692405673
 11
97.8896151527
 21
144.1734074326
  0
LINE
  5
3E3
100
AcDbEntity
  8
0
100
AcDbLine
 62
7
  6
CONTINUOUS
 10
98.8470619961
 20
144.590074298
 11
98.634296064
 21
144.3817405673
  0
LINE
  5
3E4
100
AcDbEntity
  8
0
100
AcDbLine
 62
7
  6
CONTINUOUS
 10
98.4215301319
 20
142.9754908653
 11
98.634296064
 21
143.183824298
  0
LINE
  5
3E5
100
AcDbEntity
  8
0
100
AcDbLine
 62
7
  6
CONTINUOUS
 10
104.4108918055
 20
123.6226574326
 11
109.4042507882
 21
123.6226574326
  0
LINE
  5
3E6
100
AcDbEntity
  8
0
100
AcDbLine
 62
7
  6
CONTINUOUS
 10
128.4175328227
 20
123.6226574326
 11
133.4108918055
 21
123.6226574326
  0
LINE
  5
3E7
100
AcDbEntity
  8
7_ALL_ROUNDS
100
AcDbLine
 62
9
  6
CONTINUOUS
 10
110.0296650924
 20
124.7039602981
 11
109.5297412448
 21
124.7039602981
  0
LINE
  5
3E8
100
AcDbEntity
  8
7_ALL_ROUNDS
100
AcDbLine
 62
9
  6
CONTINUOUS
 10
127.7921185186
 20
124.7039602981
 11
128.2920423662
 21
124.7039602981
  0
LINE
  5
3E9
100
AcDbEntity
  8
7_ALL_ROUNDS
100
AcDbLine
 62
9
  6
CONTINUOUS
 10
127.292194671
 20
125.2038841457
 11
110.52958894
 21
125.2038841457
  0
LINE
  5
3EA
100
AcDbEntity
  8
7_ALL_ROUNDS
100
AcDbLine
 62
9
  6
CONTINUOUS
 10
127.292194671
 20
125.7038079933
 11
110.52958894
 21
125.7038079933
  0
LINE
  5
3EB
100
AcDbEntity
  8
7_ALL_ROUNDS
100
AcDbLine
 62
7
  6
CONTINUOUS
 10
127.3098020524
 20
125.7214153747
 11
110.5119815586
 21
125.7214153747
  0
LINE
  5
3EC
100
AcDbEntity
  8
7_ALL_ROUNDS
100
AcDbLine
 62
7
  6
CONTINUOUS
 10
127.4110441103
 20
125.805662977
 11
110.4107395006
 21
125.805662977
  0
LINE
  5
3ED
100
AcDbEntity
  8
7_ALL_ROUNDS
100
AcDbLine
 62
7
  6
CONTINUOUS
 10
127.4203138904
 20
125.814932757
 11
110.4014697206
 21
125.814932757
  0
LINE
  5
3EE
100
AcDbEntity
  8
0
100
AcDbLine
 62
7
  6
CONTINUOUS
 10
98.3151471659
 20
139.6421574326
 11
98.4215301319
 21
139.5379907163
  0
LINE
  5
3EF
100
AcDbEntity
  8
7_ALL_ROUNDS
100
AcDbLine
 62
9
  6
CONTINUOUS
 10
110.4107395006
 20
125.805662977
 11
110.4014697206
 21
125.814932757
  0
LINE
  5
3F0
100
AcDbEntity
  8
7_ALL_ROUNDS
100
AcDbLine
 62
9
  6
CONTINUOUS
 10
110.5119815586
 20
125.7214153747
 11
110.52958894
 21
125.7038079933
  0
LINE
  5
3F1
100
AcDbEntity
  8
0
100
AcDbLine
 62
7
  6
CONTINUOUS
 10
97.8896151527
 20
143.2879905673
 11
97.7832321866
 21
143.4442405673
  0
LINE
  5
3F2
100
AcDbEntity
  8
0
100
AcDbLine
 62
7
  6
CONTINUOUS
 10
97.4640832885
 20
143.3921574326
 11
97.5704662545
 21
143.183824298
  0
LINE
  5
3F3
100
AcDbEntity
  8
0
100
AcDbLine
 62
7
  6
CONTINUOUS
 10
99.8577003178
 20
144.1734074326
 11
99.7513173378
 21
144.3817405673
  0
LINE
  5
3F4
100
AcDbEntity
  8
0
100
AcDbLine
 62
7
  6
CONTINUOUS
 10
99.5385513871
 20
144.121324298
 11
99.5917428701
 21
143.9129905673
  0
LINE
  5
3F5
100
AcDbEntity
  8
0
100
AcDbLine
 62
7
  6
CONTINUOUS
 10
99.9108918055
 20
143.9129905673
 11
99.8577003178
 21
144.1734074326
  0
LINE
  5
3F6
100
AcDbEntity
  8
7_ALL_ROUNDS
100
AcDbLine
 62
7
  6
CONTINUOUS
 10
104.4108918055
 20
134.8726574326
 11
104.4108918055
 21
123.6226574326
  0
LINE
  5
3F7
100
AcDbEntity
  8
7_ALL_ROUNDS
100
AcDbLine
 62
7
  6
CONTINUOUS
 10
104.4108918055
 20
123.0226574326
 11
104.4108918055
 21
111.7729959714
  0
LINE
  5
3F8
100
AcDbEntity
  8
7_ALL_ROUNDS
100
AcDbLine
 62
9
  6
CONTINUOUS
 10
133.3336343976
 20
175.2941816788
 11
133.1422685808
 21
175.102815862
  0
LINE
  5
3F9
100
AcDbEntity
  8
0
100
AcDbLine
 62
7
  6
CONTINUOUS
 10
99.5385513871
 20
143.2879905673
 11
99.3789769008
 21
143.1317405673
  0
LINE
  5
3FA
100
AcDbEntity
  8
0
100
AcDbLine
 62
7
  6
CONTINUOUS
 10
97.7300407036
 20
139.5379907163
 11
97.8364236697
 21
139.6421574326
  0
LINE
  5
3FB
100
AcDbEntity
  8
0
100
AcDbLine
 62
7
  6
CONTINUOUS
 10
97.8364236697
 20
144.4859074326
 11
97.6236577376
 21
144.3296574326
  0
LINE
  5
3FC
100
AcDbEntity
  8
0
100
AcDbLine
 62
7
  6
CONTINUOUS
 10
98.9534449621
 20
144.277574298
 11
99.1130194857
 21
144.3817405673
  0
LINE
  5
3FD
100
AcDbEntity
  8
0
100
AcDbLine
 62
7
  6
CONTINUOUS
 10
97.8896151527
 20
144.1734074326
 11
97.9959981187
 21
144.2254905673
  0
LINE
  5
3FE
100
AcDbEntity
  8
0
100
AcDbLine
 62
7
  6
CONTINUOUS
 10
98.581104581
 20
139.7984074326
 11
98.3683386489
 21
139.9546574326
  0
LINE
  5
3FF
100
AcDbEntity
  8
0
100
AcDbLine
 62
7
  6
CONTINUOUS
 10
97.5704662545
 20
143.183824298
 11
97.7832321866
 21
142.9754908653
  0
LINE
  5
400
100
AcDbEntity
  8
0
100
AcDbLine
 62
7
  6
CONTINUOUS
 10
99.7513173378
 20
144.3817405673
 11
99.5385513871
 21
144.590074298
  0
LINE
  5
401
100
AcDbEntity
  8
7_ALL_ROUNDS
100
AcDbLine
 62
9
  6
CONTINUOUS
 10
133.3336343976
 20
108.8511331864
 11
133.1422685808
 21
109.0424990032
  0
LINE
  5
402
100
AcDbEntity
  8
0
100
AcDbLine
 62
7
  6
CONTINUOUS
 10
122.6031326839
 20
117.4282814729
 11
122.2382176034
 21
117.9375459193
  0
LINE
  5
403
100
AcDbEntity
  8
0
100
AcDbLine
 62
7
  6
CONTINUOUS
 10
122.6031326839
 20
117.4454156969
 11
122.2382176034
 21
117.9546801432
  0
LINE
  5
404
100
AcDbEntity
  8
0
100
AcDbLine
 62
7
  6
CONTINUOUS
 10
99.4321683838
 20
144.277574298
 11
99.5385513871
 21
144.121324298
  0
LINE
  5
405
100
AcDbEntity
  8
7_ALL_ROUNDS
100
AcDbLine
 62
7
  6
CONTINUOUS
 10
109.4042507882
 20
123.6226574326
 11
109.4028223847
 21
124.8138847027
  0
LINE
  5
406
100
AcDbEntity
  8
7_ALL_ROUNDS
100
AcDbLine
 62
7
  6
CONTINUOUS
 10
109.4108918055
 20
124.8058152818
 11
109.4108918055
 21
123.6226574326
  0
LINE
  5
407
100
AcDbEntity
  8
7_ALL_ROUNDS
100
AcDbLine
 62
7
  6
CONTINUOUS
 10
109.4108918055
 20
123.0226574326
 11
109.4108918055
 21
121.8394995834
  0
LINE
  5
408
100
AcDbEntity
  8
7_ALL_ROUNDS
100
AcDbLine
 62
7
  6
CONTINUOUS
 10
109.5121338634
 20
124.7215676795
 11
109.5121338634
 21
121.9237471857
  0
LINE
  5
409
100
AcDbEntity
  8
7_ALL_ROUNDS
100
AcDbLine
 62
9
  6
CONTINUOUS
 10
109.5297412448
 20
124.7039602981
 11
109.5297412448
 21
121.9413545671
  0
LINE
  5
40A
100
AcDbEntity
  8
7_ALL_ROUNDS
100
AcDbLine
 62
9
  6
CONTINUOUS
 10
110.0296650924
 20
124.7039602981
 11
110.0296650924
 21
121.9413545671
  0
LINE
  5
40B
100
AcDbEntity
  8
7_ALL_ROUNDS
100
AcDbLine
 62
9
  6
CONTINUOUS
 10
110.52958894
 20
121.4414307195
 11
110.52958894
 21
120.941506872
  0
LINE
  5
40C
100
AcDbEntity
  8
7_ALL_ROUNDS
100
AcDbLine
 62
9
  6
CONTINUOUS
 10
110.52958894
 20
125.2038841457
 11
110.52958894
 21
125.7038079933
  0
LINE
  5
40D
100
AcDbEntity
  8
7_ALL_ROUNDS
100
AcDbLine
 62
7
  6
CONTINUOUS
 10
109.4042507882
 20
123.0226574326
 11
109.4028223451
 21
121.8314301231
  0
LINE
  5
40E
100
AcDbEntity
  8
7_ALL_ROUNDS
100
AcDbLine
 62
9
  6
CONTINUOUS
 10
135.3324160517
 20
173.2954000248
 11
135.1410502349
 21
173.104034208
  0
LINE
  5
40F
100
AcDbEntity
  8
0
100
AcDbLine
 62
7
  6
CONTINUOUS
 10
97.8364236697
 20
139.9546574326
 11
97.6236577376
 21
139.7984074326
  0
LINE
  5
410
100
AcDbEntity
  8
0
100
AcDbLine
 62
7
  6
CONTINUOUS
 10
99.4321683838
 20
142.8192408653
 11
99.6981258548
 21
142.9754908653
  0
LINE
  5
411
100
AcDbEntity
  8
0
100
AcDbLine
 62
7
  6
CONTINUOUS
 10
99.0598280026
 20
144.6942405673
 11
98.8470619961
 21
144.590074298
  0
LINE
  5
412
100
AcDbEntity
  8
0
100
AcDbLine
 62
7
  6
CONTINUOUS
 10
97.9959981187
 20
144.5379905673
 11
97.8364236697
 21
144.4859074326
  0
LINE
  5
413
100
AcDbEntity
  8
0
100
AcDbLine
 62
7
  6
CONTINUOUS
 10
98.3151471659
 20
143.2879905673
 11
98.1555727168
 21
143.2359074326
  0
LINE
  5
414
100
AcDbEntity
  8
0
100
AcDbLine
 62
7
  6
CONTINUOUS
 10
100.8904175593
 20
132.9796574326
 11
102.4893675593
 21
132.9796574326
  0
LINE
  5
415
100
AcDbEntity
  8
0
100
AcDbLine
 62
7
  6
CONTINUOUS
 10
102.4893675593
 20
133.2077370023
 11
100.8904175593
 21
133.2077370023
  0
LINE
  5
416
100
AcDbEntity
  8
0
100
AcDbLine
 62
7
  6
CONTINUOUS
 10
98.1555727168
 20
139.6942407163
 11
98.3151471659
 21
139.6421574326
  0
LINE
  5
417
100
AcDbEntity
  8
0
100
AcDbLine
 62
7
  6
CONTINUOUS
 10
98.3683386489
 20
139.9546574326
 11
98.2087641998
 21
140.0067407163
  0
LINE
  5
418
100
AcDbEntity
  8
0
100
AcDbLine
 62
7
  6
CONTINUOUS
 10
99.2725939347
 20
144.3817405673
 11
99.4321683838
 21
144.277574298
  0
LINE
  5
419
100
AcDbEntity
  8
0
100
AcDbLine
 62
7
  6
CONTINUOUS
 10
118.9108918055
 20
131.0639793162
 11
122.2382176034
 21
128.6909723286
  0
LINE
  5
41A
100
AcDbEntity
  8
0
100
AcDbLine
 62
7
  6
CONTINUOUS
 10
118.9108918055
 20
131.0811130688
 11
122.2382176034
 21
128.7081060812
  0
LINE
  5
41B
100
AcDbEntity
  8
0
100
AcDbLine
 62
7
  6
CONTINUOUS
 10
122.6031326839
 20
129.2002368411
 11
118.9108918055
 21
131.8334966829
  0
LINE
  5
41C
100
AcDbEntity
  8
7_ALL_ROUNDS
100
AcDbLine
 62
9
  6
CONTINUOUS
 10
135.3324160517
 20
110.8499148405
 11
135.1410502349
 21
111.0412806573
  0
LINE
  5
41D
100
AcDbEntity
  8
7_ALL_ROUNDS
100
AcDbLine
 62
9
  6
CONTINUOUS
 10
127.3098020524
 20
120.9238994906
 11
127.292194671
 21
120.941506872
  0
LINE
  5
41E
100
AcDbEntity
  8
7_ALL_ROUNDS
100
AcDbLine
 62
9
  6
CONTINUOUS
 10
127.4110441103
 20
120.8396518883
 11
127.4203139631
 21
120.8303820355
  0
LINE
  5
41F
100
AcDbEntity
  8
7_ALL_ROUNDS
100
AcDbLine
 62
9
  6
CONTINUOUS
 10
128.3096497475
 20
121.9237471857
 11
128.2920423662
 21
121.9413545671
  0
LINE
  5
420
100
AcDbEntity
  8
7_ALL_ROUNDS
100
AcDbLine
 62
9
  6
CONTINUOUS
 10
128.4108918055
 20
121.8394995834
 11
128.4189612658
 21
121.8314301231
  0
LINE
  5
421
100
AcDbEntity
  8
0
100
AcDbLine
 62
7
  6
CONTINUOUS
 10
115.2186509271
 20
129.2002368411
 11
115.5835660076
 21
128.6909723286
  0
LINE
  5
422
100
AcDbEntity
  8
0
100
AcDbLine
 62
7
  6
CONTINUOUS
 10
115.2186509271
 20
129.2173705937
 11
115.5835660076
 21
128.7081060812
  0
LINE
  5
423
100
AcDbEntity
  8
0
100
AcDbLine
 62
7
  6
CONTINUOUS
 10
99.9108918055
 20
140.058824149
 11
98.687487547
 21
139.590074149
  0
LINE
  5
424
100
AcDbEntity
  8
0
100
AcDbLine
 62
7
  6
CONTINUOUS
 10
98.793870513
 20
139.2775740745
 11
99.9108918055
 21
139.6942407163
  0
LINE
  5
425
100
AcDbEntity
  8
0
100
AcDbLine
 62
7
  6
CONTINUOUS
 10
99.3789769008
 20
143.1317405673
 11
99.2194024517
 21
143.0796574326
  0
LINE
  5
426
100
AcDbEntity
  8
0
100
AcDbLine
 62
7
  6
CONTINUOUS
 10
97.9959981187
 20
140.0067407163
 11
97.8364236697
 21
139.9546574326
  0
LINE
  5
427
100
AcDbEntity
  8
0
100
AcDbLine
 62
7
  6
CONTINUOUS
 10
97.8364236697
 20
139.6421574326
 11
97.9959981187
 21
139.6942407163
  0
LINE
  5
428
100
AcDbEntity
  8
3_AXES_OTHER
100
AcDbLine
 62
7
  6
CENTER
 10
100.8904175593
 20
135.0796574326
 11
97.5514641175
 21
135.0796574326
  0
LINE
  5
429
100
AcDbEntity
  8
3_AXES_OTHER
100
AcDbLine
 62
7
  6
CENTER
 10
100.8904175593
 20
135.0796574326
 11
104.2293710011
 21
135.0796574326
  0
LINE
  5
42A
100
AcDbEntity
  8
7_ALL_ROUNDS
100
AcDbLine
 62
7
  6
CONTINUOUS
 10
105.4108918055
 20
135.8726574326
 11
132.4108918055
 21
135.8726574326
  0
LINE
  5
42B
100
AcDbEntity
  8
0
100
AcDbLine
 62
7
  6
CONTINUOUS
 10
103.7608918055
 20
136.602815862
 11
134.0608918055
 21
136.602815862
  0
LINE
  5
42C
100
AcDbEntity
  8
0
100
AcDbLine
 62
7
  6
CONTINUOUS
 10
100.8904175593
 20
136.951577863
 11
102.4893675593
 21
136.951577863
  0
LINE
  5
42D
100
AcDbEntity
  8
0
100
AcDbLine
 62
7
  6
CONTINUOUS
 10
102.4893675593
 20
137.1796574326
 11
100.8904175593
 21
137.1796574326
  0
LINE
  5
42E
100
AcDbEntity
  8
0
100
AcDbLine
 62
7
  6
CONTINUOUS
 10
97.4108918055
 20
138.0796574326
 11
99.9108918055
 21
138.0796574326
  0
LINE
  5
42F
100
AcDbEntity
  8
0
100
AcDbLine
 62
7
  6
CONTINUOUS
 10
99.9108918055
 20
138.3921574326
 11
98.793870513
 21
138.3921574326
  0
LINE
  5
430
100
AcDbEntity
  8
0
100
AcDbLine
 62
7
  6
CONTINUOUS
 10
98.4747216149
 20
138.3921574326
 11
97.6768492206
 21
138.3921574326
  0
LINE
  5
431
100
AcDbEntity
  8
0
100
AcDbLine
 62
7
  6
CONTINUOUS
 10
97.7832321866
 20
142.9754908653
 11
97.9959981187
 21
142.9234074326
  0
LINE
  5
432
100
AcDbEntity
  8
0
100
AcDbLine
 62
7
  6
CONTINUOUS
 10
98.0491897507
 20
143.2359074326
 11
97.8896151527
 21
143.2879905673
  0
LINE
  5
433
100
AcDbEntity
  8
0
100
AcDbLine
 62
7
  6
CONTINUOUS
 10
99.5385513871
 20
144.590074298
 11
99.3257854178
 21
144.6942405673
  0
LINE
  5
434
100
AcDbEntity
  8
0
100
AcDbLine
 62
7
  6
CONTINUOUS
 10
115.5835660076
 20
117.9546801432
 11
115.5835660076
 21
117.9375459193
  0
LINE
  5
435
100
AcDbEntity
  8
3_AXES_OTHER
100
AcDbLine
 62
7
  6
CENTER
 10
118.9108918055
 20
190.4726574326
 11
118.9108918055
 21
186.4594574326
  0
LINE
  5
436
100
AcDbEntity
  8
3_AXES_OTHER
100
AcDbLine
 62
7
  6
CENTER
 10
118.9108918055
 20
142.0726574326
 11
118.9108918055
 21
84.2035840856
  0
LINE
  5
437
100
AcDbEntity
  8
0
100
AcDbLine
 62
7
  6
CONTINUOUS
 10
118.9108918055
 20
115.5816734636
 11
118.9108918055
 21
115.5645392397
  0
LINE
  5
438
100
AcDbEntity
  8
3_AXES_OTHER
100
AcDbLine
 62
7
  6
CENTER
 10
118.9108918055
 20
190.4726574326
 11
118.9108918055
 21
194.4858574326
  0
LINE
  5
439
100
AcDbEntity
  8
3_AXES_OTHER
100
AcDbLine
 62
7
  6
CENTER
 10
118.9108918055
 20
142.0726574326
 11
118.9108918055
 21
186.4594574326
  0
LINE
  5
43A
100
AcDbEntity
  8
3_AXES_OTHER
100
AcDbLine
 62
7
  6
CENTER
 10
118.9108918055
 20
194.4858574326
 11
118.9108918055
 21
197.5657774811
  0
LINE
  5
43B
100
AcDbEntity
  8
0
100
AcDbLine
 62
7
  6
CONTINUOUS
 10
97.9959981187
 20
139.6942407163
 11
98.1555727168
 21
139.6942407163
  0
LINE
  5
43C
100
AcDbEntity
  8
0
100
AcDbLine
 62
7
  6
CONTINUOUS
 10
98.2087641998
 20
140.0067407163
 11
97.9959981187
 21
140.0067407163
  0
LINE
  5
43D
100
AcDbEntity
  8
0
100
AcDbLine
 62
7
  6
CONTINUOUS
 10
97.4108918055
 20
140.4754907163
 11
99.9108918055
 21
140.4754907163
  0
LINE
  5
43E
100
AcDbEntity
  8
0
100
AcDbLine
 62
7
  6
CONTINUOUS
 10
99.5917428701
 20
140.7879908653
 11
98.74067903
 21
140.7879908653
  0
LINE
  5
43F
100
AcDbEntity
  8
0
100
AcDbLine
 62
7
  6
CONTINUOUS
 10
98.4215301319
 20
140.7879908653
 11
97.7300407036
 21
140.7879908653
  0
LINE
  5
440
100
AcDbEntity
  8
3_AXES_OTHER
100
AcDbLine
 62
7
  6
CENTER
 10
118.9108918055
 20
142.0726574326
 11
90.5468585207
 21
142.0726574326
  0
LINE
  5
441
100
AcDbEntity
  8
3_AXES_OTHER
100
AcDbLine
 62
7
  6
CENTER
 10
118.9108918055
 20
142.0726574326
 11
146.5270168037
 21
142.0726574326
  0
LINE
  5
442
100
AcDbEntity
  8
0
100
AcDbLine
 62
7
  6
CONTINUOUS
 10
98.74067903
 20
142.1421574326
 11
98.4215301319
 21
142.1421574326
  0
LINE
  5
443
100
AcDbEntity
  8
0
100
AcDbLine
 62
7
  6
CONTINUOUS
 10
99.9108918055
 20
142.3504908653
 11
99.5917428701
 21
142.3504908653
  0
LINE
  5
444
100
AcDbEntity
  8
0
100
AcDbLine
 62
7
  6
CONTINUOUS
 10
97.7300407036
 20
142.3504908653
 11
97.4108918055
 21
142.3504908653
  0
LINE
  5
445
100
AcDbEntity
  8
0
100
AcDbLine
 62
7
  6
CONTINUOUS
 10
122.2382176034
 20
117.9546801432
 11
122.2382176034
 21
117.9375459193
  0
LINE
  5
446
100
AcDbEntity
  8
0
100
AcDbLine
 62
7
  6
CONTINUOUS
 10
97.9959981187
 20
142.9234074326
 11
98.2087641998
 21
142.9234074326
  0
LINE
  5
447
100
AcDbEntity
  8
0
100
AcDbLine
 62
7
  6
CONTINUOUS
 10
98.1555727168
 20
143.2359074326
 11
98.0491897507
 21
143.2359074326
  0
LINE
  5
448
100
AcDbEntity
  8
0
100
AcDbLine
 62
7
  6
CONTINUOUS
 10
99.1130194857
 20
144.3817405673
 11
99.2725939347
 21
144.3817405673
  0
LINE
  5
449
100
AcDbEntity
  8
0
100
AcDbLine
 62
7
  6
CONTINUOUS
 10
99.3257854178
 20
144.6942405673
 11
99.0598280026
 21
144.6942405673
  0
LINE
  5
44A
100
AcDbEntity
  8
0
100
AcDbLine
 62
7
  6
CONTINUOUS
 10
97.4108918055
 20
145.1109074326
 11
99.9108918055
 21
145.1109074326
  0
LINE
  5
44B
100
AcDbEntity
  8
0
100
AcDbLine
 62
7
  6
CONTINUOUS
 10
99.5917428701
 20
145.4234074326
 11
98.74067903
 21
145.4234074326
  0
LINE
  5
44C
100
AcDbEntity
  8
0
100
AcDbLine
 62
7
  6
CONTINUOUS
 10
98.4215301319
 20
145.4234074326
 11
97.7300407036
 21
145.4234074326
  0
LINE
  5
44D
100
AcDbEntity
  8
7_ALL_ROUNDS
100
AcDbLine
 62
9
  6
CONTINUOUS
 10
109.4108918055
 20
121.8394995834
 11
109.4028223451
 21
121.8314301231
  0
LINE
  5
44E
100
AcDbEntity
  8
7_ALL_ROUNDS
100
AcDbLine
 62
9
  6
CONTINUOUS
 10
109.5121338634
 20
121.9237471857
 11
109.5297412448
 21
121.9413545671
  0
LINE
  5
44F
100
AcDbEntity
  8
0
100
AcDbLine
 62
7
  6
CONTINUOUS
 10
99.2194024517
 20
142.7671574326
 11
99.4321683838
 21
142.8192408653
  0
LINE
  5
450
100
AcDbEntity
  8
0
100
AcDbLine
 62
7
  6
CONTINUOUS
 10
98.2087641998
 20
142.9234074326
 11
98.4215301319
 21
142.9754908653
  0
LINE
  5
451
100
AcDbEntity
  8
0
100
AcDbLine
 62
7
  6
CONTINUOUS
 10
98.74067903
 20
146.777574298
 11
98.4215301319
 21
146.777574298
  0
LINE
  5
452
100
AcDbEntity
  8
0
100
AcDbLine
 62
7
  6
CONTINUOUS
 10
99.9108918055
 20
146.9859074326
 11
99.5917428701
 21
146.9859074326
  0
LINE
  5
453
100
AcDbEntity
  8
0
100
AcDbLine
 62
7
  6
CONTINUOUS
 10
97.7300407036
 20
146.9859074326
 11
97.4108918055
 21
146.9859074326
  0
LINE
  5
454
100
AcDbEntity
  8
0
100
AcDbLine
 62
7
  6
CONTINUOUS
 10
97.4108918055
 20
147.402574298
 11
97.6768492206
 21
147.402574298
  0
LINE
  5
455
100
AcDbEntity
  8
0
100
AcDbLine
 62
7
  6
CONTINUOUS
 10
97.6768492206
 20
148.2359074326
 11
99.9108918055
 21
148.2359074326
  0
LINE
  5
456
100
AcDbEntity
  8
0
100
AcDbLine
 62
7
  6
CONTINUOUS
 10
99.9108918055
 20
148.5484074326
 11
97.6768492206
 21
148.5484074326
  0
LINE
  5
457
100
AcDbEntity
  8
0
100
AcDbLine
 62
7
  6
CONTINUOUS
 10
97.6768492206
 20
149.3817411633
 11
97.4108918055
 21
149.3817411633
  0
LINE
  5
458
100
AcDbEntity
  8
7_ALL_ROUNDS
100
AcDbLine
 62
7
  6
CONTINUOUS
 10
128.4175328227
 20
123.0226574326
 11
128.4189612658
 21
121.8314301231
  0
LINE
  5
459
100
AcDbEntity
  8
7_ALL_ROUNDS
100
AcDbLine
 62
9
  6
CONTINUOUS
 10
127.292194671
 20
121.4414307195
 11
127.292194671
 21
120.941506872
  0
LINE
  5
45A
100
AcDbEntity
  8
7_ALL_ROUNDS
100
AcDbLine
 62
9
  6
CONTINUOUS
 10
127.292194671
 20
125.2038841457
 11
127.292194671
 21
125.7038079933
  0
LINE
  5
45B
100
AcDbEntity
  8
7_ALL_ROUNDS
100
AcDbLine
 62
9
  6
CONTINUOUS
 10
127.7921185186
 20
121.9413545671
 11
127.7921185186
 21
124.7039602981
  0
LINE
  5
45C
100
AcDbEntity
  8
7_ALL_ROUNDS
100
AcDbLine
 62
9
  6
CONTINUOUS
 10
128.2920423662
 20
121.9413545671
 11
128.2920423662
 21
124.7039602981
  0
LINE
  5
45D
100
AcDbEntity
  8
7_ALL_ROUNDS
100
AcDbLine
 62
7
  6
CONTINUOUS
 10
128.3096497475
 20
121.9237471857
 11
128.3096497475
 21
124.7215676795
  0
LINE
  5
45E
100
AcDbEntity
  8
7_ALL_ROUNDS
100
AcDbLine
 62
7
  6
CONTINUOUS
 10
128.4108918055
 20
121.8394995834
 11
128.4108918055
 21
123.0226574326
  0
LINE
  5
45F
100
AcDbEntity
  8
7_ALL_ROUNDS
100
AcDbLine
 62
7
  6
CONTINUOUS
 10
128.4108918055
 20
123.6226574326
 11
128.4108918055
 21
124.8058152818
  0
LINE
  5
460
100
AcDbEntity
  8
7_ALL_ROUNDS
100
AcDbLine
 62
7
  6
CONTINUOUS
 10
128.4175328227
 20
123.6226574326
 11
128.4189612263
 21
124.8138847027
  0
LINE
  5
461
100
AcDbEntity
  8
0
100
AcDbLine
 62
7
  6
CONTINUOUS
 10
122.2382176034
 20
128.7081060812
 11
122.6031326839
 21
129.2173705937
  0
LINE
  5
462
100
AcDbEntity
  8
0
100
AcDbLine
 62
7
  6
CONTINUOUS
 10
122.2382176034
 20
128.6909723286
 11
122.6031326839
 21
129.2002368411
  0
LINE
  5
463
100
AcDbEntity
  8
0
100
AcDbLine
 62
7
  6
CONTINUOUS
 10
115.5835660076
 20
117.9546801432
 11
115.2186509271
 21
117.4454156969
  0
LINE
  5
464
100
AcDbEntity
  8
0
100
AcDbLine
 62
7
  6
CONTINUOUS
 10
115.5835660076
 20
117.9375459193
 11
115.2186509271
 21
117.4282814729
  0
LINE
  5
465
100
AcDbEntity
  8
7_ALL_ROUNDS
100
AcDbLine
 62
9
  6
CONTINUOUS
 10
110.4107395006
 20
120.8396518883
 11
110.4014696479
 21
120.8303820355
  0
LINE
  5
466
100
AcDbEntity
  8
7_ALL_ROUNDS
100
AcDbLine
 62
9
  6
CONTINUOUS
 10
110.5119815586
 20
120.9238994906
 11
110.52958894
 21
120.941506872
  0
LINE
  5
467
100
AcDbEntity
  8
7_ALL_ROUNDS
100
AcDbLine
 62
9
  6
CONTINUOUS
 10
102.4893675593
 20
110.8499148405
 11
102.6807333761
 21
111.0412806573
  0
LINE
  5
468
100
AcDbEntity
  8
0
100
AcDbLine
 62
7
  6
CONTINUOUS
 10
118.9108918055
 20
131.8334966829
 11
115.2186509271
 21
129.2002368411
  0
LINE
  5
469
100
AcDbEntity
  8
0
100
AcDbLine
 62
7
  6
CONTINUOUS
 10
115.5835660076
 20
128.7081060812
 11
118.9108918055
 21
131.0811130688
  0
LINE
  5
46A
100
AcDbEntity
  8
0
100
AcDbLine
 62
7
  6
CONTINUOUS
 10
115.5835660076
 20
128.6909723286
 11
118.9108918055
 21
131.0639793162
  0
LINE
  5
46B
100
AcDbEntity
  8
7_ALL_ROUNDS
100
AcDbLine
 62
9
  6
CONTINUOUS
 10
102.4893675593
 20
173.2954000248
 11
102.6807333761
 21
173.104034208
  0
LINE
  5
46C
100
AcDbEntity
  8
7_ALL_ROUNDS
100
AcDbLine
 62
7
  6
CONTINUOUS
 10
133.4108918055
 20
134.8726574326
 11
133.4108918055
 21
123.6226574326
  0
LINE
  5
46D
100
AcDbEntity
  8
7_ALL_ROUNDS
100
AcDbLine
 62
7
  6
CONTINUOUS
 10
133.4108918055
 20
123.0226574326
 11
133.4108918055
 21
111.7729959714
  0
LINE
  5
46E
100
AcDbEntity
  8
7_ALL_ROUNDS
100
AcDbLine
 62
7
  6
CONTINUOUS
 10
134.0608918055
 20
136.602815862
 11
134.0608918055
 21
172.952815862
  0
LINE
  5
46F
100
AcDbEntity
  8
7_ALL_ROUNDS
100
AcDbLine
 62
9
  6
CONTINUOUS
 10
104.4881492133
 20
108.8511331864
 11
104.6795150301
 21
109.0424990032
  0
LINE
  5
470
100
AcDbEntity
  8
7_ALL_ROUNDS
100
AcDbLine
 62
9
  6
CONTINUOUS
 10
104.4881492133
 20
175.2941816788
 11
104.6795150301
 21
175.102815862
  0
LINE
  5
471
100
AcDbEntity
  8
7_ALL_ROUNDS
100
AcDbLine
 62
7
  6
CONTINUOUS
 10
135.1410502349
 20
111.0412806573
 11
135.1410502349
 21
173.104034208
  0
LINE
  5
472
100
AcDbEntity
  8
7_ALL_ROUNDS
100
AcDbLine
 62
7
  6
CONTINUOUS
 10
135.3324160517
 20
110.8499148405
 11
135.3324160517
 21
173.2954000248
  0
LINE
  5
473
100
AcDbEntity
  8
7_ALL_ROUNDS
100
AcDbLine
 62
9
  6
CONTINUOUS
 10
127.3098020524
 20
125.7214153747
 11
127.292194671
 21
125.7038079933
  0
LINE
  5
474
100
AcDbEntity
  8
7_ALL_ROUNDS
100
AcDbLine
 62
9
  6
CONTINUOUS
 10
127.4110441103
 20
125.805662977
 11
127.4203138904
 21
125.814932757
  0
LINE
  5
475
100
AcDbEntity
  8
7_ALL_ROUNDS
100
AcDbLine
 62
9
  6
CONTINUOUS
 10
128.3096497475
 20
124.7215676795
 11
128.2920423662
 21
124.7039602981
  0
LINE
  5
476
100
AcDbEntity
  8
7_ALL_ROUNDS
100
AcDbLine
 62
9
  6
CONTINUOUS
 10
128.4108918055
 20
124.8058152818
 11
128.4189612263
 21
124.8138847027
  0
LINE
  5
477
100
AcDbEntity
  8
0
100
AcDbLine
 62
7
  6
CONTINUOUS
 10
122.2382176034
 20
117.9546801432
 11
118.9108918055
 21
115.5816734636
  0
LINE
  5
478
100
AcDbEntity
  8
0
100
AcDbLine
 62
7
  6
CONTINUOUS
 10
122.2382176034
 20
117.9375459193
 11
118.9108918055
 21
115.5645392397
  0
LINE
  5
479
100
AcDbEntity
  8
0
100
AcDbLine
 62
7
  6
CONTINUOUS
 10
118.9108918055
 20
114.8121561968
 11
122.6031326839
 21
117.4454156969
  0
LINE
  5
47A
100
AcDbEntity
  8
7_ALL_ROUNDS
100
AcDbLine
 62
7
  6
CONTINUOUS
 10
142.9108918055
 20
91.1726574326
 11
142.9108918055
 21
192.9726574326
  0
LINE
  5
47B
100
AcDbEntity
  8
7_ALL_ROUNDS
100
AcDbLine
 62
7
  6
CONTINUOUS
 10
133.0608918055
 20
173.952815862
 11
104.7608918055
 21
173.952815862
  0
LINE
  5
47C
100
AcDbEntity
  8
7_ALL_ROUNDS
100
AcDbLine
 62
7
  6
CONTINUOUS
 10
133.1422685808
 20
175.102815862
 11
104.6795150301
 21
175.102815862
  0
LINE
  5
47D
100
AcDbEntity
  8
7_ALL_ROUNDS
100
AcDbLine
 62
7
  6
CONTINUOUS
 10
133.3336343976
 20
175.2941816788
 11
104.4881492133
 21
175.2941816788
  0
LINE
  5
47E
100
AcDbEntity
  8
0
100
AcDbLine
 62
7
  6
CONTINUOUS
 10
120.4108918055
 20
181.4726574326
 11
117.4108918055
 21
181.4726574326
  0
LINE
  5
47F
100
AcDbEntity
  8
0
100
AcDbLine
 62
7
  6
CONTINUOUS
 10
117.4108918055
 20
185.9726574326
 11
120.4108918055
 21
185.9726574326
  0
LINE
  5
480
100
AcDbEntity
  8
3_AXES_OTHER
100
AcDbLine
 62
7
  6
CENTER
 10
118.9108918055
 20
190.4726574326
 11
114.8976918055
 21
190.4726574326
  0
LINE
  5
481
100
AcDbEntity
  8
3_AXES_OTHER
100
AcDbLine
 62
7
  6
CENTER
 10
118.9108918055
 20
190.4726574326
 11
122.9240918055
 21
190.4726574326
  0
LINE
  5
482
100
AcDbEntity
  8
7_ALL_ROUNDS
100
AcDbLine
 62
7
  6
CONTINUOUS
 10
140.9108918055
 20
194.9726574326
 11
96.9108918055
 21
194.9726574326
  0
LINE
  5
483
100
AcDbEntity
  8
7_ALL_ROUNDS
100
AcDbLine
 62
7
  6
CONTINUOUS
 10
94.9108918055
 20
232.1297734104
 11
94.9108918055
 21
233.6497734104
  0
LINE
  5
484
100
AcDbEntity
  8
0
100
AcDbLine
 62
7
  6
CONTINUOUS
 10
98.8557318055
 20
257.1806634104
 11
99.1057318055
 21
257.6806634104
  0
LINE
  5
485
100
AcDbEntity
  8
7_ALL_ROUNDS
100
AcDbLine
 62
7
  6
CONTINUOUS
 10
96.3538318055
 20
247.6476634104
 11
96.3538318055
 21
249.8076634104
  0
LINE
  5
486
100
AcDbEntity
  8
0
100
AcDbLine
 62
7
  6
CONTINUOUS
 10
96.4108918055
 20
238.2196934104
 11
96.4108918055
 21
239.7586734104
  0
LINE
  5
487
100
AcDbEntity
  8
0
100
AcDbLine
 62
7
  6
CONTINUOUS
 10
96.4108918055
 20
246.1086734104
 11
96.4108918055
 21
247.6476634104
  0
LINE
  5
488
100
AcDbEntity
  8
0
100
AcDbLine
 62
7
  6
CONTINUOUS
 10
96.8108918055
 20
239.7586734104
 11
96.8108918055
 21
246.1086734104
  0
LINE
  5
489
100
AcDbEntity
  8
7_ALL_ROUNDS
100
AcDbLine
 62
9
  6
CONTINUOUS
 10
96.9108918055
 20
232.1297734104
 11
96.9108918055
 21
233.6497734104
  0
LINE
  5
48A
100
AcDbEntity
  8
0
100
AcDbLine
 62
7
  6
CONTINUOUS
 10
97.0904318055
 20
247.6476634104
 11
97.0904318055
 21
248.1556594104
  0
LINE
  5
48B
100
AcDbEntity
  8
7_ALL_ROUNDS
100
AcDbLine
 62
7
  6
CONTINUOUS
 10
96.4108918055
 20
233.6497734104
 11
96.5704769284
 21
238.2196934104
  0
LINE
  5
48C
100
AcDbEntity
  8
0
100
AcDbLine
 62
7
  6
CONTINUOUS
 10
98.0608918055
 20
241.7586734104
 11
98.0608918055
 21
241.8596734104
  0
LINE
  5
48D
100
AcDbEntity
  8
0
100
AcDbLine
 62
7
  6
CONTINUOUS
 10
98.8557318055
 20
244.5916634104
 11
98.8557318055
 21
246.1086734104
  0
LINE
  5
48E
100
AcDbEntity
  8
0
100
AcDbLine
 62
7
  6
CONTINUOUS
 10
98.8557318055
 20
247.6476634104
 11
98.8557318055
 21
248.1556594104
  0
LINE
  5
48F
100
AcDbEntity
  8
0
100
AcDbLine
 62
7
  6
CONTINUOUS
 10
98.8557318055
 20
250.1876634104
 11
98.8557318055
 21
257.1806634104
  0
LINE
  5
490
100
AcDbEntity
  8
7_ALL_ROUNDS
100
AcDbLine
 62
7
  6
CONTINUOUS
 10
101.4373477562
 20
255.5204687414
 11
100.0825693208
 21
254.3245022534
  0
LINE
  5
491
100
AcDbEntity
  8
0
100
AcDbLine
 62
7
  6
CONTINUOUS
 10
99.3108918055
 20
239.7586734104
 11
99.3108918055
 21
241.7586734104
  0
LINE
  5
492
100
AcDbEntity
  8
0
100
AcDbLine
 62
7
  6
CONTINUOUS
 10
99.5669318055
 20
244.5916634104
 11
99.5669318055
 21
246.1086734104
  0
LINE
  5
493
100
AcDbEntity
  8
0
100
AcDbLine
 62
7
  6
CONTINUOUS
 10
99.5669318055
 20
247.6476634104
 11
99.5669318055
 21
248.1556594104
  0
LINE
  5
494
100
AcDbEntity
  8
0
100
AcDbLine
 62
7
  6
CONTINUOUS
 10
99.5669318055
 20
250.1876634104
 11
99.5669318055
 21
257.1806634104
  0
LINE
  5
495
100
AcDbEntity
  8
0
100
AcDbLine
 62
7
  6
CONTINUOUS
 10
100.5608918055
 20
241.7586734104
 11
100.5608918055
 21
241.8596734104
  0
LINE
  5
496
100
AcDbEntity
  8
0
100
AcDbLine
 62
7
  6
CONTINUOUS
 10
100.5608918055
 20
249.6476634104
 11
100.5608918055
 21
249.8606634104
  0
LINE
  5
497
100
AcDbEntity
  8
7_ALL_ROUNDS
100
AcDbLine
 62
7
  6
CONTINUOUS
 10
101.1544318055
 20
252.1688634104
 11
101.1544318055
 21
249.8056595465
  0
LINE
  5
498
100
AcDbEntity
  8
7_ALL_ROUNDS
100
AcDbLine
 62
9
  6
CONTINUOUS
 10
99.2304606509
 20
233.6497734104
 11
99.3900457738
 21
238.2196934104
  0
LINE
  5
499
100
AcDbEntity
  8
0
100
AcDbLine
 62
7
  6
CONTINUOUS
 10
99.5669318055
 20
244.5916634104
 11
99.3169318055
 21
244.0916634104
  0
LINE
  5
49A
100
AcDbEntity
  8
7_ALL_ROUNDS
100
AcDbLine
 62
7
  6
CONTINUOUS
 10
127.7921185186
 20
225.1497734104
 11
110.0296650924
 21
225.1497734104
  0
LINE
  5
49B
100
AcDbEntity
  8
7_ALL_ROUNDS
100
AcDbLine
 62
7
  6
CONTINUOUS
 10
102.4893675593
 20
232.1297734104
 11
102.6807333761
 21
226.6497734104
  0
LINE
  5
49C
100
AcDbEntity
  8
0
100
AcDbLine
 62
7
  6
CONTINUOUS
 10
101.3322318055
 20
247.6476634104
 11
101.3322318055
 21
248.1556594104
  0
LINE
  5
49D
100
AcDbEntity
  8
0
100
AcDbLine
 62
7
  6
CONTINUOUS
 10
101.8108918055
 20
239.7586734104
 11
101.8108918055
 21
246.1086734104
  0
LINE
  5
49E
100
AcDbEntity
  8
7_ALL_ROUNDS
100
AcDbLine
 62
7
  6
CONTINUOUS
 10
102.0688318055
 20
247.6476634104
 11
102.0688318055
 21
255.2355902183
  0
LINE
  5
49F
100
AcDbEntity
  8
0
100
AcDbLine
 62
7
  6
CONTINUOUS
 10
102.7551718055
 20
247.6476634104
 11
102.7551718055
 21
260.8476634104
  0
LINE
  5
4A0
100
AcDbEntity
  8
7_ALL_ROUNDS
100
AcDbLine
 62
7
  6
CONTINUOUS
 10
105.4108918055
 20
225.4277772228
 11
132.4108918055
 21
225.4277772228
  0
LINE
  5
4A1
100
AcDbEntity
  8
7_ALL_ROUNDS
100
AcDbLine
 62
7
  6
CONTINUOUS
 10
135.1410502349
 20
226.6497734104
 11
102.6807333761
 21
226.6497734104
  0
LINE
  5
4A2
100
AcDbEntity
  8
0
100
AcDbLine
 62
7
  6
CONTINUOUS
 10
98.8557318055
 20
244.5916634104
 11
99.1057318055
 21
244.0916634104
  0
LINE
  5
4A3
100
AcDbEntity
  8
0
100
AcDbLine
 62
7
  6
CONTINUOUS
 10
104.4108918055
 20
233.6497734104
 11
104.2513066826
 21
238.2196934104
  0
LINE
  5
4A4
100
AcDbEntity
  8
7_ALL_ROUNDS
100
AcDbLine
 62
9
  6
CONTINUOUS
 10
104.4881492133
 20
232.1297734104
 11
104.6795150301
 21
226.6497734104
  0
LINE
  5
4A5
100
AcDbEntity
  8
7_ALL_ROUNDS
100
AcDbLine
 62
7
  6
CONTINUOUS
 10
104.4108918055
 20
225.4964737587
 11
104.4108918055
 21
226.6497734104
  0
LINE
  5
4A6
100
AcDbEntity
  8
0
100
AcDbLine
 62
7
  6
CONTINUOUS
 10
98.3308918071
 20
242.129673412
 11
98.0608918075
 21
241.8596734124
  0
LINE
  5
4A7
100
AcDbEntity
  8
0
100
AcDbLine
 62
7
  6
CONTINUOUS
 10
100.2908918039
 20
242.129673412
 11
100.5608918034
 21
241.8596734124
  0
LINE
  5
4A8
100
AcDbEntity
  8
7_ALL_ROUNDS
100
AcDbLine
 62
7
  6
CONTINUOUS
 10
100.4312344097
 20
249.6391429703
 11
100.163831247
 21
250.1876634104
  0
LINE
  5
4A9
100
AcDbEntity
  8
7_ALL_ROUNDS
100
AcDbLine
 62
9
  6
CONTINUOUS
 10
105.4108918055
 20
225.4277772228
 11
105.4108918055
 21
226.6497734104
  0
LINE
  5
4AA
100
AcDbEntity
  8
0
100
AcDbLine
 62
7
  6
CONTINUOUS
 10
105.6258918055
 20
239.7586734104
 11
105.6258918055
 21
246.1086734104
  0
LINE
  5
4AB
100
AcDbEntity
  8
0
100
AcDbLine
 62
7
  6
CONTINUOUS
 10
106.2072193017
 20
237.6886834104
 11
106.2072193017
 21
238.2196934104
  0
LINE
  5
4AC
100
AcDbEntity
  8
0
100
AcDbLine
 62
7
  6
CONTINUOUS
 10
106.2072193017
 20
247.6476634104
 11
106.2072193017
 21
248.1786734104
  0
LINE
  5
4AD
100
AcDbEntity
  8
0
100
AcDbLine
 62
7
  6
CONTINUOUS
 10
108.5138918055
 20
238.2196934104
 11
108.5138918055
 21
239.7586734104
  0
LINE
  5
4AE
100
AcDbEntity
  8
0
100
AcDbLine
 62
7
  6
CONTINUOUS
 10
108.5138918055
 20
246.1086734104
 11
108.5138918055
 21
247.6476634104
  0
LINE
  5
4AF
100
AcDbEntity
  8
7_ALL_ROUNDS
100
AcDbLine
 62
7
  6
CONTINUOUS
 10
142.9108918055
 20
232.1297734104
 11
94.9108918055
 21
232.1297734104
  0
LINE
  5
4B0
100
AcDbEntity
  8
0
100
AcDbLine
 62
7
  6
CONTINUOUS
 10
99.5669318055
 20
257.1806634104
 11
99.3169318055
 21
257.6806634104
  0
LINE
  5
4B1
100
AcDbEntity
  8
0
100
AcDbLine
 62
7
  6
CONTINUOUS
 10
109.6145643092
 20
237.6886834104
 11
109.6145643092
 21
238.2196934104
  0
LINE
  5
4B2
100
AcDbEntity
  8
0
100
AcDbLine
 62
7
  6
CONTINUOUS
 10
109.6145643092
 20
247.6476634104
 11
109.6145643092
 21
248.1786734104
  0
LINE
  5
4B3
100
AcDbEntity
  8
0
100
AcDbLine
 62
7
  6
CONTINUOUS
 10
110.1958918055
 20
239.7586734104
 11
110.1958918055
 21
246.1086734104
  0
LINE
  5
4B4
100
AcDbEntity
  8
7_ALL_ROUNDS
100
AcDbLine
 62
9
  6
CONTINUOUS
 10
110.52958894
 20
225.1497734104
 11
110.5295890555
 21
225.4277772228
  0
LINE
  5
4B5
100
AcDbEntity
  8
7_ALL_ROUNDS
100
AcDbLine
 62
7
  6
CONTINUOUS
 10
94.9108918055
 20
233.6497734104
 11
142.9108918055
 21
233.6497734104
  0
LINE
  5
4B6
100
AcDbEntity
  8
0
100
AcDbLine
 62
7
  6
CONTINUOUS
 10
100.2908918039
 20
250.130663412
 11
100.5608918034
 21
249.8606634124
  0
LINE
  5
4B7
100
AcDbEntity
  8
7_ALL_ROUNDS
100
AcDbLine
 62
7
  6
CONTINUOUS
 10
100.0205089004
 20
253.8249382266
 11
101.1544318055
 21
252.1688634104
  0
LINE
  5
4B8
100
AcDbEntity
  8
0
100
AcDbLine
 62
7
  6
CONTINUOUS
 10
130.603712144
 20
236.1986834104
 11
129.2180715482
 21
236.1986834104
  0
LINE
  5
4B9
100
AcDbEntity
  8
0
100
AcDbLine
 62
7
  6
CONTINUOUS
 10
108.603712144
 20
236.1986834104
 11
107.2180715482
 21
236.1986834104
  0
LINE
  5
4BA
100
AcDbEntity
  8
0
100
AcDbLine
 62
7
  6
CONTINUOUS
 10
113.6348918055
 20
238.2196934104
 11
113.6348918055
 21
239.7586734104
  0
LINE
  5
4BB
100
AcDbEntity
  8
0
100
AcDbLine
 62
7
  6
CONTINUOUS
 10
113.6348918055
 20
246.1086734104
 11
113.6348918055
 21
247.6476634104
  0
LINE
  5
4BC
100
AcDbEntity
  8
0
100
AcDbLine
 62
7
  6
CONTINUOUS
 10
131.6145643092
 20
237.6886834104
 11
128.2072193017
 21
237.6886834104
  0
LINE
  5
4BD
100
AcDbEntity
  8
0
100
AcDbLine
 62
7
  6
CONTINUOUS
 10
109.6145643092
 20
237.6886834104
 11
106.2072193017
 21
237.6886834104
  0
LINE
  5
4BE
100
AcDbEntity
  8
0
100
AcDbLine
 62
7
  6
CONTINUOUS
 10
96.4108918055
 20
238.2196934104
 11
141.4108918055
 21
238.2196934104
  0
LINE
  5
4BF
100
AcDbEntity
  8
0
100
AcDbLine
 62
7
  6
CONTINUOUS
 10
96.4108918055
 20
239.7586734104
 11
141.4108918055
 21
239.7586734104
  0
LINE
  5
4C0
100
AcDbEntity
  8
0
100
AcDbLine
 62
7
  6
CONTINUOUS
 10
96.8108918055
 20
241.7586734104
 11
101.8108918055
 21
241.7586734104
  0
LINE
  5
4C1
100
AcDbEntity
  8
0
100
AcDbLine
 62
7
  6
CONTINUOUS
 10
136.0108918055
 20
241.7586734104
 11
141.0108918055
 21
241.7586734104
  0
LINE
  5
4C2
100
AcDbEntity
  8
0
100
AcDbLine
 62
7
  6
CONTINUOUS
 10
98.0608918055
 20
241.8596734104
 11
100.5608918055
 21
241.8596734104
  0
LINE
  5
4C3
100
AcDbEntity
  8
0
100
AcDbLine
 62
7
  6
CONTINUOUS
 10
137.2608918055
 20
241.8596734104
 11
139.7608918055
 21
241.8596734104
  0
LINE
  5
4C4
100
AcDbEntity
  8
0
100
AcDbLine
 62
7
  6
CONTINUOUS
 10
98.3308918055
 20
242.1296734104
 11
100.2908918055
 21
242.1296734104
  0
LINE
  5
4C5
100
AcDbEntity
  8
0
100
AcDbLine
 62
7
  6
CONTINUOUS
 10
137.5308918055
 20
242.1296734104
 11
139.4908918055
 21
242.1296734104
  0
LINE
  5
4C6
100
AcDbEntity
  8
0
100
AcDbLine
 62
7
  6
CONTINUOUS
 10
99.3169318055
 20
244.0916634104
 11
99.1057318055
 21
244.0916634104
  0
LINE
  5
4C7
100
AcDbEntity
  8
0
100
AcDbLine
 62
7
  6
CONTINUOUS
 10
99.5669318055
 20
244.5916634104
 11
98.8557318055
 21
244.5916634104
  0
LINE
  5
4C8
100
AcDbEntity
  8
0
100
AcDbLine
 62
7
  6
CONTINUOUS
 10
96.4108918055
 20
246.1086734104
 11
141.4108918055
 21
246.1086734104
  0
LINE
  5
4C9
100
AcDbEntity
  8
0
100
AcDbLine
 62
7
  6
CONTINUOUS
 10
124.1868918055
 20
238.2196934104
 11
124.1868918055
 21
239.7586734104
  0
LINE
  5
4CA
100
AcDbEntity
  8
0
100
AcDbLine
 62
7
  6
CONTINUOUS
 10
124.1868918055
 20
246.1086734104
 11
124.1868918055
 21
247.6476634104
  0
LINE
  5
4CB
100
AcDbEntity
  8
0
100
AcDbLine
 62
7
  6
CONTINUOUS
 10
96.3538318055
 20
247.6476634104
 11
141.4108918055
 21
247.6476634104
  0
LINE
  5
4CC
100
AcDbEntity
  8
0
100
AcDbLine
 62
7
  6
CONTINUOUS
 10
97.0904318055
 20
248.1556594104
 11
101.3322318055
 21
248.1556594104
  0
LINE
  5
4CD
100
AcDbEntity
  8
0
100
AcDbLine
 62
7
  6
CONTINUOUS
 10
106.2072193017
 20
248.1786734104
 11
109.6145643092
 21
248.1786734104
  0
LINE
  5
4CE
100
AcDbEntity
  8
0
100
AcDbLine
 62
7
  6
CONTINUOUS
 10
128.2072193017
 20
248.1786734104
 11
131.6145643092
 21
248.1786734104
  0
LINE
  5
4CF
100
AcDbEntity
  8
0
100
AcDbLine
 62
7
  6
CONTINUOUS
 10
137.5308918071
 20
250.130663412
 11
137.2608918075
 21
249.8606634124
  0
LINE
  5
4D0
100
AcDbEntity
  8
0
100
AcDbLine
 62
7
  6
CONTINUOUS
 10
100.4312344097
 20
249.6476634104
 11
101.1174192449
 21
249.6476634104
  0
LINE
  5
4D1
100
AcDbEntity
  8
0
100
AcDbLine
 62
7
  6
CONTINUOUS
 10
136.0108918055
 20
249.6476634104
 11
141.0108918055
 21
249.6476634104
  0
LINE
  5
4D2
100
AcDbEntity
  8
0
100
AcDbLine
 62
7
  6
CONTINUOUS
 10
107.218071516
 20
249.6686734104
 11
108.6037121378
 21
249.6686734104
  0
LINE
  5
4D3
100
AcDbEntity
  8
0
100
AcDbLine
 62
7
  6
CONTINUOUS
 10
129.218071516
 20
249.6686734104
 11
130.6037121378
 21
249.6686734104
  0
LINE
  5
4D4
100
AcDbEntity
  8
0
100
AcDbLine
 62
7
  6
CONTINUOUS
 10
100.323243418
 20
249.8606634104
 11
100.5608918055
 21
249.8606634104
  0
LINE
  5
4D5
100
AcDbEntity
  8
0
100
AcDbLine
 62
7
  6
CONTINUOUS
 10
137.2608918055
 20
249.8606634104
 11
139.7608918055
 21
249.8606634104
  0
LINE
  5
4D6
100
AcDbEntity
  8
0
100
AcDbLine
 62
7
  6
CONTINUOUS
 10
100.1916186897
 20
250.1306634104
 11
100.2908918055
 21
250.1306634104
  0
LINE
  5
4D7
100
AcDbEntity
  8
0
100
AcDbLine
 62
7
  6
CONTINUOUS
 10
137.5308918055
 20
250.1306634104
 11
139.4908918055
 21
250.1306634104
  0
LINE
  5
4D8
100
AcDbEntity
  8
7_ALL_ROUNDS
100
AcDbLine
 62
7
  6
CONTINUOUS
 10
96.7338318055
 20
250.1876634104
 11
100.163831247
 21
250.1876634104
  0
LINE
  5
4D9
100
AcDbEntity
  8
7_ALL_ROUNDS
100
AcDbLine
 62
9
  6
CONTINUOUS
 10
127.292194671
 20
225.1497734104
 11
127.292194671
 21
225.4277772228
  0
LINE
  5
4DA
100
AcDbEntity
  8
0
100
AcDbLine
 62
7
  6
CONTINUOUS
 10
127.6258918055
 20
239.7586734104
 11
127.6258918055
 21
246.1086734104
  0
LINE
  5
4DB
100
AcDbEntity
  8
0
100
AcDbLine
 62
7
  6
CONTINUOUS
 10
128.2072193017
 20
237.6886834104
 11
128.2072193017
 21
238.2196934104
  0
LINE
  5
4DC
100
AcDbEntity
  8
0
100
AcDbLine
 62
7
  6
CONTINUOUS
 10
128.2072193017
 20
247.6476634104
 11
128.2072193017
 21
248.1786734104
  0
LINE
  5
4DD
100
AcDbEntity
  8
0
100
AcDbLine
 62
7
  6
CONTINUOUS
 10
129.3078918055
 20
238.2196934104
 11
129.3078918055
 21
239.7586734104
  0
LINE
  5
4DE
100
AcDbEntity
  8
0
100
AcDbLine
 62
7
  6
CONTINUOUS
 10
129.3078918055
 20
246.1086734104
 11
129.3078918055
 21
247.6476634104
  0
LINE
  5
4DF
100
AcDbEntity
  8
0
100
AcDbLine
 62
7
  6
CONTINUOUS
 10
131.6145643092
 20
237.6886834104
 11
131.6145643092
 21
238.2196934104
  0
LINE
  5
4E0
100
AcDbEntity
  8
0
100
AcDbLine
 62
7
  6
CONTINUOUS
 10
131.6145643092
 20
247.6476634104
 11
131.6145643092
 21
248.1786734104
  0
LINE
  5
4E1
100
AcDbEntity
  8
0
100
AcDbLine
 62
7
  6
CONTINUOUS
 10
132.1958918055
 20
239.7586734104
 11
132.1958918055
 21
246.1086734104
  0
LINE
  5
4E2
100
AcDbEntity
  8
7_ALL_ROUNDS
100
AcDbLine
 62
9
  6
CONTINUOUS
 10
132.4108918055
 20
226.6497734104
 11
132.4108918055
 21
225.4277772228
  0
LINE
  5
4E3
100
AcDbEntity
  8
0
100
AcDbLine
 62
7
  6
CONTINUOUS
 10
137.5308918071
 20
242.129673412
 11
137.2608918075
 21
241.8596734124
  0
LINE
  5
4E4
100
AcDbEntity
  8
0
100
AcDbLine
 62
7
  6
CONTINUOUS
 10
98.8557318055
 20
257.1806634104
 11
99.5669318055
 21
257.1806634104
  0
LINE
  5
4E5
100
AcDbEntity
  8
0
100
AcDbLine
 62
7
  6
CONTINUOUS
 10
139.4908918039
 20
242.129673412
 11
139.7608918034
 21
241.8596734124
  0
LINE
  5
4E6
100
AcDbEntity
  8
7_ALL_ROUNDS
100
AcDbLine
 62
7
  6
CONTINUOUS
 10
133.4108918055
 20
226.6497734104
 11
133.4108918055
 21
225.4964737587
  0
LINE
  5
4E7
100
AcDbEntity
  8
0
100
AcDbLine
 62
7
  6
CONTINUOUS
 10
135.0151718055
 20
247.6476634104
 11
135.0151718055
 21
260.8476634104
  0
LINE
  5
4E8
100
AcDbEntity
  8
7_ALL_ROUNDS
100
AcDbLine
 62
9
  6
CONTINUOUS
 10
133.3336343976
 20
232.1297734104
 11
133.1422685808
 21
226.6497734104
  0
LINE
  5
4E9
100
AcDbEntity
  8
0
100
AcDbLine
 62
7
  6
CONTINUOUS
 10
133.4108918055
 20
233.6497734104
 11
133.5704769284
 21
238.2196934104
  0
LINE
  5
4EA
100
AcDbEntity
  8
0
100
AcDbLine
 62
7
  6
CONTINUOUS
 10
99.1057318055
 20
257.6806634104
 11
99.3169318055
 21
257.6806634104
  0
LINE
  5
4EB
100
AcDbEntity
  8
0
100
AcDbLine
 62
7
  6
CONTINUOUS
 10
136.0108918055
 20
239.7586734104
 11
136.0108918055
 21
246.1086734104
  0
LINE
  5
4EC
100
AcDbEntity
  8
0
100
AcDbLine
 62
7
  6
CONTINUOUS
 10
136.0108918055
 20
247.6476634104
 11
136.0108918055
 21
249.6476634104
  0
LINE
  5
4ED
100
AcDbEntity
  8
7_ALL_ROUNDS
100
AcDbLine
 62
7
  6
CONTINUOUS
 10
135.3324160517
 20
232.1297734104
 11
135.1410502349
 21
226.6497734104
  0
LINE
  5
4EE
100
AcDbEntity
  8
0
100
AcDbLine
 62
7
  6
CONTINUOUS
 10
102.7551718055
 20
260.8476634104
 11
135.0151718055
 21
260.8476634104
  0
LINE
  5
4EF
100
AcDbEntity
  8
7_ALL_ROUNDS
100
AcDbLine
 62
9
  6
CONTINUOUS
 10
138.5913229601
 20
233.6497734104
 11
138.4317378372
 21
238.2196934104
  0
LINE
  5
4F0
100
AcDbEntity
  8
0
100
AcDbLine
 62
7
  6
CONTINUOUS
 10
137.2608918055
 20
241.7586734104
 11
137.2608918055
 21
241.8596734104
  0
LINE
  5
4F1
100
AcDbEntity
  8
0
100
AcDbLine
 62
7
  6
CONTINUOUS
 10
137.2608918055
 20
249.6476634104
 11
137.2608918055
 21
249.8606634104
  0
LINE
  5
4F2
100
AcDbEntity
  8
0
100
AcDbLine
 62
7
  6
CONTINUOUS
 10
138.5108918055
 20
239.7586734104
 11
138.5108918055
 21
241.7586734104
  0
LINE
  5
4F3
100
AcDbEntity
  8
0
100
AcDbLine
 62
7
  6
CONTINUOUS
 10
138.5108918055
 20
247.6476634104
 11
138.5108918055
 21
249.6476634104
  0
LINE
  5
4F4
100
AcDbEntity
  8
0
100
AcDbLine
 62
7
  6
CONTINUOUS
 10
139.4908918039
 20
250.130663412
 11
139.7608918034
 21
249.8606634124
  0
LINE
  5
4F5
100
AcDbEntity
  8
7_ALL_ROUNDS
100
AcDbLine
 62
7
  6
CONTINUOUS
 10
141.4108918055
 20
233.6497734104
 11
141.2513066826
 21
238.2196934104
  0
LINE
  5
4F6
100
AcDbEntity
  8
0
100
AcDbLine
 62
7
  6
CONTINUOUS
 10
139.7608918055
 20
241.7586734104
 11
139.7608918055
 21
241.8596734104
  0
LINE
  5
4F7
100
AcDbEntity
  8
0
100
AcDbLine
 62
7
  6
CONTINUOUS
 10
139.7608918055
 20
249.6476634104
 11
139.7608918055
 21
249.8606634104
  0
LINE
  5
4F8
100
AcDbEntity
  8
7_ALL_ROUNDS
100
AcDbLine
 62
9
  6
CONTINUOUS
 10
140.9108918055
 20
232.1297734104
 11
140.9108918055
 21
233.6497734104
  0
LINE
  5
4F9
100
AcDbEntity
  8
0
100
AcDbLine
 62
7
  6
CONTINUOUS
 10
141.0108918055
 20
239.7586734104
 11
141.0108918055
 21
246.1086734104
  0
LINE
  5
4FA
100
AcDbEntity
  8
0
100
AcDbLine
 62
7
  6
CONTINUOUS
 10
141.0108918055
 20
247.6476634104
 11
141.0108918055
 21
249.6476634104
  0
LINE
  5
4FB
100
AcDbEntity
  8
0
100
AcDbLine
 62
7
  6
CONTINUOUS
 10
141.4108918055
 20
238.2196934104
 11
141.4108918055
 21
239.7586734104
  0
LINE
  5
4FC
100
AcDbEntity
  8
0
100
AcDbLine
 62
7
  6
CONTINUOUS
 10
141.4108918055
 20
246.1086734104
 11
141.4108918055
 21
247.6476634104
  0
LINE
  5
4FD
100
AcDbEntity
  8
7_ALL_ROUNDS
100
AcDbLine
 62
7
  6
CONTINUOUS
 10
142.9108918055
 20
232.1297734104
 11
142.9108918055
 21
233.6497734104
  0
LINE
  5
4FE
100
AcDbEntity
  8
7_ALL_ROUNDS
100
AcDbLine
 62
7
  6
CONTINUOUS
 10
94.9108918055
 20
67.749609065
 11
94.9108918055
 21
66.229609065
  0
LINE
  5
4FF
100
AcDbEntity
  8
0
100
AcDbLine
 62
7
  6
CONTINUOUS
 10
98.8557318055
 20
42.698719065
 11
99.1057318055
 21
42.198719065
  0
LINE
  5
500
100
AcDbEntity
  8
7_ALL_ROUNDS
100
AcDbLine
 62
7
  6
CONTINUOUS
 10
96.4108918055
 20
66.229609065
 11
96.5704769284
 21
61.659689065
  0
LINE
  5
501
100
AcDbEntity
  8
7_ALL_ROUNDS
100
AcDbLine
 62
7
  6
CONTINUOUS
 10
96.3538318055
 20
52.231719065
 11
96.3538318055
 21
50.071719065
  0
LINE
  5
502
100
AcDbEntity
  8
0
100
AcDbLine
 62
7
  6
CONTINUOUS
 10
96.4108918055
 20
61.659689065
 11
96.4108918055
 21
60.120709065
  0
LINE
  5
503
100
AcDbEntity
  8
0
100
AcDbLine
 62
7
  6
CONTINUOUS
 10
96.4108918055
 20
53.770709065
 11
96.4108918055
 21
52.231719065
  0
LINE
  5
504
100
AcDbEntity
  8
0
100
AcDbLine
 62
7
  6
CONTINUOUS
 10
96.8108918055
 20
60.120709065
 11
96.8108918055
 21
53.770709065
  0
LINE
  5
505
100
AcDbEntity
  8
0
100
AcDbLine
 62
7
  6
CONTINUOUS
 10
96.8108918055
 20
52.231719065
 11
96.8108918055
 21
50.231719065
  0
LINE
  5
506
100
AcDbEntity
  8
7_ALL_ROUNDS
100
AcDbLine
 62
9
  6
CONTINUOUS
 10
96.9108918055
 20
67.749609065
 11
96.9108918055
 21
66.229609065
  0
LINE
  5
507
100
AcDbEntity
  8
0
100
AcDbLine
 62
7
  6
CONTINUOUS
 10
98.0608918055
 20
50.231719065
 11
98.0608918055
 21
50.018719065
  0
LINE
  5
508
100
AcDbEntity
  8
0
100
AcDbLine
 62
7
  6
CONTINUOUS
 10
98.8557318055
 20
49.691719065
 11
98.8557318055
 21
42.698719065
  0
LINE
  5
509
100
AcDbEntity
  8
7_ALL_ROUNDS
100
AcDbLine
 62
7
  6
CONTINUOUS
 10
101.4373477562
 20
44.358913734
 11
100.0825693208
 21
45.554880222
  0
LINE
  5
50A
100
AcDbEntity
  8
7_ALL_ROUNDS
100
AcDbLine
 62
9
  6
CONTINUOUS
 10
99.2304606509
 20
66.229609065
 11
99.3900457738
 21
61.659689065
  0
LINE
  5
50B
100
AcDbEntity
  8
0
100
AcDbLine
 62
7
  6
CONTINUOUS
 10
99.3108918055
 20
52.231719065
 11
99.3108918055
 21
50.231719065
  0
LINE
  5
50C
100
AcDbEntity
  8
0
100
AcDbLine
 62
7
  6
CONTINUOUS
 10
99.5669318055
 20
49.691719065
 11
99.5669318055
 21
42.698719065
  0
LINE
  5
50D
100
AcDbEntity
  8
0
100
AcDbLine
 62
7
  6
CONTINUOUS
 10
100.5608918055
 20
50.231719065
 11
100.5608918055
 21
50.018719065
  0
LINE
  5
50E
100
AcDbEntity
  8
7_ALL_ROUNDS
100
AcDbLine
 62
7
  6
CONTINUOUS
 10
101.1544318055
 20
50.0737229289
 11
101.1544318055
 21
47.710519065
  0
LINE
  5
50F
100
AcDbEntity
  8
0
100
AcDbLine
 62
7
  6
CONTINUOUS
 10
135.0151718055
 20
39.031719065
 11
102.7551718055
 21
39.031719065
  0
LINE
  5
510
100
AcDbEntity
  8
0
100
AcDbLine
 62
7
  6
CONTINUOUS
 10
112.3696618055
 20
39.1173186588
 11
109.4346918055
 21
39.1173186588
  0
LINE
  5
511
100
AcDbEntity
  8
0
100
AcDbLine
 62
7
  6
CONTINUOUS
 10
98.3308918071
 20
49.7487190634
 11
98.0608918075
 21
50.0187190629
  0
LINE
  5
512
100
AcDbEntity
  8
0
100
AcDbLine
 62
7
  6
CONTINUOUS
 10
101.8108918055
 20
60.120709065
 11
101.8108918055
 21
53.770709065
  0
LINE
  5
513
100
AcDbEntity
  8
0
100
AcDbLine
 62
7
  6
CONTINUOUS
 10
101.8108918055
 20
52.231719065
 11
101.8108918055
 21
50.231719065
  0
LINE
  5
514
100
AcDbEntity
  8
7_ALL_ROUNDS
100
AcDbLine
 62
7
  6
CONTINUOUS
 10
102.0688318055
 20
52.231719065
 11
102.0688318055
 21
44.6437922571
  0
LINE
  5
515
100
AcDbEntity
  8
0
100
AcDbLine
 62
7
  6
CONTINUOUS
 10
102.7551718055
 20
52.231719065
 11
102.7551718055
 21
39.031719065
  0
LINE
  5
516
100
AcDbEntity
  8
7_ALL_ROUNDS
100
AcDbLine
 62
7
  6
CONTINUOUS
 10
102.4893675593
 20
67.749609065
 11
102.6807333761
 21
73.229609065
  0
LINE
  5
517
100
AcDbEntity
  8
0
100
AcDbLine
 62
7
  6
CONTINUOUS
 10
108.9801718055
 20
39.715223065
 11
109.4346918055
 21
39.715223065
  0
LINE
  5
518
100
AcDbEntity
  8
0
100
AcDbLine
 62
7
  6
CONTINUOUS
 10
112.3696618055
 20
39.715223065
 11
113.0401718055
 21
39.715223065
  0
LINE
  5
519
100
AcDbEntity
  8
0
100
AcDbLine
 62
7
  6
CONTINUOUS
 10
124.7301718055
 20
39.715223065
 11
128.7901718055
 21
39.715223065
  0
LINE
  5
51A
100
AcDbEntity
  8
0
100
AcDbLine
 62
7
  6
CONTINUOUS
 10
112.3696618055
 20
40.1140413101
 11
109.4346918055
 21
40.1140413101
  0
LINE
  5
51B
100
AcDbEntity
  8
7_ALL_ROUNDS
100
AcDbLine
 62
7
  6
CONTINUOUS
 10
104.4108918055
 20
73.229609065
 11
104.4108918055
 21
74.3829068182
  0
LINE
  5
51C
100
AcDbEntity
  8
0
100
AcDbLine
 62
7
  6
CONTINUOUS
 10
105.0601718055
 20
51.075023065
 11
105.0601718055
 21
42.924223065
  0
LINE
  5
51D
100
AcDbEntity
  8
7_ALL_ROUNDS
100
AcDbLine
 62
7
  6
CONTINUOUS
 10
105.0932875655
 20
50.0420596098
 11
105.0932875655
 21
44.1831864795
  0
LINE
  5
51E
100
AcDbEntity
  8
0
100
AcDbLine
 62
7
  6
CONTINUOUS
 10
104.4108918055
 20
66.229609065
 11
104.2513066826
 21
61.659689065
  0
LINE
  5
51F
100
AcDbEntity
  8
7_ALL_ROUNDS
100
AcDbLine
 62
9
  6
CONTINUOUS
 10
104.4881492133
 20
67.749609065
 11
104.6795150301
 21
73.229609065
  0
LINE
  5
520
100
AcDbEntity
  8
7_ALL_ROUNDS
100
AcDbLine
 62
7
  6
CONTINUOUS
 10
100.1916186897
 20
49.748719065
 11
100.163831247
 21
49.691719065
  0
LINE
  5
521
100
AcDbEntity
  8
0
100
AcDbLine
 62
7
  6
CONTINUOUS
 10
107.8601718055
 20
41.234223065
 11
108.9801718055
 21
41.234223065
  0
LINE
  5
522
100
AcDbEntity
  8
0
100
AcDbLine
 62
7
  6
CONTINUOUS
 10
113.0401718055
 20
41.234223065
 11
114.1601718055
 21
41.234223065
  0
LINE
  5
523
100
AcDbEntity
  8
0
100
AcDbLine
 62
7
  6
CONTINUOUS
 10
123.6101718055
 20
41.234223065
 11
124.7301718055
 21
41.234223065
  0
LINE
  5
524
100
AcDbEntity
  8
0
100
AcDbLine
 62
7
  6
CONTINUOUS
 10
128.7901718055
 20
41.234223065
 11
129.9101718055
 21
41.234223065
  0
LINE
  5
525
100
AcDbEntity
  8
0
100
AcDbLine
 62
7
  6
CONTINUOUS
 10
99.3169318055
 20
42.198719065
 11
99.1057318055
 21
42.198719065
  0
LINE
  5
526
100
AcDbEntity
  8
0
100
AcDbLine
 62
7
  6
CONTINUOUS
 10
99.5669318055
 20
42.698719065
 11
98.8557318055
 21
42.698719065
  0
LINE
  5
527
100
AcDbEntity
  8
0
100
AcDbLine
 62
7
  6
CONTINUOUS
 10
105.0601718055
 20
42.924223065
 11
107.8601718055
 21
42.924223065
  0
LINE
  5
528
100
AcDbEntity
  8
0
100
AcDbLine
 62
7
  6
CONTINUOUS
 10
114.1601718055
 20
42.924223065
 11
116.9601718055
 21
42.924223065
  0
LINE
  5
529
100
AcDbEntity
  8
0
100
AcDbLine
 62
7
  6
CONTINUOUS
 10
120.8101718055
 20
42.924223065
 11
123.6101718055
 21
42.924223065
  0
LINE
  5
52A
100
AcDbEntity
  8
0
100
AcDbLine
 62
7
  6
CONTINUOUS
 10
129.9101718055
 20
42.924223065
 11
132.7101718055
 21
42.924223065
  0
LINE
  5
52B
100
AcDbEntity
  8
0
100
AcDbLine
 62
7
  6
CONTINUOUS
 10
105.0601718055
 20
43.1502230244
 11
116.7441718055
 21
43.1502230244
  0
LINE
  5
52C
100
AcDbEntity
  8
7_ALL_ROUNDS
100
AcDbLine
 62
7
  6
CONTINUOUS
 10
106.0931352606
 20
43.1833387844
 11
115.7112083503
 21
43.1833387844
  0
LINE
  5
52D
100
AcDbEntity
  8
7_ALL_ROUNDS
100
AcDbLine
 62
9
  6
CONTINUOUS
 10
105.0932875655
 20
50.0420596098
 11
105.2855979126
 21
49.8497492627
  0
LINE
  5
52E
100
AcDbEntity
  8
7_ALL_ROUNDS
100
AcDbLine
 62
9
  6
CONTINUOUS
 10
105.2855979126
 20
49.8497492627
 11
105.2855979126
 21
44.3754968266
  0
LINE
  5
52F
100
AcDbEntity
  8
7_ALL_ROUNDS
100
AcDbLine
 62
9
  6
CONTINUOUS
 10
105.4108918055
 20
73.229609065
 11
105.4108918055
 21
74.4516052526
  0
LINE
  5
530
100
AcDbEntity
  8
0
100
AcDbLine
 62
7
  6
CONTINUOUS
 10
105.6258918055
 20
60.120709065
 11
105.6258918055
 21
53.770709065
  0
LINE
  5
531
100
AcDbEntity
  8
0
100
AcDbLine
 62
7
  6
CONTINUOUS
 10
106.2072193017
 20
62.190699065
 11
106.2072193017
 21
61.659689065
  0
LINE
  5
532
100
AcDbEntity
  8
7_ALL_ROUNDS
100
AcDbLine
 62
9
  6
CONTINUOUS
 10
106.2854456077
 20
43.3756491315
 11
106.2854456077
 21
50.8495969579
  0
LINE
  5
533
100
AcDbEntity
  8
7_ALL_ROUNDS
100
AcDbLine
 62
9
  6
CONTINUOUS
 10
106.2854456077
 20
43.3756491315
 11
115.5188980032
 21
43.3756491315
  0
LINE
  5
534
100
AcDbEntity
  8
7_ALL_ROUNDS
100
AcDbLine
 62
9
  6
CONTINUOUS
 10
105.2855979126
 20
44.3754968266
 11
116.5187456984
 21
44.3754968266
  0
LINE
  5
535
100
AcDbEntity
  8
7_ALL_ROUNDS
100
AcDbLine
 62
9
  6
CONTINUOUS
 10
106.0931352606
 20
51.041907305
 11
106.2854456077
 21
50.8495969579
  0
LINE
  5
536
100
AcDbEntity
  8
7_ALL_ROUNDS
100
AcDbLine
 62
9
  6
CONTINUOUS
 10
115.7112083503
 20
43.1833387844
 11
115.5188980032
 21
43.3756491315
  0
LINE
  5
537
100
AcDbEntity
  8
0
100
AcDbLine
 62
7
  6
CONTINUOUS
 10
107.8601718055
 20
42.924223065
 11
107.8601718055
 21
41.234223065
  0
LINE
  5
538
100
AcDbEntity
  8
0
100
AcDbLine
 62
7
  6
CONTINUOUS
 10
108.5138918055
 20
61.659689065
 11
108.5138918055
 21
60.120709065
  0
LINE
  5
539
100
AcDbEntity
  8
0
100
AcDbLine
 62
7
  6
CONTINUOUS
 10
108.5138918055
 20
53.770709065
 11
108.5138918055
 21
52.231719065
  0
LINE
  5
53A
100
AcDbEntity
  8
0
100
AcDbLine
 62
7
  6
CONTINUOUS
 10
108.9801718055
 20
41.234223065
 11
108.9801718055
 21
39.715223065
  0
LINE
  5
53B
100
AcDbEntity
  8
0
100
AcDbLine
 62
7
  6
CONTINUOUS
 10
99.5669318055
 20
42.698719065
 11
99.3169318055
 21
42.198719065
  0
LINE
  5
53C
100
AcDbEntity
  8
7_ALL_ROUNDS
100
AcDbLine
 62
9
  6
CONTINUOUS
 10
116.7110560455
 20
44.1831864795
 11
116.5187456984
 21
44.3754968266
  0
LINE
  5
53D
100
AcDbEntity
  8
0
100
AcDbLine
 62
7
  6
CONTINUOUS
 10
109.4346918055
 20
39.1173186588
 11
109.4346918055
 21
43.1502230244
  0
LINE
  5
53E
100
AcDbEntity
  8
0
100
AcDbLine
 62
7
  6
CONTINUOUS
 10
109.6145643092
 20
62.190699065
 11
109.6145643092
 21
61.659689065
  0
LINE
  5
53F
100
AcDbEntity
  8
0
100
AcDbLine
 62
7
  6
CONTINUOUS
 10
110.1958918055
 20
60.120709065
 11
110.1958918055
 21
53.770709065
  0
LINE
  5
540
100
AcDbEntity
  8
7_ALL_ROUNDS
100
AcDbLine
 62
9
  6
CONTINUOUS
 10
110.52958894
 20
74.729609065
 11
110.52958894
 21
74.4516052526
  0
LINE
  5
541
100
AcDbEntity
  8
7_ALL_ROUNDS
100
AcDbLine
 62
7
  6
CONTINUOUS
 10
100.0205089004
 20
46.0544442488
 11
101.1544318055
 21
47.710519065
  0
LINE
  5
542
100
AcDbEntity
  8
0
100
AcDbLine
 62
7
  6
CONTINUOUS
 10
100.2908918039
 20
49.7487190634
 11
100.5608918034
 21
50.0187190629
  0
LINE
  5
543
100
AcDbEntity
  8
0
100
AcDbLine
 62
7
  6
CONTINUOUS
 10
112.3696618055
 20
39.1173186588
 11
112.3696618055
 21
43.1502230244
  0
LINE
  5
544
100
AcDbEntity
  8
0
100
AcDbLine
 62
7
  6
CONTINUOUS
 10
113.0401718055
 20
39.715223065
 11
113.0401718055
 21
41.234223065
  0
LINE
  5
545
100
AcDbEntity
  8
7_ALL_ROUNDS
100
AcDbLine
 62
7
  6
CONTINUOUS
 10
100.163831247
 20
49.691719065
 11
96.7338318055
 21
49.691719065
  0
LINE
  5
546
100
AcDbEntity
  8
0
100
AcDbLine
 62
7
  6
CONTINUOUS
 10
139.4908918055
 20
49.748719065
 11
137.5308918055
 21
49.748719065
  0
LINE
  5
547
100
AcDbEntity
  8
0
100
AcDbLine
 62
7
  6
CONTINUOUS
 10
100.2908918055
 20
49.748719065
 11
98.3308918055
 21
49.748719065
  0
LINE
  5
548
100
AcDbEntity
  8
0
100
AcDbLine
 62
7
  6
CONTINUOUS
 10
132.7101718055
 20
49.754223065
 11
120.8101718055
 21
49.754223065
  0
LINE
  5
549
100
AcDbEntity
  8
0
100
AcDbLine
 62
7
  6
CONTINUOUS
 10
116.9601718055
 20
49.754223065
 11
116.7441718055
 21
49.754223065
  0
LINE
  5
54A
100
AcDbEntity
  8
7_ALL_ROUNDS
100
AcDbLine
 62
9
  6
CONTINUOUS
 10
105.2855979126
 20
49.8497492627
 11
116.5187456984
 21
49.8497492627
  0
LINE
  5
54B
100
AcDbEntity
  8
0
100
AcDbLine
 62
7
  6
CONTINUOUS
 10
139.7608918055
 20
50.018719065
 11
137.2608918055
 21
50.018719065
  0
LINE
  5
54C
100
AcDbEntity
  8
0
100
AcDbLine
 62
7
  6
CONTINUOUS
 10
100.5608918055
 20
50.018719065
 11
98.0608918055
 21
50.018719065
  0
LINE
  5
54D
100
AcDbEntity
  8
0
100
AcDbLine
 62
7
  6
CONTINUOUS
 10
141.0108918055
 20
50.231719065
 11
136.0108918055
 21
50.231719065
  0
LINE
  5
54E
100
AcDbEntity
  8
0
100
AcDbLine
 62
7
  6
CONTINUOUS
 10
101.8108918055
 20
50.231719065
 11
96.8108918055
 21
50.231719065
  0
LINE
  5
54F
100
AcDbEntity
  8
7_ALL_ROUNDS
100
AcDbLine
 62
9
  6
CONTINUOUS
 10
106.2854456077
 20
50.8495969579
 11
115.5188980032
 21
50.8495969579
  0
LINE
  5
550
100
AcDbEntity
  8
7_ALL_ROUNDS
100
AcDbLine
 62
7
  6
CONTINUOUS
 10
115.7112083503
 20
51.041907305
 11
106.0931352606
 21
51.041907305
  0
LINE
  5
551
100
AcDbEntity
  8
0
100
AcDbLine
 62
7
  6
CONTINUOUS
 10
116.7441718055
 20
51.075023065
 11
105.0601718055
 21
51.075023065
  0
LINE
  5
552
100
AcDbEntity
  8
0
100
AcDbLine
 62
7
  6
CONTINUOUS
 10
113.6348918055
 20
61.659689065
 11
113.6348918055
 21
60.120709065
  0
LINE
  5
553
100
AcDbEntity
  8
0
100
AcDbLine
 62
7
  6
CONTINUOUS
 10
113.6348918055
 20
53.770709065
 11
113.6348918055
 21
52.231719065
  0
LINE
  5
554
100
AcDbEntity
  8
0
100
AcDbLine
 62
7
  6
CONTINUOUS
 10
114.1601718055
 20
41.234223065
 11
114.1601718055
 21
42.924223065
  0
LINE
  5
555
100
AcDbEntity
  8
0
100
AcDbLine
 62
7
  6
CONTINUOUS
 10
141.4108918055
 20
52.231719065
 11
96.3538318055
 21
52.231719065
  0
LINE
  5
556
100
AcDbEntity
  8
7_ALL_ROUNDS
100
AcDbLine
 62
9
  6
CONTINUOUS
 10
115.5188980032
 20
50.8495969579
 11
115.5188980032
 21
43.3756491315
  0
LINE
  5
557
100
AcDbEntity
  8
7_ALL_ROUNDS
100
AcDbLine
 62
9
  6
CONTINUOUS
 10
116.5187456984
 20
49.8497492627
 11
116.5187456984
 21
44.3754968266
  0
LINE
  5
558
100
AcDbEntity
  8
7_ALL_ROUNDS
100
AcDbLine
 62
7
  6
CONTINUOUS
 10
116.7110560455
 20
44.1831864795
 11
116.7110560455
 21
50.0420596098
  0
LINE
  5
559
100
AcDbEntity
  8
0
100
AcDbLine
 62
7
  6
CONTINUOUS
 10
116.7441718055
 20
43.1502230244
 11
116.7441718055
 21
51.075023065
  0
LINE
  5
55A
100
AcDbEntity
  8
0
100
AcDbLine
 62
7
  6
CONTINUOUS
 10
116.9601718055
 20
42.924223065
 11
116.9601718055
 21
49.754223065
  0
LINE
  5
55B
100
AcDbEntity
  8
0
100
AcDbLine
 62
7
  6
CONTINUOUS
 10
141.4108918055
 20
53.770709065
 11
96.4108918055
 21
53.770709065
  0
LINE
  5
55C
100
AcDbEntity
  8
7_ALL_ROUNDS
100
AcDbLine
 62
9
  6
CONTINUOUS
 10
105.0932875655
 20
44.1831864795
 11
105.2855979126
 21
44.3754968266
  0
LINE
  5
55D
100
AcDbEntity
  8
0
100
AcDbLine
 62
7
  6
CONTINUOUS
 10
120.8101718055
 20
49.754223065
 11
120.8101718055
 21
42.924223065
  0
LINE
  5
55E
100
AcDbEntity
  8
7_ALL_ROUNDS
100
AcDbLine
 62
9
  6
CONTINUOUS
 10
106.0931352606
 20
43.1833387844
 11
106.2854456077
 21
43.3756491315
  0
LINE
  5
55F
100
AcDbEntity
  8
7_ALL_ROUNDS
100
AcDbLine
 62
9
  6
CONTINUOUS
 10
115.7112083503
 20
51.041907305
 11
115.5188980032
 21
50.8495969579
  0
LINE
  5
560
100
AcDbEntity
  8
7_ALL_ROUNDS
100
AcDbLine
 62
9
  6
CONTINUOUS
 10
116.7110560455
 20
50.0420596098
 11
116.5187456984
 21
49.8497492627
  0
LINE
  5
561
100
AcDbEntity
  8
0
100
AcDbLine
 62
7
  6
CONTINUOUS
 10
141.4108918055
 20
60.120709065
 11
96.4108918055
 21
60.120709065
  0
LINE
  5
562
100
AcDbEntity
  8
0
100
AcDbLine
 62
7
  6
CONTINUOUS
 10
123.6101718055
 20
42.924223065
 11
123.6101718055
 21
41.234223065
  0
LINE
  5
563
100
AcDbEntity
  8
0
100
AcDbLine
 62
7
  6
CONTINUOUS
 10
124.1868918055
 20
61.659689065
 11
124.1868918055
 21
60.120709065
  0
LINE
  5
564
100
AcDbEntity
  8
0
100
AcDbLine
 62
7
  6
CONTINUOUS
 10
124.1868918055
 20
53.770709065
 11
124.1868918055
 21
52.231719065
  0
LINE
  5
565
100
AcDbEntity
  8
0
100
AcDbLine
 62
7
  6
CONTINUOUS
 10
124.7301718055
 20
41.234223065
 11
124.7301718055
 21
39.715223065
  0
LINE
  5
566
100
AcDbEntity
  8
7_ALL_ROUNDS
100
AcDbLine
 62
7
  6
CONTINUOUS
 10
141.4108918055
 20
61.659689065
 11
129.3078918055
 21
61.659689065
  0
LINE
  5
567
100
AcDbEntity
  8
0
100
AcDbLine
 62
7
  6
CONTINUOUS
 10
129.3078918055
 20
61.659689065
 11
108.5138918055
 21
61.659689065
  0
LINE
  5
568
100
AcDbEntity
  8
7_ALL_ROUNDS
100
AcDbLine
 62
7
  6
CONTINUOUS
 10
108.5138918055
 20
61.659689065
 11
96.4108918055
 21
61.659689065
  0
LINE
  5
569
100
AcDbEntity
  8
0
100
AcDbLine
 62
7
  6
CONTINUOUS
 10
109.6145643092
 20
62.190699065
 11
106.2072193017
 21
62.190699065
  0
LINE
  5
56A
100
AcDbEntity
  8
0
100
AcDbLine
 62
7
  6
CONTINUOUS
 10
128.2072193017
 20
62.190699065
 11
131.6145643092
 21
62.190699065
  0
LINE
  5
56B
100
AcDbEntity
  8
0
100
AcDbLine
 62
7
  6
CONTINUOUS
 10
107.2181350907
 20
63.680699065
 11
108.6036340189
 21
63.680699065
  0
LINE
  5
56C
100
AcDbEntity
  8
0
100
AcDbLine
 62
7
  6
CONTINUOUS
 10
129.218071467
 20
63.680699065
 11
130.6037120628
 21
63.680699065
  0
LINE
  5
56D
100
AcDbEntity
  8
0
100
AcDbLine
 62
7
  6
CONTINUOUS
 10
137.5308918071
 20
49.7487190634
 11
137.2608918075
 21
50.0187190629
  0
LINE
  5
56E
100
AcDbEntity
  8
7_ALL_ROUNDS
100
AcDbLine
 62
9
  6
CONTINUOUS
 10
127.292194671
 20
74.729609065
 11
127.2921945555
 21
74.4516052526
  0
LINE
  5
56F
100
AcDbEntity
  8
0
100
AcDbLine
 62
7
  6
CONTINUOUS
 10
127.6258918055
 20
60.120709065
 11
127.6258918055
 21
53.770709065
  0
LINE
  5
570
100
AcDbEntity
  8
0
100
AcDbLine
 62
7
  6
CONTINUOUS
 10
128.2072193017
 20
62.190699065
 11
128.2072193017
 21
61.659689065
  0
LINE
  5
571
100
AcDbEntity
  8
0
100
AcDbLine
 62
7
  6
CONTINUOUS
 10
128.7901718055
 20
39.715223065
 11
128.7901718055
 21
41.234223065
  0
LINE
  5
572
100
AcDbEntity
  8
7_ALL_ROUNDS
100
AcDbLine
 62
7
  6
CONTINUOUS
 10
94.9108918055
 20
66.229609065
 11
142.9108918055
 21
66.229609065
  0
LINE
  5
573
100
AcDbEntity
  8
0
100
AcDbLine
 62
7
  6
CONTINUOUS
 10
129.3078918055
 20
61.659689065
 11
129.3078918055
 21
60.120709065
  0
LINE
  5
574
100
AcDbEntity
  8
0
100
AcDbLine
 62
7
  6
CONTINUOUS
 10
129.3078918055
 20
53.770709065
 11
129.3078918055
 21
52.231719065
  0
LINE
  5
575
100
AcDbEntity
  8
0
100
AcDbLine
 62
7
  6
CONTINUOUS
 10
129.9101718055
 20
41.234223065
 11
129.9101718055
 21
42.924223065
  0
LINE
  5
576
100
AcDbEntity
  8
7_ALL_ROUNDS
100
AcDbLine
 62
7
  6
CONTINUOUS
 10
94.9108918055
 20
67.749609065
 11
142.9108918055
 21
67.749609065
  0
LINE
  5
577
100
AcDbEntity
  8
0
100
AcDbLine
 62
7
  6
CONTINUOUS
 10
131.6145643092
 20
62.190699065
 11
131.6145643092
 21
61.659689065
  0
LINE
  5
578
100
AcDbEntity
  8
0
100
AcDbLine
 62
7
  6
CONTINUOUS
 10
132.1958918055
 20
60.120709065
 11
132.1958918055
 21
53.770709065
  0
LINE
  5
579
100
AcDbEntity
  8
7_ALL_ROUNDS
100
AcDbLine
 62
9
  6
CONTINUOUS
 10
132.4108918055
 20
74.4516052526
 11
132.4108918055
 21
73.229609065
  0
LINE
  5
57A
100
AcDbEntity
  8
0
100
AcDbLine
 62
7
  6
CONTINUOUS
 10
132.7101718055
 20
42.924223065
 11
132.7101718055
 21
49.754223065
  0
LINE
  5
57B
100
AcDbEntity
  8
7_ALL_ROUNDS
100
AcDbLine
 62
9
  6
CONTINUOUS
 10
133.3336343976
 20
67.749609065
 11
133.1422685808
 21
73.229609065
  0
LINE
  5
57C
100
AcDbEntity
  8
0
100
AcDbLine
 62
7
  6
CONTINUOUS
 10
133.4108918055
 20
66.229609065
 11
133.5704769284
 21
61.659689065
  0
LINE
  5
57D
100
AcDbEntity
  8
7_ALL_ROUNDS
100
AcDbLine
 62
7
  6
CONTINUOUS
 10
133.4108918055
 20
74.3829068182
 11
133.4108918055
 21
73.229609065
  0
LINE
  5
57E
100
AcDbEntity
  8
0
100
AcDbLine
 62
7
  6
CONTINUOUS
 10
135.0151718055
 20
52.231719065
 11
135.0151718055
 21
39.031719065
  0
LINE
  5
57F
100
AcDbEntity
  8
7_ALL_ROUNDS
100
AcDbLine
 62
7
  6
CONTINUOUS
 10
135.3324160517
 20
67.749609065
 11
135.1410502349
 21
73.229609065
  0
LINE
  5
580
100
AcDbEntity
  8
0
100
AcDbLine
 62
7
  6
CONTINUOUS
 10
136.0108918055
 20
60.120709065
 11
136.0108918055
 21
53.770709065
  0
LINE
  5
581
100
AcDbEntity
  8
0
100
AcDbLine
 62
7
  6
CONTINUOUS
 10
136.0108918055
 20
52.231719065
 11
136.0108918055
 21
50.231719065
  0
LINE
  5
582
100
AcDbEntity
  8
7_ALL_ROUNDS
100
AcDbLine
 62
7
  6
CONTINUOUS
 10
102.6807333761
 20
73.229609065
 11
135.1410502349
 21
73.229609065
  0
LINE
  5
583
100
AcDbEntity
  8
7_ALL_ROUNDS
100
AcDbLine
 62
7
  6
CONTINUOUS
 10
105.4108918055
 20
74.4516052526
 11
132.4108918055
 21
74.4516052526
  0
LINE
  5
584
100
AcDbEntity
  8
7_ALL_ROUNDS
100
AcDbLine
 62
7
  6
CONTINUOUS
 10
110.0296650924
 20
74.729609065
 11
127.7921185186
 21
74.729609065
  0
LINE
  5
585
100
AcDbEntity
  8
0
100
AcDbLine
 62
7
  6
CONTINUOUS
 10
137.2608918055
 20
50.231719065
 11
137.2608918055
 21
50.018719065
  0
LINE
  5
586
100
AcDbEntity
  8
0
100
AcDbLine
 62
7
  6
CONTINUOUS
 10
138.5108918055
 20
52.231719065
 11
138.5108918055
 21
50.231719065
  0
LINE
  5
587
100
AcDbEntity
  8
7_ALL_ROUNDS
100
AcDbLine
 62
9
  6
CONTINUOUS
 10
138.5913229601
 20
66.229609065
 11
138.4317378372
 21
61.659689065
  0
LINE
  5
588
100
AcDbEntity
  8
0
100
AcDbLine
 62
7
  6
CONTINUOUS
 10
139.4908918039
 20
49.7487190634
 11
139.7608918034
 21
50.0187190629
  0
LINE
  5
589
100
AcDbEntity
  8
0
100
AcDbLine
 62
7
  6
CONTINUOUS
 10
139.7608918055
 20
50.231719065
 11
139.7608918055
 21
50.018719065
  0
LINE
  5
58A
100
AcDbEntity
  8
7_ALL_ROUNDS
100
AcDbLine
 62
9
  6
CONTINUOUS
 10
140.9108918055
 20
67.749609065
 11
140.9108918055
 21
66.229609065
  0
LINE
  5
58B
100
AcDbEntity
  8
0
100
AcDbLine
 62
7
  6
CONTINUOUS
 10
141.0108918055
 20
60.120709065
 11
141.0108918055
 21
53.770709065
  0
LINE
  5
58C
100
AcDbEntity
  8
0
100
AcDbLine
 62
7
  6
CONTINUOUS
 10
141.0108918055
 20
52.231719065
 11
141.0108918055
 21
50.231719065
  0
LINE
  5
58D
100
AcDbEntity
  8
7_ALL_ROUNDS
100
AcDbLine
 62
7
  6
CONTINUOUS
 10
141.4108918055
 20
66.229609065
 11
141.2513066826
 21
61.659689065
  0
LINE
  5
58E
100
AcDbEntity
  8
0
100
AcDbLine
 62
7
  6
CONTINUOUS
 10
141.4108918055
 20
61.659689065
 11
141.4108918055
 21
60.120709065
  0
LINE
  5
58F
100
AcDbEntity
  8
0
100
AcDbLine
 62
7
  6
CONTINUOUS
 10
141.4108918055
 20
53.770709065
 11
141.4108918055
 21
52.231719065
  0
LINE
  5
590
100
AcDbEntity
  8
7_ALL_ROUNDS
100
AcDbLine
 62
7
  6
CONTINUOUS
 10
142.9108918055
 20
67.749609065
 11
142.9108918055
 21
66.229609065
  0
LINE
  5
591
100
AcDbEntity
  8
7_ALL_ROUNDS
100
AcDbLine
 62
7
  6
CONTINUOUS
 10
70.1297133121
 20
89.1726574326
 11
68.6097133121
 21
89.1726574326
  0
LINE
  5
592
100
AcDbEntity
  8
7_ALL_ROUNDS
100
AcDbLine
 62
9
  6
CONTINUOUS
 10
70.1297133121
 20
91.1726574326
 11
68.6097133121
 21
91.1726574326
  0
LINE
  5
593
100
AcDbEntity
  8
7_ALL_ROUNDS
100
AcDbLine
 62
7
  6
CONTINUOUS
 10
70.1297133121
 20
108.8511331864
 11
75.6097133121
 21
109.0424990032
  0
LINE
  5
594
100
AcDbEntity
  8
7_ALL_ROUNDS
100
AcDbLine
 62
9
  6
CONTINUOUS
 10
70.1297133121
 20
110.8499148405
 11
75.6097133121
 21
111.0412806573
  0
LINE
  5
595
100
AcDbEntity
  8
7_ALL_ROUNDS
100
AcDbLine
 62
7
  6
CONTINUOUS
 10
75.6097133121
 20
110.7729959714
 11
76.8317094997
 21
110.7729959714
  0
LINE
  5
596
100
AcDbEntity
  8
7_ALL_ROUNDS
100
AcDbLine
 62
9
  6
CONTINUOUS
 10
75.6097133121
 20
111.7729959714
 11
76.7630110653
 21
111.7729959714
  0
LINE
  5
597
100
AcDbEntity
  8
0
100
AcDbLine
 62
7
  6
CONTINUOUS
 10
64.0397933121
 20
113.0796574326
 11
62.5008133121
 21
113.0796574326
  0
LINE
  5
598
100
AcDbEntity
  8
0
100
AcDbLine
 62
7
  6
CONTINUOUS
 10
56.1508133121
 20
113.0796574326
 11
54.6118233121
 21
113.0796574326
  0
LINE
  5
599
100
AcDbEntity
  8
0
100
AcDbLine
 62
7
  6
CONTINUOUS
 10
52.5908133121
 20
167.3726574326
 11
54.0808133121
 21
168.3226574326
  0
LINE
  5
59A
100
AcDbEntity
  8
0
100
AcDbLine
 62
7
  6
CONTINUOUS
 10
45.0788233121
 20
162.1071974326
 11
44.5788233121
 21
161.8571974326
  0
LINE
  5
59B
100
AcDbEntity
  8
0
100
AcDbLine
 62
7
  6
CONTINUOUS
 10
45.0788233121
 20
159.5671974326
 11
44.5788233121
 21
159.3171974326
  0
LINE
  5
59C
100
AcDbEntity
  8
7_ALL_ROUNDS
100
AcDbLine
 62
7
  6
CONTINUOUS
 10
76.1337299529
 20
120.9330462351
 11
76.6184395153
 21
120.941506872
  0
LINE
  5
59D
100
AcDbEntity
  8
7_ALL_ROUNDS
100
AcDbLine
 62
9
  6
CONTINUOUS
 10
76.0651242492
 20
121.9316964132
 11
76.6184395153
 21
121.9413545671
  0
LINE
  5
59E
100
AcDbEntity
  8
0
100
AcDbLine
 62
7
  6
CONTINUOUS
 10
64.0397933121
 20
121.0386574326
 11
62.5008133121
 21
121.0386574326
  0
LINE
  5
59F
100
AcDbEntity
  8
0
100
AcDbLine
 62
7
  6
CONTINUOUS
 10
56.1508133121
 20
121.0386574326
 11
54.6118233121
 21
121.0386574326
  0
LINE
  5
5A0
100
AcDbEntity
  8
0
100
AcDbLine
 62
7
  6
CONTINUOUS
 10
54.6118233121
 20
121.1859060867
 11
52.6118233121
 21
121.1859060867
  0
LINE
  5
5A1
100
AcDbEntity
  8
0
100
AcDbLine
 62
7
  6
CONTINUOUS
 10
62.5008133121
 20
121.5726574326
 11
56.1508133121
 21
121.5726574326
  0
LINE
  5
5A2
100
AcDbEntity
  8
7_ALL_ROUNDS
100
AcDbLine
 62
9
  6
CONTINUOUS
 10
77.1097133121
 20
121.9413545671
 11
76.6184395153
 21
121.9413545671
  0
LINE
  5
5A3
100
AcDbEntity
  8
0
100
AcDbLine
 62
7
  6
CONTINUOUS
 10
54.6118233121
 20
122.6292817597
 11
52.6118233121
 21
122.6292817597
  0
LINE
  5
5A4
100
AcDbEntity
  8
0
100
AcDbLine
 62
7
  6
CONTINUOUS
 10
52.6118233121
 20
122.8226574326
 11
52.3988233121
 21
122.8226574326
  0
LINE
  5
5A5
100
AcDbEntity
  8
0
100
AcDbLine
 62
7
  6
CONTINUOUS
 10
75.6097133121
 20
123.0226574326
 11
75.9901769351
 21
123.0226574326
  0
LINE
  5
5A6
100
AcDbEntity
  8
0
100
AcDbLine
 62
7
  6
CONTINUOUS
 10
75.9901769351
 20
123.6226574326
 11
75.6097133121
 21
123.6226574326
  0
LINE
  5
5A7
100
AcDbEntity
  8
0
100
AcDbLine
 62
7
  6
CONTINUOUS
 10
68.6097133121
 20
120.3226574326
 11
64.0397933121
 21
120.4822425555
  0
LINE
  5
5A8
100
AcDbEntity
  8
7_ALL_ROUNDS
100
AcDbLine
 62
7
  6
CONTINUOUS
 10
68.6097133121
 20
120.3226574326
 11
64.0397933121
 21
120.4822425555
  0
LINE
  5
5A9
100
AcDbEntity
  8
7_ALL_ROUNDS
100
AcDbLine
 62
9
  6
CONTINUOUS
 10
68.6097133121
 20
121.9201961645
 11
64.0397933121
 21
122.0797812874
  0
LINE
  5
5AA
100
AcDbEntity
  8
0
100
AcDbLine
 62
7
  6
CONTINUOUS
 10
52.1288233121
 20
123.0926574326
 11
52.3988233121
 21
122.8226574326
  0
LINE
  5
5AB
100
AcDbEntity
  8
0
100
AcDbLine
 62
7
  6
CONTINUOUS
 10
41.4118233121
 20
147.7832374326
 11
41.4118233121
 21
163.5332374326
  0
LINE
  5
5AC
100
AcDbEntity
  8
0
100
AcDbLine
 62
7
  6
CONTINUOUS
 10
44.5788233121
 20
159.1059974326
 11
44.5788233121
 21
159.3171974326
  0
LINE
  5
5AD
100
AcDbEntity
  8
0
100
AcDbLine
 62
7
  6
CONTINUOUS
 10
44.5788233121
 20
161.6459974326
 11
44.5788233121
 21
161.8571974326
  0
LINE
  5
5AE
100
AcDbEntity
  8
0
100
AcDbLine
 62
7
  6
CONTINUOUS
 10
42.3877269465
 20
147.7832374326
 11
41.4974229059
 21
143.03556439
  0
LINE
  5
5AF
100
AcDbEntity
  8
0
100
AcDbLine
 62
7
  6
CONTINUOUS
 10
42.4941455572
 20
143.03556439
 11
43.3844495978
 21
147.7832374326
  0
LINE
  5
5B0
100
AcDbEntity
  8
0
100
AcDbLine
 62
7
  6
CONTINUOUS
 10
66.0608033121
 20
165.7726587729
 11
64.5708023371
 21
164.8226574326
  0
LINE
  5
5B1
100
AcDbEntity
  8
0
100
AcDbLine
 62
7
  6
CONTINUOUS
 10
57.6678233121
 20
161.3959974326
 11
58.1678233121
 21
161.6459974326
  0
LINE
  5
5B2
100
AcDbEntity
  8
0
100
AcDbLine
 62
7
  6
CONTINUOUS
 10
57.6678233121
 20
158.8559974326
 11
58.1678233121
 21
159.1059974326
  0
LINE
  5
5B3
100
AcDbEntity
  8
7_ALL_ROUNDS
100
AcDbLine
 62
9
  6
CONTINUOUS
 10
68.6097133121
 20
126.2251187007
 11
64.0397933121
 21
126.0655335778
  0
LINE
  5
5B4
100
AcDbEntity
  8
0
100
AcDbLine
 62
7
  6
CONTINUOUS
 10
68.6097133121
 20
127.8226574326
 11
64.0397933121
 21
127.6630723097
  0
LINE
  5
5B5
100
AcDbEntity
  8
7_ALL_ROUNDS
100
AcDbLine
 62
7
  6
CONTINUOUS
 10
68.6097133121
 20
127.8226574326
 11
64.0397933121
 21
127.6630723097
  0
LINE
  5
5B6
100
AcDbEntity
  8
7_ALL_ROUNDS
100
AcDbLine
 62
9
  6
CONTINUOUS
 10
77.1097133121
 20
124.7039602981
 11
76.6184395153
 21
124.7039602981
  0
LINE
  5
5B7
100
AcDbEntity
  8
0
100
AcDbLine
 62
7
  6
CONTINUOUS
 10
52.6118233121
 20
125.3226574326
 11
52.3988233121
 21
125.3226574326
  0
LINE
  5
5B8
100
AcDbEntity
  8
0
100
AcDbLine
 62
7
  6
CONTINUOUS
 10
54.6118233121
 20
125.5160331056
 11
52.6118233121
 21
125.5160331056
  0
LINE
  5
5B9
100
AcDbEntity
  8
7_ALL_ROUNDS
100
AcDbLine
 62
7
  6
CONTINUOUS
 10
52.2298535098
 20
126.0600374326
 11
46.7556010737
 21
126.0600374326
  0
LINE
  5
5BA
100
AcDbEntity
  8
0
100
AcDbLine
 62
7
  6
CONTINUOUS
 10
62.5008133121
 20
126.5726574326
 11
56.1508133121
 21
126.5726574326
  0
LINE
  5
5BB
100
AcDbEntity
  8
0
100
AcDbLine
 62
7
  6
CONTINUOUS
 10
54.6118233121
 20
126.9594087786
 11
52.6118233121
 21
126.9594087786
  0
LINE
  5
5BC
100
AcDbEntity
  8
7_ALL_ROUNDS
100
AcDbLine
 62
9
  6
CONTINUOUS
 10
52.2298535098
 20
127.0425850262
 11
46.7556010737
 21
127.0425850262
  0
LINE
  5
5BD
100
AcDbEntity
  8
7_ALL_ROUNDS
100
AcDbLine
 62
9
  6
CONTINUOUS
 10
76.0651221804
 20
124.7136184882
 11
76.6184395153
 21
124.7039602981
  0
LINE
  5
5BE
100
AcDbEntity
  8
7_ALL_ROUNDS
100
AcDbLine
 62
7
  6
CONTINUOUS
 10
76.1337259905
 20
125.7122686994
 11
76.6184395153
 21
125.7038079933
  0
LINE
  5
5BF
100
AcDbEntity
  8
7_ALL_ROUNDS
100
AcDbLine
 62
7
  6
CONTINUOUS
 10
45.5634430315
 20
138.0600374326
 11
45.7557533786
 21
127.0425850262
  0
LINE
  5
5C0
100
AcDbEntity
  8
7_ALL_ROUNDS
100
AcDbLine
 62
9
  6
CONTINUOUS
 10
46.5632907266
 20
138.0600374326
 11
46.7556010737
 21
127.0425850262
  0
LINE
  5
5C1
100
AcDbEntity
  8
0
100
AcDbLine
 62
7
  6
CONTINUOUS
 10
45.0788233121
 20
158.8559974326
 11
45.0788233121
 21
159.5671974326
  0
LINE
  5
5C2
100
AcDbEntity
  8
0
100
AcDbLine
 62
7
  6
CONTINUOUS
 10
45.0788233121
 20
161.3959974326
 11
45.0788233121
 21
162.1071974326
  0
LINE
  5
5C3
100
AcDbEntity
  8
0
100
AcDbLine
 62
7
  6
CONTINUOUS
 10
45.5303272715
 20
147.7832374326
 11
45.5303272715
 21
138.0600374326
  0
LINE
  5
5C4
100
AcDbEntity
  8
7_ALL_ROUNDS
100
AcDbLine
 62
7
  6
CONTINUOUS
 10
46.6438965042
 20
163.0215974326
 11
46.6438965042
 21
162.1071974326
  0
LINE
  5
5C5
100
AcDbEntity
  8
7_ALL_ROUNDS
100
AcDbLine
 62
7
  6
CONTINUOUS
 10
46.6438965042
 20
161.3959974326
 11
46.6438965042
 21
159.5671974326
  0
LINE
  5
5C6
100
AcDbEntity
  8
7_ALL_ROUNDS
100
AcDbLine
 62
7
  6
CONTINUOUS
 10
46.6438965042
 20
158.8559974326
 11
46.6438965042
 21
157.9415974326
  0
LINE
  5
5C7
100
AcDbEntity
  8
7_ALL_ROUNDS
100
AcDbLine
 62
9
  6
CONTINUOUS
 10
46.7390179811
 20
163.0215974326
 11
46.7390179811
 21
162.1071974326
  0
LINE
  5
5C8
100
AcDbEntity
  8
7_ALL_ROUNDS
100
AcDbLine
 62
9
  6
CONTINUOUS
 10
46.7390179811
 20
161.3959974326
 11
46.7390179811
 21
159.5671974326
  0
LINE
  5
5C9
100
AcDbEntity
  8
7_ALL_ROUNDS
100
AcDbLine
 62
9
  6
CONTINUOUS
 10
46.7390179811
 20
158.8559974326
 11
46.7390179811
 21
157.9415974326
  0
LINE
  5
5CA
100
AcDbEntity
  8
7_ALL_ROUNDS
100
AcDbLine
 62
9
  6
CONTINUOUS
 10
46.7556010737
 20
126.0600374326
 11
46.7556010737
 21
127.0425850262
  0
LINE
  5
5CB
100
AcDbEntity
  8
7_ALL_ROUNDS
100
AcDbLine
 62
9
  6
CONTINUOUS
 10
47.9349844691
 20
163.0215974326
 11
47.9349844691
 21
162.1071974326
  0
LINE
  5
5CC
100
AcDbEntity
  8
7_ALL_ROUNDS
100
AcDbLine
 62
9
  6
CONTINUOUS
 10
47.9349844691
 20
161.3959974326
 11
47.9349844691
 21
159.5671974326
  0
LINE
  5
5CD
100
AcDbEntity
  8
7_ALL_ROUNDS
100
AcDbLine
 62
9
  6
CONTINUOUS
 10
47.9349844691
 20
158.8559974326
 11
47.9349844691
 21
157.9415974326
  0
LINE
  5
5CE
100
AcDbEntity
  8
7_ALL_ROUNDS
100
AcDbLine
 62
9
  6
CONTINUOUS
 10
48.4345484959
 20
163.0215974326
 11
48.4345484959
 21
162.1071974326
  0
LINE
  5
5CF
100
AcDbEntity
  8
7_ALL_ROUNDS
100
AcDbLine
 62
9
  6
CONTINUOUS
 10
48.4345484959
 20
161.3959974326
 11
48.4345484959
 21
159.5671974326
  0
LINE
  5
5D0
100
AcDbEntity
  8
7_ALL_ROUNDS
100
AcDbLine
 62
9
  6
CONTINUOUS
 10
48.4345484959
 20
158.8559974326
 11
48.4345484959
 21
157.9415974326
  0
LINE
  5
5D1
100
AcDbEntity
  8
0
100
AcDbLine
 62
7
  6
CONTINUOUS
 10
60.1298133121
 20
160.0526574326
 11
60.3998133121
 21
160.3226574326
  0
LINE
  5
5D2
100
AcDbEntity
  8
0
100
AcDbLine
 62
7
  6
CONTINUOUS
 10
50.0906233121
 20
163.0215974326
 11
50.0906233121
 21
162.1071974326
  0
LINE
  5
5D3
100
AcDbEntity
  8
0
100
AcDbLine
 62
7
  6
CONTINUOUS
 10
50.0906233121
 20
161.3959974326
 11
50.0906233121
 21
159.5671974326
  0
LINE
  5
5D4
100
AcDbEntity
  8
0
100
AcDbLine
 62
7
  6
CONTINUOUS
 10
50.0906233121
 20
158.8559974326
 11
50.0906233121
 21
157.9415974326
  0
LINE
  5
5D5
100
AcDbEntity
  8
7_ALL_ROUNDS
100
AcDbLine
 62
7
  6
CONTINUOUS
 10
52.0718233121
 20
157.9415974326
 11
52.0718233121
 21
163.0215974326
  0
LINE
  5
5D6
100
AcDbEntity
  8
0
100
AcDbLine
 62
7
  6
CONTINUOUS
 10
52.1288233121
 20
123.0929954089
 11
52.1288233121
 21
125.0523194563
  0
LINE
  5
5D7
100
AcDbEntity
  8
0
100
AcDbLine
 62
7
  6
CONTINUOUS
 10
52.1343273121
 20
147.7832374326
 11
52.1343273121
 21
146.2202374326
  0
LINE
  5
5D8
100
AcDbEntity
  8
7_ALL_ROUNDS
100
AcDbLine
 62
9
  6
CONTINUOUS
 10
52.2298535098
 20
127.0425850262
 11
52.2298535098
 21
126.0600374326
  0
LINE
  5
5D9
100
AcDbEntity
  8
7_ALL_ROUNDS
100
AcDbLine
 62
9
  6
CONTINUOUS
 10
76.7630129638
 20
134.8726574326
 11
75.6097133121
 21
134.8726574326
  0
LINE
  5
5DA
100
AcDbEntity
  8
0
100
AcDbLine
 62
7
  6
CONTINUOUS
 10
52.3988233121
 20
122.8226574326
 11
52.3988233121
 21
125.3226574326
  0
LINE
  5
5DB
100
AcDbEntity
  8
7_ALL_ROUNDS
100
AcDbLine
 62
9
  6
CONTINUOUS
 10
52.4518233121
 20
157.9415974326
 11
52.4518233121
 21
163.0215974326
  0
LINE
  5
5DC
100
AcDbEntity
  8
0
100
AcDbLine
 62
7
  6
CONTINUOUS
 10
52.5908133121
 20
165.772658067
 11
52.5908133121
 21
166.1726574326
  0
LINE
  5
5DD
100
AcDbEntity
  8
0
100
AcDbLine
 62
7
  6
CONTINUOUS
 10
52.5908133121
 20
166.9726574326
 11
52.5908133121
 21
167.3726573922
  0
LINE
  5
5DE
100
AcDbEntity
  8
0
100
AcDbLine
 62
7
  6
CONTINUOUS
 10
52.6118233121
 20
121.1859060867
 11
52.6118233121
 21
126.9594087786
  0
LINE
  5
5DF
100
AcDbEntity
  8
0
100
AcDbLine
 62
7
  6
CONTINUOUS
 10
53.4551273121
 20
146.2202374326
 11
53.4551273121
 21
138.0600374326
  0
LINE
  5
5E0
100
AcDbEntity
  8
0
100
AcDbLine
 62
7
  6
CONTINUOUS
 10
54.0808133121
 20
166.1726574326
 11
54.0808131329
 21
164.8226574326
  0
LINE
  5
5E1
100
AcDbEntity
  8
0
100
AcDbLine
 62
7
  6
CONTINUOUS
 10
54.0808133121
 20
166.9726574326
 11
54.0808133121
 21
168.3226574326
  0
LINE
  5
5E2
100
AcDbEntity
  8
0
100
AcDbLine
 62
7
  6
CONTINUOUS
 10
54.6118233121
 20
113.0796574326
 11
54.6118233121
 21
171.0656574326
  0
LINE
  5
5E3
100
AcDbEntity
  8
7_ALL_ROUNDS
100
AcDbLine
 62
9
  6
CONTINUOUS
 10
52.4221638569
 20
138.0600374326
 11
52.2298535098
 21
127.0425850262
  0
LINE
  5
5E4
100
AcDbEntity
  8
7_ALL_ROUNDS
100
AcDbLine
 62
7
  6
CONTINUOUS
 10
53.4220115521
 20
138.0600374326
 11
53.229701205
 21
127.0425850262
  0
LINE
  5
5E5
100
AcDbEntity
  8
7_ALL_ROUNDS
100
AcDbLine
 62
7
  6
CONTINUOUS
 10
76.8317094997
 20
135.8726574326
 11
75.6097133121
 21
135.8726574326
  0
LINE
  5
5E6
100
AcDbEntity
  8
0
100
AcDbLine
 62
7
  6
CONTINUOUS
 10
53.4551273121
 20
138.0600374326
 11
45.5303272715
 21
138.0600374326
  0
LINE
  5
5E7
100
AcDbEntity
  8
0
100
AcDbLine
 62
7
  6
CONTINUOUS
 10
56.1508133121
 20
113.0796574326
 11
56.1508133121
 21
171.0656574326
  0
LINE
  5
5E8
100
AcDbEntity
  8
0
100
AcDbLine
 62
7
  6
CONTINUOUS
 10
57.6678233121
 20
162.1071974326
 11
57.6678233121
 21
161.3959974326
  0
LINE
  5
5E9
100
AcDbEntity
  8
0
100
AcDbLine
 62
7
  6
CONTINUOUS
 10
57.6678233121
 20
159.5671974326
 11
57.6678233121
 21
158.8559974326
  0
LINE
  5
5EA
100
AcDbEntity
  8
0
100
AcDbLine
 62
7
  6
CONTINUOUS
 10
58.1678233121
 20
161.8571974326
 11
58.1678233121
 21
161.6459974326
  0
LINE
  5
5EB
100
AcDbEntity
  8
0
100
AcDbLine
 62
7
  6
CONTINUOUS
 10
58.1678233121
 20
159.3171974326
 11
58.1678233121
 21
159.1059974326
  0
LINE
  5
5EC
100
AcDbEntity
  8
0
100
AcDbLine
 62
7
  6
CONTINUOUS
 10
60.1298133121
 20
158.0929954089
 11
60.1298133121
 21
160.0523194563
  0
LINE
  5
5ED
100
AcDbEntity
  8
0
100
AcDbLine
 62
7
  6
CONTINUOUS
 10
60.3998133121
 20
157.8226574326
 11
60.3998133121
 21
160.3226574326
  0
LINE
  5
5EE
100
AcDbEntity
  8
0
100
AcDbLine
 62
7
  6
CONTINUOUS
 10
60.5008133121
 20
156.1859060867
 11
60.5008133121
 21
161.9594087786
  0
LINE
  5
5EF
100
AcDbEntity
  8
0
100
AcDbLine
 62
7
  6
CONTINUOUS
 10
62.5008133121
 20
113.0796574326
 11
62.5008133121
 21
171.0656574326
  0
LINE
  5
5F0
100
AcDbEntity
  8
0
100
AcDbLine
 62
7
  6
CONTINUOUS
 10
41.4974229059
 20
143.03556439
 11
42.4941455572
 21
143.03556439
  0
LINE
  5
5F1
100
AcDbEntity
  8
0
100
AcDbLine
 62
7
  6
CONTINUOUS
 10
53.4551273121
 20
146.2202374326
 11
52.1343273121
 21
146.2202374326
  0
LINE
  5
5F2
100
AcDbEntity
  8
7_ALL_ROUNDS
100
AcDbLine
 62
7
  6
CONTINUOUS
 10
64.0397933121
 20
113.0796574326
 11
64.0397933121
 21
121.0386574326
  0
LINE
  5
5F3
100
AcDbEntity
  8
0
100
AcDbLine
 62
7
  6
CONTINUOUS
 10
64.0397933121
 20
121.0386574326
 11
64.0397933121
 21
171.0656574326
  0
LINE
  5
5F4
100
AcDbEntity
  8
0
100
AcDbLine
 62
7
  6
CONTINUOUS
 10
64.5708023369
 20
164.8226574326
 11
64.5708033121
 21
166.1726574326
  0
LINE
  5
5F5
100
AcDbEntity
  8
0
100
AcDbLine
 62
7
  6
CONTINUOUS
 10
64.5708033121
 20
168.3226574326
 11
64.5708033121
 21
166.9726574326
  0
LINE
  5
5F6
100
AcDbEntity
  8
0
100
AcDbLine
 62
7
  6
CONTINUOUS
 10
66.0608033121
 20
167.3726573915
 11
66.0608033121
 21
166.9726574326
  0
LINE
  5
5F7
100
AcDbEntity
  8
0
100
AcDbLine
 62
7
  6
CONTINUOUS
 10
66.0608033121
 20
166.1726574326
 11
66.0608033121
 21
165.7726588141
  0
LINE
  5
5F8
100
AcDbEntity
  8
0
100
AcDbLine
 62
7
  6
CONTINUOUS
 10
52.1288233121
 20
125.0526574326
 11
52.3988233121
 21
125.3226574326
  0
LINE
  5
5F9
100
AcDbEntity
  8
0
100
AcDbLine
 62
7
  6
CONTINUOUS
 10
54.6118233121
 20
147.7832374326
 11
41.4118233121
 21
147.7832374326
  0
LINE
  5
5FA
100
AcDbEntity
  8
7_ALL_ROUNDS
100
AcDbLine
 62
7
  6
CONTINUOUS
 10
68.6097133121
 20
89.1726574326
 11
68.6097133121
 21
194.9726574326
  0
LINE
  5
5FB
100
AcDbEntity
  8
7_ALL_ROUNDS
100
AcDbLine
 62
7
  6
CONTINUOUS
 10
70.1297133121
 20
194.9726574326
 11
70.1297133121
 21
89.1726574326
  0
LINE
  5
5FC
100
AcDbEntity
  8
0
100
AcDbLine
 62
7
  6
CONTINUOUS
 10
45.0788233121
 20
158.8559974326
 11
44.5788233121
 21
159.1059974326
  0
LINE
  5
5FD
100
AcDbEntity
  8
0
100
AcDbLine
 62
7
  6
CONTINUOUS
 10
45.0788233121
 20
161.3959974326
 11
44.5788233121
 21
161.6459974326
  0
LINE
  5
5FE
100
AcDbEntity
  8
7_ALL_ROUNDS
100
AcDbLine
 62
7
  6
CONTINUOUS
 10
75.9901769351
 20
123.0226574326
 11
76.8317094997
 21
110.7729959714
  0
LINE
  5
5FF
100
AcDbEntity
  8
0
100
AcDbLine
 62
7
  6
CONTINUOUS
 10
62.5008133121
 20
156.1859060867
 11
60.5008133121
 21
156.1859060867
  0
LINE
  5
600
100
AcDbEntity
  8
0
100
AcDbLine
 62
7
  6
CONTINUOUS
 10
68.6097133121
 20
155.3226574326
 11
64.0397933121
 21
155.4822425555
  0
LINE
  5
601
100
AcDbEntity
  8
7_ALL_ROUNDS
100
AcDbLine
 62
7
  6
CONTINUOUS
 10
68.6097133121
 20
155.3226574326
 11
64.0397933121
 21
155.4822425555
  0
LINE
  5
602
100
AcDbEntity
  8
7_ALL_ROUNDS
100
AcDbLine
 62
9
  6
CONTINUOUS
 10
68.6097133121
 20
156.9201961645
 11
64.0397933121
 21
157.0797812874
  0
LINE
  5
603
100
AcDbEntity
  8
0
100
AcDbLine
 62
7
  6
CONTINUOUS
 10
57.6678233121
 20
159.5671974326
 11
58.1678233121
 21
159.3171974326
  0
LINE
  5
604
100
AcDbEntity
  8
0
100
AcDbLine
 62
7
  6
CONTINUOUS
 10
60.1298133121
 20
158.0926574326
 11
60.3998133121
 21
157.8226574326
  0
LINE
  5
605
100
AcDbEntity
  8
7_ALL_ROUNDS
100
AcDbLine
 62
7
  6
CONTINUOUS
 10
75.6097133121
 20
175.102815862
 11
75.6097133121
 21
109.0424990032
  0
LINE
  5
606
100
AcDbEntity
  8
7_ALL_ROUNDS
100
AcDbLine
 62
9
  6
CONTINUOUS
 10
76.6184395153
 20
124.7039602981
 11
76.6184395153
 21
121.9413545671
  0
LINE
  5
607
100
AcDbEntity
  8
7_ALL_ROUNDS
100
AcDbLine
 62
7
  6
CONTINUOUS
 10
77.1097133121
 20
125.2038841457
 11
77.1097133121
 21
121.4414307195
  0
LINE
  5
608
100
AcDbEntity
  8
7_ALL_ROUNDS
100
AcDbLine
 62
7
  6
CONTINUOUS
 10
76.8317094997
 20
135.8726574326
 11
75.9901769351
 21
123.6226574326
  0
LINE
  5
609
100
AcDbEntity
  8
7_ALL_ROUNDS
100
AcDbLine
 62
9
  6
CONTINUOUS
 10
68.6097133121
 20
161.2251187007
 11
64.0397933121
 21
161.0655335778
  0
LINE
  5
60A
100
AcDbEntity
  8
0
100
AcDbLine
 62
7
  6
CONTINUOUS
 10
62.5008133121
 20
157.6292817597
 11
60.5008133121
 21
157.6292817597
  0
LINE
  5
60B
100
AcDbEntity
  8
0
100
AcDbLine
 62
7
  6
CONTINUOUS
 10
60.5008133121
 20
157.8226574326
 11
60.3998133121
 21
157.8226574326
  0
LINE
  5
60C
100
AcDbEntity
  8
7_ALL_ROUNDS
100
AcDbLine
 62
7
  6
CONTINUOUS
 10
46.6439252528
 20
157.9415974326
 11
54.6118233121
 21
157.9415974326
  0
LINE
  5
60D
100
AcDbEntity
  8
0
100
AcDbLine
 62
7
  6
CONTINUOUS
 10
57.6678233121
 20
158.8559974326
 11
56.1508133121
 21
158.8559974326
  0
LINE
  5
60E
100
AcDbEntity
  8
0
100
AcDbLine
 62
7
  6
CONTINUOUS
 10
52.0718233121
 20
158.8559974326
 11
45.0788233121
 21
158.8559974326
  0
LINE
  5
60F
100
AcDbEntity
  8
0
100
AcDbLine
 62
7
  6
CONTINUOUS
 10
57.6678233121
 20
159.5671974326
 11
56.1508133121
 21
159.5671974326
  0
LINE
  5
610
100
AcDbEntity
  8
0
100
AcDbLine
 62
7
  6
CONTINUOUS
 10
52.0718233121
 20
159.5671974326
 11
45.0788233121
 21
159.5671974326
  0
LINE
  5
611
100
AcDbEntity
  8
0
100
AcDbLine
 62
7
  6
CONTINUOUS
 10
60.5008133121
 20
160.3226574326
 11
60.3998133121
 21
160.3226574326
  0
LINE
  5
612
100
AcDbEntity
  8
0
100
AcDbLine
 62
7
  6
CONTINUOUS
 10
62.5008133121
 20
160.5160331056
 11
60.5008133121
 21
160.5160331056
  0
LINE
  5
613
100
AcDbEntity
  8
0
100
AcDbLine
 62
7
  6
CONTINUOUS
 10
57.6678233121
 20
162.1071974326
 11
58.1678233121
 21
161.8571974326
  0
LINE
  5
614
100
AcDbEntity
  8
0
100
AcDbLine
 62
7
  6
CONTINUOUS
 10
52.5908133121
 20
165.7726580373
 11
54.0808131332
 21
164.8226574326
  0
LINE
  5
615
100
AcDbEntity
  8
0
100
AcDbLine
 62
7
  6
CONTINUOUS
 10
68.6097133121
 20
162.8226574326
 11
64.0397933121
 21
162.6630723097
  0
LINE
  5
616
100
AcDbEntity
  8
7_ALL_ROUNDS
100
AcDbLine
 62
7
  6
CONTINUOUS
 10
68.6097133121
 20
162.8226574326
 11
64.0397933121
 21
162.6630723097
  0
LINE
  5
617
100
AcDbEntity
  8
0
100
AcDbLine
 62
7
  6
CONTINUOUS
 10
57.6678233121
 20
161.3959974326
 11
56.1508133121
 21
161.3959974326
  0
LINE
  5
618
100
AcDbEntity
  8
0
100
AcDbLine
 62
7
  6
CONTINUOUS
 10
52.0718233121
 20
161.3959974326
 11
45.0788233121
 21
161.3959974326
  0
LINE
  5
619
100
AcDbEntity
  8
0
100
AcDbLine
 62
7
  6
CONTINUOUS
 10
62.5008133121
 20
161.9594087786
 11
60.5008133121
 21
161.9594087786
  0
LINE
  5
61A
100
AcDbEntity
  8
0
100
AcDbLine
 62
7
  6
CONTINUOUS
 10
57.6678233121
 20
162.1071974326
 11
56.1508133121
 21
162.1071974326
  0
LINE
  5
61B
100
AcDbEntity
  8
0
100
AcDbLine
 62
7
  6
CONTINUOUS
 10
52.0718233121
 20
162.1071974326
 11
45.0788233121
 21
162.1071974326
  0
LINE
  5
61C
100
AcDbEntity
  8
7_ALL_ROUNDS
100
AcDbLine
 62
7
  6
CONTINUOUS
 10
46.6439252528
 20
163.0215974326
 11
54.6118233121
 21
163.0215974326
  0
LINE
  5
61D
100
AcDbEntity
  8
0
100
AcDbLine
 62
7
  6
CONTINUOUS
 10
64.0397933121
 20
163.1066574326
 11
62.5008133121
 21
163.1066574326
  0
LINE
  5
61E
100
AcDbEntity
  8
0
100
AcDbLine
 62
7
  6
CONTINUOUS
 10
56.1508133121
 20
163.1066574326
 11
54.6118233121
 21
163.1066574326
  0
LINE
  5
61F
100
AcDbEntity
  8
0
100
AcDbLine
 62
7
  6
CONTINUOUS
 10
54.6118233121
 20
163.5332374326
 11
41.4118233121
 21
163.5332374326
  0
LINE
  5
620
100
AcDbEntity
  8
0
100
AcDbLine
 62
7
  6
CONTINUOUS
 10
62.5008133121
 20
164.2876574326
 11
56.1508133121
 21
164.2876574326
  0
LINE
  5
621
100
AcDbEntity
  8
0
100
AcDbLine
 62
7
  6
CONTINUOUS
 10
64.5708023371
 20
164.8226574326
 11
64.0397933121
 21
164.8226574326
  0
LINE
  5
622
100
AcDbEntity
  8
0
100
AcDbLine
 62
7
  6
CONTINUOUS
 10
54.6118233121
 20
164.8226574326
 11
54.0808131332
 21
164.8226574326
  0
LINE
  5
623
100
AcDbEntity
  8
0
100
AcDbLine
 62
7
  6
CONTINUOUS
 10
52.5908133121
 20
166.1726574326
 11
54.6118233121
 21
166.1726574326
  0
LINE
  5
624
100
AcDbEntity
  8
0
100
AcDbLine
 62
7
  6
CONTINUOUS
 10
64.0397933121
 20
166.1726574326
 11
66.0608033121
 21
166.1726574326
  0
LINE
  5
625
100
AcDbEntity
  8
0
100
AcDbLine
 62
7
  6
CONTINUOUS
 10
66.0608033121
 20
166.9726574326
 11
64.0397933121
 21
166.9726574326
  0
LINE
  5
626
100
AcDbEntity
  8
0
100
AcDbLine
 62
7
  6
CONTINUOUS
 10
54.6118233121
 20
166.9726574326
 11
52.5908133121
 21
166.9726574326
  0
LINE
  5
627
100
AcDbEntity
  8
0
100
AcDbLine
 62
7
  6
CONTINUOUS
 10
64.5708033121
 20
168.3226574326
 11
64.0397933121
 21
168.3226574326
  0
LINE
  5
628
100
AcDbEntity
  8
0
100
AcDbLine
 62
7
  6
CONTINUOUS
 10
54.6118233121
 20
168.3226574326
 11
54.0808133121
 21
168.3226574326
  0
LINE
  5
629
100
AcDbEntity
  8
0
100
AcDbLine
 62
7
  6
CONTINUOUS
 10
66.0608033121
 20
167.3726574326
 11
64.5708033121
 21
168.3226574326
  0
LINE
  5
62A
100
AcDbEntity
  8
0
100
AcDbLine
 62
7
  6
CONTINUOUS
 10
62.5008133121
 20
168.8576574326
 11
56.1508133121
 21
168.8576574326
  0
LINE
  5
62B
100
AcDbEntity
  8
0
100
AcDbLine
 62
7
  6
CONTINUOUS
 10
64.0397933121
 20
171.0656574326
 11
62.5008133121
 21
171.0656574326
  0
LINE
  5
62C
100
AcDbEntity
  8
0
100
AcDbLine
 62
7
  6
CONTINUOUS
 10
56.1508133121
 20
171.0656574326
 11
54.6118233121
 21
171.0656574326
  0
LINE
  5
62D
100
AcDbEntity
  8
7_ALL_ROUNDS
100
AcDbLine
 62
9
  6
CONTINUOUS
 10
70.1297133121
 20
173.2954000248
 11
75.6097133121
 21
173.104034208
  0
LINE
  5
62E
100
AcDbEntity
  8
7_ALL_ROUNDS
100
AcDbLine
 62
7
  6
CONTINUOUS
 10
70.1297133121
 20
175.2941816788
 11
75.6097133121
 21
175.102815862
  0
LINE
  5
62F
100
AcDbEntity
  8
7_ALL_ROUNDS
100
AcDbLine
 62
9
  6
CONTINUOUS
 10
70.1297133121
 20
192.9726574326
 11
68.6097133121
 21
192.9726574326
  0
LINE
  5
630
100
AcDbEntity
  8
7_ALL_ROUNDS
100
AcDbLine
 62
7
  6
CONTINUOUS
 10
70.1297133121
 20
194.9726574326
 11
68.6097133121
 21
194.9726574326
  0
LINE
  5
631
100
AcDbEntity
  8
7_ALL_ROUNDS
100
AcDbLine
 62
7
  6
CONTINUOUS
 10
203.7246197548
 20
89.1726574326
 11
205.2446197548
 21
89.1726574326
  0
LINE
  5
632
100
AcDbEntity
  8
7_ALL_ROUNDS
100
AcDbLine
 62
9
  6
CONTINUOUS
 10
203.7246197548
 20
91.1726574326
 11
205.2446197548
 21
91.1726574326
  0
LINE
  5
633
100
AcDbEntity
  8
7_ALL_ROUNDS
100
AcDbLine
 62
7
  6
CONTINUOUS
 10
203.7246197548
 20
108.8511331864
 11
198.2446197548
 21
109.0424990032
  0
LINE
  5
634
100
AcDbEntity
  8
7_ALL_ROUNDS
100
AcDbLine
 62
7
  6
CONTINUOUS
 10
197.0226235672
 20
110.7729959714
 11
198.2446197548
 21
110.7729959714
  0
LINE
  5
635
100
AcDbEntity
  8
7_ALL_ROUNDS
100
AcDbLine
 62
9
  6
CONTINUOUS
 10
197.0913220016
 20
111.7729959714
 11
198.2446197548
 21
111.7729959714
  0
LINE
  5
636
100
AcDbEntity
  8
7_ALL_ROUNDS
100
AcDbLine
 62
9
  6
CONTINUOUS
 10
203.7246197548
 20
110.8499148405
 11
198.2446197548
 21
111.0412806573
  0
LINE
  5
637
100
AcDbEntity
  8
0
100
AcDbLine
 62
7
  6
CONTINUOUS
 10
209.8145397548
 20
113.0796574326
 11
211.3535197548
 21
113.0796574326
  0
LINE
  5
638
100
AcDbEntity
  8
0
100
AcDbLine
 62
7
  6
CONTINUOUS
 10
217.7035197548
 20
113.0796574326
 11
219.2425097548
 21
113.0796574326
  0
LINE
  5
639
100
AcDbEntity
  8
0
100
AcDbLine
 62
7
  6
CONTINUOUS
 10
207.7935297548
 20
167.3726574326
 11
209.2835297548
 21
168.3226574326
  0
LINE
  5
63A
100
AcDbEntity
  8
7_ALL_ROUNDS
100
AcDbLine
 62
7
  6
CONTINUOUS
 10
205.2446197548
 20
120.3226574326
 11
209.8145397548
 21
120.4822425555
  0
LINE
  5
63B
100
AcDbEntity
  8
0
100
AcDbLine
 62
7
  6
CONTINUOUS
 10
205.2446197548
 20
120.3226574326
 11
209.8145397548
 21
120.4822425555
  0
LINE
  5
63C
100
AcDbEntity
  8
7_ALL_ROUNDS
100
AcDbLine
 62
9
  6
CONTINUOUS
 10
205.2446197548
 20
121.9201961645
 11
209.8145397548
 21
122.0797812874
  0
LINE
  5
63D
100
AcDbEntity
  8
0
100
AcDbLine
 62
7
  6
CONTINUOUS
 10
209.8145397548
 20
121.0386574326
 11
211.3535197548
 21
121.0386574326
  0
LINE
  5
63E
100
AcDbEntity
  8
0
100
AcDbLine
 62
7
  6
CONTINUOUS
 10
217.7035197548
 20
121.0386574326
 11
219.2425097548
 21
121.0386574326
  0
LINE
  5
63F
100
AcDbEntity
  8
0
100
AcDbLine
 62
7
  6
CONTINUOUS
 10
219.2425097548
 20
121.1859060867
 11
221.2425097548
 21
121.1859060867
  0
LINE
  5
640
100
AcDbEntity
  8
0
100
AcDbLine
 62
7
  6
CONTINUOUS
 10
211.3535197548
 20
121.5726574326
 11
217.7035197548
 21
121.5726574326
  0
LINE
  5
641
100
AcDbEntity
  8
7_ALL_ROUNDS
100
AcDbLine
 62
9
  6
CONTINUOUS
 10
196.7446197548
 20
121.9413545671
 11
197.2358935516
 21
121.9413545671
  0
LINE
  5
642
100
AcDbEntity
  8
0
100
AcDbLine
 62
7
  6
CONTINUOUS
 10
219.2425097548
 20
122.6292817597
 11
221.2425097548
 21
122.6292817597
  0
LINE
  5
643
100
AcDbEntity
  8
0
100
AcDbLine
 62
7
  6
CONTINUOUS
 10
221.2425097548
 20
122.8226574326
 11
221.4555097548
 21
122.8226574326
  0
LINE
  5
644
100
AcDbEntity
  8
0
100
AcDbLine
 62
7
  6
CONTINUOUS
 10
198.2446197548
 20
123.0226574326
 11
197.8641561318
 21
123.0226574326
  0
LINE
  5
645
100
AcDbEntity
  8
0
100
AcDbLine
 62
7
  6
CONTINUOUS
 10
197.8641561318
 20
123.6226574326
 11
198.2446197548
 21
123.6226574326
  0
LINE
  5
646
100
AcDbEntity
  8
7_ALL_ROUNDS
100
AcDbLine
 62
7
  6
CONTINUOUS
 10
197.720603114
 20
120.9330462351
 11
197.2358935516
 21
120.941506872
  0
LINE
  5
647
100
AcDbEntity
  8
7_ALL_ROUNDS
100
AcDbLine
 62
9
  6
CONTINUOUS
 10
197.7892088177
 20
121.9316964132
 11
197.2358935516
 21
121.9413545671
  0
LINE
  5
648
100
AcDbEntity
  8
7_ALL_ROUNDS
100
AcDbLine
 62
7
  6
CONTINUOUS
 10
197.8641561318
 20
123.6226574326
 11
197.0226235672
 21
135.8726574326
  0
LINE
  5
649
100
AcDbEntity
  8
7_ALL_ROUNDS
100
AcDbLine
 62
7
  6
CONTINUOUS
 10
196.7446197548
 20
121.4414307195
 11
196.7446197548
 21
125.2038841457
  0
LINE
  5
64A
100
AcDbEntity
  8
7_ALL_ROUNDS
100
AcDbLine
 62
9
  6
CONTINUOUS
 10
197.2358935516
 20
121.9413545671
 11
197.2358935516
 21
124.7039602981
  0
LINE
  5
64B
100
AcDbEntity
  8
7_ALL_ROUNDS
100
AcDbLine
 62
7
  6
CONTINUOUS
 10
198.2446197548
 20
109.0424990032
 11
198.2446197548
 21
175.102815862
  0
LINE
  5
64C
100
AcDbEntity
  8
7_ALL_ROUNDS
100
AcDbLine
 62
7
  6
CONTINUOUS
 10
197.0226235672
 20
110.7729959714
 11
197.8641561318
 21
123.0226574326
  0
LINE
  5
64D
100
AcDbEntity
  8
0
100
AcDbLine
 62
7
  6
CONTINUOUS
 10
221.2635197548
 20
165.7726580373
 11
219.7735199337
 21
164.8226574326
  0
LINE
  5
64E
100
AcDbEntity
  8
0
100
AcDbLine
 62
7
  6
CONTINUOUS
 10
216.1865097548
 20
162.1071974326
 11
215.6865097548
 21
161.8571974326
  0
LINE
  5
64F
100
AcDbEntity
  8
0
100
AcDbLine
 62
7
  6
CONTINUOUS
 10
216.1865097548
 20
159.5671974326
 11
215.6865097548
 21
159.3171974326
  0
LINE
  5
650
100
AcDbEntity
  8
7_ALL_ROUNDS
100
AcDbLine
 62
9
  6
CONTINUOUS
 10
197.7892108865
 20
124.7136184882
 11
197.2358935516
 21
124.7039602981
  0
LINE
  5
651
100
AcDbEntity
  8
7_ALL_ROUNDS
100
AcDbLine
 62
7
  6
CONTINUOUS
 10
197.7206070764
 20
125.7122686994
 11
197.2358935516
 21
125.7038079933
  0
LINE
  5
652
100
AcDbEntity
  8
7_ALL_ROUNDS
100
AcDbLine
 62
9
  6
CONTINUOUS
 10
196.7446197548
 20
124.7039602981
 11
197.2358935516
 21
124.7039602981
  0
LINE
  5
653
100
AcDbEntity
  8
0
100
AcDbLine
 62
7
  6
CONTINUOUS
 10
221.2425097548
 20
125.3226574326
 11
221.4555097548
 21
125.3226574326
  0
LINE
  5
654
100
AcDbEntity
  8
0
100
AcDbLine
 62
7
  6
CONTINUOUS
 10
219.2425097548
 20
125.5160331056
 11
221.2425097548
 21
125.5160331056
  0
LINE
  5
655
100
AcDbEntity
  8
7_ALL_ROUNDS
100
AcDbLine
 62
7
  6
CONTINUOUS
 10
221.624479557
 20
126.0600374326
 11
227.0987319932
 21
126.0600374326
  0
LINE
  5
656
100
AcDbEntity
  8
0
100
AcDbLine
 62
7
  6
CONTINUOUS
 10
211.3535197548
 20
126.5726574326
 11
217.7035197548
 21
126.5726574326
  0
LINE
  5
657
100
AcDbEntity
  8
0
100
AcDbLine
 62
7
  6
CONTINUOUS
 10
219.2425097548
 20
126.9594087786
 11
221.2425097548
 21
126.9594087786
  0
LINE
  5
658
100
AcDbEntity
  8
7_ALL_ROUNDS
100
AcDbLine
 62
9
  6
CONTINUOUS
 10
221.624479557
 20
127.0425850262
 11
227.0987319932
 21
127.0425850262
  0
LINE
  5
659
100
AcDbEntity
  8
7_ALL_ROUNDS
100
AcDbLine
 62
9
  6
CONTINUOUS
 10
205.2446197548
 20
126.2251187007
 11
209.8145397548
 21
126.0655335778
  0
LINE
  5
65A
100
AcDbEntity
  8
7_ALL_ROUNDS
100
AcDbLine
 62
7
  6
CONTINUOUS
 10
205.2446197548
 20
127.8226574326
 11
209.8145397548
 21
127.6630723097
  0
LINE
  5
65B
100
AcDbEntity
  8
0
100
AcDbLine
 62
7
  6
CONTINUOUS
 10
205.2446197548
 20
127.8226574326
 11
209.8145397548
 21
127.6630723097
  0
LINE
  5
65C
100
AcDbEntity
  8
7_ALL_ROUNDS
100
AcDbLine
 62
7
  6
CONTINUOUS
 10
203.7246197548
 20
89.1726574326
 11
203.7246197548
 21
194.9726574326
  0
LINE
  5
65D
100
AcDbEntity
  8
0
100
AcDbLine
 62
7
  6
CONTINUOUS
 10
213.7245197548
 20
158.0926574326
 11
213.4545197548
 21
157.8226574326
  0
LINE
  5
65E
100
AcDbEntity
  8
7_ALL_ROUNDS
100
AcDbLine
 62
7
  6
CONTINUOUS
 10
205.2446197548
 20
89.1726574326
 11
205.2446197548
 21
194.9726574326
  0
LINE
  5
65F
100
AcDbEntity
  8
7_ALL_ROUNDS
100
AcDbLine
 62
9
  6
CONTINUOUS
 10
198.2446197548
 20
134.8726574326
 11
197.0913201031
 21
134.8726574326
  0
LINE
  5
660
100
AcDbEntity
  8
0
100
AcDbLine
 62
7
  6
CONTINUOUS
 10
221.7255097548
 20
125.0526574326
 11
221.4555097548
 21
125.3226574326
  0
LINE
  5
661
100
AcDbEntity
  8
0
100
AcDbLine
 62
7
  6
CONTINUOUS
 10
207.7935297548
 20
165.7726574737
 11
207.7935297548
 21
166.1726574326
  0
LINE
  5
662
100
AcDbEntity
  8
0
100
AcDbLine
 62
7
  6
CONTINUOUS
 10
207.7935297548
 20
166.9726574326
 11
207.7935297548
 21
167.3726573915
  0
LINE
  5
663
100
AcDbEntity
  8
0
100
AcDbLine
 62
7
  6
CONTINUOUS
 10
209.2835297548
 20
164.8226574326
 11
209.2835297548
 21
166.1726574326
  0
LINE
  5
664
100
AcDbEntity
  8
0
100
AcDbLine
 62
7
  6
CONTINUOUS
 10
209.2835297548
 20
166.9726574326
 11
209.2835297548
 21
168.3226574326
  0
LINE
  5
665
100
AcDbEntity
  8
0
100
AcDbLine
 62
7
  6
CONTINUOUS
 10
209.8145397548
 20
171.0656574326
 11
209.8145397548
 21
121.0386574326
  0
LINE
  5
666
100
AcDbEntity
  8
7_ALL_ROUNDS
100
AcDbLine
 62
7
  6
CONTINUOUS
 10
209.8145397548
 20
121.0386574326
 11
209.8145397548
 21
113.0796574326
  0
LINE
  5
667
100
AcDbEntity
  8
0
100
AcDbLine
 62
7
  6
CONTINUOUS
 10
211.3535197548
 20
171.0656574326
 11
211.3535197548
 21
113.0796574326
  0
LINE
  5
668
100
AcDbEntity
  8
7_ALL_ROUNDS
100
AcDbLine
 62
7
  6
CONTINUOUS
 10
198.2446197548
 20
135.8726574326
 11
197.0226235672
 21
135.8726574326
  0
LINE
  5
669
100
AcDbEntity
  8
0
100
AcDbLine
 62
7
  6
CONTINUOUS
 10
228.3240057954
 20
138.0600374326
 11
220.3992057548
 21
138.0600374326
  0
LINE
  5
66A
100
AcDbEntity
  8
0
100
AcDbLine
 62
7
  6
CONTINUOUS
 10
213.3535197548
 20
161.9594087786
 11
213.3535197548
 21
156.1859060867
  0
LINE
  5
66B
100
AcDbEntity
  8
0
100
AcDbLine
 62
7
  6
CONTINUOUS
 10
213.4545197548
 20
160.3226574326
 11
213.4545197548
 21
157.8226574326
  0
LINE
  5
66C
100
AcDbEntity
  8
0
100
AcDbLine
 62
7
  6
CONTINUOUS
 10
213.7245197548
 20
160.0523194563
 11
213.7245197548
 21
158.0929954089
  0
LINE
  5
66D
100
AcDbEntity
  8
0
100
AcDbLine
 62
7
  6
CONTINUOUS
 10
215.6865097548
 20
159.1059974326
 11
215.6865097548
 21
159.3171974326
  0
LINE
  5
66E
100
AcDbEntity
  8
0
100
AcDbLine
 62
7
  6
CONTINUOUS
 10
215.6865097548
 20
161.6459974326
 11
215.6865097548
 21
161.8571974326
  0
LINE
  5
66F
100
AcDbEntity
  8
0
100
AcDbLine
 62
7
  6
CONTINUOUS
 10
216.1865097548
 20
158.8559974326
 11
216.1865097548
 21
159.5671974326
  0
LINE
  5
670
100
AcDbEntity
  8
0
100
AcDbLine
 62
7
  6
CONTINUOUS
 10
216.1865097548
 20
161.3959974326
 11
216.1865097548
 21
162.1071974326
  0
LINE
  5
671
100
AcDbEntity
  8
0
100
AcDbLine
 62
7
  6
CONTINUOUS
 10
217.7035197548
 20
171.0656574326
 11
217.7035197548
 21
113.0796574326
  0
LINE
  5
672
100
AcDbEntity
  8
0
100
AcDbLine
 62
7
  6
CONTINUOUS
 10
232.356910161
 20
143.03556439
 11
231.3601875097
 21
143.03556439
  0
LINE
  5
673
100
AcDbEntity
  8
0
100
AcDbLine
 62
7
  6
CONTINUOUS
 10
221.7200057548
 20
146.2202374326
 11
220.3992057548
 21
146.2202374326
  0
LINE
  5
674
100
AcDbEntity
  8
7_ALL_ROUNDS
100
AcDbLine
 62
7
  6
CONTINUOUS
 10
220.4323215148
 20
138.0600374326
 11
220.6246318619
 21
127.0425850262
  0
LINE
  5
675
100
AcDbEntity
  8
7_ALL_ROUNDS
100
AcDbLine
 62
9
  6
CONTINUOUS
 10
221.4321692099
 20
138.0600374326
 11
221.624479557
 21
127.0425850262
  0
LINE
  5
676
100
AcDbEntity
  8
0
100
AcDbLine
 62
7
  6
CONTINUOUS
 10
219.2425097548
 20
171.0656574326
 11
219.2425097548
 21
113.0796574326
  0
LINE
  5
677
100
AcDbEntity
  8
0
100
AcDbLine
 62
7
  6
CONTINUOUS
 10
219.7735197548
 20
168.3226574326
 11
219.7735197548
 21
166.9726574326
  0
LINE
  5
678
100
AcDbEntity
  8
0
100
AcDbLine
 62
7
  6
CONTINUOUS
 10
219.773519934
 20
164.8226574326
 11
219.7735197548
 21
166.1726574326
  0
LINE
  5
679
100
AcDbEntity
  8
0
100
AcDbLine
 62
7
  6
CONTINUOUS
 10
220.3992057548
 20
146.2202374326
 11
220.3992057548
 21
138.0600374326
  0
LINE
  5
67A
100
AcDbEntity
  8
0
100
AcDbLine
 62
7
  6
CONTINUOUS
 10
221.2425097548
 20
126.9594087786
 11
221.2425097548
 21
121.1859060867
  0
LINE
  5
67B
100
AcDbEntity
  8
0
100
AcDbLine
 62
7
  6
CONTINUOUS
 10
221.2635197548
 20
167.3726573922
 11
221.2635197548
 21
166.9726574326
  0
LINE
  5
67C
100
AcDbEntity
  8
0
100
AcDbLine
 62
7
  6
CONTINUOUS
 10
221.2635197548
 20
166.1726574326
 11
221.2635197548
 21
165.772658067
  0
LINE
  5
67D
100
AcDbEntity
  8
0
100
AcDbLine
 62
7
  6
CONTINUOUS
 10
221.4555097548
 20
125.3226574326
 11
221.4555097548
 21
122.8226574326
  0
LINE
  5
67E
100
AcDbEntity
  8
7_ALL_ROUNDS
100
AcDbLine
 62
9
  6
CONTINUOUS
 10
221.624479557
 20
126.0600374326
 11
221.624479557
 21
127.0425850262
  0
LINE
  5
67F
100
AcDbEntity
  8
0
100
AcDbLine
 62
7
  6
CONTINUOUS
 10
221.7200057548
 20
147.7832374326
 11
221.7200057548
 21
146.2202374326
  0
LINE
  5
680
100
AcDbEntity
  8
0
100
AcDbLine
 62
7
  6
CONTINUOUS
 10
221.7255097548
 20
125.0523194563
 11
221.7255097548
 21
123.0929954089
  0
LINE
  5
681
100
AcDbEntity
  8
0
100
AcDbLine
 62
7
  6
CONTINUOUS
 10
219.2425097548
 20
147.7832374326
 11
232.4425097548
 21
147.7832374326
  0
LINE
  5
682
100
AcDbEntity
  8
7_ALL_ROUNDS
100
AcDbLine
 62
9
  6
CONTINUOUS
 10
227.0987319932
 20
127.0425850262
 11
227.0987319932
 21
126.0600374326
  0
LINE
  5
683
100
AcDbEntity
  8
0
100
AcDbLine
 62
7
  6
CONTINUOUS
 10
228.3240057954
 20
138.0600374326
 11
228.3240057954
 21
147.7832374326
  0
LINE
  5
684
100
AcDbEntity
  8
7_ALL_ROUNDS
100
AcDbLine
 62
9
  6
CONTINUOUS
 10
227.2910423403
 20
138.0600374326
 11
227.0987319932
 21
127.0425850262
  0
LINE
  5
685
100
AcDbEntity
  8
7_ALL_ROUNDS
100
AcDbLine
 62
7
  6
CONTINUOUS
 10
228.2908900354
 20
138.0600374326
 11
228.0985796883
 21
127.0425850262
  0
LINE
  5
686
100
AcDbEntity
  8
7_ALL_ROUNDS
100
AcDbLine
 62
7
  6
CONTINUOUS
 10
205.2446197548
 20
155.3226574326
 11
209.8145397548
 21
155.4822425555
  0
LINE
  5
687
100
AcDbEntity
  8
0
100
AcDbLine
 62
7
  6
CONTINUOUS
 10
205.2446197548
 20
155.3226574326
 11
209.8145397548
 21
155.4822425555
  0
LINE
  5
688
100
AcDbEntity
  8
7_ALL_ROUNDS
100
AcDbLine
 62
9
  6
CONTINUOUS
 10
205.2446197548
 20
156.9201961645
 11
209.8145397548
 21
157.0797812874
  0
LINE
  5
689
100
AcDbEntity
  8
0
100
AcDbLine
 62
7
  6
CONTINUOUS
 10
211.3535197548
 20
156.1859060867
 11
213.3535197548
 21
156.1859060867
  0
LINE
  5
68A
100
AcDbEntity
  8
0
100
AcDbLine
 62
7
  6
CONTINUOUS
 10
213.7245197548
 20
160.0526574326
 11
213.4545197548
 21
160.3226574326
  0
LINE
  5
68B
100
AcDbEntity
  8
0
100
AcDbLine
 62
7
  6
CONTINUOUS
 10
232.4425097548
 20
163.5332374326
 11
232.4425097548
 21
147.7832374326
  0
LINE
  5
68C
100
AcDbEntity
  8
0
100
AcDbLine
 62
7
  6
CONTINUOUS
 10
221.7255097548
 20
123.0926574326
 11
221.4555097548
 21
122.8226574326
  0
LINE
  5
68D
100
AcDbEntity
  8
0
100
AcDbLine
 62
7
  6
CONTINUOUS
 10
211.3535197548
 20
157.6292817597
 11
213.3535197548
 21
157.6292817597
  0
LINE
  5
68E
100
AcDbEntity
  8
0
100
AcDbLine
 62
7
  6
CONTINUOUS
 10
213.3535197548
 20
157.8226574326
 11
213.4545197548
 21
157.8226574326
  0
LINE
  5
68F
100
AcDbEntity
  8
0
100
AcDbLine
 62
7
  6
CONTINUOUS
 10
216.1865097548
 20
158.8559974326
 11
217.7035197548
 21
158.8559974326
  0
LINE
  5
690
100
AcDbEntity
  8
0
100
AcDbLine
 62
7
  6
CONTINUOUS
 10
216.1865097548
 20
159.5671974326
 11
217.7035197548
 21
159.5671974326
  0
LINE
  5
691
100
AcDbEntity
  8
0
100
AcDbLine
 62
7
  6
CONTINUOUS
 10
213.3535197548
 20
160.3226574326
 11
213.4545197548
 21
160.3226574326
  0
LINE
  5
692
100
AcDbEntity
  8
0
100
AcDbLine
 62
7
  6
CONTINUOUS
 10
211.3535197548
 20
160.5160331056
 11
213.3535197548
 21
160.5160331056
  0
LINE
  5
693
100
AcDbEntity
  8
7_ALL_ROUNDS
100
AcDbLine
 62
9
  6
CONTINUOUS
 10
205.2446197548
 20
161.2251187007
 11
209.8145397548
 21
161.0655335778
  0
LINE
  5
694
100
AcDbEntity
  8
0
100
AcDbLine
 62
7
  6
CONTINUOUS
 10
216.1865097548
 20
158.8559974326
 11
215.6865097548
 21
159.1059974326
  0
LINE
  5
695
100
AcDbEntity
  8
0
100
AcDbLine
 62
7
  6
CONTINUOUS
 10
216.1865097548
 20
161.3959974326
 11
215.6865097548
 21
161.6459974326
  0
LINE
  5
696
100
AcDbEntity
  8
0
100
AcDbLine
 62
7
  6
CONTINUOUS
 10
207.7935297548
 20
165.7726574326
 11
209.2835297548
 21
164.8226574326
  0
LINE
  5
697
100
AcDbEntity
  8
0
100
AcDbLine
 62
7
  6
CONTINUOUS
 10
231.3601875097
 20
143.03556439
 11
230.4698834691
 21
147.7832374326
  0
LINE
  5
698
100
AcDbEntity
  8
0
100
AcDbLine
 62
7
  6
CONTINUOUS
 10
231.4666061204
 20
147.7832374326
 11
232.356910161
 21
143.03556439
  0
LINE
  5
699
100
AcDbEntity
  8
0
100
AcDbLine
 62
7
  6
CONTINUOUS
 10
216.1865097548
 20
161.3959974326
 11
217.7035197548
 21
161.3959974326
  0
LINE
  5
69A
100
AcDbEntity
  8
0
100
AcDbLine
 62
7
  6
CONTINUOUS
 10
211.3535197548
 20
161.9594087786
 11
213.3535197548
 21
161.9594087786
  0
LINE
  5
69B
100
AcDbEntity
  8
0
100
AcDbLine
 62
7
  6
CONTINUOUS
 10
216.1865097548
 20
162.1071974326
 11
217.7035197548
 21
162.1071974326
  0
LINE
  5
69C
100
AcDbEntity
  8
0
100
AcDbLine
 62
7
  6
CONTINUOUS
 10
209.8145397548
 20
163.1066574326
 11
211.3535197548
 21
163.1066574326
  0
LINE
  5
69D
100
AcDbEntity
  8
0
100
AcDbLine
 62
7
  6
CONTINUOUS
 10
217.7035197548
 20
163.1066574326
 11
219.2425097548
 21
163.1066574326
  0
LINE
  5
69E
100
AcDbEntity
  8
0
100
AcDbLine
 62
7
  6
CONTINUOUS
 10
219.2425097548
 20
163.5332374326
 11
232.4425097548
 21
163.5332374326
  0
LINE
  5
69F
100
AcDbEntity
  8
0
100
AcDbLine
 62
7
  6
CONTINUOUS
 10
211.3535197548
 20
164.2876574326
 11
217.7035197548
 21
164.2876574326
  0
LINE
  5
6A0
100
AcDbEntity
  8
0
100
AcDbLine
 62
7
  6
CONTINUOUS
 10
209.2835297548
 20
164.8226574326
 11
209.8145397548
 21
164.8226574326
  0
LINE
  5
6A1
100
AcDbEntity
  8
0
100
AcDbLine
 62
7
  6
CONTINUOUS
 10
219.2425097548
 20
164.8226574326
 11
219.7735199337
 21
164.8226574326
  0
LINE
  5
6A2
100
AcDbEntity
  8
7_ALL_ROUNDS
100
AcDbLine
 62
7
  6
CONTINUOUS
 10
205.2446197548
 20
162.8226574326
 11
209.8145397548
 21
162.6630723097
  0
LINE
  5
6A3
100
AcDbEntity
  8
0
100
AcDbLine
 62
7
  6
CONTINUOUS
 10
205.2446197548
 20
162.8226574326
 11
209.8145397548
 21
162.6630723097
  0
LINE
  5
6A4
100
AcDbEntity
  8
0
100
AcDbLine
 62
7
  6
CONTINUOUS
 10
207.7935297548
 20
166.1726574326
 11
209.8145397548
 21
166.1726574326
  0
LINE
  5
6A5
100
AcDbEntity
  8
0
100
AcDbLine
 62
7
  6
CONTINUOUS
 10
219.2425097548
 20
166.1726574326
 11
221.2635197548
 21
166.1726574326
  0
LINE
  5
6A6
100
AcDbEntity
  8
0
100
AcDbLine
 62
7
  6
CONTINUOUS
 10
207.7935297548
 20
166.9726574326
 11
209.8145397548
 21
166.9726574326
  0
LINE
  5
6A7
100
AcDbEntity
  8
0
100
AcDbLine
 62
7
  6
CONTINUOUS
 10
219.2425097548
 20
166.9726574326
 11
221.2635197548
 21
166.9726574326
  0
LINE
  5
6A8
100
AcDbEntity
  8
0
100
AcDbLine
 62
7
  6
CONTINUOUS
 10
209.2835297548
 20
168.3226574326
 11
209.8145397548
 21
168.3226574326
  0
LINE
  5
6A9
100
AcDbEntity
  8
0
100
AcDbLine
 62
7
  6
CONTINUOUS
 10
219.2425097548
 20
168.3226574326
 11
219.7735197548
 21
168.3226574326
  0
LINE
  5
6AA
100
AcDbEntity
  8
0
100
AcDbLine
 62
7
  6
CONTINUOUS
 10
221.2635197548
 20
167.3726574326
 11
219.7735197548
 21
168.3226574326
  0
LINE
  5
6AB
100
AcDbEntity
  8
0
100
AcDbLine
 62
7
  6
CONTINUOUS
 10
211.3535197548
 20
168.8576574326
 11
217.7035197548
 21
168.8576574326
  0
LINE
  5
6AC
100
AcDbEntity
  8
0
100
AcDbLine
 62
7
  6
CONTINUOUS
 10
209.8145397548
 20
171.0656574326
 11
211.3535197548
 21
171.0656574326
  0
LINE
  5
6AD
100
AcDbEntity
  8
0
100
AcDbLine
 62
7
  6
CONTINUOUS
 10
217.7035197548
 20
171.0656574326
 11
219.2425097548
 21
171.0656574326
  0
LINE
  5
6AE
100
AcDbEntity
  8
7_ALL_ROUNDS
100
AcDbLine
 62
9
  6
CONTINUOUS
 10
203.7246197548
 20
173.2954000248
 11
198.2446197548
 21
173.104034208
  0
LINE
  5
6AF
100
AcDbEntity
  8
7_ALL_ROUNDS
100
AcDbLine
 62
7
  6
CONTINUOUS
 10
203.7246197548
 20
175.2941816788
 11
198.2446197548
 21
175.102815862
  0
LINE
  5
6B0
100
AcDbEntity
  8
7_ALL_ROUNDS
100
AcDbLine
 62
9
  6
CONTINUOUS
 10
203.7246197548
 20
192.9726574326
 11
205.2446197548
 21
192.9726574326
  0
LINE
  5
6B1
100
AcDbEntity
  8
7_ALL_ROUNDS
100
AcDbLine
 62
7
  6
CONTINUOUS
 10
203.7246197548
 20
194.9726574326
 11
205.2446197548
 21
194.9726574326
  0
LINE
  5
6B2
100
AcDbEntity
  8
7_ALL_ROUNDS
100
AcDbLine
 62
7
  6
CONTINUOUS
 10
305.1257771536
 20
89.1726574326
 11
261.1257771536
 21
89.1726574326
  0
LINE
  5
6B3
100
AcDbEntity
  8
3_AXES_OTHER
100
AcDbLine
 62
7
  6
CENTER
 10
283.1257771536
 20
93.6726574326
 11
279.1125771536
 21
93.6726574326
  0
LINE
  5
6B4
100
AcDbEntity
  8
3_AXES_OTHER
100
AcDbLine
 62
7
  6
CENTER
 10
283.1257771536
 20
93.6726574326
 11
287.1389771536
 21
93.6726574326
  0
LINE
  5
6B5
100
AcDbEntity
  8
0
100
AcDbLine
 62
7
  6
CONTINUOUS
 10
281.6257771536
 20
98.1726574326
 11
284.6257771536
 21
98.1726574326
  0
LINE
  5
6B6
100
AcDbEntity
  8
3_AXES_OTHER
100
AcDbLine
 62
7
  6
CENTER
 10
283.1257771536
 20
100.4226574326
 11
278.6747873001
 21
100.4226574326
  0
LINE
  5
6B7
100
AcDbEntity
  8
3_AXES_OTHER
100
AcDbLine
 62
7
  6
CENTER
 10
283.1257771536
 20
100.4226574326
 11
287.4015052436
 21
100.4226574326
  0
LINE
  5
6B8
100
AcDbEntity
  8
0
100
AcDbLine
 62
7
  6
CONTINUOUS
 10
284.6257771536
 20
102.6726574326
 11
281.6257771536
 21
102.6726574326
  0
LINE
  5
6B9
100
AcDbEntity
  8
0
100
AcDbLine
 62
7
  6
CONTINUOUS
 10
272.7287771536
 20
113.0796574326
 11
277.8497771536
 21
113.0796574326
  0
LINE
  5
6BA
100
AcDbEntity
  8
0
100
AcDbLine
 62
7
  6
CONTINUOUS
 10
288.4017771536
 20
113.0796574326
 11
293.5227771536
 21
113.0796574326
  0
LINE
  5
6BB
100
AcDbEntity
  8
0
100
AcDbLine
 62
7
  6
CONTINUOUS
 10
261.0257771536
 20
122.6292817597
 11
263.5257771536
 21
121.1859060867
  0
LINE
  5
6BC
100
AcDbEntity
  8
7_ALL_ROUNDS
100
AcDbLine
 62
7
  6
CONTINUOUS
 10
259.1257771536
 20
91.1726574326
 11
259.1257771536
 21
192.9726574326
  0
LINE
  5
6BD
100
AcDbEntity
  8
0
100
AcDbLine
 62
7
  6
CONTINUOUS
 10
266.0257771536
 20
125.5160331056
 11
263.5257771536
 21
126.9594087786
  0
LINE
  5
6BE
100
AcDbEntity
  8
0
100
AcDbLine
 62
7
  6
CONTINUOUS
 10
260.6257771536
 20
163.1066574326
 11
260.6257771536
 21
121.0386574326
  0
LINE
  5
6BF
100
AcDbEntity
  8
0
100
AcDbLine
 62
7
  6
CONTINUOUS
 10
261.0257771536
 20
125.5160331056
 11
261.0257771536
 21
122.6292817597
  0
LINE
  5
6C0
100
AcDbEntity
  8
0
100
AcDbLine
 62
7
  6
CONTINUOUS
 10
266.0257771536
 20
122.6292817597
 11
266.0257771536
 21
125.5160331056
  0
LINE
  5
6C1
100
AcDbEntity
  8
0
100
AcDbLine
 62
7
  6
CONTINUOUS
 10
267.0214971536
 20
163.5332374326
 11
267.0214971536
 21
147.7832374326
  0
LINE
  5
6C2
100
AcDbEntity
  8
7_ALL_ROUNDS
100
AcDbLine
 62
7
  6
CONTINUOUS
 10
295.7512233513
 20
126.0600374326
 11
286.5177709558
 21
126.0600374326
  0
LINE
  5
6C3
100
AcDbEntity
  8
7_ALL_ROUNDS
100
AcDbLine
 62
9
  6
CONTINUOUS
 10
295.7512233513
 20
127.0425850262
 11
286.5177709558
 21
127.0425850262
  0
LINE
  5
6C4
100
AcDbEntity
  8
0
100
AcDbLine
 62
7
  6
CONTINUOUS
 10
300.2257771536
 20
122.6292817597
 11
302.7257771536
 21
121.1859060867
  0
LINE
  5
6C5
100
AcDbEntity
  8
0
100
AcDbLine
 62
7
  6
CONTINUOUS
 10
296.9764971536
 20
138.0600374326
 11
285.2924971536
 21
138.0600374326
  0
LINE
  5
6C6
100
AcDbEntity
  8
3_AXES_OTHER
100
AcDbLine
 62
7
  6
CENTER
 10
283.1257771536
 20
142.0726574326
 11
283.1257771536
 21
82.2898268922
  0
LINE
  5
6C7
100
AcDbEntity
  8
3_AXES_OTHER
100
AcDbLine
 62
7
  6
CENTER
 10
283.1257771536
 20
142.0726574326
 11
283.1257771536
 21
198.3999205669
  0
LINE
  5
6C8
100
AcDbEntity
  8
0
100
AcDbLine
 62
7
  6
CONTINUOUS
 10
303.1809371536
 20
162.1071974326
 11
302.9309371536
 21
161.8571974326
  0
LINE
  5
6C9
100
AcDbEntity
  8
0
100
AcDbLine
 62
7
  6
CONTINUOUS
 10
302.4697371536
 20
161.3959974326
 11
302.7197371536
 21
161.6459974326
  0
LINE
  5
6CA
100
AcDbEntity
  8
3_AXES_OTHER
100
AcDbLine
 62
7
  6
CENTER
 10
283.1257771536
 20
142.0726574326
 11
252.6373676946
 21
142.0726574326
  0
LINE
  5
6CB
100
AcDbEntity
  8
3_AXES_OTHER
100
AcDbLine
 62
7
  6
CENTER
 10
283.1257771536
 20
142.0726574326
 11
312.56533658
 21
142.0726574326
  0
LINE
  5
6CC
100
AcDbEntity
  8
0
100
AcDbLine
 62
7
  6
CONTINUOUS
 10
305.2257771536
 20
125.5160331056
 11
302.7257771536
 21
126.9594087786
  0
LINE
  5
6CD
100
AcDbEntity
  8
7_ALL_ROUNDS
100
AcDbLine
 62
7
  6
CONTINUOUS
 10
285.3256129136
 20
138.0600374326
 11
285.5179232607
 21
127.0425850262
  0
LINE
  5
6CE
100
AcDbEntity
  8
7_ALL_ROUNDS
100
AcDbLine
 62
9
  6
CONTINUOUS
 10
286.3254606087
 20
138.0600374326
 11
286.5177709558
 21
127.0425850262
  0
LINE
  5
6CF
100
AcDbEntity
  8
0
100
AcDbLine
 62
7
  6
CONTINUOUS
 10
285.2924971536
 20
138.0600374326
 11
285.2924971536
 21
147.7832374326
  0
LINE
  5
6D0
100
AcDbEntity
  8
7_ALL_ROUNDS
100
AcDbLine
 62
9
  6
CONTINUOUS
 10
286.5177709558
 20
126.0600374326
 11
286.5177709558
 21
127.0425850262
  0
LINE
  5
6D1
100
AcDbEntity
  8
0
100
AcDbLine
 62
7
  6
CONTINUOUS
 10
303.1809371536
 20
159.5671974326
 11
302.9309371536
 21
159.3171974326
  0
LINE
  5
6D2
100
AcDbEntity
  8
0
100
AcDbLine
 62
7
  6
CONTINUOUS
 10
302.4697371536
 20
158.8559974326
 11
302.7197371536
 21
159.1059974326
  0
LINE
  5
6D3
100
AcDbEntity
  8
0
100
AcDbLine
 62
7
  6
CONTINUOUS
 10
263.5257771536
 20
126.9594087786
 11
261.0257771536
 21
125.5160331056
  0
LINE
  5
6D4
100
AcDbEntity
  8
0
100
AcDbLine
 62
7
  6
CONTINUOUS
 10
289.6670071536
 20
143.03556439
 11
292.6019771536
 21
143.03556439
  0
LINE
  5
6D5
100
AcDbEntity
  8
0
100
AcDbLine
 62
7
  6
CONTINUOUS
 10
289.6670071536
 20
147.7832374326
 11
289.6670071536
 21
143.03556439
  0
LINE
  5
6D6
100
AcDbEntity
  8
0
100
AcDbLine
 62
7
  6
CONTINUOUS
 10
267.0214971536
 20
147.7832374326
 11
299.2814971536
 21
147.7832374326
  0
LINE
  5
6D7
100
AcDbEntity
  8
0
100
AcDbLine
 62
7
  6
CONTINUOUS
 10
292.6019771536
 20
147.7832374326
 11
292.6019771536
 21
143.03556439
  0
LINE
  5
6D8
100
AcDbEntity
  8
0
100
AcDbLine
 62
7
  6
CONTINUOUS
 10
263.5257771536
 20
121.1859060867
 11
266.0257771536
 21
122.6292817597
  0
LINE
  5
6D9
100
AcDbEntity
  8
7_ALL_ROUNDS
100
AcDbLine
 62
9
  6
CONTINUOUS
 10
295.7512233513
 20
127.0425850262
 11
295.7512233513
 21
126.0600374326
  0
LINE
  5
6DA
100
AcDbEntity
  8
0
100
AcDbLine
 62
7
  6
CONTINUOUS
 10
296.9764971536
 20
147.7832374326
 11
296.9764971536
 21
138.0600374326
  0
LINE
  5
6DB
100
AcDbEntity
  8
7_ALL_ROUNDS
100
AcDbLine
 62
9
  6
CONTINUOUS
 10
295.9435336984
 20
138.0600374326
 11
295.7512233513
 21
127.0425850262
  0
LINE
  5
6DC
100
AcDbEntity
  8
7_ALL_ROUNDS
100
AcDbLine
 62
7
  6
CONTINUOUS
 10
296.9433813936
 20
138.0600374326
 11
296.7510710465
 21
127.0425850262
  0
LINE
  5
6DD
100
AcDbEntity
  8
7_ALL_ROUNDS
100
AcDbLine
 62
7
  6
CONTINUOUS
 10
299.9678371536
 20
157.9415974326
 11
305.6828371536
 21
157.9415974326
  0
LINE
  5
6DE
100
AcDbEntity
  8
0
100
AcDbLine
 62
7
  6
CONTINUOUS
 10
299.2814971536
 20
147.7832374326
 11
299.2814971536
 21
163.5332374326
  0
LINE
  5
6DF
100
AcDbEntity
  8
7_ALL_ROUNDS
100
AcDbLine
 62
7
  6
CONTINUOUS
 10
299.9678371536
 20
163.0215974326
 11
299.9678371536
 21
157.9415974326
  0
LINE
  5
6E0
100
AcDbEntity
  8
0
100
AcDbLine
 62
7
  6
CONTINUOUS
 10
300.2257771536
 20
125.5160331056
 11
300.2257771536
 21
122.6292817597
  0
LINE
  5
6E1
100
AcDbEntity
  8
7_ALL_ROUNDS
100
AcDbLine
 62
9
  6
CONTINUOUS
 10
300.5993212029
 20
163.0215974326
 11
300.5993212029
 21
157.9415974326
  0
LINE
  5
6E2
100
AcDbEntity
  8
7_ALL_ROUNDS
100
AcDbLine
 62
9
  6
CONTINUOUS
 10
301.9540996382
 20
163.0215974326
 11
301.9540996382
 21
157.9415974326
  0
LINE
  5
6E3
100
AcDbEntity
  8
7_ALL_ROUNDS
100
AcDbLine
 62
7
  6
CONTINUOUS
 10
302.0826155889
 20
163.0215974326
 11
302.0826155889
 21
157.9415974326
  0
LINE
  5
6E4
100
AcDbEntity
  8
0
100
AcDbLine
 62
7
  6
CONTINUOUS
 10
302.4697371536
 20
162.1071974326
 11
302.4697371536
 21
161.3959974326
  0
LINE
  5
6E5
100
AcDbEntity
  8
0
100
AcDbLine
 62
7
  6
CONTINUOUS
 10
302.4697371536
 20
159.5671974326
 11
302.4697371536
 21
158.8559974326
  0
LINE
  5
6E6
100
AcDbEntity
  8
0
100
AcDbLine
 62
7
  6
CONTINUOUS
 10
302.7197371536
 20
161.8571974326
 11
302.7197371536
 21
161.6459974326
  0
LINE
  5
6E7
100
AcDbEntity
  8
0
100
AcDbLine
 62
7
  6
CONTINUOUS
 10
302.7197371536
 20
159.3171974326
 11
302.7197371536
 21
159.1059974326
  0
LINE
  5
6E8
100
AcDbEntity
  8
0
100
AcDbLine
 62
7
  6
CONTINUOUS
 10
302.9309371536
 20
159.1059974326
 11
302.9309371536
 21
159.3171974326
  0
LINE
  5
6E9
100
AcDbEntity
  8
0
100
AcDbLine
 62
7
  6
CONTINUOUS
 10
302.9309371536
 20
161.6459974326
 11
302.9309371536
 21
161.8571974326
  0
LINE
  5
6EA
100
AcDbEntity
  8
0
100
AcDbLine
 62
7
  6
CONTINUOUS
 10
302.4697371536
 20
158.8559974326
 11
303.1809371536
 21
158.8559974326
  0
LINE
  5
6EB
100
AcDbEntity
  8
0
100
AcDbLine
 62
7
  6
CONTINUOUS
 10
302.7197371536
 20
159.1059974326
 11
302.9309371536
 21
159.1059974326
  0
LINE
  5
6EC
100
AcDbEntity
  8
0
100
AcDbLine
 62
7
  6
CONTINUOUS
 10
302.9309371536
 20
159.3171974326
 11
302.7197371536
 21
159.3171974326
  0
LINE
  5
6ED
100
AcDbEntity
  8
0
100
AcDbLine
 62
7
  6
CONTINUOUS
 10
303.1809371536
 20
159.5671974326
 11
302.4697371536
 21
159.5671974326
  0
LINE
  5
6EE
100
AcDbEntity
  8
0
100
AcDbLine
 62
7
  6
CONTINUOUS
 10
302.4697371536
 20
161.3959974326
 11
303.1809371536
 21
161.3959974326
  0
LINE
  5
6EF
100
AcDbEntity
  8
0
100
AcDbLine
 62
7
  6
CONTINUOUS
 10
302.7197371536
 20
161.6459974326
 11
302.9309371536
 21
161.6459974326
  0
LINE
  5
6F0
100
AcDbEntity
  8
0
100
AcDbLine
 62
7
  6
CONTINUOUS
 10
302.9309371536
 20
161.8571974326
 11
302.7197371536
 21
161.8571974326
  0
LINE
  5
6F1
100
AcDbEntity
  8
0
100
AcDbLine
 62
7
  6
CONTINUOUS
 10
303.1809371536
 20
158.8559974326
 11
303.1809371536
 21
159.5671974326
  0
LINE
  5
6F2
100
AcDbEntity
  8
0
100
AcDbLine
 62
7
  6
CONTINUOUS
 10
303.1809371536
 20
161.3959974326
 11
303.1809371536
 21
162.1071974326
  0
LINE
  5
6F3
100
AcDbEntity
  8
0
100
AcDbLine
 62
7
  6
CONTINUOUS
 10
305.2257771536
 20
122.6292817597
 11
305.2257771536
 21
125.5160331056
  0
LINE
  5
6F4
100
AcDbEntity
  8
7_ALL_ROUNDS
100
AcDbLine
 62
9
  6
CONTINUOUS
 10
305.3028371536
 20
157.9415974326
 11
305.3028371536
 21
163.0215974326
  0
LINE
  5
6F5
100
AcDbEntity
  8
0
100
AcDbLine
 62
7
  6
CONTINUOUS
 10
305.6257771536
 20
121.0386574326
 11
305.6257771536
 21
157.9415974326
  0
LINE
  5
6F6
100
AcDbEntity
  8
0
100
AcDbLine
 62
7
  6
CONTINUOUS
 10
305.6257771536
 20
163.0215974326
 11
305.6257771536
 21
163.1066574326
  0
LINE
  5
6F7
100
AcDbEntity
  8
7_ALL_ROUNDS
100
AcDbLine
 62
7
  6
CONTINUOUS
 10
305.6828371536
 20
157.9415974326
 11
305.6828371536
 21
163.0215974326
  0
LINE
  5
6F8
100
AcDbEntity
  8
0
100
AcDbLine
 62
7
  6
CONTINUOUS
 10
302.7257771536
 20
126.9594087786
 11
300.2257771536
 21
125.5160331056
  0
LINE
  5
6F9
100
AcDbEntity
  8
0
100
AcDbLine
 62
7
  6
CONTINUOUS
 10
303.1809371536
 20
162.1071974326
 11
302.4697371536
 21
162.1071974326
  0
LINE
  5
6FA
100
AcDbEntity
  8
7_ALL_ROUNDS
100
AcDbLine
 62
7
  6
CONTINUOUS
 10
299.9678371536
 20
163.0215974326
 11
305.6828371536
 21
163.0215974326
  0
LINE
  5
6FB
100
AcDbEntity
  8
0
100
AcDbLine
 62
7
  6
CONTINUOUS
 10
299.2814971536
 20
163.5332374326
 11
267.0214971536
 21
163.5332374326
  0
LINE
  5
6FC
100
AcDbEntity
  8
7_ALL_ROUNDS
100
AcDbLine
 62
7
  6
CONTINUOUS
 10
307.1257771536
 20
192.9726574326
 11
307.1257771536
 21
91.1726574326
  0
LINE
  5
6FD
100
AcDbEntity
  8
0
100
AcDbLine
 62
7
  6
CONTINUOUS
 10
270.4221046498
 20
166.1726574326
 11
273.8294496573
 21
166.1726574326
  0
LINE
  5
6FE
100
AcDbEntity
  8
0
100
AcDbLine
 62
7
  6
CONTINUOUS
 10
292.4221046498
 20
166.1726574326
 11
295.8294496573
 21
166.1726574326
  0
LINE
  5
6FF
100
AcDbEntity
  8
0
100
AcDbLine
 62
7
  6
CONTINUOUS
 10
270.4221046498
 20
166.9726574326
 11
273.8294496573
 21
166.9726574326
  0
LINE
  5
700
100
AcDbEntity
  8
0
100
AcDbLine
 62
7
  6
CONTINUOUS
 10
292.4221046498
 20
166.9726574326
 11
295.8294496573
 21
166.9726574326
  0
LINE
  5
701
100
AcDbEntity
  8
0
100
AcDbLine
 62
7
  6
CONTINUOUS
 10
303.1809371536
 20
158.8559974326
 11
302.9309371536
 21
159.1059974326
  0
LINE
  5
702
100
AcDbEntity
  8
0
100
AcDbLine
 62
7
  6
CONTINUOUS
 10
302.4697371536
 20
159.5671974326
 11
302.7197371536
 21
159.3171974326
  0
LINE
  5
703
100
AcDbEntity
  8
0
100
AcDbLine
 62
7
  6
CONTINUOUS
 10
302.7257771536
 20
121.1859060867
 11
305.2257771536
 21
122.6292817597
  0
LINE
  5
704
100
AcDbEntity
  8
0
100
AcDbLine
 62
7
  6
CONTINUOUS
 10
293.5227771536
 20
171.0656574326
 11
288.4017771536
 21
171.0656574326
  0
LINE
  5
705
100
AcDbEntity
  8
0
100
AcDbLine
 62
7
  6
CONTINUOUS
 10
277.8497771536
 20
171.0656574326
 11
272.7287771536
 21
171.0656574326
  0
LINE
  5
706
100
AcDbEntity
  8
0
100
AcDbLine
 62
7
  6
CONTINUOUS
 10
303.1809371536
 20
161.3959974326
 11
302.9309371536
 21
161.6459974326
  0
LINE
  5
707
100
AcDbEntity
  8
0
100
AcDbLine
 62
7
  6
CONTINUOUS
 10
302.4697371536
 20
162.1071974326
 11
302.7197371536
 21
161.8571974326
  0
LINE
  5
708
100
AcDbEntity
  8
0
100
AcDbLine
 62
7
  6
CONTINUOUS
 10
281.6257771536
 20
181.4726574326
 11
284.6257771536
 21
181.4726574326
  0
LINE
  5
709
100
AcDbEntity
  8
3_AXES_OTHER
100
AcDbLine
 62
7
  6
CENTER
 10
283.1257771536
 20
183.7226574326
 11
278.0642265855
 21
183.7226574326
  0
LINE
  5
70A
100
AcDbEntity
  8
3_AXES_OTHER
100
AcDbLine
 62
7
  6
CENTER
 10
283.1257771536
 20
183.7226574326
 11
287.8598420932
 21
183.7226574326
  0
LINE
  5
70B
100
AcDbEntity
  8
0
100
AcDbLine
 62
7
  6
CONTINUOUS
 10
284.6257771536
 20
185.9726574326
 11
281.6257771536
 21
185.9726574326
  0
LINE
  5
70C
100
AcDbEntity
  8
3_AXES_OTHER
100
AcDbLine
 62
7
  6
CENTER
 10
283.1257771536
 20
190.4726574326
 11
279.1125771536
 21
190.4726574326
  0
LINE
  5
70D
100
AcDbEntity
  8
3_AXES_OTHER
100
AcDbLine
 62
7
  6
CENTER
 10
283.1257771536
 20
190.4726574326
 11
287.1389771536
 21
190.4726574326
  0
LINE
  5
70E
100
AcDbEntity
  8
7_ALL_ROUNDS
100
AcDbLine
 62
7
  6
CONTINUOUS
 10
261.1257771536
 20
194.9726574326
 11
305.1257771536
 21
194.9726574326
  0
LINE
  5
70F
100
AcDbEntity
  8
7_ALL_ROUNDS
100
AcDbLine
 62
7
  6
CONTINUOUS
 10
359.7965174495
 20
249.9072912584
 11
361.8471271149
 21
251.0915213386
  0
LINE
  5
710
100
AcDbEntity
  8
7_ALL_ROUNDS
100
AcDbLine
 62
7
  6
CONTINUOUS
 10
358.7713912511
 20
156.0016133817
 11
406.677009623
 21
128.3360487251
  0
LINE
  5
711
100
AcDbEntity
  8
7_ALL_ROUNDS
100
AcDbLine
 62
9
  6
CONTINUOUS
 10
359.7965174495
 20
156.5928316009
 11
404.202823308
 21
130.9481250374
  0
LINE
  5
712
100
AcDbEntity
  8
0
100
AcDbLine
 62
7
  6
CONTINUOUS
 10
382.9360339982
 20
147.0259388338
 11
384.2942291599
 21
146.241579142
  0
LINE
  5
713
100
AcDbEntity
  8
7_ALL_ROUNDS
100
AcDbLine
 62
7
  6
CONTINUOUS
 10
371.5173565941
 20
220.8666487029
 11
370.4783771084
 21
220.1798093702
  0
LINE
  5
714
100
AcDbEntity
  8
7_ALL_ROUNDS
100
AcDbLine
 62
9
  6
CONTINUOUS
 10
372.1517176267
 20
220.5244044947
 11
371.5123032866
 21
220.1017061404
  0
LINE
  5
715
100
AcDbEntity
  8
7_ALL_ROUNDS
100
AcDbLine
 62
9
  6
CONTINUOUS
 10
370.8627385751
 20
218.7215929629
 11
370.9334492532
 21
218.7624284829
  0
LINE
  5
716
100
AcDbEntity
  8
0
100
AcDbLine
 62
7
  6
CONTINUOUS
 10
396.5634885307
 20
232.0789569721
 11
395.6663608343
 21
231.5608644157
  0
LINE
  5
717
100
AcDbEntity
  8
7_ALL_ROUNDS
100
AcDbLine
 62
7
  6
CONTINUOUS
 10
358.7713911836
 20
247.6411455845
 11
358.7713911836
 21
156.0016134986
  0
LINE
  5
718
100
AcDbEntity
  8
7_ALL_ROUNDS
100
AcDbLine
 62
9
  6
CONTINUOUS
 10
359.7965174495
 20
244.1914410819
 11
359.7965174495
 21
156.5928316009
  0
LINE
  5
719
100
AcDbEntity
  8
7_ALL_ROUNDS
100
AcDbLine
 62
7
  6
CONTINUOUS
 10
371.5123032866
 20
166.1707471591
 11
391.6385093335
 21
154.5478337387
  0
LINE
  5
71A
100
AcDbEntity
  8
7_ALL_ROUNDS
100
AcDbLine
 62
7
  6
CONTINUOUS
 10
371.1653829732
 20
166.7858369668
 11
390.2572660652
 21
155.7602465653
  0
LINE
  5
71B
100
AcDbEntity
  8
0
100
AcDbLine
 62
7
  6
CONTINUOUS
 10
380.9075353259
 20
164.6838823978
 11
383.6462600748
 21
165.3997742222
  0
LINE
  5
71C
100
AcDbEntity
  8
0
100
AcDbLine
 62
7
  6
CONTINUOUS
 10
381.0838963453
 20
164.7717429413
 11
383.6360422176
 21
165.4388637848
  0
LWPOLYLINE
  5
71D
100
AcDbEntity
  8
7_ALL_ROUNDS
100
AcDbPolyline
 62
7
  6
CONTINUOUS
 90
3
 70
0
 10
386.5447991435
 20
166.217719903
 10
386.8025056868
 20
166.1180422804
 10
387.0636713178
 20
166.1112385264
  0
LINE
  5
71E
100
AcDbEntity
  8
7_ALL_ROUNDS
100
AcDbLine
 62
7
  6
CONTINUOUS
 10
370.5068519784
 20
186.896958948
 11
371.053329575
 21
178.0281669928
  0
LINE
  5
71F
100
AcDbEntity
  8
7_ALL_ROUNDS
100
AcDbLine
 62
7
  6
CONTINUOUS
 10
370.0989512249
 20
219.286134367
 11
370.0989512249
 21
168.6187446969
  0
LINE
  5
720
100
AcDbEntity
  8
0
100
AcDbLine
 62
7
  6
CONTINUOUS
 10
383.4129647514
 20
165.9788339965
 11
380.9449162653
 21
165.3336958774
  0
LINE
  5
721
100
AcDbEntity
  8
7_ALL_ROUNDS
100
AcDbLine
 62
7
  6
CONTINUOUS
 10
374.6917743409
 20
173.0628590333
 11
386.5447264154
 21
166.2177618791
  0
LINE
  5
722
100
AcDbEntity
  8
7_ALL_ROUNDS
100
AcDbLine
 62
9
  6
CONTINUOUS
 10
374.5882700469
 20
173.2916657856
 11
386.4412222296
 21
166.4465685688
  0
LINE
  5
723
100
AcDbEntity
  8
0
100
AcDbLine
 62
7
  6
CONTINUOUS
 10
371.053329575
 20
177.5383332026
 11
374.0883238948
 21
175.7856195452
  0
LINE
  5
724
100
AcDbEntity
  8
0
100
AcDbLine
 62
7
  6
CONTINUOUS
 10
388.0285882318
 20
167.7350965074
 11
391.5594262294
 21
165.696032401
  0
LINE
  5
725
100
AcDbEntity
  8
0
100
AcDbLine
 62
7
  6
CONTINUOUS
 10
371.3223579828
 20
177.6936975015
 11
374.0883238948
 21
176.096348143
  0
LINE
  5
726
100
AcDbEntity
  8
0
100
AcDbLine
 62
7
  6
CONTINUOUS
 10
388.2929207313
 20
167.8931727002
 11
391.8284546372
 21
165.8513966999
  0
LINE
  5
727
100
AcDbEntity
  8
0
100
AcDbLine
 62
7
  6
CONTINUOUS
 10
371.053329575
 20
178.0281669928
 11
374.0883238948
 21
176.2754533354
  0
LINE
  5
728
100
AcDbEntity
  8
0
100
AcDbLine
 62
7
  6
CONTINUOUS
 10
388.0285882318
 20
168.2249302976
 11
391.5594262294
 21
166.1858661912
  0
LINE
  5
729
100
AcDbEntity
  8
7_ALL_ROUNDS
100
AcDbLine
 62
9
  6
CONTINUOUS
 10
386.4412222296
 20
169.5181966058
 11
374.5882700469
 21
176.3632938226
  0
LINE
  5
72A
100
AcDbEntity
  8
7_ALL_ROUNDS
100
AcDbLine
 62
7
  6
CONTINUOUS
 10
374.5986948532
 20
173.1237333995
 11
374.6921735524
 21
173.0626292234
  0
LINE
  5
72B
100
AcDbEntity
  8
7_ALL_ROUNDS
100
AcDbLine
 62
7
  6
CONTINUOUS
 10
374.3511882706
 20
173.370348908
 11
374.5986948532
 21
173.1237333995
  0
LINE
  5
72C
100
AcDbEntity
  8
0
100
AcDbLine
 62
7
  6
CONTINUOUS
 10
378.4246429489
 20
168.4152657473
 11
380.9075353259
 21
164.6838823978
  0
LINE
  5
72D
100
AcDbEntity
  8
0
100
AcDbLine
 62
7
  6
CONTINUOUS
 10
378.6010039684
 20
168.5031262908
 11
381.0838963453
 21
164.7717429413
  0
LINE
  5
72E
100
AcDbEntity
  8
0
100
AcDbLine
 62
7
  6
CONTINUOUS
 10
380.9449162653
 20
165.3336958774
 11
378.7074154815
 21
168.6962955802
  0
LINE
  5
72F
100
AcDbEntity
  8
7_ALL_ROUNDS
100
AcDbLine
 62
7
  6
CONTINUOUS
 10
374.1728867308
 20
173.6872943015
 11
374.3511882706
 21
173.370348908
  0
LINE
  5
730
100
AcDbEntity
  8
7_ALL_ROUNDS
100
AcDbLine
 62
7
  6
CONTINUOUS
 10
374.0883243582
 20
174.1085158204
 11
374.0917630718
 21
174.0255538167
  0
LINE
  5
731
100
AcDbEntity
  8
7_ALL_ROUNDS
100
AcDbLine
 62
7
  6
CONTINUOUS
 10
370.8627385751
 20
218.7215929629
 11
370.8627385751
 21
189.0458291732
  0
LINE
  5
732
100
AcDbEntity
  8
7_ALL_ROUNDS
100
AcDbLine
 62
7
  6
CONTINUOUS
 10
370.9334492532
 20
218.7624284829
 11
370.9334492532
 21
189.0866646932
  0
LINE
  5
733
100
AcDbEntity
  8
7_ALL_ROUNDS
100
AcDbLine
 62
7
  6
CONTINUOUS
 10
374.0883238948
 20
176.3634852703
 11
374.0883238948
 21
174.1081226686
  0
LINE
  5
734
100
AcDbEntity
  8
7_ALL_ROUNDS
100
AcDbLine
 62
9
  6
CONTINUOUS
 10
374.2347705042
 20
176.1593076703
 11
374.2347705042
 21
173.9039449435
  0
LINE
  5
735
100
AcDbEntity
  8
7_ALL_ROUNDS
100
AcDbLine
 62
7
  6
CONTINUOUS
 10
371.053329575
 20
177.5383332026
 11
370.5068533208
 21
168.0386351801
  0
LINE
  5
736
100
AcDbEntity
  8
7_ALL_ROUNDS
100
AcDbLine
 62
9
  6
CONTINUOUS
 10
392.323813465
 20
208.8745463689
 11
391.6385093335
 21
208.4787927201
  0
LINE
  5
737
100
AcDbEntity
  8
7_ALL_ROUNDS
100
AcDbLine
 62
7
  6
CONTINUOUS
 10
411.2031804417
 20
222.5883283747
 11
404.202823308
 21
218.5467345184
  0
LINE
  5
738
100
AcDbEntity
  8
7_ALL_ROUNDS
100
AcDbLine
 62
9
  6
CONTINUOUS
 10
386.7886052628
 20
170.1269434705
 11
374.93565308
 21
176.9720406873
  0
LINE
  5
739
100
AcDbEntity
  8
7_ALL_ROUNDS
100
AcDbLine
 62
7
  6
CONTINUOUS
 10
387.2169564646
 20
170.360401724
 11
375.1828163442
 21
177.3101352397
  0
LINE
  5
73A
100
AcDbEntity
  8
0
100
AcDbLine
 62
7
  6
CONTINUOUS
 10
378.4246340335
 20
178.0117749223
 11
378.7074058856
 21
177.4612878617
  0
LINE
  5
73B
100
AcDbEntity
  8
0
100
AcDbLine
 62
7
  6
CONTINUOUS
 10
378.6356895739
 20
178.0600698689
 11
378.883766928
 21
177.5771244398
  0
LINE
  5
73C
100
AcDbEntity
  8
7_ALL_ROUNDS
100
AcDbLine
 62
7
  6
CONTINUOUS
 10
374.0917630718
 20
174.0255538167
 11
374.1728867308
 21
173.6872943015
  0
LINE
  5
73D
100
AcDbEntity
  8
0
100
AcDbLine
 62
7
  6
CONTINUOUS
 10
399.5157474159
 20
230.5637161958
 11
398.937755987
 21
229.6716289316
  0
LINE
  5
73E
100
AcDbEntity
  8
7_ALL_ROUNDS
100
AcDbLine
 62
9
  6
CONTINUOUS
 10
393.7371653746
 20
206.4265487433
 11
393.0518613952
 21
206.0307951823
  0
LINE
  5
73F
100
AcDbEntity
  8
0
100
AcDbLine
 62
7
  6
CONTINUOUS
 10
378.7074058856
 20
177.4612878617
 11
380.9449098401
 21
177.9732864282
  0
LINE
  5
740
100
AcDbEntity
  8
0
100
AcDbLine
 62
7
  6
CONTINUOUS
 10
378.883766928
 20
177.5771244398
 11
381.1212708824
 21
178.0891230063
  0
LINE
  5
741
100
AcDbEntity
  8
0
100
AcDbLine
 62
7
  6
CONTINUOUS
 10
380.9075299289
 20
178.5799254887
 11
378.4246340335
 21
178.0117749223
  0
LINE
  5
742
100
AcDbEntity
  8
7_ALL_ROUNDS
100
AcDbLine
 62
7
  6
CONTINUOUS
 10
371.1653829732
 20
187.2769408106
 11
390.2572660652
 21
176.2513504091
  0
LINE
  5
743
100
AcDbEntity
  8
7_ALL_ROUNDS
100
AcDbLine
 62
7
  6
CONTINUOUS
 10
372.029464764
 20
187.7759493083
 11
391.1213478561
 21
176.7503589068
  0
LINE
  5
744
100
AcDbEntity
  8
0
100
AcDbLine
 62
7
  6
CONTINUOUS
 10
370.8627385751
 20
189.0458291732
 11
392.288074045
 21
176.6726666115
  0
LINE
  5
745
100
AcDbEntity
  8
0
100
AcDbLine
 62
7
  6
CONTINUOUS
 10
370.9334492532
 20
189.0866646932
 11
392.288074045
 21
176.7543376515
  0
LINE
  5
746
100
AcDbEntity
  8
0
100
AcDbLine
 62
7
  6
CONTINUOUS
 10
380.9449098401
 20
177.9732864282
 11
383.4129551555
 21
174.743826278
  0
LINE
  5
747
100
AcDbEntity
  8
0
100
AcDbLine
 62
7
  6
CONTINUOUS
 10
381.1212708824
 20
178.0891230063
 11
383.5443953072
 21
174.9184422575
  0
LINE
  5
748
100
AcDbEntity
  8
0
100
AcDbLine
 62
7
  6
CONTINUOUS
 10
383.6462511593
 20
174.9962833972
 11
380.9075299289
 21
178.5799254887
  0
LINE
  5
749
100
AcDbEntity
  8
0
100
AcDbLine
 62
7
  6
CONTINUOUS
 10
383.6462600748
 20
165.3997742222
 11
383.4129647514
 21
165.9788339965
  0
LINE
  5
74A
100
AcDbEntity
  8
0
100
AcDbLine
 62
7
  6
CONTINUOUS
 10
370.8627385751
 20
189.0458291732
 11
370.9334492532
 21
189.0866646932
  0
LINE
  5
74B
100
AcDbEntity
  8
7_ALL_ROUNDS
100
AcDbLine
 62
7
  6
CONTINUOUS
 10
370.6795190454
 20
187.3347401738
 11
371.5293665709
 21
187.8255283625
  0
LINE
  5
74C
100
AcDbEntity
  8
7_ALL_ROUNDS
100
AcDbLine
 62
9
  6
CONTINUOUS
 10
371.1653829732
 20
187.2769408106
 11
372.029464764
 21
187.7759493083
  0
LINE
  5
74D
100
AcDbEntity
  8
0
100
AcDbLine
 62
7
  6
CONTINUOUS
 10
411.2031804417
 20
208.8025152618
 11
417.1444118254
 21
212.2335850731
  0
LINE
  5
74E
100
AcDbEntity
  8
7_ALL_ROUNDS
100
AcDbLine
 62
7
  6
CONTINUOUS
 10
388.0285882318
 20
168.2249302976
 11
387.9717334643
 21
169.1634356086
  0
LINE
  5
74F
100
AcDbEntity
  8
7_ALL_ROUNDS
100
AcDbLine
 62
9
  6
CONTINUOUS
 10
386.7947217723
 20
166.6505547212
 11
386.7947217723
 21
168.9059174479
  0
LINE
  5
750
100
AcDbEntity
  8
7_ALL_ROUNDS
100
AcDbLine
 62
9
  6
CONTINUOUS
 10
387.4956043482
 20
166.6470224279
 11
387.4956043482
 21
168.9023851547
  0
LINE
  5
751
100
AcDbEntity
  8
7_ALL_ROUNDS
100
AcDbLine
 62
7
  6
CONTINUOUS
 10
388.2213317856
 20
167.8503610595
 11
388.2213317856
 21
168.1136206134
  0
LWPOLYLINE
  5
752
100
AcDbEntity
  8
7_ALL_ROUNDS
100
AcDbPolyline
 62
7
  6
CONTINUOUS
 90
4
 70
0
 10
374.4249887932
 20
177.0152378158
 10
374.2559780315
 20
176.8665474529
 10
374.1311506045
 20
176.6373439566
 10
374.0883239142
 20
176.3635658592
  0
LINE
  5
753
100
AcDbEntity
  8
0
100
AcDbLine
 62
7
  6
CONTINUOUS
 10
411.2448290312
 20
203.2548608459
 11
412.3330592963
 21
203.8833154152
  0
LINE
  5
754
100
AcDbEntity
  8
7_ALL_ROUNDS
100
AcDbLine
 62
7
  6
CONTINUOUS
 10
391.0129486328
 20
175.0546581464
 11
391.5594262294
 21
166.1858661912
  0
LINE
  5
755
100
AcDbEntity
  8
7_ALL_ROUNDS
100
AcDbLine
 62
7
  6
CONTINUOUS
 10
391.8284546372
 20
156.6672895132
 11
391.8284546372
 21
165.8513966999
  0
LINE
  5
756
100
AcDbEntity
  8
7_ALL_ROUNDS
100
AcDbLine
 62
7
  6
CONTINUOUS
 10
391.8284546372
 20
166.3412304901
 11
391.8284546372
 21
175.5256140564
  0
LINE
  5
757
100
AcDbEntity
  8
7_ALL_ROUNDS
100
AcDbLine
 62
7
  6
CONTINUOUS
 10
392.288074045
 20
176.6726666115
 11
392.288074045
 21
206.3484304012
  0
LINE
  5
758
100
AcDbEntity
  8
7_ALL_ROUNDS
100
AcDbLine
 62
7
  6
CONTINUOUS
 10
393.0518613952
 20
155.3634055122
 11
393.0518613952
 21
206.0307951823
  0
LINE
  5
759
100
AcDbEntity
  8
7_ALL_ROUNDS
100
AcDbLine
 62
7
  6
CONTINUOUS
 10
388.0285882318
 20
167.7350965074
 11
387.9717318911
 21
166.7285896164
  0
LINE
  5
75A
100
AcDbEntity
  8
7_ALL_ROUNDS
100
AcDbLine
 62
7
  6
CONTINUOUS
 10
391.5594262294
 20
165.696032401
 11
391.0129499752
 21
156.1963343785
  0
LINE
  5
75B
100
AcDbEntity
  8
0
100
AcDbLine
 62
7
  6
CONTINUOUS
 10
378.7074058856
 20
177.4612878617
 11
378.883766928
 21
177.5771244398
  0
LINE
  5
75C
100
AcDbEntity
  8
7_ALL_ROUNDS
100
AcDbLine
 62
7
  6
CONTINUOUS
 10
375.013036882
 20
177.3789652104
 11
374.4244654196
 21
177.0149155033
  0
LINE
  5
75D
100
AcDbEntity
  8
7_ALL_ROUNDS
100
AcDbLine
 62
9
  6
CONTINUOUS
 10
375.3376753545
 20
177.2207039348
 11
374.93565308
 21
176.9720406873
  0
LINE
  5
75E
100
AcDbEntity
  8
0
100
AcDbLine
 62
7
  6
CONTINUOUS
 10
371.3223579828
 20
177.6936975015
 11
371.053329575
 21
177.5383332026
  0
LINE
  5
75F
100
AcDbEntity
  8
7_ALL_ROUNDS
100
AcDbLine
 62
7
  6
CONTINUOUS
 10
393.7376429464
 20
206.4257217592
 11
393.7376429464
 21
155.1564517182
  0
LINE
  5
760
100
AcDbEntity
  8
0
100
AcDbLine
 62
7
  6
CONTINUOUS
 10
383.4129551555
 20
174.743826278
 11
383.6462511593
 21
174.9962833972
  0
LINE
  5
761
100
AcDbEntity
  8
0
100
AcDbLine
 62
7
  6
CONTINUOUS
 10
378.7074154815
 20
168.6962955802
 11
378.4246429489
 21
168.4152657473
  0
LINE
  5
762
100
AcDbEntity
  8
0
100
AcDbLine
 62
7
  6
CONTINUOUS
 10
378.7424274876
 20
168.6436782306
 11
378.6010039684
 21
168.5031262908
  0
LINE
  5
763
100
AcDbEntity
  8
0
100
AcDbLine
 62
7
  6
CONTINUOUS
 10
380.9449098401
 20
177.9732864282
 11
381.1212708824
 21
178.0891230063
  0
LINE
  5
764
100
AcDbEntity
  8
0
100
AcDbLine
 62
7
  6
CONTINUOUS
 10
412.3330592963
 20
196.5968849596
 11
417.1444118254
 21
199.3754480803
  0
LINE
  5
765
100
AcDbEntity
  8
7_ALL_ROUNDS
100
AcDbLine
 62
9
  6
CONTINUOUS
 10
391.1213478561
 20
176.7503589068
 11
390.2572660652
 21
176.2513504091
  0
LINE
  5
766
100
AcDbEntity
  8
7_ALL_ROUNDS
100
AcDbLine
 62
9
  6
CONTINUOUS
 10
391.8284546372
 20
175.5256140564
 11
391.0129486328
 21
175.0546581464
  0
LINE
  5
767
100
AcDbEntity
  8
0
100
AcDbLine
 62
7
  6
CONTINUOUS
 10
412.3330592963
 20
175.5822880202
 11
413.4644301462
 21
174.1747712451
  0
LINE
  5
768
100
AcDbEntity
  8
7_ALL_ROUNDS
100
AcDbLine
 62
9
  6
CONTINUOUS
 10
404.202823308
 20
130.9481250374
 11
404.202823308
 21
218.5467345184
  0
LINE
  5
769
100
AcDbEntity
  8
0
100
AcDbLine
 62
7
  6
CONTINUOUS
 10
388.2929207313
 20
167.8931727002
 11
388.0285882318
 21
167.7350965074
  0
LINE
  5
76A
100
AcDbEntity
  8
7_ALL_ROUNDS
100
AcDbLine
 62
9
  6
CONTINUOUS
 10
387.2109317052
 20
170.370834322
 11
386.7886052628
 21
170.1269434705
  0
LINE
  5
76B
100
AcDbEntity
  8
7_ALL_ROUNDS
100
AcDbLine
 62
9
  6
CONTINUOUS
 10
387.9657090326
 20
169.173867639
 11
387.4956043482
 21
168.9023851547
  0
LINE
  5
76C
100
AcDbEntity
  8
7_ALL_ROUNDS
100
AcDbLine
 62
7
  6
CONTINUOUS
 10
358.7713817047
 20
156.00160787
 11
359.7965174495
 21
156.5928316009
  0
LINE
  5
76D
100
AcDbEntity
  8
0
100
AcDbLine
 62
7
  6
CONTINUOUS
 10
378.4246429489
 20
168.4152657473
 11
378.6010039684
 21
168.5031262908
  0
LINE
  5
76E
100
AcDbEntity
  8
7_ALL_ROUNDS
100
AcDbLine
 62
7
  6
CONTINUOUS
 10
358.7713912279
 20
156.0018405035
 11
358.7741866463
 21
156.0031955279
  0
LINE
  5
76F
100
AcDbEntity
  8
7_ALL_ROUNDS
100
AcDbLine
 62
7
  6
CONTINUOUS
 10
391.5809672638
 20
207.5731752516
 11
371.5698453562
 21
219.1296274132
  0
LINE
  5
770
100
AcDbEntity
  8
7_ALL_ROUNDS
100
AcDbLine
 62
7
  6
CONTINUOUS
 10
391.6385093335
 20
208.4787927201
 11
371.5123032866
 21
220.1017061404
  0
LINE
  5
771
100
AcDbEntity
  8
7_ALL_ROUNDS
100
AcDbLine
 62
9
  6
CONTINUOUS
 10
409.1525707763
 20
128.0907612612
 11
409.1525707763
 21
221.4040982945
  0
LINE
  5
772
100
AcDbEntity
  8
0
100
AcDbLine
 62
7
  6
CONTINUOUS
 10
411.2031804417
 20
222.5883283747
 11
411.2031804417
 21
129.2749913414
  0
LINE
  5
773
100
AcDbEntity
  8
0
100
AcDbLine
 62
7
  6
CONTINUOUS
 10
411.2448290312
 20
203.2548608459
 11
411.2448290312
 21
168.9109810355
  0
LINE
  5
774
100
AcDbEntity
  8
0
100
AcDbLine
 62
7
  6
CONTINUOUS
 10
391.5594262294
 20
166.1858661912
 11
391.8284546372
 21
166.3412304901
  0
LINE
  5
775
100
AcDbEntity
  8
0
100
AcDbLine
 62
7
  6
CONTINUOUS
 10
391.8284546372
 20
165.8513966999
 11
391.5594262294
 21
165.696032401
  0
LINE
  5
776
100
AcDbEntity
  8
7_ALL_ROUNDS
100
AcDbLine
 62
9
  6
CONTINUOUS
 10
387.9818999457
 20
166.9085909477
 11
387.4956043482
 21
166.6470224279
  0
LINE
  5
777
100
AcDbEntity
  8
7_ALL_ROUNDS
100
AcDbLine
 62
7
  6
CONTINUOUS
 10
387.9321599691
 20
166.5354193567
 11
387.2772462584
 21
166.1831545804
  0
LINE
  5
778
100
AcDbEntity
  8
0
100
AcDbLine
 62
7
  6
CONTINUOUS
 10
380.9075353259
 20
164.6838823978
 11
381.0838963453
 21
164.7717429413
  0
LINE
  5
779
100
AcDbEntity
  8
7_ALL_ROUNDS
100
AcDbLine
 62
7
  6
CONTINUOUS
 10
387.0636713178
 20
166.1112385264
 11
387.2778097509
 21
166.1834594323
  0
LINE
  5
77A
100
AcDbEntity
  8
7_ALL_ROUNDS
100
AcDbLine
 62
7
  6
CONTINUOUS
 10
371.6759113734
 20
220.7991833016
 11
392.3234293841
 21
208.87521146
  0
LINE
  5
77B
100
AcDbEntity
  8
0
100
AcDbLine
 62
7
  6
CONTINUOUS
 10
412.3330592963
 20
203.8833154152
 11
412.3330592963
 21
169.5394356049
  0
LINE
  5
77C
100
AcDbEntity
  8
0
100
AcDbLine
 62
7
  6
CONTINUOUS
 10
413.4644301462
 20
174.1747712451
 11
413.4644301462
 21
171.8180573232
  0
LINE
  5
77D
100
AcDbEntity
  8
0
100
AcDbLine
 62
7
  6
CONTINUOUS
 10
412.3330592963
 20
173.521402925
 11
413.4644301462
 21
174.1747712451
  0
LINE
  5
77E
100
AcDbEntity
  8
0
100
AcDbLine
 62
7
  6
CONTINUOUS
 10
411.2031804417
 20
203.3228144756
 11
411.2448290312
 21
203.2548608459
  0
LINE
  5
77F
100
AcDbEntity
  8
0
100
AcDbLine
 62
7
  6
CONTINUOUS
 10
411.2063756439
 20
203.3244358157
 11
411.2448290312
 21
203.2548608459
  0
LINE
  5
780
100
AcDbEntity
  8
0
100
AcDbLine
 62
7
  6
CONTINUOUS
 10
417.1444118254
 20
212.2335850731
 11
417.1444118254
 21
199.3754480803
  0
LINE
  5
781
100
AcDbEntity
  8
0
100
AcDbLine
 62
7
  6
CONTINUOUS
 10
411.2448290312
 20
168.9109810355
 11
411.2038743743
 21
168.8841916986
  0
LINE
  5
782
100
AcDbEntity
  8
0
100
AcDbLine
 62
7
  6
CONTINUOUS
 10
411.2448290312
 20
168.9109810355
 11
411.2031804417
 21
168.8853455686
  0
LINE
  5
783
100
AcDbEntity
  8
0
100
AcDbLine
 62
7
  6
CONTINUOUS
 10
412.3330592963
 20
169.5394356049
 11
411.8260873197
 21
169.2273851005
  0
LINE
  5
784
100
AcDbEntity
  8
0
100
AcDbLine
 62
7
  6
CONTINUOUS
 10
412.3330592963
 20
171.1646890031
 11
413.4644301462
 21
171.8180573232
  0
LINE
  5
785
100
AcDbEntity
  8
0
100
AcDbLine
 62
7
  6
CONTINUOUS
 10
411.2448290312
 20
168.9109810355
 11
412.3330592963
 21
169.5394356049
  0
LINE
  5
786
100
AcDbEntity
  8
0
100
AcDbLine
 62
7
  6
CONTINUOUS
 10
411.2031804417
 20
168.8670038192
 11
411.8263694745
 21
169.2268963968
  0
LINE
  5
787
100
AcDbEntity
  8
7_ALL_ROUNDS
100
AcDbLine
 62
9
  6
CONTINUOUS
 10
391.0129499752
 20
156.1963343785
 11
391.8284546372
 21
156.6672895132
  0
LINE
  5
788
100
AcDbEntity
  8
7_ALL_ROUNDS
100
AcDbLine
 62
7
  6
CONTINUOUS
 10
390.771598917
 20
155.7188880472
 11
391.6214460491
 21
156.2096760087
  0
LINE
  5
789
100
AcDbEntity
  8
0
100
AcDbLine
 62
7
  6
CONTINUOUS
 10
382.9360339982
 20
226.0524569863
 11
384.2942291599
 21
225.2680972945
  0
LINE
  5
78A
100
AcDbEntity
  8
7_ALL_ROUNDS
100
AcDbLine
 62
9
  6
CONTINUOUS
 10
393.7376429464
 20
155.7060024271
 11
393.0518613952
 21
155.3634055122
  0
LINE
  5
78B
100
AcDbEntity
  8
7_ALL_ROUNDS
100
AcDbLine
 62
7
  6
CONTINUOUS
 10
393.7168431397
 20
154.986056139
 11
392.6027487292
 21
154.4294863286
  0
LINE
  5
78C
100
AcDbEntity
  8
7_ALL_ROUNDS
100
AcDbLine
 62
9
  6
CONTINUOUS
 10
404.202823308
 20
218.5467345184
 11
359.7965174495
 21
244.1914410819
  0
LINE
  5
78D
100
AcDbEntity
  8
0
100
AcDbLine
 62
7
  6
CONTINUOUS
 10
411.2031804417
 20
215.6646548843
 11
417.1444118254
 21
212.2335850731
  0
LINE
  5
78E
100
AcDbEntity
  8
7_ALL_ROUNDS
100
AcDbLine
 62
9
  6
CONTINUOUS
 10
409.1525707763
 20
221.4040982945
 11
359.7965174495
 21
249.9072912584
  0
LINE
  5
78F
100
AcDbEntity
  8
0
100
AcDbLine
 62
7
  6
CONTINUOUS
 10
361.8471271149
 20
251.0915213386
 11
411.2031804417
 21
222.5883283747
  0
LINE
  5
790
100
AcDbEntity
  8
0
100
AcDbLine
 62
7
  6
CONTINUOUS
 10
398.541985794
 20
232.2498792373
 11
396.8571164527
 21
232.1629777545
  0
LINE
  5
791
100
AcDbEntity
  8
7_ALL_ROUNDS
100
AcDbLine
 62
7
  6
CONTINUOUS
 10
409.1525707763
 20
128.0907612612
 11
411.2031804417
 21
129.2749913414
  0
LWPOLYLINE
  5
792
100
AcDbEntity
  8
0
100
AcDbPolyline
 62
7
  6
CONTINUOUS
 90
2
 70
1
 43
0.25
 10
320.7458196371
 20
11.748931333
 42
1.0
 10
323.2858196371
 20
11.748931333
 42
1.0
  0
LWPOLYLINE
  5
793
100
AcDbEntity
  8
0
100
AcDbPolyline
 62
7
  6
CONTINUOUS
 90
2
 70
1
 43
0.25
 10
321.3808196371
 20
11.748931333
 42
1.0
 10
322.6508196371
 20
11.748931333
 42
1.0
  0
ARC
  5
794
100
AcDbEntity
  8
0
100
AcDbCircle
 62
7
  6
CONTINUOUS
 10
384.3460807618
 20
43.8909249511
 40
0.2262502361
100
AcDbArc
 50
90.0
 51
180.0
  0
ARC
  5
795
100
AcDbEntity
  8
0
100
AcDbCircle
 62
7
  6
CONTINUOUS
 10
367.5872737506
 20
43.9319058076
 40
0.2262502361
100
AcDbArc
 50
90.0
 51
180.0
  0
ARC
  5
796
100
AcDbEntity
  8
0
100
AcDbCircle
 62
7
  6
CONTINUOUS
 10
389.5595861852
 20
44.3434254225
 40
0.2262502352
100
AcDbArc
 50
270.0
 51
360.0
  0
ARC
  5
797
100
AcDbEntity
  8
0
100
AcDbCircle
 62
7
  6
CONTINUOUS
 10
379.3953845972
 20
42.0867587232
 40
0.2262502352
100
AcDbArc
 50
0.0
 51
89.9999995368
  0
ARC
  5
798
100
AcDbEntity
  8
0
100
AcDbCircle
 62
7
  6
CONTINUOUS
 10
374.3299717996
 20
41.1722786445
 40
0.2262502352
100
AcDbArc
 50
90.0
 51
180.0
  0
ARC
  5
799
100
AcDbEntity
  8
0
100
AcDbCircle
 62
7
  6
CONTINUOUS
 10
374.3299717996
 20
40.7436165894
 40
0.2262502352
100
AcDbArc
 50
180.0
 51
270.0
  0
ARC
  5
79A
100
AcDbEntity
  8
0
100
AcDbCircle
 62
7
  6
CONTINUOUS
 10
381.4031866724
 20
44.3343985203
 40
0.2262502352
100
AcDbArc
 50
270.0
 51
360.0
  0
ARC
  5
79B
100
AcDbEntity
  8
0
100
AcDbCircle
 62
7
  6
CONTINUOUS
 10
381.4031866724
 20
44.7960813845
 40
0.2262502352
100
AcDbArc
 50
359.9999995369
 51
90.0
  0
ARC
  5
79C
100
AcDbEntity
  8
0
100
AcDbCircle
 62
7
  6
CONTINUOUS
 10
367.5872737497
 20
41.6758432948
 40
0.2262502352
100
AcDbArc
 50
180.0
 51
270.0
  0
ARC
  5
79D
100
AcDbEntity
  8
0
100
AcDbCircle
 62
7
  6
CONTINUOUS
 10
376.3308983202
 20
43.4538099096
 40
0.2262502352
100
AcDbArc
 50
180.0
 51
270.0
  0
ARC
  5
79E
100
AcDbEntity
  8
0
100
AcDbCircle
 62
7
  6
CONTINUOUS
 10
384.3460807608
 20
41.6443788422
 40
0.2262502352
100
AcDbArc
 50
180.0
 51
270.0
  0
ARC
  5
79F
100
AcDbEntity
  8
0
100
AcDbCircle
 62
7
  6
CONTINUOUS
 10
389.5595861861
 20
44.7960813864
 40
0.2262502343
100
AcDbArc
 50
0.000000539
 51
89.9999999245
  0
ARC
  5
7A0
100
AcDbEntity
  8
0
100
AcDbCircle
 62
7
  6
CONTINUOUS
 10
389.5595861864
 20
40.7360672799
 40
0.226250234
100
AcDbArc
 50
270.1250535673
 51
360.0
  0
ARC
  5
7A1
100
AcDbEntity
  8
0
100
AcDbCircle
 62
7
  6
CONTINUOUS
 10
389.5595861861
 20
41.1918783727
 40
0.2262502343
100
AcDbArc
 50
0.0
 51
90.0
  0
ARC
  5
7A2
100
AcDbEntity
  8
0
100
AcDbCircle
 62
7
  6
CONTINUOUS
 10
376.3308983193
 20
43.8818980507
 40
0.2262502343
100
AcDbArc
 50
90.0
 51
180.0
  0
ARC
  5
7A3
100
AcDbEntity
  8
0
100
AcDbCircle
 62
7
  6
CONTINUOUS
 10
372.1076727614
 20
41.6758432984
 40
0.2262502343
100
AcDbArc
 50
270.0
 51
360.0
  0
ARC
  5
7A4
100
AcDbEntity
  8
0
100
AcDbCircle
 62
7
  6
CONTINUOUS
 10
372.1076727614
 20
43.9319058095
 40
0.2262502343
100
AcDbArc
 50
0.0000004631
 51
90.0000004631
  0
ARC
  5
7A5
100
AcDbEntity
  8
0
100
AcDbCircle
 62
7
  6
CONTINUOUS
 10
379.395384598
 20
41.6247791141
 40
0.2262502343
100
AcDbArc
 50
270.0
 51
360.0
  0
ARC
  5
7A6
100
AcDbEntity
  8
0
100
AcDbCircle
 62
7
  6
CONTINUOUS
 10
370.272924476
 20
41.885453789
 40
0.0870193213
100
AcDbArc
 50
90.0000000001
 51
180.0
  0
ARC
  5
7A7
100
AcDbEntity
  8
0
100
AcDbCircle
 62
7
  6
CONTINUOUS
 10
370.2927156554
 20
40.0801509411
 40
0.0870193204
100
AcDbArc
 50
180.0
 51
270.0
  0
ARC
  5
7A8
100
AcDbEntity
  8
0
100
AcDbCircle
 62
7
  6
CONTINUOUS
 10
371.6476949907
 20
40.0801509411
 40
0.0870193204
100
AcDbArc
 50
270.0
 51
360.0
  0
ARC
  5
7A9
100
AcDbEntity
  8
0
100
AcDbCircle
 62
7
  6
CONTINUOUS
 10
371.6209985276
 20
41.8854537917
 40
0.0870193186
100
AcDbArc
 50
0.0
 51
89.9999987958
  0
ARC
  5
7AA
100
AcDbEntity
  8
0
100
AcDbCircle
 62
7
  6
CONTINUOUS
 10
120.4108918055
 20
183.7226574326
 40
2.25
100
AcDbArc
 50
270.0
 51
90.0
  0
ARC
  5
7AB
100
AcDbEntity
  8
0
100
AcDbCircle
 62
7
  6
CONTINUOUS
 10
117.4108918055
 20
183.7226574326
 40
2.25
100
AcDbArc
 50
90.0
 51
270.0
  0
ARC
  5
7AC
100
AcDbEntity
  8
0
100
AcDbCircle
 62
7
  6
CONTINUOUS
 10
120.4108918055
 20
100.4226574326
 40
2.25
100
AcDbArc
 50
270.0
 51
90.0
  0
ARC
  5
7AD
100
AcDbEntity
  8
0
100
AcDbCircle
 62
7
  6
CONTINUOUS
 10
117.4108918055
 20
100.4226574326
 40
2.25
100
AcDbArc
 50
90.0
 51
270.0
  0
ARC
  5
7AE
100
AcDbEntity
  8
0
100
AcDbCircle
 62
7
  6
CONTINUOUS
 10
100.8904175593
 20
135.0796574326
 40
2.1
100
AcDbArc
 50
90.0
 51
270.0
  0
ARC
  5
7AF
100
AcDbEntity
  8
7_ALL_ROUNDS
100
AcDbCircle
 62
7
  6
CONTINUOUS
 10
140.9108918055
 20
192.9726574326
 40
2.0
100
AcDbArc
 50
0.0
 51
90.0
  0
ARC
  5
7B0
100
AcDbEntity
  8
7_ALL_ROUNDS
100
AcDbCircle
 62
7
  6
CONTINUOUS
 10
140.9108918055
 20
91.1726574326
 40
2.0
100
AcDbArc
 50
270.0
 51
360.0
  0
ARC
  5
7B1
100
AcDbEntity
  8
7_ALL_ROUNDS
100
AcDbCircle
 62
7
  6
CONTINUOUS
 10
96.9108918055
 20
91.1726574326
 40
2.0
100
AcDbArc
 50
180.0
 51
270.0
  0
ARC
  5
7B2
100
AcDbEntity
  8
7_ALL_ROUNDS
100
AcDbCircle
 62
7
  6
CONTINUOUS
 10
96.9108918055
 20
192.9726574326
 40
2.0
100
AcDbArc
 50
90.0
 51
180.0
  0
ARC
  5
7B3
100
AcDbEntity
  8
0
100
AcDbCircle
 62
7
  6
CONTINUOUS
 10
100.8904175593
 20
135.0796574326
 40
1.8719204304
100
AcDbArc
 50
90.0
 51
270.0
  0
CIRCLE
  5
7B4
100
AcDbEntity
  8
0
100
AcDbCircle
 62
7
  6
CONTINUOUS
 10
118.9108918055
 20
190.4726574326
 40
1.4732
  0
CIRCLE
  5
7B5
100
AcDbEntity
  8
0
100
AcDbCircle
 62
7
  6
CONTINUOUS
 10
118.9108918055
 20
93.6726574326
 40
1.4732
  0
ARC
  5
7B6
100
AcDbEntity
  8
7_ALL_ROUNDS
100
AcDbCircle
 62
9
  6
CONTINUOUS
 10
110.52974333
 20
124.7038059081
 40
1.0000020971
100
AcDbArc
 50
90.0088458785
 51
179.9911541215
  0
ARC
  5
7B7
100
AcDbEntity
  8
7_ALL_ROUNDS
100
AcDbCircle
 62
9
  6
CONTINUOUS
 10
110.52974333
 20
121.9415089571
 40
1.0000020971
100
AcDbArc
 50
180.0088458785
 51
269.9911541215
  0
ARC
  5
7B8
100
AcDbEntity
  8
7_ALL_ROUNDS
100
AcDbCircle
 62
9
  6
CONTINUOUS
 10
127.292040281
 20
121.9415089571
 40
1.0000020971
100
AcDbArc
 50
270.0088458785
 51
359.9911541215
  0
ARC
  5
7B9
100
AcDbEntity
  8
7_ALL_ROUNDS
100
AcDbCircle
 62
9
  6
CONTINUOUS
 10
127.292040281
 20
124.7038059081
 40
1.0000020971
100
AcDbArc
 50
0.0088458785
 51
89.9911541215
  0
ARC
  5
7BA
100
AcDbEntity
  8
7_ALL_ROUNDS
100
AcDbCircle
 62
7
  6
CONTINUOUS
 10
104.7608918055
 20
172.952815862
 40
1.0
100
AcDbArc
 50
90.0
 51
180.0
  0
ARC
  5
7BB
100
AcDbEntity
  8
7_ALL_ROUNDS
100
AcDbCircle
 62
7
  6
CONTINUOUS
 10
133.0608918055
 20
172.952815862
 40
1.0
100
AcDbArc
 50
0.0
 51
90.0
  0
ARC
  5
7BC
100
AcDbEntity
  8
7_ALL_ROUNDS
100
AcDbCircle
 62
7
  6
CONTINUOUS
 10
105.4108918055
 20
134.8726574326
 40
1.0
100
AcDbArc
 50
90.0
 51
180.0
  0
ARC
  5
7BD
100
AcDbEntity
  8
7_ALL_ROUNDS
100
AcDbCircle
 62
7
  6
CONTINUOUS
 10
132.4108918055
 20
134.8726574326
 40
1.0
100
AcDbArc
 50
0.0
 51
90.0
  0
ARC
  5
7BE
100
AcDbEntity
  8
7_ALL_ROUNDS
100
AcDbCircle
 62
7
  6
CONTINUOUS
 10
132.4108918055
 20
111.7729959714
 40
1.0
100
AcDbArc
 50
270.0
 51
360.0
  0
ARC
  5
7BF
100
AcDbEntity
  8
7_ALL_ROUNDS
100
AcDbCircle
 62
7
  6
CONTINUOUS
 10
105.4108918055
 20
111.7729959714
 40
1.0
100
AcDbArc
 50
180.0
 51
270.0
  0
CIRCLE
  5
7C0
100
AcDbEntity
  8
0
100
AcDbCircle
 62
7
  6
CONTINUOUS
 10
100.8904175593
 20
135.0796574326
 40
0.7989534418
  0
ARC
  5
7C1
100
AcDbEntity
  8
7_ALL_ROUNDS
100
AcDbCircle
 62
9
  6
CONTINUOUS
 10
127.2922243031
 20
124.7039899303
 40
0.499893388
100
AcDbArc
 50
359.9966036863
 51
90.0033963122
  0
ARC
  5
7C2
100
AcDbEntity
  8
7_ALL_ROUNDS
100
AcDbCircle
 62
9
  6
CONTINUOUS
 10
127.2922240961
 20
121.9413251421
 40
0.499893388
100
AcDbArc
 50
269.9966274222
 51
0.0033725759
  0
ARC
  5
7C3
100
AcDbEntity
  8
7_ALL_ROUNDS
100
AcDbCircle
 62
9
  6
CONTINUOUS
 10
110.5295595149
 20
121.941325142
 40
0.499893388
100
AcDbArc
 50
179.9966274222
 51
270.0033725759
  0
ARC
  5
7C4
100
AcDbEntity
  8
7_ALL_ROUNDS
100
AcDbCircle
 62
9
  6
CONTINUOUS
 10
110.5295593078
 20
124.7039899303
 40
0.499893388
100
AcDbArc
 50
89.9966036863
 51
180.0033963122
  0
ARC
  5
7C5
100
AcDbEntity
  8
7_ALL_ROUNDS
100
AcDbCircle
 62
7
  6
CONTINUOUS
 10
110.0296650924
 20
225.6497734104
 40
0.5
100
AcDbArc
 50
206.6903669148
 51
270.0
  0
ARC
  5
7C6
100
AcDbEntity
  8
7_ALL_ROUNDS
100
AcDbCircle
 62
7
  6
CONTINUOUS
 10
127.7921185186
 20
225.6497734104
 40
0.5
100
AcDbArc
 50
269.9999999995
 51
333.3096689472
  0
ARC
  5
7C7
100
AcDbEntity
  8
7_ALL_ROUNDS
100
AcDbCircle
 62
7
  6
CONTINUOUS
 10
101.6888318055
 20
255.2355902183
 40
0.38
100
AcDbArc
 50
0.0
 51
131.4373058419
  0
ARC
  5
7C8
100
AcDbEntity
  8
7_ALL_ROUNDS
100
AcDbCircle
 62
7
  6
CONTINUOUS
 10
100.3340533701
 20
254.0396237302
 40
0.38
100
AcDbArc
 50
131.4373058419
 51
214.3996422699
  0
ARC
  5
7C9
100
AcDbEntity
  8
7_ALL_ROUNDS
100
AcDbCircle
 62
7
  6
CONTINUOUS
 10
100.7728075787
 20
249.8056595465
 40
0.38
100
AcDbArc
 50
205.989187002
 51
360.0
  0
ARC
  5
7CA
100
AcDbEntity
  8
7_ALL_ROUNDS
100
AcDbCircle
 62
7
  6
CONTINUOUS
 10
96.7338318055
 20
249.8076634104
 40
0.38
100
AcDbArc
 50
90.0
 51
180.0
  0
ARC
  5
7CB
100
AcDbEntity
  8
7_ALL_ROUNDS
100
AcDbCircle
 62
9
  6
CONTINUOUS
 10
106.2858654803
 20
49.8493300865
 40
1.000273062
100
AcDbArc
 50
90.0240505086
 51
179.9759893959
  0
ARC
  5
7CC
100
AcDbEntity
  8
7_ALL_ROUNDS
100
AcDbCircle
 62
9
  6
CONTINUOUS
 10
106.2858646041
 20
44.3759168381
 40
1.0002729795
100
AcDbArc
 50
180.024058467
 51
269.9759997009
  0
ARC
  5
7CD
100
AcDbEntity
  8
7_ALL_ROUNDS
100
AcDbCircle
 62
9
  6
CONTINUOUS
 10
115.5184790494
 20
49.8493295115
 40
1.0002728411
100
AcDbArc
 50
0.024043563
 51
89.9760021344
  0
ARC
  5
7CE
100
AcDbEntity
  8
7_ALL_ROUNDS
100
AcDbCircle
 62
9
  6
CONTINUOUS
 10
115.518481735
 20
44.3759130948
 40
1.0002696452
100
AcDbArc
 50
270.0238441153
 51
359.9761558847
  0
ARC
  5
7CF
100
AcDbEntity
  8
7_ALL_ROUNDS
100
AcDbCircle
 62
7
  6
CONTINUOUS
 10
110.0296650924
 20
74.229609065
 40
0.5
100
AcDbArc
 50
90.0
 51
153.3096330852
  0
ARC
  5
7D0
100
AcDbEntity
  8
7_ALL_ROUNDS
100
AcDbCircle
 62
7
  6
CONTINUOUS
 10
127.7921185186
 20
74.229609065
 40
0.5
100
AcDbArc
 50
26.6903310528
 51
90.0000000005
  0
ARC
  5
7D1
100
AcDbEntity
  8
7_ALL_ROUNDS
100
AcDbCircle
 62
7
  6
CONTINUOUS
 10
100.7728075787
 20
50.0737229289
 40
0.38
100
AcDbArc
 50
0.0
 51
24.6323889114
  0
ARC
  5
7D2
100
AcDbEntity
  8
7_ALL_ROUNDS
100
AcDbCircle
 62
7
  6
CONTINUOUS
 10
100.3340533701
 20
45.8397587451
 40
0.38
100
AcDbArc
 50
145.6003577301
 51
228.5626941581
  0
ARC
  5
7D3
100
AcDbEntity
  8
7_ALL_ROUNDS
100
AcDbCircle
 62
7
  6
CONTINUOUS
 10
101.6888318055
 20
44.6437922571
 40
0.38
100
AcDbArc
 50
228.5626941581
 51
360.0
  0
ARC
  5
7D4
100
AcDbEntity
  8
7_ALL_ROUNDS
100
AcDbCircle
 62
7
  6
CONTINUOUS
 10
96.7338318055
 20
50.071719065
 40
0.38
100
AcDbArc
 50
180.0
 51
270.0
  0
ARC
  5
7D5
100
AcDbEntity
  8
7_ALL_ROUNDS
100
AcDbCircle
 62
9
  6
CONTINUOUS
 10
53.183555393
 20
181.4600573682
 40
54.4258288258
100
AcDbArc
 50
268.9959566849
 51
269.3160703805
  0
ARC
  5
7D6
100
AcDbEntity
  8
7_ALL_ROUNDS
100
AcDbCircle
 62
9
  6
CONTINUOUS
 10
53.010577569
 20
165.9026285643
 40
38.8674457104
100
AcDbArc
 50
269.2972952719
 51
269.7088372338
  0
CIRCLE
  5
7D7
100
AcDbEntity
  8
0
100
AcDbCircle
 62
7
  6
CONTINUOUS
 10
71.9187060775
 20
123.3226574326
 40
1.6175180217
  0
ARC
  5
7D8
100
AcDbEntity
  8
7_ALL_ROUNDS
100
AcDbCircle
 62
7
  6
CONTINUOUS
 10
52.2298535098
 20
127.0600374326
 40
1.0
100
AcDbArc
 50
270.0
 51
292.6933416605
  0
ARC
  5
7D9
100
AcDbEntity
  8
7_ALL_ROUNDS
100
AcDbCircle
 62
7
  6
CONTINUOUS
 10
52.2298535098
 20
127.0600374326
 40
1.0
100
AcDbArc
 50
354.1406031376
 51
359.0
  0
ARC
  5
7DA
100
AcDbEntity
  8
7_ALL_ROUNDS
100
AcDbCircle
 62
7
  6
CONTINUOUS
 10
46.7556010737
 20
127.0600374326
 40
1.0
100
AcDbArc
 50
181.0
 51
270.0
  0
ARC
  5
7DB
100
AcDbEntity
  8
7_ALL_ROUNDS
100
AcDbCircle
 62
7
  6
CONTINUOUS
 10
76.6097133121
 20
121.4414307195
 40
0.5
100
AcDbArc
 50
271.0
 51
360.0
  0
ARC
  5
7DC
100
AcDbEntity
  8
7_ALL_ROUNDS
100
AcDbCircle
 62
7
  6
CONTINUOUS
 10
76.6097133121
 20
125.2038841457
 40
0.5
100
AcDbArc
 50
0.0
 51
89.0
  0
ARC
  5
7DD
100
AcDbEntity
  8
7_ALL_ROUNDS
100
AcDbCircle
 62
9
  6
CONTINUOUS
 10
220.6531439152
 20
182.6667992347
 40
55.6326945172
100
AcDbArc
 50
270.6807814406
 51
271.0004236043
  0
ARC
  5
7DE
100
AcDbEntity
  8
7_ALL_ROUNDS
100
AcDbCircle
 62
9
  6
CONTINUOUS
 10
220.8200879267
 20
168.6657652727
 40
41.630665312
100
AcDbArc
 50
270.2953394603
 51
270.679986539
  0
CIRCLE
  5
7DF
100
AcDbEntity
  8
0
100
AcDbCircle
 62
7
  6
CONTINUOUS
 10
201.9356269894
 20
123.3226574326
 40
1.6175180217
  0
ARC
  5
7E0
100
AcDbEntity
  8
7_ALL_ROUNDS
100
AcDbCircle
 62
7
  6
CONTINUOUS
 10
221.624479557
 20
127.0600374326
 40
1.0
100
AcDbArc
 50
247.2884581294
 51
270.0
  0
ARC
  5
7E1
100
AcDbEntity
  8
7_ALL_ROUNDS
100
AcDbCircle
 62
7
  6
CONTINUOUS
 10
221.624479557
 20
127.0600374326
 40
1.0
100
AcDbArc
 50
181.0
 51
185.8593968624
  0
ARC
  5
7E2
100
AcDbEntity
  8
7_ALL_ROUNDS
100
AcDbCircle
 62
7
  6
CONTINUOUS
 10
227.0987319932
 20
127.0600374326
 40
1.0
100
AcDbArc
 50
270.0
 51
359.0
  0
ARC
  5
7E3
100
AcDbEntity
  8
7_ALL_ROUNDS
100
AcDbCircle
 62
7
  6
CONTINUOUS
 10
197.2446197548
 20
121.4414307195
 40
0.5
100
AcDbArc
 50
180.0
 51
269.0
  0
ARC
  5
7E4
100
AcDbEntity
  8
7_ALL_ROUNDS
100
AcDbCircle
 62
7
  6
CONTINUOUS
 10
197.2446197548
 20
125.2038841457
 40
0.5
100
AcDbArc
 50
91.0
 51
180.0
  0
ARC
  5
7E5
100
AcDbEntity
  8
0
100
AcDbCircle
 62
7
  6
CONTINUOUS
 10
283.1249956924
 20
142.0722544895
 40
30.8014816777
100
AcDbArc
 50
43.0708580895
 51
70.2708580895
  0
ARC
  5
7E6
100
AcDbEntity
  8
0
100
AcDbCircle
 62
7
  6
CONTINUOUS
 10
281.6257771536
 20
100.4226574326
 40
2.25
100
AcDbArc
 50
90.0
 51
270.0
  0
ARC
  5
7E7
100
AcDbEntity
  8
7_ALL_ROUNDS
100
AcDbCircle
 62
7
  6
CONTINUOUS
 10
261.1257771536
 20
91.1726574326
 40
2.0
100
AcDbArc
 50
180.0
 51
270.0
  0
CIRCLE
  5
7E8
100
AcDbEntity
  8
0
100
AcDbCircle
 62
7
  6
CONTINUOUS
 10
263.5257771536
 20
124.0726574326
 40
1.25
  0
CIRCLE
  5
7E9
100
AcDbEntity
  8
0
100
AcDbCircle
 62
7
  6
CONTINUOUS
 10
263.5257771536
 20
124.0726574326
 40
0.98
  0
ARC
  5
7EA
100
AcDbEntity
  8
0
100
AcDbCircle
 62
7
  6
CONTINUOUS
 10
283.1249956924
 20
142.0730603758
 40
30.8014816777
100
AcDbArc
 50
289.7291419105
 51
316.9291419105
  0
ARC
  5
7EB
100
AcDbEntity
  8
0
100
AcDbCircle
 62
7
  6
CONTINUOUS
 10
281.6257771536
 20
183.7226574326
 40
2.25
100
AcDbArc
 50
90.0
 51
270.0
  0
ARC
  5
7EC
100
AcDbEntity
  8
7_ALL_ROUNDS
100
AcDbCircle
 62
7
  6
CONTINUOUS
 10
261.1257771536
 20
192.9726574326
 40
2.0
100
AcDbArc
 50
90.0
 51
180.0
  0
ARC
  5
7ED
100
AcDbEntity
  8
0
100
AcDbCircle
 62
7
  6
CONTINUOUS
 10
272.1257781393
 20
166.5726586834
 40
1.7500009788
100
AcDbArc
 50
193.2130128517
 51
346.7869723955
  0
ARC
  5
7EE
100
AcDbEntity
  8
0
100
AcDbCircle
 62
7
  6
CONTINUOUS
 10
272.1257771536
 20
166.5726574326
 40
1.75
100
AcDbArc
 50
13.2129803602
 51
166.7870196398
  0
ARC
  5
7EF
100
AcDbEntity
  8
0
100
AcDbCircle
 62
7
  6
CONTINUOUS
 10
272.1257781393
 20
166.5726586834
 40
0.8000006462
100
AcDbArc
 50
210.0028396011
 51
329.9976091595
  0
ARC
  5
7F0
100
AcDbEntity
  8
0
100
AcDbCircle
 62
7
  6
CONTINUOUS
 10
272.1257771536
 20
166.5726574326
 40
0.8
100
AcDbArc
 50
30.0000012011
 51
150.0000003343
  0
ARC
  5
7F1
100
AcDbEntity
  8
0
100
AcDbCircle
 62
7
  6
CONTINUOUS
 10
283.1265586148
 20
142.0722544895
 40
30.8014816777
100
AcDbArc
 50
109.7291419105
 51
136.9291419105
  0
ARC
  5
7F2
100
AcDbEntity
  8
0
100
AcDbCircle
 62
7
  6
CONTINUOUS
 10
283.1257771536
 20
112.0791700198
 40
5.3700233764
100
AcDbArc
 50
10.7375
 51
169.2625
  0
ARC
  5
7F3
100
AcDbEntity
  8
0
100
AcDbCircle
 62
7
  6
CONTINUOUS
 10
284.6257771536
 20
100.4226574326
 40
2.25
100
AcDbArc
 50
270.0
 51
90.0
  0
ARC
  5
7F4
100
AcDbEntity
  8
7_ALL_ROUNDS
100
AcDbCircle
 62
7
  6
CONTINUOUS
 10
305.1257771536
 20
91.1726574326
 40
2.0
100
AcDbArc
 50
270.0
 51
360.0
  0
CIRCLE
  5
7F5
100
AcDbEntity
  8
0
100
AcDbCircle
 62
7
  6
CONTINUOUS
 10
283.1257771536
 20
93.6726574326
 40
1.4732
  0
CIRCLE
  5
7F6
100
AcDbEntity
  8
0
100
AcDbCircle
 62
7
  6
CONTINUOUS
 10
302.7257771536
 20
124.0726574326
 40
1.25
  0
ARC
  5
7F7
100
AcDbEntity
  8
7_ALL_ROUNDS
100
AcDbCircle
 62
7
  6
CONTINUOUS
 10
295.7512233513
 20
127.0600374326
 40
1.0
100
AcDbArc
 50
270.0
 51
359.0
  0
ARC
  5
7F8
100
AcDbEntity
  8
7_ALL_ROUNDS
100
AcDbCircle
 62
7
  6
CONTINUOUS
 10
286.5177709558
 20
127.0600374326
 40
1.0
100
AcDbArc
 50
181.0
 51
270.0
  0
CIRCLE
  5
7F9
100
AcDbEntity
  8
0
100
AcDbCircle
 62
7
  6
CONTINUOUS
 10
302.7257771536
 20
124.0726574326
 40
0.98
  0
ARC
  5
7FA
100
AcDbEntity
  8
0
100
AcDbCircle
 62
7
  6
CONTINUOUS
 10
283.1265586148
 20
142.0730603758
 40
30.8014816777
100
AcDbArc
 50
223.0708580895
 51
250.2708580895
  0
ARC
  5
7FB
100
AcDbEntity
  8
0
100
AcDbCircle
 62
7
  6
CONTINUOUS
 10
283.1257771536
 20
172.0661448454
 40
5.3700233764
100
AcDbArc
 50
190.7375
 51
349.2625
  0
ARC
  5
7FC
100
AcDbEntity
  8
0
100
AcDbCircle
 62
7
  6
CONTINUOUS
 10
284.6257771536
 20
183.7226574326
 40
2.25
100
AcDbArc
 50
270.0
 51
90.0
  0
ARC
  5
7FD
100
AcDbEntity
  8
7_ALL_ROUNDS
100
AcDbCircle
 62
7
  6
CONTINUOUS
 10
305.1257771536
 20
192.9726574326
 40
2.0
100
AcDbArc
 50
0.0
 51
90.0
  0
ARC
  5
7FE
100
AcDbEntity
  8
0
100
AcDbCircle
 62
7
  6
CONTINUOUS
 10
294.1257781393
 20
166.5726586834
 40
1.7500009788
100
AcDbArc
 50
193.2130128517
 51
346.7869723955
  0
ARC
  5
7FF
100
AcDbEntity
  8
0
100
AcDbCircle
 62
7
  6
CONTINUOUS
 10
294.1257771536
 20
166.5726574326
 40
1.75
100
AcDbArc
 50
13.2129803602
 51
166.7870196398
  0
CIRCLE
  5
800
100
AcDbEntity
  8
0
100
AcDbCircle
 62
7
  6
CONTINUOUS
 10
283.1257771536
 20
190.4726574326
 40
1.4732
  0
ARC
  5
801
100
AcDbEntity
  8
0
100
AcDbCircle
 62
7
  6
CONTINUOUS
 10
294.1257781393
 20
166.5726586834
 40
0.8000006462
100
AcDbArc
 50
210.0028396011
 51
329.9976091595
  0
ARC
  5
802
100
AcDbEntity
  8
0
100
AcDbCircle
 62
7
  6
CONTINUOUS
 10
294.1257771536
 20
166.5726574326
 40
0.8
100
AcDbArc
 50
30.0000012011
 51
150.0000003343
  0
ARC
  5
803
100
AcDbEntity
  8
0
100
AcDbCircle
 62
7
  6
CONTINUOUS
 10
365.6537820744
 20
178.1283130972
 40
53.3129915345
100
AcDbArc
 50
28.887445908
 51
31.2142727929
  0
ARC
  5
804
100
AcDbEntity
  8
7_ALL_ROUNDS
100
AcDbCircle
 62
7
  6
CONTINUOUS
 10
394.2300189616
 20
156.2903314652
 40
1.5095186911
100
AcDbArc
 50
245.577018928
 51
249.713813142
  0
ARC
  5
805
100
AcDbEntity
  8
7_ALL_ROUNDS
100
AcDbCircle
 62
7
  6
CONTINUOUS
 10
372.9035188805
 20
220.6592524088
 40
1.5094934734
100
AcDbArc
 50
170.2975746439
 51
174.4363114484
  0
SPLINE
  5
806
100
AcDbEntity
  8
0
100
AcDbSpline
 62
7
  6
CONTINUOUS
 70
0
 71
3
 72
13
 73
9
 74
0
 42
0.0000001
 43
0.0000001
 44
0.0000000001
 40
0.0
 40
0.0
 40
0.0
 40
0.0
 40
0.1317357684
 40
0.2713541552
 40
0.4178991716
 40
0.5930152361
 40
0.7698067128
 40
1.0
 40
1.0
 40
1.0
 40
1.0
 10
383.4771193271
 20
45.0223316207
 30
0.0
 10
383.3492603369
 20
45.0128085982
 30
0.0
 10
383.0858917198
 20
44.9931927303
 30
0.0
 10
382.7289747926
 20
44.7720266597
 30
0.0
 10
382.472751032
 20
44.4007286582
 30
0.0
 10
382.3061411048
 20
43.9467129355
 30
0.0
 10
382.21229622
 20
43.3917169814
 30
0.0
 10
382.2036556447
 20
42.999547094
 30
0.0
 10
382.1991774347
 20
42.7777040656
 30
0.0
  0
SPLINE
  5
807
100
AcDbEntity
  8
0
100
AcDbSpline
 62
7
  6
CONTINUOUS
 70
0
 71
3
 72
13
 73
9
 74
0
 42
0.0000001
 43
0.0000001
 44
0.0000000001
 40
0.0
 40
0.0
 40
0.0
 40
0.0
 40
0.2249509061
 40
0.4029463322
 40
0.5792549365
 40
0.726797924
 40
0.8673671114
 40
1.0
 40
1.0
 40
1.0
 40
1.0
 10
382.1995745276
 20
42.7432782059
 30
0.0
 10
382.2039644797
 20
42.5279565979
 30
0.0
 10
382.2133847565
 20
42.1423760653
 30
0.0
 10
382.306141028
 20
41.5938135186
 30
0.0
 10
382.4727529504
 20
41.1398485744
 30
0.0
 10
382.7289687192
 20
40.7683929962
 30
0.0
 10
383.0859128864
 20
40.5477556042
 30
0.0
 10
383.3492172943
 20
40.526894863
 30
0.0
 10
383.4771193271
 20
40.5173686383
 30
0.0
  0
SPLINE
  5
808
100
AcDbEntity
  8
0
100
AcDbSpline
 62
7
  6
CONTINUOUS
 70
0
 71
3
 72
13
 73
9
 74
0
 42
0.0000001
 43
0.0000001
 44
0.0000000001
 40
0.0
 40
0.0
 40
0.0
 40
0.0
 40
0.1604571392
 40
0.3334692485
 40
0.4767982758
 40
0.6242014838
 40
0.7505998515
 40
1.0
 40
1.0
 40
1.0
 40
1.0
 10
380.61842344
 20
40.5173663542
 30
0.0
 10
380.7244475202
 20
40.5224712244
 30
0.0
 10
380.9447915306
 20
40.5330803895
 30
0.0
 10
381.2410918102
 20
40.6617203834
 30
0.0
 10
381.4643638336
 20
40.8779534763
 30
0.0
 10
381.5901864001
 20
41.1258563634
 30
0.0
 10
381.686652685
 20
41.4584206259
 30
0.0
 10
381.69056729
 20
41.7072959426
 30
0.0
 10
381.693165232
 20
41.8724630143
 30
0.0
  0
SPLINE
  5
809
100
AcDbEntity
  8
0
100
AcDbSpline
 62
7
  6
CONTINUOUS
 70
0
 71
3
 72
13
 73
9
 74
0
 42
0.0000001
 43
0.0000001
 44
0.0000000001
 40
0.0
 40
0.0
 40
0.0
 40
0.0
 40
0.2494001485
 40
0.3757985162
 40
0.5232017242
 40
0.6665307515
 40
0.8395428608
 40
1.0
 40
1.0
 40
1.0
 40
1.0
 10
381.693165232
 20
41.8724630143
 30
0.0
 10
381.69056729
 20
42.0376300877
 30
0.0
 10
381.686652685
 20
42.2865054026
 30
0.0
 10
381.5901864001
 20
42.6190696688
 30
0.0
 10
381.4643638336
 20
42.8669725558
 30
0.0
 10
381.2410918102
 20
43.0832056451
 30
0.0
 10
380.9447915306
 20
43.211845639
 30
0.0
 10
380.7244475202
 20
43.2224548077
 30
0.0
 10
380.61842344
 20
43.2275596743
 30
0.0
  0
SPLINE
  5
80A
100
AcDbEntity
  8
0
100
AcDbSpline
 62
7
  6
CONTINUOUS
 70
0
 71
3
 72
13
 73
9
 74
0
 42
0.0000001
 43
0.0000001
 44
0.0000000001
 40
0.0
 40
0.0
 40
0.0
 40
0.0
 40
0.1133740464
 40
0.2392044088
 40
0.3655787964
 40
0.4912154373
 40
0.7445390876
 40
1.0
 40
1.0
 40
1.0
 40
1.0
 10
375.0499375445
 20
45.0223316198
 30
0.0
 10
374.9773593104
 20
45.0187568022
 30
0.0
 10
374.824228731
 20
45.0112144031
 30
0.0
 10
374.5967684026
 20
44.9432560524
 30
0.0
 10
374.393282971
 20
44.806026975
 30
0.0
 10
374.1854207894
 20
44.5532457822
 30
0.0
 10
374.0546207194
 20
44.1564129413
 30
0.0
 10
374.040435431
 20
43.8310401075
 30
0.0
 10
374.0333129975
 20
43.6676702891
 30
0.0
  0
SPLINE
  5
80B
100
AcDbEntity
  8
0
100
AcDbSpline
 62
7
  6
CONTINUOUS
 70
0
 71
3
 72
13
 73
9
 74
0
 42
0.0000001
 43
0.0000001
 44
0.0000000001
 40
0.0
 40
0.0
 40
0.0
 40
0.0
 40
0.2554609124
 40
0.5087845627
 40
0.6344212036
 40
0.7607955912
 40
0.8866259536
 40
1.0
 40
1.0
 40
1.0
 40
1.0
 10
374.0333129975
 20
43.6676702891
 30
0.0
 10
374.040435431
 20
43.5043004688
 30
0.0
 10
374.0546207194
 20
43.1789276331
 30
0.0
 10
374.1854207894
 20
42.7820947941
 30
0.0
 10
374.393282971
 20
42.5293136013
 30
0.0
 10
374.5967684026
 20
42.3920845257
 30
0.0
 10
374.824228731
 20
42.3241261732
 30
0.0
 10
374.9773593104
 20
42.3165837741
 30
0.0
 10
375.0499375445
 20
42.3130089584
 30
0.0
  0
SPLINE
  5
80C
100
AcDbEntity
  8
0
100
AcDbSpline
 62
7
  6
CONTINUOUS
 70
0
 71
3
 72
12
 73
8
 74
0
 42
0.0000001
 43
0.0000001
 44
0.0000000001
 40
0.0
 40
0.0
 40
0.0
 40
0.0
 40
0.2415790084
 40
0.4893269843
 40
0.7378634303
 40
0.8656387112
 40
1.0
 40
1.0
 40
1.0
 40
1.0
 10
372.425984625
 20
40.517366356
 30
0.0
 10
372.5499362011
 20
40.5212198699
 30
0.0
 10
372.801004591
 20
40.5290253053
 30
0.0
 10
373.1684169795
 20
40.6600543338
 30
0.0
 10
373.3915537558
 20
40.9074024653
 30
0.0
 10
373.4898604134
 20
41.1545490046
 30
0.0
 10
373.4916320433
 20
41.2899353557
 30
0.0
 10
373.4925401138
 20
41.359329276
 30
0.0
  0
SPLINE
  5
80D
100
AcDbEntity
  8
0
100
AcDbSpline
 62
7
  6
CONTINUOUS
 70
0
 71
3
 72
12
 73
8
 74
0
 42
0.0000001
 43
0.0000001
 44
0.0000000001
 40
0.0
 40
0.0
 40
0.0
 40
0.0
 40
0.1343612888
 40
0.2621365697
 40
0.5106730157
 40
0.7584209916
 40
1.0
 40
1.0
 40
1.0
 40
1.0
 10
373.4925401138
 20
44.1750849134
 30
0.0
 10
373.4916320433
 20
44.2444788373
 30
0.0
 10
373.4898604134
 20
44.3798651885
 30
0.0
 10
373.3915537558
 20
44.6270117278
 30
0.0
 10
373.1684169795
 20
44.8743598593
 30
0.0
 10
372.801004591
 20
45.005388886
 30
0.0
 10
372.5499362011
 20
45.0131943196
 30
0.0
 10
372.425984625
 20
45.0170478353
 30
0.0
  0
SPLINE
  5
80E
100
AcDbEntity
  8
0
100
AcDbSpline
 62
7
  6
CONTINUOUS
 70
0
 71
3
 72
12
 73
8
 74
0
 42
0.0000001
 43
0.0000001
 44
0.0000000001
 40
0.0
 40
0.0
 40
0.0
 40
0.0
 40
0.1341799809
 40
0.290831959
 40
0.5815217441
 40
0.760783857
 40
1.0
 40
1.0
 40
1.0
 40
1.0
 10
366.6902398717
 20
45.0170478353
 30
0.0
 10
366.5651330957
 20
44.9956658988
 30
0.0
 10
366.2939670972
 20
44.9493210528
 30
0.0
 10
365.837502657
 20
44.6082975296
 30
0.0
 10
365.6212979342
 20
44.0345596983
 30
0.0
 10
365.4947984831
 20
43.3841749901
 30
0.0
 10
365.4853025653
 20
42.9907926723
 30
0.0
 10
365.4798743796
 20
42.7659222064
 30
0.0
  0
SPLINE
  5
80F
100
AcDbEntity
  8
0
100
AcDbSpline
 62
7
  6
CONTINUOUS
 70
0
 71
3
 72
12
 73
8
 74
0
 42
0.0000001
 43
0.0000001
 44
0.0000000001
 40
0.0
 40
0.0
 40
0.0
 40
0.0
 40
0.2392679579
 40
0.4185688994
 40
0.7093216488
 40
0.8660075581
 40
1.0
 40
1.0
 40
1.0
 40
1.0
 10
365.4798743796
 20
42.7659222064
 30
0.0
 10
365.4853047342
 20
42.541060504
 30
0.0
 10
365.4948044413
 20
42.1476935189
 30
0.0
 10
365.6212765958
 20
41.4971984426
 30
0.0
 10
365.8376134165
 20
40.9239947526
 30
0.0
 10
366.2936026119
 20
40.5818638581
 30
0.0
 10
366.5650925896
 20
40.5377166554
 30
0.0
 10
366.6902398717
 20
40.517366356
 30
0.0
  0
SPLINE
  5
810
100
AcDbEntity
  8
0
100
AcDbSpline
 62
7
  6
CONTINUOUS
 70
0
 71
3
 72
9
 73
5
 74
0
 42
0.0000001
 43
0.0000001
 44
0.0000000001
 40
0.0
 40
0.0
 40
0.0
 40
0.0
 40
0.5000155539
 40
1.0
 40
1.0
 40
1.0
 40
1.0
 10
109.6145643092
 20
237.6886834104
 30
0.0
 10
109.4501359053
 20
237.4376176032
 30
0.0
 10
109.1193964494
 20
236.9368232272
 30
0.0
 10
108.7816329932
 20
236.4403519821
 30
0.0
 10
108.6037121285
 20
236.1986834104
 30
0.0
  0
SPLINE
  5
811
100
AcDbEntity
  8
0
100
AcDbSpline
 62
7
  6
CONTINUOUS
 70
0
 71
3
 72
9
 73
5
 74
0
 42
0.0000001
 43
0.0000001
 44
0.0000000001
 40
0.0
 40
0.0
 40
0.0
 40
0.0
 40
0.4999844551
 40
1.0
 40
1.0
 40
1.0
 40
1.0
 10
107.2180714825
 20
236.1986834104
 30
0.0
 10
107.0401506143
 20
236.4403519864
 30
0.0
 10
106.7023871395
 20
236.9368232188
 30
0.0
 10
106.3716477028
 20
237.4376176077
 30
0.0
 10
106.2072193017
 20
237.6886834104
 30
0.0
  0
SPLINE
  5
812
100
AcDbEntity
  8
0
100
AcDbSpline
 62
7
  6
CONTINUOUS
 70
0
 71
3
 72
9
 73
5
 74
0
 42
0.0000001
 43
0.0000001
 44
0.0000000001
 40
0.0
 40
0.0
 40
0.0
 40
0.0
 40
0.5000155539
 40
1.0
 40
1.0
 40
1.0
 40
1.0
 10
131.6145643092
 20
237.6886834104
 30
0.0
 10
131.4501359053
 20
237.4376176032
 30
0.0
 10
131.1193964494
 20
236.9368232272
 30
0.0
 10
130.7816329932
 20
236.4403519821
 30
0.0
 10
130.6037121285
 20
236.1986834104
 30
0.0
  0
SPLINE
  5
813
100
AcDbEntity
  8
0
100
AcDbSpline
 62
7
  6
CONTINUOUS
 70
0
 71
3
 72
9
 73
5
 74
0
 42
0.0000001
 43
0.0000001
 44
0.0000000001
 40
0.0
 40
0.0
 40
0.0
 40
0.0
 40
0.4999844551
 40
1.0
 40
1.0
 40
1.0
 40
1.0
 10
129.2180714825
 20
236.1986834104
 30
0.0
 10
129.0401506143
 20
236.4403519864
 30
0.0
 10
128.7023871395
 20
236.9368232188
 30
0.0
 10
128.3716477028
 20
237.4376176077
 30
0.0
 10
128.2072193017
 20
237.6886834104
 30
0.0
  0
SPLINE
  5
814
100
AcDbEntity
  8
0
100
AcDbSpline
 62
7
  6
CONTINUOUS
 70
0
 71
3
 72
9
 73
5
 74
0
 42
0.0000001
 43
0.0000001
 44
0.0000000001
 40
0.0
 40
0.0
 40
0.0
 40
0.0
 40
0.5000155539
 40
1.0
 40
1.0
 40
1.0
 40
1.0
 10
106.2072193017
 20
248.1786734104
 30
0.0
 10
106.3716477057
 20
248.4297392176
 30
0.0
 10
106.7023871616
 20
248.9305335936
 30
0.0
 10
107.0401506178
 20
249.4270048386
 30
0.0
 10
107.2180714825
 20
249.6686734104
 30
0.0
  0
SPLINE
  5
815
100
AcDbEntity
  8
0
100
AcDbSpline
 62
7
  6
CONTINUOUS
 70
0
 71
3
 72
9
 73
5
 74
0
 42
0.0000001
 43
0.0000001
 44
0.0000000001
 40
0.0
 40
0.0
 40
0.0
 40
0.0
 40
0.4999844551
 40
1.0
 40
1.0
 40
1.0
 40
1.0
 10
108.6037121285
 20
249.6686734104
 30
0.0
 10
108.7816329965
 20
249.4270048342
 30
0.0
 10
109.1193964716
 20
248.9305336021
 30
0.0
 10
109.4501359082
 20
248.4297392131
 30
0.0
 10
109.6145643092
 20
248.1786734104
 30
0.0
  0
SPLINE
  5
816
100
AcDbEntity
  8
0
100
AcDbSpline
 62
7
  6
CONTINUOUS
 70
0
 71
3
 72
9
 73
5
 74
0
 42
0.0000001
 43
0.0000001
 44
0.0000000001
 40
0.0
 40
0.0
 40
0.0
 40
0.0
 40
0.5000155539
 40
1.0
 40
1.0
 40
1.0
 40
1.0
 10
128.2072193017
 20
248.1786734104
 30
0.0
 10
128.3716477057
 20
248.4297392176
 30
0.0
 10
128.7023871616
 20
248.9305335936
 30
0.0
 10
129.0401506178
 20
249.4270048386
 30
0.0
 10
129.2180714825
 20
249.6686734104
 30
0.0
  0
SPLINE
  5
817
100
AcDbEntity
  8
0
100
AcDbSpline
 62
7
  6
CONTINUOUS
 70
0
 71
3
 72
9
 73
5
 74
0
 42
0.0000001
 43
0.0000001
 44
0.0000000001
 40
0.0
 40
0.0
 40
0.0
 40
0.0
 40
0.4999844551
 40
1.0
 40
1.0
 40
1.0
 40
1.0
 10
130.6037121285
 20
249.6686734104
 30
0.0
 10
130.7816329965
 20
249.4270048342
 30
0.0
 10
131.1193964716
 20
248.9305336021
 30
0.0
 10
131.4501359082
 20
248.4297392131
 30
0.0
 10
131.6145643092
 20
248.1786734104
 30
0.0
  0
SPLINE
  5
818
100
AcDbEntity
  8
0
100
AcDbSpline
 62
7
  6
CONTINUOUS
 70
0
 71
3
 72
9
 73
5
 74
0
 42
0.0000001
 43
0.0000001
 44
0.0000000001
 40
0.0
 40
0.0
 40
0.0
 40
0.0
 40
0.4999844747
 40
1.0
 40
1.0
 40
1.0
 40
1.0
 10
108.6037121285
 20
63.680699065
 30
0.0
 10
108.7816332142
 20
63.4390306358
 30
0.0
 10
109.1193959938
 20
62.9425589111
 30
0.0
 10
109.4501358128
 20
62.44176479
 30
0.0
 10
109.6145643092
 20
62.190699065
 30
0.0
  0
SPLINE
  5
819
100
AcDbEntity
  8
0
100
AcDbSpline
 62
7
  6
CONTINUOUS
 70
0
 71
3
 72
9
 73
5
 74
0
 42
0.0000001
 43
0.0000001
 44
0.0000000001
 40
0.0
 40
0.0
 40
0.0
 40
0.0
 40
0.5000155332
 40
1.0
 40
1.0
 40
1.0
 40
1.0
 10
106.2072193017
 20
62.190699065
 30
0.0
 10
106.3716477819
 20
62.4417648086
 30
0.0
 10
106.7023867508
 20
62.9425595057
 30
0.0
 10
107.040150431
 20
63.439030614
 30
0.0
 10
107.2180714825
 20
63.680699065
 30
0.0
  0
SPLINE
  5
81A
100
AcDbEntity
  8
0
100
AcDbSpline
 62
7
  6
CONTINUOUS
 70
0
 71
3
 72
9
 73
5
 74
0
 42
0.0000001
 43
0.0000001
 44
0.0000000001
 40
0.0
 40
0.0
 40
0.0
 40
0.0
 40
0.5000155539
 40
1.0
 40
1.0
 40
1.0
 40
1.0
 10
128.2072193017
 20
62.190699065
 30
0.0
 10
128.3716477057
 20
62.4417648722
 30
0.0
 10
128.7023871616
 20
62.9425592482
 30
0.0
 10
129.0401506178
 20
63.4390304932
 30
0.0
 10
129.2180714825
 20
63.680699065
 30
0.0
  0
SPLINE
  5
81B
100
AcDbEntity
  8
0
100
AcDbSpline
 62
7
  6
CONTINUOUS
 70
0
 71
3
 72
9
 73
5
 74
0
 42
0.0000001
 43
0.0000001
 44
0.0000000001
 40
0.0
 40
0.0
 40
0.0
 40
0.0
 40
0.4999844551
 40
1.0
 40
1.0
 40
1.0
 40
1.0
 10
130.6037121285
 20
63.680699065
 30
0.0
 10
130.7816329966
 20
63.439030489
 30
0.0
 10
131.1193964715
 20
62.9425592566
 30
0.0
 10
131.4501359082
 20
62.4417648677
 30
0.0
 10
131.6145643092
 20
62.190699065
 30
0.0
  0
SPLINE
  5
81C
100
AcDbEntity
  8
7_ALL_ROUNDS
100
AcDbSpline
 62
9
  6
CONTINUOUS
 70
0
 71
3
 72
17
 73
13
 74
0
 42
0.0000001
 43
0.0000001
 44
0.0000000001
 40
0.0
 40
0.0
 40
0.0
 40
0.0
 40
0.0048964396
 40
0.0177664305
 40
0.0388649628
 40
0.0681658852
 40
0.1511106371
 40
0.2655842548
 40
0.4098565693
 40
0.5820742514
 40
0.7797508582
 40
1.0
 40
1.0
 40
1.0
 40
1.0
 10
53.229701205
 20
127.0425850262
 30
0.0
 10
53.2296893241
 20
127.0419043696
 30
0.0
 10
53.2262906026
 20
127.0412997718
 30
0.0
 10
53.221851077
 20
127.0404061413
 30
0.0
 10
53.2125895086
 20
127.0396562014
 30
0.0
 10
53.1943844238
 20
127.0384717537
 30
0.0
 10
53.1626585542
 20
127.0373893611
 30
0.0
 10
53.1152673924
 20
127.0363899947
 30
0.0
 10
53.0553130303
 20
127.0357170232
 30
0.0
 10
52.9838421537
 20
127.035358268
 30
0.0
 10
52.901788575
 20
127.03533591
 30
0.0
 10
52.8436850598
 20
127.0355344039
 30
0.0
 10
52.8130638185
 20
127.0356847127
 30
0.0
  0
SPLINE
  5
81D
100
AcDbEntity
  8
7_ALL_ROUNDS
100
AcDbSpline
 62
9
  6
CONTINUOUS
 70
0
 71
3
 72
21
 73
17
 74
0
 42
0.0000001
 43
0.0000001
 44
0.0000000001
 40
0.0
 40
0.0
 40
0.0
 40
0.0
 40
0.0012866057
 40
0.0049341158
 40
0.0109678741
 40
0.0193806554
 40
0.0432749366
 40
0.0763770745
 40
0.118375401
 40
0.1688564154
 40
0.2273353586
 40
0.2932467039
 40
0.4447540989
 40
0.6175581114
 40
0.8050330036
 40
1.0
 40
1.0
 40
1.0
 40
1.0
 10
76.6184395153
 20
125.7038079933
 30
0.0
 10
76.6188683056
 20
125.7038001618
 30
0.0
 10
76.6187994063
 20
125.7013264642
 30
0.0
 10
76.6194722072
 20
125.6984807929
 30
0.0
 10
76.6196270717
 20
125.6920139467
 30
0.0
 10
76.6202449855
 20
125.6795119725
 30
0.0
 10
76.620667277
 20
125.6575159753
 30
0.0
 10
76.6211974758
 20
125.6246163185
 30
0.0
 10
76.6215671299
 20
125.5827218746
 30
0.0
 10
76.6218531651
 20
125.5324167515
 30
0.0
 10
76.6220189471
 20
125.4741231717
 30
0.0
 10
76.6220921916
 20
125.3821604515
 30
0.0
 10
76.6218574738
 20
125.2520872568
 30
0.0
 10
76.621146319
 20
125.081496275
 30
0.0
 10
76.6200108254
 20
124.8964204964
 30
0.0
 10
76.6190068511
 20
124.7689457924
 30
0.0
 10
76.6184395153
 20
124.7039602981
 30
0.0
  0
SPLINE
  5
81E
100
AcDbEntity
  8
7_ALL_ROUNDS
100
AcDbSpline
 62
9
  6
CONTINUOUS
 70
0
 71
3
 72
21
 73
17
 74
0
 42
0.0000001
 43
0.0000001
 44
0.0000000001
 40
0.0
 40
0.0
 40
0.0
 40
0.0
 40
0.1952204153
 40
0.382867481
 40
0.5557338811
 40
0.7071988633
 40
0.7730573181
 40
0.8314696864
 40
0.8818775712
 40
0.9237993818
 40
0.9568351806
 40
0.9806708618
 40
0.9890652445
 40
0.9950846298
 40
0.9987193355
 40
1.0
 40
1.0
 40
1.0
 40
1.0
 10
76.6184395153
 20
121.9413545671
 30
0.0
 10
76.6190089813
 20
121.8762846076
 30
0.0
 10
76.6200113378
 20
121.7486680053
 30
0.0
 10
76.6211488871
 20
121.5634295544
 30
0.0
 10
76.6218587206
 20
121.3927744938
 30
0.0
 10
76.6220925638
 20
121.2627122499
 30
0.0
 10
76.6220182303
 20
121.1708034773
 30
0.0
 10
76.6218518664
 20
121.1125740887
 30
0.0
 10
76.6215653325
 20
121.0623410285
 30
0.0
 10
76.6211949965
 20
121.020518615
 30
0.0
 10
76.6206656308
 20
120.9876859825
 30
0.0
 10
76.6202430617
 20
120.9657380941
 30
0.0
 10
76.619625985
 20
120.9532661394
 30
0.0
 10
76.6194701278
 20
120.9468153661
 30
0.0
 10
76.6188002025
 20
120.943978356
 30
0.0
 10
76.618866331
 20
120.9415143666
 30
0.0
 10
76.6184395153
 20
120.941506872
 30
0.0
  0
SPLINE
  5
81F
100
AcDbEntity
  8
7_ALL_ROUNDS
100
AcDbSpline
 62
9
  6
CONTINUOUS
 70
0
 71
3
 72
18
 73
14
 74
0
 42
0.0000001
 43
0.0000001
 44
0.0000000001
 40
0.0
 40
0.0
 40
0.0
 40
0.0
 40
0.1948307245
 40
0.3825401098
 40
0.5553040034
 40
0.7067204983
 40
0.8310661681
 40
0.881486706
 40
0.9234472278
 40
0.9565301545
 40
0.9803911737
 40
0.9948790574
 40
1.0
 40
1.0
 40
1.0
 40
1.0
 10
46.7556010737
 20
127.0425850262
 30
0.0
 10
46.6906486402
 20
127.0414516226
 30
0.0
 10
46.563113143
 20
127.0394424584
 30
0.0
 10
46.3779755198
 20
127.0371713144
 30
0.0
 10
46.2072902072
 20
127.0357406741
 30
0.0
 10
46.057773714
 20
127.0352298574
 30
0.0
 10
45.9489280944
 20
127.0354936483
 30
0.0
 10
45.8768050969
 20
127.0363557784
 30
0.0
 10
45.8346831303
 20
127.0370033424
 30
0.0
 10
45.8024951379
 20
127.0383073384
 30
0.0
 10
45.7769206571
 20
127.0386708464
 30
0.0
 10
45.7656542641
 20
127.0412402893
 30
0.0
 10
45.7557831781
 20
127.0408778127
 30
0.0
 10
45.7557533786
 20
127.0425850262
 30
0.0
  0
SPLINE
  5
820
100
AcDbEntity
  8
7_ALL_ROUNDS
100
AcDbSpline
 62
9
  6
CONTINUOUS
 70
0
 71
3
 72
18
 73
14
 74
0
 42
0.0000001
 43
0.0000001
 44
0.0000000001
 40
0.0
 40
0.0
 40
0.0
 40
0.0
 40
0.0051235657
 40
0.0196169852
 40
0.0434822935
 40
0.0765688503
 40
0.1185359159
 40
0.1689599422
 40
0.2933008506
 40
0.4447136369
 40
0.6174732464
 40
0.8051733461
 40
1.0
 40
1.0
 40
1.0
 40
1.0
 10
228.0985796883
 20
127.0425850262
 30
0.0
 10
228.0985498735
 20
127.0408769384
 30
0.0
 10
228.0886739911
 20
127.0412414124
 30
0.0
 10
228.0774048846
 20
127.0386702636
 30
0.0
 10
228.0518254692
 20
127.0383071982
 30
0.0
 10
228.0196327962
 20
127.0370026957
 30
0.0
 10
227.977506223
 20
127.036355493
 30
0.0
 10
227.9053814847
 20
127.0354935007
 30
0.0
 10
227.7965375448
 20
127.0352298181
 30
0.0
 10
227.6470253255
 20
127.0357408222
 30
0.0
 10
227.4763458002
 20
127.0371714681
 30
0.0
 10
227.2912140848
 20
127.0394424947
 30
0.0
 10
227.1636830601
 20
127.0414516464
 30
0.0
 10
227.0987319932
 20
127.0425850262
 30
0.0
  0
SPLINE
  5
821
100
AcDbEntity
  8
7_ALL_ROUNDS
100
AcDbSpline
 62
9
  6
CONTINUOUS
 70
0
 71
3
 72
17
 73
13
 74
0
 42
0.0000001
 43
0.0000001
 44
0.0000000001
 40
0.0
 40
0.0
 40
0.0
 40
0.0
 40
0.2204965735
 40
0.4182728416
 40
0.5904896533
 40
0.7346908466
 40
0.8490649112
 40
0.9319205699
 40
0.961182561
 40
0.9822501388
 40
0.9951015051
 40
1.0
 40
1.0
 40
1.0
 40
1.0
 10
221.0346783185
 20
127.0356530307
 30
0.0
 10
221.0045069849
 20
127.035511475
 30
0.0
 10
220.9472739248
 20
127.0353285844
 30
0.0
 10
220.866469398
 20
127.0353698654
 30
0.0
 10
220.7961239275
 20
127.0357414201
 30
0.0
 10
220.7371407695
 20
127.0364218909
 30
0.0
 10
220.6905334295
 20
127.0374216216
 30
0.0
 10
220.6593422372
 20
127.0385023413
 30
0.0
 10
220.6414446925
 20
127.0396771201
 30
0.0
 10
220.6323466874
 20
127.0404266749
 30
0.0
 10
220.6279769181
 20
127.0413053921
 30
0.0
 10
220.62464356
 20
127.0419148424
 30
0.0
 10
220.6246318619
 20
127.0425850262
 30
0.0
  0
SPLINE
  5
822
100
AcDbEntity
  8
7_ALL_ROUNDS
100
AcDbSpline
 62
9
  6
CONTINUOUS
 70
0
 71
3
 72
21
 73
17
 74
0
 42
0.0000001
 43
0.0000001
 44
0.0000000001
 40
0.0
 40
0.0
 40
0.0
 40
0.0
 40
0.0012866057
 40
0.0049341158
 40
0.0109678741
 40
0.0193806554
 40
0.0432749366
 40
0.0763770745
 40
0.118375401
 40
0.1688564154
 40
0.2273353586
 40
0.2932467039
 40
0.4447540989
 40
0.6175581114
 40
0.8050330036
 40
1.0
 40
1.0
 40
1.0
 40
1.0
 10
197.2358935516
 20
120.941506872
 30
0.0
 10
197.2354647613
 20
120.9415147035
 30
0.0
 10
197.2355336606
 20
120.9439884011
 30
0.0
 10
197.2348608597
 20
120.9468340724
 30
0.0
 10
197.2347059951
 20
120.9533009186
 30
0.0
 10
197.2340880814
 20
120.9658028928
 30
0.0
 10
197.2336657899
 20
120.9877988899
 30
0.0
 10
197.2331355911
 20
121.0206985467
 30
0.0
 10
197.232765937
 20
121.0625929907
 30
0.0
 10
197.2324799018
 20
121.1128981137
 30
0.0
 10
197.2323141198
 20
121.1711916935
 30
0.0
 10
197.2322408753
 20
121.2631544137
 30
0.0
 10
197.2324755931
 20
121.3932276084
 30
0.0
 10
197.2331867479
 20
121.5638185903
 30
0.0
 10
197.2343222415
 20
121.7488943689
 30
0.0
 10
197.2353262158
 20
121.8763690729
 30
0.0
 10
197.2358935516
 20
121.9413545671
 30
0.0
  0
SPLINE
  5
823
100
AcDbEntity
  8
7_ALL_ROUNDS
100
AcDbSpline
 62
9
  6
CONTINUOUS
 70
0
 71
3
 72
21
 73
17
 74
0
 42
0.0000001
 43
0.0000001
 44
0.0000000001
 40
0.0
 40
0.0
 40
0.0
 40
0.0
 40
0.1952204153
 40
0.382867481
 40
0.5557338811
 40
0.7071988633
 40
0.7730573181
 40
0.8314696864
 40
0.8818775712
 40
0.9237993818
 40
0.9568351806
 40
0.9806708618
 40
0.9890652445
 40
0.9950846298
 40
0.9987193355
 40
1.0
 40
1.0
 40
1.0
 40
1.0
 10
197.2358935516
 20
124.7039602981
 30
0.0
 10
197.2353240856
 20
124.7690302577
 30
0.0
 10
197.2343217291
 20
124.8966468599
 30
0.0
 10
197.2331841798
 20
125.0818853108
 30
0.0
 10
197.2324743463
 20
125.2525403715
 30
0.0
 10
197.2322405031
 20
125.3826026153
 30
0.0
 10
197.2323148366
 20
125.4745113879
 30
0.0
 10
197.2324812005
 20
125.5327407765
 30
0.0
 10
197.2327677344
 20
125.5829738368
 30
0.0
 10
197.2331380704
 20
125.6247962502
 30
0.0
 10
197.2336674361
 20
125.6576288827
 30
0.0
 10
197.2340900052
 20
125.6795767712
 30
0.0
 10
197.2347070819
 20
125.6920487259
 30
0.0
 10
197.2348629391
 20
125.6984994992
 30
0.0
 10
197.2355328644
 20
125.7013365093
 30
0.0
 10
197.2354667359
 20
125.7038004987
 30
0.0
 10
197.2358935516
 20
125.7038079933
 30
0.0
  0
SPLINE
  5
824
100
AcDbEntity
  8
7_ALL_ROUNDS
100
AcDbSpline
 62
9
  6
CONTINUOUS
 70
0
 71
3
 72
18
 73
14
 74
0
 42
0.0000001
 43
0.0000001
 44
0.0000000001
 40
0.0
 40
0.0
 40
0.0
 40
0.0
 40
0.0051243077
 40
0.0196193175
 40
0.0434859189
 40
0.0765736714
 40
0.1185435875
 40
0.1689712196
 40
0.2933248384
 40
0.4447532395
 40
0.6175165515
 40
0.8051894219
 40
1.0
 40
1.0
 40
1.0
 40
1.0
 10
296.7510710465
 20
127.0425850262
 30
0.0
 10
296.7510412274
 20
127.0408766911
 30
0.0
 10
296.7411639737
 20
127.0412417396
 30
0.0
 10
296.7298940748
 20
127.038670104
 30
0.0
 10
296.7043131636
 20
127.0383071656
 30
0.0
 10
296.6721187606
 20
127.0370024811
 30
0.0
 10
296.629989611
 20
127.0363553664
 30
0.0
 10
296.5578584999
 20
127.0354933678
 30
0.0
 10
296.4490039055
 20
127.0352299074
 30
0.0
 10
296.2994810183
 20
127.0357409902
 30
0.0
 10
296.128804141
 20
127.037171931
 30
0.0
 10
295.9436856348
 20
127.0394426141
 30
0.0
 10
295.8161690561
 20
127.04145174
 30
0.0
 10
295.7512233513
 20
127.0425850262
 30
0.0
  0
SPLINE
  5
825
100
AcDbEntity
  8
7_ALL_ROUNDS
100
AcDbSpline
 62
9
  6
CONTINUOUS
 70
0
 71
3
 72
18
 73
14
 74
0
 42
0.0000001
 43
0.0000001
 44
0.0000000001
 40
0.0
 40
0.0
 40
0.0
 40
0.0
 40
0.1948266539
 40
0.3825267536
 40
0.5552863631
 40
0.7066991494
 40
0.8310400578
 40
0.8814640841
 40
0.9234311497
 40
0.9565177065
 40
0.9803830148
 40
0.9948764343
 40
1.0
 40
1.0
 40
1.0
 40
1.0
 10
286.5177709558
 20
127.0425850262
 30
0.0
 10
286.4528198889
 20
127.0414516464
 30
0.0
 10
286.3252888642
 20
127.0394424947
 30
0.0
 10
286.1401571488
 20
127.0371714681
 30
0.0
 10
285.9694776235
 20
127.0357408222
 30
0.0
 10
285.8199654042
 20
127.0352298181
 30
0.0
 10
285.7111214643
 20
127.0354935007
 30
0.0
 10
285.638996726
 20
127.036355493
 30
0.0
 10
285.5968701528
 20
127.0370026957
 30
0.0
 10
285.5646774798
 20
127.0383071982
 30
0.0
 10
285.5390980644
 20
127.0386702636
 30
0.0
 10
285.5278289579
 20
127.0412414124
 30
0.0
 10
285.5179530755
 20
127.0408769384
 30
0.0
 10
285.5179232607
 20
127.0425850262
 30
0.0
  0
SPLINE
  5
826
100
AcDbEntity
  8
0
100
AcDbSpline
 62
7
  6
CONTINUOUS
 70
0
 71
3
 72
12
 73
8
 74
0
 42
0.0000001
 43
0.0000001
 44
0.0000000001
 40
0.0
 40
0.0
 40
0.0
 40
0.0
 40
0.2017479673
 40
0.3259049402
 40
0.4613424811
 40
0.7430558217
 40
1.0
 40
1.0
 40
1.0
 40
1.0
 10
398.5419860638
 20
232.2498784425
 30
0.0
 10
398.6657798432
 20
232.2562379676
 30
0.0
 10
398.8673113997
 20
232.1803202523
 30
0.0
 10
399.0912199925
 20
232.0080906446
 30
0.0
 10
399.3180697952
 20
231.7619776042
 30
0.0
 10
399.525701889
 20
231.3978451155
 30
0.0
 10
399.6030936949
 20
231.0673240601
 30
0.0
 10
399.6030936964
 20
230.9094536454
 30
0.0
  0
SPLINE
  5
827
100
AcDbEntity
  8
0
100
AcDbSpline
 62
7
  6
CONTINUOUS
 70
0
 71
3
 72
9
 73
5
 74
0
 42
0.0000001
 43
0.0000001
 44
0.0000000001
 40
0.0
 40
0.0
 40
0.0
 40
0.0
 40
0.2448331167
 40
1.0
 40
1.0
 40
1.0
 40
1.0
 10
396.5635214242
 20
232.0789000157
 30
0.0
 10
396.5852217572
 20
232.0914333436
 30
0.0
 10
396.6769658411
 20
232.1372141536
 30
0.0
 10
396.7799366487
 20
232.1589751623
 30
0.0
 10
396.8571292474
 20
232.1629432467
 30
0.0
  0
SPLINE
  5
828
100
AcDbEntity
  8
0
100
AcDbSpline
 62
7
  6
CONTINUOUS
 70
0
 71
3
 72
9
 73
5
 74
0
 42
0.0000001
 43
0.0000001
 44
0.0000000001
 40
0.0
 40
0.0
 40
0.0
 40
0.0
 40
0.4823921565
 40
1.0
 40
1.0
 40
1.0
 40
1.0
 10
379.3516530256
 20
149.4122506352
 30
0.0
 10
379.3262079849
 20
149.2853673927
 30
0.0
 10
379.3575574321
 20
149.0055854235
 30
0.0
 10
379.4868198706
 20
148.7669091001
 30
0.0
 10
379.564961652
 20
148.6521265846
 30
0.0
  0
SPLINE
  5
829
100
AcDbEntity
  8
0
100
AcDbSpline
 62
7
  6
CONTINUOUS
 70
0
 71
3
 72
15
 73
11
 74
0
 42
0.0000001
 43
0.0000001
 44
0.0000000001
 40
0.0
 40
0.0
 40
0.0
 40
0.0
 40
0.0982029827
 40
0.2054702656
 40
0.445254677
 40
0.576870519
 40
0.7150523762
 40
0.8581363978
 40
0.9300675304
 40
1.0
 40
1.0
 40
1.0
 40
1.0
 10
379.564961652
 20
148.6521265846
 30
0.0
 10
379.6548669226
 20
148.5200646719
 30
0.0
 10
379.8778272102
 20
148.2672331061
 30
0.0
 10
380.4426034659
 20
147.8104629787
 30
0.0
 10
381.1443718754
 20
147.4523491532
 30
0.0
 10
381.9317359396
 20
147.1907920291
 30
0.0
 10
382.5897178747
 20
147.048765397
 30
0.0
 10
383.1646643764
 20
146.9986196414
 30
0.0
 10
383.628305751
 20
147.0214635309
 30
0.0
 10
383.8567982967
 20
147.0608934759
 30
0.0
 10
383.9666465637
 20
147.0905020373
 30
0.0
  0
SPLINE
  5
82A
100
AcDbEntity
  8
0
100
AcDbSpline
 62
7
  6
CONTINUOUS
 70
0
 71
3
 72
9
 73
5
 74
0
 42
0.0000001
 43
0.0000001
 44
0.0000000001
 40
0.0
 40
0.0
 40
0.0
 40
0.0
 40
0.2629637329
 40
1.0
 40
1.0
 40
1.0
 40
1.0
 10
383.9666465637
 20
147.0905020373
 30
0.0
 10
383.9965407893
 20
147.0985597431
 30
0.0
 10
384.1093359871
 20
147.1321430488
 30
0.0
 10
384.219082107
 20
147.1778491895
 30
0.0
 10
384.2942291599
 20
147.2212467224
 30
0.0
  0
SPLINE
  5
82B
100
AcDbEntity
  8
7_ALL_ROUNDS
100
AcDbSpline
 62
7
  6
CONTINUOUS
 70
0
 71
3
 72
10
 73
6
 74
0
 42
0.0000001
 43
0.0000001
 44
0.0000000001
 40
0.0
 40
0.0
 40
0.0
 40
0.0
 40
0.2419053249
 40
0.4888604451
 40
1.0
 40
1.0
 40
1.0
 40
1.0
 10
380.3497524055
 20
150.9143660355
 30
0.0
 10
380.2204085978
 20
150.8397024847
 30
0.0
 10
379.9768078762
 20
150.6554060337
 30
0.0
 10
379.5830812717
 20
150.1742988642
 30
0.0
 10
379.4128905351
 20
149.7216531637
 30
0.0
 10
379.3515880713
 20
149.412098959
 30
0.0
  0
SPLINE
  5
82C
100
AcDbEntity
  8
0
100
AcDbSpline
 62
7
  6
CONTINUOUS
 70
0
 71
3
 72
10
 73
6
 74
0
 42
0.0000001
 43
0.0000001
 44
0.0000000001
 40
0.0
 40
0.0
 40
0.0
 40
0.0
 40
0.4779993621
 40
0.7279123337
 40
1.0
 40
1.0
 40
1.0
 40
1.0
 10
379.3520871995
 20
148.1558411512
 30
0.0
 10
379.3343404881
 20
148.2532362849
 30
0.0
 10
379.3330973643
 20
148.4097275064
 30
0.0
 10
379.4057583108
 20
148.6057519032
 30
0.0
 10
379.4696405875
 20
148.6948850148
 30
0.0
 10
379.5078262072
 20
148.7363269753
 30
0.0
  0
SPLINE
  5
82D
100
AcDbEntity
  8
7_ALL_ROUNDS
100
AcDbSpline
 62
7
  6
CONTINUOUS
 70
0
 71
3
 72
13
 73
9
 74
0
 42
0.0000001
 43
0.0000001
 44
0.0000000001
 40
0.0
 40
0.0
 40
0.0
 40
0.0
 40
0.2590735056
 40
0.517534509
 40
0.644422876
 40
0.7675473983
 40
0.8858920919
 40
1.0
 40
1.0
 40
1.0
 40
1.0
 10
379.3520778574
 20
148.1559035264
 30
0.0
 10
379.4434138497
 20
147.6485144349
 30
0.0
 10
379.8286141131
 20
146.6648776817
 30
0.0
 10
380.7028416291
 20
145.6840814415
 30
0.0
 10
381.5775166616
 20
145.1607827429
 30
0.0
 10
382.2856163077
 20
144.9407771921
 30
0.0
 10
383.0044982221
 20
144.9300018512
 30
0.0
 10
383.4531665001
 20
145.0854154126
 30
0.0
 10
383.6498575308
 20
145.1988754702
 30
0.0
  0
SPLINE
  5
82E
100
AcDbEntity
  8
0
100
AcDbSpline
 62
7
  6
CONTINUOUS
 70
0
 71
3
 72
9
 73
5
 74
0
 42
0.0000001
 43
0.0000001
 44
0.0000000001
 40
0.0
 40
0.0
 40
0.0
 40
0.0
 40
0.4823921565
 40
1.0
 40
1.0
 40
1.0
 40
1.0
 10
379.3516530256
 20
228.4387687877
 30
0.0
 10
379.3262079849
 20
228.3118855452
 30
0.0
 10
379.3575574321
 20
228.0321035759
 30
0.0
 10
379.4868198706
 20
227.7934272526
 30
0.0
 10
379.564961652
 20
227.6786447371
 30
0.0
  0
SPLINE
  5
82F
100
AcDbEntity
  8
0
100
AcDbSpline
 62
7
  6
CONTINUOUS
 70
0
 71
3
 72
15
 73
11
 74
0
 42
0.0000001
 43
0.0000001
 44
0.0000000001
 40
0.0
 40
0.0
 40
0.0
 40
0.0
 40
0.0982029827
 40
0.2054702656
 40
0.445254677
 40
0.576870519
 40
0.7150523762
 40
0.8581363978
 40
0.9300675304
 40
1.0
 40
1.0
 40
1.0
 40
1.0
 10
379.564961652
 20
227.6786447371
 30
0.0
 10
379.6548669226
 20
227.5465828244
 30
0.0
 10
379.8778272102
 20
227.2937512585
 30
0.0
 10
380.4426034659
 20
226.8369811312
 30
0.0
 10
381.1443718754
 20
226.4788673057
 30
0.0
 10
381.9317359396
 20
226.2173101816
 30
0.0
 10
382.5897178747
 20
226.0752835495
 30
0.0
 10
383.1646643764
 20
226.0251377939
 30
0.0
 10
383.628305751
 20
226.0479816833
 30
0.0
 10
383.8567982967
 20
226.0874116284
 30
0.0
 10
383.9666465637
 20
226.1170201898
 30
0.0
  0
SPLINE
  5
830
100
AcDbEntity
  8
0
100
AcDbSpline
 62
7
  6
CONTINUOUS
 70
0
 71
3
 72
9
 73
5
 74
0
 42
0.0000001
 43
0.0000001
 44
0.0000000001
 40
0.0
 40
0.0
 40
0.0
 40
0.0
 40
0.2629637329
 40
1.0
 40
1.0
 40
1.0
 40
1.0
 10
383.9666465637
 20
226.1170201898
 30
0.0
 10
383.9965407893
 20
226.1250778956
 30
0.0
 10
384.1093359871
 20
226.1586612013
 30
0.0
 10
384.219082107
 20
226.204367342
 30
0.0
 10
384.2942291599
 20
226.2477648749
 30
0.0
  0
SPLINE
  5
831
100
AcDbEntity
  8
7_ALL_ROUNDS
100
AcDbSpline
 62
7
  6
CONTINUOUS
 70
0
 71
3
 72
10
 73
6
 74
0
 42
0.0000001
 43
0.0000001
 44
0.0000000001
 40
0.0
 40
0.0
 40
0.0
 40
0.0
 40
0.2419053249
 40
0.4888604451
 40
1.0
 40
1.0
 40
1.0
 40
1.0
 10
380.3497524055
 20
229.9408841879
 30
0.0
 10
380.2204085978
 20
229.8662206371
 30
0.0
 10
379.9768078762
 20
229.6819241861
 30
0.0
 10
379.5830812717
 20
229.2008170167
 30
0.0
 10
379.4128905351
 20
228.7481713162
 30
0.0
 10
379.3515880713
 20
228.4386171114
 30
0.0
  0
SPLINE
  5
832
100
AcDbEntity
  8
0
100
AcDbSpline
 62
7
  6
CONTINUOUS
 70
0
 71
3
 72
10
 73
6
 74
0
 42
0.0000001
 43
0.0000001
 44
0.0000000001
 40
0.0
 40
0.0
 40
0.0
 40
0.0
 40
0.4779993621
 40
0.7279123337
 40
1.0
 40
1.0
 40
1.0
 40
1.0
 10
379.3520871995
 20
227.1823593037
 30
0.0
 10
379.3343404881
 20
227.2797544374
 30
0.0
 10
379.3330973643
 20
227.4362456589
 30
0.0
 10
379.4057583108
 20
227.6322700556
 30
0.0
 10
379.4696405875
 20
227.7214031673
 30
0.0
 10
379.5078262072
 20
227.7628451278
 30
0.0
  0
SPLINE
  5
833
100
AcDbEntity
  8
7_ALL_ROUNDS
100
AcDbSpline
 62
7
  6
CONTINUOUS
 70
0
 71
3
 72
13
 73
9
 74
0
 42
0.0000001
 43
0.0000001
 44
0.0000000001
 40
0.0
 40
0.0
 40
0.0
 40
0.0
 40
0.2590735056
 40
0.517534509
 40
0.644422876
 40
0.7675473983
 40
0.8858920919
 40
1.0
 40
1.0
 40
1.0
 40
1.0
 10
379.3520778574
 20
227.1824216788
 30
0.0
 10
379.4434138497
 20
226.6750325874
 30
0.0
 10
379.8286141131
 20
225.6913958341
 30
0.0
 10
380.7028416291
 20
224.7105995939
 30
0.0
 10
381.5775166616
 20
224.1873008953
 30
0.0
 10
382.2856163077
 20
223.9672953446
 30
0.0
 10
383.0044982221
 20
223.9565200037
 30
0.0
 10
383.4531665001
 20
224.1119335651
 30
0.0
 10
383.6498575308
 20
224.2253936227
 30
0.0
  0
SPLINE
  5
834
100
AcDbEntity
  8
7_ALL_ROUNDS
100
AcDbSpline
 62
7
  6
CONTINUOUS
 70
0
 71
3
 72
11
 73
7
 74
0
 42
0.0000001
 43
0.0000001
 44
0.0000000001
 40
0.0
 40
0.0
 40
0.0
 40
0.0
 40
0.2177649323
 40
0.4508851872
 40
0.710276476
 40
1.0
 40
1.0
 40
1.0
 40
1.0
 10
370.6757149874
 20
220.8983414099
 30
0.0
 10
370.7416917171
 20
220.9364432661
 30
0.0
 10
370.8932998537
 20
220.9914679312
 30
0.0
 10
371.1451255809
 20
220.9978210526
 30
0.0
 10
371.4135173558
 20
220.9329736475
 30
0.0
 10
371.5881330736
 20
220.8498753981
 30
0.0
 10
371.6759113734
 20
220.7991833016
 30
0.0
  0
SPLINE
  5
835
100
AcDbEntity
  8
7_ALL_ROUNDS
100
AcDbSpline
 62
7
  6
CONTINUOUS
 70
0
 71
3
 72
8
 73
4
 74
0
 42
0.0000001
 43
0.0000001
 44
0.0000000001
 40
0.0
 40
0.0
 40
0.0
 40
0.0
 40
1.0
 40
1.0
 40
1.0
 40
1.0
 10
371.069770396
 20
219.1791662359
 30
0.0
 10
371.0961102716
 20
219.1943774803
 30
0.0
 10
371.1247930346
 20
219.2060342242
 30
0.0
 10
371.1542184185
 20
219.2137360283
 30
0.0
  0
SPLINE
  5
836
100
AcDbEntity
  8
7_ALL_ROUNDS
100
AcDbSpline
 62
7
  6
CONTINUOUS
 70
0
 71
3
 72
9
 73
5
 74
0
 42
0.0000001
 43
0.0000001
 44
0.0000000001
 40
0.0
 40
0.0
 40
0.0
 40
0.0
 40
0.4562799935
 40
1.0
 40
1.0
 40
1.0
 40
1.0
 10
371.1542184185
 20
219.2137360283
 30
0.0
 10
371.2177871271
 20
219.2303745111
 30
0.0
 10
371.367676485
 20
219.2269619444
 30
0.0
 10
371.5020377611
 20
219.1687863985
 30
0.0
 10
371.5698453562
 20
219.1296274132
 30
0.0
  0
SPLINE
  5
837
100
AcDbEntity
  8
0
100
AcDbSpline
 62
7
  6
CONTINUOUS
 70
0
 71
3
 72
9
 73
5
 74
0
 42
0.0000001
 43
0.0000001
 44
0.0000000001
 40
0.0
 40
0.0
 40
0.0
 40
0.0
 40
0.2775378226
 40
1.0
 40
1.0
 40
1.0
 40
1.0
 10
399.6030936964
 20
230.9094536454
 30
0.0
 10
399.6030936964
 20
230.8762312279
 30
0.0
 10
399.5969007879
 20
230.7570207906
 30
0.0
 10
399.5627838507
 20
230.6362884716
 30
0.0
 10
399.5157469963
 20
230.5637170095
 30
0.0
  0
SPLINE
  5
838
100
AcDbEntity
  8
7_ALL_ROUNDS
100
AcDbSpline
 62
7
  6
CONTINUOUS
 70
0
 71
3
 72
11
 73
7
 74
0
 42
0.0000001
 43
0.0000001
 44
0.0000000001
 40
0.0
 40
0.0
 40
0.0
 40
0.0
 40
0.2897008125
 40
0.5490840078
 40
0.7822133781
 40
1.0
 40
1.0
 40
1.0
 40
1.0
 10
393.7376429464
 20
155.1564517182
 30
0.0
 10
393.7376429464
 20
155.0551569522
 30
0.0
 10
393.722289798
 20
154.8625160111
 30
0.0
 10
393.6442828068
 20
154.5978334084
 30
0.0
 10
393.5129430951
 20
154.3830491671
 30
0.0
 10
393.3895689859
 20
154.2793072112
 30
0.0
 10
393.3236257701
 20
154.2412247094
 30
0.0
  0
SPLINE
  5
839
100
AcDbEntity
  8
7_ALL_ROUNDS
100
AcDbSpline
 62
7
  6
CONTINUOUS
 70
0
 71
3
 72
11
 73
7
 74
0
 42
0.0000001
 43
0.0000001
 44
0.0000000001
 40
0.0
 40
0.0
 40
0.0
 40
0.0
 40
0.2372535399
 40
0.5000248244
 40
0.7627825987
 40
1.0
 40
1.0
 40
1.0
 40
1.0
 10
392.3234293841
 20
208.87521146
 30
0.0
 10
392.5242043314
 20
208.7592636343
 30
0.0
 10
392.9041446379
 20
208.4394552592
 30
0.0
 10
393.347598465
 20
207.8334494263
 30
0.0
 10
393.6506780641
 20
207.1464386396
 30
0.0
 10
393.7376429464
 20
206.6575365628
 30
0.0
 10
393.7376429464
 20
206.4257217592
 30
0.0
  0
SPLINE
  5
83A
100
AcDbEntity
  8
7_ALL_ROUNDS
100
AcDbSpline
 62
7
  6
CONTINUOUS
 70
0
 71
3
 72
11
 73
7
 74
0
 42
0.0000001
 43
0.0000001
 44
0.0000000001
 40
0.0
 40
0.0
 40
0.0
 40
0.0
 40
0.2349650303
 40
0.478678911
 40
0.7341534392
 40
1.0
 40
1.0
 40
1.0
 40
1.0
 10
409.1525707763
 20
128.0907612612
 30
0.0
 10
408.9763982016
 20
127.9890213417
 30
0.0
 10
408.5746859633
 20
127.8496332341
 30
0.0
 10
407.9301511978
 20
127.8522395086
 30
0.0
 10
407.2847989115
 20
128.0232582563
 30
0.0
 10
406.8763207482
 20
128.2209063063
 30
0.0
 10
406.6770062836
 20
128.3360396289
 30
0.0
  0
SPLINE
  5
83B
100
AcDbEntity
  8
7_ALL_ROUNDS
100
AcDbSpline
 62
7
  6
CONTINUOUS
 70
0
 71
3
 72
11
 73
7
 74
0
 42
0.0000001
 43
0.0000001
 44
0.0000000001
 40
0.0
 40
0.0
 40
0.0
 40
0.0
 40
0.2349580582
 40
0.4786744394
 40
0.7341524738
 40
1.0
 40
1.0
 40
1.0
 40
1.0
 10
359.7965174495
 20
249.9072912584
 30
0.0
 10
359.6203877034
 20
249.8055760725
 30
0.0
 10
359.2989441536
 20
249.5273876107
 30
0.0
 10
358.9790287543
 20
248.9680143934
 30
0.0
 10
358.8044654125
 20
248.3237563769
 30
0.0
 10
358.7713564438
 20
247.8712770202
 30
0.0
 10
358.7713815507
 20
247.6411472582
 30
0.0
  0
SPLINE
  5
83C
100
AcDbEntity
  8
7_ALL_ROUNDS
100
AcDbSpline
 62
7
  6
CONTINUOUS
 70
0
 71
3
 72
11
 73
7
 74
0
 42
0.0000001
 43
0.0000001
 44
0.0000000001
 40
0.0
 40
0.0
 40
0.0
 40
0.0
 40
0.237263303
 40
0.5000248203
 40
0.7627728379
 40
1.0
 40
1.0
 40
1.0
 40
1.0
 10
391.5809672638
 20
207.5731752516
 30
0.0
 10
391.6813586198
 20
207.5151990967
 30
0.0
 10
391.8713443176
 20
207.3553078009
 30
0.0
 10
392.093005843
 20
207.0522677005
 30
0.0
 10
392.244610539
 20
206.7088003424
 30
0.0
 10
392.288074045
 20
206.4643422851
 30
0.0
 10
392.288074045
 20
206.3484304012
 30
0.0
  0
SPLINE
  5
83D
100
AcDbEntity
  8
0
100
AcDbSpline
 62
7
  6
CONTINUOUS
 70
0
 71
3
 72
10
 73
6
 74
0
 42
0.0000001
 43
0.0000001
 44
0.0000000001
 40
0.0
 40
0.0
 40
0.0
 40
0.0
 40
0.2286018635
 40
0.467069288
 40
1.0
 40
1.0
 40
1.0
 40
1.0
 10
383.6498189638
 20
224.2252983767
 30
0.0
 10
383.7330317976
 20
224.2733213373
 30
0.0
 10
383.8906806431
 20
224.3947134384
 30
0.0
 10
384.1507965297
 20
224.729197491
 30
0.0
 10
384.255305137
 20
225.0475273643
 30
0.0
 10
384.2942291599
 20
225.2680972945
 30
0.0
  0
SPLINE
  5
83E
100
AcDbEntity
  8
7_ALL_ROUNDS
100
AcDbSpline
 62
7
  6
CONTINUOUS
 70
0
 71
3
 72
10
 73
6
 74
0
 42
0.0000001
 43
0.0000001
 44
0.0000000001
 40
0.0
 40
0.0
 40
0.0
 40
0.0
 40
0.22653946
 40
0.4639425983
 40
1.0
 40
1.0
 40
1.0
 40
1.0
 10
393.3236257701
 20
154.2412247094
 30
0.0
 10
393.270082342
 20
154.2103031404
 30
0.0
 10
393.1507901013
 20
154.1623830295
 30
0.0
 10
392.8771923158
 20
154.1308170647
 30
0.0
 10
392.6650204672
 20
154.1836284724
 30
0.0
 10
392.5295276525
 20
154.2388381895
 30
0.0
  0
SPLINE
  5
83F
100
AcDbEntity
  8
7_ALL_ROUNDS
100
AcDbSpline
 62
7
  6
CONTINUOUS
 70
0
 71
3
 72
9
 73
5
 74
0
 42
0.0000001
 43
0.0000001
 44
0.0000000001
 40
0.0
 40
0.0
 40
0.0
 40
0.0
 40
0.2430582478
 40
1.0
 40
1.0
 40
1.0
 40
1.0
 10
392.5295276525
 20
154.2388381895
 30
0.0
 10
392.5122814559
 20
154.2458655557
 30
0.0
 10
392.4418672517
 20
154.2760964925
 30
0.0
 10
392.3736524636
 20
154.3113789157
 30
0.0
 10
392.3234293841
 20
154.3403828176
 30
0.0
  0
SPLINE
  5
840
100
AcDbEntity
  8
7_ALL_ROUNDS
100
AcDbSpline
 62
7
  6
CONTINUOUS
 70
0
 71
3
 72
10
 73
6
 74
0
 42
0.0000001
 43
0.0000001
 44
0.0000000001
 40
0.0
 40
0.0
 40
0.0
 40
0.0
 40
0.2438403318
 40
0.493349821
 40
1.0
 40
1.0
 40
1.0
 40
1.0
 10
406.6770062836
 20
128.3360396289
 30
0.0
 10
406.4214046074
 20
128.4836870678
 30
0.0
 10
405.931610944
 20
128.8312453049
 30
0.0
 10
405.0534537271
 20
129.6678247917
 30
0.0
 10
404.5094863708
 20
130.4169690409
 30
0.0
 10
404.202823308
 20
130.9481250374
 30
0.0
  0
SPLINE
  5
841
100
AcDbEntity
  8
7_ALL_ROUNDS
100
AcDbSpline
 62
7
  6
CONTINUOUS
 70
0
 71
3
 72
10
 73
6
 74
0
 42
0.0000001
 43
0.0000001
 44
0.0000000001
 40
0.0
 40
0.0
 40
0.0
 40
0.0
 40
0.2438461483
 40
0.4933587286
 40
1.0
 40
1.0
 40
1.0
 40
1.0
 10
358.7713815507
 20
247.6411472582
 30
0.0
 10
358.7714137641
 20
247.3458802286
 30
0.0
 10
358.8274752365
 20
246.7477505132
 30
0.0
 10
359.1129058476
 20
245.568623249
 30
0.0
 10
359.4897780011
 20
244.7227293821
 30
0.0
 10
359.7965174495
 20
244.1914410819
 30
0.0
  0
SPLINE
  5
842
100
AcDbEntity
  8
7_ALL_ROUNDS
100
AcDbSpline
 62
9
  6
CONTINUOUS
 70
0
 71
3
 72
11
 73
7
 74
0
 42
0.0000001
 43
0.0000001
 44
0.0000000001
 40
0.0
 40
0.0
 40
0.0
 40
0.0
 40
0.2173548313
 40
0.4501270062
 40
0.7094723195
 40
1.0
 40
1.0
 40
1.0
 40
1.0
 10
387.2778107931
 20
166.1834600192
 30
0.0
 10
387.3119622757
 20
166.2019144598
 30
0.0
 10
387.3762334751
 20
166.2532833722
 30
0.0
 10
387.4450734165
 20
166.3618200393
 30
0.0
 10
387.4865443805
 20
166.4966461631
 30
0.0
 10
387.495206829
 20
166.5951368965
 30
0.0
 10
387.4956043482
 20
166.6470224279
 30
0.0
  0
SPLINE
  5
843
100
AcDbEntity
  8
0
100
AcDbSpline
 62
7
  6
CONTINUOUS
 70
0
 71
3
 72
13
 73
9
 74
0
 42
0.0000001
 43
0.0000001
 44
0.0000000001
 40
0.0
 40
0.0
 40
0.0
 40
0.0
 40
0.2015248533
 40
0.3255651885
 40
0.4608626889
 40
0.7422935265
 40
0.876981135
 40
1.0
 40
1.0
 40
1.0
 40
1.0
 10
396.8571292474
 20
232.1629432467
 30
0.0
 10
397.0784806271
 20
232.1743218112
 30
0.0
 10
397.4388758832
 20
232.0387015906
 30
0.0
 10
397.8392869652
 20
231.7305692785
 30
0.0
 10
398.2446676795
 20
231.2908839252
 30
0.0
 10
398.5502714762
 20
230.7547776611
 30
0.0
 10
398.7214383466
 20
230.1851947529
 30
0.0
 10
398.7545655557
 20
229.9013592682
 30
0.0
 10
398.754565559
 20
229.7660590852
 30
0.0
  0
SPLINE
  5
844
100
AcDbEntity
  8
0
100
AcDbSpline
 62
7
  6
CONTINUOUS
 70
0
 71
3
 72
16
 73
12
 74
0
 42
0.0000001
 43
0.0000001
 44
0.0000000001
 40
0.0
 40
0.0
 40
0.0
 40
0.0
 40
0.0665804453
 40
0.1396907396
 40
0.2884506415
 40
0.4317426768
 40
0.5665988348
 40
0.6916994329
 40
0.805949076
 40
0.908744854
 40
1.0
 40
1.0
 40
1.0
 40
1.0
 10
384.2942291599
 20
146.241579142
 30
0.0
 10
384.1835094183
 20
146.1776383293
 30
0.0
 10
383.9267618007
 20
146.0864643789
 30
0.0
 10
383.3766369794
 20
146.0097752068
 30
0.0
 10
382.6705820983
 20
146.0500243167
 30
0.0
 10
381.8673476877
 20
146.2232948756
 30
0.0
 10
381.1358477188
 20
146.4842546606
 30
0.0
 10
380.494643491
 20
146.8135738941
 30
0.0
 10
379.9610978619
 20
147.2032980844
 30
0.0
 10
379.5552661012
 20
147.6381693314
 30
0.0
 10
379.3835010804
 20
147.9834396815
 30
0.0
 10
379.3520871995
 20
148.1558411512
 30
0.0
  0
SPLINE
  5
845
100
AcDbEntity
  8
0
100
AcDbSpline
 62
7
  6
CONTINUOUS
 70
0
 71
3
 72
16
 73
12
 74
0
 42
0.0000001
 43
0.0000001
 44
0.0000000001
 40
0.0
 40
0.0
 40
0.0
 40
0.0
 40
0.0665804453
 40
0.1396907396
 40
0.2884506415
 40
0.4317426768
 40
0.5665988348
 40
0.6916994329
 40
0.805949076
 40
0.908744854
 40
1.0
 40
1.0
 40
1.0
 40
1.0
 10
384.2942291599
 20
225.2680972945
 30
0.0
 10
384.1835094183
 20
225.2041564818
 30
0.0
 10
383.9267618007
 20
225.1129825314
 30
0.0
 10
383.3766369794
 20
225.0362933592
 30
0.0
 10
382.6705820983
 20
225.0765424692
 30
0.0
 10
381.8673476877
 20
225.2498130281
 30
0.0
 10
381.1358477188
 20
225.5107728131
 30
0.0
 10
380.494643491
 20
225.8400920466
 30
0.0
 10
379.9610978619
 20
226.2298162368
 30
0.0
 10
379.5552661012
 20
226.6646874839
 30
0.0
 10
379.3835010804
 20
227.009957834
 30
0.0
 10
379.3520871995
 20
227.1823593037
 30
0.0
  0
SPLINE
  5
846
100
AcDbEntity
  8
7_ALL_ROUNDS
100
AcDbSpline
 62
7
  6
CONTINUOUS
 70
0
 71
3
 72
9
 73
5
 74
0
 42
0.0000001
 43
0.0000001
 44
0.0000000001
 40
0.0
 40
0.0
 40
0.0
 40
0.0
 40
0.2569731382
 40
1.0
 40
1.0
 40
1.0
 40
1.0
 10
370.261697811
 20
219.9831144011
 30
0.0
 10
370.261697811
 20
220.0027490793
 30
0.0
 10
370.2629055642
 20
220.0791480584
 30
0.0
 10
370.2690335318
 20
220.1554984991
 30
0.0
 10
370.2767560442
 20
220.2117436544
 30
0.0
  0
SPLINE
  5
847
100
AcDbEntity
  8
7_ALL_ROUNDS
100
AcDbSpline
 62
7
  6
CONTINUOUS
 70
0
 71
3
 72
9
 73
5
 74
0
 42
0.0000001
 43
0.0000001
 44
0.0000000001
 40
0.0
 40
0.0
 40
0.0
 40
0.0
 40
0.2562608814
 40
1.0
 40
1.0
 40
1.0
 40
1.0
 10
370.2767560442
 20
220.2117436544
 30
0.0
 10
370.2787251445
 20
220.2260851468
 30
0.0
 10
370.2872174447
 20
220.2819332887
 30
0.0
 10
370.2990191669
 20
220.3372962998
 30
0.0
 10
370.3098859696
 20
220.3778800485
 30
0.0
  0
SPLINE
  5
848
100
AcDbEntity
  8
7_ALL_ROUNDS
100
AcDbSpline
 62
7
  6
CONTINUOUS
 70
0
 71
3
 72
9
 73
5
 74
0
 42
0.0000001
 43
0.0000001
 44
0.0000000001
 40
0.0
 40
0.0
 40
0.0
 40
0.0
 40
0.527885525
 40
1.0
 40
1.0
 40
1.0
 40
1.0
 10
370.3098859696
 20
220.3778800485
 30
0.0
 10
370.3394209222
 20
220.4881828781
 30
0.0
 10
370.4249016087
 20
220.6922976854
 30
0.0
 10
370.5872784363
 20
220.8472689064
 30
0.0
 10
370.6757149874
 20
220.8983414099
 30
0.0
  0
SPLINE
  5
849
100
AcDbEntity
  8
0
100
AcDbSpline
 62
7
  6
CONTINUOUS
 70
0
 71
3
 72
16
 73
12
 74
0
 42
0.0000001
 43
0.0000001
 44
0.0000000001
 40
0.0
 40
0.0
 40
0.0
 40
0.0
 40
0.1371335058
 40
0.2827142322
 40
0.4298810002
 40
0.5714946422
 40
0.70130431
 40
0.8151785897
 40
0.9127686986
 40
0.9571435388
 40
1.0
 40
1.0
 40
1.0
 40
1.0
 10
384.2942291599
 20
226.2477648749
 30
0.0
 10
384.2540413196
 20
226.5219135251
 30
0.0
 10
384.1129391749
 20
227.0793003983
 30
0.0
 10
383.763072882
 20
227.8778830204
 30
0.0
 10
383.2899191248
 20
228.6212970947
 30
0.0
 10
382.7265756865
 20
229.2572905838
 30
0.0
 10
382.1108774625
 20
229.7420200448
 30
0.0
 10
381.4830154068
 20
230.0430205543
 30
0.0
 10
380.9589822934
 20
230.1193403678
 30
0.0
 10
380.5883980998
 20
230.0542388432
 30
0.0
 10
380.4246091928
 20
229.9841106627
 30
0.0
 10
380.3496070178
 20
229.9408350737
 30
0.0
  0
SPLINE
  5
84A
100
AcDbEntity
  8
7_ALL_ROUNDS
100
AcDbSpline
 62
9
  6
CONTINUOUS
 70
0
 71
3
 72
11
 73
7
 74
0
 42
0.0000001
 43
0.0000001
 44
0.0000000001
 40
0.0
 40
0.0
 40
0.0
 40
0.0
 40
0.2373744648
 40
0.5001885882
 40
0.7628854956
 40
1.0
 40
1.0
 40
1.0
 40
1.0
 10
386.7947217723
 20
168.9059174479
 30
0.0
 10
386.7947191887
 20
168.9639010021
 30
0.0
 10
386.7729680688
 20
169.0861613073
 30
0.0
 10
386.6971683538
 20
169.2579092207
 30
0.0
 10
386.5863195587
 20
169.4093398554
 30
0.0
 10
386.4913790247
 20
169.4892306168
 30
0.0
 10
386.4412222296
 20
169.5181966058
 30
0.0
  0
SPLINE
  5
84B
100
AcDbEntity
  8
7_ALL_ROUNDS
100
AcDbSpline
 62
9
  6
CONTINUOUS
 70
0
 71
3
 72
11
 73
7
 74
0
 42
0.0000001
 43
0.0000001
 44
0.0000000001
 40
0.0
 40
0.0
 40
0.0
 40
0.0
 40
0.275583951
 40
0.500214028
 40
0.7247605839
 40
1.0
 40
1.0
 40
1.0
 40
1.0
 10
386.4412222296
 20
166.4465685688
 30
0.0
 10
386.482594009
 20
166.4226787631
 30
0.0
 10
386.5652711196
 20
166.3883410173
 30
0.0
 10
386.6989079901
 20
166.4085391871
 30
0.0
 10
386.7831224246
 20
166.5141565761
 30
0.0
 10
386.7947215108
 20
166.6028405331
 30
0.0
 10
386.7947217723
 20
166.6505547212
 30
0.0
  0
SPLINE
  5
84C
100
AcDbEntity
  8
7_ALL_ROUNDS
100
AcDbSpline
 62
9
  6
CONTINUOUS
 70
0
 71
3
 72
11
 73
7
 74
0
 42
0.0000001
 43
0.0000001
 44
0.0000000001
 40
0.0
 40
0.0
 40
0.0
 40
0.0
 40
0.2373744648
 40
0.5001885882
 40
0.7628854956
 40
1.0
 40
1.0
 40
1.0
 40
1.0
 10
374.2347705042
 20
173.9039449435
 30
0.0
 10
374.2347730878
 20
173.8459613893
 30
0.0
 10
374.2565242077
 20
173.7237010841
 30
0.0
 10
374.3323239227
 20
173.5519531707
 30
0.0
 10
374.4431727178
 20
173.400522536
 30
0.0
 10
374.5381132518
 20
173.3206317746
 30
0.0
 10
374.5882700469
 20
173.2916657856
 30
0.0
  0
SPLINE
  5
84D
100
AcDbEntity
  8
7_ALL_ROUNDS
100
AcDbSpline
 62
9
  6
CONTINUOUS
 70
0
 71
3
 72
11
 73
7
 74
0
 42
0.0000001
 43
0.0000001
 44
0.0000000001
 40
0.0
 40
0.0
 40
0.0
 40
0.0
 40
0.275583951
 40
0.500214028
 40
0.7247605839
 40
1.0
 40
1.0
 40
1.0
 40
1.0
 10
374.5882700469
 20
176.3632938226
 30
0.0
 10
374.5468982675
 20
176.3871836283
 30
0.0
 10
374.4642211569
 20
176.4215213741
 30
0.0
 10
374.3305842864
 20
176.4013232043
 30
0.0
 10
374.2463698519
 20
176.2957058153
 30
0.0
 10
374.2347707657
 20
176.2070218583
 30
0.0
 10
374.2347705042
 20
176.1593076703
 30
0.0
  0
SPLINE
  5
84E
100
AcDbEntity
  8
0
100
AcDbSpline
 62
7
  6
CONTINUOUS
 70
0
 71
3
 72
16
 73
12
 74
0
 42
0.0000001
 43
0.0000001
 44
0.0000000001
 40
0.0
 40
0.0
 40
0.0
 40
0.0
 40
0.1371335058
 40
0.2827142322
 40
0.4298810002
 40
0.5714946422
 40
0.70130431
 40
0.8151785897
 40
0.9127686986
 40
0.9571435388
 40
1.0
 40
1.0
 40
1.0
 40
1.0
 10
384.2942291599
 20
147.2212467224
 30
0.0
 10
384.2540413196
 20
147.4953953726
 30
0.0
 10
384.1129391749
 20
148.0527822459
 30
0.0
 10
383.763072882
 20
148.8513648679
 30
0.0
 10
383.2899191248
 20
149.5947789422
 30
0.0
 10
382.7265756865
 20
150.2307724314
 30
0.0
 10
382.1108774625
 20
150.7155018923
 30
0.0
 10
381.4830154068
 20
151.0165024019
 30
0.0
 10
380.9589822934
 20
151.0928222153
 30
0.0
 10
380.5883980998
 20
151.0277206908
 30
0.0
 10
380.4246091928
 20
150.9575925102
 30
0.0
 10
380.3496070178
 20
150.9143169212
 30
0.0
  0
SPLINE
  5
84F
100
AcDbEntity
  8
7_ALL_ROUNDS
100
AcDbSpline
 62
7
  6
CONTINUOUS
 70
0
 71
3
 72
11
 73
7
 74
0
 42
0.0000001
 43
0.0000001
 44
0.0000000001
 40
0.0
 40
0.0
 40
0.0
 40
0.0
 40
0.2177289849
 40
0.4508622076
 40
0.7104408887
 40
1.0
 40
1.0
 40
1.0
 40
1.0
 10
371.5293898037
 20
187.825488131
 30
0.0
 10
371.5623723402
 20
187.8445355035
 30
0.0
 10
371.6381380151
 20
187.8721310626
 30
0.0
 10
371.7640971875
 20
187.8752802548
 30
0.0
 10
371.8982723441
 20
187.8427862534
 30
0.0
 10
371.9856011388
 20
187.801280616
 30
0.0
 10
372.029464764
 20
187.7759493083
 30
0.0
  0
SPLINE
  5
850
100
AcDbEntity
  8
0
100
AcDbSpline
 62
7
  6
CONTINUOUS
 70
0
 71
3
 72
10
 73
6
 74
0
 42
0.0000001
 43
0.0000001
 44
0.0000000001
 40
0.0
 40
0.0
 40
0.0
 40
0.0
 40
0.2286018635
 40
0.467069288
 40
1.0
 40
1.0
 40
1.0
 40
1.0
 10
383.6498189638
 20
145.1987802242
 30
0.0
 10
383.7330317976
 20
145.2468031849
 30
0.0
 10
383.8906806431
 20
145.3681952859
 30
0.0
 10
384.1507965297
 20
145.7026793385
 30
0.0
 10
384.255305137
 20
146.0210092118
 30
0.0
 10
384.2942291599
 20
146.241579142
 30
0.0
  0
SPLINE
  5
851
100
AcDbEntity
  8
7_ALL_ROUNDS
100
AcDbSpline
 62
7
  6
CONTINUOUS
 70
0
 71
3
 72
9
 73
5
 74
0
 42
0.0000001
 43
0.0000001
 44
0.0000000001
 40
0.0
 40
0.0
 40
0.0
 40
0.0
 40
0.2343695312
 40
1.0
 40
1.0
 40
1.0
 40
1.0
 10
370.9680575224
 20
218.9947204328
 30
0.0
 10
370.9622059087
 20
218.9772819432
 30
0.0
 10
370.9409492589
 20
218.9016357999
 30
0.0
 10
370.9334492532
 20
218.8225176533
 30
0.0
 10
370.9334492532
 20
218.7624284829
 30
0.0
  0
SPLINE
  5
852
100
AcDbEntity
  8
7_ALL_ROUNDS
100
AcDbSpline
 62
9
  6
CONTINUOUS
 70
0
 71
3
 72
11
 73
7
 74
0
 42
0.0000001
 43
0.0000001
 44
0.0000000001
 40
0.0
 40
0.0
 40
0.0
 40
0.0
 40
0.2367073615
 40
0.4989086734
 40
0.7617027959
 40
1.0
 40
1.0
 40
1.0
 40
1.0
 10
386.7947217723
 20
166.6505547212
 30
0.0
 10
386.8443176254
 20
166.6219130435
 30
0.0
 10
386.9595473411
 20
166.5799015366
 30
0.0
 10
387.1440222237
 20
166.5591534877
 30
0.0
 10
387.3290759108
 20
166.5781315332
 30
0.0
 10
387.4452488828
 20
166.6189398557
 30
0.0
 10
387.4956043482
 20
166.6470224279
 30
0.0
  0
SPLINE
  5
853
100
AcDbEntity
  8
7_ALL_ROUNDS
100
AcDbSpline
 62
9
  6
CONTINUOUS
 70
0
 71
3
 72
9
 73
5
 74
0
 42
0.0000001
 43
0.0000001
 44
0.0000000001
 40
0.0
 40
0.0
 40
0.0
 40
0.0
 40
0.5507613967
 40
1.0
 40
1.0
 40
1.0
 40
1.0
 10
386.4412222296
 20
166.4465685688
 30
0.0
 10
386.4412221969
 20
166.3988383186
 30
0.0
 10
386.4528025392
 20
166.3101472008
 30
0.0
 10
386.5110102537
 20
166.2372278767
 30
0.0
 10
386.5447264902
 20
166.2177620087
 30
0.0
  0
SPLINE
  5
854
100
AcDbEntity
  8
7_ALL_ROUNDS
100
AcDbSpline
 62
9
  6
CONTINUOUS
 70
0
 71
3
 72
9
 73
5
 74
0
 42
0.0000001
 43
0.0000001
 44
0.0000000001
 40
0.0
 40
0.0
 40
0.0
 40
0.0
 40
0.5507615195
 40
1.0
 40
1.0
 40
1.0
 40
1.0
 10
374.5882700469
 20
173.2916657856
 30
0.0
 10
374.5882700469
 20
173.2439355083
 30
0.0
 10
374.5998504471
 20
173.1552443701
 30
0.0
 10
374.6580581823
 20
173.0823250415
 30
0.0
 10
374.6917744153
 20
173.0628591622
 30
0.0
  0
SPLINE
  5
855
100
AcDbEntity
  8
7_ALL_ROUNDS
100
AcDbSpline
 62
9
  6
CONTINUOUS
 70
0
 71
3
 72
9
 73
5
 74
0
 42
0.0000001
 43
0.0000001
 44
0.0000000001
 40
0.0
 40
0.0
 40
0.0
 40
0.0
 40
0.5507329429
 40
1.0
 40
1.0
 40
1.0
 40
1.0
 10
374.2347705042
 20
173.9039449435
 30
0.0
 10
374.19341693
 20
173.9278267308
 30
0.0
 10
374.1223679073
 20
173.9822443657
 30
0.0
 10
374.0883193567
 20
174.069166652
 30
0.0
 10
374.0883240511
 20
174.1081226685
 30
0.0
  0
SPLINE
  5
856
100
AcDbEntity
  8
7_ALL_ROUNDS
100
AcDbSpline
 62
9
  6
CONTINUOUS
 70
0
 71
3
 72
9
 73
5
 74
0
 42
0.0000001
 43
0.0000001
 44
0.0000000001
 40
0.0
 40
0.0
 40
0.0
 40
0.0
 40
0.5507329731
 40
1.0
 40
1.0
 40
1.0
 40
1.0
 10
374.2347705042
 20
176.1593076703
 30
0.0
 10
374.1934169261
 20
176.1831894221
 30
0.0
 10
374.1223678913
 20
176.237607012
 30
0.0
 10
374.0883193672
 20
176.3245292701
 30
0.0
 10
374.0883240503
 20
176.3634852703
 30
0.0
  0
SPLINE
  5
857
100
AcDbEntity
  8
7_ALL_ROUNDS
100
AcDbSpline
 62
9
  6
CONTINUOUS
 70
0
 71
3
 72
11
 73
7
 74
0
 42
0.0000001
 43
0.0000001
 44
0.0000000001
 40
0.0
 40
0.0
 40
0.0
 40
0.0
 40
0.236683368
 40
0.498883335
 40
0.7616899256
 40
1.0
 40
1.0
 40
1.0
 40
1.0
 10
374.5882700469
 20
176.3632938226
 30
0.0
 10
374.5882700861
 20
176.4205585618
 30
0.0
 10
374.609514287
 20
176.5413437905
 30
0.0
 10
374.6837877935
 20
176.7114655912
 30
0.0
 10
374.7927441107
 20
176.8622415729
 30
0.0
 10
374.886160354
 20
176.9424611099
 30
0.0
 10
374.93565308
 20
176.9720406873
 30
0.0
  0
SPLINE
  5
858
100
AcDbEntity
  8
7_ALL_ROUNDS
100
AcDbSpline
 62
9
  6
CONTINUOUS
 70
0
 71
3
 72
11
 73
7
 74
0
 42
0.0000001
 43
0.0000001
 44
0.0000000001
 40
0.0
 40
0.0
 40
0.0
 40
0.0
 40
0.2366835603
 40
0.4988836024
 40
0.7616900541
 40
1.0
 40
1.0
 40
1.0
 40
1.0
 10
386.4412222296
 20
169.5181966058
 30
0.0
 10
386.4412222296
 20
169.5754613973
 30
0.0
 10
386.4624664037
 20
169.6962467169
 30
0.0
 10
386.536739929
 20
169.866368568
 30
0.0
 10
386.6456962863
 20
170.0171444917
 30
0.0
 10
386.73911254
 20
170.0973639371
 30
0.0
 10
386.7886052628
 20
170.1269434705
 30
0.0
  0
SPLINE
  5
859
100
AcDbEntity
  8
7_ALL_ROUNDS
100
AcDbSpline
 62
9
  6
CONTINUOUS
 70
0
 71
3
 72
11
 73
7
 74
0
 42
0.0000001
 43
0.0000001
 44
0.0000000001
 40
0.0
 40
0.0
 40
0.0
 40
0.0
 40
0.2367072156
 40
0.4989084101
 40
0.7617026296
 40
1.0
 40
1.0
 40
1.0
 40
1.0
 10
386.7947217723
 20
168.9059174479
 30
0.0
 10
386.8443175802
 20
168.877275751
 30
0.0
 10
386.9595472203
 20
168.8352641833
 30
0.0
 10
387.1440220802
 20
168.8145160774
 30
0.0
 10
387.3290758238
 20
168.8334941397
 30
0.0
 10
387.4452488603
 20
168.8743025285
 30
0.0
 10
387.4956043482
 20
168.9023851547
 30
0.0
  0
SPLINE
  5
85A
100
AcDbEntity
  8
7_ALL_ROUNDS
100
AcDbSpline
 62
7
  6
CONTINUOUS
 70
0
 71
3
 72
11
 73
7
 74
0
 42
0.0000001
 43
0.0000001
 44
0.0000000001
 40
0.0
 40
0.0
 40
0.0
 40
0.0
 40
0.2895363084
 40
0.5491069492
 40
0.7822494556
 40
1.0
 40
1.0
 40
1.0
 40
1.0
 10
391.8284546372
 20
156.6672895132
 30
0.0
 10
391.8284546372
 20
156.6166716049
 30
0.0
 10
391.820729914
 20
156.5203547838
 30
0.0
 10
391.7817977366
 20
156.3879961799
 30
0.0
 10
391.7161282334
 20
156.280550529
 30
0.0
 10
391.6543885788
 20
156.2287539257
 30
0.0
 10
391.6214228163
 20
156.2097162402
 30
0.0
  0
SPLINE
  5
85B
100
AcDbEntity
  8
7_ALL_ROUNDS
100
AcDbSpline
 62
7
  6
CONTINUOUS
 70
0
 71
3
 72
11
 73
7
 74
0
 42
0.0000001
 43
0.0000001
 44
0.0000000001
 40
0.0
 40
0.0
 40
0.0
 40
0.0
 40
0.237263303
 40
0.5000248203
 40
0.7627728379
 40
1.0
 40
1.0
 40
1.0
 40
1.0
 10
391.1213478561
 20
176.7503589068
 30
0.0
 10
391.221739212
 20
176.6923827519
 30
0.0
 10
391.4117249099
 20
176.5324914561
 30
0.0
 10
391.6333864352
 20
176.2294513557
 30
0.0
 10
391.7849911312
 20
175.8859839976
 30
0.0
 10
391.8284546372
 20
175.6415259403
 30
0.0
 10
391.8284546372
 20
175.5256140564
 30
0.0
  0
SPLINE
  5
85C
100
AcDbEntity
  8
7_ALL_ROUNDS
100
AcDbSpline
 62
9
  6
CONTINUOUS
 70
0
 71
3
 72
11
 73
7
 74
0
 42
0.0000001
 43
0.0000001
 44
0.0000000001
 40
0.0
 40
0.0
 40
0.0
 40
0.0
 40
0.2906986374
 40
0.5500891689
 40
0.7827990235
 40
1.0
 40
1.0
 40
1.0
 40
1.0
 10
374.93565308
 20
176.9720406873
 30
0.0
 10
374.890467676
 20
176.9976742809
 30
0.0
 10
374.8007523451
 20
177.0394679936
 30
0.0
 10
374.6631367955
 20
177.0709804999
 30
0.0
 10
374.5346715012
 20
177.0656016772
 30
0.0
 10
374.4580475778
 20
177.0355985247
 30
0.0
 10
374.4249976174
 20
177.0152432586
 30
0.0
  0
SPLINE
  5
85D
100
AcDbEntity
  8
7_ALL_ROUNDS
100
AcDbSpline
 62
9
  6
CONTINUOUS
 70
0
 71
3
 72
11
 73
7
 74
0
 42
0.0000001
 43
0.0000001
 44
0.0000000001
 40
0.0
 40
0.0
 40
0.0
 40
0.0
 40
0.2371257075
 40
0.5001885481
 40
0.763133899
 40
1.0
 40
1.0
 40
1.0
 40
1.0
 10
387.4956043482
 20
168.9023851547
 30
0.0
 10
387.4947074372
 20
169.0180879074
 30
0.0
 10
387.4497673909
 20
169.2619412387
 30
0.0
 10
387.2976733765
 20
169.6047373718
 30
0.0
 10
387.0768306313
 20
169.9076799823
 30
0.0
 10
386.8882439112
 20
170.0683706709
 30
0.0
 10
386.7886052628
 20
170.1269434705
 30
0.0
  0
SPLINE
  5
85E
100
AcDbEntity
  8
7_ALL_ROUNDS
100
AcDbSpline
 62
7
  6
CONTINUOUS
 70
0
 71
3
 72
11
 73
7
 74
0
 42
0.0000001
 43
0.0000001
 44
0.0000000001
 40
0.0
 40
0.0
 40
0.0
 40
0.0
 40
0.2895363084
 40
0.5491069492
 40
0.7822494556
 40
1.0
 40
1.0
 40
1.0
 40
1.0
 10
370.8627385751
 20
218.7215929629
 30
0.0
 10
370.8627385751
 20
218.7722108712
 30
0.0
 10
370.8704632983
 20
218.8685276923
 30
0.0
 10
370.9093954757
 20
219.0008862961
 30
0.0
 10
370.9750649789
 20
219.1083319471
 30
0.0
 10
371.0368046335
 20
219.1601285504
 30
0.0
 10
371.069770396
 20
219.1791662359
 30
0.0
  0
ELLIPSE
  5
85F
100
AcDbEntity
  8
7_ALL_ROUNDS
100
AcDbEllipse
 62
7
  6
CONTINUOUS
 10
133.3311969631
 20
173.2929625902
 30
0.0
 11
1.4159370892
 21
1.4159370892
 31
0.0
 40
0.998782766
 41
-0.7847891758
 42
0.7847891758
  0
ELLIPSE
  5
860
100
AcDbEntity
  8
7_ALL_ROUNDS
100
AcDbEllipse
 62
7
  6
CONTINUOUS
 10
133.3311969631
 20
110.852352275
 30
0.0
 11
1.4159370892
 21
-1.4159370892
 31
0.0
 40
0.998782766
 41
-0.7847891758
 42
0.7847891758
  0
ELLIPSE
  5
861
100
AcDbEntity
  8
7_ALL_ROUNDS
100
AcDbEllipse
 62
7
  6
CONTINUOUS
 10
104.4905866479
 20
110.852352275
 30
0.0
 11
1.4159370892
 21
1.4159370892
 31
0.0
 40
0.998782766
 41
2.3568034778
 42
3.9263818294
  0
ELLIPSE
  5
862
100
AcDbEntity
  8
7_ALL_ROUNDS
100
AcDbEllipse
 62
7
  6
CONTINUOUS
 10
104.4905866479
 20
173.2929625902
 30
0.0
 11
-1.4159370892
 21
1.4159370892
 31
0.0
 40
0.998782766
 41
-0.7847891758
 42
0.7847891758
  0
ELLIPSE
  5
863
100
AcDbEntity
  8
7_ALL_ROUNDS
100
AcDbEllipse
 62
7
  6
CONTINUOUS
 10
110.5122861915
 20
124.7212630466
 30
0.0
 11
0.7073221892
 21
-0.7073221892
 31
0.0
 40
0.9996954599
 41
2.3563467834
 42
3.9268385237
  0
ELLIPSE
  5
864
100
AcDbEntity
  8
7_ALL_ROUNDS
100
AcDbEllipse
 62
7
  6
CONTINUOUS
 10
110.5122861915
 20
121.9240518186
 30
0.0
 11
0.7073221892
 21
0.7073221892
 31
0.0
 40
0.9996954599
 41
2.3563467834
 42
3.9268385237
  0
ELLIPSE
  5
865
100
AcDbEntity
  8
7_ALL_ROUNDS
100
AcDbEllipse
 62
7
  6
CONTINUOUS
 10
127.3094974195
 20
121.9240518186
 30
0.0
 11
0.7073221892
 21
-0.7073221892
 31
0.0
 40
0.9996954599
 41
-0.7852458701
 42
0.7852458701
  0
ELLIPSE
  5
866
100
AcDbEntity
  8
7_ALL_ROUNDS
100
AcDbEllipse
 62
7
  6
CONTINUOUS
 10
104.6819524647
 20
173.1015967734
 30
0.0
 11
1.4159370892
 21
-1.4159370892
 31
0.0
 40
0.998782766
 41
2.3568034778
 42
3.9263818294
  0
ELLIPSE
  5
867
100
AcDbEntity
  8
7_ALL_ROUNDS
100
AcDbEllipse
 62
7
  6
CONTINUOUS
 10
133.1398311463
 20
173.1015967734
 30
0.0
 11
-1.4159370892
 21
-1.4159370892
 31
0.0
 40
0.998782766
 41
2.3568034778
 42
3.9263818294
  0
ELLIPSE
  5
868
100
AcDbEntity
  8
7_ALL_ROUNDS
100
AcDbEllipse
 62
7
  6
CONTINUOUS
 10
133.1398311463
 20
111.0437180918
 30
0.0
 11
-1.4159370892
 21
1.4159370892
 31
0.0
 40
0.998782766
 41
2.3568034778
 42
3.9263818294
  0
ELLIPSE
  5
869
100
AcDbEntity
  8
7_ALL_ROUNDS
100
AcDbEllipse
 62
7
  6
CONTINUOUS
 10
104.6819524647
 20
111.0437180918
 30
0.0
 11
1.4159370892
 21
1.4159370892
 31
0.0
 40
0.998782766
 41
2.3568034778
 42
3.9263818294
  0
ELLIPSE
  5
86A
100
AcDbEntity
  8
7_ALL_ROUNDS
100
AcDbEllipse
 62
7
  6
CONTINUOUS
 10
110.4110441335
 20
124.8055106489
 30
0.0
 11
-0.7073221892
 21
0.7073221892
 31
0.0
 40
0.9996954599
 41
-0.7852458701
 42
0.7852458701
  0
ELLIPSE
  5
86B
100
AcDbEntity
  8
7_ALL_ROUNDS
100
AcDbEllipse
 62
7
  6
CONTINUOUS
 10
127.4107394774
 20
124.8055106489
 30
0.0
 11
0.7073221892
 21
0.7073221892
 31
0.0
 40
0.9996954599
 41
-0.7852458701
 42
0.7852458701
  0
ELLIPSE
  5
86C
100
AcDbEntity
  8
7_ALL_ROUNDS
100
AcDbEllipse
 62
7
  6
CONTINUOUS
 10
127.3094974195
 20
124.7212630466
 30
0.0
 11
0.7073221892
 21
0.7073221892
 31
0.0
 40
0.9996954599
 41
-0.7852458701
 42
0.7852458701
  0
ELLIPSE
  5
86D
100
AcDbEntity
  8
7_ALL_ROUNDS
100
AcDbEllipse
 62
7
  6
CONTINUOUS
 10
110.4110441335
 20
121.8398042163
 30
0.0
 11
-0.7073221892
 21
-0.7073221892
 31
0.0
 40
0.9996954599
 41
-0.7852458701
 42
0.7852458701
  0
ELLIPSE
  5
86E
100
AcDbEntity
  8
7_ALL_ROUNDS
100
AcDbEllipse
 62
7
  6
CONTINUOUS
 10
127.4107394774
 20
121.8398042163
 30
0.0
 11
0.7073221892
 21
-0.7073221892
 31
0.0
 40
0.9996954599
 41
-0.7852458701
 42
0.7852458701
  0
ELLIPSE
  5
86F
100
AcDbEntity
  8
0
100
AcDbEllipse
 62
7
  6
CONTINUOUS
 10
102.5517702878
 20
123.3226574326
 30
0.0
 11
0.0
 21
1.6502584128
 31
0.0
 40
0.0349207955
 41
0.0
 42
6.2831853072
  0
ELLIPSE
  5
870
100
AcDbEntity
  8
7_ALL_ROUNDS
100
AcDbEllipse
 62
7
  6
CONTINUOUS
 10
127.4188085326
 20
124.813579704
 30
0.0
 11
0.4349146874
 21
0.9023766753
 31
0.0
 40
0.9980776934
 41
-1.1221274196
 42
0.4483643207
  0
ELLIPSE
  5
871
100
AcDbEntity
  8
0
100
AcDbEllipse
 62
7
  6
CONTINUOUS
 10
135.2700133232
 20
123.3226574326
 30
0.0
 11
0.0
 21
1.6502584128
 31
0.0
 40
0.0349207955
 41
0.0
 42
6.2831853072
  0
ELLIPSE
  5
872
100
AcDbEntity
  8
7_ALL_ROUNDS
100
AcDbEllipse
 62
7
  6
CONTINUOUS
 10
127.4188085721
 20
121.8317351217
 30
0.0
 11
-0.4349134809
 21
0.9023773011
 31
0.0
 40
0.9980776468
 41
-3.5899556015
 42
-2.0194638612
  0
ELLIPSE
  5
873
100
AcDbEntity
  8
7_ALL_ROUNDS
100
AcDbEllipse
 62
7
  6
CONTINUOUS
 10
110.4029750389
 20
121.8317351217
 30
0.0
 11
0.4349134809
 21
0.9023773011
 31
0.0
 40
0.9980776468
 41
-4.263721446
 42
-2.6932297057
  0
ELLIPSE
  5
874
100
AcDbEntity
  8
7_ALL_ROUNDS
100
AcDbEllipse
 62
7
  6
CONTINUOUS
 10
110.4029750784
 20
124.813579704
 30
0.0
 11
-0.4349146874
 21
0.9023766753
 31
0.0
 40
0.9980776934
 41
-0.4483643207
 42
1.1221274196
  0
ELLIPSE
  5
875
100
AcDbEntity
  8
7_ALL_ROUNDS
100
AcDbEllipse
 62
7
  6
CONTINUOUS
 10
105.4108918055
 20
225.4964737587
 30
0.0
 11
1.0
 21
0.0
 31
0.0
 40
0.0686965359
 41
3.1415926536
 42
4.7123889804
  0
ELLIPSE
  5
876
100
AcDbEntity
  8
7_ALL_ROUNDS
100
AcDbEllipse
 62
7
  6
CONTINUOUS
 10
132.4108918055
 20
225.4964737587
 30
0.0
 11
1.0
 21
0.0
 31
0.0
 40
0.0686965359
 41
-1.5707963268
 42
-0.0
  0
ELLIPSE
  5
877
100
AcDbEntity
  8
7_ALL_ROUNDS
100
AcDbEllipse
 62
7
  6
CONTINUOUS
 10
132.4108918055
 20
74.3829068182
 30
0.0
 11
1.0
 21
0.0
 31
0.0
 40
0.0686984344
 41
-0.0
 42
1.5707963268
  0
ELLIPSE
  5
878
100
AcDbEntity
  8
7_ALL_ROUNDS
100
AcDbEllipse
 62
7
  6
CONTINUOUS
 10
105.4108918055
 20
74.3829068182
 30
0.0
 11
1.0
 21
-0.0
 31
0.0
 40
0.0686984344
 41
1.5707963268
 42
3.1415926536
  0
ELLIPSE
  5
879
100
AcDbEntity
  8
7_ALL_ROUNDS
100
AcDbEllipse
 62
7
  6
CONTINUOUS
 10
115.7109037174
 20
44.1834911124
 30
0.0
 11
0.7073221892
 21
-0.7073221892
 31
0.0
 40
0.9996954599
 41
-0.7852458701
 42
0.7852458701
  0
ELLIPSE
  5
87A
100
AcDbEntity
  8
7_ALL_ROUNDS
100
AcDbEllipse
 62
7
  6
CONTINUOUS
 10
106.0934398935
 20
44.1834911124
 30
0.0
 11
0.7073221892
 21
0.7073221892
 31
0.0
 40
0.9996954599
 41
-3.9268385237
 42
-2.3563467834
  0
ELLIPSE
  5
87B
100
AcDbEntity
  8
7_ALL_ROUNDS
100
AcDbEllipse
 62
7
  6
CONTINUOUS
 10
106.0934398935
 20
50.0417549769
 30
0.0
 11
0.7073221892
 21
-0.7073221892
 31
0.0
 40
0.9996954599
 41
2.3563467834
 42
3.9268385237
  0
ELLIPSE
  5
87C
100
AcDbEntity
  8
7_ALL_ROUNDS
100
AcDbEllipse
 62
7
  6
CONTINUOUS
 10
115.7109037174
 20
50.0417549769
 30
0.0
 11
0.7073221892
 21
0.7073221892
 31
0.0
 40
0.9996954599
 41
-0.7852458701
 42
0.7852458701
  0
ELLIPSE
  5
87D
100
AcDbEntity
  8
0
100
AcDbEllipse
 62
7
  6
CONTINUOUS
 10
71.9166936516
 20
123.3226574326
 30
0.0
 11
1.6502596399
 21
0.0
 31
0.0
 40
0.9999992565
 41
0.0
 42
6.2831853072
  0
ELLIPSE
  5
87E
100
AcDbEntity
  8
0
100
AcDbEllipse
 62
7
  6
CONTINUOUS
 10
201.9376394153
 20
123.3226574326
 30
0.0
 11
1.6502596399
 21
-0.0
 31
0.0
 40
0.9999992565
 41
0.0
 42
6.2831853072
  0
ELLIPSE
  5
87F
100
AcDbEntity
  8
7_ALL_ROUNDS
100
AcDbEllipse
 62
7
  6
CONTINUOUS
 10
371.5140268131
 20
167.803526372
 30
0.0
 11
-1.0001971054
 21
1.7319369939
 31
0.0
 40
0.5779781925
 41
0.7858102662
 42
2.3553886178
  0
ELLIPSE
  5
880
100
AcDbEntity
  8
7_ALL_ROUNDS
100
AcDbEllipse
 62
7
  6
CONTINUOUS
 10
371.213960102
 20
167.63027998
 30
0.0
 11
-0.4443934852
 21
0.8972456394
 31
0.0
 40
0.6153879069
 41
0.8245229139
 42
2.3953192407
  0
ELLIPSE
  5
881
100
AcDbEntity
  8
7_ALL_ROUNDS
100
AcDbEllipse
 62
7
  6
CONTINUOUS
 10
387.2645335279
 20
169.5716127202
 30
0.0
 11
-0.5473926207
 21
0.8381540281
 31
0.0
 40
0.5372614906
 41
-2.3857203301
 42
-0.8152285898
  0
ELLIPSE
  5
882
100
AcDbEntity
  8
7_ALL_ROUNDS
100
AcDbEllipse
 62
7
  6
CONTINUOUS
 10
371.5140268131
 20
218.4669362494
 30
0.0
 11
-1.0014146264
 21
1.7340485653
 31
0.0
 40
0.5765719795
 41
-0.784985104
 42
0.7845932477
  0
ELLIPSE
  5
883
100
AcDbEntity
  8
7_ALL_ROUNDS
100
AcDbEllipse
 62
7
  6
CONTINUOUS
 10
391.636785807
 20
206.8460135072
 30
0.0
 11
-1.0001971054
 21
1.7319369939
 31
0.0
 40
0.5779781925
 41
-2.3557823874
 42
-0.7862040358
  0
ELLIPSE
  5
884
100
AcDbEntity
  8
7_ALL_ROUNDS
100
AcDbEllipse
 62
7
  6
CONTINUOUS
 10
387.5857062379
 20
167.3359209805
 30
0.0
 11
-0.5002504498
 21
0.8662325589
 31
0.0
 40
0.5770988546
 41
2.6188491943
 42
2.8038246122
  0
ELLIPSE
  5
885
100
AcDbEntity
  8
7_ALL_ROUNDS
100
AcDbEllipse
 62
7
  6
CONTINUOUS
 10
387.2645319551
 20
167.1372647237
 30
0.0
 11
-0.4441269372
 21
0.8991102493
 31
0.0
 40
0.6144068098
 41
-3.669037769
 42
-2.3154305257
  0
ELLIPSE
  5
886
100
AcDbEntity
  8
7_ALL_ROUNDS
100
AcDbEllipse
 62
7
  6
CONTINUOUS
 10
375.5651063821
 20
176.6990070111
 30
0.0
 11
-0.5002504498
 21
0.8662325589
 31
0.0
 40
0.5770988546
 41
6.6469957154
 42
6.8065964338
  0
ELLIPSE
  5
887
100
AcDbEntity
  8
7_ALL_ROUNDS
100
AcDbEllipse
 62
7
  6
CONTINUOUS
 10
371.2139587595
 20
186.4886037479
 30
0.0
 11
-0.5481115092
 21
0.8377253374
 31
0.0
 40
0.5364168442
 41
-0.8154787685
 42
0.7553175583
  0
ELLIPSE
  5
888
100
AcDbEntity
  8
7_ALL_ROUNDS
100
AcDbEllipse
 62
7
  6
CONTINUOUS
 10
390.3058418516
 20
175.4630133464
 30
0.0
 11
-0.5481115092
 21
0.8377253374
 31
0.0
 40
0.5364168442
 41
-2.3862750953
 42
-0.8154787685
  0
ELLIPSE
  5
889
100
AcDbEntity
  8
7_ALL_ROUNDS
100
AcDbEllipse
 62
7
  6
CONTINUOUS
 10
391.636785807
 20
156.1826036298
 30
0.0
 11
-1.0014146264
 21
1.7340485653
 31
0.0
 40
0.5765719795
 41
2.3566075496
 42
3.9261859013
  0
ELLIPSE
  5
88A
100
AcDbEntity
  8
7_ALL_ROUNDS
100
AcDbEllipse
 62
7
  6
CONTINUOUS
 10
390.305843194
 20
156.6046895785
 30
0.0
 11
-0.4443934852
 21
0.8972456394
 31
0.0
 40
0.6153879069
 41
2.3953192407
 42
3.9661155675
  0
ELLIPSE
  5
88B
100
AcDbEntity
  8
7_ALL_ROUNDS
100
AcDbEllipse
 62
7
  6
CONTINUOUS
 10
375.2325223049
 20
176.5201167945
 30
0.0
 11
-0.5481054207
 21
0.8394864275
 31
0.0
 40
0.5356493389
 41
5.4696195964
 42
6.8196751234
  0
ENDSEC
  0
SECTION
  2
OBJECTS
  0
DICTIONARY
  5
C
100
AcDbDictionary
280
0
281
1
  3
ACAD_GROUP
350
D
  3
ACAD_MLINESTYLE
350
17
  3
ACAD_LAYOUT
350
1A
  3
ACAD_PLOTSETTINGS
350
19
  3
ACAD_PLOTSTYLENAME
350
E
  0
DICTIONARY
  5
D
102
{ACAD_REACTORS
330
C
102
}
100
AcDbDictionary
280
0
281
1
  0
ACDBDICTIONARYWDFLT
  5
E
102
{ACAD_REACTORS
330
C
102
}
100
AcDbDictionary
281
1
  3
Normal
350
F
100
AcDbDictionaryWithDefault
340
F
  0
DICTIONARY
  5
17
102
{ACAD_REACTORS
330
C
102
}
100
AcDbDictionary
280
0
281
1
  3
Standard
350
18
  0
DICTIONARY
  5
19
102
{ACAD_REACTORS
330
C
102
}
100
AcDbDictionary
281
1
  0
DICTIONARY
  5
1A
102
{ACAD_REACTORS
330
C
102
}
100
AcDbDictionary
281
1
  3
Model
350
88C
  3
Layout1
350
88D
  0
ACDBPLACEHOLDER
  5
F
102
{ACAD_REACTORS
330
E
102
}
  0
MLINESTYLE
  5
18
102
{ACAD_REACTORS
330
17
102
}
100
AcDbMlineStyle
  2
STANDARD
 70
0
  3

 62
256
 51
90.0
 52
90.0
 71
2
 49
0.5
 62
256
  6
BYLAYER
 49
-0.5
 62
256
  6
BYLAYER
  0
LAYOUT
  5
88C
102
{ACAD_REACTORS
330
1A
102
}
100
AcDbPlotSettings
  1

  2
none_device
  4

  6

 40
0.0
 41
0.0
 42
0.0
 43
0.0
 44
431.8
 45
279.4
 46
0.0
 47
0.0
 48
0.0
 49
0.0
140
0.0
141
0.0
142
1.0
143
1.0
 70
1024
 72
1
 73
0
 74
0
  7

 75
0
147
1.0
148
0.0
149
0.0
100
AcDbLayout
  1
Model
 70
0
 71
0
 10
0.0
 20
0.0
 11
431.8
 21
279.4
 12
0.0
 22
0.0
 32
0.0
 14
0.0
 24
0.0
 34
0.0
 15
0.0
 25
0.0
 35
0.0
146
0.0
 13
0.0
 23
0.0
 33
0.0
 16
1.0
 26
0.0
 36
0.0
 17
0.0
 27
1.0
 37
0.0
 76
0
330
211
345
0
346
0
  0
LAYOUT
  5
88D
102
{ACAD_REACTORS
330
1A
102
}
100
AcDbPlotSettings
  1

  2
none_device
  4

  6

 40
0.0
 41
0.0
 42
0.0
 43
0.0
 44
431.8
 45
279.4
 46
0.0
 47
0.0
 48
0.0
 49
0.0
140
0.0
141
0.0
142
1.0
143
1.0
 70
0
 72
1
 73
0
 74
0
  7

 75
0
147
1.0
148
0.0
149
0.0
100
AcDbLayout
  1
Layout1
 70
0
 71
1
 10
0.0
 20
0.0
 11
431.8
 21
279.4
 12
0.0
 22
0.0
 32
0.0
 14
0.0
 24
0.0
 34
0.0
 15
0.0
 25
0.0
 35
0.0
146
0.0
 13
0.0
 23
0.0
 33
0.0
 16
1.0
 26
0.0
 36
0.0
 17
0.0
 27
1.0
 37
0.0
 76
0
330
212
345
0
346
0
  0
ENDSEC
  0
EOF
