999
DXF file: Z:\L&T Project Work\K005 WALL CONTROLLER\FOR RELEASE\fg-901150-eu-2d-A.dxf
999
Pro/ENGINEER 2016130 by Parametric Technology Corporation
  0
SECTION
  2
HEADER
  9
$ACADVER
  1
AC1015
  9
$DWGCODEPAGE
  3
ANSI_1252
  9
$EXTMAX
 10
474.98
 20
307.34
 30
0.0
  9
$EXTMIN
 10
0.0
 20
0.0
 30
0.0
  9
$LIMMIN
 10
0.0
 20
0.0
  9
$LIMMAX
 10
474.98
 20
307.34
  9
$VIEWCTR
 10
237.49
 20
153.67
  9
$VIEWSIZE
 40
307.34
  9
$CLAYER
  8
0
  9
$LTSCALE
 40
26.1239
  9
$CELTYPE
  6
BYLAYER
  9
$DIMSCALE
 40
1.0
  9
$DIMASZ
 40
2.2
  9
$DIMEXO
 40
1.5875
  9
$DIMDLI
 40
18.04924
  9
$DIMEXE
 40
3.175
  9
$DIMCEN
 40
4.27482
  9
$DIMLFAC
 40
1.0
  9
$DIMBLK
  1
_FILLED
  9
$DIMALT
 70
0
  9
$DIMALTF
 40
0.0393700787
  9
$DIMTXT
 40
2.5146
  9
$DIMTOL
 70
1
  9
$DIMLIM
 70
0
  9
$DIMTFAC
 40
1.0
  9
$DIMTP
 40
0.02
  9
$DIMTM
 40
0.02
  9
$DIMGAP
 40
0.625
  9
$DIMDSEP
 70
46
  9
$AUNITS
 70
0
  9
$PDMODE
 70
3
  9
$PDSIZE
 40
7.9375
  9
$HANDSEED
  5
8B9
  9
$TILEMODE
 70
1
  9
$MEASUREMENT
 70
1
  9
$INSUNITS
 70
4
  0
ENDSEC
  0
SECTION
  2
CLASSES
  0
CLASS
  1
ACDBDICTIONARYWDFLT
  2
AcDbDictionaryWithDefault
  3
AutoCAD 2000
 90
0
280
0
281
0
  0
CLASS
  1
ACDBPLACEHOLDER
  2
AcDbPlaceHolder
  3
AutoCAD 2000
 90
0
280
0
281
0
  0
CLASS
  1
LAYOUT
  2
AcDbLayout
  3
AutoCAD 2000
 90
0
280
0
281
0
  0
ENDSEC
  0
SECTION
  2
TABLES
  0
TABLE
  2
VPORT
  5
8
100
AcDbSymbolTable
 70
2
  0
VPORT
  5
1F4
100
AcDbSymbolTableRecord
100
AcDbViewportTableRecord
  2
*ACTIVE
 70
0
 10
0.0
 20
0.0
 11
1.0
 21
1.0
 12
237.49
 22
153.67
 13
0.0
 23
0.0
 14
1.0
 24
1.0
 15
0.0
 25
0.0
 16
0.0
 26
0.0
 36
1.0
 17
0.0
 27
0.0
 37
0.0
 40
307.34
 41
1.5454545455
 42
50.0
 43
0.0
 44
0.0
 50
0.0
 51
0.0
 71
0
 72
100
 73
1
 74
1
 75
0
 76
0
 77
0
 78
0
  0
ENDTAB
  0
TABLE
  2
LTYPE
  5
5
100
AcDbSymbolTable
 70
6
  0
LTYPE
  5
14
100
AcDbSymbolTableRecord
100
AcDbLinetypeTableRecord
  2
BYBLOCK
 70
0
  3

 72
65
 73
0
 40
0.0
  0
LTYPE
  5
15
100
AcDbSymbolTableRecord
100
AcDbLinetypeTableRecord
  2
BYLAYER
 70
0
  3

 72
65
 73
0
 40
0.0
  0
LTYPE
  5
16
100
AcDbSymbolTableRecord
100
AcDbLinetypeTableRecord
  2
CONTINUOUS
 70
64
  3
Solid line
 72
65
 73
0
 40
0.0
  0
LTYPE
  5
1F5
100
AcDbSymbolTableRecord
100
AcDbLinetypeTableRecord
  2
CENTER
 70
64
  3
____ _ ____ _ ____ _ ____ _ ____ _ ____ _ ____
 72
65
 73
4
 40
0.6
 49
0.375
 74
0
 49
-0.075
 74
0
 49
0.075
 74
0
 49
-0.075
 74
0
  0
LTYPE
  5
1F6
100
AcDbSymbolTableRecord
100
AcDbLinetypeTableRecord
  2
HIDDEN
 70
64
  3
- - - - - - - - - - - - - - - - - - - -
 72
65
 73
2
 40
0.2
 49
0.1
 74
0
 49
-0.1
 74
0
  0
LTYPE
  5
1F7
100
AcDbSymbolTableRecord
100
AcDbLinetypeTableRecord
  2
PHANTOM
 70
64
  3
_____ _ _ _____ _ _ _____ _ _ _____
 72
65
 73
6
 40
0.8
 49
0.45
 74
0
 49
-0.05
 74
0
 49
0.1
 74
0
 49
-0.05
 74
0
 49
0.1
 74
0
 49
-0.05
 74
0
  0
LTYPE
  5
1F8
100
AcDbSymbolTableRecord
100
AcDbLinetypeTableRecord
  2
DOT
 70
64
  3
. . . . . . . . . . . . . . . . . . . .
 72
65
 73
2
 40
0.2
 49
0.1
 74
0
 49
-0.1
 74
0
  0
LTYPE
  5
1F9
100
AcDbSymbolTableRecord
100
AcDbLinetypeTableRecord
  2
DASHED
 70
64
  3
- - - - - - - - - - - - - - - - - - - -
 72
65
 73
2
 40
0.2
 49
0.1
 74
0
 49
-0.1
 74
0
  0
ENDTAB
  0
TABLE
  2
LAYER
  5
2
100
AcDbSymbolTable
 70
36
  0
LAYER
  5
10
100
AcDbSymbolTableRecord
100
AcDbLayerTableRecord
  2
0
 70
0
 62
7
  6
CONTINUOUS
370
-3
390
F
  0
LAYER
  5
1FA
100
AcDbSymbolTableRecord
100
AcDbLayerTableRecord
  2
DEFAULT_1
 70
0
 62
7
  6
CENTER
370
-3
390
F
  0
LAYER
  5
1FB
100
AcDbSymbolTableRecord
100
AcDbLayerTableRecord
  2
DEFAULT_2
 70
0
 62
8
  6
HIDDEN
370
-3
390
F
  0
LAYER
  5
1FC
100
AcDbSymbolTableRecord
100
AcDbLayerTableRecord
  2
DEFAULT_3
 70
0
 62
7
  6
PHANTOM
370
-3
390
F
  0
LAYER
  5
1FD
100
AcDbSymbolTableRecord
100
AcDbLayerTableRecord
  2
1_ALL_PLANES
 70
0
 62
7
  6
CONTINUOUS
370
-3
390
F
  0
LAYER
  5
1FE
100
AcDbSymbolTableRecord
100
AcDbLayerTableRecord
  2
1__DEF_PLANES
 70
0
 62
7
  6
CONTINUOUS
370
-3
390
F
  0
LAYER
  5
1FF
100
AcDbSymbolTableRecord
100
AcDbLayerTableRecord
  2
2_ALL_CSYS
 70
0
 62
7
  6
CONTINUOUS
370
-3
390
F
  0
LAYER
  5
200
100
AcDbSymbolTableRecord
100
AcDbLayerTableRecord
  2
2__DEF_CSYS
 70
0
 62
7
  6
CONTINUOUS
370
-3
390
F
  0
LAYER
  5
201
100
AcDbSymbolTableRecord
100
AcDbLayerTableRecord
  2
3_ALL_AXES
 70
0
 62
7
  6
CONTINUOUS
370
-3
390
F
  0
LAYER
  5
202
100
AcDbSymbolTableRecord
100
AcDbLayerTableRecord
  2
3_AXES_OTHER
 70
0
 62
7
  6
CONTINUOUS
370
-3
390
F
  0
LAYER
  5
203
100
AcDbSymbolTableRecord
100
AcDbLayerTableRecord
  2
3_HOLES
 70
0
 62
7
  6
CONTINUOUS
370
-3
390
F
  0
LAYER
  5
204
100
AcDbSymbolTableRecord
100
AcDbLayerTableRecord
  2
4_ALL_POINTS
 70
0
 62
7
  6
CONTINUOUS
370
-3
390
F
  0
LAYER
  5
205
100
AcDbSymbolTableRecord
100
AcDbLayerTableRecord
  2
5_ALL_CURVES
 70
0
 62
7
  6
CONTINUOUS
370
-3
390
F
  0
LAYER
  5
206
100
AcDbSymbolTableRecord
100
AcDbLayerTableRecord
  2
6_ALL_SURFS
 70
0
 62
7
  6
CONTINUOUS
370
-3
390
F
  0
LAYER
  5
207
100
AcDbSymbolTableRecord
100
AcDbLayerTableRecord
  2
6_COPYGEOM
 70
0
 62
7
  6
CONTINUOUS
370
-3
390
F
  0
LAYER
  5
208
100
AcDbSymbolTableRecord
100
AcDbLayerTableRecord
  2
7_ALL_ROUNDS
 70
0
 62
7
  6
CONTINUOUS
370
-3
390
F
  0
LAYER
  5
209
100
AcDbSymbolTableRecord
100
AcDbLayerTableRecord
  2
7_MERGES
 70
0
 62
7
  6
CONTINUOUS
370
-3
390
F
  0
LAYER
  5
20A
100
AcDbSymbolTableRecord
100
AcDbLayerTableRecord
  2
8_GDT
 70
0
 62
7
  6
CONTINUOUS
370
-3
390
F
  0
LAYER
  5
20B
100
AcDbSymbolTableRecord
100
AcDbLayerTableRecord
  2
8_SET_DATUMS
 70
0
 62
7
  6
CONTINUOUS
370
-3
390
F
  0
LAYER
  5
20C
100
AcDbSymbolTableRecord
100
AcDbLayerTableRecord
  2
9_COSMETICS
 70
0
 62
7
  6
CONTINUOUS
370
-3
390
F
  0
LAYER
  5
20D
100
AcDbSymbolTableRecord
100
AcDbLayerTableRecord
  2
9_THREADS
 70
0
 62
7
  6
CONTINUOUS
370
-3
390
F
  0
ENDTAB
  0
TABLE
  2
STYLE
  5
3
100
AcDbSymbolTable
 70
1
  0
STYLE
  5
11
100
AcDbSymbolTableRecord
100
AcDbTextStyleTableRecord
  2
STANDARD
 70
0
 40
0.0
 41
1.0
 50
0.0
 71
0
 42
0.2
  3
gothic.ttf
  4

  0
STYLE
  5
20E
100
AcDbSymbolTableRecord
100
AcDbTextStyleTableRecord
  2
TEXTSTYLE_1
 70
0
 40
0.0
 41
0.8
 50
0.0
 71
0
 42
0.2
  3
gdt
  4

  0
STYLE
  5
20F
100
AcDbSymbolTableRecord
100
AcDbTextStyleTableRecord
  2
TEXTSTYLE_2
 70
0
 40
0.0
 41
1.0
 50
0.0
 71
0
 42
0.2
  3
gothic.ttf
  4

  0
ENDTAB
  0
TABLE
  2
VIEW
  5
6
100
AcDbSymbolTable
 70
0
  0
ENDTAB
  0
TABLE
  2
UCS
  5
7
100
AcDbSymbolTable
 70
0
  0
ENDTAB
  0
TABLE
  2
APPID
  5
9
100
AcDbSymbolTable
 70
1
  0
APPID
  5
210
100
AcDbSymbolTableRecord
100
AcDbRegAppTableRecord
  2
ACAD
 70
0
  0
ENDTAB
  0
TABLE
  2
BLOCK_RECORD
  5
1
100
AcDbSymbolTable
 70
0
  0
BLOCK_RECORD
  5
211
100
AcDbSymbolTableRecord
100
AcDbBlockTableRecord
  2
*Model_Space
  0
BLOCK_RECORD
  5
212
100
AcDbSymbolTableRecord
100
AcDbBlockTableRecord
  2
*Paper_Space
  0
BLOCK_RECORD
  5
213
100
AcDbSymbolTableRecord
100
AcDbBlockTableRecord
  2
_FILLED
  0
BLOCK_RECORD
  5
214
100
AcDbSymbolTableRecord
100
AcDbBlockTableRecord
  2
*D0
  0
BLOCK_RECORD
  5
215
100
AcDbSymbolTableRecord
100
AcDbBlockTableRecord
  2
*D1
  0
BLOCK_RECORD
  5
216
100
AcDbSymbolTableRecord
100
AcDbBlockTableRecord
  2
*D2
  0
BLOCK_RECORD
  5
217
100
AcDbSymbolTableRecord
100
AcDbBlockTableRecord
  2
*D3
  0
BLOCK_RECORD
  5
218
100
AcDbSymbolTableRecord
100
AcDbBlockTableRecord
  2
*D4
  0
BLOCK_RECORD
  5
219
100
AcDbSymbolTableRecord
100
AcDbBlockTableRecord
  2
*D5
  0
BLOCK_RECORD
  5
21A
100
AcDbSymbolTableRecord
100
AcDbBlockTableRecord
  2
*D6
  0
BLOCK_RECORD
  5
21B
100
AcDbSymbolTableRecord
100
AcDbBlockTableRecord
  2
*D7
  0
BLOCK_RECORD
  5
21C
100
AcDbSymbolTableRecord
100
AcDbBlockTableRecord
  2
*D8
  0
BLOCK_RECORD
  5
21D
100
AcDbSymbolTableRecord
100
AcDbBlockTableRecord
  2
*D9
  0
BLOCK_RECORD
  5
21E
100
AcDbSymbolTableRecord
100
AcDbBlockTableRecord
  2
*D10
  0
ENDTAB
  0
TABLE
  2
DIMSTYLE
  5
A
100
AcDbSymbolTable
 70
1
100
AcDbDimStyleTable
 71
0
  0
DIMSTYLE
105
21F
100
AcDbSymbolTableRecord
100
AcDbDimStyleTableRecord
  2
STANDARD
 70
0
  3

  4

 40
1.0
 41
2.2
 42
1.5875
 43
0.38
 44
3.175
 45
0.0
 46
0.0
 47
0.02
 48
0.02
140
2.5146
141
0.09
142
0.0
143
25.4
144
1.0
145
0.0
146
1.0
147
0.625
 71
1.0
 72
0.0
 73
1
 74
1
 75
0
 76
0
 77
0
 78
0
170
0
171
2
172
0
173
0
174
0
175
0
176
0
177
0
178
0
270
2
271
2
272
2
273
2
274
2
275
0
280
0
281
0
282
0
283
1
284
0
285
0
286
0
287
3
288
0
340
11
278
46
341
213
342
213
343
213
344
213
  0
DIMSTYLE
105
220
100
AcDbSymbolTableRecord
100
AcDbDimStyleTableRecord
  2
DIMSTYLE_1
 70
0
  3

  4

 40
1.0
 41
2.2
 42
1.5875
 43
0.38
 44
3.175
 45
0.0
 46
0.0
 47
0.0
 48
0.0
140
2.5146
141
0.09
142
0.0
143
25.4
144
1.0
145
0.0
146
1.0
147
1.143
 71
0.0
 72
0.0
 73
1
 74
1
 75
0
 76
0
 77
0
 78
0
170
0
171
2
172
0
173
0
174
0
175
0
176
0
177
0
178
0
270
2
271
1
272
1
273
2
274
2
275
0
280
0
281
0
282
0
283
1
284
0
285
0
286
0
287
3
288
0
340
11
278
46
341
213
342
213
343
213
344
213
  0
DIMSTYLE
105
221
100
AcDbSymbolTableRecord
100
AcDbDimStyleTableRecord
  2
DIMSTYLE_2
 70
0
  3

  4

 40
1.0
 41
2.2
 42
1.5875
 43
0.38
 44
3.175
 45
0.0
 46
0.0
 47
0.1
 48
0.1
140
2.5146
141
0.09
142
0.0
143
25.4
144
1.0
145
0.0
146
1.0
147
1.143
 71
0.0
 72
0.0
 73
1
 74
1
 75
0
 76
0
 77
0
 78
0
170
0
171
2
172
0
173
0
174
0
175
0
176
0
177
0
178
0
270
2
271
1
272
1
273
2
274
2
275
0
280
0
281
0
282
0
283
1
284
0
285
0
286
0
287
3
288
0
340
11
278
46
341
213
342
213
343
213
344
213
  0
ENDTAB
  0
ENDSEC
  0
SECTION
  2
BLOCKS
  0
BLOCK
  5
20
100
AcDbEntity
  8
0
100
AcDbBlockBegin
  2
*Model_Space
 70
0
 10
0.0
 20
0.0
 30
0.0
  3
*Model_Space
  1

  0
ENDBLK
  5
21
100
AcDbEntity
  8
0
100
AcDbBlockEnd
  0
BLOCK
  5
1C
100
AcDbEntity
  8
0
100
AcDbBlockBegin
  2
*Paper_Space
 70
0
 10
0.0
 20
0.0
 30
0.0
  3
*Paper_Space
  1

  0
ENDBLK
  5
1D
100
AcDbEntity
  8
0
100
AcDbBlockEnd
  0
BLOCK
  5
222
100
AcDbEntity
  8
0
100
AcDbBlockBegin
  2
_FILLED
 70
64
 10
0.0
 20
0.0
  3
_FILLED
  1

  0
SOLID
  5
223
100
AcDbEntity
  8
0
  6
BYBLOCK
 62
0
100
AcDbTrace
 10
0.0
 20
0.0
 11
-1.0
 21
0.1275
 12
-1.0
 22
-0.1275
 13
-1.0
 23
-0.1275
  0
ENDBLK
  5
224
100
AcDbEntity
  8
0
  6
BYBLOCK
 62
0
100
AcDbBlockEnd
  0
BLOCK
  5
225
100
AcDbEntity
  8
0
100
AcDbBlockBegin
 62
2
  6
CONTINUOUS
  2
*D0
 70
65
 10
0.0
 20
0.0
  3
*D0
  1

  0
MTEXT
  5
226
100
AcDbEntity
  8
0
100
AcDbMText
 62
2
  6
CONTINUOUS
  7
STANDARD
 71
2
 72
1
 10
182.0709303494
 20
259.6594160881
 30
0.0
 11
1.0
 21
0.0
 31
0.0
 44
0.9
  1
27.2\P[1.1]
 40
2.5146
 41
7.328797026
  0
LINE
  5
227
100
AcDbEntity
  8
0
100
AcDbLine
 62
2
  6
CONTINUOUS
 10
151.6286768482
 20
272.0183190385
 11
185.8251731003
 21
272.0183190385
  0
LINE
  5
228
100
AcDbEntity
  8
0
100
AcDbLine
 62
2
  6
CONTINUOUS
 10
176.9243968482
 20
244.8204290385
 11
185.8251731003
 21
244.8204290385
  0
LINE
  5
229
100
AcDbEntity
  8
0
100
AcDbLine
 62
2
  6
CONTINUOUS
 10
182.3326731003
 20
272.0183190385
 11
182.3326731003
 21
260.9167160881
  0
LINE
  5
22A
100
AcDbEntity
  8
0
100
AcDbLine
 62
2
  6
CONTINUOUS
 10
182.3326731003
 20
244.8204290385
 11
182.3326731003
 21
252.1156160881
  0
INSERT
  5
22B
100
AcDbEntity
  8
0
100
AcDbBlockReference
 62
2
  6
CONTINUOUS
  2
_FILLED
 10
182.3326731003
 20
272.0183190385
 41
2.2
 42
2.2
 43
2.2
 50
90.0
  0
INSERT
  5
22C
100
AcDbEntity
  8
0
100
AcDbBlockReference
 62
2
  6
CONTINUOUS
  2
_FILLED
 10
182.3326731003
 20
244.8204290385
 41
2.2
 42
2.2
 43
2.2
 50
270.0
  0
ENDBLK
  5
22D
100
AcDbEntity
  8
0
  6
BYBLOCK
 62
0
100
AcDbBlockEnd
  0
BLOCK
  5
22E
100
AcDbEntity
  8
0
100
AcDbBlockBegin
 62
2
  6
CONTINUOUS
  2
*D1
 70
65
 10
0.0
 20
0.0
  3
*D1
  1

  0
MTEXT
  5
22F
100
AcDbEntity
  8
0
100
AcDbMText
 62
2
  6
CONTINUOUS
  7
STANDARD
 71
2
 72
1
 10
134.4864009872
 20
214.1691885435
 30
0.0
 11
1.0
 21
0.0
 31
0.0
 44
0.9
  1
82.8\P[3.26]
 40
2.5146
 41
9.2731717472
  0
LINE
  5
230
100
AcDbEntity
  8
0
100
AcDbLine
 62
2
  6
CONTINUOUS
 10
92.3781468482
 20
187.8086871954
 11
92.3781468482
 21
216.4043885435
  0
LINE
  5
231
100
AcDbEntity
  8
0
100
AcDbLine
 62
2
  6
CONTINUOUS
 10
175.1781468482
 20
189.1278972918
 11
175.1781468482
 21
216.4043885435
  0
LINE
  5
232
100
AcDbEntity
  8
0
100
AcDbLine
 62
2
  6
CONTINUOUS
 10
92.3781468482
 20
212.9118885435
 11
129.8264452251
 21
212.9118885435
  0
LINE
  5
233
100
AcDbEntity
  8
0
100
AcDbLine
 62
2
  6
CONTINUOUS
 10
175.1781468482
 20
212.9118885435
 11
141.6142169723
 21
212.9118885435
  0
INSERT
  5
234
100
AcDbEntity
  8
0
100
AcDbBlockReference
 62
2
  6
CONTINUOUS
  2
_FILLED
 10
92.3781468482
 20
212.9118885435
 41
2.2
 42
2.2
 43
2.2
 50
180.0
  0
INSERT
  5
235
100
AcDbEntity
  8
0
100
AcDbBlockReference
 62
2
  6
CONTINUOUS
  2
_FILLED
 10
175.1781468482
 20
212.9118885435
 41
2.2
 42
2.2
 43
2.2
  0
ENDBLK
  5
236
100
AcDbEntity
  8
0
  6
BYBLOCK
 62
0
100
AcDbBlockEnd
  0
BLOCK
  5
237
100
AcDbEntity
  8
0
100
AcDbBlockBegin
 62
2
  6
CONTINUOUS
  2
*D2
 70
65
 10
0.0
 20
0.0
  3
*D2
  1

  0
MTEXT
  5
238
100
AcDbEntity
  8
0
100
AcDbMText
 62
2
  6
CONTINUOUS
  7
STANDARD
 71
2
 72
1
 10
134.162253932
 20
201.0300916003
 30
0.0
 11
1.0
 21
0.0
 31
0.0
 44
0.9
  1
32.8\P[1.29]
 40
2.5146
 41
9.2731717472
  0
LINE
  5
239
100
AcDbEntity
  8
0
100
AcDbLine
 62
2
  6
CONTINUOUS
 10
117.3566350482
 20
179.6496484929
 11
117.3566350482
 21
203.2652916003
  0
LINE
  5
23A
100
AcDbEntity
  8
0
100
AcDbLine
 62
2
  6
CONTINUOUS
 10
150.1996586482
 20
180.2297322435
 11
150.1996586482
 21
203.2652916003
  0
LINE
  5
23B
100
AcDbEntity
  8
0
100
AcDbLine
 62
2
  6
CONTINUOUS
 10
117.3566350482
 20
199.7727916003
 11
129.5022981699
 21
199.7727916003
  0
LINE
  5
23C
100
AcDbEntity
  8
0
100
AcDbLine
 62
2
  6
CONTINUOUS
 10
150.1996586482
 20
199.7727916003
 11
141.2900699171
 21
199.7727916003
  0
INSERT
  5
23D
100
AcDbEntity
  8
0
100
AcDbBlockReference
 62
2
  6
CONTINUOUS
  2
_FILLED
 10
117.3566350482
 20
199.7727916003
 41
2.2
 42
2.2
 43
2.2
 50
180.0
  0
INSERT
  5
23E
100
AcDbEntity
  8
0
100
AcDbBlockReference
 62
2
  6
CONTINUOUS
  2
_FILLED
 10
150.1996586482
 20
199.7727916003
 41
2.2
 42
2.2
 43
2.2
  0
ENDBLK
  5
23F
100
AcDbEntity
  8
0
  6
BYBLOCK
 62
0
100
AcDbBlockEnd
  0
BLOCK
  5
240
100
AcDbEntity
  8
0
100
AcDbBlockBegin
 62
2
  6
CONTINUOUS
  2
*D3
 70
65
 10
0.0
 20
0.0
  3
*D3
  1

  0
MTEXT
  5
241
100
AcDbEntity
  8
0
100
AcDbMText
 62
2
  6
CONTINUOUS
  7
STANDARD
 71
2
 72
1
 10
207.3275191037
 20
148.14796843
 30
0.0
 11
1.0
 21
0.0
 31
0.0
 44
0.9
  1
82.6\P[3.25]
 40
2.5146
 41
9.2731717472
  0
LINE
  5
242
100
AcDbEntity
  8
0
100
AcDbLine
 62
2
  6
CONTINUOUS
 10
175.878780578
 20
188.200668347
 11
212.0539492152
 21
188.200668347
  0
LINE
  5
243
100
AcDbEntity
  8
0
100
AcDbLine
 62
2
  6
CONTINUOUS
 10
173.9243968482
 20
105.580668513
 11
212.0539492152
 21
105.580668513
  0
LINE
  5
244
100
AcDbEntity
  8
0
100
AcDbLine
 62
2
  6
CONTINUOUS
 10
208.5614492152
 20
188.200668347
 11
208.5614492152
 21
149.40526843
  0
LINE
  5
245
100
AcDbEntity
  8
0
100
AcDbLine
 62
2
  6
CONTINUOUS
 10
208.5614492152
 20
105.580668513
 11
208.5614492152
 21
140.60416843
  0
INSERT
  5
246
100
AcDbEntity
  8
0
100
AcDbBlockReference
 62
2
  6
CONTINUOUS
  2
_FILLED
 10
208.5614492152
 20
188.200668347
 41
2.2
 42
2.2
 43
2.2
 50
90.0
  0
INSERT
  5
247
100
AcDbEntity
  8
0
100
AcDbBlockReference
 62
2
  6
CONTINUOUS
  2
_FILLED
 10
208.5614492152
 20
105.580668513
 41
2.2
 42
2.2
 43
2.2
 50
270.0
  0
ENDBLK
  5
248
100
AcDbEntity
  8
0
  6
BYBLOCK
 62
0
100
AcDbBlockEnd
  0
BLOCK
  5
249
100
AcDbEntity
  8
0
100
AcDbBlockBegin
 62
2
  6
CONTINUOUS
  2
*D4
 70
65
 10
0.0
 20
0.0
  3
*D4
  1

  0
MTEXT
  5
24A
100
AcDbEntity
  8
0
100
AcDbMText
 62
2
  6
CONTINUOUS
  7
STANDARD
 71
2
 72
1
 10
190.8484589071
 20
147.937968347
 30
0.0
 11
1.0
 21
0.0
 31
0.0
 44
0.9
  1
66.4\P[2.62]
 40
2.5146
 41
9.2731717472
  0
LINE
  5
24B
100
AcDbEntity
  8
0
100
AcDbLine
 62
2
  6
CONTINUOUS
 10
150.6142233073
 20
179.902180147
 11
195.5748890186
 21
179.902180147
  0
LINE
  5
24C
100
AcDbEntity
  8
0
100
AcDbLine
 62
2
  6
CONTINUOUS
 10
149.9471269942
 20
113.459156547
 11
195.5748890186
 21
113.459156547
  0
LINE
  5
24D
100
AcDbEntity
  8
0
100
AcDbLine
 62
2
  6
CONTINUOUS
 10
192.0823890186
 20
179.902180147
 11
192.0823890186
 21
149.195268347
  0
LINE
  5
24E
100
AcDbEntity
  8
0
100
AcDbLine
 62
2
  6
CONTINUOUS
 10
192.0823890186
 20
113.459156547
 11
192.0823890186
 21
140.394168347
  0
INSERT
  5
24F
100
AcDbEntity
  8
0
100
AcDbBlockReference
 62
2
  6
CONTINUOUS
  2
_FILLED
 10
192.0823890186
 20
179.902180147
 41
2.2
 42
2.2
 43
2.2
 50
90.0
  0
INSERT
  5
250
100
AcDbEntity
  8
0
100
AcDbBlockReference
 62
2
  6
CONTINUOUS
  2
_FILLED
 10
192.0823890186
 20
113.459156547
 41
2.2
 42
2.2
 43
2.2
 50
270.0
  0
ENDBLK
  5
251
100
AcDbEntity
  8
0
  6
BYBLOCK
 62
0
100
AcDbBlockEnd
  0
BLOCK
  5
252
100
AcDbEntity
  8
0
100
AcDbBlockBegin
 62
2
  6
CONTINUOUS
  2
*D5
 70
65
 10
0.0
 20
0.0
  3
*D5
  1

  0
MTEXT
  5
253
100
AcDbEntity
  8
0
100
AcDbMText
 62
2
  6
CONTINUOUS
  7
STANDARD
 71
2
 72
1
 10
25.6577391336
 20
147.937968347
 30
0.0
 11
1.0
 21
0.0
 31
0.0
 44
0.9
  1
58.0\P[2.28]
 40
2.5146
 41
9.2731717472
  0
LINE
  5
254
100
AcDbEntity
  8
0
100
AcDbLine
 62
2
  6
CONTINUOUS
 10
48.7807196865
 20
175.673668347
 11
23.3991692451
 21
175.673668347
  0
LINE
  5
255
100
AcDbEntity
  8
0
100
AcDbLine
 62
2
  6
CONTINUOUS
 10
48.7807196865
 20
117.687668347
 11
23.3991692451
 21
117.687668347
  0
LINE
  5
256
100
AcDbEntity
  8
0
100
AcDbLine
 62
2
  6
CONTINUOUS
 10
26.8916692451
 20
175.673668347
 11
26.8916692451
 21
149.195268347
  0
LINE
  5
257
100
AcDbEntity
  8
0
100
AcDbLine
 62
2
  6
CONTINUOUS
 10
26.8916692451
 20
117.687668347
 11
26.8916692451
 21
140.394168347
  0
INSERT
  5
258
100
AcDbEntity
  8
0
100
AcDbBlockReference
 62
2
  6
CONTINUOUS
  2
_FILLED
 10
26.8916692451
 20
175.673668347
 41
2.2
 42
2.2
 43
2.2
 50
90.0
  0
INSERT
  5
259
100
AcDbEntity
  8
0
100
AcDbBlockReference
 62
2
  6
CONTINUOUS
  2
_FILLED
 10
26.8916692451
 20
117.687668347
 41
2.2
 42
2.2
 43
2.2
 50
270.0
  0
ENDBLK
  5
25A
100
AcDbEntity
  8
0
  6
BYBLOCK
 62
0
100
AcDbBlockEnd
  0
BLOCK
  5
25B
100
AcDbEntity
  8
0
100
AcDbBlockBegin
 62
2
  6
CONTINUOUS
  2
*D6
 70
65
 10
0.0
 20
0.0
  3
*D6
  1

  0
MTEXT
  5
25C
100
AcDbEntity
  8
0
100
AcDbMText
 62
2
  6
CONTINUOUS
  7
STANDARD
 71
2
 72
1
 10
197.6310633012
 20
258.269071697
 30
0.0
 11
1.0
 21
0.0
 31
0.0
 44
0.9
  1
35.7\P[1.41]
 40
2.5146
 41
9.2731717472
  0
LINE
  5
25D
100
AcDbEntity
  8
0
100
AcDbLine
 62
2
  6
CONTINUOUS
 10
151.6286768482
 20
272.0183190385
 11
202.3574934128
 21
272.0183190385
  0
LINE
  5
25E
100
AcDbEntity
  8
0
100
AcDbLine
 62
2
  6
CONTINUOUS
 10
144.4056235613
 20
236.3204290385
 11
202.3574934128
 21
236.3204290385
  0
LINE
  5
25F
100
AcDbEntity
  8
0
100
AcDbLine
 62
2
  6
CONTINUOUS
 10
198.8649934128
 20
272.0183190385
 11
198.8649934128
 21
259.526371697
  0
LINE
  5
260
100
AcDbEntity
  8
0
100
AcDbLine
 62
2
  6
CONTINUOUS
 10
198.8649934128
 20
236.3204290385
 11
198.8649934128
 21
250.725271697
  0
INSERT
  5
261
100
AcDbEntity
  8
0
100
AcDbBlockReference
 62
2
  6
CONTINUOUS
  2
_FILLED
 10
198.8649934128
 20
272.0183190385
 41
2.2
 42
2.2
 43
2.2
 50
90.0
  0
INSERT
  5
262
100
AcDbEntity
  8
0
100
AcDbBlockReference
 62
2
  6
CONTINUOUS
  2
_FILLED
 10
198.8649934128
 20
236.3204290385
 41
2.2
 42
2.2
 43
2.2
 50
270.0
  0
ENDBLK
  5
263
100
AcDbEntity
  8
0
  6
BYBLOCK
 62
0
100
AcDbBlockEnd
  0
BLOCK
  5
264
100
AcDbEntity
  8
0
100
AcDbBlockBegin
 62
2
  6
CONTINUOUS
  2
*D7
 70
65
 10
0.0
 20
0.0
  3
*D7
  1

  0
MTEXT
  5
265
100
AcDbEntity
  8
0
100
AcDbMText
 62
2
  6
CONTINUOUS
  7
STANDARD
 71
1
 72
1
 10
244.9992231236
 20
202.9782011276
 30
0.0
 11
1.0
 21
0.0
 31
0.0
 44
0.9
  1
1.5\P[0.06]
 40
2.5146
 41
9.2731717472
  0
LINE
  5
266
100
AcDbEntity
  8
0
100
AcDbLine
 62
2
  6
CONTINUOUS
 10
237.2873753245
 20
189.946918347
 11
237.2873753245
 21
205.2134011276
  0
LINE
  5
267
100
AcDbEntity
  8
0
100
AcDbLine
 62
2
  6
CONTINUOUS
 10
238.8073753245
 20
189.946918347
 11
238.8073753245
 21
205.2134011276
  0
LINE
  5
268
100
AcDbEntity
  8
0
100
AcDbLine
 62
2
  6
CONTINUOUS
 10
237.2873753245
 20
201.7209011276
 11
232.8873753245
 21
201.7209011276
  0
LINE
  5
269
100
AcDbEntity
  8
0
100
AcDbLine
 62
2
  6
CONTINUOUS
 10
238.8073753245
 20
201.7209011276
 11
243.7419231236
 21
201.7209011276
  0
INSERT
  5
26A
100
AcDbEntity
  8
0
100
AcDbBlockReference
 62
2
  6
CONTINUOUS
  2
_FILLED
 10
237.2873753245
 20
201.7209011276
 41
2.2
 42
2.2
 43
2.2
  0
INSERT
  5
26B
100
AcDbEntity
  8
0
100
AcDbBlockReference
 62
2
  6
CONTINUOUS
  2
_FILLED
 10
238.8073753245
 20
201.7209011276
 41
2.2
 42
2.2
 43
2.2
 50
180.0
  0
ENDBLK
  5
26C
100
AcDbEntity
  8
0
  6
BYBLOCK
 62
0
100
AcDbBlockEnd
  0
BLOCK
  5
26D
100
AcDbEntity
  8
0
100
AcDbBlockBegin
 62
2
  6
CONTINUOUS
  2
*D8
 70
65
 10
0.0
 20
0.0
  3
*D8
  1

  0
MTEXT
  5
26E
100
AcDbEntity
  8
0
100
AcDbMText
 62
2
  6
CONTINUOUS
  7
STANDARD
 71
2
 72
1
 10
132.7788124607
 20
35.759073522
 30
0.0
 11
1.0
 21
0.0
 31
0.0
 44
0.9
  1
45.1\P[1.77]
 40
2.5146
 41
9.2731717472
  0
LINE
  5
26F
100
AcDbEntity
  8
0
100
AcDbLine
 62
2
  6
CONTINUOUS
 10
111.2210868482
 20
57.4604429808
 11
111.2210868482
 21
31.009273522
  0
LINE
  5
270
100
AcDbEntity
  8
0
100
AcDbLine
 62
2
  6
CONTINUOUS
 10
156.2781468482
 20
59.6204429808
 11
156.2781468482
 21
31.009273522
  0
LINE
  5
271
100
AcDbEntity
  8
0
100
AcDbLine
 62
2
  6
CONTINUOUS
 10
111.2210868482
 20
34.501773522
 11
128.1188566986
 21
34.501773522
  0
LINE
  5
272
100
AcDbEntity
  8
0
100
AcDbLine
 62
2
  6
CONTINUOUS
 10
156.2781468482
 20
34.501773522
 11
139.9066284458
 21
34.501773522
  0
INSERT
  5
273
100
AcDbEntity
  8
0
100
AcDbBlockReference
 62
2
  6
CONTINUOUS
  2
_FILLED
 10
111.2210868482
 20
34.501773522
 41
2.2
 42
2.2
 43
2.2
 50
180.0
  0
INSERT
  5
274
100
AcDbEntity
  8
0
100
AcDbBlockReference
 62
2
  6
CONTINUOUS
  2
_FILLED
 10
156.2781468482
 20
34.501773522
 41
2.2
 42
2.2
 43
2.2
  0
ENDBLK
  5
275
100
AcDbEntity
  8
0
  6
BYBLOCK
 62
0
100
AcDbBlockEnd
  0
BLOCK
  5
276
100
AcDbEntity
  8
0
100
AcDbBlockBegin
 62
2
  6
CONTINUOUS
  2
*D9
 70
65
 10
0.0
 20
0.0
  3
*D9
  1

  0
MTEXT
  5
277
100
AcDbEntity
  8
0
100
AcDbMText
 62
2
  6
CONTINUOUS
  7
STANDARD
 71
2
 72
1
 10
321.022629506
 20
92.0222824318
 30
0.0
 11
1.0
 21
0.0
 31
0.0
 44
0.9
  1
60.0\P[2.36]
 40
2.5146
 41
9.2731717472
  0
LINE
  5
278
100
AcDbEntity
  8
0
100
AcDbLine
 62
2
  6
CONTINUOUS
 10
292.2565596175
 20
140.106134192
 11
292.2565596175
 21
87.2724824318
  0
LINE
  5
279
100
AcDbEntity
  8
0
100
AcDbLine
 62
2
  6
CONTINUOUS
 10
352.2565596175
 20
139.971072919
 11
352.2565596175
 21
87.2724824318
  0
LINE
  5
27A
100
AcDbEntity
  8
0
100
AcDbLine
 62
2
  6
CONTINUOUS
 10
292.2565596175
 20
90.7649824318
 11
316.3626737439
 21
90.7649824318
  0
LINE
  5
27B
100
AcDbEntity
  8
0
100
AcDbLine
 62
2
  6
CONTINUOUS
 10
352.2565596175
 20
90.7649824318
 11
328.1504454911
 21
90.7649824318
  0
INSERT
  5
27C
100
AcDbEntity
  8
0
100
AcDbBlockReference
 62
2
  6
CONTINUOUS
  2
_FILLED
 10
292.2565596175
 20
90.7649824318
 41
2.2
 42
2.2
 43
2.2
 50
180.0
  0
INSERT
  5
27D
100
AcDbEntity
  8
0
100
AcDbBlockReference
 62
2
  6
CONTINUOUS
  2
_FILLED
 10
352.2565596175
 20
90.7649824318
 41
2.2
 42
2.2
 43
2.2
  0
ENDBLK
  5
27E
100
AcDbEntity
  8
0
  6
BYBLOCK
 62
0
100
AcDbBlockEnd
  0
BLOCK
  5
27F
100
AcDbEntity
  8
0
100
AcDbBlockBegin
 62
2
  6
CONTINUOUS
  2
*D10
 70
65
 10
0.0
 20
0.0
  3
*D10
  1

  0
MTEXT
  5
280
100
AcDbEntity
  8
0
100
AcDbMText
 62
2
  6
CONTINUOUS
  7
STANDARD
 71
2
 72
1
 10
25.6577391336
 20
101.9026205221
 30
0.0
 11
1.0
 21
0.0
 31
0.0
 44
0.9
  1
12.1\P[0.48]
 40
2.5146
 41
9.2731717472
  0
LINE
  5
281
100
AcDbEntity
  8
0
100
AcDbLine
 62
2
  6
CONTINUOUS
 10
48.7807196865
 20
117.687668347
 11
23.3991692451
 21
117.687668347
  0
LINE
  5
282
100
AcDbEntity
  8
0
100
AcDbLine
 62
2
  6
CONTINUOUS
 10
62.7786096865
 20
105.580668513
 11
23.3991692451
 21
105.580668513
  0
LINE
  5
283
100
AcDbEntity
  8
0
100
AcDbLine
 62
2
  6
CONTINUOUS
 10
26.8916692451
 20
117.687668347
 11
26.8916692451
 21
111.63416843
  0
LINE
  5
284
100
AcDbEntity
  8
0
100
AcDbLine
 62
2
  6
CONTINUOUS
 10
26.8916692451
 20
105.580668513
 11
26.8916692451
 21
111.63416843
  0
LINE
  5
285
100
AcDbEntity
  8
0
100
AcDbLine
 62
2
  6
CONTINUOUS
 10
26.8916692451
 20
111.63416843
 11
26.8916692451
 21
103.1599205221
  0
INSERT
  5
286
100
AcDbEntity
  8
0
100
AcDbBlockReference
 62
2
  6
CONTINUOUS
  2
_FILLED
 10
26.8916692451
 20
117.687668347
 41
2.2
 42
2.2
 43
2.2
 50
90.0
  0
INSERT
  5
287
100
AcDbEntity
  8
0
100
AcDbBlockReference
 62
2
  6
CONTINUOUS
  2
_FILLED
 10
26.8916692451
 20
105.580668513
 41
2.2
 42
2.2
 43
2.2
 50
270.0
  0
ENDBLK
  5
288
100
AcDbEntity
  8
0
  6
BYBLOCK
 62
0
100
AcDbBlockEnd
  0
ENDSEC
  0
SECTION
  2
ENTITIES
  0
MTEXT
  5
289
100
AcDbEntity
  8
0
100
AcDbMText
 62
2
  6
CONTINUOUS
  7
TEXTSTYLE_2
 71
1
 72
1
 10
6.3445648284
 20
47.7174801328
 30
0.0
 11
1.0
 21
0.0
 31
0.0
  1
A
 40
2.619375
 41
2.6972746283
  0
MTEXT
  5
28A
100
AcDbEntity
  8
0
100
AcDbMText
 62
2
  6
CONTINUOUS
  7
TEXTSTYLE_2
 71
1
 72
1
 10
6.3342166368
 20
119.6268386566
 30
0.0
 11
1.0
 21
0.0
 31
0.0
  1
B
 40
2.619375
 41
2.0935525093
  0
MTEXT
  5
28B
100
AcDbEntity
  8
0
100
AcDbMText
 62
2
  6
CONTINUOUS
  7
TEXTSTYLE_2
 71
1
 72
1
 10
6.334717934
 20
191.5494405443
 30
0.0
 11
1.0
 21
0.0
 31
0.0
  1
C
 40
2.619375
 41
2.9699233271
  0
MTEXT
  5
28C
100
AcDbEntity
  8
0
100
AcDbMText
 62
2
  6
CONTINUOUS
  7
TEXTSTYLE_2
 71
1
 72
1
 10
6.3293203746
 20
263.4996677246
 30
0.0
 11
1.0
 21
0.0
 31
0.0
  1
D
 40
2.619375
 41
2.7167495353
  0
MTEXT
  5
28D
100
AcDbEntity
  8
0
100
AcDbMText
 62
2
  6
CONTINUOUS
  7
TEXTSTYLE_2
 71
1
 72
1
 10
401.1790912873
 20
12.998316355
 30
0.0
 11
1.0
 21
0.0
 31
0.0
 44
1.0000002
  1
SCALE:  
 40
1.4552087
 41
7.8711102546
  0
MTEXT
  5
28E
100
AcDbEntity
  8
0
100
AcDbMText
 62
2
  6
CONTINUOUS
  7
TEXTSTYLE_2
 71
1
 72
1
 10
401.2995002784
 20
20.4258310379
 30
0.0
 11
1.0
 21
0.0
 31
0.0
 44
1.0000002
  1
SIZE
 40
1.4552087
 41
3.5325326435
  0
MTEXT
  5
28F
100
AcDbEntity
  8
0
100
AcDbMText
 62
2
  6
CONTINUOUS
  7
TEXTSTYLE_2
 71
1
 72
1
 10
414.170379361
 20
12.8941218867
 30
0.0
 11
1.0
 21
0.0
 31
0.0
 44
1.0000002
  1
CAD FILE:                   
 40
1.4652
 41
20.0770527881
  0
MTEXT
  5
290
100
AcDbEntity
  8
0
100
AcDbMText
 62
2
  6
CONTINUOUS
  7
TEXTSTYLE_2
 71
1
 72
1
 10
419.6151536684
 20
20.3750440747
 30
0.0
 11
1.0
 21
0.0
 31
0.0
 44
1.0000002
  1
DWG. NO.
 40
1.4552087
 41
10.1756415045
  0
MTEXT
  5
291
100
AcDbEntity
  8
0
100
AcDbMText
 62
2
  6
CONTINUOUS
  7
TEXTSTYLE_2
 71
1
 72
1
 10
402.179456343
 20
17.219000448
 30
0.0
 11
1.0
 21
0.0
 31
0.0
 44
1.0000002
  1
B
 40
2.0372913
 41
1.6283183253
  0
MTEXT
  5
292
100
AcDbEntity
  8
0
100
AcDbMText
 62
2
  6
CONTINUOUS
  7
TEXTSTYLE_2
 71
1
 72
1
 10
446.7263662578
 20
12.9480542442
 30
0.0
 11
1.0
 21
0.0
 31
0.0
 44
1.0000002
  1
SHEET:
 40
1.4552087
 41
5.9993548264
  0
MTEXT
  5
293
100
AcDbEntity
  8
0
100
AcDbMText
 62
2
  6
CONTINUOUS
  7
TEXTSTYLE_2
 71
1
 72
1
 10
363.3774064937
 20
38.9971044078
 30
0.0
 11
1.0
 21
0.0
 31
0.0
 44
1.0000002
  1
DRAWN BY
 40
1.4552087
 41
10.6138270238
  0
MTEXT
  5
294
100
AcDbEntity
  8
0
100
AcDbMText
 62
2
  6
CONTINUOUS
  7
TEXTSTYLE_2
 71
1
 72
1
 10
363.5250192249
 20
31.6165146187
 30
0.0
 11
1.0
 21
0.0
 31
0.0
 44
1.0000002
  1
MECH ENGINEER
 40
1.4552087
 41
16.2723708907
  0
MTEXT
  5
295
100
AcDbEntity
  8
0
100
AcDbMText
 62
2
  6
CONTINUOUS
  7
TEXTSTYLE_2
 71
1
 72
1
 10
363.5250192249
 20
24.230582585
 30
0.0
 11
1.0
 21
0.0
 31
0.0
 44
1.0000002
  1
TECH DIRECTOR
 40
1.4552087
 41
15.3527222699
  0
MTEXT
  5
296
100
AcDbEntity
  8
0
100
AcDbMText
 62
2
  6
CONTINUOUS
  7
TEXTSTYLE_2
 71
1
 72
1
 10
363.5250192249
 20
16.7258863277
 30
0.0
 11
1.0
 21
0.0
 31
0.0
 44
1.0000002
  1
MFG ENG
 40
1.4552087
 41
9.5372971677
  0
MTEXT
  5
297
100
AcDbEntity
  8
0
100
AcDbMText
 62
2
  6
CONTINUOUS
  7
TEXTSTYLE_2
 71
1
 72
1
 10
329.835183965
 20
41.0731941202
 30
0.0
 11
1.0
 21
0.0
 31
0.0
 44
1.0000002
  1
DECIMALS                    ANGLES
 40
1.4552087
 41
29.0717158134
  0
MTEXT
  5
298
100
AcDbEntity
  8
0
100
AcDbMText
 62
2
  6
CONTINUOUS
  7
TEXTSTYLE_2
 71
1
 72
1
 10
326.1376575018
 20
29.7866588628
 30
0.0
 11
1.0
 21
0.0
 31
0.0
 44
1.0000002
  1
MATERIAL
 40
1.4552087
 41
9.4453323056
  0
MTEXT
  5
299
100
AcDbEntity
  8
0
100
AcDbMText
 62
2
  6
CONTINUOUS
  7
TEXTSTYLE_2
 71
1
 72
1
 10
326.237483235
 20
24.6950594357
 30
0.0
 11
1.0
 21
0.0
 31
0.0
 44
1.0000002
  1
FINISH
 40
1.4552087
 41
5.7991960089
  0
MTEXT
  5
29A
100
AcDbEntity
  8
0
100
AcDbMText
 62
2
  6
CONTINUOUS
  7
TEXTSTYLE_2
 71
1
 72
1
 10
328.1388593687
 20
18.9079318914
 30
0.0
 11
1.0
 21
0.0
 31
0.0
 44
1.0000002
  1
DO  NOT  SCALE  DRAWING
 40
1.74625
 41
32.2504460967
  0
MTEXT
  5
29B
100
AcDbEntity
  8
0
100
AcDbMText
 62
2
  6
CONTINUOUS
  7
TEXTSTYLE_2
 71
1
 72
1
 10
435.8363682849
 20
9.648103909
 30
0.0
 11
1.0
 21
0.0
 31
0.0
  1
1
 40
2.619375
 41
2.0253903346
  0
MTEXT
  5
29C
100
AcDbEntity
  8
0
100
AcDbMText
 62
2
  6
CONTINUOUS
  7
TEXTSTYLE_2
 71
1
 72
1
 10
378.8958924087
 20
9.7390886765
 30
0.0
 11
1.0
 21
0.0
 31
0.0
  1
2
 40
2.619375
 41
2.0253903346
  0
MTEXT
  5
29D
100
AcDbEntity
  8
0
100
AcDbMText
 62
2
  6
CONTINUOUS
  7
TEXTSTYLE_2
 71
1
 72
1
 10
321.9177540746
 20
9.6810796821
 30
0.0
 11
1.0
 21
0.0
 31
0.0
  1
3
 40
2.619375
 41
2.0253903346
  0
MTEXT
  5
29E
100
AcDbEntity
  8
0
100
AcDbMText
 62
2
  6
CONTINUOUS
  7
TEXTSTYLE_2
 71
1
 72
1
 10
265.0309200159
 20
9.715032134
 30
0.0
 11
1.0
 21
0.0
 31
0.0
  1
4
 40
2.619375
 41
2.0253903346
  0
MTEXT
  5
29F
100
AcDbEntity
  8
0
100
AcDbMText
 62
2
  6
CONTINUOUS
  7
TEXTSTYLE_2
 71
1
 72
1
 10
208.1498106033
 20
9.6861387549
 30
0.0
 11
1.0
 21
0.0
 31
0.0
  1
5
 40
2.619375
 41
2.0253903346
  0
MTEXT
  5
2A0
100
AcDbEntity
  8
0
100
AcDbMText
 62
2
  6
CONTINUOUS
  7
TEXTSTYLE_2
 71
1
 72
1
 10
151.2151928954
 20
9.7638710801
 30
0.0
 11
1.0
 21
0.0
 31
0.0
  1
6
 40
2.619375
 41
2.0253903346
  0
MTEXT
  5
2A1
100
AcDbEntity
  8
0
100
AcDbMText
 62
2
  6
CONTINUOUS
  7
TEXTSTYLE_2
 71
1
 72
1
 10
94.268366826
 20
9.7190856442
 30
0.0
 11
1.0
 21
0.0
 31
0.0
  1
7
 40
2.619375
 41
2.0253903346
  0
MTEXT
  5
2A2
100
AcDbEntity
  8
0
100
AcDbMText
 62
2
  6
CONTINUOUS
  7
TEXTSTYLE_2
 71
1
 72
1
 10
37.2979023621
 20
9.6793297589
 30
0.0
 11
1.0
 21
0.0
 31
0.0
  1
8
 40
2.619375
 41
2.0253903346
  0
MTEXT
  5
2A3
100
AcDbEntity
  8
0
100
AcDbMText
 62
2
  6
CONTINUOUS
  7
TEXTSTYLE_2
 71
1
 72
1
 10
38.0888495043
 20
300.9803473001
 30
0.0
 11
1.0
 21
0.0
 31
0.0
 44
1.0000002
  1
8
 40
2.619375
 41
2.0253903346
  0
MTEXT
  5
2A4
100
AcDbEntity
  8
0
100
AcDbMText
 62
2
  6
CONTINUOUS
  7
TEXTSTYLE_2
 71
1
 72
1
 10
326.0538111323
 20
13.6492950989
 30
0.0
 11
1.0
 21
0.0
 31
0.0
 44
1.0000002
  1
PROJECTION SYMBOL
 40
1.727
 41
24.9291486989
  0
MTEXT
  5
2A5
100
AcDbEntity
  8
0
100
AcDbMText
 62
2
  6
CONTINUOUS
  7
TEXTSTYLE_2
 71
1
 72
1
 10
375.2711134656
 20
42.0664905694
 30
0.0
 11
1.0
 21
0.0
 31
0.0
 44
1.0000002
  1
APPROVALS
 40
1.4552087
 41
11.7660926487
  0
MTEXT
  5
2A6
100
AcDbEntity
  8
0
100
AcDbMText
 62
2
  6
CONTINUOUS
  7
TEXTSTYLE_2
 71
1
 72
1
 10
94.3597125549
 20
301.004937965
 30
0.0
 11
1.0
 21
0.0
 31
0.0
 44
1.0000002
  1
7
 40
2.619375
 41
2.0253903346
  0
MTEXT
  5
2A7
100
AcDbEntity
  8
0
100
AcDbMText
 62
2
  6
CONTINUOUS
  7
TEXTSTYLE_2
 71
1
 72
1
 10
208.1555636567
 20
300.8950310331
 30
0.0
 11
1.0
 21
0.0
 31
0.0
  1
5
 40
2.619375
 41
2.0253903346
  0
MTEXT
  5
2A8
100
AcDbEntity
  8
0
100
AcDbMText
 62
2
  6
CONTINUOUS
  7
TEXTSTYLE_2
 71
1
 72
1
 10
265.0739341614
 20
300.904390278
 30
0.0
 11
1.0
 21
0.0
 31
0.0
  1
4
 40
2.619375
 41
2.0253903346
  0
MTEXT
  5
2A9
100
AcDbEntity
  8
0
100
AcDbMText
 62
2
  6
CONTINUOUS
  7
TEXTSTYLE_2
 71
1
 72
1
 10
321.9696089589
 20
300.8976295828
 30
0.0
 11
1.0
 21
0.0
 31
0.0
  1
3
 40
2.619375
 41
2.0253903346
  0
MTEXT
  5
2AA
100
AcDbEntity
  8
0
100
AcDbMText
 62
2
  6
CONTINUOUS
  7
TEXTSTYLE_2
 71
1
 72
1
 10
378.9131996339
 20
300.9556691965
 30
0.0
 11
1.0
 21
0.0
 31
0.0
  1
2
 40
2.619375
 41
2.0253903346
  0
MTEXT
  5
2AB
100
AcDbEntity
  8
0
100
AcDbMText
 62
2
  6
CONTINUOUS
  7
TEXTSTYLE_2
 71
1
 72
1
 10
435.9416755503
 20
300.9784523454
 30
0.0
 11
1.0
 21
0.0
 31
0.0
  1
1
 40
2.619375
 41
2.0253903346
  0
MTEXT
  5
2AC
100
AcDbEntity
  8
0
100
AcDbMText
 62
2
  6
CONTINUOUS
  7
TEXTSTYLE_2
 71
1
 72
1
 10
466.2233538017
 20
263.4222669139
 30
0.0
 11
1.0
 21
0.0
 31
0.0
  1
D
 40
2.619375
 41
2.7167495353
  0
MTEXT
  5
2AD
100
AcDbEntity
  8
0
100
AcDbMText
 62
2
  6
CONTINUOUS
  7
TEXTSTYLE_2
 71
1
 72
1
 10
465.9335208429
 20
191.5323602207
 30
0.0
 11
1.0
 21
0.0
 31
0.0
  1
C
 40
2.619375
 41
2.9699233271
  0
MTEXT
  5
2AE
100
AcDbEntity
  8
0
100
AcDbMText
 62
2
  6
CONTINUOUS
  7
TEXTSTYLE_2
 71
1
 72
1
 10
466.7330313255
 20
119.5208983487
 30
0.0
 11
1.0
 21
0.0
 31
0.0
  1
B
 40
2.619375
 41
2.0935525093
  0
MTEXT
  5
2AF
100
AcDbEntity
  8
0
100
AcDbMText
 62
2
  6
CONTINUOUS
  7
TEXTSTYLE_2
 71
1
 72
1
 10
466.1578715385
 20
47.6195136207
 30
0.0
 11
1.0
 21
0.0
 31
0.0
  1
A
 40
2.619375
 41
2.6972746283
  0
MTEXT
  5
2B0
100
AcDbEntity
  8
0
100
AcDbMText
 62
2
  6
CONTINUOUS
  7
TEXTSTYLE_2
 71
1
 72
1
 10
326.3201800862
 20
51.1486939677
 30
0.0
 11
1.0
 21
0.0
 31
0.0
 44
1.2
  1
UNLESS  OTHERWISE  SPECIFIED\PDIMENSIONS ARE IN MM [IN]\PTOLERANCES ARE:
 40
1.74625
 41
35.3015148699
  0
MTEXT
  5
2B1
100
AcDbEntity
  8
0
100
AcDbMText
 62
2
  6
CONTINUOUS
  7
TEXTSTYLE_2
 71
1
 72
1
 10
364.3055983557
 20
50.3221710541
 30
0.0
 11
1.0
 21
0.0
 31
0.0
 44
1.0000002
  1
CAD GENERATED DRAWING\PDO NOT MANUALLY UPDATE
 40
1.74625
 41
32.8152184015
  0
MTEXT
  5
2B2
100
AcDbEntity
  8
0
100
AcDbMText
 62
2
  6
CONTINUOUS
  7
TEXTSTYLE_2
 71
1
 72
1
 10
11.025176621
 20
294.8422062924
 30
0.0
 11
1.0
 21
0.0
 31
0.0
 44
1.0000002
  1
PROPERTY OF QSC, LLC, THAT MAY NOT BE DISCLOSED, REPRODUCED OR
 40
1.4552087
 41
70.8994989673
  0
MTEXT
  5
2B3
100
AcDbEntity
  8
0
100
AcDbMText
 62
2
  6
CONTINUOUS
  7
TEXTSTYLE_2
 71
1
 72
1
 10
11.025176621
 20
296.94477789
 30
0.0
 11
1.0
 21
0.0
 31
0.0
 44
1.0000002
  1
THIS DOCUMENT CONTAINS PROPRIETARY INFORMATION WHICH IS THE
 40
1.4552087
 41
67.9836718695
  0
MTEXT
  5
2B4
100
AcDbEntity
  8
0
100
AcDbMText
 62
2
  6
CONTINUOUS
  7
TEXTSTYLE_2
 71
1
 72
1
 10
10.9934011271
 20
292.6630088116
 30
0.0
 11
1.0
 21
0.0
 31
0.0
 44
1.0000002
  1
USED WITHOUT THE EXPRESS WRITTEN CONSENT FROM QSC, LLC.
 40
1.4552087
 41
61.5190830349
  0
MTEXT
  5
2B5
100
AcDbEntity
  8
0
100
AcDbMText
 62
2
  6
CONTINUOUS
  7
TEXTSTYLE_2
 71
1
 72
1
 10
457.7391711077
 20
20.4247082761
 30
0.0
 11
1.0
 21
0.0
 31
0.0
 44
1.0000002
  1
REV
 40
1.4552087
 41
3.7435108565
  0
MTEXT
  5
2B6
100
AcDbEntity
  8
0
100
AcDbMText
 62
2
  6
CONTINUOUS
  7
TEXTSTYLE_2
 71
1
 72
1
 10
151.2184700625
 20
300.9358206907
 30
0.0
 11
1.0
 21
0.0
 31
0.0
  1
6
 40
2.619375
 41
2.0253903346
  0
MTEXT
  5
2B7
100
AcDbEntity
  8
0
100
AcDbMText
 62
2
  6
CONTINUOUS
  7
TEXTSTYLE_2
 71
1
 72
1
 10
405.9227373978
 20
20.3033104239
 30
0.0
 11
1.0
 21
0.0
 31
0.0
 44
1.0000002
  1
CAGE CODE
 40
1.4552087
 41
12.5775473141
  0
MTEXT
  5
2B8
100
AcDbEntity
  8
0
100
AcDbMText
 62
2
  6
CONTINUOUS
  7
TEXTSTYLE_2
 71
1
 72
1
 10
407.767456343
 20
17.219000448
 30
0.0
 11
1.0
 21
0.0
 31
0.0
 44
1.0000002
  1
00PW4
 40
2.0372913
 41
9.1337297688
  0
MTEXT
  5
2B9
100
AcDbEntity
  8
0
100
AcDbMText
 62
2
  6
CONTINUOUS
  7
TEXTSTYLE_2
 71
1
 72
1
 10
429.9274815641
 20
47.205605847
 30
0.0
 11
1.0
 21
0.0
 31
0.0
 44
1.0000002
  1
1675 MACARTHUR BOULEVARD\PCOSTA MESA, CA 92626 USA
 40
1.6764
 41
34.7120743494
  0
MTEXT
  5
2BA
100
AcDbEntity
  8
0
100
AcDbMText
 62
2
  6
CONTINUOUS
  7
TEXTSTYLE_2
 71
1
 72
1
 10
430.1639976693
 20
51.1577366527
 30
0.0
 11
1.0
 21
0.0
 31
0.0
 44
1.0000002
  1
QSC, LLC
 40
2.794
 41
17.4287434944
  0
MTEXT
  5
2BB
100
AcDbEntity
  8
0
100
AcDbMText
 62
2
  6
CONTINUOUS
  7
TEXTSTYLE_2
 71
3
 72
1
 10
464.9311655984
 20
8.1562390809
 30
0.0
 11
1.0
 21
0.0
 31
0.0
 44
1.0000002
  1
Form: QMS100206 Rev A
 40
1.1
 41
17.8821561338
  0
DIMENSION
  5
2BC
100
AcDbEntity
  8
0
100
AcDbDimension
 62
2
  6
CONTINUOUS
  2
*D0
 10
182.3326731003
 20
244.8204290385
 11
182.3326731003
 21
256.5161660881
 70
160
 71
2
 42
27.19789
  3
DIMSTYLE_1
100
AcDbAlignedDimension
 13
150.0411768482
 23
272.0183190385
 14
175.3368968482
 24
244.8204290385
 50
270.0
100
AcDbRotatedDimension
  0
DIMENSION
  5
2BD
100
AcDbEntity
  8
0
100
AcDbDimension
 62
2
  6
CONTINUOUS
  2
*D1
 10
175.1781468482
 20
212.9118885435
 11
135.7203310987
 21
211.0259385435
 70
160
 71
2
 42
82.8
  3
DIMSTYLE_2
100
AcDbAlignedDimension
 13
92.3781468482
 23
186.2211871954
 14
175.1781468482
 24
187.5403972918
100
AcDbRotatedDimension
  0
DIMENSION
  5
2BE
100
AcDbEntity
  8
0
100
AcDbDimension
 62
2
  6
CONTINUOUS
  2
*D2
 10
150.1996586482
 20
199.7727916003
 11
135.3961840435
 21
197.8868416003
 70
160
 71
2
 42
32.8430236
  3
DIMSTYLE_2
100
AcDbAlignedDimension
 13
117.3566350482
 23
178.0621484929
 14
150.1996586482
 24
178.6422322435
100
AcDbRotatedDimension
  0
DIMENSION
  5
2BF
100
AcDbEntity
  8
0
100
AcDbDimension
 62
2
  6
CONTINUOUS
  2
*D3
 10
208.5614492152
 20
105.580668513
 11
208.5614492152
 21
145.00471843
 70
160
 71
2
 42
82.619999834
  3
DIMSTYLE_2
100
AcDbAlignedDimension
 13
174.291280578
 23
188.200668347
 14
172.3368968482
 24
105.580668513
 50
270.0
100
AcDbRotatedDimension
  0
DIMENSION
  5
2C0
100
AcDbEntity
  8
0
100
AcDbDimension
 62
2
  6
CONTINUOUS
  2
*D4
 10
192.0823890186
 20
113.459156547
 11
192.0823890186
 21
144.794718347
 70
160
 71
2
 42
66.4430236
  3
DIMSTYLE_2
100
AcDbAlignedDimension
 13
149.0267233073
 23
179.902180147
 14
148.3596269942
 24
113.459156547
 50
270.0
100
AcDbRotatedDimension
  0
DIMENSION
  5
2C1
100
AcDbEntity
  8
0
100
AcDbDimension
 62
2
  6
CONTINUOUS
  2
*D5
 10
26.8916692451
 20
117.687668347
 11
26.8916692451
 21
144.794718347
 70
160
 71
2
 42
57.986
  3
DIMSTYLE_2
100
AcDbAlignedDimension
 13
50.3682196865
 23
175.673668347
 14
50.3682196865
 24
117.687668347
 50
270.0
100
AcDbRotatedDimension
  0
DIMENSION
  5
2C2
100
AcDbEntity
  8
0
100
AcDbDimension
 62
2
  6
CONTINUOUS
  2
*D6
 10
198.8649934128
 20
236.3204290385
 11
198.8649934128
 21
255.125821697
 70
160
 71
2
 42
35.69789
  3
DIMSTYLE_2
100
AcDbAlignedDimension
 13
150.0411768482
 23
272.0183190385
 14
142.8181235613
 24
236.3204290385
 50
270.0
100
AcDbRotatedDimension
  0
DIMENSION
  5
2C3
100
AcDbEntity
  8
0
100
AcDbDimension
 62
2
  6
CONTINUOUS
  2
*D7
 10
238.8073753245
 20
201.7209011276
 11
249.6358089972
 21
199.8349511276
 70
160
 71
1
 42
1.52
  3
DIMSTYLE_2
100
AcDbAlignedDimension
 13
237.2873753245
 23
188.359418347
 14
238.8073753245
 24
188.359418347
100
AcDbRotatedDimension
  0
DIMENSION
  5
2C4
100
AcDbEntity
  8
0
100
AcDbDimension
 62
2
  6
CONTINUOUS
  2
*D8
 10
156.2781468482
 20
34.501773522
 11
134.0127425722
 21
32.615823522
 70
160
 71
2
 42
45.05706
  3
DIMSTYLE_2
100
AcDbAlignedDimension
 13
111.2210868482
 23
59.0479429808
 14
156.2781468482
 24
61.2079429808
100
AcDbRotatedDimension
  0
DIMENSION
  5
2C5
100
AcDbEntity
  8
0
100
AcDbDimension
 62
2
  6
CONTINUOUS
  2
*D9
 10
352.2565596175
 20
90.7649824318
 11
322.2565596175
 21
88.8790324318
 70
160
 71
2
 42
60.0
  3
DIMSTYLE_2
100
AcDbAlignedDimension
 13
292.2565596175
 23
141.693634192
 14
352.2565596175
 24
141.558572919
100
AcDbRotatedDimension
  0
DIMENSION
  5
2C6
100
AcDbEntity
  8
0
100
AcDbDimension
 62
2
  6
CONTINUOUS
  2
*D10
 10
26.8916692451
 20
105.580668513
 11
26.8916692451
 21
98.7593705221
 70
160
 71
2
 42
12.106999834
  3
DIMSTYLE_2
100
AcDbAlignedDimension
 13
50.3682196865
 23
117.687668347
 14
64.3661096865
 24
105.580668513
 50
270.0
100
AcDbRotatedDimension
  0
LINE
  5
2C7
100
AcDbEntity
  8
0
100
AcDbLine
 62
2
  6
CONTINUOUS
 10
400.5326329181
 20
41.8166795564
 11
465.3226329181
 21
41.8166795564
  0
LINE
  5
2C8
100
AcDbEntity
  8
0
100
AcDbLine
 62
2
  6
CONTINUOUS
 10
400.5326329181
 20
41.8166795564
 11
400.5326329181
 21
20.7963670564
  0
LINE
  5
2C9
100
AcDbEntity
  8
0
100
AcDbLine
 62
2
  6
CONTINUOUS
 10
400.5326329181
 20
20.7963670564
 11
465.3226329181
 21
20.7963670564
  0
LINE
  5
2CA
100
AcDbEntity
  8
0
100
AcDbLine
 62
2
  6
CONTINUOUS
 10
465.3226329181
 20
41.8166795564
 11
465.3226329181
 21
20.7963670564
  0
MTEXT
  5
2CB
100
AcDbEntity
  8
0
100
AcDbMText
 62
2
  6
CONTINUOUS
  7
TEXTSTYLE_2
 71
2
 72
1
 10
432.9276329181
 20
37.9065233064
 30
0.0
 11
1.0
 21
0.0
 31
0.0
 44
0.9
  1
MIXER, MP-MFC-EU,\PMUSIC & PAGING,\PINTERNATIONAL
 40
3.3
 41
42.875464684
  0
LINE
  5
2CC
100
AcDbEntity
  8
0
100
AcDbLine
 62
2
  6
CONTINUOUS
 10
453.7676564599
 20
20.7872734659
 11
465.2764064599
 21
20.7872734659
  0
LINE
  5
2CD
100
AcDbEntity
  8
0
100
AcDbLine
 62
2
  6
CONTINUOUS
 10
453.7676564599
 20
20.7872734659
 11
453.7676564599
 21
13.9122734659
  0
LINE
  5
2CE
100
AcDbEntity
  8
0
100
AcDbLine
 62
2
  6
CONTINUOUS
 10
453.7676564599
 20
13.9122734659
 11
465.2764064599
 21
13.9122734659
  0
LINE
  5
2CF
100
AcDbEntity
  8
0
100
AcDbLine
 62
2
  6
CONTINUOUS
 10
465.2764064599
 20
20.7872734659
 11
465.2764064599
 21
13.9122734659
  0
MTEXT
  5
2D0
100
AcDbEntity
  8
0
100
AcDbMText
 62
2
  6
CONTINUOUS
  7
TEXTSTYLE_2
 71
2
 72
1
 10
459.5220314599
 20
18.1232109659
 30
0.0
 11
1.0
 21
0.0
 31
0.0
 44
0.9
  1
A
 40
3.4925
 41
3.596366171
  0
LINE
  5
2D1
100
AcDbEntity
  8
0
100
AcDbLine
 62
2
  6
CONTINUOUS
 10
418.938381279
 20
20.7658513791
 11
453.588381279
 21
20.7658513791
  0
LINE
  5
2D2
100
AcDbEntity
  8
0
100
AcDbLine
 62
2
  6
CONTINUOUS
 10
418.938381279
 20
20.7658513791
 11
418.938381279
 21
13.9080388791
  0
LINE
  5
2D3
100
AcDbEntity
  8
0
100
AcDbLine
 62
2
  6
CONTINUOUS
 10
418.938381279
 20
13.9080388791
 11
453.588381279
 21
13.9080388791
  0
LINE
  5
2D4
100
AcDbEntity
  8
0
100
AcDbLine
 62
2
  6
CONTINUOUS
 10
453.588381279
 20
20.7658513791
 11
453.588381279
 21
13.9080388791
  0
MTEXT
  5
2D5
100
AcDbEntity
  8
0
100
AcDbMText
 62
2
  6
CONTINUOUS
  7
TEXTSTYLE_2
 71
2
 72
1
 10
436.263381279
 20
18.3939763791
 30
0.0
 11
1.0
 21
0.0
 31
0.0
 44
0.9
  1
FG-901150-EU-2D
 40
2.75
 41
31.343866171
  0
LINE
  5
2D6
100
AcDbEntity
  8
0
100
AcDbLine
 62
2
  6
CONTINUOUS
 10
325.5660793001
 20
30.4055634591
 11
362.4160793001
 21
30.4055634591
  0
LINE
  5
2D7
100
AcDbEntity
  8
0
100
AcDbLine
 62
2
  6
CONTINUOUS
 10
325.5660793001
 20
30.4055634591
 11
325.5660793001
 21
25.3438447091
  0
LINE
  5
2D8
100
AcDbEntity
  8
0
100
AcDbLine
 62
2
  6
CONTINUOUS
 10
325.5660793001
 20
25.3438447091
 11
362.4160793001
 21
25.3438447091
  0
LINE
  5
2D9
100
AcDbEntity
  8
0
100
AcDbLine
 62
2
  6
CONTINUOUS
 10
362.4160793001
 20
30.4055634591
 11
362.4160793001
 21
25.3438447091
  0
MTEXT
  5
2DA
100
AcDbEntity
  8
0
100
AcDbMText
 62
2
  6
CONTINUOUS
  7
TEXTSTYLE_2
 71
2
 72
1
 10
347.6760793001
 20
29.1320040841
 30
0.0
 11
1.0
 21
0.0
 31
0.0
 44
0.9
  1
N/A
 40
2.5146
 41
6.7118319703
  0
LINE
  5
2DB
100
AcDbEntity
  8
0
100
AcDbLine
 62
2
  6
CONTINUOUS
 10
325.589104605
 20
25.2853836461
 11
362.439104605
 21
25.2853836461
  0
LINE
  5
2DC
100
AcDbEntity
  8
0
100
AcDbLine
 62
2
  6
CONTINUOUS
 10
325.589104605
 20
25.2853836461
 11
325.589104605
 21
20.2236648961
  0
LINE
  5
2DD
100
AcDbEntity
  8
0
100
AcDbLine
 62
2
  6
CONTINUOUS
 10
325.589104605
 20
20.2236648961
 11
362.439104605
 21
20.2236648961
  0
LINE
  5
2DE
100
AcDbEntity
  8
0
100
AcDbLine
 62
2
  6
CONTINUOUS
 10
362.439104605
 20
25.2853836461
 11
362.439104605
 21
20.2236648961
  0
MTEXT
  5
2DF
100
AcDbEntity
  8
0
100
AcDbMText
 62
2
  6
CONTINUOUS
  7
TEXTSTYLE_2
 71
2
 72
1
 10
347.699104605
 20
24.0118242711
 30
0.0
 11
1.0
 21
0.0
 31
0.0
 44
0.9
  1
N/A
 40
2.5146
 41
6.7118319703
  0
LINE
  5
2E0
100
AcDbEntity
  8
0
100
AcDbLine
 62
2
  6
CONTINUOUS
 10
362.4728308144
 20
39.6808539318
 11
400.4228308144
 21
39.6808539318
  0
LINE
  5
2E1
100
AcDbEntity
  8
0
100
AcDbLine
 62
2
  6
CONTINUOUS
 10
362.4728308144
 20
39.6808539318
 11
362.4728308144
 21
32.5996039318
  0
LINE
  5
2E2
100
AcDbEntity
  8
0
100
AcDbLine
 62
2
  6
CONTINUOUS
 10
362.4728308144
 20
32.5996039318
 11
400.4228308144
 21
32.5996039318
  0
LINE
  5
2E3
100
AcDbEntity
  8
0
100
AcDbLine
 62
2
  6
CONTINUOUS
 10
400.4228308144
 20
39.6808539318
 11
400.4228308144
 21
32.5996039318
  0
MTEXT
  5
2E4
100
AcDbEntity
  8
0
100
AcDbMText
 62
2
  6
CONTINUOUS
  7
TEXTSTYLE_2
 71
1
 72
1
 10
362.5415808144
 20
36.1281976818
 30
0.0
 11
1.0
 21
0.0
 31
0.0
 44
0.9
  1
 C. SUVARNA
 40
1.74625
 41
15.3981598513
  0
LINE
  5
2E5
100
AcDbEntity
  8
0
100
AcDbLine
 62
2
  6
CONTINUOUS
 10
362.4833199221
 20
32.6359902778
 11
400.4333199221
 21
32.6359902778
  0
LINE
  5
2E6
100
AcDbEntity
  8
0
100
AcDbLine
 62
2
  6
CONTINUOUS
 10
362.4833199221
 20
32.6359902778
 11
362.4833199221
 21
25.1422402778
  0
LINE
  5
2E7
100
AcDbEntity
  8
0
100
AcDbLine
 62
2
  6
CONTINUOUS
 10
362.4833199221
 20
25.1422402778
 11
400.4333199221
 21
25.1422402778
  0
LINE
  5
2E8
100
AcDbEntity
  8
0
100
AcDbLine
 62
2
  6
CONTINUOUS
 10
400.4333199221
 20
32.6359902778
 11
400.4333199221
 21
25.1422402778
  0
MTEXT
  5
2E9
100
AcDbEntity
  8
0
100
AcDbMText
 62
2
  6
CONTINUOUS
  7
TEXTSTYLE_2
 71
1
 72
1
 10
362.5520699221
 20
28.8255215278
 30
0.0
 11
1.0
 21
0.0
 31
0.0
 44
0.9
  1
 D. SIMPSON
 40
1.74625
 41
14.4114312268
  0
LINE
  5
2EA
100
AcDbEntity
  8
0
100
AcDbLine
 62
2
  6
CONTINUOUS
 10
362.4911011766
 20
25.127558277
 11
400.4411011766
 21
25.127558277
  0
LINE
  5
2EB
100
AcDbEntity
  8
0
100
AcDbLine
 62
2
  6
CONTINUOUS
 10
362.4911011766
 20
25.127558277
 11
362.4911011766
 21
17.633808277
  0
LINE
  5
2EC
100
AcDbEntity
  8
0
100
AcDbLine
 62
2
  6
CONTINUOUS
 10
362.4911011766
 20
17.633808277
 11
400.4411011766
 21
17.633808277
  0
LINE
  5
2ED
100
AcDbEntity
  8
0
100
AcDbLine
 62
2
  6
CONTINUOUS
 10
400.4411011766
 20
25.127558277
 11
400.4411011766
 21
17.633808277
  0
MTEXT
  5
2EE
100
AcDbEntity
  8
0
100
AcDbMText
 62
2
  6
CONTINUOUS
  7
TEXTSTYLE_2
 71
1
 72
1
 10
362.5598511766
 20
21.317089527
 30
0.0
 11
1.0
 21
0.0
 31
0.0
 44
0.9
  1
 S. NENADIC
 40
1.74625
 41
14.281598513
  0
LINE
  5
2EF
100
AcDbEntity
  8
0
100
AcDbLine
 62
2
  6
CONTINUOUS
 10
362.485960793
 20
17.7302829424
 11
400.435960793
 21
17.7302829424
  0
LINE
  5
2F0
100
AcDbEntity
  8
0
100
AcDbLine
 62
2
  6
CONTINUOUS
 10
362.485960793
 20
17.7302829424
 11
362.485960793
 21
10.2365329424
  0
LINE
  5
2F1
100
AcDbEntity
  8
0
100
AcDbLine
 62
2
  6
CONTINUOUS
 10
362.485960793
 20
10.2365329424
 11
400.435960793
 21
10.2365329424
  0
LINE
  5
2F2
100
AcDbEntity
  8
0
100
AcDbLine
 62
2
  6
CONTINUOUS
 10
400.435960793
 20
17.7302829424
 11
400.435960793
 21
10.2365329424
  0
MTEXT
  5
2F3
100
AcDbEntity
  8
0
100
AcDbMText
 62
2
  6
CONTINUOUS
  7
TEXTSTYLE_2
 71
1
 72
1
 10
362.554710793
 20
13.9198141924
 30
0.0
 11
1.0
 21
0.0
 31
0.0
 44
0.9
  1
 C. YOMOGIDA
 40
1.74625
 41
18.2025464684
  0
LINE
  5
2F4
100
AcDbEntity
  8
0
100
AcDbLine
 62
2
  6
CONTINUOUS
 10
400.5213370156
 20
13.6967825111
 11
413.5013370156
 21
13.6967825111
  0
LINE
  5
2F5
100
AcDbEntity
  8
0
100
AcDbLine
 62
2
  6
CONTINUOUS
 10
400.5213370156
 20
13.6967825111
 11
400.5213370156
 21
10.2850637611
  0
LINE
  5
2F6
100
AcDbEntity
  8
0
100
AcDbLine
 62
2
  6
CONTINUOUS
 10
400.5213370156
 20
10.2850637611
 11
413.5013370156
 21
10.2850637611
  0
LINE
  5
2F7
100
AcDbEntity
  8
0
100
AcDbLine
 62
2
  6
CONTINUOUS
 10
413.5013370156
 20
13.6967825111
 11
413.5013370156
 21
10.2850637611
  0
MTEXT
  5
2F8
100
AcDbEntity
  8
0
100
AcDbMText
 62
2
  6
CONTINUOUS
  7
TEXTSTYLE_2
 71
2
 72
1
 10
410.2563370156
 20
12.5409231361
 30
0.0
 11
1.0
 21
0.0
 31
0.0
 44
0.9
  1
1:1
 40
1.1
 41
2.126394052
  0
LINE
  5
2F9
100
AcDbEntity
  8
0
100
AcDbLine
 62
2
  6
CONTINUOUS
 10
446.3722248843
 20
13.7226188247
 11
465.3472248843
 21
13.7226188247
  0
LINE
  5
2FA
100
AcDbEntity
  8
0
100
AcDbLine
 62
2
  6
CONTINUOUS
 10
446.3722248843
 20
13.7226188247
 11
446.3722248843
 21
10.4140250747
  0
LINE
  5
2FB
100
AcDbEntity
  8
0
100
AcDbLine
 62
2
  6
CONTINUOUS
 10
446.3722248843
 20
10.4140250747
 11
465.3472248843
 21
10.4140250747
  0
LINE
  5
2FC
100
AcDbEntity
  8
0
100
AcDbLine
 62
2
  6
CONTINUOUS
 10
465.3472248843
 20
13.7226188247
 11
465.3472248843
 21
10.4140250747
  0
MTEXT
  5
2FD
100
AcDbEntity
  8
0
100
AcDbMText
 62
2
  6
CONTINUOUS
  7
TEXTSTYLE_2
 71
2
 72
1
 10
459.6547248843
 20
13.0869675997
 30
0.0
 11
1.0
 21
0.0
 31
0.0
 44
0.9
  1
1 OF 1
 40
2.0372913
 41
8.5732853219
  0
LINE
  5
2FE
100
AcDbEntity
  8
0
100
AcDbLine
 62
2
  6
CONTINUOUS
 10
413.4933252856
 20
13.7149842875
 11
446.2733252856
 21
13.7149842875
  0
LINE
  5
2FF
100
AcDbEntity
  8
0
100
AcDbLine
 62
2
  6
CONTINUOUS
 10
413.4933252856
 20
13.7149842875
 11
413.4933252856
 21
10.4063905375
  0
LINE
  5
300
100
AcDbEntity
  8
0
100
AcDbLine
 62
2
  6
CONTINUOUS
 10
413.4933252856
 20
10.4063905375
 11
446.2733252856
 21
10.4063905375
  0
LINE
  5
301
100
AcDbEntity
  8
0
100
AcDbLine
 62
2
  6
CONTINUOUS
 10
446.2733252856
 20
13.7149842875
 11
446.2733252856
 21
10.4063905375
  0
MTEXT
  5
302
100
AcDbEntity
  8
0
100
AcDbMText
 62
2
  6
CONTINUOUS
  7
TEXTSTYLE_2
 71
2
 72
1
 10
433.9808252856
 20
12.7591874125
 30
0.0
 11
1.0
 21
0.0
 31
0.0
 44
0.9
  1
FG-901150-EU-2D.A.0 
 40
1.397
 41
20.0617509294
  0
LINE
  5
303
100
AcDbEntity
  8
0
100
AcDbLine
 62
2
  6
CONTINUOUS
 10
325.6640238169
 20
52.1179655649
 11
362.3765238169
 21
52.1179655649
  0
LINE
  5
304
100
AcDbEntity
  8
0
100
AcDbLine
 62
2
  6
CONTINUOUS
 10
325.6640238169
 20
52.1179655649
 11
325.6640238169
 21
30.5992155649
  0
LINE
  5
305
100
AcDbEntity
  8
0
100
AcDbLine
 62
2
  6
CONTINUOUS
 10
325.6640238169
 20
30.5992155649
 11
362.3765238169
 21
30.5992155649
  0
LINE
  5
306
100
AcDbEntity
  8
0
100
AcDbLine
 62
2
  6
CONTINUOUS
 10
362.3765238169
 20
52.1179655649
 11
362.3765238169
 21
30.5992155649
  0
MTEXT
  5
307
100
AcDbEntity
  8
0
100
AcDbMText
 62
2
  6
CONTINUOUS
  7
TEXTSTYLE_2
 71
1
 72
1
 10
329.4040238169
 20
36.8520280649
 30
0.0
 11
1.0
 21
0.0
 31
0.0
 44
0.9
  1
X \Fgdt;{\Fgdt;`}\Fgothic.ttf;{\Ftxt.shx;\W0.166667;\H1.746250; } 3 [.12]               \Fgdt;{\Fgdt;`}\Fgothic.ttf;1\Fgdt;{\Fgdt;~}
 40
1.74625
 41
26.9521894362
  0
LINE
  5
308
100
AcDbEntity
  8
0
100
AcDbLine
 62
2
  6
CONTINUOUS
 10
309.099261917
 20
297.9721308774
 11
465.205761917
 21
297.9721308774
  0
LINE
  5
309
100
AcDbEntity
  8
0
100
AcDbLine
 62
2
  6
CONTINUOUS
 10
309.099261917
 20
297.9721308774
 11
309.099261917
 21
282.8845308774
  0
LINE
  5
30A
100
AcDbEntity
  8
0
100
AcDbLine
 62
2
  6
CONTINUOUS
 10
309.099261917
 20
292.9429308774
 11
465.205761917
 21
292.9429308774
  0
LINE
  5
30B
100
AcDbEntity
  8
0
100
AcDbLine
 62
2
  6
CONTINUOUS
 10
309.099261917
 20
287.9137308774
 11
465.205761917
 21
287.9137308774
  0
LINE
  5
30C
100
AcDbEntity
  8
0
100
AcDbLine
 62
2
  6
CONTINUOUS
 10
309.099261917
 20
282.8845308774
 11
465.205761917
 21
282.8845308774
  0
LINE
  5
30D
100
AcDbEntity
  8
0
100
AcDbLine
 62
2
  6
CONTINUOUS
 10
319.962861917
 20
292.9429308774
 11
319.962861917
 21
282.8845308774
  0
LINE
  5
30E
100
AcDbEntity
  8
0
100
AcDbLine
 62
2
  6
CONTINUOUS
 10
433.823861917
 20
292.9429308774
 11
433.823861917
 21
282.8845308774
  0
LINE
  5
30F
100
AcDbEntity
  8
0
100
AcDbLine
 62
2
  6
CONTINUOUS
 10
443.882261917
 20
292.9429308774
 11
443.882261917
 21
282.8845308774
  0
LINE
  5
310
100
AcDbEntity
  8
0
100
AcDbLine
 62
2
  6
CONTINUOUS
 10
465.205761917
 20
297.9721308774
 11
465.205761917
 21
282.8845308774
  0
MTEXT
  5
311
100
AcDbEntity
  8
0
100
AcDbMText
 62
2
  6
CONTINUOUS
  7
TEXTSTYLE_2
 71
2
 72
1
 10
387.152511917
 20
296.7148308774
 30
0.0
 11
1.0
 21
0.0
 31
0.0
 44
0.9
  1
REVISION
 40
2.5146
 41
15.4428223048
  0
MTEXT
  5
312
100
AcDbEntity
  8
0
100
AcDbMText
 62
2
  6
CONTINUOUS
  7
TEXTSTYLE_2
 71
2
 72
1
 10
314.531061917
 20
291.6856308774
 30
0.0
 11
1.0
 21
0.0
 31
0.0
 44
0.9
  1
REV
 40
2.5146
 41
6.4687851301
  0
MTEXT
  5
313
100
AcDbEntity
  8
0
100
AcDbMText
 62
2
  6
CONTINUOUS
  7
TEXTSTYLE_2
 71
2
 72
1
 10
376.893361917
 20
291.6856308774
 30
0.0
 11
1.0
 21
0.0
 31
0.0
 44
0.9
  1
DESCRIPTION
 40
2.5146
 41
22.0144349442
  0
MTEXT
  5
314
100
AcDbEntity
  8
0
100
AcDbMText
 62
2
  6
CONTINUOUS
  7
TEXTSTYLE_2
 71
2
 72
1
 10
438.853061917
 20
291.6856308774
 30
0.0
 11
1.0
 21
0.0
 31
0.0
 44
0.9
  1
BY
 40
2.5146
 41
4.0850565056
  0
MTEXT
  5
315
100
AcDbEntity
  8
0
100
AcDbMText
 62
2
  6
CONTINUOUS
  7
TEXTSTYLE_2
 71
2
 72
1
 10
454.544011917
 20
291.6856308774
 30
0.0
 11
1.0
 21
0.0
 31
0.0
 44
0.9
  1
DATE
 40
2.5146
 41
8.5720750929
  0
MTEXT
  5
316
100
AcDbEntity
  8
0
100
AcDbMText
 62
2
  6
CONTINUOUS
  7
STANDARD
 71
2
 72
1
 10
314.531061917
 20
286.6564308774
 30
0.0
 11
1.0
 21
0.0
 31
0.0
 44
0.9
  1
A
 40
2.5146
 41
2.5893836431
  0
MTEXT
  5
317
100
AcDbEntity
  8
0
100
AcDbMText
 62
2
  6
CONTINUOUS
  7
STANDARD
 71
1
 72
1
 10
320.968701917
 20
286.6564308774
 30
0.0
 11
1.0
 21
0.0
 31
0.0
 44
0.9
  1
INITIAL RELEASE
 40
2.5146
 41
25.3703509294
  0
MTEXT
  5
318
100
AcDbEntity
  8
0
100
AcDbMText
 62
2
  6
CONTINUOUS
  7
STANDARD
 71
2
 72
1
 10
438.853061917
 20
286.6564308774
 30
0.0
 11
1.0
 21
0.0
 31
0.0
 44
0.9
  1
ES
 40
2.5146
 41
3.6270066914
  0
MTEXT
  5
319
100
AcDbEntity
  8
0
100
AcDbMText
 62
2
  6
CONTINUOUS
  7
STANDARD
 71
2
 72
1
 10
454.544011917
 20
286.6564308774
 30
0.0
 11
1.0
 21
0.0
 31
0.0
 44
0.9
  1
18-APR-18
 40
2.5146
 41
16.9104513011
  0
MTEXT
  5
31A
100
AcDbEntity
  8
0
100
AcDbMText
 62
2
  6
CONTINUOUS
  7
STANDARD
 71
1
 72
1
 10
12.8861989965
 20
23.5540315851
 30
0.0
 11
1.0
 21
0.0
 31
0.0
 44
0.9
  1
1. NET WEIGHT APPROX. 0.09 KG [0.2 LBS]\P \PNOTES: UNLESS OTHERWISE SPECIFIED.
 40
2.5146
 41
68.3335539033
  0
MTEXT
  5
31B
100
AcDbEntity
  8
0
100
AcDbMText
 62
2
  6
CONTINUOUS
  7
TEXTSTYLE_1
 71
1
 72
1
 10
176.8245113484
 20
149.1993925976
 30
0.0
 11
1.0
 21
0.0
 31
0.0
 44
0.9
  1
{\Fgdt;q}
 40
2.5146
 41
3.98145
  0
MTEXT
  5
31C
100
AcDbEntity
  8
0
100
AcDbMText
 62
2
  6
CONTINUOUS
  7
TEXTSTYLE_1
 71
1
 72
1
 10
132.3212477172
 20
101.0995225752
 30
0.0
 11
1.0
 21
0.0
 31
0.0
 44
0.9
  1
{\Fgdt;q}
 40
2.5146
 41
3.98145
  0
MTEXT
  5
31D
100
AcDbEntity
  8
0
100
AcDbMText
 62
2
  6
CONTINUOUS
  7
TEXTSTYLE_1
 71
1
 72
1
 10
320.8404203496
 20
99.9361484618
 30
0.0
 11
1.0
 21
0.0
 31
0.0
 44
0.9
  1
{\Fgdt;q}
 40
2.5146
 41
3.98145
  0
LEADER
  5
31E
100
AcDbEntity
  8
0
100
AcDbLeader
 62
2
  6
CONTINUOUS
  3
STANDARD
 71
1
 72
0
 73
0
 75
0
 40
2.5146
 41
5.0478959108
 76
3
 10
353.7299962689
 20
143.4802318047
 30
0.0
 10
366.244018409
 20
128.6450642972
 30
0.0
 10
373.229018409
 20
128.6450642972
 30
0.0
340
31F
1001
ACAD
1000
DSTYLE
1002
{
1070
77
1070
0
1002
}
  0
MTEXT
  5
31F
102
{ACAD_REACTORS
330
31E
102
}
100
AcDbEntity
  8
0
100
AcDbMText
 62
2
  6
CONTINUOUS
  7
STANDARD
 71
1
 72
1
 10
373.229018409
 20
129.9023642972
 30
0.0
 11
1.0
 21
0.0
 31
0.0
 44
0.9
  1
2X 4.5{\Ftxt.shx;\W1.754647;\H2.514600; } X 7.5{\Ftxt.shx;\W1.754647;\H2.514600; } SLOT FULL R TYP.\P[0.18]{\Ftxt.shx;\W1.620818;\H2.514600; }[0.30]
 40
2.5146
 41
55.4520713755
  0
MTEXT
  5
320
100
AcDbEntity
  8
0
100
AcDbMText
 62
2
  6
CONTINUOUS
  7
STANDARD
 71
1
 72
1
 10
397.7874639531
 20
154.9919647646
 30
0.0
 11
1.0
 21
0.0
 31
0.0
 44
0.9
  1
SHOWN WITH WALL PLATE
 40
2.5146
 41
42.9538550186
  0
LWPOLYLINE
  5
321
100
AcDbEntity
  8
0
100
AcDbPolyline
 62
7
  6
CONTINUOUS
 90
2
 70
0
 43
0.2749999988
 10
8.1310300197
 20
155.2134252988
 10
8.1310300197
 20
153.1970294837
  0
LWPOLYLINE
  5
322
100
AcDbEntity
  8
0
100
AcDbPolyline
 62
7
  6
CONTINUOUS
 90
2
 70
0
 43
0.2749999988
 10
9.8772800197
 20
298.0962273913
 10
9.8772800197
 20
10.3142273913
  0
LWPOLYLINE
  5
323
100
AcDbEntity
  8
0
100
AcDbPolyline
 62
7
  6
CONTINUOUS
 90
2
 70
0
 43
0.2749999988
 10
66.8050300197
 20
10.3142273913
 10
66.8050300197
 20
6.8217273913
  0
LWPOLYLINE
  5
324
100
AcDbEntity
  8
0
100
AcDbPolyline
 62
7
  6
CONTINUOUS
 90
2
 70
0
 43
0.2749999988
 10
66.8050300197
 20
298.0962273913
 10
66.8050300197
 20
301.5887273913
  0
LWPOLYLINE
  5
325
100
AcDbEntity
  8
0
100
AcDbPolyline
 62
7
  6
CONTINUOUS
 90
2
 70
0
 43
0.2749999988
 10
82.5212800197
 20
298.0962273913
 10
82.5212800197
 20
290.4127273913
  0
LWPOLYLINE
  5
326
100
AcDbEntity
  8
0
100
AcDbPolyline
 62
7
  6
CONTINUOUS
 90
2
 70
0
 43
0.2749999988
 10
357.0114016008
 20
13.6223244663
 10
361.202401601
 20
14.3208244663
  0
LWPOLYLINE
  5
327
100
AcDbEntity
  8
0
100
AcDbPolyline
 62
7
  6
CONTINUOUS
 90
2
 70
0
 43
0.2749999988
 10
238.5964779272
 20
8.5679773913
 10
236.5800821121
 20
8.5679773913
  0
LWPOLYLINE
  5
328
100
AcDbEntity
  8
0
100
AcDbPolyline
 62
7
  6
CONTINUOUS
 90
2
 70
0
 43
0.2749999988
 10
465.2992800197
 20
10.3142273913
 10
9.8772800197
 20
10.3142273913
  0
LWPOLYLINE
  5
329
100
AcDbEntity
  8
0
100
AcDbPolyline
 62
7
  6
CONTINUOUS
 90
2
 70
0
 43
0.1099999967
 10
352.4068896008
 20
12.9238244663
 10
356.027913601
 20
12.9238244663
  0
LWPOLYLINE
  5
32A
100
AcDbEntity
  8
0
100
AcDbPolyline
 62
7
  6
CONTINUOUS
 90
2
 70
0
 43
0.1099999967
 10
356.4912264599
 20
12.9238244663
 10
361.6298929592
 20
12.9238244663
  0
LWPOLYLINE
  5
32B
100
AcDbEntity
  8
0
100
AcDbPolyline
 62
7
  6
CONTINUOUS
 90
2
 70
0
 43
0.2749999988
 10
400.524553041
 20
13.8067273913
 10
465.2992800197
 20
13.8067273913
  0
LWPOLYLINE
  5
32C
100
AcDbEntity
  8
0
100
AcDbPolyline
 62
7
  6
CONTINUOUS
 90
2
 70
0
 43
0.2749999988
 10
325.5992800197
 20
15.3434273913
 10
362.3959434198
 20
15.3434273913
  0
LWPOLYLINE
  5
32D
100
AcDbEntity
  8
0
100
AcDbPolyline
 62
7
  6
CONTINUOUS
 90
2
 70
0
 43
0.2749999988
 10
362.3562001669
 20
17.7392273913
 10
400.4848097881
 20
17.7392273913
  0
LWPOLYLINE
  5
32E
100
AcDbEntity
  8
0
100
AcDbPolyline
 62
7
  6
CONTINUOUS
 90
2
 70
0
 43
0.2749999988
 10
325.5992800197
 20
20.3726273913
 10
362.3959434198
 20
20.3726273913
  0
LWPOLYLINE
  5
32F
100
AcDbEntity
  8
0
100
AcDbPolyline
 62
7
  6
CONTINUOUS
 90
2
 70
0
 43
0.2749999988
 10
400.524553041
 20
20.9017273913
 10
465.2992800197
 20
20.9017273913
  0
LWPOLYLINE
  5
330
100
AcDbEntity
  8
0
100
AcDbPolyline
 62
7
  6
CONTINUOUS
 90
2
 70
0
 43
0.2749999988
 10
8.1310300197
 20
153.1970294837
 10
9.8772800197
 20
154.2052273913
  0
LWPOLYLINE
  5
331
100
AcDbEntity
  8
0
100
AcDbPolyline
 62
7
  6
CONTINUOUS
 90
2
 70
0
 43
0.2749999988
 10
362.3959434198
 20
25.1642273913
 10
400.524553041
 20
25.1642273913
  0
LWPOLYLINE
  5
332
100
AcDbEntity
  8
0
100
AcDbPolyline
 62
7
  6
CONTINUOUS
 90
2
 70
0
 43
0.2749999988
 10
325.5992800197
 20
25.4018273913
 10
362.3959434198
 20
25.4018273913
  0
LWPOLYLINE
  5
333
100
AcDbEntity
  8
0
100
AcDbPolyline
 62
7
  6
CONTINUOUS
 90
2
 70
0
 43
0.2749999988
 10
362.3959434198
 20
30.5048563632
 10
325.5992800197
 20
30.5048563632
  0
LWPOLYLINE
  5
334
100
AcDbEntity
  8
0
100
AcDbPolyline
 62
7
  6
CONTINUOUS
 90
2
 70
0
 43
0.2749999988
 10
362.3959434198
 20
32.5892273913
 10
400.524553041
 20
32.5892273913
  0
LWPOLYLINE
  5
335
100
AcDbEntity
  8
0
100
AcDbPolyline
 62
7
  6
CONTINUOUS
 90
2
 70
0
 43
0.2749999988
 10
362.3959434198
 20
39.7115043121
 10
400.524553041
 20
39.7115043121
  0
LWPOLYLINE
  5
336
100
AcDbEntity
  8
0
100
AcDbPolyline
 62
7
  6
CONTINUOUS
 90
2
 70
0
 43
0.2749999988
 10
357.0114016008
 20
12.2253244663
 10
361.202401601
 20
11.5268244663
  0
LWPOLYLINE
  5
337
100
AcDbEntity
  8
0
100
AcDbPolyline
 62
7
  6
CONTINUOUS
 90
2
 70
0
 43
0.2749999988
 10
123.7327800197
 20
10.3142273913
 10
123.7327800197
 20
6.8217273913
  0
LWPOLYLINE
  5
338
100
AcDbEntity
  8
0
100
AcDbPolyline
 62
7
  6
CONTINUOUS
 90
2
 70
0
 43
0.2749999988
 10
123.7327800197
 20
298.0962273913
 10
123.7327800197
 20
301.5887273913
  0
LWPOLYLINE
  5
339
100
AcDbEntity
  8
0
100
AcDbPolyline
 62
7
  6
CONTINUOUS
 90
2
 70
0
 43
0.2749999988
 10
400.524553041
 20
41.7467273913
 10
465.2992800197
 20
41.7467273913
  0
LWPOLYLINE
  5
33A
100
AcDbEntity
  8
0
100
AcDbPolyline
 62
7
  6
CONTINUOUS
 90
2
 70
0
 43
0.2749999988
 10
362.3959434198
 20
42.6452043121
 10
400.524553041
 20
42.6452043121
  0
LINE
  5
33B
100
AcDbEntity
  8
0
100
AcDbLine
 62
7
  6
CONTINUOUS
 10
407.3219872209
 20
43.9924447827
 11
408.8124644897
 21
43.9924447827
  0
LINE
  5
33C
100
AcDbEntity
  8
0
100
AcDbLine
 62
7
  6
CONTINUOUS
 10
403.3592638589
 20
44.5691029916
 11
407.2262659685
 21
44.5691029916
  0
LINE
  5
33D
100
AcDbEntity
  8
0
100
AcDbLine
 62
7
  6
CONTINUOUS
 10
408.9081857422
 20
44.5691029916
 11
409.6685830874
 21
44.5691029916
  0
LINE
  5
33E
100
AcDbEntity
  8
0
100
AcDbLine
 62
7
  6
CONTINUOUS
 10
411.7629689795
 20
44.5691029896
 11
418.680265784
 21
44.5691029896
  0
LINE
  5
33F
100
AcDbEntity
  8
0
100
AcDbLine
 62
7
  6
CONTINUOUS
 10
417.3349230578
 20
45.5383817678
 11
411.7629689795
 21
45.5383817678
  0
LINE
  5
340
100
AcDbEntity
  8
0
100
AcDbLine
 62
7
  6
CONTINUOUS
 10
428.5155448047
 20
45.5599414677
 11
422.7806888369
 21
45.5599414677
  0
LINE
  5
341
100
AcDbEntity
  8
0
100
AcDbLine
 62
7
  6
CONTINUOUS
 10
404.3460011247
 20
45.5945523654
 11
407.2044956701
 21
45.5945523654
  0
LINE
  5
342
100
AcDbEntity
  8
0
100
AcDbLine
 62
7
  6
CONTINUOUS
 10
408.8788196308
 20
45.5945523704
 11
409.3184400375
 21
45.5945523704
  0
LINE
  5
343
100
AcDbEntity
  8
0
100
AcDbLine
 62
7
  6
CONTINUOUS
 10
407.3002169236
 20
46.1697204213
 11
408.7830983824
 21
46.1697204213
  0
LINE
  5
344
100
AcDbEntity
  8
0
100
AcDbLine
 62
7
  6
CONTINUOUS
 10
412.5549312989
 20
46.5443098542
 11
417.3349230588
 21
46.5443098542
  0
LINE
  5
345
100
AcDbEntity
  8
0
100
AcDbLine
 62
7
  6
CONTINUOUS
 10
418.680265784
 20
47.5503156418
 11
413.9639881522
 21
47.5503156418
  0
LINE
  5
346
100
AcDbEntity
  8
0
100
AcDbLine
 62
7
  6
CONTINUOUS
 10
413.9639881513
 20
48.5189631135
 11
419.5435053397
 21
48.5189631135
  0
LINE
  5
347
100
AcDbEntity
  8
0
100
AcDbLine
 62
7
  6
CONTINUOUS
 10
422.780688838
 20
48.528892706
 11
428.5155448037
 21
48.528892706
  0
LINE
  5
348
100
AcDbEntity
  8
0
100
AcDbLine
 62
7
  6
CONTINUOUS
 10
404.3460011257
 20
48.5739716482
 11
409.3184400355
 21
48.5739716482
  0
LINE
  5
349
100
AcDbEntity
  8
0
100
AcDbLine
 62
7
  6
CONTINUOUS
 10
409.6685830874
 20
49.5187526188
 11
403.3592638589
 21
49.5187526188
  0
LINE
  5
34A
100
AcDbEntity
  8
0
100
AcDbLine
 62
7
  6
CONTINUOUS
 10
428.515544805
 20
49.5245647827
 11
421.8248312598
 21
49.5245647827
  0
LINE
  5
34B
100
AcDbEntity
  8
0
100
AcDbLine
 62
7
  6
CONTINUOUS
 10
419.5435053397
 20
49.5245647818
 11
412.5549312989
 21
49.5245647818
  0
LWPOLYLINE
  5
34C
100
AcDbEntity
  8
0
100
AcDbPolyline
 62
7
  6
CONTINUOUS
 90
2
 70
0
 43
0.2749999988
 10
325.5992800197
 20
52.2242273913
 10
465.2992800197
 20
52.2242273913
  0
LINE
  5
34D
100
AcDbEntity
  8
0
100
AcDbLine
 62
7
  6
CONTINUOUS
 10
421.8248312598
 20
44.5691055022
 11
428.5160879989
 21
44.5607993432
  0
LWPOLYLINE
  5
34E
100
AcDbEntity
  8
0
100
AcDbPolyline
 62
7
  6
CONTINUOUS
 90
2
 70
0
 43
0.2749999988
 10
9.8772800197
 20
154.2052273913
 10
8.1310300197
 20
155.2134252988
  0
LWPOLYLINE
  5
34F
100
AcDbEntity
  8
0
100
AcDbPolyline
 62
7
  6
CONTINUOUS
 90
2
 70
0
 43
0.2749999988
 10
237.5882800197
 20
298.0962273913
 10
238.5964779272
 20
299.8424773913
  0
LWPOLYLINE
  5
350
100
AcDbEntity
  8
0
100
AcDbPolyline
 62
7
  6
CONTINUOUS
 90
2
 70
0
 43
0.2749999988
 10
9.8772800197
 20
82.2597273913
 10
6.3847800197
 20
82.2597273913
  0
LWPOLYLINE
  5
351
100
AcDbEntity
  8
0
100
AcDbPolyline
 62
7
  6
CONTINUOUS
 90
2
 70
0
 43
0.2749999988
 10
465.2992800197
 20
82.2597273913
 10
468.7917800197
 20
82.2597273913
  0
LWPOLYLINE
  5
352
100
AcDbEntity
  8
0
100
AcDbPolyline
 62
7
  6
CONTINUOUS
 90
2
 70
0
 43
0.2749999988
 10
237.5882800197
 20
10.3142273913
 10
238.5964779272
 20
8.5679773913
  0
LWPOLYLINE
  5
353
100
AcDbEntity
  8
0
100
AcDbPolyline
 62
7
  6
CONTINUOUS
 90
2
 70
0
 43
0.2749999988
 10
180.6605300197
 20
10.3142273913
 10
180.6605300197
 20
6.8217273913
  0
LWPOLYLINE
  5
354
100
AcDbEntity
  8
0
100
AcDbPolyline
 62
7
  6
CONTINUOUS
 90
2
 70
0
 43
0.2749999988
 10
180.6605300197
 20
298.0962273913
 10
180.6605300197
 20
301.5887273913
  0
LWPOLYLINE
  5
355
100
AcDbEntity
  8
0
100
AcDbPolyline
 62
7
  6
CONTINUOUS
 90
2
 70
0
 43
0.2749999988
 10
237.5882800197
 20
10.3142273913
 10
237.5882800197
 20
6.8217273913
  0
LWPOLYLINE
  5
356
100
AcDbEntity
  8
0
100
AcDbPolyline
 62
7
  6
CONTINUOUS
 90
2
 70
0
 43
0.2749999988
 10
237.5882800197
 20
298.0962273913
 10
237.5882800197
 20
301.5887273913
  0
LWPOLYLINE
  5
357
100
AcDbEntity
  8
0
100
AcDbPolyline
 62
7
  6
CONTINUOUS
 90
2
 70
0
 43
0.2749999988
 10
9.8772800197
 20
154.2052273913
 10
6.3847800197
 20
154.2052273913
  0
LWPOLYLINE
  5
358
100
AcDbEntity
  8
0
100
AcDbPolyline
 62
7
  6
CONTINUOUS
 90
2
 70
0
 43
0.2749999988
 10
465.2992800197
 20
154.2052273913
 10
468.7917800197
 20
154.2052273913
  0
LWPOLYLINE
  5
359
100
AcDbEntity
  8
0
100
AcDbPolyline
 62
7
  6
CONTINUOUS
 90
2
 70
0
 43
0.2749999988
 10
294.5160300197
 20
10.3142273913
 10
294.5160300197
 20
6.8217273913
  0
LWPOLYLINE
  5
35A
100
AcDbEntity
  8
0
100
AcDbPolyline
 62
7
  6
CONTINUOUS
 90
2
 70
0
 43
0.2749999988
 10
294.5160300197
 20
298.0962273913
 10
294.5160300197
 20
301.5887273913
  0
LWPOLYLINE
  5
35B
100
AcDbEntity
  8
0
100
AcDbPolyline
 62
7
  6
CONTINUOUS
 90
2
 70
0
 43
0.2749999988
 10
237.5882800197
 20
10.3142273913
 10
236.5800821121
 20
8.5679773913
  0
LWPOLYLINE
  5
35C
100
AcDbEntity
  8
0
100
AcDbPolyline
 62
7
  6
CONTINUOUS
 90
2
 70
0
 43
0.2749999988
 10
9.8772800197
 20
226.1507273913
 10
6.3847800197
 20
226.1507273913
  0
LWPOLYLINE
  5
35D
100
AcDbEntity
  8
0
100
AcDbPolyline
 62
7
  6
CONTINUOUS
 90
2
 70
0
 43
0.2749999988
 10
465.2992800197
 20
226.1507273913
 10
468.7917800197
 20
226.1507273913
  0
LWPOLYLINE
  5
35E
100
AcDbEntity
  8
0
100
AcDbPolyline
 62
7
  6
CONTINUOUS
 90
2
 70
0
 43
0.2749999988
 10
237.5882800197
 20
298.0962273913
 10
236.5800821121
 20
299.8424773913
  0
LWPOLYLINE
  5
35F
100
AcDbEntity
  8
0
100
AcDbPolyline
 62
7
  6
CONTINUOUS
 90
2
 70
0
 43
0.2749999988
 10
325.5992800197
 20
10.3142273913
 10
325.5992800197
 20
52.2242273913
  0
LWPOLYLINE
  5
360
100
AcDbEntity
  8
0
100
AcDbPolyline
 62
7
  6
CONTINUOUS
 90
2
 70
0
 43
0.2749999988
 10
351.4437800197
 20
6.8217273913
 10
351.4437800197
 20
15.3434273913
  0
LWPOLYLINE
  5
361
100
AcDbEntity
  8
0
100
AcDbPolyline
 62
7
  6
CONTINUOUS
 90
2
 70
0
 43
0.2749999988
 10
351.4437800197
 20
298.0962273913
 10
351.4437800197
 20
301.5887273913
  0
LWPOLYLINE
  5
362
100
AcDbEntity
  8
0
100
AcDbPolyline
 62
7
  6
CONTINUOUS
 90
2
 70
0
 43
0.1099999967
 10
354.2174016008
 20
11.1133124663
 10
354.2174016008
 20
14.7343364663
  0
LWPOLYLINE
  5
363
100
AcDbEntity
  8
0
100
AcDbPolyline
 62
7
  6
CONTINUOUS
 90
2
 70
0
 43
0.2749999988
 10
465.2992800197
 20
154.2052273913
 10
467.0455300197
 20
155.2134252988
  0
LWPOLYLINE
  5
364
100
AcDbEntity
  8
0
100
AcDbPolyline
 62
7
  6
CONTINUOUS
 90
2
 70
0
 43
0.2749999988
 10
467.0455300197
 20
153.1970294837
 10
465.2992800197
 20
154.2052273913
  0
LWPOLYLINE
  5
365
100
AcDbEntity
  8
0
100
AcDbPolyline
 62
7
  6
CONTINUOUS
 90
2
 70
0
 43
0.2749999988
 10
357.0114016008
 20
13.6223244663
 10
357.0114016008
 20
12.2253244663
  0
LWPOLYLINE
  5
366
100
AcDbEntity
  8
0
100
AcDbPolyline
 62
7
  6
CONTINUOUS
 90
2
 70
0
 43
0.2749999988
 10
361.202401601
 20
14.3208244663
 10
361.202401601
 20
11.5268244663
  0
LWPOLYLINE
  5
367
100
AcDbEntity
  8
0
100
AcDbPolyline
 62
7
  6
CONTINUOUS
 90
2
 70
0
 43
0.2749999988
 10
362.3959434198
 20
52.2242273913
 10
362.3959434198
 20
10.3142273913
  0
LWPOLYLINE
  5
368
100
AcDbEntity
  8
0
100
AcDbPolyline
 62
7
  6
CONTINUOUS
 90
2
 70
0
 43
0.2749999988
 10
9.8772800197
 20
290.3027273913
 10
82.5212800197
 20
290.3027273913
  0
LWPOLYLINE
  5
369
100
AcDbEntity
  8
0
100
AcDbPolyline
 62
7
  6
CONTINUOUS
 90
2
 70
0
 43
0.2749999988
 10
9.8772800197
 20
297.9862273913
 10
465.2992800197
 20
297.9862273913
  0
LWPOLYLINE
  5
36A
100
AcDbEntity
  8
0
100
AcDbPolyline
 62
7
  6
CONTINUOUS
 90
2
 70
0
 43
0.2749999988
 10
238.5964779272
 20
299.8424773913
 10
236.5800821121
 20
299.8424773913
  0
LWPOLYLINE
  5
36B
100
AcDbEntity
  8
0
100
AcDbPolyline
 62
7
  6
CONTINUOUS
 90
2
 70
0
 43
0.2749999988
 10
400.524553041
 20
52.2242273913
 10
400.524553041
 20
10.3142273913
  0
LINE
  5
36C
100
AcDbEntity
  8
0
100
AcDbLine
 62
7
  6
CONTINUOUS
 10
404.0971258659
 20
45.8434276242
 11
404.0971258659
 21
48.3250963884
  0
LINE
  5
36D
100
AcDbEntity
  8
0
100
AcDbLine
 62
7
  6
CONTINUOUS
 10
420.4190951782
 20
47.0554744722
 11
420.4195319803
 21
47.0176060266
  0
LWPOLYLINE
  5
36E
100
AcDbEntity
  8
0
100
AcDbPolyline
 62
7
  6
CONTINUOUS
 90
2
 70
0
 43
0.2749999988
 10
405.5735591841
 20
20.7917273913
 10
405.5735591841
 20
13.8067273913
  0
LINE
  5
36F
100
AcDbEntity
  8
0
100
AcDbLine
 62
7
  6
CONTINUOUS
 10
407.2044956701
 20
45.5945523654
 11
407.2044956701
 21
46.0739991679
  0
LINE
  5
370
100
AcDbEntity
  8
0
100
AcDbLine
 62
7
  6
CONTINUOUS
 10
407.2262659685
 20
44.5691029916
 11
407.2262659685
 21
44.0881660352
  0
LWPOLYLINE
  5
371
100
AcDbEntity
  8
0
100
AcDbPolyline
 62
7
  6
CONTINUOUS
 90
2
 70
0
 43
0.2749999988
 10
408.3715300197
 20
10.3142273913
 10
408.3715300197
 20
6.8217273913
  0
LWPOLYLINE
  5
372
100
AcDbEntity
  8
0
100
AcDbPolyline
 62
7
  6
CONTINUOUS
 90
2
 70
0
 43
0.2749999988
 10
408.3715300197
 20
298.0962273913
 10
408.3715300197
 20
301.5887273913
  0
LINE
  5
373
100
AcDbEntity
  8
0
100
AcDbLine
 62
7
  6
CONTINUOUS
 10
408.8788196308
 20
45.5945523704
 11
408.8788196308
 21
46.0739991709
  0
LINE
  5
374
100
AcDbEntity
  8
0
100
AcDbLine
 62
7
  6
CONTINUOUS
 10
408.9081857422
 20
44.0881660352
 11
408.9081857422
 21
44.5691029916
  0
LINE
  5
375
100
AcDbEntity
  8
0
100
AcDbLine
 62
7
  6
CONTINUOUS
 10
409.5673152953
 20
45.8434276282
 11
409.5673152953
 21
48.3250963924
  0
LINE
  5
376
100
AcDbEntity
  8
0
100
AcDbLine
 62
7
  6
CONTINUOUS
 10
410.8417941252
 20
45.4952622036
 11
410.8417941252
 21
48.5925934048
  0
LINE
  5
377
100
AcDbEntity
  8
0
100
AcDbLine
 62
7
  6
CONTINUOUS
 10
411.5140937208
 20
45.289506509
 11
411.5140937208
 21
44.8179782483
  0
LWPOLYLINE
  5
378
100
AcDbEntity
  8
0
100
AcDbPolyline
 62
7
  6
CONTINUOUS
 90
2
 70
0
 43
0.2749999988
 10
413.5526175039
 20
13.8067273913
 10
413.5526175039
 20
10.3142273913
  0
LINE
  5
379
100
AcDbEntity
  8
0
100
AcDbLine
 62
7
  6
CONTINUOUS
 10
413.7151128935
 20
47.7991909005
 11
413.7151128935
 21
48.2700878557
  0
LINE
  5
37A
100
AcDbEntity
  8
0
100
AcDbLine
 62
7
  6
CONTINUOUS
 10
417.5837983156
 20
46.2954345955
 11
417.5837983156
 21
45.7872570255
  0
LWPOLYLINE
  5
37B
100
AcDbEntity
  8
0
100
AcDbPolyline
 62
7
  6
CONTINUOUS
 90
2
 70
0
 43
0.2749999988
 10
418.8450591841
 20
20.7917273913
 10
418.8450591841
 20
13.8067273913
  0
LINE
  5
37C
100
AcDbEntity
  8
0
100
AcDbLine
 62
7
  6
CONTINUOUS
 10
419.7923805984
 20
48.7678383723
 11
419.7923805984
 21
49.2756895209
  0
LINE
  5
37D
100
AcDbEntity
  8
0
100
AcDbLine
 62
7
  6
CONTINUOUS
 10
422.5318135782
 20
45.8088167264
 11
422.5318135782
 21
48.2800174462
  0
LINE
  5
37E
100
AcDbEntity
  8
0
100
AcDbLine
 62
7
  6
CONTINUOUS
 10
428.7644200625
 20
44.8096740079
 11
428.7644200625
 21
45.3110662099
  0
LINE
  5
37F
100
AcDbEntity
  8
0
100
AcDbLine
 62
7
  6
CONTINUOUS
 10
428.7644200625
 20
48.7777679648
 11
428.7644200625
 21
49.2756895274
  0
LWPOLYLINE
  5
380
100
AcDbEntity
  8
0
100
AcDbPolyline
 62
7
  6
CONTINUOUS
 90
2
 70
0
 43
0.2749999988
 10
446.2623276485
 20
13.8067273913
 10
446.2623276485
 20
10.3142273913
  0
LWPOLYLINE
  5
381
100
AcDbEntity
  8
0
100
AcDbPolyline
 62
7
  6
CONTINUOUS
 90
2
 70
0
 43
0.2749999988
 10
453.6967628997
 20
20.7917273913
 10
453.6967628997
 20
13.8067273913
  0
LWPOLYLINE
  5
382
100
AcDbEntity
  8
0
100
AcDbPolyline
 62
7
  6
CONTINUOUS
 90
2
 70
0
 43
0.2749999988
 10
465.2992800197
 20
10.3142273913
 10
465.2992800197
 20
298.0962273913
  0
LWPOLYLINE
  5
383
100
AcDbEntity
  8
0
100
AcDbPolyline
 62
7
  6
CONTINUOUS
 90
2
 70
0
 43
0.2749999988
 10
467.0455300197
 20
155.2134252988
 10
467.0455300197
 20
153.1970294837
  0
LINE
  5
384
100
AcDbEntity
  8
7_ALL_ROUNDS
100
AcDbLine
 62
7
  6
CONTINUOUS
 10
92.3781468482
 20
185.200668347
 11
92.3781468482
 21
108.580668513
  0
LINE
  5
385
100
AcDbEntity
  8
7_ALL_ROUNDS
100
AcDbLine
 62
7
  6
CONTINUOUS
 10
95.3781468482
 20
105.580668513
 11
172.1781468482
 21
105.580668513
  0
LINE
  5
386
100
AcDbEntity
  8
0
100
AcDbLine
 62
7
  6
CONTINUOUS
 10
101.2781468482
 20
141.187668347
 11
101.2781468482
 21
138.687668347
  0
LINE
  5
387
100
AcDbEntity
  8
0
100
AcDbLine
 62
7
  6
CONTINUOUS
 10
101.5281468482
 20
148.180668347
 11
101.5281468482
 21
145.180668347
  0
LINE
  5
388
100
AcDbEntity
  8
0
100
AcDbLine
 62
7
  6
CONTINUOUS
 10
101.5906468482
 20
138.687668347
 11
101.5906468482
 21
139.8046896394
  0
LINE
  5
389
100
AcDbEntity
  8
0
100
AcDbLine
 62
7
  6
CONTINUOUS
 10
101.5906468482
 20
140.1238385375
 11
101.5906468482
 21
140.9217109319
  0
LINE
  5
38A
100
AcDbEntity
  8
0
100
AcDbLine
 62
7
  6
CONTINUOUS
 10
102.8927301319
 20
140.6025620337
 11
102.8927301319
 21
140.4429874357
  0
LINE
  5
38B
100
AcDbEntity
  8
7_ALL_ROUNDS
100
AcDbLine
 62
7
  6
CONTINUOUS
 10
119.3554167022
 20
113.459156547
 11
148.2008769942
 21
113.459156547
  0
LINE
  5
38C
100
AcDbEntity
  8
7_ALL_ROUNDS
100
AcDbLine
 62
7
  6
CONTINUOUS
 10
119.5467825191
 20
113.6505223638
 11
148.0095111774
 21
113.6505223638
  0
LINE
  5
38D
100
AcDbEntity
  8
7_ALL_ROUNDS
100
AcDbLine
 62
7
  6
CONTINUOUS
 10
120.2781468482
 20
115.3810068858
 11
147.2781468482
 21
115.3810068858
  0
LINE
  5
38E
100
AcDbEntity
  8
0
100
AcDbLine
 62
7
  6
CONTINUOUS
 10
103.2573135645
 20
138.687668347
 11
102.7885635645
 21
139.9110726055
  0
LINE
  5
38F
100
AcDbEntity
  8
0
100
AcDbLine
 62
7
  6
CONTINUOUS
 10
102.47606349
 20
139.8046896394
 11
102.8927301319
 21
138.687668347
  0
LINE
  5
390
100
AcDbEntity
  8
0
100
AcDbLine
 62
7
  6
CONTINUOUS
 10
102.8406468482
 20
140.7621364828
 11
102.8927301319
 21
140.6025620337
  0
LINE
  5
391
100
AcDbEntity
  8
0
100
AcDbLine
 62
7
  6
CONTINUOUS
 10
103.2052301319
 20
140.6025620337
 11
103.1531468482
 21
140.7621364828
  0
LINE
  5
392
100
AcDbEntity
  8
0
100
AcDbLine
 62
7
  6
CONTINUOUS
 10
103.2052301319
 20
140.3897959527
 11
103.2052301319
 21
140.6025620337
  0
LINE
  5
393
100
AcDbEntity
  8
0
100
AcDbLine
 62
7
  6
CONTINUOUS
 10
103.6739801319
 20
141.187668347
 11
103.6739801319
 21
138.687668347
  0
LINE
  5
394
100
AcDbEntity
  8
3_AXES_OTHER
100
AcDbLine
 62
7
  6
CENTER
 10
103.7781468482
 20
146.680668347
 11
103.7781468482
 21
143.886568347
  0
LINE
  5
395
100
AcDbEntity
  8
3_AXES_OTHER
100
AcDbLine
 62
7
  6
CENTER
 10
103.7781468482
 20
146.680668347
 11
103.7781468482
 21
149.474768347
  0
LINE
  5
396
100
AcDbEntity
  8
0
100
AcDbLine
 62
7
  6
CONTINUOUS
 10
103.9864802809
 20
139.0068172824
 11
103.9864802809
 21
139.8578811224
  0
LINE
  5
397
100
AcDbEntity
  8
0
100
AcDbLine
 62
7
  6
CONTINUOUS
 10
103.9864802809
 20
140.1770300206
 11
103.9864802809
 21
140.8685194488
  0
LINE
  5
398
100
AcDbEntity
  8
0
100
AcDbLine
 62
7
  6
CONTINUOUS
 10
105.3406468482
 20
139.8578811224
 11
105.3406468482
 21
140.1770300206
  0
LINE
  5
399
100
AcDbEntity
  8
0
100
AcDbLine
 62
7
  6
CONTINUOUS
 10
105.5489802809
 20
138.687668347
 11
105.5489802809
 21
139.0068172824
  0
LINE
  5
39A
100
AcDbEntity
  8
0
100
AcDbLine
 62
7
  6
CONTINUOUS
 10
105.5489802809
 20
140.8685194488
 11
105.5489802809
 21
141.187668347
  0
LINE
  5
39B
100
AcDbEntity
  8
0
100
AcDbLine
 62
7
  6
CONTINUOUS
 10
106.0281468482
 20
145.180668347
 11
106.0281468482
 21
148.180668347
  0
LINE
  5
39C
100
AcDbEntity
  8
0
100
AcDbLine
 62
7
  6
CONTINUOUS
 10
106.1218968482
 20
140.6025620337
 11
106.1218968482
 21
140.3897959527
  0
LINE
  5
39D
100
AcDbEntity
  8
0
100
AcDbLine
 62
7
  6
CONTINUOUS
 10
106.4343968482
 20
140.4429874357
 11
106.4343968482
 21
140.5493704017
  0
LINE
  5
39E
100
AcDbEntity
  8
0
100
AcDbLine
 62
7
  6
CONTINUOUS
 10
102.8927301319
 20
140.4429874357
 11
102.8406468482
 21
140.2834129866
  0
LINE
  5
39F
100
AcDbEntity
  8
0
100
AcDbLine
 62
7
  6
CONTINUOUS
 10
103.1531468482
 20
140.2302215036
 11
103.2052301319
 21
140.3897959527
  0
LINE
  5
3A0
100
AcDbEntity
  8
0
100
AcDbLine
 62
7
  6
CONTINUOUS
 10
103.1531468482
 20
140.7621364828
 11
102.9968968482
 21
140.9749024149
  0
LINE
  5
3A1
100
AcDbEntity
  8
0
100
AcDbLine
 62
7
  6
CONTINUOUS
 10
106.0177302809
 20
139.1663917687
 11
106.1739802809
 21
138.9004342977
  0
LINE
  5
3A2
100
AcDbEntity
  8
0
100
AcDbLine
 62
7
  6
CONTINUOUS
 10
106.3302299829
 20
139.2195832517
 11
106.2781468482
 21
139.3791577007
  0
LINE
  5
3A3
100
AcDbEntity
  8
0
100
AcDbLine
 62
7
  6
CONTINUOUS
 10
106.4864799829
 20
140.2834129866
 11
106.4343968482
 21
140.4429874357
  0
LINE
  5
3A4
100
AcDbEntity
  8
0
100
AcDbLine
 62
7
  6
CONTINUOUS
 10
105.9656468482
 20
139.3791577007
 11
106.0177302809
 21
139.1663917687
  0
LINE
  5
3A5
100
AcDbEntity
  8
0
100
AcDbLine
 62
7
  6
CONTINUOUS
 10
106.1218968482
 20
140.3897959527
 11
106.1739802809
 21
140.1770300206
  0
LINE
  5
3A6
100
AcDbEntity
  8
0
100
AcDbLine
 62
7
  6
CONTINUOUS
 10
107.5802299829
 20
139.4855406668
 11
107.5802299829
 21
139.3259662177
  0
LINE
  5
3A7
100
AcDbEntity
  8
0
100
AcDbLine
 62
7
  6
CONTINUOUS
 10
107.8927299829
 20
139.2727747347
 11
107.8927299829
 21
139.5387321498
  0
LINE
  5
3A8
100
AcDbEntity
  8
0
100
AcDbLine
 62
7
  6
CONTINUOUS
 10
108.3093968482
 20
141.187668347
 11
108.3093968482
 21
138.687668347
  0
LINE
  5
3A9
100
AcDbEntity
  8
0
100
AcDbLine
 62
7
  6
CONTINUOUS
 10
108.6218968482
 20
139.0068172824
 11
108.6218968482
 21
139.8578811224
  0
LINE
  5
3AA
100
AcDbEntity
  8
0
100
AcDbLine
 62
7
  6
CONTINUOUS
 10
108.6218968482
 20
140.1770300206
 11
108.6218968482
 21
140.8685194488
  0
LINE
  5
3AB
100
AcDbEntity
  8
0
100
AcDbLine
 62
7
  6
CONTINUOUS
 10
109.9760637136
 20
139.8578811224
 11
109.9760637136
 21
140.1770300206
  0
LINE
  5
3AC
100
AcDbEntity
  8
0
100
AcDbLine
 62
7
  6
CONTINUOUS
 10
110.1843968482
 20
138.687668347
 11
110.1843968482
 21
139.0068172824
  0
LINE
  5
3AD
100
AcDbEntity
  8
0
100
AcDbLine
 62
7
  6
CONTINUOUS
 10
110.1843968482
 20
140.8685194488
 11
110.1843968482
 21
141.187668347
  0
LINE
  5
3AE
100
AcDbEntity
  8
0
100
AcDbLine
 62
7
  6
CONTINUOUS
 10
110.6010637136
 20
141.187668347
 11
110.6010637136
 21
140.9217109319
  0
LINE
  5
3AF
100
AcDbEntity
  8
0
100
AcDbLine
 62
7
  6
CONTINUOUS
 10
106.1739802809
 20
140.8153279658
 11
106.1218968482
 21
140.6025620337
  0
LINE
  5
3B0
100
AcDbEntity
  8
0
100
AcDbLine
 62
7
  6
CONTINUOUS
 10
106.4343968482
 20
140.5493704017
 11
106.4864799829
 21
140.7089449998
  0
LINE
  5
3B1
100
AcDbEntity
  8
0
100
AcDbLine
 62
7
  6
CONTINUOUS
 10
102.9968968482
 20
140.9749024149
 11
102.7885635645
 21
141.134476864
  0
LINE
  5
3B2
100
AcDbEntity
  8
0
100
AcDbLine
 62
7
  6
CONTINUOUS
 10
102.7364801319
 20
140.8685194488
 11
102.8406468482
 21
140.7621364828
  0
LINE
  5
3B3
100
AcDbEntity
  8
0
100
AcDbLine
 62
7
  6
CONTINUOUS
 10
106.4864799829
 20
139.0600087654
 11
106.3302299829
 21
139.2195832517
  0
LINE
  5
3B4
100
AcDbEntity
  8
0
100
AcDbLine
 62
7
  6
CONTINUOUS
 10
106.1739802809
 20
140.1770300206
 11
106.3823137136
 21
139.9642640885
  0
LINE
  5
3B5
100
AcDbEntity
  8
0
100
AcDbLine
 62
7
  6
CONTINUOUS
 10
107.7885637136
 20
139.7514981564
 11
107.5802299829
 21
139.9642640885
  0
LINE
  5
3B6
100
AcDbEntity
  8
0
100
AcDbLine
 62
7
  6
CONTINUOUS
 10
107.2677299829
 20
140.8153279658
 11
107.3718968482
 21
140.7089449998
  0
LINE
  5
3B7
100
AcDbEntity
  8
0
100
AcDbLine
 62
7
  6
CONTINUOUS
 10
107.6843968482
 20
140.7621364828
 11
107.5281468482
 21
140.9749024149
  0
LINE
  5
3B8
100
AcDbEntity
  8
0
100
AcDbLine
 62
7
  6
CONTINUOUS
 10
107.4760637136
 20
139.6451151904
 11
107.5802299829
 21
139.4855406668
  0
LINE
  5
3B9
100
AcDbEntity
  8
0
100
AcDbLine
 62
7
  6
CONTINUOUS
 10
107.8927299829
 20
139.5387321498
 11
107.7885637136
 21
139.7514981564
  0
LINE
  5
3BA
100
AcDbEntity
  8
0
100
AcDbLine
 62
7
  6
CONTINUOUS
 10
107.3718968482
 20
140.7089449998
 11
107.4239799829
 21
140.6025620337
  0
LINE
  5
3BB
100
AcDbEntity
  8
0
100
AcDbLine
 62
7
  6
CONTINUOUS
 10
107.7364799829
 20
140.6025620337
 11
107.6843968482
 21
140.7621364828
  0
LINE
  5
3BC
100
AcDbEntity
  8
0
100
AcDbLine
 62
7
  6
CONTINUOUS
 10
111.4343968482
 20
140.9217109319
 11
111.4343968482
 21
138.687668347
  0
LINE
  5
3BD
100
AcDbEntity
  8
0
100
AcDbLine
 62
7
  6
CONTINUOUS
 10
111.7468968482
 20
138.687668347
 11
111.7468968482
 21
140.9217109319
  0
LINE
  5
3BE
100
AcDbEntity
  8
0
100
AcDbLine
 62
7
  6
CONTINUOUS
 10
112.5802305789
 20
140.9217109319
 11
112.5802305789
 21
141.187668347
  0
LINE
  5
3BF
100
AcDbEntity
  8
0
100
AcDbLine
 62
7
  6
CONTINUOUS
 10
107.7885637136
 20
139.0600087654
 11
107.8927299829
 21
139.2727747347
  0
LINE
  5
3C0
100
AcDbEntity
  8
0
100
AcDbLine
 62
7
  6
CONTINUOUS
 10
102.9968968482
 20
140.0174555715
 11
103.1531468482
 21
140.2302215036
  0
LINE
  5
3C1
100
AcDbEntity
  8
7_ALL_ROUNDS
100
AcDbLine
 62
7
  6
CONTINUOUS
 10
125.2687246906
 20
125.4383929498
 11
142.2875690058
 21
125.4383929498
  0
LINE
  5
3C2
100
AcDbEntity
  8
7_ALL_ROUNDS
100
AcDbLine
 62
7
  6
CONTINUOUS
 10
125.2779945434
 20
125.4476628026
 11
142.2782991531
 21
125.4476628026
  0
LINE
  5
3C3
100
AcDbEntity
  8
7_ALL_ROUNDS
100
AcDbLine
 62
7
  6
CONTINUOUS
 10
125.3792366013
 20
125.5319104049
 11
142.1770570951
 21
125.5319104049
  0
LINE
  5
3C4
100
AcDbEntity
  8
7_ALL_ROUNDS
100
AcDbLine
 62
9
  6
CONTINUOUS
 10
125.3968439827
 20
125.5495177863
 11
142.1594497137
 21
125.5495177863
  0
LINE
  5
3C5
100
AcDbEntity
  8
7_ALL_ROUNDS
100
AcDbLine
 62
9
  6
CONTINUOUS
 10
125.3968439827
 20
126.0494416339
 11
142.1594497137
 21
126.0494416339
  0
LINE
  5
3C6
100
AcDbEntity
  8
7_ALL_ROUNDS
100
AcDbLine
 62
9
  6
CONTINUOUS
 10
124.8969201351
 20
126.5493654815
 11
124.3969962875
 21
126.5493654815
  0
LINE
  5
3C7
100
AcDbEntity
  8
7_ALL_ROUNDS
100
AcDbLine
 62
9
  6
CONTINUOUS
 10
142.6593735613
 20
126.5493654815
 11
143.1592974089
 21
126.5493654815
  0
LINE
  5
3C8
100
AcDbEntity
  8
0
100
AcDbLine
 62
7
  6
CONTINUOUS
 10
119.2781468482
 20
127.630668347
 11
124.271505831
 21
127.630668347
  0
LINE
  5
3C9
100
AcDbEntity
  8
0
100
AcDbLine
 62
7
  6
CONTINUOUS
 10
143.2847878655
 20
127.630668347
 11
148.2781468482
 21
127.630668347
  0
LINE
  5
3CA
100
AcDbEntity
  8
0
100
AcDbLine
 62
7
  6
CONTINUOUS
 10
106.1739802809
 20
138.9004342977
 11
106.4343968482
 21
138.7408598347
  0
LINE
  5
3CB
100
AcDbEntity
  8
0
100
AcDbLine
 62
7
  6
CONTINUOUS
 10
106.6427299829
 20
140.1770300206
 11
106.4864799829
 21
140.2834129866
  0
LINE
  5
3CC
100
AcDbEntity
  8
0
100
AcDbLine
 62
7
  6
CONTINUOUS
 10
107.3198137136
 20
139.7514981564
 11
107.4760637136
 21
139.6451151904
  0
LINE
  5
3CD
100
AcDbEntity
  8
0
100
AcDbLine
 62
7
  6
CONTINUOUS
 10
130.0859059698
 20
122.0534266112
 11
133.7781468482
 21
119.4201671112
  0
LINE
  5
3CE
100
AcDbEntity
  8
0
100
AcDbLine
 62
7
  6
CONTINUOUS
 10
133.7781468482
 20
120.1725501541
 11
130.4508210503
 21
122.5455568336
  0
LINE
  5
3CF
100
AcDbEntity
  8
0
100
AcDbLine
 62
7
  6
CONTINUOUS
 10
133.7781468482
 20
120.189684378
 11
130.4508210503
 21
122.5626910576
  0
LINE
  5
3D0
100
AcDbEntity
  8
0
100
AcDbLine
 62
7
  6
CONTINUOUS
 10
107.5281468482
 20
140.9749024149
 11
107.3198137136
 21
141.134476864
  0
LINE
  5
3D1
100
AcDbEntity
  8
7_ALL_ROUNDS
100
AcDbLine
 62
9
  6
CONTINUOUS
 10
124.2781468482
 20
129.4138261962
 11
124.2700774274
 21
129.421895617
  0
LINE
  5
3D2
100
AcDbEntity
  8
7_ALL_ROUNDS
100
AcDbLine
 62
9
  6
CONTINUOUS
 10
124.3793889062
 20
129.3295785939
 11
124.3969962875
 21
129.3119712125
  0
LINE
  5
3D3
100
AcDbEntity
  8
3_AXES_OTHER
100
AcDbLine
 62
7
  6
CENTER
 10
115.7576850482
 20
139.687668347
 11
115.7576850482
 21
136.0892251091
  0
LINE
  5
3D4
100
AcDbEntity
  8
3_AXES_OTHER
100
AcDbLine
 62
7
  6
CENTER
 10
115.7576850482
 20
139.687668347
 11
115.7576850482
 21
143.2861115848
  0
LINE
  5
3D5
100
AcDbEntity
  8
7_ALL_ROUNDS
100
AcDbLine
 62
7
  6
CONTINUOUS
 10
117.3566350482
 20
177.9033984929
 11
117.3566350482
 21
141.787668347
  0
LINE
  5
3D6
100
AcDbEntity
  8
7_ALL_ROUNDS
100
AcDbLine
 62
7
  6
CONTINUOUS
 10
117.3566350482
 20
126.7762093357
 11
117.3566350482
 21
115.457938201
  0
LINE
  5
3D7
100
AcDbEntity
  8
0
100
AcDbLine
 62
7
  6
CONTINUOUS
 10
117.3566350482
 20
126.7762093357
 11
117.3566350482
 21
141.787668347
  0
LINE
  5
3D8
100
AcDbEntity
  8
7_ALL_ROUNDS
100
AcDbLine
 62
7
  6
CONTINUOUS
 10
117.548000865
 20
177.7120326761
 11
117.548000865
 21
115.6493040178
  0
LINE
  5
3D9
100
AcDbEntity
  8
7_ALL_ROUNDS
100
AcDbLine
 62
7
  6
CONTINUOUS
 10
118.6281468482
 20
177.5608143302
 11
118.6281468482
 21
141.2108143302
  0
LINE
  5
3DA
100
AcDbEntity
  8
0
100
AcDbLine
 62
7
  6
CONTINUOUS
 10
107.5802299829
 20
139.3259662177
 11
107.4760637136
 21
139.1663917687
  0
LINE
  5
3DB
100
AcDbEntity
  8
0
100
AcDbLine
 62
7
  6
CONTINUOUS
 10
102.8406468482
 20
140.2834129866
 11
102.7364801319
 21
140.1770300206
  0
LINE
  5
3DC
100
AcDbEntity
  8
0
100
AcDbLine
 62
7
  6
CONTINUOUS
 10
106.3823137136
 20
141.0280938979
 11
106.1739802809
 21
140.8153279658
  0
LINE
  5
3DD
100
AcDbEntity
  8
0
100
AcDbLine
 62
7
  6
CONTINUOUS
 10
119.2781468482
 20
128.230668347
 11
124.271505831
 21
128.230668347
  0
LINE
  5
3DE
100
AcDbEntity
  8
0
100
AcDbLine
 62
7
  6
CONTINUOUS
 10
143.2847878655
 20
128.230668347
 11
148.2781468482
 21
128.230668347
  0
LINE
  5
3DF
100
AcDbEntity
  8
7_ALL_ROUNDS
100
AcDbLine
 62
9
  6
CONTINUOUS
 10
124.8969201351
 20
129.3119712125
 11
124.3969962875
 21
129.3119712125
  0
LINE
  5
3E0
100
AcDbEntity
  8
7_ALL_ROUNDS
100
AcDbLine
 62
9
  6
CONTINUOUS
 10
142.6593735613
 20
129.3119712125
 11
143.1592974089
 21
129.3119712125
  0
LINE
  5
3E1
100
AcDbEntity
  8
7_ALL_ROUNDS
100
AcDbLine
 62
9
  6
CONTINUOUS
 10
142.1594497137
 20
129.8118950601
 11
125.3968439827
 21
129.8118950601
  0
LINE
  5
3E2
100
AcDbEntity
  8
7_ALL_ROUNDS
100
AcDbLine
 62
9
  6
CONTINUOUS
 10
142.1594497137
 20
130.3118189076
 11
125.3968439827
 21
130.3118189076
  0
LINE
  5
3E3
100
AcDbEntity
  8
7_ALL_ROUNDS
100
AcDbLine
 62
7
  6
CONTINUOUS
 10
142.1770570951
 20
130.329426289
 11
125.3792366013
 21
130.329426289
  0
LINE
  5
3E4
100
AcDbEntity
  8
7_ALL_ROUNDS
100
AcDbLine
 62
7
  6
CONTINUOUS
 10
142.2782991531
 20
130.4136738913
 11
125.2779945434
 21
130.4136738913
  0
LINE
  5
3E5
100
AcDbEntity
  8
7_ALL_ROUNDS
100
AcDbLine
 62
7
  6
CONTINUOUS
 10
142.2875689331
 20
130.4229436714
 11
125.2687247633
 21
130.4229436714
  0
LINE
  5
3E6
100
AcDbEntity
  8
0
100
AcDbLine
 62
7
  6
CONTINUOUS
 10
102.5802301319
 20
140.9217109319
 11
102.7364801319
 21
140.8685194488
  0
LINE
  5
3E7
100
AcDbEntity
  8
0
100
AcDbLine
 62
7
  6
CONTINUOUS
 10
106.7989799829
 20
140.1238385375
 11
106.6427299829
 21
140.1770300206
  0
LINE
  5
3E8
100
AcDbEntity
  8
0
100
AcDbLine
 62
7
  6
CONTINUOUS
 10
106.3823137136
 20
139.9642640885
 11
106.5906468482
 21
139.8578811224
  0
LINE
  5
3E9
100
AcDbEntity
  8
0
100
AcDbLine
 62
7
  6
CONTINUOUS
 10
107.5802299829
 20
139.9642640885
 11
107.3718968482
 21
140.0706470545
  0
LINE
  5
3EA
100
AcDbEntity
  8
7_ALL_ROUNDS
100
AcDbLine
 62
9
  6
CONTINUOUS
 10
125.2779945434
 20
130.4136738913
 11
125.2687247633
 21
130.4229436714
  0
LINE
  5
3EB
100
AcDbEntity
  8
7_ALL_ROUNDS
100
AcDbLine
 62
9
  6
CONTINUOUS
 10
125.3792366013
 20
130.329426289
 11
125.3968439827
 21
130.3118189076
  0
LINE
  5
3EC
100
AcDbEntity
  8
7_ALL_ROUNDS
100
AcDbLine
 62
7
  6
CONTINUOUS
 10
119.2781468482
 20
139.480668347
 11
119.2781468482
 21
128.230668347
  0
LINE
  5
3ED
100
AcDbEntity
  8
7_ALL_ROUNDS
100
AcDbLine
 62
7
  6
CONTINUOUS
 10
119.2781468482
 20
127.630668347
 11
119.2781468482
 21
116.3810068858
  0
LINE
  5
3EE
100
AcDbEntity
  8
0
100
AcDbLine
 62
7
  6
CONTINUOUS
 10
107.5802299829
 20
138.8472428147
 11
107.7885637136
 21
139.0600087654
  0
LINE
  5
3EF
100
AcDbEntity
  8
7_ALL_ROUNDS
100
AcDbLine
 62
9
  6
CONTINUOUS
 10
148.2008769942
 20
179.902180147
 11
148.0095111774
 21
179.7108143302
  0
LINE
  5
3F0
100
AcDbEntity
  8
0
100
AcDbLine
 62
7
  6
CONTINUOUS
 10
106.4343968482
 20
138.7408598347
 11
106.6948137136
 21
138.687668347
  0
LINE
  5
3F1
100
AcDbEntity
  8
0
100
AcDbLine
 62
7
  6
CONTINUOUS
 10
107.3718968482
 20
140.0706470545
 11
107.1114799829
 21
140.1238385375
  0
LINE
  5
3F2
100
AcDbEntity
  8
0
100
AcDbLine
 62
7
  6
CONTINUOUS
 10
102.7885635645
 20
141.134476864
 11
102.5281468482
 21
141.187668347
  0
LINE
  5
3F3
100
AcDbEntity
  8
0
100
AcDbLine
 62
7
  6
CONTINUOUS
 10
106.6948137136
 20
139.0068172824
 11
106.4864799829
 21
139.0600087654
  0
LINE
  5
3F4
100
AcDbEntity
  8
0
100
AcDbLine
 62
7
  6
CONTINUOUS
 10
106.5906468482
 20
139.8578811224
 11
106.7989799829
 21
139.8046896394
  0
LINE
  5
3F5
100
AcDbEntity
  8
0
100
AcDbLine
 62
7
  6
CONTINUOUS
 10
107.1114799829
 20
139.8046896394
 11
107.3198137136
 21
139.7514981564
  0
LINE
  5
3F6
100
AcDbEntity
  8
0
100
AcDbLine
 62
7
  6
CONTINUOUS
 10
107.1114799829
 20
140.8685194488
 11
107.2677299829
 21
140.8153279658
  0
LINE
  5
3F7
100
AcDbEntity
  8
7_ALL_ROUNDS
100
AcDbLine
 62
9
  6
CONTINUOUS
 10
148.2008769942
 20
113.459156547
 11
148.0095111774
 21
113.6505223638
  0
LINE
  5
3F8
100
AcDbEntity
  8
0
100
AcDbLine
 62
7
  6
CONTINUOUS
 10
137.4703877266
 20
122.0362923873
 11
137.1054726461
 21
122.5455568336
  0
LINE
  5
3F9
100
AcDbEntity
  8
0
100
AcDbLine
 62
7
  6
CONTINUOUS
 10
137.4703877266
 20
122.0534266112
 11
137.1054726461
 21
122.5626910576
  0
LINE
  5
3FA
100
AcDbEntity
  8
7_ALL_ROUNDS
100
AcDbLine
 62
7
  6
CONTINUOUS
 10
124.271505831
 20
128.230668347
 11
124.2700774274
 21
129.421895617
  0
LINE
  5
3FB
100
AcDbEntity
  8
7_ALL_ROUNDS
100
AcDbLine
 62
7
  6
CONTINUOUS
 10
124.2781468482
 20
129.4138261962
 11
124.2781468482
 21
128.230668347
  0
LINE
  5
3FC
100
AcDbEntity
  8
7_ALL_ROUNDS
100
AcDbLine
 62
7
  6
CONTINUOUS
 10
124.2781468482
 20
127.630668347
 11
124.2781468482
 21
126.4475104978
  0
LINE
  5
3FD
100
AcDbEntity
  8
7_ALL_ROUNDS
100
AcDbLine
 62
7
  6
CONTINUOUS
 10
124.3793889062
 20
129.3295785939
 11
124.3793889062
 21
126.5317581001
  0
LINE
  5
3FE
100
AcDbEntity
  8
7_ALL_ROUNDS
100
AcDbLine
 62
9
  6
CONTINUOUS
 10
124.3969962875
 20
129.3119712125
 11
124.3969962875
 21
126.5493654815
  0
LINE
  5
3FF
100
AcDbEntity
  8
7_ALL_ROUNDS
100
AcDbLine
 62
9
  6
CONTINUOUS
 10
124.8969201351
 20
129.3119712125
 11
124.8969201351
 21
126.5493654815
  0
LINE
  5
400
100
AcDbEntity
  8
7_ALL_ROUNDS
100
AcDbLine
 62
9
  6
CONTINUOUS
 10
125.3968439827
 20
126.0494416339
 11
125.3968439827
 21
125.5495177863
  0
LINE
  5
401
100
AcDbEntity
  8
7_ALL_ROUNDS
100
AcDbLine
 62
9
  6
CONTINUOUS
 10
125.3968439827
 20
129.8118950601
 11
125.3968439827
 21
130.3118189076
  0
LINE
  5
402
100
AcDbEntity
  8
7_ALL_ROUNDS
100
AcDbLine
 62
7
  6
CONTINUOUS
 10
124.271505831
 20
127.630668347
 11
124.2700773879
 21
126.4394410374
  0
LINE
  5
403
100
AcDbEntity
  8
7_ALL_ROUNDS
100
AcDbLine
 62
9
  6
CONTINUOUS
 10
150.1996586482
 20
177.9033984929
 11
150.0082928314
 21
177.7120326761
  0
LINE
  5
404
100
AcDbEntity
  8
0
100
AcDbLine
 62
7
  6
CONTINUOUS
 10
106.4864799829
 20
140.7089449998
 11
106.6427299829
 21
140.8153279658
  0
LINE
  5
405
100
AcDbEntity
  8
0
100
AcDbLine
 62
7
  6
CONTINUOUS
 10
107.4760637136
 20
139.1663917687
 11
107.3198137136
 21
139.0600087654
  0
LINE
  5
406
100
AcDbEntity
  8
0
100
AcDbLine
 62
7
  6
CONTINUOUS
 10
102.7885635645
 20
139.9110726055
 11
102.9968968482
 21
140.0174555715
  0
LINE
  5
407
100
AcDbEntity
  8
0
100
AcDbLine
 62
7
  6
CONTINUOUS
 10
115.7576850482
 20
137.587668347
 11
117.3566350482
 21
137.587668347
  0
LINE
  5
408
100
AcDbEntity
  8
0
100
AcDbLine
 62
7
  6
CONTINUOUS
 10
117.3566350482
 20
137.8157479166
 11
115.7576850482
 21
137.8157479166
  0
LINE
  5
409
100
AcDbEntity
  8
0
100
AcDbLine
 62
7
  6
CONTINUOUS
 10
101.2781468482
 20
138.687668347
 11
101.5906468482
 21
138.687668347
  0
LINE
  5
40A
100
AcDbEntity
  8
0
100
AcDbLine
 62
7
  6
CONTINUOUS
 10
102.8927301319
 20
138.687668347
 11
103.2573135645
 21
138.687668347
  0
LINE
  5
40B
100
AcDbEntity
  8
0
100
AcDbLine
 62
7
  6
CONTINUOUS
 10
103.6739801319
 20
138.687668347
 11
105.5489802809
 21
138.687668347
  0
LINE
  5
40C
100
AcDbEntity
  8
0
100
AcDbLine
 62
7
  6
CONTINUOUS
 10
106.6948137136
 20
138.687668347
 11
107.1114799829
 21
138.687668347
  0
LINE
  5
40D
100
AcDbEntity
  8
0
100
AcDbLine
 62
7
  6
CONTINUOUS
 10
108.3093968482
 20
138.687668347
 11
110.1843968482
 21
138.687668347
  0
LINE
  5
40E
100
AcDbEntity
  8
0
100
AcDbLine
 62
7
  6
CONTINUOUS
 10
111.4343968482
 20
138.687668347
 11
111.7468968482
 21
138.687668347
  0
LINE
  5
40F
100
AcDbEntity
  8
0
100
AcDbLine
 62
7
  6
CONTINUOUS
 10
110.1843968482
 20
139.0068172824
 11
108.6218968482
 21
139.0068172824
  0
LINE
  5
410
100
AcDbEntity
  8
0
100
AcDbLine
 62
7
  6
CONTINUOUS
 10
107.1114799829
 20
139.0068172824
 11
106.6948137136
 21
139.0068172824
  0
LINE
  5
411
100
AcDbEntity
  8
0
100
AcDbLine
 62
7
  6
CONTINUOUS
 10
105.5489802809
 20
139.0068172824
 11
103.9864802809
 21
139.0068172824
  0
LINE
  5
412
100
AcDbEntity
  8
0
100
AcDbLine
 62
7
  6
CONTINUOUS
 10
106.2781468482
 20
139.3791577007
 11
105.9656468482
 21
139.3791577007
  0
LINE
  5
413
100
AcDbEntity
  8
0
100
AcDbLine
 62
7
  6
CONTINUOUS
 10
107.3198137136
 20
141.134476864
 11
107.0593968482
 21
141.187668347
  0
LINE
  5
414
100
AcDbEntity
  8
0
100
AcDbLine
 62
7
  6
CONTINUOUS
 10
133.7781468482
 20
135.6719902306
 11
137.1054726461
 21
133.2989832429
  0
LINE
  5
415
100
AcDbEntity
  8
0
100
AcDbLine
 62
7
  6
CONTINUOUS
 10
133.7781468482
 20
135.6891239832
 11
137.1054726461
 21
133.3161169956
  0
LINE
  5
416
100
AcDbEntity
  8
0
100
AcDbLine
 62
7
  6
CONTINUOUS
 10
137.4703877266
 20
133.8082477554
 11
133.7781468482
 21
136.4415075973
  0
LINE
  5
417
100
AcDbEntity
  8
7_ALL_ROUNDS
100
AcDbLine
 62
9
  6
CONTINUOUS
 10
150.1996586482
 20
115.457938201
 11
150.0082928314
 21
115.6493040178
  0
LINE
  5
418
100
AcDbEntity
  8
7_ALL_ROUNDS
100
AcDbLine
 62
9
  6
CONTINUOUS
 10
142.1770570951
 20
125.5319104049
 11
142.1594497137
 21
125.5495177863
  0
LINE
  5
419
100
AcDbEntity
  8
7_ALL_ROUNDS
100
AcDbLine
 62
9
  6
CONTINUOUS
 10
142.2782991531
 20
125.4476628026
 11
142.2875690058
 21
125.4383929498
  0
LINE
  5
41A
100
AcDbEntity
  8
7_ALL_ROUNDS
100
AcDbLine
 62
9
  6
CONTINUOUS
 10
143.1769047903
 20
126.5317581001
 11
143.1592974089
 21
126.5493654815
  0
LINE
  5
41B
100
AcDbEntity
  8
7_ALL_ROUNDS
100
AcDbLine
 62
9
  6
CONTINUOUS
 10
143.2781468482
 20
126.4475104978
 11
143.2862163086
 21
126.4394410374
  0
LINE
  5
41C
100
AcDbEntity
  8
0
100
AcDbLine
 62
7
  6
CONTINUOUS
 10
130.0859059698
 20
133.8082477554
 11
130.4508210503
 21
133.2989832429
  0
LINE
  5
41D
100
AcDbEntity
  8
0
100
AcDbLine
 62
7
  6
CONTINUOUS
 10
130.0859059698
 20
133.825381508
 11
130.4508210503
 21
133.3161169956
  0
LINE
  5
41E
100
AcDbEntity
  8
0
100
AcDbLine
 62
7
  6
CONTINUOUS
 10
106.5906468482
 20
141.134476864
 11
106.3823137136
 21
141.0280938979
  0
LINE
  5
41F
100
AcDbEntity
  8
0
100
AcDbLine
 62
7
  6
CONTINUOUS
 10
107.3718968482
 20
138.7408598347
 11
107.5802299829
 21
138.8472428147
  0
LINE
  5
420
100
AcDbEntity
  8
0
100
AcDbLine
 62
7
  6
CONTINUOUS
 10
102.7364801319
 20
140.1770300206
 11
102.5802301319
 21
140.1238385375
  0
LINE
  5
421
100
AcDbEntity
  8
3_AXES_OTHER
100
AcDbLine
 62
7
  6
CENTER
 10
115.7576850482
 20
139.687668347
 11
112.1592418104
 21
139.687668347
  0
LINE
  5
422
100
AcDbEntity
  8
3_AXES_OTHER
100
AcDbLine
 62
7
  6
CENTER
 10
115.7576850482
 20
139.687668347
 11
119.356128286
 21
139.687668347
  0
LINE
  5
423
100
AcDbEntity
  8
0
100
AcDbLine
 62
7
  6
CONTINUOUS
 10
101.5906468482
 20
139.8046896394
 11
102.47606349
 21
139.8046896394
  0
LINE
  5
424
100
AcDbEntity
  8
0
100
AcDbLine
 62
7
  6
CONTINUOUS
 10
106.7989799829
 20
139.8046896394
 11
107.1114799829
 21
139.8046896394
  0
LINE
  5
425
100
AcDbEntity
  8
0
100
AcDbLine
 62
7
  6
CONTINUOUS
 10
103.9864802809
 20
139.8578811224
 11
105.3406468482
 21
139.8578811224
  0
LINE
  5
426
100
AcDbEntity
  8
0
100
AcDbLine
 62
7
  6
CONTINUOUS
 10
108.6218968482
 20
139.8578811224
 11
109.9760637136
 21
139.8578811224
  0
LINE
  5
427
100
AcDbEntity
  8
0
100
AcDbLine
 62
7
  6
CONTINUOUS
 10
107.1114799829
 20
140.1238385375
 11
106.7989799829
 21
140.1238385375
  0
LINE
  5
428
100
AcDbEntity
  8
0
100
AcDbLine
 62
7
  6
CONTINUOUS
 10
102.5802301319
 20
140.1238385375
 11
101.5906468482
 21
140.1238385375
  0
LINE
  5
429
100
AcDbEntity
  8
0
100
AcDbLine
 62
7
  6
CONTINUOUS
 10
109.9760637136
 20
140.1770300206
 11
108.6218968482
 21
140.1770300206
  0
LINE
  5
42A
100
AcDbEntity
  8
0
100
AcDbLine
 62
7
  6
CONTINUOUS
 10
105.3406468482
 20
140.1770300206
 11
103.9864802809
 21
140.1770300206
  0
LINE
  5
42B
100
AcDbEntity
  8
7_ALL_ROUNDS
100
AcDbLine
 62
7
  6
CONTINUOUS
 10
120.2781468482
 20
140.480668347
 11
147.2781468482
 21
140.480668347
  0
LINE
  5
42C
100
AcDbEntity
  8
0
100
AcDbLine
 62
7
  6
CONTINUOUS
 10
107.4239799829
 20
140.6025620337
 11
107.7364799829
 21
140.6025620337
  0
LINE
  5
42D
100
AcDbEntity
  8
0
100
AcDbLine
 62
7
  6
CONTINUOUS
 10
103.9864802809
 20
140.8685194488
 11
105.5489802809
 21
140.8685194488
  0
LINE
  5
42E
100
AcDbEntity
  8
0
100
AcDbLine
 62
7
  6
CONTINUOUS
 10
106.7989799829
 20
140.8685194488
 11
107.1114799829
 21
140.8685194488
  0
LINE
  5
42F
100
AcDbEntity
  8
0
100
AcDbLine
 62
7
  6
CONTINUOUS
 10
108.6218968482
 20
140.8685194488
 11
110.1843968482
 21
140.8685194488
  0
LINE
  5
430
100
AcDbEntity
  8
0
100
AcDbLine
 62
7
  6
CONTINUOUS
 10
101.5906468482
 20
140.9217109319
 11
102.5802301319
 21
140.9217109319
  0
LINE
  5
431
100
AcDbEntity
  8
0
100
AcDbLine
 62
7
  6
CONTINUOUS
 10
110.6010637136
 20
140.9217109319
 11
111.4343968482
 21
140.9217109319
  0
LINE
  5
432
100
AcDbEntity
  8
0
100
AcDbLine
 62
7
  6
CONTINUOUS
 10
111.7468968482
 20
140.9217109319
 11
112.5802305789
 21
140.9217109319
  0
LINE
  5
433
100
AcDbEntity
  8
0
100
AcDbLine
 62
7
  6
CONTINUOUS
 10
112.5802305789
 20
141.187668347
 11
110.6010637136
 21
141.187668347
  0
LINE
  5
434
100
AcDbEntity
  8
0
100
AcDbLine
 62
7
  6
CONTINUOUS
 10
110.1843968482
 20
141.187668347
 11
108.3093968482
 21
141.187668347
  0
LINE
  5
435
100
AcDbEntity
  8
0
100
AcDbLine
 62
7
  6
CONTINUOUS
 10
107.0593968482
 20
141.187668347
 11
106.7989799829
 21
141.187668347
  0
LINE
  5
436
100
AcDbEntity
  8
0
100
AcDbLine
 62
7
  6
CONTINUOUS
 10
105.5489802809
 20
141.187668347
 11
103.6739801319
 21
141.187668347
  0
LINE
  5
437
100
AcDbEntity
  8
0
100
AcDbLine
 62
7
  6
CONTINUOUS
 10
102.5281468482
 20
141.187668347
 11
101.2781468482
 21
141.187668347
  0
LINE
  5
438
100
AcDbEntity
  8
0
100
AcDbLine
 62
7
  6
CONTINUOUS
 10
118.6281468482
 20
141.2108143302
 11
148.9281468482
 21
141.2108143302
  0
LINE
  5
439
100
AcDbEntity
  8
0
100
AcDbLine
 62
7
  6
CONTINUOUS
 10
115.7576850482
 20
141.5595887773
 11
117.3566350482
 21
141.5595887773
  0
LINE
  5
43A
100
AcDbEntity
  8
0
100
AcDbLine
 62
7
  6
CONTINUOUS
 10
117.3566350482
 20
141.787668347
 11
115.7576850482
 21
141.787668347
  0
LINE
  5
43B
100
AcDbEntity
  8
0
100
AcDbLine
 62
7
  6
CONTINUOUS
 10
130.4508210503
 20
122.5626910576
 11
130.4508210503
 21
122.5455568336
  0
LINE
  5
43C
100
AcDbEntity
  8
3_AXES_OTHER
100
AcDbLine
 62
7
  6
CENTER
 10
133.7781468482
 20
146.680668347
 11
133.7781468482
 21
102.5818517249
  0
LINE
  5
43D
100
AcDbEntity
  8
0
100
AcDbLine
 62
7
  6
CONTINUOUS
 10
133.7781468482
 20
120.189684378
 11
133.7781468482
 21
120.1725501541
  0
LINE
  5
43E
100
AcDbEntity
  8
3_AXES_OTHER
100
AcDbLine
 62
7
  6
CENTER
 10
133.7781468482
 20
146.680668347
 11
133.7781468482
 21
189.8651994059
  0
LINE
  5
43F
100
AcDbEntity
  8
0
100
AcDbLine
 62
7
  6
CONTINUOUS
 10
106.6427299829
 20
140.8153279658
 11
106.7989799829
 21
140.8685194488
  0
LINE
  5
440
100
AcDbEntity
  8
0
100
AcDbLine
 62
7
  6
CONTINUOUS
 10
107.3198137136
 20
139.0600087654
 11
107.1114799829
 21
139.0068172824
  0
LINE
  5
441
100
AcDbEntity
  8
0
100
AcDbLine
 62
7
  6
CONTINUOUS
 10
107.1114799829
 20
138.687668347
 11
107.3718968482
 21
138.7408598347
  0
LINE
  5
442
100
AcDbEntity
  8
3_AXES_OTHER
100
AcDbLine
 62
7
  6
CENTER
 10
103.7781468482
 20
146.680668347
 11
100.9840468482
 21
146.680668347
  0
LINE
  5
443
100
AcDbEntity
  8
3_AXES_OTHER
100
AcDbLine
 62
7
  6
CENTER
 10
163.7781468482
 20
146.680668347
 11
103.7781468482
 21
146.680668347
  0
LINE
  5
444
100
AcDbEntity
  8
3_AXES_OTHER
100
AcDbLine
 62
7
  6
CENTER
 10
100.9840468482
 20
146.680668347
 11
87.112086486
 21
146.680668347
  0
LINE
  5
445
100
AcDbEntity
  8
3_AXES_OTHER
100
AcDbLine
 62
7
  6
CENTER
 10
163.7781468482
 20
146.680668347
 11
178.9880689456
 21
146.680668347
  0
LINE
  5
446
100
AcDbEntity
  8
0
100
AcDbLine
 62
7
  6
CONTINUOUS
 10
137.1054726461
 20
122.5626910576
 11
137.1054726461
 21
122.5455568336
  0
LINE
  5
447
100
AcDbEntity
  8
0
100
AcDbLine
 62
7
  6
CONTINUOUS
 10
106.7989799829
 20
141.187668347
 11
106.5906468482
 21
141.134476864
  0
LINE
  5
448
100
AcDbEntity
  8
7_ALL_ROUNDS
100
AcDbLine
 62
9
  6
CONTINUOUS
 10
124.2781468482
 20
126.4475104978
 11
124.2700773879
 21
126.4394410374
  0
LINE
  5
449
100
AcDbEntity
  8
7_ALL_ROUNDS
100
AcDbLine
 62
9
  6
CONTINUOUS
 10
124.3793889062
 20
126.5317581001
 11
124.3969962875
 21
126.5493654815
  0
LINE
  5
44A
100
AcDbEntity
  8
7_ALL_ROUNDS
100
AcDbLine
 62
7
  6
CONTINUOUS
 10
143.2847878655
 20
127.630668347
 11
143.2862163086
 21
126.4394410374
  0
LINE
  5
44B
100
AcDbEntity
  8
7_ALL_ROUNDS
100
AcDbLine
 62
9
  6
CONTINUOUS
 10
142.1594497137
 20
126.0494416339
 11
142.1594497137
 21
125.5495177863
  0
LINE
  5
44C
100
AcDbEntity
  8
7_ALL_ROUNDS
100
AcDbLine
 62
9
  6
CONTINUOUS
 10
142.1594497137
 20
129.8118950601
 11
142.1594497137
 21
130.3118189076
  0
LINE
  5
44D
100
AcDbEntity
  8
7_ALL_ROUNDS
100
AcDbLine
 62
9
  6
CONTINUOUS
 10
142.6593735613
 20
126.5493654815
 11
142.6593735613
 21
129.3119712125
  0
LINE
  5
44E
100
AcDbEntity
  8
7_ALL_ROUNDS
100
AcDbLine
 62
9
  6
CONTINUOUS
 10
143.1592974089
 20
126.5493654815
 11
143.1592974089
 21
129.3119712125
  0
LINE
  5
44F
100
AcDbEntity
  8
7_ALL_ROUNDS
100
AcDbLine
 62
7
  6
CONTINUOUS
 10
143.1769047903
 20
126.5317581001
 11
143.1769047903
 21
129.3295785939
  0
LINE
  5
450
100
AcDbEntity
  8
7_ALL_ROUNDS
100
AcDbLine
 62
7
  6
CONTINUOUS
 10
143.2781468482
 20
126.4475104978
 11
143.2781468482
 21
127.630668347
  0
LINE
  5
451
100
AcDbEntity
  8
7_ALL_ROUNDS
100
AcDbLine
 62
7
  6
CONTINUOUS
 10
143.2781468482
 20
128.230668347
 11
143.2781468482
 21
129.4138261962
  0
LINE
  5
452
100
AcDbEntity
  8
7_ALL_ROUNDS
100
AcDbLine
 62
7
  6
CONTINUOUS
 10
143.2847878655
 20
128.230668347
 11
143.286216269
 21
129.421895617
  0
LINE
  5
453
100
AcDbEntity
  8
0
100
AcDbLine
 62
7
  6
CONTINUOUS
 10
137.1054726461
 20
133.3161169956
 11
137.4703877266
 21
133.825381508
  0
LINE
  5
454
100
AcDbEntity
  8
0
100
AcDbLine
 62
7
  6
CONTINUOUS
 10
137.1054726461
 20
133.2989832429
 11
137.4703877266
 21
133.8082477554
  0
LINE
  5
455
100
AcDbEntity
  8
0
100
AcDbLine
 62
7
  6
CONTINUOUS
 10
130.4508210503
 20
122.5626910576
 11
130.0859059698
 21
122.0534266112
  0
LINE
  5
456
100
AcDbEntity
  8
0
100
AcDbLine
 62
7
  6
CONTINUOUS
 10
130.4508210503
 20
122.5455568336
 11
130.0859059698
 21
122.0362923873
  0
LINE
  5
457
100
AcDbEntity
  8
7_ALL_ROUNDS
100
AcDbLine
 62
9
  6
CONTINUOUS
 10
125.2779945434
 20
125.4476628026
 11
125.2687246906
 21
125.4383929498
  0
LINE
  5
458
100
AcDbEntity
  8
7_ALL_ROUNDS
100
AcDbLine
 62
9
  6
CONTINUOUS
 10
125.3792366013
 20
125.5319104049
 11
125.3968439827
 21
125.5495177863
  0
LINE
  5
459
100
AcDbEntity
  8
7_ALL_ROUNDS
100
AcDbLine
 62
9
  6
CONTINUOUS
 10
117.3566350482
 20
115.457938201
 11
117.548000865
 21
115.6493040178
  0
LINE
  5
45A
100
AcDbEntity
  8
0
100
AcDbLine
 62
7
  6
CONTINUOUS
 10
133.7781468482
 20
136.4415075973
 11
130.0859059698
 21
133.8082477554
  0
LINE
  5
45B
100
AcDbEntity
  8
0
100
AcDbLine
 62
7
  6
CONTINUOUS
 10
130.4508210503
 20
133.3161169956
 11
133.7781468482
 21
135.6891239832
  0
LINE
  5
45C
100
AcDbEntity
  8
0
100
AcDbLine
 62
7
  6
CONTINUOUS
 10
130.4508210503
 20
133.2989832429
 11
133.7781468482
 21
135.6719902306
  0
LINE
  5
45D
100
AcDbEntity
  8
7_ALL_ROUNDS
100
AcDbLine
 62
9
  6
CONTINUOUS
 10
117.3566350482
 20
177.9033984929
 11
117.548000865
 21
177.7120326761
  0
LINE
  5
45E
100
AcDbEntity
  8
7_ALL_ROUNDS
100
AcDbLine
 62
7
  6
CONTINUOUS
 10
148.2781468482
 20
139.480668347
 11
148.2781468482
 21
128.230668347
  0
LINE
  5
45F
100
AcDbEntity
  8
7_ALL_ROUNDS
100
AcDbLine
 62
7
  6
CONTINUOUS
 10
148.2781468482
 20
127.630668347
 11
148.2781468482
 21
116.3810068858
  0
LINE
  5
460
100
AcDbEntity
  8
7_ALL_ROUNDS
100
AcDbLine
 62
7
  6
CONTINUOUS
 10
148.9281468482
 20
141.2108143302
 11
148.9281468482
 21
177.5608143302
  0
LINE
  5
461
100
AcDbEntity
  8
7_ALL_ROUNDS
100
AcDbLine
 62
9
  6
CONTINUOUS
 10
119.3554167022
 20
113.459156547
 11
119.5467825191
 21
113.6505223638
  0
LINE
  5
462
100
AcDbEntity
  8
7_ALL_ROUNDS
100
AcDbLine
 62
9
  6
CONTINUOUS
 10
119.3554167022
 20
179.902180147
 11
119.5467825191
 21
179.7108143302
  0
LINE
  5
463
100
AcDbEntity
  8
7_ALL_ROUNDS
100
AcDbLine
 62
7
  6
CONTINUOUS
 10
150.0082928314
 20
115.6493040178
 11
150.0082928314
 21
177.7120326761
  0
LINE
  5
464
100
AcDbEntity
  8
7_ALL_ROUNDS
100
AcDbLine
 62
7
  6
CONTINUOUS
 10
150.1996586482
 20
115.457938201
 11
150.1996586482
 21
126.7762093357
  0
LINE
  5
465
100
AcDbEntity
  8
0
100
AcDbLine
 62
7
  6
CONTINUOUS
 10
150.1996586482
 20
126.7762093357
 11
150.1996586482
 21
129.0851273582
  0
LINE
  5
466
100
AcDbEntity
  8
7_ALL_ROUNDS
100
AcDbLine
 62
7
  6
CONTINUOUS
 10
150.1996586482
 20
129.0851273582
 11
150.1996586482
 21
177.9033984929
  0
LINE
  5
467
100
AcDbEntity
  8
7_ALL_ROUNDS
100
AcDbLine
 62
9
  6
CONTINUOUS
 10
142.1770570951
 20
130.329426289
 11
142.1594497137
 21
130.3118189076
  0
LINE
  5
468
100
AcDbEntity
  8
7_ALL_ROUNDS
100
AcDbLine
 62
9
  6
CONTINUOUS
 10
142.2782991531
 20
130.4136738913
 11
142.2875689331
 21
130.4229436714
  0
LINE
  5
469
100
AcDbEntity
  8
7_ALL_ROUNDS
100
AcDbLine
 62
9
  6
CONTINUOUS
 10
143.1769047903
 20
129.3295785939
 11
143.1592974089
 21
129.3119712125
  0
LINE
  5
46A
100
AcDbEntity
  8
7_ALL_ROUNDS
100
AcDbLine
 62
9
  6
CONTINUOUS
 10
143.2781468482
 20
129.4138261962
 11
143.286216269
 21
129.421895617
  0
LINE
  5
46B
100
AcDbEntity
  8
0
100
AcDbLine
 62
7
  6
CONTINUOUS
 10
137.1054726461
 20
122.5626910576
 11
133.7781468482
 21
120.189684378
  0
LINE
  5
46C
100
AcDbEntity
  8
0
100
AcDbLine
 62
7
  6
CONTINUOUS
 10
137.1054726461
 20
122.5455568336
 11
133.7781468482
 21
120.1725501541
  0
LINE
  5
46D
100
AcDbEntity
  8
0
100
AcDbLine
 62
7
  6
CONTINUOUS
 10
133.7781468482
 20
119.4201671112
 11
137.4703877266
 21
122.0534266112
  0
LINE
  5
46E
100
AcDbEntity
  8
0
100
AcDbLine
 62
7
  6
CONTINUOUS
 10
161.5281468482
 20
148.180668347
 11
161.5281468482
 21
145.180668347
  0
LINE
  5
46F
100
AcDbEntity
  8
3_AXES_OTHER
100
AcDbLine
 62
7
  6
CENTER
 10
163.7781468482
 20
146.680668347
 11
163.7781468482
 21
143.886568347
  0
LINE
  5
470
100
AcDbEntity
  8
3_AXES_OTHER
100
AcDbLine
 62
7
  6
CENTER
 10
163.7781468482
 20
146.680668347
 11
163.7781468482
 21
149.474768347
  0
LINE
  5
471
100
AcDbEntity
  8
7_ALL_ROUNDS
100
AcDbLine
 62
7
  6
CONTINUOUS
 10
147.9281468482
 20
178.5608143302
 11
119.6281468482
 21
178.5608143302
  0
LINE
  5
472
100
AcDbEntity
  8
0
100
AcDbLine
 62
7
  6
CONTINUOUS
 10
166.0281468482
 20
145.180668347
 11
166.0281468482
 21
148.180668347
  0
LINE
  5
473
100
AcDbEntity
  8
7_ALL_ROUNDS
100
AcDbLine
 62
7
  6
CONTINUOUS
 10
148.0095111774
 20
179.7108143302
 11
119.5467825191
 21
179.7108143302
  0
LINE
  5
474
100
AcDbEntity
  8
7_ALL_ROUNDS
100
AcDbLine
 62
7
  6
CONTINUOUS
 10
148.2008769942
 20
179.902180147
 11
119.3554167022
 21
179.902180147
  0
LINE
  5
475
100
AcDbEntity
  8
7_ALL_ROUNDS
100
AcDbLine
 62
7
  6
CONTINUOUS
 10
175.1781468482
 20
108.580668513
 11
175.1781468482
 21
185.200668347
  0
LINE
  5
476
100
AcDbEntity
  8
7_ALL_ROUNDS
100
AcDbLine
 62
7
  6
CONTINUOUS
 10
172.1781468482
 20
188.200668347
 11
95.3781468482
 21
188.200668347
  0
LINE
  5
477
100
AcDbEntity
  8
7_ALL_ROUNDS
100
AcDbLine
 62
7
  6
CONTINUOUS
 10
92.3781468482
 20
243.3004290385
 11
92.3781468482
 21
244.8204290385
  0
LINE
  5
478
100
AcDbEntity
  8
7_ALL_ROUNDS
100
AcDbLine
 62
9
  6
CONTINUOUS
 10
95.3781468482
 20
243.3004290385
 11
95.3781468482
 21
244.8204290385
  0
LINE
  5
479
100
AcDbEntity
  8
0
100
AcDbLine
 62
7
  6
CONTINUOUS
 10
113.7229868482
 20
268.3513190385
 11
113.9729868482
 21
268.8513190385
  0
LINE
  5
47A
100
AcDbEntity
  8
7_ALL_ROUNDS
100
AcDbLine
 62
7
  6
CONTINUOUS
 10
111.2210868482
 20
258.8183190385
 11
111.2210868482
 21
260.9783190385
  0
LINE
  5
47B
100
AcDbEntity
  8
0
100
AcDbLine
 62
7
  6
CONTINUOUS
 10
111.2781468482
 20
249.3903490385
 11
111.2781468482
 21
250.9293290385
  0
LINE
  5
47C
100
AcDbEntity
  8
0
100
AcDbLine
 62
7
  6
CONTINUOUS
 10
111.2781468482
 20
257.2793290385
 11
111.2781468482
 21
258.8183190385
  0
LINE
  5
47D
100
AcDbEntity
  8
0
100
AcDbLine
 62
7
  6
CONTINUOUS
 10
111.6781468482
 20
250.9293290385
 11
111.6781468482
 21
257.2793290385
  0
LINE
  5
47E
100
AcDbEntity
  8
0
100
AcDbLine
 62
7
  6
CONTINUOUS
 10
111.9576868482
 20
258.8183190385
 11
111.9576868482
 21
259.3263150385
  0
LINE
  5
47F
100
AcDbEntity
  8
0
100
AcDbLine
 62
7
  6
CONTINUOUS
 10
112.9281468482
 20
252.9293290385
 11
112.9281468482
 21
253.0003290385
  0
LINE
  5
480
100
AcDbEntity
  8
7_ALL_ROUNDS
100
AcDbLine
 62
7
  6
CONTINUOUS
 10
111.2781168627
 20
244.8204290385
 11
111.4377019856
 21
249.3903490385
  0
LINE
  5
481
100
AcDbEntity
  8
7_ALL_ROUNDS
100
AcDbLine
 62
7
  6
CONTINUOUS
 10
116.3046027989
 20
266.6911243695
 11
114.9498243636
 21
265.4951578814
  0
LINE
  5
482
100
AcDbEntity
  8
0
100
AcDbLine
 62
7
  6
CONTINUOUS
 10
113.7229868482
 20
255.7623190385
 11
113.7229868482
 21
257.2793290385
  0
LINE
  5
483
100
AcDbEntity
  8
0
100
AcDbLine
 62
7
  6
CONTINUOUS
 10
113.7229868482
 20
258.8183190385
 11
113.7229868482
 21
259.3263150385
  0
LINE
  5
484
100
AcDbEntity
  8
0
100
AcDbLine
 62
7
  6
CONTINUOUS
 10
113.7229868482
 20
261.3583190385
 11
113.7229868482
 21
268.3513190385
  0
LINE
  5
485
100
AcDbEntity
  8
0
100
AcDbLine
 62
7
  6
CONTINUOUS
 10
114.1781468482
 20
250.9293290385
 11
114.1781468482
 21
252.9293290385
  0
LINE
  5
486
100
AcDbEntity
  8
0
100
AcDbLine
 62
7
  6
CONTINUOUS
 10
114.4341868482
 20
255.7623190385
 11
114.4341868482
 21
257.2793290385
  0
LINE
  5
487
100
AcDbEntity
  8
0
100
AcDbLine
 62
7
  6
CONTINUOUS
 10
114.4341868482
 20
258.8183190385
 11
114.4341868482
 21
259.3263150385
  0
LINE
  5
488
100
AcDbEntity
  8
0
100
AcDbLine
 62
7
  6
CONTINUOUS
 10
114.4341868482
 20
261.3583190385
 11
114.4341868482
 21
268.3513190385
  0
LINE
  5
489
100
AcDbEntity
  8
0
100
AcDbLine
 62
7
  6
CONTINUOUS
 10
115.4281468482
 20
252.9293290385
 11
115.4281468482
 21
253.0003290385
  0
LINE
  5
48A
100
AcDbEntity
  8
0
100
AcDbLine
 62
7
  6
CONTINUOUS
 10
115.4281468482
 20
260.8183190385
 11
115.4281468482
 21
261.0203190385
  0
LINE
  5
48B
100
AcDbEntity
  8
7_ALL_ROUNDS
100
AcDbLine
 62
7
  6
CONTINUOUS
 10
116.0216868482
 20
263.3395190385
 11
116.0216868482
 21
260.9763151746
  0
LINE
  5
48C
100
AcDbEntity
  8
7_ALL_ROUNDS
100
AcDbLine
 62
9
  6
CONTINUOUS
 10
114.0976857081
 20
244.8204290385
 11
114.257270831
 21
249.3903490385
  0
LINE
  5
48D
100
AcDbEntity
  8
0
100
AcDbLine
 62
7
  6
CONTINUOUS
 10
114.4341868482
 20
255.7623190385
 11
114.1841868482
 21
255.2623190385
  0
LINE
  5
48E
100
AcDbEntity
  8
7_ALL_ROUNDS
100
AcDbLine
 62
7
  6
CONTINUOUS
 10
142.6593735613
 20
236.3204290385
 11
124.8969201351
 21
236.3204290385
  0
LINE
  5
48F
100
AcDbEntity
  8
7_ALL_ROUNDS
100
AcDbLine
 62
7
  6
CONTINUOUS
 10
117.3566350482
 20
243.3004290385
 11
117.548000865
 21
237.8204290385
  0
LINE
  5
490
100
AcDbEntity
  8
0
100
AcDbLine
 62
7
  6
CONTINUOUS
 10
119.1411197475
 20
244.8204290385
 11
118.9815346246
 21
249.3903490385
  0
LINE
  5
491
100
AcDbEntity
  8
7_ALL_ROUNDS
100
AcDbLine
 62
9
  6
CONTINUOUS
 10
119.3554167022
 20
243.3004290385
 11
119.5467825191
 21
237.8204290385
  0
LINE
  5
492
100
AcDbEntity
  8
0
100
AcDbLine
 62
7
  6
CONTINUOUS
 10
116.1994868482
 20
258.8183190385
 11
116.1994868482
 21
259.3263150385
  0
LINE
  5
493
100
AcDbEntity
  8
0
100
AcDbLine
 62
7
  6
CONTINUOUS
 10
116.6781468482
 20
250.9293290385
 11
116.6781468482
 21
257.2793290385
  0
LINE
  5
494
100
AcDbEntity
  8
7_ALL_ROUNDS
100
AcDbLine
 62
7
  6
CONTINUOUS
 10
116.9360868482
 20
258.8183190385
 11
116.9360868482
 21
266.4062458464
  0
LINE
  5
495
100
AcDbEntity
  8
0
100
AcDbLine
 62
7
  6
CONTINUOUS
 10
117.6224268482
 20
258.8183190385
 11
117.6224268482
 21
272.0183190385
  0
LINE
  5
496
100
AcDbEntity
  8
7_ALL_ROUNDS
100
AcDbLine
 62
7
  6
CONTINUOUS
 10
120.2781468482
 20
236.5984328509
 11
147.2781468482
 21
236.5984328509
  0
LINE
  5
497
100
AcDbEntity
  8
7_ALL_ROUNDS
100
AcDbLine
 62
7
  6
CONTINUOUS
 10
150.0082928314
 20
237.8204290385
 11
117.548000865
 21
237.8204290385
  0
LINE
  5
498
100
AcDbEntity
  8
0
100
AcDbLine
 62
7
  6
CONTINUOUS
 10
113.7229868482
 20
255.7623190385
 11
113.9729868482
 21
255.2623190385
  0
LINE
  5
499
100
AcDbEntity
  8
7_ALL_ROUNDS
100
AcDbLine
 62
7
  6
CONTINUOUS
 10
119.2781468482
 20
236.6671293867
 11
119.2781468482
 21
237.8204290385
  0
LINE
  5
49A
100
AcDbEntity
  8
7_ALL_ROUNDS
100
AcDbLine
 62
9
  6
CONTINUOUS
 10
120.2781468482
 20
236.5984328509
 11
120.2781468482
 21
237.8204290385
  0
LINE
  5
49B
100
AcDbEntity
  8
0
100
AcDbLine
 62
7
  6
CONTINUOUS
 10
120.4931468482
 20
250.9293290385
 11
120.4931468482
 21
257.2793290385
  0
LINE
  5
49C
100
AcDbEntity
  8
0
100
AcDbLine
 62
7
  6
CONTINUOUS
 10
121.0744743445
 20
248.8593390385
 11
121.0744743445
 21
249.3903490385
  0
LINE
  5
49D
100
AcDbEntity
  8
0
100
AcDbLine
 62
7
  6
CONTINUOUS
 10
121.0744743445
 20
258.8183190385
 11
121.0744743445
 21
259.3493290385
  0
LINE
  5
49E
100
AcDbEntity
  8
0
100
AcDbLine
 62
7
  6
CONTINUOUS
 10
113.2281468496
 20
253.3003290399
 11
112.9281468501
 21
253.0003290403
  0
LINE
  5
49F
100
AcDbEntity
  8
0
100
AcDbLine
 62
7
  6
CONTINUOUS
 10
115.1281468468
 20
253.3003290399
 11
115.4281468464
 21
253.0003290403
  0
LINE
  5
4A0
100
AcDbEntity
  8
7_ALL_ROUNDS
100
AcDbLine
 62
7
  6
CONTINUOUS
 10
115.0310862898
 20
261.3583190385
 11
115.2984894524
 21
260.8097985984
  0
LINE
  5
4A1
100
AcDbEntity
  8
0
100
AcDbLine
 62
7
  6
CONTINUOUS
 10
123.3811468482
 20
249.3903490385
 11
123.3811468482
 21
250.9293290385
  0
LINE
  5
4A2
100
AcDbEntity
  8
0
100
AcDbLine
 62
7
  6
CONTINUOUS
 10
123.3811468482
 20
257.2793290385
 11
123.3811468482
 21
258.8183190385
  0
LINE
  5
4A3
100
AcDbEntity
  8
0
100
AcDbLine
 62
7
  6
CONTINUOUS
 10
124.4818193519
 20
248.8593390385
 11
124.4818193519
 21
249.3903490385
  0
LINE
  5
4A4
100
AcDbEntity
  8
0
100
AcDbLine
 62
7
  6
CONTINUOUS
 10
124.4818193519
 20
258.8183190385
 11
124.4818193519
 21
259.3493290385
  0
LINE
  5
4A5
100
AcDbEntity
  8
0
100
AcDbLine
 62
7
  6
CONTINUOUS
 10
125.0631468482
 20
250.9293290385
 11
125.0631468482
 21
257.2793290385
  0
LINE
  5
4A6
100
AcDbEntity
  8
7_ALL_ROUNDS
100
AcDbLine
 62
7
  6
CONTINUOUS
 10
175.1781468482
 20
243.3004290385
 11
92.3781468482
 21
243.3004290385
  0
LINE
  5
4A7
100
AcDbEntity
  8
7_ALL_ROUNDS
100
AcDbLine
 62
7
  6
CONTINUOUS
 10
92.3781468482
 20
244.8204290385
 11
175.1781468482
 21
244.8204290385
  0
LINE
  5
4A8
100
AcDbEntity
  8
7_ALL_ROUNDS
100
AcDbLine
 62
7
  6
CONTINUOUS
 10
114.8877639431
 20
264.9955938546
 11
116.0216868482
 21
263.3395190385
  0
LINE
  5
4A9
100
AcDbEntity
  8
0
100
AcDbLine
 62
7
  6
CONTINUOUS
 10
114.4341868482
 20
268.3513190385
 11
114.1841868482
 21
268.8513190385
  0
LINE
  5
4AA
100
AcDbEntity
  8
7_ALL_ROUNDS
100
AcDbLine
 62
9
  6
CONTINUOUS
 10
125.3968439827
 20
236.3204290385
 11
125.3968440997
 21
236.5984328509
  0
LINE
  5
4AB
100
AcDbEntity
  8
0
100
AcDbLine
 62
7
  6
CONTINUOUS
 10
145.470967187
 20
247.3693390385
 11
144.0853265909
 21
247.3693390385
  0
LINE
  5
4AC
100
AcDbEntity
  8
0
100
AcDbLine
 62
7
  6
CONTINUOUS
 10
123.470967187
 20
247.3693390385
 11
122.0853265909
 21
247.3693390385
  0
LINE
  5
4AD
100
AcDbEntity
  8
0
100
AcDbLine
 62
7
  6
CONTINUOUS
 10
115.1481468467
 20
261.30031904
 11
115.4281468463
 21
261.0203190404
  0
LINE
  5
4AE
100
AcDbEntity
  8
0
100
AcDbLine
 62
7
  6
CONTINUOUS
 10
128.5021468482
 20
249.3903490385
 11
128.5021468482
 21
250.9293290385
  0
LINE
  5
4AF
100
AcDbEntity
  8
0
100
AcDbLine
 62
7
  6
CONTINUOUS
 10
128.5021468482
 20
257.2793290385
 11
128.5021468482
 21
258.8183190385
  0
LINE
  5
4B0
100
AcDbEntity
  8
0
100
AcDbLine
 62
7
  6
CONTINUOUS
 10
146.4818193519
 20
248.8593390385
 11
143.0744743445
 21
248.8593390385
  0
LINE
  5
4B1
100
AcDbEntity
  8
0
100
AcDbLine
 62
7
  6
CONTINUOUS
 10
124.4818193519
 20
248.8593390385
 11
121.0744743445
 21
248.8593390385
  0
LINE
  5
4B2
100
AcDbEntity
  8
0
100
AcDbLine
 62
7
  6
CONTINUOUS
 10
111.2781468482
 20
249.3903490385
 11
156.2781468482
 21
249.3903490385
  0
LINE
  5
4B3
100
AcDbEntity
  8
0
100
AcDbLine
 62
7
  6
CONTINUOUS
 10
111.2781468482
 20
250.9293290385
 11
156.2781468482
 21
250.9293290385
  0
LINE
  5
4B4
100
AcDbEntity
  8
0
100
AcDbLine
 62
7
  6
CONTINUOUS
 10
111.6781468482
 20
252.9293290385
 11
116.6781468482
 21
252.9293290385
  0
LINE
  5
4B5
100
AcDbEntity
  8
0
100
AcDbLine
 62
7
  6
CONTINUOUS
 10
150.8781468482
 20
252.9293290385
 11
155.8781468482
 21
252.9293290385
  0
LINE
  5
4B6
100
AcDbEntity
  8
0
100
AcDbLine
 62
7
  6
CONTINUOUS
 10
112.9281468482
 20
253.0003290385
 11
115.4281468482
 21
253.0003290385
  0
LINE
  5
4B7
100
AcDbEntity
  8
0
100
AcDbLine
 62
7
  6
CONTINUOUS
 10
152.1281468482
 20
253.0003290385
 11
154.6281468482
 21
253.0003290385
  0
LINE
  5
4B8
100
AcDbEntity
  8
0
100
AcDbLine
 62
7
  6
CONTINUOUS
 10
113.2281468482
 20
253.3003290385
 11
115.1281468482
 21
253.3003290385
  0
LINE
  5
4B9
100
AcDbEntity
  8
0
100
AcDbLine
 62
7
  6
CONTINUOUS
 10
152.4281468482
 20
253.3003290385
 11
154.3281468482
 21
253.3003290385
  0
LINE
  5
4BA
100
AcDbEntity
  8
0
100
AcDbLine
 62
7
  6
CONTINUOUS
 10
114.1841868482
 20
255.2623190385
 11
113.9729868482
 21
255.2623190385
  0
LINE
  5
4BB
100
AcDbEntity
  8
0
100
AcDbLine
 62
7
  6
CONTINUOUS
 10
114.4341868482
 20
255.7623190385
 11
113.7229868482
 21
255.7623190385
  0
LINE
  5
4BC
100
AcDbEntity
  8
0
100
AcDbLine
 62
7
  6
CONTINUOUS
 10
111.2781468482
 20
257.2793290385
 11
156.2781468482
 21
257.2793290385
  0
LINE
  5
4BD
100
AcDbEntity
  8
0
100
AcDbLine
 62
7
  6
CONTINUOUS
 10
139.0541468482
 20
249.3903490385
 11
139.0541468482
 21
250.9293290385
  0
LINE
  5
4BE
100
AcDbEntity
  8
0
100
AcDbLine
 62
7
  6
CONTINUOUS
 10
139.0541468482
 20
257.2793290385
 11
139.0541468482
 21
258.8183190385
  0
LINE
  5
4BF
100
AcDbEntity
  8
0
100
AcDbLine
 62
7
  6
CONTINUOUS
 10
111.2210868482
 20
258.8183190385
 11
156.2781468482
 21
258.8183190385
  0
LINE
  5
4C0
100
AcDbEntity
  8
0
100
AcDbLine
 62
7
  6
CONTINUOUS
 10
116.1994868482
 20
259.3263150385
 11
111.9576868482
 21
259.3263150385
  0
LINE
  5
4C1
100
AcDbEntity
  8
0
100
AcDbLine
 62
7
  6
CONTINUOUS
 10
121.0744743445
 20
259.3493290385
 11
124.4818193519
 21
259.3493290385
  0
LINE
  5
4C2
100
AcDbEntity
  8
0
100
AcDbLine
 62
7
  6
CONTINUOUS
 10
143.0744743445
 20
259.3493290385
 11
146.4818193519
 21
259.3493290385
  0
LINE
  5
4C3
100
AcDbEntity
  8
7_ALL_ROUNDS
100
AcDbLine
 62
9
  6
CONTINUOUS
 10
142.1594497137
 20
236.3204290385
 11
142.1594497137
 21
236.5984328509
  0
LINE
  5
4C4
100
AcDbEntity
  8
0
100
AcDbLine
 62
7
  6
CONTINUOUS
 10
142.4931468482
 20
250.9293290385
 11
142.4931468482
 21
257.2793290385
  0
LINE
  5
4C5
100
AcDbEntity
  8
0
100
AcDbLine
 62
7
  6
CONTINUOUS
 10
143.0744743445
 20
248.8593390385
 11
143.0744743445
 21
249.3903490385
  0
LINE
  5
4C6
100
AcDbEntity
  8
0
100
AcDbLine
 62
7
  6
CONTINUOUS
 10
143.0744743445
 20
258.8183190385
 11
143.0744743445
 21
259.3493290385
  0
LINE
  5
4C7
100
AcDbEntity
  8
0
100
AcDbLine
 62
7
  6
CONTINUOUS
 10
152.4081468497
 20
261.30031904
 11
152.1281468501
 21
261.0203190404
  0
LINE
  5
4C8
100
AcDbEntity
  8
0
100
AcDbLine
 62
7
  6
CONTINUOUS
 10
115.2984894524
 20
260.8183190385
 11
115.9846742876
 21
260.8183190385
  0
LINE
  5
4C9
100
AcDbEntity
  8
0
100
AcDbLine
 62
7
  6
CONTINUOUS
 10
150.8781468482
 20
260.8183190385
 11
155.8781468482
 21
260.8183190385
  0
LINE
  5
4CA
100
AcDbEntity
  8
0
100
AcDbLine
 62
7
  6
CONTINUOUS
 10
122.0853265586
 20
260.8393290385
 11
123.4709671812
 21
260.8393290385
  0
LINE
  5
4CB
100
AcDbEntity
  8
0
100
AcDbLine
 62
7
  6
CONTINUOUS
 10
144.0853265586
 20
260.8393290385
 11
145.4709671812
 21
260.8393290385
  0
LINE
  5
4CC
100
AcDbEntity
  8
0
100
AcDbLine
 62
7
  6
CONTINUOUS
 10
115.1958609497
 20
261.0203190385
 11
115.4281468482
 21
261.0203190385
  0
LINE
  5
4CD
100
AcDbEntity
  8
0
100
AcDbLine
 62
7
  6
CONTINUOUS
 10
152.1281468482
 20
261.0203190385
 11
154.6281468482
 21
261.0203190385
  0
LINE
  5
4CE
100
AcDbEntity
  8
0
100
AcDbLine
 62
7
  6
CONTINUOUS
 10
115.0593612314
 20
261.3003190385
 11
115.1481468482
 21
261.3003190385
  0
LINE
  5
4CF
100
AcDbEntity
  8
0
100
AcDbLine
 62
7
  6
CONTINUOUS
 10
152.4081468482
 20
261.3003190385
 11
154.3481468482
 21
261.3003190385
  0
LINE
  5
4D0
100
AcDbEntity
  8
7_ALL_ROUNDS
100
AcDbLine
 62
7
  6
CONTINUOUS
 10
111.6010868482
 20
261.3583190385
 11
115.0310862898
 21
261.3583190385
  0
LINE
  5
4D1
100
AcDbEntity
  8
0
100
AcDbLine
 62
7
  6
CONTINUOUS
 10
144.1751468482
 20
249.3903490385
 11
144.1751468482
 21
250.9293290385
  0
LINE
  5
4D2
100
AcDbEntity
  8
0
100
AcDbLine
 62
7
  6
CONTINUOUS
 10
144.1751468482
 20
257.2793290385
 11
144.1751468482
 21
258.8183190385
  0
LINE
  5
4D3
100
AcDbEntity
  8
0
100
AcDbLine
 62
7
  6
CONTINUOUS
 10
146.4818193519
 20
248.8593390385
 11
146.4818193519
 21
249.3903490385
  0
LINE
  5
4D4
100
AcDbEntity
  8
0
100
AcDbLine
 62
7
  6
CONTINUOUS
 10
146.4818193519
 20
258.8183190385
 11
146.4818193519
 21
259.3493290385
  0
LINE
  5
4D5
100
AcDbEntity
  8
0
100
AcDbLine
 62
7
  6
CONTINUOUS
 10
147.0631468482
 20
250.9293290385
 11
147.0631468482
 21
257.2793290385
  0
LINE
  5
4D6
100
AcDbEntity
  8
7_ALL_ROUNDS
100
AcDbLine
 62
9
  6
CONTINUOUS
 10
147.2781468482
 20
237.8204290385
 11
147.2781468482
 21
236.5984328509
  0
LINE
  5
4D7
100
AcDbEntity
  8
7_ALL_ROUNDS
100
AcDbLine
 62
7
  6
CONTINUOUS
 10
148.2781468482
 20
237.8204290385
 11
148.2781468482
 21
236.6671293867
  0
LINE
  5
4D8
100
AcDbEntity
  8
7_ALL_ROUNDS
100
AcDbLine
 62
9
  6
CONTINUOUS
 10
148.2008769942
 20
243.3004290385
 11
148.0095111774
 21
237.8204290385
  0
LINE
  5
4D9
100
AcDbEntity
  8
0
100
AcDbLine
 62
7
  6
CONTINUOUS
 10
148.4151739489
 20
244.8204290385
 11
148.5747590718
 21
249.3903490385
  0
LINE
  5
4DA
100
AcDbEntity
  8
0
100
AcDbLine
 62
7
  6
CONTINUOUS
 10
152.4281468496
 20
253.3003290399
 11
152.1281468501
 21
253.0003290403
  0
LINE
  5
4DB
100
AcDbEntity
  8
0
100
AcDbLine
 62
7
  6
CONTINUOUS
 10
113.7229868482
 20
268.3513190385
 11
114.4341868482
 21
268.3513190385
  0
LINE
  5
4DC
100
AcDbEntity
  8
0
100
AcDbLine
 62
7
  6
CONTINUOUS
 10
113.9729868482
 20
268.8513190385
 11
114.1841868482
 21
268.8513190385
  0
LINE
  5
4DD
100
AcDbEntity
  8
0
100
AcDbLine
 62
7
  6
CONTINUOUS
 10
154.3281468468
 20
253.3003290399
 11
154.6281468464
 21
253.0003290403
  0
LINE
  5
4DE
100
AcDbEntity
  8
0
100
AcDbLine
 62
7
  6
CONTINUOUS
 10
149.8824268482
 20
258.8183190385
 11
149.8824268482
 21
272.0183190385
  0
LINE
  5
4DF
100
AcDbEntity
  8
0
100
AcDbLine
 62
7
  6
CONTINUOUS
 10
150.8781468482
 20
250.9293290385
 11
150.8781468482
 21
257.2793290385
  0
LINE
  5
4E0
100
AcDbEntity
  8
0
100
AcDbLine
 62
7
  6
CONTINUOUS
 10
150.8781468482
 20
258.8183190385
 11
150.8781468482
 21
260.8183190385
  0
LINE
  5
4E1
100
AcDbEntity
  8
0
100
AcDbLine
 62
7
  6
CONTINUOUS
 10
152.1281468482
 20
252.9293290385
 11
152.1281468482
 21
253.0003290385
  0
LINE
  5
4E2
100
AcDbEntity
  8
0
100
AcDbLine
 62
7
  6
CONTINUOUS
 10
152.1281468482
 20
260.8183190385
 11
152.1281468482
 21
261.0203190385
  0
LINE
  5
4E3
100
AcDbEntity
  8
7_ALL_ROUNDS
100
AcDbLine
 62
7
  6
CONTINUOUS
 10
150.1996586482
 20
243.3004290385
 11
150.0082928314
 21
237.8204290385
  0
LINE
  5
4E4
100
AcDbEntity
  8
0
100
AcDbLine
 62
7
  6
CONTINUOUS
 10
117.6224268482
 20
272.0183190385
 11
149.8824268482
 21
272.0183190385
  0
LINE
  5
4E5
100
AcDbEntity
  8
7_ALL_ROUNDS
100
AcDbLine
 62
9
  6
CONTINUOUS
 10
153.4586079883
 20
244.8204290385
 11
153.2990228654
 21
249.3903490385
  0
LINE
  5
4E6
100
AcDbEntity
  8
0
100
AcDbLine
 62
7
  6
CONTINUOUS
 10
153.3781468482
 20
250.9293290385
 11
153.3781468482
 21
252.9293290385
  0
LINE
  5
4E7
100
AcDbEntity
  8
0
100
AcDbLine
 62
7
  6
CONTINUOUS
 10
153.3781468482
 20
258.8183190385
 11
153.3781468482
 21
260.8183190385
  0
LINE
  5
4E8
100
AcDbEntity
  8
0
100
AcDbLine
 62
7
  6
CONTINUOUS
 10
154.6281468482
 20
252.9293290385
 11
154.6281468482
 21
253.0003290385
  0
LINE
  5
4E9
100
AcDbEntity
  8
0
100
AcDbLine
 62
7
  6
CONTINUOUS
 10
154.6281468482
 20
260.8183190385
 11
154.6281468482
 21
261.0203190385
  0
LINE
  5
4EA
100
AcDbEntity
  8
0
100
AcDbLine
 62
7
  6
CONTINUOUS
 10
154.3481468467
 20
261.30031904
 11
154.6281468463
 21
261.0203190404
  0
LINE
  5
4EB
100
AcDbEntity
  8
7_ALL_ROUNDS
100
AcDbLine
 62
7
  6
CONTINUOUS
 10
156.2781768337
 20
244.8204290385
 11
156.1185917108
 21
249.3903490385
  0
LINE
  5
4EC
100
AcDbEntity
  8
0
100
AcDbLine
 62
7
  6
CONTINUOUS
 10
155.8781468482
 20
250.9293290385
 11
155.8781468482
 21
257.2793290385
  0
LINE
  5
4ED
100
AcDbEntity
  8
0
100
AcDbLine
 62
7
  6
CONTINUOUS
 10
155.8781468482
 20
258.8183190385
 11
155.8781468482
 21
260.8183190385
  0
LINE
  5
4EE
100
AcDbEntity
  8
0
100
AcDbLine
 62
7
  6
CONTINUOUS
 10
156.2781468482
 20
249.3903490385
 11
156.2781468482
 21
250.9293290385
  0
LINE
  5
4EF
100
AcDbEntity
  8
0
100
AcDbLine
 62
7
  6
CONTINUOUS
 10
156.2781468482
 20
257.2793290385
 11
156.2781468482
 21
258.8183190385
  0
LINE
  5
4F0
100
AcDbEntity
  8
7_ALL_ROUNDS
100
AcDbLine
 62
9
  6
CONTINUOUS
 10
172.1781468482
 20
243.3004290385
 11
172.1781468482
 21
244.8204290385
  0
LINE
  5
4F1
100
AcDbEntity
  8
7_ALL_ROUNDS
100
AcDbLine
 62
7
  6
CONTINUOUS
 10
175.1781468482
 20
243.3004290385
 11
175.1781468482
 21
244.8204290385
  0
LINE
  5
4F2
100
AcDbEntity
  8
7_ALL_ROUNDS
100
AcDbLine
 62
7
  6
CONTINUOUS
 10
92.3781468482
 20
76.8845829808
 11
92.3781468482
 21
75.3645829808
  0
LINE
  5
4F3
100
AcDbEntity
  8
7_ALL_ROUNDS
100
AcDbLine
 62
9
  6
CONTINUOUS
 10
95.3781468482
 20
76.8845829808
 11
95.3781468482
 21
75.3645829808
  0
LINE
  5
4F4
100
AcDbEntity
  8
0
100
AcDbLine
 62
7
  6
CONTINUOUS
 10
113.7229868482
 20
51.8336929808
 11
113.9729868482
 21
51.3336929808
  0
LINE
  5
4F5
100
AcDbEntity
  8
7_ALL_ROUNDS
100
AcDbLine
 62
7
  6
CONTINUOUS
 10
111.2781168627
 20
75.3645829808
 11
111.4377019856
 21
70.7946629808
  0
LINE
  5
4F6
100
AcDbEntity
  8
7_ALL_ROUNDS
100
AcDbLine
 62
7
  6
CONTINUOUS
 10
111.2210868482
 20
61.3666929808
 11
111.2210868482
 21
59.2066929808
  0
LINE
  5
4F7
100
AcDbEntity
  8
0
100
AcDbLine
 62
7
  6
CONTINUOUS
 10
111.2781468482
 20
70.7946629808
 11
111.2781468482
 21
69.2556829808
  0
LINE
  5
4F8
100
AcDbEntity
  8
0
100
AcDbLine
 62
7
  6
CONTINUOUS
 10
111.2781468482
 20
62.9056829808
 11
111.2781468482
 21
61.3666929808
  0
LINE
  5
4F9
100
AcDbEntity
  8
0
100
AcDbLine
 62
7
  6
CONTINUOUS
 10
111.6781468482
 20
69.2556829808
 11
111.6781468482
 21
62.9056829808
  0
LINE
  5
4FA
100
AcDbEntity
  8
0
100
AcDbLine
 62
7
  6
CONTINUOUS
 10
111.6781468482
 20
61.3666929808
 11
111.6781468482
 21
59.3666929808
  0
LINE
  5
4FB
100
AcDbEntity
  8
0
100
AcDbLine
 62
7
  6
CONTINUOUS
 10
112.9281468482
 20
59.3666929808
 11
112.9281468482
 21
59.1646929808
  0
LINE
  5
4FC
100
AcDbEntity
  8
7_ALL_ROUNDS
100
AcDbLine
 62
7
  6
CONTINUOUS
 10
116.3046027989
 20
53.4938876497
 11
114.9498243636
 21
54.6898541378
  0
LINE
  5
4FD
100
AcDbEntity
  8
7_ALL_ROUNDS
100
AcDbLine
 62
9
  6
CONTINUOUS
 10
114.0976857081
 20
75.3645829808
 11
114.257270831
 21
70.7946629808
  0
LINE
  5
4FE
100
AcDbEntity
  8
0
100
AcDbLine
 62
7
  6
CONTINUOUS
 10
113.7229868482
 20
58.8266929808
 11
113.7229868482
 21
51.8336929808
  0
LINE
  5
4FF
100
AcDbEntity
  8
0
100
AcDbLine
 62
7
  6
CONTINUOUS
 10
114.1781468482
 20
61.3666929808
 11
114.1781468482
 21
59.3666929808
  0
LINE
  5
500
100
AcDbEntity
  8
0
100
AcDbLine
 62
7
  6
CONTINUOUS
 10
114.4341868482
 20
58.8266929808
 11
114.4341868482
 21
51.8336929808
  0
LINE
  5
501
100
AcDbEntity
  8
0
100
AcDbLine
 62
7
  6
CONTINUOUS
 10
115.4281468482
 20
59.3666929808
 11
115.4281468482
 21
59.1646929808
  0
LINE
  5
502
100
AcDbEntity
  8
7_ALL_ROUNDS
100
AcDbLine
 62
7
  6
CONTINUOUS
 10
116.0216868482
 20
59.2086968446
 11
116.0216868482
 21
56.8454929808
  0
LINE
  5
503
100
AcDbEntity
  8
0
100
AcDbLine
 62
7
  6
CONTINUOUS
 10
149.8824268482
 20
48.1666929808
 11
117.6224268482
 21
48.1666929808
  0
LINE
  5
504
100
AcDbEntity
  8
0
100
AcDbLine
 62
7
  6
CONTINUOUS
 10
127.2369168482
 20
48.2514746986
 11
124.3019468482
 21
48.2514746986
  0
LINE
  5
505
100
AcDbEntity
  8
0
100
AcDbLine
 62
7
  6
CONTINUOUS
 10
113.2081468497
 20
58.8846929793
 11
112.9281468501
 21
59.1646929788
  0
LINE
  5
506
100
AcDbEntity
  8
0
100
AcDbLine
 62
7
  6
CONTINUOUS
 10
116.6781468482
 20
69.2556829808
 11
116.6781468482
 21
62.9056829808
  0
LINE
  5
507
100
AcDbEntity
  8
0
100
AcDbLine
 62
7
  6
CONTINUOUS
 10
116.6781468482
 20
61.3666929808
 11
116.6781468482
 21
59.3666929808
  0
LINE
  5
508
100
AcDbEntity
  8
7_ALL_ROUNDS
100
AcDbLine
 62
7
  6
CONTINUOUS
 10
116.9360868482
 20
61.3666929808
 11
116.9360868482
 21
53.7787661729
  0
LINE
  5
509
100
AcDbEntity
  8
0
100
AcDbLine
 62
7
  6
CONTINUOUS
 10
117.6224268482
 20
61.3666929808
 11
117.6224268482
 21
48.1666929808
  0
LINE
  5
50A
100
AcDbEntity
  8
7_ALL_ROUNDS
100
AcDbLine
 62
7
  6
CONTINUOUS
 10
117.3566350482
 20
76.8845829808
 11
117.548000865
 21
82.3645829808
  0
LINE
  5
50B
100
AcDbEntity
  8
0
100
AcDbLine
 62
7
  6
CONTINUOUS
 10
119.1411197475
 20
75.3645829808
 11
118.9815346246
 21
70.7946629808
  0
LINE
  5
50C
100
AcDbEntity
  8
7_ALL_ROUNDS
100
AcDbLine
 62
9
  6
CONTINUOUS
 10
119.3554167022
 20
76.8845829808
 11
119.5467825191
 21
82.3645829808
  0
LINE
  5
50D
100
AcDbEntity
  8
0
100
AcDbLine
 62
7
  6
CONTINUOUS
 10
123.8474268482
 20
48.8501969808
 11
124.3019468482
 21
48.8501969808
  0
LINE
  5
50E
100
AcDbEntity
  8
0
100
AcDbLine
 62
7
  6
CONTINUOUS
 10
127.2369168482
 20
48.8501969808
 11
127.9074268482
 21
48.8501969808
  0
LINE
  5
50F
100
AcDbEntity
  8
0
100
AcDbLine
 62
7
  6
CONTINUOUS
 10
139.5974268482
 20
48.8501969808
 11
143.6574268482
 21
48.8501969808
  0
LINE
  5
510
100
AcDbEntity
  8
0
100
AcDbLine
 62
7
  6
CONTINUOUS
 10
127.2369168482
 20
49.2481973499
 11
124.3019468482
 21
49.2481973499
  0
LINE
  5
511
100
AcDbEntity
  8
0
100
AcDbLine
 62
7
  6
CONTINUOUS
 10
122.7274268482
 20
50.3691969808
 11
123.8474268482
 21
50.3691969808
  0
LINE
  5
512
100
AcDbEntity
  8
0
100
AcDbLine
 62
7
  6
CONTINUOUS
 10
127.9074268482
 20
50.3691969808
 11
129.0274268482
 21
50.3691969808
  0
LINE
  5
513
100
AcDbEntity
  8
0
100
AcDbLine
 62
7
  6
CONTINUOUS
 10
138.4774268482
 20
50.3691969808
 11
139.5974268482
 21
50.3691969808
  0
LINE
  5
514
100
AcDbEntity
  8
0
100
AcDbLine
 62
7
  6
CONTINUOUS
 10
143.6574268482
 20
50.3691969808
 11
144.7774268482
 21
50.3691969808
  0
LINE
  5
515
100
AcDbEntity
  8
0
100
AcDbLine
 62
7
  6
CONTINUOUS
 10
114.1841868482
 20
51.3336929808
 11
113.9729868482
 21
51.3336929808
  0
LINE
  5
516
100
AcDbEntity
  8
7_ALL_ROUNDS
100
AcDbLine
 62
7
  6
CONTINUOUS
 10
119.2781468482
 20
82.3645829808
 11
119.2781468482
 21
83.517880734
  0
LINE
  5
517
100
AcDbEntity
  8
0
100
AcDbLine
 62
7
  6
CONTINUOUS
 10
119.9274268482
 20
60.2099969808
 11
119.9274268482
 21
52.0591969808
  0
LINE
  5
518
100
AcDbEntity
  8
7_ALL_ROUNDS
100
AcDbLine
 62
7
  6
CONTINUOUS
 10
119.9605426082
 20
59.1770335256
 11
119.9605426082
 21
53.3181604359
  0
LINE
  5
519
100
AcDbEntity
  8
7_ALL_ROUNDS
100
AcDbLine
 62
9
  6
CONTINUOUS
 10
120.1528529553
 20
58.9847231785
 11
120.1528529553
 21
53.510470783
  0
LINE
  5
51A
100
AcDbEntity
  8
7_ALL_ROUNDS
100
AcDbLine
 62
9
  6
CONTINUOUS
 10
120.2781468482
 20
82.3645829808
 11
120.2781468482
 21
83.5865791684
  0
LINE
  5
51B
100
AcDbEntity
  8
0
100
AcDbLine
 62
7
  6
CONTINUOUS
 10
120.4931468482
 20
69.2556829808
 11
120.4931468482
 21
62.9056829808
  0
LINE
  5
51C
100
AcDbEntity
  8
0
100
AcDbLine
 62
7
  6
CONTINUOUS
 10
121.0744743445
 20
71.3256729808
 11
121.0744743445
 21
70.7946629808
  0
LINE
  5
51D
100
AcDbEntity
  8
7_ALL_ROUNDS
100
AcDbLine
 62
9
  6
CONTINUOUS
 10
121.1527006505
 20
52.5106230879
 11
121.1527006505
 21
59.9845708737
  0
LINE
  5
51E
100
AcDbEntity
  8
7_ALL_ROUNDS
100
AcDbLine
 62
7
  6
CONTINUOUS
 10
115.0310862898
 20
58.8266929808
 11
115.0593612314
 21
58.8846929808
  0
LINE
  5
51F
100
AcDbEntity
  8
0
100
AcDbLine
 62
7
  6
CONTINUOUS
 10
114.4341868482
 20
51.8336929808
 11
113.7229868482
 21
51.8336929808
  0
LINE
  5
520
100
AcDbEntity
  8
0
100
AcDbLine
 62
7
  6
CONTINUOUS
 10
119.9274268482
 20
52.0591969808
 11
122.7274268482
 21
52.0591969808
  0
LINE
  5
521
100
AcDbEntity
  8
0
100
AcDbLine
 62
7
  6
CONTINUOUS
 10
129.0274268482
 20
52.0591969808
 11
131.8274268482
 21
52.0591969808
  0
LINE
  5
522
100
AcDbEntity
  8
0
100
AcDbLine
 62
7
  6
CONTINUOUS
 10
135.6774268482
 20
52.0591969808
 11
138.4774268482
 21
52.0591969808
  0
LINE
  5
523
100
AcDbEntity
  8
0
100
AcDbLine
 62
7
  6
CONTINUOUS
 10
144.7774268482
 20
52.0591969808
 11
147.5774268482
 21
52.0591969808
  0
LINE
  5
524
100
AcDbEntity
  8
0
100
AcDbLine
 62
7
  6
CONTINUOUS
 10
119.9274268482
 20
52.2851969808
 11
131.6114268482
 21
52.2851969808
  0
LINE
  5
525
100
AcDbEntity
  8
7_ALL_ROUNDS
100
AcDbLine
 62
7
  6
CONTINUOUS
 10
120.9603903034
 20
52.3183127408
 11
130.5784633931
 21
52.3183127408
  0
LINE
  5
526
100
AcDbEntity
  8
7_ALL_ROUNDS
100
AcDbLine
 62
9
  6
CONTINUOUS
 10
121.1527006505
 20
52.5106230879
 11
130.386153046
 21
52.5106230879
  0
LINE
  5
527
100
AcDbEntity
  8
7_ALL_ROUNDS
100
AcDbLine
 62
9
  6
CONTINUOUS
 10
120.1528529553
 20
53.510470783
 11
131.3860007411
 21
53.510470783
  0
LINE
  5
528
100
AcDbEntity
  8
7_ALL_ROUNDS
100
AcDbLine
 62
9
  6
CONTINUOUS
 10
119.9605426082
 20
59.1770335256
 11
120.1528529553
 21
58.9847231785
  0
LINE
  5
529
100
AcDbEntity
  8
7_ALL_ROUNDS
100
AcDbLine
 62
9
  6
CONTINUOUS
 10
120.9603903034
 20
60.1768812208
 11
121.1527006505
 21
59.9845708737
  0
LINE
  5
52A
100
AcDbEntity
  8
7_ALL_ROUNDS
100
AcDbLine
 62
9
  6
CONTINUOUS
 10
130.5784633931
 20
52.3183127408
 11
130.386153046
 21
52.5106230879
  0
LINE
  5
52B
100
AcDbEntity
  8
0
100
AcDbLine
 62
7
  6
CONTINUOUS
 10
122.7274268482
 20
52.0591969808
 11
122.7274268482
 21
50.3691969808
  0
LINE
  5
52C
100
AcDbEntity
  8
0
100
AcDbLine
 62
7
  6
CONTINUOUS
 10
123.3811468482
 20
70.7946629808
 11
123.3811468482
 21
69.2556829808
  0
LINE
  5
52D
100
AcDbEntity
  8
0
100
AcDbLine
 62
7
  6
CONTINUOUS
 10
123.3811468482
 20
62.9056829808
 11
123.3811468482
 21
61.3666929808
  0
LINE
  5
52E
100
AcDbEntity
  8
0
100
AcDbLine
 62
7
  6
CONTINUOUS
 10
123.8474268482
 20
50.3691969808
 11
123.8474268482
 21
48.8501969808
  0
LINE
  5
52F
100
AcDbEntity
  8
0
100
AcDbLine
 62
7
  6
CONTINUOUS
 10
124.3019468482
 20
48.2514746986
 11
124.3019468482
 21
52.2851969808
  0
LINE
  5
530
100
AcDbEntity
  8
0
100
AcDbLine
 62
7
  6
CONTINUOUS
 10
124.4818193519
 20
71.3256729808
 11
124.4818193519
 21
70.7946629808
  0
LINE
  5
531
100
AcDbEntity
  8
0
100
AcDbLine
 62
7
  6
CONTINUOUS
 10
125.0631468482
 20
69.2556829808
 11
125.0631468482
 21
62.9056829808
  0
LINE
  5
532
100
AcDbEntity
  8
0
100
AcDbLine
 62
7
  6
CONTINUOUS
 10
114.4341868482
 20
51.8336929808
 11
114.1841868482
 21
51.3336929808
  0
LINE
  5
533
100
AcDbEntity
  8
7_ALL_ROUNDS
100
AcDbLine
 62
7
  6
CONTINUOUS
 10
114.8877639431
 20
55.1894181646
 11
116.0216868482
 21
56.8454929808
  0
LINE
  5
534
100
AcDbEntity
  8
7_ALL_ROUNDS
100
AcDbLine
 62
9
  6
CONTINUOUS
 10
131.5783110882
 20
53.3181604359
 11
131.3860007411
 21
53.510470783
  0
LINE
  5
535
100
AcDbEntity
  8
7_ALL_ROUNDS
100
AcDbLine
 62
9
  6
CONTINUOUS
 10
125.3968439827
 20
83.8645829808
 11
125.3968439827
 21
83.5865791684
  0
LINE
  5
536
100
AcDbEntity
  8
0
100
AcDbLine
 62
7
  6
CONTINUOUS
 10
127.2369168482
 20
48.2514746986
 11
127.2369168482
 21
52.2851969808
  0
LINE
  5
537
100
AcDbEntity
  8
0
100
AcDbLine
 62
7
  6
CONTINUOUS
 10
127.9074268482
 20
48.8501969808
 11
127.9074268482
 21
50.3691969808
  0
LINE
  5
538
100
AcDbEntity
  8
0
100
AcDbLine
 62
7
  6
CONTINUOUS
 10
115.1481468467
 20
58.8846929793
 11
115.4281468463
 21
59.1646929788
  0
LINE
  5
539
100
AcDbEntity
  8
7_ALL_ROUNDS
100
AcDbLine
 62
7
  6
CONTINUOUS
 10
115.0310862898
 20
58.8266929808
 11
111.6010868482
 21
58.8266929808
  0
LINE
  5
53A
100
AcDbEntity
  8
0
100
AcDbLine
 62
7
  6
CONTINUOUS
 10
154.3481468482
 20
58.8846929808
 11
152.4081468482
 21
58.8846929808
  0
LINE
  5
53B
100
AcDbEntity
  8
0
100
AcDbLine
 62
7
  6
CONTINUOUS
 10
115.1481468482
 20
58.8846929808
 11
113.2081468482
 21
58.8846929808
  0
LINE
  5
53C
100
AcDbEntity
  8
0
100
AcDbLine
 62
7
  6
CONTINUOUS
 10
147.5774268482
 20
58.8891969808
 11
135.6774268482
 21
58.8891969808
  0
LINE
  5
53D
100
AcDbEntity
  8
0
100
AcDbLine
 62
7
  6
CONTINUOUS
 10
131.8274268482
 20
58.8891969808
 11
131.6114268482
 21
58.8891969808
  0
LINE
  5
53E
100
AcDbEntity
  8
7_ALL_ROUNDS
100
AcDbLine
 62
9
  6
CONTINUOUS
 10
120.1528529553
 20
58.9847231785
 11
131.3860007411
 21
58.9847231785
  0
LINE
  5
53F
100
AcDbEntity
  8
0
100
AcDbLine
 62
7
  6
CONTINUOUS
 10
154.6281468482
 20
59.1646929808
 11
152.1281468482
 21
59.1646929808
  0
LINE
  5
540
100
AcDbEntity
  8
0
100
AcDbLine
 62
7
  6
CONTINUOUS
 10
115.4281468482
 20
59.1646929808
 11
112.9281468482
 21
59.1646929808
  0
LINE
  5
541
100
AcDbEntity
  8
0
100
AcDbLine
 62
7
  6
CONTINUOUS
 10
155.8781468482
 20
59.3666929808
 11
150.8781468482
 21
59.3666929808
  0
LINE
  5
542
100
AcDbEntity
  8
0
100
AcDbLine
 62
7
  6
CONTINUOUS
 10
116.6781468482
 20
59.3666929808
 11
111.6781468482
 21
59.3666929808
  0
LINE
  5
543
100
AcDbEntity
  8
7_ALL_ROUNDS
100
AcDbLine
 62
9
  6
CONTINUOUS
 10
121.1527006505
 20
59.9845708737
 11
130.386153046
 21
59.9845708737
  0
LINE
  5
544
100
AcDbEntity
  8
7_ALL_ROUNDS
100
AcDbLine
 62
7
  6
CONTINUOUS
 10
130.5784633931
 20
60.1768812208
 11
120.9603903034
 21
60.1768812208
  0
LINE
  5
545
100
AcDbEntity
  8
0
100
AcDbLine
 62
7
  6
CONTINUOUS
 10
131.6114268482
 20
60.2099969808
 11
119.9274268482
 21
60.2099969808
  0
LINE
  5
546
100
AcDbEntity
  8
0
100
AcDbLine
 62
7
  6
CONTINUOUS
 10
128.5021468482
 20
70.7946629808
 11
128.5021468482
 21
69.2556829808
  0
LINE
  5
547
100
AcDbEntity
  8
0
100
AcDbLine
 62
7
  6
CONTINUOUS
 10
128.5021468482
 20
62.9056829808
 11
128.5021468482
 21
61.3666929808
  0
LINE
  5
548
100
AcDbEntity
  8
0
100
AcDbLine
 62
7
  6
CONTINUOUS
 10
129.0274268482
 20
50.3691969808
 11
129.0274268482
 21
52.0591969808
  0
LINE
  5
549
100
AcDbEntity
  8
7_ALL_ROUNDS
100
AcDbLine
 62
9
  6
CONTINUOUS
 10
130.386153046
 20
59.9845708737
 11
130.386153046
 21
52.5106230879
  0
LINE
  5
54A
100
AcDbEntity
  8
0
100
AcDbLine
 62
7
  6
CONTINUOUS
 10
156.2781468482
 20
61.3666929808
 11
111.2210868482
 21
61.3666929808
  0
LINE
  5
54B
100
AcDbEntity
  8
0
100
AcDbLine
 62
7
  6
CONTINUOUS
 10
156.2781468482
 20
62.9056829808
 11
111.2781468482
 21
62.9056829808
  0
LINE
  5
54C
100
AcDbEntity
  8
7_ALL_ROUNDS
100
AcDbLine
 62
9
  6
CONTINUOUS
 10
131.3860007411
 20
58.9847231785
 11
131.3860007411
 21
53.510470783
  0
LINE
  5
54D
100
AcDbEntity
  8
7_ALL_ROUNDS
100
AcDbLine
 62
7
  6
CONTINUOUS
 10
131.5783110882
 20
53.3181604359
 11
131.5783110882
 21
59.1770335256
  0
LINE
  5
54E
100
AcDbEntity
  8
0
100
AcDbLine
 62
7
  6
CONTINUOUS
 10
131.6114268482
 20
52.2851969808
 11
131.6114268482
 21
60.2099969808
  0
LINE
  5
54F
100
AcDbEntity
  8
0
100
AcDbLine
 62
7
  6
CONTINUOUS
 10
131.8274268482
 20
52.0591969808
 11
131.8274268482
 21
58.8891969808
  0
LINE
  5
550
100
AcDbEntity
  8
7_ALL_ROUNDS
100
AcDbLine
 62
9
  6
CONTINUOUS
 10
119.9605426082
 20
53.3181604359
 11
120.1528529553
 21
53.510470783
  0
LINE
  5
551
100
AcDbEntity
  8
0
100
AcDbLine
 62
7
  6
CONTINUOUS
 10
135.6774268482
 20
58.8891969808
 11
135.6774268482
 21
52.0591969808
  0
LINE
  5
552
100
AcDbEntity
  8
7_ALL_ROUNDS
100
AcDbLine
 62
9
  6
CONTINUOUS
 10
120.9603903034
 20
52.3183127408
 11
121.1527006505
 21
52.5106230879
  0
LINE
  5
553
100
AcDbEntity
  8
7_ALL_ROUNDS
100
AcDbLine
 62
9
  6
CONTINUOUS
 10
130.5784633931
 20
60.1768812208
 11
130.386153046
 21
59.9845708737
  0
LINE
  5
554
100
AcDbEntity
  8
7_ALL_ROUNDS
100
AcDbLine
 62
9
  6
CONTINUOUS
 10
131.5783110882
 20
59.1770335256
 11
131.3860007411
 21
58.9847231785
  0
LINE
  5
555
100
AcDbEntity
  8
0
100
AcDbLine
 62
7
  6
CONTINUOUS
 10
156.2781468482
 20
69.2556829808
 11
111.2781468482
 21
69.2556829808
  0
LINE
  5
556
100
AcDbEntity
  8
0
100
AcDbLine
 62
7
  6
CONTINUOUS
 10
138.4774268482
 20
52.0591969808
 11
138.4774268482
 21
50.3691969808
  0
LINE
  5
557
100
AcDbEntity
  8
0
100
AcDbLine
 62
7
  6
CONTINUOUS
 10
139.0541468482
 20
70.7946629808
 11
139.0541468482
 21
69.2556829808
  0
LINE
  5
558
100
AcDbEntity
  8
0
100
AcDbLine
 62
7
  6
CONTINUOUS
 10
139.0541468482
 20
62.9056829808
 11
139.0541468482
 21
61.3666929808
  0
LINE
  5
559
100
AcDbEntity
  8
0
100
AcDbLine
 62
7
  6
CONTINUOUS
 10
139.5974268482
 20
50.3691969808
 11
139.5974268482
 21
48.8501969808
  0
LINE
  5
55A
100
AcDbEntity
  8
7_ALL_ROUNDS
100
AcDbLine
 62
7
  6
CONTINUOUS
 10
156.2781468482
 20
70.7946629808
 11
144.1751468482
 21
70.7946629808
  0
LINE
  5
55B
100
AcDbEntity
  8
0
100
AcDbLine
 62
7
  6
CONTINUOUS
 10
144.1751468482
 20
70.7946629808
 11
123.3811468482
 21
70.7946629808
  0
LINE
  5
55C
100
AcDbEntity
  8
7_ALL_ROUNDS
100
AcDbLine
 62
7
  6
CONTINUOUS
 10
123.3811468482
 20
70.7946629808
 11
111.2781468482
 21
70.7946629808
  0
LINE
  5
55D
100
AcDbEntity
  8
0
100
AcDbLine
 62
7
  6
CONTINUOUS
 10
124.4818193519
 20
71.3256729808
 11
121.0744743445
 21
71.3256729808
  0
LINE
  5
55E
100
AcDbEntity
  8
0
100
AcDbLine
 62
7
  6
CONTINUOUS
 10
143.0744743445
 20
71.3256729808
 11
146.4818193519
 21
71.3256729808
  0
LINE
  5
55F
100
AcDbEntity
  8
7_ALL_ROUNDS
100
AcDbLine
 62
9
  6
CONTINUOUS
 10
142.1594497137
 20
83.8645829808
 11
142.1594495967
 21
83.5865791684
  0
LINE
  5
560
100
AcDbEntity
  8
0
100
AcDbLine
 62
7
  6
CONTINUOUS
 10
142.4931468482
 20
69.2556829808
 11
142.4931468482
 21
62.9056829808
  0
LINE
  5
561
100
AcDbEntity
  8
0
100
AcDbLine
 62
7
  6
CONTINUOUS
 10
143.0744743445
 20
71.3256729808
 11
143.0744743445
 21
70.7946629808
  0
LINE
  5
562
100
AcDbEntity
  8
0
100
AcDbLine
 62
7
  6
CONTINUOUS
 10
122.0853908764
 20
72.8156729808
 11
123.4708898794
 21
72.8156729808
  0
LINE
  5
563
100
AcDbEntity
  8
0
100
AcDbLine
 62
7
  6
CONTINUOUS
 10
144.0853265094
 20
72.8156729808
 11
145.4709671055
 21
72.8156729808
  0
LINE
  5
564
100
AcDbEntity
  8
7_ALL_ROUNDS
100
AcDbLine
 62
7
  6
CONTINUOUS
 10
92.3781468482
 20
75.3645829808
 11
175.1781468482
 21
75.3645829808
  0
LINE
  5
565
100
AcDbEntity
  8
0
100
AcDbLine
 62
7
  6
CONTINUOUS
 10
152.4081468497
 20
58.8846929793
 11
152.1281468501
 21
59.1646929788
  0
LINE
  5
566
100
AcDbEntity
  8
0
100
AcDbLine
 62
7
  6
CONTINUOUS
 10
143.6574268482
 20
48.8501969808
 11
143.6574268482
 21
50.3691969808
  0
LINE
  5
567
100
AcDbEntity
  8
0
100
AcDbLine
 62
7
  6
CONTINUOUS
 10
144.1751468482
 20
70.7946629808
 11
144.1751468482
 21
69.2556829808
  0
LINE
  5
568
100
AcDbEntity
  8
0
100
AcDbLine
 62
7
  6
CONTINUOUS
 10
144.1751468482
 20
62.9056829808
 11
144.1751468482
 21
61.3666929808
  0
LINE
  5
569
100
AcDbEntity
  8
0
100
AcDbLine
 62
7
  6
CONTINUOUS
 10
144.7774268482
 20
50.3691969808
 11
144.7774268482
 21
52.0591969808
  0
LINE
  5
56A
100
AcDbEntity
  8
7_ALL_ROUNDS
100
AcDbLine
 62
7
  6
CONTINUOUS
 10
92.3781468482
 20
76.8845829808
 11
175.1781468482
 21
76.8845829808
  0
LINE
  5
56B
100
AcDbEntity
  8
7_ALL_ROUNDS
100
AcDbLine
 62
9
  6
CONTINUOUS
 10
148.2008769942
 20
76.8845829808
 11
148.0095111774
 21
82.3645829808
  0
LINE
  5
56C
100
AcDbEntity
  8
0
100
AcDbLine
 62
7
  6
CONTINUOUS
 10
148.4151739489
 20
75.3645829808
 11
148.5747590718
 21
70.7946629808
  0
LINE
  5
56D
100
AcDbEntity
  8
0
100
AcDbLine
 62
7
  6
CONTINUOUS
 10
146.4818193519
 20
71.3256729808
 11
146.4818193519
 21
70.7946629808
  0
LINE
  5
56E
100
AcDbEntity
  8
0
100
AcDbLine
 62
7
  6
CONTINUOUS
 10
147.0631468482
 20
69.2556829808
 11
147.0631468482
 21
62.9056829808
  0
LINE
  5
56F
100
AcDbEntity
  8
7_ALL_ROUNDS
100
AcDbLine
 62
9
  6
CONTINUOUS
 10
147.2781468482
 20
83.5865791684
 11
147.2781468482
 21
82.3645829808
  0
LINE
  5
570
100
AcDbEntity
  8
0
100
AcDbLine
 62
7
  6
CONTINUOUS
 10
147.5774268482
 20
52.0591969808
 11
147.5774268482
 21
58.8891969808
  0
LINE
  5
571
100
AcDbEntity
  8
7_ALL_ROUNDS
100
AcDbLine
 62
7
  6
CONTINUOUS
 10
148.2781468482
 20
83.517880734
 11
148.2781468482
 21
82.3645829808
  0
LINE
  5
572
100
AcDbEntity
  8
7_ALL_ROUNDS
100
AcDbLine
 62
7
  6
CONTINUOUS
 10
150.1996586482
 20
76.8845829808
 11
150.0082928314
 21
82.3645829808
  0
LINE
  5
573
100
AcDbEntity
  8
0
100
AcDbLine
 62
7
  6
CONTINUOUS
 10
149.8824268482
 20
61.3666929808
 11
149.8824268482
 21
48.1666929808
  0
LINE
  5
574
100
AcDbEntity
  8
0
100
AcDbLine
 62
7
  6
CONTINUOUS
 10
150.8781468482
 20
69.2556829808
 11
150.8781468482
 21
62.9056829808
  0
LINE
  5
575
100
AcDbEntity
  8
0
100
AcDbLine
 62
7
  6
CONTINUOUS
 10
150.8781468482
 20
61.3666929808
 11
150.8781468482
 21
59.3666929808
  0
LINE
  5
576
100
AcDbEntity
  8
0
100
AcDbLine
 62
7
  6
CONTINUOUS
 10
152.1281468482
 20
59.3666929808
 11
152.1281468482
 21
59.1646929808
  0
LINE
  5
577
100
AcDbEntity
  8
7_ALL_ROUNDS
100
AcDbLine
 62
7
  6
CONTINUOUS
 10
117.548000865
 20
82.3645829808
 11
150.0082928314
 21
82.3645829808
  0
LINE
  5
578
100
AcDbEntity
  8
7_ALL_ROUNDS
100
AcDbLine
 62
7
  6
CONTINUOUS
 10
120.2781468482
 20
83.5865791684
 11
147.2781468482
 21
83.5865791684
  0
LINE
  5
579
100
AcDbEntity
  8
7_ALL_ROUNDS
100
AcDbLine
 62
7
  6
CONTINUOUS
 10
124.8969201351
 20
83.8645829808
 11
142.6593735613
 21
83.8645829808
  0
LINE
  5
57A
100
AcDbEntity
  8
0
100
AcDbLine
 62
7
  6
CONTINUOUS
 10
153.3781468482
 20
61.3666929808
 11
153.3781468482
 21
59.3666929808
  0
LINE
  5
57B
100
AcDbEntity
  8
0
100
AcDbLine
 62
7
  6
CONTINUOUS
 10
154.6281468482
 20
59.3666929808
 11
154.6281468482
 21
59.1646929808
  0
LINE
  5
57C
100
AcDbEntity
  8
7_ALL_ROUNDS
100
AcDbLine
 62
9
  6
CONTINUOUS
 10
153.4586079883
 20
75.3645829808
 11
153.2990228654
 21
70.7946629808
  0
LINE
  5
57D
100
AcDbEntity
  8
0
100
AcDbLine
 62
7
  6
CONTINUOUS
 10
154.3481468467
 20
58.8846929793
 11
154.6281468463
 21
59.1646929788
  0
LINE
  5
57E
100
AcDbEntity
  8
0
100
AcDbLine
 62
7
  6
CONTINUOUS
 10
155.8781468482
 20
69.2556829808
 11
155.8781468482
 21
62.9056829808
  0
LINE
  5
57F
100
AcDbEntity
  8
0
100
AcDbLine
 62
7
  6
CONTINUOUS
 10
155.8781468482
 20
61.3666929808
 11
155.8781468482
 21
59.3666929808
  0
LINE
  5
580
100
AcDbEntity
  8
0
100
AcDbLine
 62
7
  6
CONTINUOUS
 10
156.2781468482
 20
70.7946629808
 11
156.2781468482
 21
69.2556829808
  0
LINE
  5
581
100
AcDbEntity
  8
0
100
AcDbLine
 62
7
  6
CONTINUOUS
 10
156.2781468482
 20
62.9056829808
 11
156.2781468482
 21
61.3666929808
  0
LINE
  5
582
100
AcDbEntity
  8
7_ALL_ROUNDS
100
AcDbLine
 62
7
  6
CONTINUOUS
 10
156.2781768337
 20
75.3645829808
 11
156.1185917108
 21
70.7946629808
  0
LINE
  5
583
100
AcDbEntity
  8
7_ALL_ROUNDS
100
AcDbLine
 62
9
  6
CONTINUOUS
 10
172.1781468482
 20
76.8845829808
 11
172.1781468482
 21
75.3645829808
  0
LINE
  5
584
100
AcDbEntity
  8
7_ALL_ROUNDS
100
AcDbLine
 62
7
  6
CONTINUOUS
 10
175.1781468482
 20
76.8845829808
 11
175.1781468482
 21
75.3645829808
  0
LINE
  5
585
100
AcDbEntity
  8
7_ALL_ROUNDS
100
AcDbLine
 62
7
  6
CONTINUOUS
 10
66.0448596865
 20
105.580668513
 11
64.5248596865
 21
105.580668513
  0
LINE
  5
586
100
AcDbEntity
  8
7_ALL_ROUNDS
100
AcDbLine
 62
9
  6
CONTINUOUS
 10
66.0448596865
 20
108.580668513
 11
64.5248596865
 21
108.580668513
  0
LINE
  5
587
100
AcDbEntity
  8
7_ALL_ROUNDS
100
AcDbLine
 62
7
  6
CONTINUOUS
 10
66.0448596865
 20
113.459156547
 11
71.5248596865
 21
113.6505223638
  0
LINE
  5
588
100
AcDbEntity
  8
7_ALL_ROUNDS
100
AcDbLine
 62
9
  6
CONTINUOUS
 10
66.0448596865
 20
115.457938201
 11
71.5248596865
 21
115.6493040178
  0
LINE
  5
589
100
AcDbEntity
  8
7_ALL_ROUNDS
100
AcDbLine
 62
7
  6
CONTINUOUS
 10
71.5248596865
 20
115.3810068858
 11
72.7468558741
 21
115.3810068858
  0
LINE
  5
58A
100
AcDbEntity
  8
7_ALL_ROUNDS
100
AcDbLine
 62
9
  6
CONTINUOUS
 10
71.5248596865
 20
116.3810068858
 11
72.6781574397
 21
116.3810068858
  0
LINE
  5
58B
100
AcDbEntity
  8
0
100
AcDbLine
 62
7
  6
CONTINUOUS
 10
59.9549396865
 20
117.687668347
 11
58.4159596865
 21
117.687668347
  0
LINE
  5
58C
100
AcDbEntity
  8
0
100
AcDbLine
 62
7
  6
CONTINUOUS
 10
52.0659596865
 20
117.687668347
 11
50.5269696865
 21
117.687668347
  0
LINE
  5
58D
100
AcDbEntity
  8
0
100
AcDbLine
 62
7
  6
CONTINUOUS
 10
48.5059596865
 20
171.980668347
 11
49.9959596865
 21
172.930668347
  0
LINE
  5
58E
100
AcDbEntity
  8
0
100
AcDbLine
 62
7
  6
CONTINUOUS
 10
40.9939696865
 20
166.705208517
 11
40.4939696865
 21
166.455208517
  0
LINE
  5
58F
100
AcDbEntity
  8
0
100
AcDbLine
 62
7
  6
CONTINUOUS
 10
40.9939696865
 20
164.165208517
 11
40.4939696865
 21
163.915208517
  0
LINE
  5
590
100
AcDbEntity
  8
7_ALL_ROUNDS
100
AcDbLine
 62
7
  6
CONTINUOUS
 10
72.0488763274
 20
125.5410571494
 11
72.5335858898
 21
125.5495177863
  0
LINE
  5
591
100
AcDbEntity
  8
7_ALL_ROUNDS
100
AcDbLine
 62
9
  6
CONTINUOUS
 10
71.9802706236
 20
126.5397073276
 11
72.5335858898
 21
126.5493654815
  0
LINE
  5
592
100
AcDbEntity
  8
0
100
AcDbLine
 62
7
  6
CONTINUOUS
 10
59.9549396865
 20
125.646668347
 11
58.4159596865
 21
125.646668347
  0
LINE
  5
593
100
AcDbEntity
  8
0
100
AcDbLine
 62
7
  6
CONTINUOUS
 10
52.0659596865
 20
125.646668347
 11
50.5269696865
 21
125.646668347
  0
LINE
  5
594
100
AcDbEntity
  8
0
100
AcDbLine
 62
7
  6
CONTINUOUS
 10
50.5269696865
 20
125.793917001
 11
48.5269696865
 21
125.793917001
  0
LINE
  5
595
100
AcDbEntity
  8
0
100
AcDbLine
 62
7
  6
CONTINUOUS
 10
58.4159596865
 20
126.180668347
 11
52.0659596865
 21
126.180668347
  0
LINE
  5
596
100
AcDbEntity
  8
0
100
AcDbLine
 62
7
  6
CONTINUOUS
 10
64.5248596865
 20
124.9306843679
 11
59.9549396865
 21
125.0902694908
  0
LINE
  5
597
100
AcDbEntity
  8
7_ALL_ROUNDS
100
AcDbLine
 62
7
  6
CONTINUOUS
 10
64.5248596865
 20
124.9306843679
 11
59.9549396865
 21
125.0902694908
  0
LINE
  5
598
100
AcDbEntity
  8
0
100
AcDbLine
 62
7
  6
CONTINUOUS
 10
37.3269696865
 20
152.381248347
 11
37.3269696865
 21
168.131248347
  0
LINE
  5
599
100
AcDbEntity
  8
0
100
AcDbLine
 62
7
  6
CONTINUOUS
 10
53.5829696865
 20
165.994008517
 11
54.0829696865
 21
166.244008517
  0
LINE
  5
59A
100
AcDbEntity
  8
7_ALL_ROUNDS
100
AcDbLine
 62
9
  6
CONTINUOUS
 10
73.0248596865
 20
126.5493654815
 11
72.5335858898
 21
126.5493654815
  0
LINE
  5
59B
100
AcDbEntity
  8
0
100
AcDbLine
 62
7
  6
CONTINUOUS
 10
50.5269696865
 20
127.237292674
 11
48.5269696865
 21
127.237292674
  0
LINE
  5
59C
100
AcDbEntity
  8
0
100
AcDbLine
 62
7
  6
CONTINUOUS
 10
48.5269696865
 20
127.430668347
 11
48.3249696865
 21
127.430668347
  0
LINE
  5
59D
100
AcDbEntity
  8
0
100
AcDbLine
 62
7
  6
CONTINUOUS
 10
71.5248596865
 20
127.630668347
 11
71.9053233095
 21
127.630668347
  0
LINE
  5
59E
100
AcDbEntity
  8
0
100
AcDbLine
 62
7
  6
CONTINUOUS
 10
71.9053233095
 20
128.230668347
 11
71.5248596865
 21
128.230668347
  0
LINE
  5
59F
100
AcDbEntity
  8
7_ALL_ROUNDS
100
AcDbLine
 62
9
  6
CONTINUOUS
 10
64.5248596865
 20
126.5282230998
 11
59.9549396865
 21
126.6878082227
  0
LINE
  5
5A0
100
AcDbEntity
  8
0
100
AcDbLine
 62
7
  6
CONTINUOUS
 10
48.0449696865
 20
127.710668347
 11
48.3249696865
 21
127.430668347
  0
LINE
  5
5A1
100
AcDbEntity
  8
0
100
AcDbLine
 62
7
  6
CONTINUOUS
 10
40.4939696865
 20
163.704008517
 11
40.4939696865
 21
163.915208517
  0
LINE
  5
5A2
100
AcDbEntity
  8
0
100
AcDbLine
 62
7
  6
CONTINUOUS
 10
40.4939696865
 20
166.244008517
 11
40.4939696865
 21
166.455208517
  0
LINE
  5
5A3
100
AcDbEntity
  8
0
100
AcDbLine
 62
7
  6
CONTINUOUS
 10
38.3020554449
 20
152.381248347
 11
37.4117514044
 21
147.6335753043
  0
LINE
  5
5A4
100
AcDbEntity
  8
0
100
AcDbLine
 62
7
  6
CONTINUOUS
 10
38.4084740557
 20
147.6335753043
 11
39.2987780963
 21
152.381248347
  0
LINE
  5
5A5
100
AcDbEntity
  8
0
100
AcDbLine
 62
7
  6
CONTINUOUS
 10
61.9759496865
 20
170.3806697042
 11
60.4859487007
 21
169.430668347
  0
LINE
  5
5A6
100
AcDbEntity
  8
0
100
AcDbLine
 62
7
  6
CONTINUOUS
 10
53.5829696865
 20
163.454008517
 11
54.0829696865
 21
163.704008517
  0
LINE
  5
5A7
100
AcDbEntity
  8
7_ALL_ROUNDS
100
AcDbLine
 62
9
  6
CONTINUOUS
 10
64.5248596865
 20
130.8331132323
 11
59.9549396865
 21
130.6735281094
  0
LINE
  5
5A8
100
AcDbEntity
  8
0
100
AcDbLine
 62
7
  6
CONTINUOUS
 10
64.5248596865
 20
132.4306519642
 11
59.9549396865
 21
132.2710668413
  0
LINE
  5
5A9
100
AcDbEntity
  8
7_ALL_ROUNDS
100
AcDbLine
 62
7
  6
CONTINUOUS
 10
64.5248596865
 20
132.4306519642
 11
59.9549396865
 21
132.2710668413
  0
LINE
  5
5AA
100
AcDbEntity
  8
7_ALL_ROUNDS
100
AcDbLine
 62
9
  6
CONTINUOUS
 10
73.0248596865
 20
129.3119712125
 11
72.5335858898
 21
129.3119712125
  0
LINE
  5
5AB
100
AcDbEntity
  8
0
100
AcDbLine
 62
7
  6
CONTINUOUS
 10
48.5269696865
 20
129.930668347
 11
48.3249696865
 21
129.930668347
  0
LINE
  5
5AC
100
AcDbEntity
  8
0
100
AcDbLine
 62
7
  6
CONTINUOUS
 10
50.5269696865
 20
130.1240440199
 11
48.5269696865
 21
130.1240440199
  0
LINE
  5
5AD
100
AcDbEntity
  8
7_ALL_ROUNDS
100
AcDbLine
 62
7
  6
CONTINUOUS
 10
48.1449998843
 20
130.658048347
 11
42.6707474888
 21
130.658048347
  0
LINE
  5
5AE
100
AcDbEntity
  8
0
100
AcDbLine
 62
7
  6
CONTINUOUS
 10
58.4159596865
 20
131.180668347
 11
52.0659596865
 21
131.180668347
  0
LINE
  5
5AF
100
AcDbEntity
  8
0
100
AcDbLine
 62
7
  6
CONTINUOUS
 10
50.5269696865
 20
131.5674196929
 11
48.5269696865
 21
131.5674196929
  0
LINE
  5
5B0
100
AcDbEntity
  8
7_ALL_ROUNDS
100
AcDbLine
 62
9
  6
CONTINUOUS
 10
48.1449998843
 20
131.6405959405
 11
42.6707474888
 21
131.6405959405
  0
LINE
  5
5B1
100
AcDbEntity
  8
7_ALL_ROUNDS
100
AcDbLine
 62
9
  6
CONTINUOUS
 10
71.9802685548
 20
129.3216294025
 11
72.5335858898
 21
129.3119712125
  0
LINE
  5
5B2
100
AcDbEntity
  8
7_ALL_ROUNDS
100
AcDbLine
 62
7
  6
CONTINUOUS
 10
72.0488723649
 20
130.3202796137
 11
72.5335858898
 21
130.3118189076
  0
LINE
  5
5B3
100
AcDbEntity
  8
7_ALL_ROUNDS
100
AcDbLine
 62
7
  6
CONTINUOUS
 10
41.4785894465
 20
142.658048347
 11
41.6708997936
 21
131.6405959405
  0
LINE
  5
5B4
100
AcDbEntity
  8
7_ALL_ROUNDS
100
AcDbLine
 62
9
  6
CONTINUOUS
 10
42.4784371417
 20
142.658048347
 11
42.6707474888
 21
131.6405959405
  0
LINE
  5
5B5
100
AcDbEntity
  8
0
100
AcDbLine
 62
7
  6
CONTINUOUS
 10
40.9939696865
 20
163.454008517
 11
40.9939696865
 21
164.165208517
  0
LINE
  5
5B6
100
AcDbEntity
  8
0
100
AcDbLine
 62
7
  6
CONTINUOUS
 10
40.9939696865
 20
165.994008517
 11
40.9939696865
 21
166.705208517
  0
LINE
  5
5B7
100
AcDbEntity
  8
0
100
AcDbLine
 62
7
  6
CONTINUOUS
 10
41.4454736865
 20
152.381248347
 11
41.4454736865
 21
142.658048347
  0
LINE
  5
5B8
100
AcDbEntity
  8
7_ALL_ROUNDS
100
AcDbLine
 62
7
  6
CONTINUOUS
 10
42.5590428786
 20
167.619608517
 11
42.5590428786
 21
166.705208517
  0
LINE
  5
5B9
100
AcDbEntity
  8
7_ALL_ROUNDS
100
AcDbLine
 62
7
  6
CONTINUOUS
 10
42.5590428786
 20
165.994008517
 11
42.5590428786
 21
164.165208517
  0
LINE
  5
5BA
100
AcDbEntity
  8
7_ALL_ROUNDS
100
AcDbLine
 62
7
  6
CONTINUOUS
 10
42.5590428786
 20
163.454008517
 11
42.5590428786
 21
162.539608517
  0
LINE
  5
5BB
100
AcDbEntity
  8
7_ALL_ROUNDS
100
AcDbLine
 62
9
  6
CONTINUOUS
 10
42.6541643555
 20
167.619608517
 11
42.6541643555
 21
166.705208517
  0
LINE
  5
5BC
100
AcDbEntity
  8
7_ALL_ROUNDS
100
AcDbLine
 62
9
  6
CONTINUOUS
 10
42.6541643555
 20
165.994008517
 11
42.6541643555
 21
164.165208517
  0
LINE
  5
5BD
100
AcDbEntity
  8
7_ALL_ROUNDS
100
AcDbLine
 62
9
  6
CONTINUOUS
 10
42.6541643555
 20
163.454008517
 11
42.6541643555
 21
162.539608517
  0
LINE
  5
5BE
100
AcDbEntity
  8
7_ALL_ROUNDS
100
AcDbLine
 62
9
  6
CONTINUOUS
 10
42.6707474888
 20
130.658048347
 11
42.6707474888
 21
131.6405959405
  0
LINE
  5
5BF
100
AcDbEntity
  8
0
100
AcDbLine
 62
7
  6
CONTINUOUS
 10
56.0449596865
 20
164.630668347
 11
56.3449596865
 21
164.930668347
  0
LINE
  5
5C0
100
AcDbEntity
  8
7_ALL_ROUNDS
100
AcDbLine
 62
9
  6
CONTINUOUS
 10
43.8501308436
 20
167.619608517
 11
43.8501308436
 21
166.705208517
  0
LINE
  5
5C1
100
AcDbEntity
  8
7_ALL_ROUNDS
100
AcDbLine
 62
9
  6
CONTINUOUS
 10
43.8501308436
 20
165.994008517
 11
43.8501308436
 21
164.165208517
  0
LINE
  5
5C2
100
AcDbEntity
  8
7_ALL_ROUNDS
100
AcDbLine
 62
9
  6
CONTINUOUS
 10
43.8501308436
 20
163.454008517
 11
43.8501308436
 21
162.539608517
  0
LINE
  5
5C3
100
AcDbEntity
  8
7_ALL_ROUNDS
100
AcDbLine
 62
9
  6
CONTINUOUS
 10
44.3496948704
 20
167.619608517
 11
44.3496948704
 21
166.705208517
  0
LINE
  5
5C4
100
AcDbEntity
  8
7_ALL_ROUNDS
100
AcDbLine
 62
9
  6
CONTINUOUS
 10
44.3496948704
 20
165.994008517
 11
44.3496948704
 21
164.165208517
  0
LINE
  5
5C5
100
AcDbEntity
  8
7_ALL_ROUNDS
100
AcDbLine
 62
9
  6
CONTINUOUS
 10
44.3496948704
 20
163.454008517
 11
44.3496948704
 21
162.539608517
  0
LINE
  5
5C6
100
AcDbEntity
  8
0
100
AcDbLine
 62
7
  6
CONTINUOUS
 10
46.0057696865
 20
167.619608517
 11
46.0057696865
 21
166.705208517
  0
LINE
  5
5C7
100
AcDbEntity
  8
0
100
AcDbLine
 62
7
  6
CONTINUOUS
 10
46.0057696865
 20
165.994008517
 11
46.0057696865
 21
164.165208517
  0
LINE
  5
5C8
100
AcDbEntity
  8
0
100
AcDbLine
 62
7
  6
CONTINUOUS
 10
46.0057696865
 20
163.454008517
 11
46.0057696865
 21
162.539608517
  0
LINE
  5
5C9
100
AcDbEntity
  8
7_ALL_ROUNDS
100
AcDbLine
 62
7
  6
CONTINUOUS
 10
47.9869696865
 20
162.539608517
 11
47.9869696865
 21
167.619608517
  0
LINE
  5
5CA
100
AcDbEntity
  8
0
100
AcDbLine
 62
7
  6
CONTINUOUS
 10
48.0449696865
 20
127.7110028842
 11
48.0449696865
 21
129.6503338098
  0
LINE
  5
5CB
100
AcDbEntity
  8
0
100
AcDbLine
 62
7
  6
CONTINUOUS
 10
48.0494736865
 20
152.381248347
 11
48.0494736865
 21
150.818248347
  0
LINE
  5
5CC
100
AcDbEntity
  8
7_ALL_ROUNDS
100
AcDbLine
 62
9
  6
CONTINUOUS
 10
48.1449998843
 20
131.6405959405
 11
48.1449998843
 21
130.658048347
  0
LINE
  5
5CD
100
AcDbEntity
  8
0
100
AcDbLine
 62
7
  6
CONTINUOUS
 10
48.3249696865
 20
127.430668347
 11
48.3249696865
 21
129.930668347
  0
LINE
  5
5CE
100
AcDbEntity
  8
7_ALL_ROUNDS
100
AcDbLine
 62
9
  6
CONTINUOUS
 10
48.3669696865
 20
162.539608517
 11
48.3669696865
 21
167.619608517
  0
LINE
  5
5CF
100
AcDbEntity
  8
0
100
AcDbLine
 62
7
  6
CONTINUOUS
 10
48.5059596865
 20
170.3806689917
 11
48.5059596865
 21
170.780668347
  0
LINE
  5
5D0
100
AcDbEntity
  8
0
100
AcDbLine
 62
7
  6
CONTINUOUS
 10
48.5059596865
 20
171.580668347
 11
48.5059596865
 21
171.9806683066
  0
LINE
  5
5D1
100
AcDbEntity
  8
0
100
AcDbLine
 62
7
  6
CONTINUOUS
 10
48.5269696865
 20
125.793917001
 11
48.5269696865
 21
131.5674196929
  0
LINE
  5
5D2
100
AcDbEntity
  8
0
100
AcDbLine
 62
7
  6
CONTINUOUS
 10
49.3702736865
 20
150.818248347
 11
49.3702736865
 21
142.658048347
  0
LINE
  5
5D3
100
AcDbEntity
  8
7_ALL_ROUNDS
100
AcDbLine
 62
9
  6
CONTINUOUS
 10
48.3373102314
 20
142.658048347
 11
48.1449998843
 21
131.6405959405
  0
LINE
  5
5D4
100
AcDbEntity
  8
7_ALL_ROUNDS
100
AcDbLine
 62
7
  6
CONTINUOUS
 10
49.3371579265
 20
142.658048347
 11
49.1448475794
 21
131.6405959405
  0
LINE
  5
5D5
100
AcDbEntity
  8
7_ALL_ROUNDS
100
AcDbLine
 62
9
  6
CONTINUOUS
 10
72.6781593383
 20
139.480668347
 11
71.5248596865
 21
139.480668347
  0
LINE
  5
5D6
100
AcDbEntity
  8
7_ALL_ROUNDS
100
AcDbLine
 62
7
  6
CONTINUOUS
 10
72.7468558741
 20
140.480668347
 11
71.5248596865
 21
140.480668347
  0
LINE
  5
5D7
100
AcDbEntity
  8
0
100
AcDbLine
 62
7
  6
CONTINUOUS
 10
49.9959596865
 20
170.780668347
 11
49.9959595075
 21
169.430668347
  0
LINE
  5
5D8
100
AcDbEntity
  8
0
100
AcDbLine
 62
7
  6
CONTINUOUS
 10
49.9959596865
 20
171.580668347
 11
49.9959596865
 21
172.930668347
  0
LINE
  5
5D9
100
AcDbEntity
  8
0
100
AcDbLine
 62
7
  6
CONTINUOUS
 10
50.5269696865
 20
117.687668347
 11
50.5269696865
 21
175.673668347
  0
LINE
  5
5DA
100
AcDbEntity
  8
0
100
AcDbLine
 62
7
  6
CONTINUOUS
 10
52.0659596865
 20
117.687668347
 11
52.0659596865
 21
175.673668347
  0
LINE
  5
5DB
100
AcDbEntity
  8
0
100
AcDbLine
 62
7
  6
CONTINUOUS
 10
49.3702736865
 20
142.658048347
 11
41.4454736865
 21
142.658048347
  0
LINE
  5
5DC
100
AcDbEntity
  8
0
100
AcDbLine
 62
7
  6
CONTINUOUS
 10
53.5829696865
 20
166.705208517
 11
53.5829696865
 21
165.994008517
  0
LINE
  5
5DD
100
AcDbEntity
  8
0
100
AcDbLine
 62
7
  6
CONTINUOUS
 10
53.5829696865
 20
164.165208517
 11
53.5829696865
 21
163.454008517
  0
LINE
  5
5DE
100
AcDbEntity
  8
0
100
AcDbLine
 62
7
  6
CONTINUOUS
 10
54.0829696865
 20
166.455208517
 11
54.0829696865
 21
166.244008517
  0
LINE
  5
5DF
100
AcDbEntity
  8
0
100
AcDbLine
 62
7
  6
CONTINUOUS
 10
54.0829696865
 20
163.915208517
 11
54.0829696865
 21
163.704008517
  0
LINE
  5
5E0
100
AcDbEntity
  8
0
100
AcDbLine
 62
7
  6
CONTINUOUS
 10
56.0449596865
 20
162.7309960026
 11
56.0449596865
 21
164.6303406913
  0
LINE
  5
5E1
100
AcDbEntity
  8
0
100
AcDbLine
 62
7
  6
CONTINUOUS
 10
56.3449596865
 20
162.430668347
 11
56.3449596865
 21
164.930668347
  0
LINE
  5
5E2
100
AcDbEntity
  8
0
100
AcDbLine
 62
7
  6
CONTINUOUS
 10
56.4159596865
 20
160.793917001
 11
56.4159596865
 21
166.5674196929
  0
LINE
  5
5E3
100
AcDbEntity
  8
0
100
AcDbLine
 62
7
  6
CONTINUOUS
 10
58.4159596865
 20
117.687668347
 11
58.4159596865
 21
175.673668347
  0
LINE
  5
5E4
100
AcDbEntity
  8
0
100
AcDbLine
 62
7
  6
CONTINUOUS
 10
37.4117514044
 20
147.6335753043
 11
38.4084740557
 21
147.6335753043
  0
LINE
  5
5E5
100
AcDbEntity
  8
7_ALL_ROUNDS
100
AcDbLine
 62
7
  6
CONTINUOUS
 10
59.9549396865
 20
117.687668347
 11
59.9549396865
 21
125.646668347
  0
LINE
  5
5E6
100
AcDbEntity
  8
0
100
AcDbLine
 62
7
  6
CONTINUOUS
 10
59.9549396865
 20
125.646668347
 11
59.9549396865
 21
175.673668347
  0
LINE
  5
5E7
100
AcDbEntity
  8
0
100
AcDbLine
 62
7
  6
CONTINUOUS
 10
60.4859487005
 20
169.430668347
 11
60.4859496865
 21
170.780668347
  0
LINE
  5
5E8
100
AcDbEntity
  8
0
100
AcDbLine
 62
7
  6
CONTINUOUS
 10
60.4859496865
 20
172.930668347
 11
60.4859496865
 21
171.580668347
  0
LINE
  5
5E9
100
AcDbEntity
  8
0
100
AcDbLine
 62
7
  6
CONTINUOUS
 10
49.3702736865
 20
150.818248347
 11
48.0494736865
 21
150.818248347
  0
LINE
  5
5EA
100
AcDbEntity
  8
0
100
AcDbLine
 62
7
  6
CONTINUOUS
 10
50.5269696865
 20
152.381248347
 11
37.3269696865
 21
152.381248347
  0
LINE
  5
5EB
100
AcDbEntity
  8
0
100
AcDbLine
 62
7
  6
CONTINUOUS
 10
61.9759496865
 20
171.9806683059
 11
61.9759496865
 21
171.580668347
  0
LINE
  5
5EC
100
AcDbEntity
  8
0
100
AcDbLine
 62
7
  6
CONTINUOUS
 10
61.9759496865
 20
170.780668347
 11
61.9759496865
 21
170.3806697456
  0
LINE
  5
5ED
100
AcDbEntity
  8
7_ALL_ROUNDS
100
AcDbLine
 62
7
  6
CONTINUOUS
 10
64.5248596865
 20
105.580668513
 11
64.5248596865
 21
188.200668347
  0
LINE
  5
5EE
100
AcDbEntity
  8
0
100
AcDbLine
 62
7
  6
CONTINUOUS
 10
48.0449696865
 20
129.650668347
 11
48.3249696865
 21
129.930668347
  0
LINE
  5
5EF
100
AcDbEntity
  8
0
100
AcDbLine
 62
7
  6
CONTINUOUS
 10
40.9939696865
 20
163.454008517
 11
40.4939696865
 21
163.704008517
  0
LINE
  5
5F0
100
AcDbEntity
  8
7_ALL_ROUNDS
100
AcDbLine
 62
7
  6
CONTINUOUS
 10
66.0448596865
 20
188.200668347
 11
66.0448596865
 21
105.580668513
  0
LINE
  5
5F1
100
AcDbEntity
  8
0
100
AcDbLine
 62
7
  6
CONTINUOUS
 10
40.9939696865
 20
165.994008517
 11
40.4939696865
 21
166.244008517
  0
LINE
  5
5F2
100
AcDbEntity
  8
0
100
AcDbLine
 62
7
  6
CONTINUOUS
 10
56.0449596865
 20
162.730668347
 11
56.3449596865
 21
162.430668347
  0
LINE
  5
5F3
100
AcDbEntity
  8
7_ALL_ROUNDS
100
AcDbLine
 62
7
  6
CONTINUOUS
 10
71.9053233095
 20
127.630668347
 11
72.7468558741
 21
115.3810068858
  0
LINE
  5
5F4
100
AcDbEntity
  8
0
100
AcDbLine
 62
7
  6
CONTINUOUS
 10
58.4159596865
 20
160.793917001
 11
56.4159596865
 21
160.793917001
  0
LINE
  5
5F5
100
AcDbEntity
  8
0
100
AcDbLine
 62
7
  6
CONTINUOUS
 10
58.4159596865
 20
162.237292674
 11
56.4159596865
 21
162.237292674
  0
LINE
  5
5F6
100
AcDbEntity
  8
0
100
AcDbLine
 62
7
  6
CONTINUOUS
 10
64.5248596865
 20
159.9306771192
 11
59.9549396865
 21
160.0902622421
  0
LINE
  5
5F7
100
AcDbEntity
  8
7_ALL_ROUNDS
100
AcDbLine
 62
7
  6
CONTINUOUS
 10
64.5248596865
 20
159.9306771192
 11
59.9549396865
 21
160.0902622421
  0
LINE
  5
5F8
100
AcDbEntity
  8
7_ALL_ROUNDS
100
AcDbLine
 62
9
  6
CONTINUOUS
 10
64.5248596865
 20
161.5282158511
 11
59.9549396865
 21
161.687800974
  0
LINE
  5
5F9
100
AcDbEntity
  8
0
100
AcDbLine
 62
7
  6
CONTINUOUS
 10
53.5829696865
 20
164.165208517
 11
54.0829696865
 21
163.915208517
  0
LINE
  5
5FA
100
AcDbEntity
  8
7_ALL_ROUNDS
100
AcDbLine
 62
7
  6
CONTINUOUS
 10
71.5248596865
 20
179.7108143302
 11
71.5248596865
 21
113.6505223638
  0
LINE
  5
5FB
100
AcDbEntity
  8
7_ALL_ROUNDS
100
AcDbLine
 62
9
  6
CONTINUOUS
 10
72.5335858898
 20
129.3119712125
 11
72.5335858898
 21
126.5493654815
  0
LINE
  5
5FC
100
AcDbEntity
  8
7_ALL_ROUNDS
100
AcDbLine
 62
7
  6
CONTINUOUS
 10
73.0248596865
 20
129.8118950601
 11
73.0248596865
 21
126.0494416339
  0
LINE
  5
5FD
100
AcDbEntity
  8
7_ALL_ROUNDS
100
AcDbLine
 62
7
  6
CONTINUOUS
 10
72.7468558741
 20
140.480668347
 11
71.9053233095
 21
128.230668347
  0
LINE
  5
5FE
100
AcDbEntity
  8
0
100
AcDbLine
 62
7
  6
CONTINUOUS
 10
56.4159596865
 20
162.430668347
 11
56.3449596865
 21
162.430668347
  0
LINE
  5
5FF
100
AcDbEntity
  8
7_ALL_ROUNDS
100
AcDbLine
 62
7
  6
CONTINUOUS
 10
42.5590716272
 20
162.539608517
 11
50.5269696865
 21
162.539608517
  0
LINE
  5
600
100
AcDbEntity
  8
0
100
AcDbLine
 62
7
  6
CONTINUOUS
 10
53.5829696865
 20
163.454008517
 11
52.0659596865
 21
163.454008517
  0
LINE
  5
601
100
AcDbEntity
  8
0
100
AcDbLine
 62
7
  6
CONTINUOUS
 10
47.9869696865
 20
163.454008517
 11
40.9939696865
 21
163.454008517
  0
LINE
  5
602
100
AcDbEntity
  8
0
100
AcDbLine
 62
7
  6
CONTINUOUS
 10
53.5829696865
 20
164.165208517
 11
52.0659596865
 21
164.165208517
  0
LINE
  5
603
100
AcDbEntity
  8
0
100
AcDbLine
 62
7
  6
CONTINUOUS
 10
47.9869696865
 20
164.165208517
 11
40.9939696865
 21
164.165208517
  0
LINE
  5
604
100
AcDbEntity
  8
0
100
AcDbLine
 62
7
  6
CONTINUOUS
 10
56.4159596865
 20
164.930668347
 11
56.3449596865
 21
164.930668347
  0
LINE
  5
605
100
AcDbEntity
  8
0
100
AcDbLine
 62
7
  6
CONTINUOUS
 10
58.4159596865
 20
165.1240440199
 11
56.4159596865
 21
165.1240440199
  0
LINE
  5
606
100
AcDbEntity
  8
0
100
AcDbLine
 62
7
  6
CONTINUOUS
 10
53.5829696865
 20
166.705208517
 11
54.0829696865
 21
166.455208517
  0
LINE
  5
607
100
AcDbEntity
  8
0
100
AcDbLine
 62
7
  6
CONTINUOUS
 10
48.5059596865
 20
170.3806689618
 11
49.9959595079
 21
169.430668347
  0
LINE
  5
608
100
AcDbEntity
  8
7_ALL_ROUNDS
100
AcDbLine
 62
9
  6
CONTINUOUS
 10
64.5248596865
 20
165.8331059836
 11
59.9549396865
 21
165.6735208607
  0
LINE
  5
609
100
AcDbEntity
  8
0
100
AcDbLine
 62
7
  6
CONTINUOUS
 10
64.5248596865
 20
167.4306447155
 11
59.9549396865
 21
167.2710595926
  0
LINE
  5
60A
100
AcDbEntity
  8
7_ALL_ROUNDS
100
AcDbLine
 62
7
  6
CONTINUOUS
 10
64.5248596865
 20
167.4306447155
 11
59.9549396865
 21
167.2710595926
  0
LINE
  5
60B
100
AcDbEntity
  8
0
100
AcDbLine
 62
7
  6
CONTINUOUS
 10
53.5829696865
 20
165.994008517
 11
52.0659596865
 21
165.994008517
  0
LINE
  5
60C
100
AcDbEntity
  8
0
100
AcDbLine
 62
7
  6
CONTINUOUS
 10
47.9869696865
 20
165.994008517
 11
40.9939696865
 21
165.994008517
  0
LINE
  5
60D
100
AcDbEntity
  8
0
100
AcDbLine
 62
7
  6
CONTINUOUS
 10
58.4159596865
 20
166.5674196929
 11
56.4159596865
 21
166.5674196929
  0
LINE
  5
60E
100
AcDbEntity
  8
0
100
AcDbLine
 62
7
  6
CONTINUOUS
 10
53.5829696865
 20
166.705208517
 11
52.0659596865
 21
166.705208517
  0
LINE
  5
60F
100
AcDbEntity
  8
0
100
AcDbLine
 62
7
  6
CONTINUOUS
 10
47.9869696865
 20
166.705208517
 11
40.9939696865
 21
166.705208517
  0
LINE
  5
610
100
AcDbEntity
  8
7_ALL_ROUNDS
100
AcDbLine
 62
7
  6
CONTINUOUS
 10
42.5590716272
 20
167.619608517
 11
50.5269696865
 21
167.619608517
  0
LINE
  5
611
100
AcDbEntity
  8
0
100
AcDbLine
 62
7
  6
CONTINUOUS
 10
59.9549396865
 20
167.714668347
 11
58.4159596865
 21
167.714668347
  0
LINE
  5
612
100
AcDbEntity
  8
0
100
AcDbLine
 62
7
  6
CONTINUOUS
 10
52.0659596865
 20
167.714668347
 11
50.5269696865
 21
167.714668347
  0
LINE
  5
613
100
AcDbEntity
  8
0
100
AcDbLine
 62
7
  6
CONTINUOUS
 10
50.5269696865
 20
168.131248347
 11
37.3269696865
 21
168.131248347
  0
LINE
  5
614
100
AcDbEntity
  8
0
100
AcDbLine
 62
7
  6
CONTINUOUS
 10
58.4159596865
 20
168.895668347
 11
52.0659596865
 21
168.895668347
  0
LINE
  5
615
100
AcDbEntity
  8
0
100
AcDbLine
 62
7
  6
CONTINUOUS
 10
60.4859487007
 20
169.430668347
 11
59.9549396865
 21
169.430668347
  0
LINE
  5
616
100
AcDbEntity
  8
0
100
AcDbLine
 62
7
  6
CONTINUOUS
 10
50.5269696865
 20
169.430668347
 11
49.9959595079
 21
169.430668347
  0
LINE
  5
617
100
AcDbEntity
  8
0
100
AcDbLine
 62
7
  6
CONTINUOUS
 10
48.5059596865
 20
170.780668347
 11
50.5269696865
 21
170.780668347
  0
LINE
  5
618
100
AcDbEntity
  8
0
100
AcDbLine
 62
7
  6
CONTINUOUS
 10
59.9549396865
 20
170.780668347
 11
61.9759496865
 21
170.780668347
  0
LINE
  5
619
100
AcDbEntity
  8
0
100
AcDbLine
 62
7
  6
CONTINUOUS
 10
61.9759496865
 20
171.580668347
 11
59.9549396865
 21
171.580668347
  0
LINE
  5
61A
100
AcDbEntity
  8
0
100
AcDbLine
 62
7
  6
CONTINUOUS
 10
50.5269696865
 20
171.580668347
 11
48.5059596865
 21
171.580668347
  0
LINE
  5
61B
100
AcDbEntity
  8
0
100
AcDbLine
 62
7
  6
CONTINUOUS
 10
60.4859496865
 20
172.930668347
 11
59.9549396865
 21
172.930668347
  0
LINE
  5
61C
100
AcDbEntity
  8
0
100
AcDbLine
 62
7
  6
CONTINUOUS
 10
50.5269696865
 20
172.930668347
 11
49.9959596865
 21
172.930668347
  0
LINE
  5
61D
100
AcDbEntity
  8
0
100
AcDbLine
 62
7
  6
CONTINUOUS
 10
58.4159596865
 20
173.465668347
 11
52.0659596865
 21
173.465668347
  0
LINE
  5
61E
100
AcDbEntity
  8
0
100
AcDbLine
 62
7
  6
CONTINUOUS
 10
61.9759496865
 20
171.980668347
 11
60.4859496865
 21
172.930668347
  0
LINE
  5
61F
100
AcDbEntity
  8
0
100
AcDbLine
 62
7
  6
CONTINUOUS
 10
59.9549396865
 20
175.673668347
 11
58.4159596865
 21
175.673668347
  0
LINE
  5
620
100
AcDbEntity
  8
0
100
AcDbLine
 62
7
  6
CONTINUOUS
 10
52.0659596865
 20
175.673668347
 11
50.5269696865
 21
175.673668347
  0
LINE
  5
621
100
AcDbEntity
  8
7_ALL_ROUNDS
100
AcDbLine
 62
9
  6
CONTINUOUS
 10
66.0448596865
 20
177.9033984929
 11
71.5248596865
 21
177.7120326761
  0
LINE
  5
622
100
AcDbEntity
  8
7_ALL_ROUNDS
100
AcDbLine
 62
7
  6
CONTINUOUS
 10
66.0448596865
 20
179.902180147
 11
71.5248596865
 21
179.7108143302
  0
LINE
  5
623
100
AcDbEntity
  8
7_ALL_ROUNDS
100
AcDbLine
 62
9
  6
CONTINUOUS
 10
66.0448596865
 20
185.200668347
 11
64.5248596865
 21
185.200668347
  0
LINE
  5
624
100
AcDbEntity
  8
7_ALL_ROUNDS
100
AcDbLine
 62
7
  6
CONTINUOUS
 10
66.0448596865
 20
188.200668347
 11
64.5248596865
 21
188.200668347
  0
LINE
  5
625
100
AcDbEntity
  8
7_ALL_ROUNDS
100
AcDbLine
 62
7
  6
CONTINUOUS
 10
237.2873753245
 20
105.580668513
 11
238.8073753245
 21
105.580668513
  0
LINE
  5
626
100
AcDbEntity
  8
7_ALL_ROUNDS
100
AcDbLine
 62
9
  6
CONTINUOUS
 10
237.2873753245
 20
108.580668513
 11
238.8073753245
 21
108.580668513
  0
LINE
  5
627
100
AcDbEntity
  8
7_ALL_ROUNDS
100
AcDbLine
 62
7
  6
CONTINUOUS
 10
237.2873753245
 20
113.459156547
 11
231.8073753245
 21
113.6505223638
  0
LINE
  5
628
100
AcDbEntity
  8
7_ALL_ROUNDS
100
AcDbLine
 62
7
  6
CONTINUOUS
 10
230.5853791369
 20
115.3810068858
 11
231.8073753245
 21
115.3810068858
  0
LINE
  5
629
100
AcDbEntity
  8
7_ALL_ROUNDS
100
AcDbLine
 62
9
  6
CONTINUOUS
 10
230.6540775713
 20
116.3810068858
 11
231.8073753245
 21
116.3810068858
  0
LINE
  5
62A
100
AcDbEntity
  8
7_ALL_ROUNDS
100
AcDbLine
 62
9
  6
CONTINUOUS
 10
237.2873753245
 20
115.457938201
 11
231.8073753245
 21
115.6493040178
  0
LINE
  5
62B
100
AcDbEntity
  8
0
100
AcDbLine
 62
7
  6
CONTINUOUS
 10
243.3772953245
 20
117.687668347
 11
244.9162753245
 21
117.687668347
  0
LINE
  5
62C
100
AcDbEntity
  8
0
100
AcDbLine
 62
7
  6
CONTINUOUS
 10
251.2662753245
 20
117.687668347
 11
252.8052653245
 21
117.687668347
  0
LINE
  5
62D
100
AcDbEntity
  8
0
100
AcDbLine
 62
7
  6
CONTINUOUS
 10
241.3562853245
 20
171.980668347
 11
242.8462853245
 21
172.930668347
  0
LINE
  5
62E
100
AcDbEntity
  8
7_ALL_ROUNDS
100
AcDbLine
 62
7
  6
CONTINUOUS
 10
238.8073753245
 20
124.9306843679
 11
243.3772953245
 21
125.0902694908
  0
LINE
  5
62F
100
AcDbEntity
  8
0
100
AcDbLine
 62
7
  6
CONTINUOUS
 10
238.8073753245
 20
124.9306843679
 11
243.3772953245
 21
125.0902694908
  0
LINE
  5
630
100
AcDbEntity
  8
0
100
AcDbLine
 62
7
  6
CONTINUOUS
 10
243.3772953245
 20
125.646668347
 11
244.9162753245
 21
125.646668347
  0
LINE
  5
631
100
AcDbEntity
  8
0
100
AcDbLine
 62
7
  6
CONTINUOUS
 10
251.2662753245
 20
125.646668347
 11
252.8052653245
 21
125.646668347
  0
LINE
  5
632
100
AcDbEntity
  8
0
100
AcDbLine
 62
7
  6
CONTINUOUS
 10
252.8052653245
 20
125.793917001
 11
254.8052653245
 21
125.793917001
  0
LINE
  5
633
100
AcDbEntity
  8
0
100
AcDbLine
 62
7
  6
CONTINUOUS
 10
244.9162753245
 20
126.180668347
 11
251.2662753245
 21
126.180668347
  0
LINE
  5
634
100
AcDbEntity
  8
7_ALL_ROUNDS
100
AcDbLine
 62
7
  6
CONTINUOUS
 10
231.2833586837
 20
125.5410571494
 11
230.7986491213
 21
125.5495177863
  0
LINE
  5
635
100
AcDbEntity
  8
7_ALL_ROUNDS
100
AcDbLine
 62
9
  6
CONTINUOUS
 10
231.3519643875
 20
126.5397073276
 11
230.7986491213
 21
126.5493654815
  0
LINE
  5
636
100
AcDbEntity
  8
7_ALL_ROUNDS
100
AcDbLine
 62
7
  6
CONTINUOUS
 10
231.4269117015
 20
128.230668347
 11
230.5853791369
 21
140.480668347
  0
LINE
  5
637
100
AcDbEntity
  8
7_ALL_ROUNDS
100
AcDbLine
 62
7
  6
CONTINUOUS
 10
230.3073753245
 20
126.0494416339
 11
230.3073753245
 21
129.8118950601
  0
LINE
  5
638
100
AcDbEntity
  8
7_ALL_ROUNDS
100
AcDbLine
 62
9
  6
CONTINUOUS
 10
238.8073753245
 20
126.5282230998
 11
243.3772953245
 21
126.6878082227
  0
LINE
  5
639
100
AcDbEntity
  8
7_ALL_ROUNDS
100
AcDbLine
 62
9
  6
CONTINUOUS
 10
230.3073753245
 20
126.5493654815
 11
230.7986491213
 21
126.5493654815
  0
LINE
  5
63A
100
AcDbEntity
  8
0
100
AcDbLine
 62
7
  6
CONTINUOUS
 10
252.8052653245
 20
127.237292674
 11
254.8052653245
 21
127.237292674
  0
LINE
  5
63B
100
AcDbEntity
  8
0
100
AcDbLine
 62
7
  6
CONTINUOUS
 10
254.8052653245
 20
127.430668347
 11
255.0072653245
 21
127.430668347
  0
LINE
  5
63C
100
AcDbEntity
  8
0
100
AcDbLine
 62
7
  6
CONTINUOUS
 10
231.8073753245
 20
127.630668347
 11
231.4269117015
 21
127.630668347
  0
LINE
  5
63D
100
AcDbEntity
  8
0
100
AcDbLine
 62
7
  6
CONTINUOUS
 10
231.4269117015
 20
128.230668347
 11
231.8073753245
 21
128.230668347
  0
LINE
  5
63E
100
AcDbEntity
  8
7_ALL_ROUNDS
100
AcDbLine
 62
9
  6
CONTINUOUS
 10
230.7986491213
 20
126.5493654815
 11
230.7986491213
 21
129.3119712125
  0
LINE
  5
63F
100
AcDbEntity
  8
7_ALL_ROUNDS
100
AcDbLine
 62
7
  6
CONTINUOUS
 10
231.8073753245
 20
113.6505223638
 11
231.8073753245
 21
179.7108143302
  0
LINE
  5
640
100
AcDbEntity
  8
7_ALL_ROUNDS
100
AcDbLine
 62
7
  6
CONTINUOUS
 10
230.5853791369
 20
115.3810068858
 11
231.4269117015
 21
127.630668347
  0
LINE
  5
641
100
AcDbEntity
  8
0
100
AcDbLine
 62
7
  6
CONTINUOUS
 10
254.8262753245
 20
170.3806689618
 11
253.3362755032
 21
169.430668347
  0
LINE
  5
642
100
AcDbEntity
  8
0
100
AcDbLine
 62
7
  6
CONTINUOUS
 10
249.7492653245
 20
166.705208517
 11
249.2492653245
 21
166.455208517
  0
LINE
  5
643
100
AcDbEntity
  8
0
100
AcDbLine
 62
7
  6
CONTINUOUS
 10
249.7492653245
 20
164.165208517
 11
249.2492653245
 21
163.915208517
  0
LINE
  5
644
100
AcDbEntity
  8
7_ALL_ROUNDS
100
AcDbLine
 62
9
  6
CONTINUOUS
 10
231.3519664562
 20
129.3216294025
 11
230.7986491213
 21
129.3119712125
  0
LINE
  5
645
100
AcDbEntity
  8
7_ALL_ROUNDS
100
AcDbLine
 62
7
  6
CONTINUOUS
 10
231.2833626462
 20
130.3202796137
 11
230.7986491213
 21
130.3118189076
  0
LINE
  5
646
100
AcDbEntity
  8
7_ALL_ROUNDS
100
AcDbLine
 62
9
  6
CONTINUOUS
 10
230.3073753245
 20
129.3119712125
 11
230.7986491213
 21
129.3119712125
  0
LINE
  5
647
100
AcDbEntity
  8
0
100
AcDbLine
 62
7
  6
CONTINUOUS
 10
254.8052653245
 20
129.930668347
 11
255.0072653245
 21
129.930668347
  0
LINE
  5
648
100
AcDbEntity
  8
0
100
AcDbLine
 62
7
  6
CONTINUOUS
 10
252.8052653245
 20
130.1240440199
 11
254.8052653245
 21
130.1240440199
  0
LINE
  5
649
100
AcDbEntity
  8
7_ALL_ROUNDS
100
AcDbLine
 62
7
  6
CONTINUOUS
 10
255.1872351268
 20
130.658048347
 11
260.6614875223
 21
130.658048347
  0
LINE
  5
64A
100
AcDbEntity
  8
0
100
AcDbLine
 62
7
  6
CONTINUOUS
 10
244.9162753245
 20
131.180668347
 11
251.2662753245
 21
131.180668347
  0
LINE
  5
64B
100
AcDbEntity
  8
0
100
AcDbLine
 62
7
  6
CONTINUOUS
 10
252.8052653245
 20
131.5674196929
 11
254.8052653245
 21
131.5674196929
  0
LINE
  5
64C
100
AcDbEntity
  8
7_ALL_ROUNDS
100
AcDbLine
 62
9
  6
CONTINUOUS
 10
255.1872351268
 20
131.6405959405
 11
260.6614875223
 21
131.6405959405
  0
LINE
  5
64D
100
AcDbEntity
  8
7_ALL_ROUNDS
100
AcDbLine
 62
9
  6
CONTINUOUS
 10
238.8073753245
 20
130.8331132323
 11
243.3772953245
 21
130.6735281094
  0
LINE
  5
64E
100
AcDbEntity
  8
7_ALL_ROUNDS
100
AcDbLine
 62
7
  6
CONTINUOUS
 10
238.8073753245
 20
132.4306519642
 11
243.3772953245
 21
132.2710668413
  0
LINE
  5
64F
100
AcDbEntity
  8
0
100
AcDbLine
 62
7
  6
CONTINUOUS
 10
238.8073753245
 20
132.4306519642
 11
243.3772953245
 21
132.2710668413
  0
LINE
  5
650
100
AcDbEntity
  8
0
100
AcDbLine
 62
7
  6
CONTINUOUS
 10
247.2872753245
 20
162.730668347
 11
246.9872753245
 21
162.430668347
  0
LINE
  5
651
100
AcDbEntity
  8
7_ALL_ROUNDS
100
AcDbLine
 62
7
  6
CONTINUOUS
 10
237.2873753245
 20
105.580668513
 11
237.2873753245
 21
188.200668347
  0
LINE
  5
652
100
AcDbEntity
  8
7_ALL_ROUNDS
100
AcDbLine
 62
7
  6
CONTINUOUS
 10
238.8073753245
 20
105.580668513
 11
238.8073753245
 21
188.200668347
  0
LINE
  5
653
100
AcDbEntity
  8
0
100
AcDbLine
 62
7
  6
CONTINUOUS
 10
241.3562853245
 20
170.3806683881
 11
241.3562853245
 21
170.780668347
  0
LINE
  5
654
100
AcDbEntity
  8
0
100
AcDbLine
 62
7
  6
CONTINUOUS
 10
241.3562853245
 20
171.580668347
 11
241.3562853245
 21
171.9806683059
  0
LINE
  5
655
100
AcDbEntity
  8
7_ALL_ROUNDS
100
AcDbLine
 62
9
  6
CONTINUOUS
 10
231.8073753245
 20
139.480668347
 11
230.6540756728
 21
139.480668347
  0
LINE
  5
656
100
AcDbEntity
  8
7_ALL_ROUNDS
100
AcDbLine
 62
7
  6
CONTINUOUS
 10
231.8073753245
 20
140.480668347
 11
230.5853791369
 21
140.480668347
  0
LINE
  5
657
100
AcDbEntity
  8
0
100
AcDbLine
 62
7
  6
CONTINUOUS
 10
255.2872653245
 20
129.650668347
 11
255.0072653245
 21
129.930668347
  0
LINE
  5
658
100
AcDbEntity
  8
0
100
AcDbLine
 62
7
  6
CONTINUOUS
 10
242.8462853245
 20
169.430668347
 11
242.8462853245
 21
170.780668347
  0
LINE
  5
659
100
AcDbEntity
  8
0
100
AcDbLine
 62
7
  6
CONTINUOUS
 10
242.8462853245
 20
171.580668347
 11
242.8462853245
 21
172.930668347
  0
LINE
  5
65A
100
AcDbEntity
  8
0
100
AcDbLine
 62
7
  6
CONTINUOUS
 10
243.3772953245
 20
175.673668347
 11
243.3772953245
 21
125.646668347
  0
LINE
  5
65B
100
AcDbEntity
  8
7_ALL_ROUNDS
100
AcDbLine
 62
7
  6
CONTINUOUS
 10
243.3772953245
 20
125.646668347
 11
243.3772953245
 21
117.687668347
  0
LINE
  5
65C
100
AcDbEntity
  8
0
100
AcDbLine
 62
7
  6
CONTINUOUS
 10
244.9162753245
 20
175.673668347
 11
244.9162753245
 21
117.687668347
  0
LINE
  5
65D
100
AcDbEntity
  8
0
100
AcDbLine
 62
7
  6
CONTINUOUS
 10
261.8867613245
 20
142.658048347
 11
253.9619613245
 21
142.658048347
  0
LINE
  5
65E
100
AcDbEntity
  8
0
100
AcDbLine
 62
7
  6
CONTINUOUS
 10
246.9162753245
 20
166.5674196929
 11
246.9162753245
 21
160.793917001
  0
LINE
  5
65F
100
AcDbEntity
  8
0
100
AcDbLine
 62
7
  6
CONTINUOUS
 10
246.9872753245
 20
164.930668347
 11
246.9872753245
 21
162.430668347
  0
LINE
  5
660
100
AcDbEntity
  8
0
100
AcDbLine
 62
7
  6
CONTINUOUS
 10
247.2872753245
 20
164.6303406913
 11
247.2872753245
 21
162.7309960026
  0
LINE
  5
661
100
AcDbEntity
  8
0
100
AcDbLine
 62
7
  6
CONTINUOUS
 10
249.2492653245
 20
163.704008517
 11
249.2492653245
 21
163.915208517
  0
LINE
  5
662
100
AcDbEntity
  8
0
100
AcDbLine
 62
7
  6
CONTINUOUS
 10
249.2492653245
 20
166.244008517
 11
249.2492653245
 21
166.455208517
  0
LINE
  5
663
100
AcDbEntity
  8
0
100
AcDbLine
 62
7
  6
CONTINUOUS
 10
249.7492653245
 20
163.454008517
 11
249.7492653245
 21
164.165208517
  0
LINE
  5
664
100
AcDbEntity
  8
0
100
AcDbLine
 62
7
  6
CONTINUOUS
 10
249.7492653245
 20
165.994008517
 11
249.7492653245
 21
166.705208517
  0
LINE
  5
665
100
AcDbEntity
  8
0
100
AcDbLine
 62
7
  6
CONTINUOUS
 10
251.2662753245
 20
175.673668347
 11
251.2662753245
 21
117.687668347
  0
LINE
  5
666
100
AcDbEntity
  8
0
100
AcDbLine
 62
7
  6
CONTINUOUS
 10
265.9204836067
 20
147.6335753043
 11
264.9237609554
 21
147.6335753043
  0
LINE
  5
667
100
AcDbEntity
  8
7_ALL_ROUNDS
100
AcDbLine
 62
7
  6
CONTINUOUS
 10
253.9950770845
 20
142.658048347
 11
254.1873874316
 21
131.6405959405
  0
LINE
  5
668
100
AcDbEntity
  8
0
100
AcDbLine
 62
7
  6
CONTINUOUS
 10
252.8052653245
 20
175.673668347
 11
252.8052653245
 21
117.687668347
  0
LINE
  5
669
100
AcDbEntity
  8
0
100
AcDbLine
 62
7
  6
CONTINUOUS
 10
253.3362753245
 20
172.930668347
 11
253.3362753245
 21
171.580668347
  0
LINE
  5
66A
100
AcDbEntity
  8
0
100
AcDbLine
 62
7
  6
CONTINUOUS
 10
253.3362755035
 20
169.430668347
 11
253.3362753245
 21
170.780668347
  0
LINE
  5
66B
100
AcDbEntity
  8
0
100
AcDbLine
 62
7
  6
CONTINUOUS
 10
253.9619613245
 20
150.818248347
 11
253.9619613245
 21
142.658048347
  0
LINE
  5
66C
100
AcDbEntity
  8
0
100
AcDbLine
 62
7
  6
CONTINUOUS
 10
255.2827613245
 20
150.818248347
 11
253.9619613245
 21
150.818248347
  0
LINE
  5
66D
100
AcDbEntity
  8
0
100
AcDbLine
 62
7
  6
CONTINUOUS
 10
252.8052653245
 20
152.381248347
 11
266.0052653245
 21
152.381248347
  0
LINE
  5
66E
100
AcDbEntity
  8
7_ALL_ROUNDS
100
AcDbLine
 62
9
  6
CONTINUOUS
 10
254.9949247797
 20
142.658048347
 11
255.1872351268
 21
131.6405959405
  0
LINE
  5
66F
100
AcDbEntity
  8
0
100
AcDbLine
 62
7
  6
CONTINUOUS
 10
254.8052653245
 20
131.5674196929
 11
254.8052653245
 21
125.793917001
  0
LINE
  5
670
100
AcDbEntity
  8
0
100
AcDbLine
 62
7
  6
CONTINUOUS
 10
254.8262753245
 20
171.9806683066
 11
254.8262753245
 21
171.580668347
  0
LINE
  5
671
100
AcDbEntity
  8
0
100
AcDbLine
 62
7
  6
CONTINUOUS
 10
254.8262753245
 20
170.780668347
 11
254.8262753245
 21
170.3806689917
  0
LINE
  5
672
100
AcDbEntity
  8
0
100
AcDbLine
 62
7
  6
CONTINUOUS
 10
255.0072653245
 20
129.930668347
 11
255.0072653245
 21
127.430668347
  0
LINE
  5
673
100
AcDbEntity
  8
7_ALL_ROUNDS
100
AcDbLine
 62
9
  6
CONTINUOUS
 10
255.1872351268
 20
130.658048347
 11
255.1872351268
 21
131.6405959405
  0
LINE
  5
674
100
AcDbEntity
  8
0
100
AcDbLine
 62
7
  6
CONTINUOUS
 10
255.2827613245
 20
152.381248347
 11
255.2827613245
 21
150.818248347
  0
LINE
  5
675
100
AcDbEntity
  8
0
100
AcDbLine
 62
7
  6
CONTINUOUS
 10
255.2872653245
 20
129.6503338098
 11
255.2872653245
 21
127.7110028842
  0
LINE
  5
676
100
AcDbEntity
  8
0
100
AcDbLine
 62
7
  6
CONTINUOUS
 10
247.2872753245
 20
164.630668347
 11
246.9872753245
 21
164.930668347
  0
LINE
  5
677
100
AcDbEntity
  8
7_ALL_ROUNDS
100
AcDbLine
 62
9
  6
CONTINUOUS
 10
260.6614875223
 20
131.6405959405
 11
260.6614875223
 21
130.658048347
  0
LINE
  5
678
100
AcDbEntity
  8
0
100
AcDbLine
 62
7
  6
CONTINUOUS
 10
261.8867613245
 20
142.658048347
 11
261.8867613245
 21
152.381248347
  0
LINE
  5
679
100
AcDbEntity
  8
7_ALL_ROUNDS
100
AcDbLine
 62
9
  6
CONTINUOUS
 10
260.8537978694
 20
142.658048347
 11
260.6614875223
 21
131.6405959405
  0
LINE
  5
67A
100
AcDbEntity
  8
7_ALL_ROUNDS
100
AcDbLine
 62
7
  6
CONTINUOUS
 10
261.8536455645
 20
142.658048347
 11
261.6613352174
 21
131.6405959405
  0
LINE
  5
67B
100
AcDbEntity
  8
7_ALL_ROUNDS
100
AcDbLine
 62
7
  6
CONTINUOUS
 10
238.8073753245
 20
159.9306771192
 11
243.3772953245
 21
160.0902622421
  0
LINE
  5
67C
100
AcDbEntity
  8
0
100
AcDbLine
 62
7
  6
CONTINUOUS
 10
238.8073753245
 20
159.9306771192
 11
243.3772953245
 21
160.0902622421
  0
LINE
  5
67D
100
AcDbEntity
  8
7_ALL_ROUNDS
100
AcDbLine
 62
9
  6
CONTINUOUS
 10
238.8073753245
 20
161.5282158511
 11
243.3772953245
 21
161.687800974
  0
LINE
  5
67E
100
AcDbEntity
  8
0
100
AcDbLine
 62
7
  6
CONTINUOUS
 10
244.9162753245
 20
160.793917001
 11
246.9162753245
 21
160.793917001
  0
LINE
  5
67F
100
AcDbEntity
  8
0
100
AcDbLine
 62
7
  6
CONTINUOUS
 10
244.9162753245
 20
162.237292674
 11
246.9162753245
 21
162.237292674
  0
LINE
  5
680
100
AcDbEntity
  8
0
100
AcDbLine
 62
7
  6
CONTINUOUS
 10
266.0052653245
 20
168.131248347
 11
266.0052653245
 21
152.381248347
  0
LINE
  5
681
100
AcDbEntity
  8
0
100
AcDbLine
 62
7
  6
CONTINUOUS
 10
246.9162753245
 20
162.430668347
 11
246.9872753245
 21
162.430668347
  0
LINE
  5
682
100
AcDbEntity
  8
0
100
AcDbLine
 62
7
  6
CONTINUOUS
 10
249.7492653245
 20
163.454008517
 11
251.2662753245
 21
163.454008517
  0
LINE
  5
683
100
AcDbEntity
  8
0
100
AcDbLine
 62
7
  6
CONTINUOUS
 10
249.7492653245
 20
164.165208517
 11
251.2662753245
 21
164.165208517
  0
LINE
  5
684
100
AcDbEntity
  8
0
100
AcDbLine
 62
7
  6
CONTINUOUS
 10
246.9162753245
 20
164.930668347
 11
246.9872753245
 21
164.930668347
  0
LINE
  5
685
100
AcDbEntity
  8
0
100
AcDbLine
 62
7
  6
CONTINUOUS
 10
244.9162753245
 20
165.1240440199
 11
246.9162753245
 21
165.1240440199
  0
LINE
  5
686
100
AcDbEntity
  8
0
100
AcDbLine
 62
7
  6
CONTINUOUS
 10
249.7492653245
 20
163.454008517
 11
249.2492653245
 21
163.704008517
  0
LINE
  5
687
100
AcDbEntity
  8
0
100
AcDbLine
 62
7
  6
CONTINUOUS
 10
249.7492653245
 20
165.994008517
 11
249.2492653245
 21
166.244008517
  0
LINE
  5
688
100
AcDbEntity
  8
0
100
AcDbLine
 62
7
  6
CONTINUOUS
 10
241.3562853245
 20
170.380668347
 11
242.8462853245
 21
169.430668347
  0
LINE
  5
689
100
AcDbEntity
  8
0
100
AcDbLine
 62
7
  6
CONTINUOUS
 10
264.9237609554
 20
147.6335753043
 11
264.0334569148
 21
152.381248347
  0
LINE
  5
68A
100
AcDbEntity
  8
0
100
AcDbLine
 62
7
  6
CONTINUOUS
 10
265.0301795661
 20
152.381248347
 11
265.9204836067
 21
147.6335753043
  0
LINE
  5
68B
100
AcDbEntity
  8
0
100
AcDbLine
 62
7
  6
CONTINUOUS
 10
255.2872653245
 20
127.710668347
 11
255.0072653245
 21
127.430668347
  0
LINE
  5
68C
100
AcDbEntity
  8
0
100
AcDbLine
 62
7
  6
CONTINUOUS
 10
249.7492653245
 20
165.994008517
 11
251.2662753245
 21
165.994008517
  0
LINE
  5
68D
100
AcDbEntity
  8
0
100
AcDbLine
 62
7
  6
CONTINUOUS
 10
244.9162753245
 20
166.5674196929
 11
246.9162753245
 21
166.5674196929
  0
LINE
  5
68E
100
AcDbEntity
  8
0
100
AcDbLine
 62
7
  6
CONTINUOUS
 10
249.7492653245
 20
166.705208517
 11
251.2662753245
 21
166.705208517
  0
LINE
  5
68F
100
AcDbEntity
  8
0
100
AcDbLine
 62
7
  6
CONTINUOUS
 10
243.3772953245
 20
167.714668347
 11
244.9162753245
 21
167.714668347
  0
LINE
  5
690
100
AcDbEntity
  8
0
100
AcDbLine
 62
7
  6
CONTINUOUS
 10
251.2662753245
 20
167.714668347
 11
252.8052653245
 21
167.714668347
  0
LINE
  5
691
100
AcDbEntity
  8
0
100
AcDbLine
 62
7
  6
CONTINUOUS
 10
252.8052653245
 20
168.131248347
 11
266.0052653245
 21
168.131248347
  0
LINE
  5
692
100
AcDbEntity
  8
7_ALL_ROUNDS
100
AcDbLine
 62
9
  6
CONTINUOUS
 10
238.8073753245
 20
165.8331059836
 11
243.3772953245
 21
165.6735208607
  0
LINE
  5
693
100
AcDbEntity
  8
7_ALL_ROUNDS
100
AcDbLine
 62
7
  6
CONTINUOUS
 10
238.8073753245
 20
167.4306447155
 11
243.3772953245
 21
167.2710595926
  0
LINE
  5
694
100
AcDbEntity
  8
0
100
AcDbLine
 62
7
  6
CONTINUOUS
 10
238.8073753245
 20
167.4306447155
 11
243.3772953245
 21
167.2710595926
  0
LINE
  5
695
100
AcDbEntity
  8
0
100
AcDbLine
 62
7
  6
CONTINUOUS
 10
244.9162753245
 20
168.895668347
 11
251.2662753245
 21
168.895668347
  0
LINE
  5
696
100
AcDbEntity
  8
0
100
AcDbLine
 62
7
  6
CONTINUOUS
 10
242.8462853245
 20
169.430668347
 11
243.3772953245
 21
169.430668347
  0
LINE
  5
697
100
AcDbEntity
  8
0
100
AcDbLine
 62
7
  6
CONTINUOUS
 10
252.8052653245
 20
169.430668347
 11
253.3362755032
 21
169.430668347
  0
LINE
  5
698
100
AcDbEntity
  8
0
100
AcDbLine
 62
7
  6
CONTINUOUS
 10
241.3562853245
 20
170.780668347
 11
243.3772953245
 21
170.780668347
  0
LINE
  5
699
100
AcDbEntity
  8
0
100
AcDbLine
 62
7
  6
CONTINUOUS
 10
252.8052653245
 20
170.780668347
 11
254.8262753245
 21
170.780668347
  0
LINE
  5
69A
100
AcDbEntity
  8
0
100
AcDbLine
 62
7
  6
CONTINUOUS
 10
241.3562853245
 20
171.580668347
 11
243.3772953245
 21
171.580668347
  0
LINE
  5
69B
100
AcDbEntity
  8
0
100
AcDbLine
 62
7
  6
CONTINUOUS
 10
252.8052653245
 20
171.580668347
 11
254.8262753245
 21
171.580668347
  0
LINE
  5
69C
100
AcDbEntity
  8
0
100
AcDbLine
 62
7
  6
CONTINUOUS
 10
242.8462853245
 20
172.930668347
 11
243.3772953245
 21
172.930668347
  0
LINE
  5
69D
100
AcDbEntity
  8
0
100
AcDbLine
 62
7
  6
CONTINUOUS
 10
252.8052653245
 20
172.930668347
 11
253.3362753245
 21
172.930668347
  0
LINE
  5
69E
100
AcDbEntity
  8
0
100
AcDbLine
 62
7
  6
CONTINUOUS
 10
244.9162753245
 20
173.465668347
 11
251.2662753245
 21
173.465668347
  0
LINE
  5
69F
100
AcDbEntity
  8
0
100
AcDbLine
 62
7
  6
CONTINUOUS
 10
254.8262753245
 20
171.980668347
 11
253.3362753245
 21
172.930668347
  0
LINE
  5
6A0
100
AcDbEntity
  8
0
100
AcDbLine
 62
7
  6
CONTINUOUS
 10
243.3772953245
 20
175.673668347
 11
244.9162753245
 21
175.673668347
  0
LINE
  5
6A1
100
AcDbEntity
  8
0
100
AcDbLine
 62
7
  6
CONTINUOUS
 10
251.2662753245
 20
175.673668347
 11
252.8052653245
 21
175.673668347
  0
LINE
  5
6A2
100
AcDbEntity
  8
7_ALL_ROUNDS
100
AcDbLine
 62
9
  6
CONTINUOUS
 10
237.2873753245
 20
177.9033984929
 11
231.8073753245
 21
177.7120326761
  0
LINE
  5
6A3
100
AcDbEntity
  8
7_ALL_ROUNDS
100
AcDbLine
 62
7
  6
CONTINUOUS
 10
237.2873753245
 20
179.902180147
 11
231.8073753245
 21
179.7108143302
  0
LINE
  5
6A4
100
AcDbEntity
  8
7_ALL_ROUNDS
100
AcDbLine
 62
9
  6
CONTINUOUS
 10
237.2873753245
 20
185.200668347
 11
238.8073753245
 21
185.200668347
  0
LINE
  5
6A5
100
AcDbEntity
  8
7_ALL_ROUNDS
100
AcDbLine
 62
7
  6
CONTINUOUS
 10
237.2873753245
 20
188.200668347
 11
238.8073753245
 21
188.200668347
  0
LINE
  5
6A6
100
AcDbEntity
  8
7_ALL_ROUNDS
100
AcDbLine
 62
7
  6
CONTINUOUS
 10
280.8565596175
 20
108.580668513
 11
280.8565596175
 21
185.200668347
  0
LINE
  5
6A7
100
AcDbEntity
  8
7_ALL_ROUNDS
100
AcDbLine
 62
7
  6
CONTINUOUS
 10
360.6565596175
 20
105.580668513
 11
283.8565596175
 21
105.580668513
  0
LINE
  5
6A8
100
AcDbEntity
  8
0
100
AcDbLine
 62
7
  6
CONTINUOUS
 10
290.0065596175
 20
145.180668347
 11
290.0065596175
 21
148.180668347
  0
LINE
  5
6A9
100
AcDbEntity
  8
3_AXES_OTHER
100
AcDbLine
 62
7
  6
CENTER
 10
292.2565596175
 20
146.680668347
 11
292.2565596175
 21
140.7407869907
  0
LINE
  5
6AA
100
AcDbEntity
  8
3_AXES_OTHER
100
AcDbLine
 62
7
  6
CENTER
 10
292.2565596175
 20
146.680668347
 11
292.2565596175
 21
152.3483249265
  0
LINE
  5
6AB
100
AcDbEntity
  8
0
100
AcDbLine
 62
7
  6
CONTINUOUS
 10
294.5065596175
 20
148.180668347
 11
294.5065596175
 21
145.180668347
  0
LINE
  5
6AC
100
AcDbEntity
  8
0
100
AcDbLine
 62
7
  6
CONTINUOUS
 10
311.8595596175
 20
117.687668347
 11
316.9805596175
 21
117.687668347
  0
LINE
  5
6AD
100
AcDbEntity
  8
0
100
AcDbLine
 62
7
  6
CONTINUOUS
 10
327.5325596175
 20
117.687668347
 11
332.6535596175
 21
117.687668347
  0
LINE
  5
6AE
100
AcDbEntity
  8
0
100
AcDbLine
 62
7
  6
CONTINUOUS
 10
300.1565596175
 20
127.237292674
 11
302.6565596175
 21
125.793917001
  0
LINE
  5
6AF
100
AcDbEntity
  8
0
100
AcDbLine
 62
7
  6
CONTINUOUS
 10
305.1565596175
 20
130.1240440199
 11
302.6565596175
 21
131.5674196929
  0
LINE
  5
6B0
100
AcDbEntity
  8
0
100
AcDbLine
 62
7
  6
CONTINUOUS
 10
299.7565596175
 20
167.714668347
 11
299.7565596175
 21
125.646668347
  0
LINE
  5
6B1
100
AcDbEntity
  8
0
100
AcDbLine
 62
7
  6
CONTINUOUS
 10
300.1565596175
 20
130.1240440199
 11
300.1565596175
 21
127.237292674
  0
LINE
  5
6B2
100
AcDbEntity
  8
0
100
AcDbLine
 62
7
  6
CONTINUOUS
 10
305.1565596175
 20
127.237292674
 11
305.1565596175
 21
130.1240440199
  0
LINE
  5
6B3
100
AcDbEntity
  8
0
100
AcDbLine
 62
7
  6
CONTINUOUS
 10
306.1522796175
 20
168.131248347
 11
306.1522796175
 21
152.381248347
  0
LINE
  5
6B4
100
AcDbEntity
  8
7_ALL_ROUNDS
100
AcDbLine
 62
7
  6
CONTINUOUS
 10
334.8820058152
 20
130.658048347
 11
325.6485534197
 21
130.658048347
  0
LINE
  5
6B5
100
AcDbEntity
  8
7_ALL_ROUNDS
100
AcDbLine
 62
9
  6
CONTINUOUS
 10
334.8820058152
 20
131.6405959405
 11
325.6485534197
 21
131.6405959405
  0
LINE
  5
6B6
100
AcDbEntity
  8
0
100
AcDbLine
 62
7
  6
CONTINUOUS
 10
339.3565596175
 20
127.237292674
 11
341.8565596175
 21
125.793917001
  0
LINE
  5
6B7
100
AcDbEntity
  8
0
100
AcDbLine
 62
7
  6
CONTINUOUS
 10
336.1072796175
 20
142.658048347
 11
324.4232796175
 21
142.658048347
  0
LINE
  5
6B8
100
AcDbEntity
  8
0
100
AcDbLine
 62
7
  6
CONTINUOUS
 10
344.3565596175
 20
130.1240440199
 11
341.8565596175
 21
131.5674196929
  0
LINE
  5
6B9
100
AcDbEntity
  8
3_AXES_OTHER
100
AcDbLine
 62
7
  6
CENTER
 10
322.2565596175
 20
146.680668347
 11
322.2565596175
 21
101.7391861088
  0
LINE
  5
6BA
100
AcDbEntity
  8
3_AXES_OTHER
100
AcDbLine
 62
7
  6
CENTER
 10
322.2565596175
 20
146.680668347
 11
322.2565596175
 21
191.4283127153
  0
LINE
  5
6BB
100
AcDbEntity
  8
0
100
AcDbLine
 62
7
  6
CONTINUOUS
 10
342.3117196175
 20
166.705208517
 11
342.0617196175
 21
166.455208517
  0
LINE
  5
6BC
100
AcDbEntity
  8
0
100
AcDbLine
 62
7
  6
CONTINUOUS
 10
341.6005196175
 20
165.994008517
 11
341.8505196175
 21
166.244008517
  0
LINE
  5
6BD
100
AcDbEntity
  8
3_AXES_OTHER
100
AcDbLine
 62
7
  6
CENTER
 10
352.2565596175
 20
146.680668347
 11
348.6526375669
 21
146.680668347
  0
LINE
  5
6BE
100
AcDbEntity
  8
3_AXES_OTHER
100
AcDbLine
 62
7
  6
CENTER
 10
292.2565596175
 20
146.680668347
 11
288.3115770784
 21
146.680668347
  0
LINE
  5
6BF
100
AcDbEntity
  8
3_AXES_OTHER
100
AcDbLine
 62
7
  6
CENTER
 10
292.2565596175
 20
146.680668347
 11
296.2117644948
 21
146.680668347
  0
LINE
  5
6C0
100
AcDbEntity
  8
3_AXES_OTHER
100
AcDbLine
 62
7
  6
CENTER
 10
352.2565596175
 20
146.680668347
 11
356.0673386058
 21
146.680668347
  0
LINE
  5
6C1
100
AcDbEntity
  8
7_ALL_ROUNDS
100
AcDbLine
 62
7
  6
CONTINUOUS
 10
324.4563953775
 20
142.658048347
 11
324.6487057246
 21
131.6405959405
  0
LINE
  5
6C2
100
AcDbEntity
  8
7_ALL_ROUNDS
100
AcDbLine
 62
9
  6
CONTINUOUS
 10
325.4562430726
 20
142.658048347
 11
325.6485534197
 21
131.6405959405
  0
LINE
  5
6C3
100
AcDbEntity
  8
0
100
AcDbLine
 62
7
  6
CONTINUOUS
 10
324.4232796175
 20
142.658048347
 11
324.4232796175
 21
152.381248347
  0
LINE
  5
6C4
100
AcDbEntity
  8
7_ALL_ROUNDS
100
AcDbLine
 62
9
  6
CONTINUOUS
 10
325.6485534197
 20
130.658048347
 11
325.6485534197
 21
131.6405959405
  0
LINE
  5
6C5
100
AcDbEntity
  8
0
100
AcDbLine
 62
7
  6
CONTINUOUS
 10
342.3117196175
 20
164.165208517
 11
342.0617196175
 21
163.915208517
  0
LINE
  5
6C6
100
AcDbEntity
  8
0
100
AcDbLine
 62
7
  6
CONTINUOUS
 10
341.6005196175
 20
163.454008517
 11
341.8505196175
 21
163.704008517
  0
LINE
  5
6C7
100
AcDbEntity
  8
0
100
AcDbLine
 62
7
  6
CONTINUOUS
 10
302.6565596175
 20
131.5674196929
 11
300.1565596175
 21
130.1240440199
  0
LINE
  5
6C8
100
AcDbEntity
  8
0
100
AcDbLine
 62
7
  6
CONTINUOUS
 10
328.7977896175
 20
147.6335753043
 11
331.7327596175
 21
147.6335753043
  0
LINE
  5
6C9
100
AcDbEntity
  8
0
100
AcDbLine
 62
7
  6
CONTINUOUS
 10
328.7977896175
 20
152.381248347
 11
328.7977896175
 21
147.6335753043
  0
LINE
  5
6CA
100
AcDbEntity
  8
0
100
AcDbLine
 62
7
  6
CONTINUOUS
 10
306.1522796175
 20
152.381248347
 11
338.4122796175
 21
152.381248347
  0
LINE
  5
6CB
100
AcDbEntity
  8
0
100
AcDbLine
 62
7
  6
CONTINUOUS
 10
331.7327596175
 20
152.381248347
 11
331.7327596175
 21
147.6335753043
  0
LINE
  5
6CC
100
AcDbEntity
  8
0
100
AcDbLine
 62
7
  6
CONTINUOUS
 10
302.6565596175
 20
125.793917001
 11
305.1565596175
 21
127.237292674
  0
LINE
  5
6CD
100
AcDbEntity
  8
7_ALL_ROUNDS
100
AcDbLine
 62
9
  6
CONTINUOUS
 10
334.8820058152
 20
131.6405959405
 11
334.8820058152
 21
130.658048347
  0
LINE
  5
6CE
100
AcDbEntity
  8
0
100
AcDbLine
 62
7
  6
CONTINUOUS
 10
336.1072796175
 20
152.381248347
 11
336.1072796175
 21
142.658048347
  0
LINE
  5
6CF
100
AcDbEntity
  8
7_ALL_ROUNDS
100
AcDbLine
 62
9
  6
CONTINUOUS
 10
335.0743161623
 20
142.658048347
 11
334.8820058152
 21
131.6405959405
  0
LINE
  5
6D0
100
AcDbEntity
  8
7_ALL_ROUNDS
100
AcDbLine
 62
7
  6
CONTINUOUS
 10
336.0741638575
 20
142.658048347
 11
335.8818535104
 21
131.6405959405
  0
LINE
  5
6D1
100
AcDbEntity
  8
7_ALL_ROUNDS
100
AcDbLine
 62
7
  6
CONTINUOUS
 10
339.0986196175
 20
162.539608517
 11
344.8136196175
 21
162.539608517
  0
LINE
  5
6D2
100
AcDbEntity
  8
0
100
AcDbLine
 62
7
  6
CONTINUOUS
 10
338.4122796175
 20
152.381248347
 11
338.4122796175
 21
168.131248347
  0
LINE
  5
6D3
100
AcDbEntity
  8
7_ALL_ROUNDS
100
AcDbLine
 62
7
  6
CONTINUOUS
 10
339.0986196175
 20
167.619608517
 11
339.0986196175
 21
162.539608517
  0
LINE
  5
6D4
100
AcDbEntity
  8
0
100
AcDbLine
 62
7
  6
CONTINUOUS
 10
339.3565596175
 20
130.1240440199
 11
339.3565596175
 21
127.237292674
  0
LINE
  5
6D5
100
AcDbEntity
  8
7_ALL_ROUNDS
100
AcDbLine
 62
9
  6
CONTINUOUS
 10
339.7301036668
 20
167.619608517
 11
339.7301036668
 21
162.539608517
  0
LINE
  5
6D6
100
AcDbEntity
  8
7_ALL_ROUNDS
100
AcDbLine
 62
9
  6
CONTINUOUS
 10
341.0848821021
 20
167.619608517
 11
341.0848821021
 21
162.539608517
  0
LINE
  5
6D7
100
AcDbEntity
  8
7_ALL_ROUNDS
100
AcDbLine
 62
7
  6
CONTINUOUS
 10
341.2133980528
 20
167.619608517
 11
341.2133980528
 21
162.539608517
  0
LINE
  5
6D8
100
AcDbEntity
  8
0
100
AcDbLine
 62
7
  6
CONTINUOUS
 10
341.6005196175
 20
166.705208517
 11
341.6005196175
 21
165.994008517
  0
LINE
  5
6D9
100
AcDbEntity
  8
0
100
AcDbLine
 62
7
  6
CONTINUOUS
 10
341.6005196175
 20
164.165208517
 11
341.6005196175
 21
163.454008517
  0
LINE
  5
6DA
100
AcDbEntity
  8
0
100
AcDbLine
 62
7
  6
CONTINUOUS
 10
341.8505196175
 20
166.455208517
 11
341.8505196175
 21
166.244008517
  0
LINE
  5
6DB
100
AcDbEntity
  8
0
100
AcDbLine
 62
7
  6
CONTINUOUS
 10
341.8505196175
 20
163.915208517
 11
341.8505196175
 21
163.704008517
  0
LINE
  5
6DC
100
AcDbEntity
  8
0
100
AcDbLine
 62
7
  6
CONTINUOUS
 10
342.0617196175
 20
163.704008517
 11
342.0617196175
 21
163.915208517
  0
LINE
  5
6DD
100
AcDbEntity
  8
0
100
AcDbLine
 62
7
  6
CONTINUOUS
 10
342.0617196175
 20
166.244008517
 11
342.0617196175
 21
166.455208517
  0
LINE
  5
6DE
100
AcDbEntity
  8
0
100
AcDbLine
 62
7
  6
CONTINUOUS
 10
341.6005196175
 20
163.454008517
 11
342.3117196175
 21
163.454008517
  0
LINE
  5
6DF
100
AcDbEntity
  8
0
100
AcDbLine
 62
7
  6
CONTINUOUS
 10
341.8505196175
 20
163.704008517
 11
342.0617196175
 21
163.704008517
  0
LINE
  5
6E0
100
AcDbEntity
  8
0
100
AcDbLine
 62
7
  6
CONTINUOUS
 10
342.0617196175
 20
163.915208517
 11
341.8505196175
 21
163.915208517
  0
LINE
  5
6E1
100
AcDbEntity
  8
0
100
AcDbLine
 62
7
  6
CONTINUOUS
 10
342.3117196175
 20
164.165208517
 11
341.6005196175
 21
164.165208517
  0
LINE
  5
6E2
100
AcDbEntity
  8
0
100
AcDbLine
 62
7
  6
CONTINUOUS
 10
341.6005196175
 20
165.994008517
 11
342.3117196175
 21
165.994008517
  0
LINE
  5
6E3
100
AcDbEntity
  8
0
100
AcDbLine
 62
7
  6
CONTINUOUS
 10
341.8505196175
 20
166.244008517
 11
342.0617196175
 21
166.244008517
  0
LINE
  5
6E4
100
AcDbEntity
  8
0
100
AcDbLine
 62
7
  6
CONTINUOUS
 10
342.0617196175
 20
166.455208517
 11
341.8505196175
 21
166.455208517
  0
LINE
  5
6E5
100
AcDbEntity
  8
0
100
AcDbLine
 62
7
  6
CONTINUOUS
 10
342.3117196175
 20
166.705208517
 11
341.6005196175
 21
166.705208517
  0
LINE
  5
6E6
100
AcDbEntity
  8
0
100
AcDbLine
 62
7
  6
CONTINUOUS
 10
342.3117196175
 20
163.454008517
 11
342.3117196175
 21
164.165208517
  0
LINE
  5
6E7
100
AcDbEntity
  8
0
100
AcDbLine
 62
7
  6
CONTINUOUS
 10
342.3117196175
 20
165.994008517
 11
342.3117196175
 21
166.705208517
  0
LINE
  5
6E8
100
AcDbEntity
  8
0
100
AcDbLine
 62
7
  6
CONTINUOUS
 10
344.3565596175
 20
127.237292674
 11
344.3565596175
 21
130.1240440199
  0
LINE
  5
6E9
100
AcDbEntity
  8
7_ALL_ROUNDS
100
AcDbLine
 62
9
  6
CONTINUOUS
 10
344.4336196175
 20
162.539608517
 11
344.4336196175
 21
167.619608517
  0
LINE
  5
6EA
100
AcDbEntity
  8
0
100
AcDbLine
 62
7
  6
CONTINUOUS
 10
344.7565596175
 20
125.646668347
 11
344.7565596175
 21
162.539608517
  0
LINE
  5
6EB
100
AcDbEntity
  8
0
100
AcDbLine
 62
7
  6
CONTINUOUS
 10
344.7565596175
 20
167.619608517
 11
344.7565596175
 21
167.714668347
  0
LINE
  5
6EC
100
AcDbEntity
  8
7_ALL_ROUNDS
100
AcDbLine
 62
7
  6
CONTINUOUS
 10
344.8136196175
 20
162.539608517
 11
344.8136196175
 21
167.619608517
  0
LINE
  5
6ED
100
AcDbEntity
  8
0
100
AcDbLine
 62
7
  6
CONTINUOUS
 10
341.8565596175
 20
131.5674196929
 11
339.3565596175
 21
130.1240440199
  0
LINE
  5
6EE
100
AcDbEntity
  8
7_ALL_ROUNDS
100
AcDbLine
 62
7
  6
CONTINUOUS
 10
339.0986196175
 20
167.619608517
 11
344.8136196175
 21
167.619608517
  0
LINE
  5
6EF
100
AcDbEntity
  8
0
100
AcDbLine
 62
7
  6
CONTINUOUS
 10
338.4122796175
 20
168.131248347
 11
306.1522796175
 21
168.131248347
  0
LINE
  5
6F0
100
AcDbEntity
  8
0
100
AcDbLine
 62
7
  6
CONTINUOUS
 10
309.5528871137
 20
170.780668347
 11
312.9602321212
 21
170.780668347
  0
LINE
  5
6F1
100
AcDbEntity
  8
0
100
AcDbLine
 62
7
  6
CONTINUOUS
 10
331.5528871137
 20
170.780668347
 11
334.9602321212
 21
170.780668347
  0
LINE
  5
6F2
100
AcDbEntity
  8
0
100
AcDbLine
 62
7
  6
CONTINUOUS
 10
350.0065596175
 20
145.180668347
 11
350.0065596175
 21
148.180668347
  0
LINE
  5
6F3
100
AcDbEntity
  8
0
100
AcDbLine
 62
7
  6
CONTINUOUS
 10
309.5528871137
 20
171.580668347
 11
312.9602321212
 21
171.580668347
  0
LINE
  5
6F4
100
AcDbEntity
  8
0
100
AcDbLine
 62
7
  6
CONTINUOUS
 10
331.5528871137
 20
171.580668347
 11
334.9602321212
 21
171.580668347
  0
LINE
  5
6F5
100
AcDbEntity
  8
0
100
AcDbLine
 62
7
  6
CONTINUOUS
 10
342.3117196175
 20
163.454008517
 11
342.0617196175
 21
163.704008517
  0
LINE
  5
6F6
100
AcDbEntity
  8
0
100
AcDbLine
 62
7
  6
CONTINUOUS
 10
341.6005196175
 20
164.165208517
 11
341.8505196175
 21
163.915208517
  0
LINE
  5
6F7
100
AcDbEntity
  8
0
100
AcDbLine
 62
7
  6
CONTINUOUS
 10
342.3117196175
 20
165.994008517
 11
342.0617196175
 21
166.244008517
  0
LINE
  5
6F8
100
AcDbEntity
  8
0
100
AcDbLine
 62
7
  6
CONTINUOUS
 10
341.6005196175
 20
166.705208517
 11
341.8505196175
 21
166.455208517
  0
LINE
  5
6F9
100
AcDbEntity
  8
3_AXES_OTHER
100
AcDbLine
 62
7
  6
CENTER
 10
352.2565596175
 20
146.680668347
 11
352.2565596175
 21
140.677273787
  0
LINE
  5
6FA
100
AcDbEntity
  8
3_AXES_OTHER
100
AcDbLine
 62
7
  6
CENTER
 10
352.2565596175
 20
146.680668347
 11
352.2565596175
 21
152.505487349
  0
LINE
  5
6FB
100
AcDbEntity
  8
0
100
AcDbLine
 62
7
  6
CONTINUOUS
 10
341.8565596175
 20
125.793917001
 11
344.3565596175
 21
127.237292674
  0
LINE
  5
6FC
100
AcDbEntity
  8
0
100
AcDbLine
 62
7
  6
CONTINUOUS
 10
332.6535596175
 20
175.673668347
 11
327.5325596175
 21
175.673668347
  0
LINE
  5
6FD
100
AcDbEntity
  8
0
100
AcDbLine
 62
7
  6
CONTINUOUS
 10
316.9805596175
 20
175.673668347
 11
311.8595596175
 21
175.673668347
  0
LINE
  5
6FE
100
AcDbEntity
  8
0
100
AcDbLine
 62
7
  6
CONTINUOUS
 10
354.5065596175
 20
148.180668347
 11
354.5065596175
 21
145.180668347
  0
LINE
  5
6FF
100
AcDbEntity
  8
7_ALL_ROUNDS
100
AcDbLine
 62
7
  6
CONTINUOUS
 10
363.6565596175
 20
185.200668347
 11
363.6565596175
 21
108.580668513
  0
LINE
  5
700
100
AcDbEntity
  8
7_ALL_ROUNDS
100
AcDbLine
 62
7
  6
CONTINUOUS
 10
283.8565596175
 20
188.200668347
 11
360.6565596175
 21
188.200668347
  0
LWPOLYLINE
  5
701
100
AcDbEntity
  8
7_ALL_ROUNDS
100
AcDbPolyline
 62
7
  6
CONTINUOUS
 90
5
 70
0
 10
385.3853726624
 20
274.1599242841
 10
384.8313937423
 20
273.6872586047
 10
384.3261884697
 20
272.9504816026
 10
384.01012334
 20
272.0344472678
 10
383.9122857227
 20
271.0611322618
  0
LINE
  5
702
100
AcDbEntity
  8
7_ALL_ROUNDS
100
AcDbLine
 62
7
  6
CONTINUOUS
 10
389.1169871945
 20
276.6262365511
 11
385.3832846145
 21
274.1585904755
  0
LINE
  5
703
100
AcDbEntity
  8
7_ALL_ROUNDS
100
AcDbLine
 62
9
  6
CONTINUOUS
 10
391.9597732571
 20
276.4117643692
 11
388.2422817792
 21
273.9548323936
  0
LWPOLYLINE
  5
704
100
AcDbEntity
  8
7_ALL_ROUNDS
100
AcDbPolyline
 62
7
  6
CONTINUOUS
 90
5
 70
0
 10
448.9892986782
 20
158.3451031556
 10
449.8925278656
 20
157.9394904124
 10
450.8605879904
 20
157.7573815646
 10
451.7648601276
 20
157.8376923013
 10
452.4100261111
 20
158.0717854653
  0
LWPOLYLINE
  5
705
100
AcDbEntity
  8
7_ALL_ROUNDS
100
AcDbPolyline
 62
7
  6
CONTINUOUS
 90
7
 70
0
 10
383.9122862191
 20
200.0114827626
 10
383.9772368395
 20
199.1593365525
 10
384.2298804203
 20
198.0815112447
 10
384.6544270251
 20
197.0230817834
 10
385.229710173
 20
196.0236786525
 10
385.9321414969
 20
195.1243420343
 10
386.7379896742
 20
194.3634291734
  0
LINE
  5
706
100
AcDbEntity
  8
7_ALL_ROUNDS
100
AcDbLine
 62
7
  6
CONTINUOUS
 10
383.9122857227
 20
271.0611322618
 11
383.9122857204
 21
200.0107421149
  0
LINE
  5
707
100
AcDbEntity
  8
7_ALL_ROUNDS
100
AcDbLine
 62
7
  6
CONTINUOUS
 10
406.3386405094
 20
252.1352108868
 11
405.3797529291
 21
251.5014712882
  0
LINE
  5
708
100
AcDbEntity
  8
7_ALL_ROUNDS
100
AcDbLine
 62
9
  6
CONTINUOUS
 10
404.9919196697
 20
251.1491169466
 11
405.1369086786
 21
251.2215276141
  0
LINE
  5
709
100
AcDbEntity
  8
7_ALL_ROUNDS
100
AcDbLine
 62
7
  6
CONTINUOUS
 10
448.9892299415
 20
158.3451428333
 11
448.9892986781
 21
158.3451031557
  0
LINE
  5
70A
100
AcDbEntity
  8
7_ALL_ROUNDS
100
AcDbLine
 62
7
  6
CONTINUOUS
 10
387.4580137643
 20
193.8694033906
 11
448.9892299415
 21
158.3451428333
  0
LINE
  5
70B
100
AcDbEntity
  8
7_ALL_ROUNDS
100
AcDbLine
 62
7
  6
CONTINUOUS
 10
386.7379896742
 20
194.3634291734
 11
387.4586296898
 21
193.8690483244
  0
LINE
  5
70C
100
AcDbEntity
  8
7_ALL_ROUNDS
100
AcDbLine
 62
9
  6
CONTINUOUS
 10
384.395564389
 20
270.3874797491
 11
384.395564389
 21
199.3371393356
  0
LINE
  5
70D
100
AcDbEntity
  8
7_ALL_ROUNDS
100
AcDbLine
 62
9
  6
CONTINUOUS
 10
407.0403782379
 20
251.761676653
 11
406.5168673541
 21
251.4156824154
  0
LINE
  5
70E
100
AcDbEntity
  8
7_ALL_ROUNDS
100
AcDbLine
 62
9
  6
CONTINUOUS
 10
405.8023335157
 20
249.8971811702
 11
405.8801149378
 21
249.9420880272
  0
LINE
  5
70F
100
AcDbEntity
  8
7_ALL_ROUNDS
100
AcDbLine
 62
9
  6
CONTINUOUS
 10
387.1162784351
 20
194.6247505345
 11
448.6474945434
 21
159.1004900169
  0
LINE
  5
710
100
AcDbEntity
  8
0
100
AcDbLine
 62
7
  6
CONTINUOUS
 10
393.1499106761
 20
230.1374223408
 11
393.1499106761
 21
229.4787770561
  0
LINE
  5
711
100
AcDbEntity
  8
0
100
AcDbLine
 62
7
  6
CONTINUOUS
 10
428.3961104135
 20
255.3757112028
 11
431.6196688517
 21
257.2368224255
  0
LINE
  5
712
100
AcDbEntity
  8
7_ALL_ROUNDS
100
AcDbLine
 62
7
  6
CONTINUOUS
 10
406.5168673541
 20
192.0834555419
 11
428.6557668165
 21
179.3018451364
  0
LINE
  5
713
100
AcDbEntity
  8
7_ALL_ROUNDS
100
AcDbLine
 62
7
  6
CONTINUOUS
 10
429.2171595682
 20
179.0120742044
 11
428.8817494147
 21
179.205718966
  0
LINE
  5
714
100
AcDbEntity
  8
7_ALL_ROUNDS
100
AcDbLine
 62
7
  6
CONTINUOUS
 10
406.1352516542
 20
192.7605047387
 11
427.1364104911
 21
180.6357543294
  0
LINE
  5
715
100
AcDbEntity
  8
0
100
AcDbLine
 62
7
  6
CONTINUOUS
 10
394.2620646362
 20
230.7795430877
 11
394.2620646362
 21
229.4953344785
  0
LINE
  5
716
100
AcDbEntity
  8
0
100
AcDbLine
 62
7
  6
CONTINUOUS
 10
394.2620646362
 20
228.8366891937
 11
394.2620646362
 21
227.5524805845
  0
LINE
  5
717
100
AcDbEntity
  8
0
100
AcDbLine
 62
7
  6
CONTINUOUS
 10
394.8324664826
 20
227.2231663751
 11
394.8324664826
 21
228.5073749843
  0
LINE
  5
718
100
AcDbEntity
  8
0
100
AcDbLine
 62
7
  6
CONTINUOUS
 10
394.8324664826
 20
229.166020269
 11
394.8324664826
 21
230.4502288783
  0
LINE
  5
719
100
AcDbEntity
  8
0
100
AcDbLine
 62
7
  6
CONTINUOUS
 10
395.0398788572
 20
229.0462733878
 11
395.0398788572
 21
228.6271238598
  0
LINE
  5
71A
100
AcDbEntity
  8
0
100
AcDbLine
 62
7
  6
CONTINUOUS
 10
395.9446204428
 20
227.865287122
 11
395.9446204428
 21
228.5239324067
  0
LINE
  5
71B
100
AcDbEntity
  8
0
100
AcDbLine
 62
7
  6
CONTINUOUS
 10
393.7293017656
 20
232.0220698499
 11
393.0347723307
 21
231.6210854872
  0
LINE
  5
71C
100
AcDbEntity
  8
0
100
AcDbLine
 62
7
  6
CONTINUOUS
 10
393.1499106761
 20
229.4787770561
 11
393.7203223793
 21
229.8081024406
  0
LINE
  5
71D
100
AcDbEntity
  8
0
100
AcDbLine
 62
7
  6
CONTINUOUS
 10
394.2620646362
 20
229.4953344785
 11
394.8324664826
 21
229.8246541723
  0
LINE
  5
71E
100
AcDbEntity
  8
0
100
AcDbLine
 62
7
  6
CONTINUOUS
 10
394.2620646362
 20
228.8366891937
 11
394.8324714109
 21
229.1660117329
  0
LINE
  5
71F
100
AcDbEntity
  8
0
100
AcDbLine
 62
7
  6
CONTINUOUS
 10
416.8516620614
 20
190.4505213656
 11
419.8642706562
 21
191.2387717304
  0
LINE
  5
720
100
AcDbEntity
  8
0
100
AcDbLine
 62
7
  6
CONTINUOUS
 10
417.0456583751
 20
190.5471353722
 11
419.8530414907
 21
191.2816884
  0
LINE
  5
721
100
AcDbEntity
  8
0
100
AcDbLine
 62
7
  6
CONTINUOUS
 10
419.6076445055
 20
191.8757504404
 11
416.8927809236
 21
191.1654051892
  0
LINE
  5
722
100
AcDbEntity
  8
0
100
AcDbLine
 62
7
  6
CONTINUOUS
 10
394.8324664826
 20
228.5073749843
 11
395.4028781858
 21
228.8367003689
  0
LINE
  5
723
100
AcDbEntity
  8
0
100
AcDbLine
 62
7
  6
CONTINUOUS
 10
394.2620646362
 20
227.5524805845
 11
394.8324664826
 21
227.8818002783
  0
LINE
  5
724
100
AcDbEntity
  8
0
100
AcDbLine
 62
7
  6
CONTINUOUS
 10
396.7542853853
 20
226.7826066998
 11
396.0597587881
 21
226.3816239756
  0
LWPOLYLINE
  5
725
100
AcDbEntity
  8
7_ALL_ROUNDS
100
AcDbPolyline
 62
7
  6
CONTINUOUS
 90
3
 70
0
 10
423.0527343282
 20
192.1395952391
 10
423.3361849824
 20
192.0299980502
 10
423.6230805997
 20
192.022483727
  0
LINE
  5
726
100
AcDbEntity
  8
7_ALL_ROUNDS
100
AcDbLine
 62
7
  6
CONTINUOUS
 10
410.0143566881
 20
199.6671357594
 11
423.0526582516
 21
192.1396391367
  0
LINE
  5
727
100
AcDbEntity
  8
7_ALL_ROUNDS
100
AcDbLine
 62
9
  6
CONTINUOUS
 10
409.9004449117
 20
199.9189181407
 11
422.9387465961
 21
192.3914214482
  0
LINE
  5
728
100
AcDbEntity
  8
0
100
AcDbLine
 62
7
  6
CONTINUOUS
 10
406.0119869527
 20
204.5895414047
 11
409.3505009063
 21
202.6620930796
  0
LINE
  5
729
100
AcDbEntity
  8
0
100
AcDbLine
 62
7
  6
CONTINUOUS
 10
424.6848492172
 20
193.8090032381
 11
428.5687871849
 21
191.5666613355
  0
LINE
  5
72A
100
AcDbEntity
  8
0
100
AcDbLine
 62
7
  6
CONTINUOUS
 10
406.3079169692
 20
204.7603956596
 11
409.3505009063
 21
203.003798744
  0
LINE
  5
72B
100
AcDbEntity
  8
0
100
AcDbLine
 62
7
  6
CONTINUOUS
 10
424.9756137131
 20
193.9828397402
 11
428.8647172014
 21
191.7375155904
  0
LINE
  5
72C
100
AcDbEntity
  8
7_ALL_ROUNDS
100
AcDbLine
 62
7
  6
CONTINUOUS
 10
409.9049114082
 20
199.7392973931
 11
410.0148249833
 21
199.6668663144
  0
LINE
  5
72D
100
AcDbEntity
  8
7_ALL_ROUNDS
100
AcDbLine
 62
7
  6
CONTINUOUS
 10
409.6382224246
 20
200.0072792829
 11
409.9049114082
 21
199.7392973931
  0
LINE
  5
72E
100
AcDbEntity
  8
0
100
AcDbLine
 62
7
  6
CONTINUOUS
 10
414.1204679042
 20
194.554882775
 11
416.8516620614
 21
190.4505213656
  0
LINE
  5
72F
100
AcDbEntity
  8
7_ALL_ROUNDS
100
AcDbLine
 62
7
  6
CONTINUOUS
 10
409.4454064049
 20
200.3492864455
 11
409.6382224246
 21
200.0072792829
  0
LINE
  5
730
100
AcDbEntity
  8
7_ALL_ROUNDS
100
AcDbLine
 62
7
  6
CONTINUOUS
 10
405.4108640991
 20
214.8855940423
 11
406.0119869527
 21
205.128433
  0
LINE
  5
731
100
AcDbEntity
  8
7_ALL_ROUNDS
100
AcDbLine
 62
7
  6
CONTINUOUS
 10
404.9621736135
 20
250.518053902
 11
404.9621736135
 21
194.7762491425
  0
LINE
  5
732
100
AcDbEntity
  8
7_ALL_ROUNDS
100
AcDbLine
 62
7
  6
CONTINUOUS
 10
404.9919196697
 20
250.7618685261
 11
404.9919196697
 21
251.1491169466
  0
LINE
  5
733
100
AcDbEntity
  8
7_ALL_ROUNDS
100
AcDbLine
 62
7
  6
CONTINUOUS
 10
405.8023335157
 20
249.8971811702
 11
405.8023335157
 21
217.2493320213
  0
LINE
  5
734
100
AcDbEntity
  8
7_ALL_ROUNDS
100
AcDbLine
 62
7
  6
CONTINUOUS
 10
405.8801149378
 20
249.9420880272
 11
405.8801149378
 21
217.2942388782
  0
LINE
  5
735
100
AcDbEntity
  8
7_ALL_ROUNDS
100
AcDbLine
 62
7
  6
CONTINUOUS
 10
406.0119869527
 20
204.5895414047
 11
405.4108655758
 21
194.1385725352
  0
LINE
  5
736
100
AcDbEntity
  8
7_ALL_ROUNDS
100
AcDbLine
 62
9
  6
CONTINUOUS
 10
429.2171617013
 20
238.958191941
 11
428.6557668165
 21
238.6340720099
  0
LINE
  5
737
100
AcDbEntity
  8
0
100
AcDbLine
 62
7
  6
CONTINUOUS
 10
406.0119869527
 20
205.128433
 11
409.3505009063
 21
203.2009846749
  0
LINE
  5
738
100
AcDbEntity
  8
0
100
AcDbLine
 62
7
  6
CONTINUOUS
 10
424.6848492172
 20
194.3478948334
 11
428.5687871849
 21
192.1055529308
  0
LINE
  5
739
100
AcDbEntity
  8
7_ALL_ROUNDS
100
AcDbLine
 62
9
  6
CONTINUOUS
 10
422.9387465961
 20
195.7706789967
 11
409.9004449117
 21
203.2981756892
  0
LINE
  5
73A
100
AcDbEntity
  8
7_ALL_ROUNDS
100
AcDbLine
 62
9
  6
CONTINUOUS
 10
423.3208663416
 20
196.4403025507
 11
410.2825646572
 21
203.9677992432
  0
LINE
  5
73B
100
AcDbEntity
  8
7_ALL_ROUNDS
100
AcDbLine
 62
7
  6
CONTINUOUS
 10
423.7920515317
 20
196.6970781961
 11
410.5544422861
 21
204.3396425595
  0
LINE
  5
73C
100
AcDbEntity
  8
0
100
AcDbLine
 62
7
  6
CONTINUOUS
 10
414.3144642179
 20
194.6514967816
 11
417.0456583751
 21
190.5471353722
  0
LINE
  5
73D
100
AcDbEntity
  8
0
100
AcDbLine
 62
7
  6
CONTINUOUS
 10
416.8927809236
 20
191.1654051892
 11
414.4315187585
 21
194.8641204278
  0
LINE
  5
73E
100
AcDbEntity
  8
7_ALL_ROUNDS
100
AcDbLine
 62
7
  6
CONTINUOUS
 10
409.355250431
 20
200.7150427888
 11
409.4454064049
 21
200.3492864455
  0
LINE
  5
73F
100
AcDbEntity
  8
7_ALL_ROUNDS
100
AcDbLine
 62
7
  6
CONTINUOUS
 10
409.3505015716
 20
200.8174526198
 11
409.355250431
 21
200.7150427888
  0
LINE
  5
740
100
AcDbEntity
  8
7_ALL_ROUNDS
100
AcDbLine
 62
7
  6
CONTINUOUS
 10
409.3505009063
 20
203.2982002585
 11
409.3505009063
 21
200.8169587155
  0
LINE
  5
741
100
AcDbEntity
  8
7_ALL_ROUNDS
100
AcDbLine
 62
9
  6
CONTINUOUS
 10
409.5115937958
 20
203.0736659739
 11
409.5115937958
 21
200.5924242912
  0
LINE
  5
742
100
AcDbEntity
  8
7_ALL_ROUNDS
100
AcDbLine
 62
9
  6
CONTINUOUS
 10
430.7718554419
 20
236.2653983404
 11
430.2104605571
 21
235.9412784093
  0
LINE
  5
743
100
AcDbEntity
  8
0
100
AcDbLine
 62
7
  6
CONTINUOUS
 10
414.431508203
 20
204.506943706
 11
416.8927738559
 21
205.0708752753
  0
LINE
  5
744
100
AcDbEntity
  8
0
100
AcDbLine
 62
7
  6
CONTINUOUS
 10
414.6255045419
 20
204.6343356015
 11
417.0867701948
 21
205.1982671707
  0
LINE
  5
745
100
AcDbEntity
  8
0
100
AcDbLine
 62
7
  6
CONTINUOUS
 10
416.8516561247
 20
205.7382801528
 11
414.1204580972
 21
205.1125009779
  0
LINE
  5
746
100
AcDbEntity
  8
7_ALL_ROUNDS
100
AcDbLine
 62
7
  6
CONTINUOUS
 10
406.1352516542
 20
215.3038324161
 11
427.1364104911
 21
203.1790820068
  0
LINE
  5
747
100
AcDbEntity
  8
0
100
AcDbLine
 62
7
  6
CONTINUOUS
 10
416.8927738559
 20
205.0708752753
 11
419.60763395
 21
201.5185737186
  0
LINE
  5
748
100
AcDbEntity
  8
0
100
AcDbLine
 62
7
  6
CONTINUOUS
 10
417.0867701948
 20
205.1982671707
 11
419.7670751839
 21
201.6911797868
  0
LINE
  5
749
100
AcDbEntity
  8
0
100
AcDbLine
 62
7
  6
CONTINUOUS
 10
419.8642608492
 20
201.7963899333
 11
416.8516561247
 21
205.7382801528
  0
LINE
  5
74A
100
AcDbEntity
  8
0
100
AcDbLine
 62
7
  6
CONTINUOUS
 10
414.1204580972
 20
205.1125009779
 11
414.431508203
 21
204.506943706
  0
LINE
  5
74B
100
AcDbEntity
  8
0
100
AcDbLine
 62
7
  6
CONTINUOUS
 10
414.3525726797
 20
205.1656836729
 11
414.6255045419
 21
204.6343356015
  0
LINE
  5
74C
100
AcDbEntity
  8
0
100
AcDbLine
 62
7
  6
CONTINUOUS
 10
419.8642706562
 20
191.2387717304
 11
419.6076445055
 21
191.8757504404
  0
LINE
  5
74D
100
AcDbEntity
  8
0
100
AcDbLine
 62
7
  6
CONTINUOUS
 10
405.8023335157
 20
217.2493320213
 11
405.8801149378
 21
217.2942388782
  0
LINE
  5
74E
100
AcDbEntity
  8
7_ALL_ROUNDS
100
AcDbLine
 62
7
  6
CONTINUOUS
 10
405.6009039952
 20
215.3673445307
 11
406.5357401292
 21
215.9070692026
  0
LINE
  5
74F
100
AcDbEntity
  8
7_ALL_ROUNDS
100
AcDbLine
 62
9
  6
CONTINUOUS
 10
406.1352516542
 20
215.3038324161
 11
407.0857376669
 21
215.8525924957
  0
LINE
  5
750
100
AcDbEntity
  8
7_ALL_ROUNDS
100
AcDbLine
 62
7
  6
CONTINUOUS
 10
407.0857376669
 20
215.8525924957
 11
428.0868965037
 21
203.7278420865
  0
LINE
  5
751
100
AcDbEntity
  8
0
100
AcDbLine
 62
7
  6
CONTINUOUS
 10
405.8023335157
 20
217.2493320213
 11
429.3703006549
 21
203.6426676731
  0
LINE
  5
752
100
AcDbEntity
  8
0
100
AcDbLine
 62
7
  6
CONTINUOUS
 10
405.8801149378
 20
217.2942388782
 11
429.3703006549
 21
203.7324806391
  0
LINE
  5
753
100
AcDbEntity
  8
0
100
AcDbLine
 62
7
  6
CONTINUOUS
 10
394.2620646362
 20
227.5524805845
 11
394.8324664826
 21
227.2231663751
  0
LINE
  5
754
100
AcDbEntity
  8
0
100
AcDbLine
 62
7
  6
CONTINUOUS
 10
440.9320986454
 20
200.6081334488
 11
441.5025004917
 21
200.2788192394
  0
LINE
  5
755
100
AcDbEntity
  8
0
100
AcDbLine
 62
7
  6
CONTINUOUS
 10
453.48860612
 20
240.8888797878
 11
456.7121645582
 21
242.7499910106
  0
LINE
  5
756
100
AcDbEntity
  8
7_ALL_ROUNDS
100
AcDbLine
 62
9
  6
CONTINUOUS
 10
453.7600217494
 20
240.7321814461
 11
449.7734978876
 21
238.430571876
  0
LINE
  5
757
100
AcDbEntity
  8
0
100
AcDbLine
 62
7
  6
CONTINUOUS
 10
393.1499106761
 20
229.4787770561
 11
394.2620646362
 21
228.8366891937
  0
LINE
  5
758
100
AcDbEntity
  8
0
100
AcDbLine
 62
7
  6
CONTINUOUS
 10
394.8324664826
 20
228.5073749843
 11
395.9446204428
 21
227.865287122
  0
LINE
  5
759
100
AcDbEntity
  8
0
100
AcDbLine
 62
7
  6
CONTINUOUS
 10
439.8208982976
 20
202.5338793645
 11
440.9320986454
 21
201.8923420581
  0
LINE
  5
75A
100
AcDbEntity
  8
0
100
AcDbLine
 62
7
  6
CONTINUOUS
 10
441.5025004917
 20
201.5630278486
 11
442.6137008395
 21
200.9214905422
  0
LINE
  5
75B
100
AcDbEntity
  8
0
100
AcDbLine
 62
7
  6
CONTINUOUS
 10
442.6137008395
 20
201.580135827
 11
441.5025004917
 21
202.2216731334
  0
LINE
  5
75C
100
AcDbEntity
  8
0
100
AcDbLine
 62
7
  6
CONTINUOUS
 10
440.9320986454
 20
202.5509873428
 11
439.8208982976
 21
203.1925246492
  0
LINE
  5
75D
100
AcDbEntity
  8
0
100
AcDbLine
 62
7
  6
CONTINUOUS
 10
395.9446204428
 20
228.5239324067
 11
394.8324664826
 21
229.166020269
  0
LINE
  5
75E
100
AcDbEntity
  8
0
100
AcDbLine
 62
7
  6
CONTINUOUS
 10
394.2620646362
 20
229.4953344785
 11
393.1499106761
 21
230.1374223408
  0
LINE
  5
75F
100
AcDbEntity
  8
0
100
AcDbLine
 62
7
  6
CONTINUOUS
 10
394.469467154
 20
229.6150776632
 11
394.8324664826
 21
229.4055046443
  0
LINE
  5
760
100
AcDbEntity
  8
0
100
AcDbLine
 62
7
  6
CONTINUOUS
 10
441.1395011631
 20
202.6707305275
 11
441.5025004917
 21
202.4611575086
  0
LINE
  5
761
100
AcDbEntity
  8
0
100
AcDbLine
 62
7
  6
CONTINUOUS
 10
441.5025004917
 20
203.5058817426
 11
440.9320986454
 21
203.835195952
  0
LINE
  5
762
100
AcDbEntity
  8
0
100
AcDbLine
 62
7
  6
CONTINUOUS
 10
394.8324664826
 20
230.4502288783
 11
394.2620646362
 21
230.7795430877
  0
LINE
  5
763
100
AcDbEntity
  8
7_ALL_ROUNDS
100
AcDbLine
 62
7
  6
CONTINUOUS
 10
424.6848492172
 20
194.3478948334
 11
424.6223092426
 21
195.3804086153
  0
LINE
  5
764
100
AcDbEntity
  8
7_ALL_ROUNDS
100
AcDbLine
 62
9
  6
CONTINUOUS
 10
423.327597712
 20
192.6159311635
 11
423.327597712
 21
195.0971728462
  0
LINE
  5
765
100
AcDbEntity
  8
7_ALL_ROUNDS
100
AcDbLine
 62
9
  6
CONTINUOUS
 10
424.0985685734
 20
192.6120485669
 11
424.0985685734
 21
195.0932902496
  0
LINE
  5
766
100
AcDbEntity
  8
7_ALL_ROUNDS
100
AcDbLine
 62
7
  6
CONTINUOUS
 10
424.8968655449
 20
193.9357593494
 11
424.8968655449
 21
194.2254899187
  0
LINE
  5
767
100
AcDbEntity
  8
7_ALL_ROUNDS
100
AcDbLine
 62
7
  6
CONTINUOUS
 10
424.6848492172
 20
193.8090032381
 11
424.6223075121
 21
192.7017080702
  0
LWPOLYLINE
  5
768
100
AcDbEntity
  8
7_ALL_ROUNDS
100
AcDbPolyline
 62
7
  6
CONTINUOUS
 90
4
 70
0
 10
409.7209213117
 20
204.0152435247
 10
409.5347809275
 20
203.8514399625
 10
409.3976276929
 20
203.5995188511
 10
409.3505009256
 20
203.298284307
  0
LINE
  5
769
100
AcDbEntity
  8
0
100
AcDbLine
 62
7
  6
CONTINUOUS
 10
406.3079169692
 20
204.7603956596
 11
406.0119869527
 21
204.5895414047
  0
LINE
  5
76A
100
AcDbEntity
  8
7_ALL_ROUNDS
100
AcDbLine
 62
9
  6
CONTINUOUS
 10
457.646756101
 20
234.0001974445
 11
453.6602322391
 21
231.6985878744
  0
LINE
  5
76B
100
AcDbEntity
  8
7_ALL_ROUNDS
100
AcDbLine
 62
7
  6
CONTINUOUS
 10
427.9676643313
 20
201.8627139731
 11
428.5687871849
 21
192.1055529308
  0
LINE
  5
76C
100
AcDbEntity
  8
7_ALL_ROUNDS
100
AcDbLine
 62
7
  6
CONTINUOUS
 10
428.8647172014
 20
181.6336022379
 11
428.8647172014
 21
191.7375155904
  0
LINE
  5
76D
100
AcDbEntity
  8
7_ALL_ROUNDS
100
AcDbLine
 62
7
  6
CONTINUOUS
 10
428.8647172014
 20
192.2764071857
 11
428.8647172014
 21
202.3806245976
  0
LINE
  5
76E
100
AcDbEntity
  8
7_ALL_ROUNDS
100
AcDbLine
 62
7
  6
CONTINUOUS
 10
429.3703006549
 20
203.6426676731
 11
429.3703006549
 21
236.2905168221
  0
LINE
  5
76F
100
AcDbEntity
  8
7_ALL_ROUNDS
100
AcDbLine
 62
7
  6
CONTINUOUS
 10
430.2104605571
 20
180.1994736498
 11
430.2104605571
 21
235.9412784093
  0
LINE
  5
770
100
AcDbEntity
  8
7_ALL_ROUNDS
100
AcDbLine
 62
7
  6
CONTINUOUS
 10
428.5687871849
 20
191.5666613355
 11
427.967665808
 21
181.115692466
  0
LINE
  5
771
100
AcDbEntity
  8
0
100
AcDbLine
 62
7
  6
CONTINUOUS
 10
419.60763395
 20
201.5185737186
 11
419.8642608492
 21
201.7963899333
  0
LINE
  5
772
100
AcDbEntity
  8
0
100
AcDbLine
 62
7
  6
CONTINUOUS
 10
414.431508203
 20
204.506943706
 11
414.6255045419
 21
204.6343356015
  0
LINE
  5
773
100
AcDbEntity
  8
0
100
AcDbLine
 62
7
  6
CONTINUOUS
 10
416.8927738559
 20
205.0708752753
 11
417.0867701948
 21
205.1982671707
  0
LINE
  5
774
100
AcDbEntity
  8
7_ALL_ROUNDS
100
AcDbLine
 62
7
  6
CONTINUOUS
 10
410.3678146952
 20
204.4152669527
 11
409.7203645807
 21
204.0149007579
  0
LINE
  5
775
100
AcDbEntity
  8
7_ALL_ROUNDS
100
AcDbLine
 62
9
  6
CONTINUOUS
 10
410.7248189972
 20
204.2412777448
 11
410.2825646572
 21
203.9677992432
  0
LINE
  5
776
100
AcDbEntity
  8
7_ALL_ROUNDS
100
AcDbLine
 62
7
  6
CONTINUOUS
 10
430.7718533088
 20
236.265402035
 11
430.7718533088
 21
179.9097027178
  0
LINE
  5
777
100
AcDbEntity
  8
0
100
AcDbLine
 62
7
  6
CONTINUOUS
 10
414.4315187585
 20
194.8641204278
 11
414.1204679042
 21
194.554882775
  0
LINE
  5
778
100
AcDbEntity
  8
0
100
AcDbLine
 62
7
  6
CONTINUOUS
 10
414.4700664824
 20
194.8061919975
 11
414.3144642179
 21
194.6514967816
  0
LINE
  5
779
100
AcDbEntity
  8
0
100
AcDbLine
 62
7
  6
CONTINUOUS
 10
439.8208982976
 20
203.1925246492
 11
439.8208982976
 21
202.5338793645
  0
LINE
  5
77A
100
AcDbEntity
  8
7_ALL_ROUNDS
100
AcDbLine
 62
9
  6
CONTINUOUS
 10
428.0868965037
 20
203.7278420865
 11
427.1364104911
 21
203.1790820068
  0
LINE
  5
77B
100
AcDbEntity
  8
7_ALL_ROUNDS
100
AcDbLine
 62
9
  6
CONTINUOUS
 10
428.8647172014
 20
202.3806245976
 11
427.9676643313
 21
201.8627139731
  0
LINE
  5
77C
100
AcDbEntity
  8
0
100
AcDbLine
 62
7
  6
CONTINUOUS
 10
414.1204679042
 20
194.554882775
 11
414.3144642179
 21
194.6514967816
  0
LINE
  5
77D
100
AcDbEntity
  8
0
100
AcDbLine
 62
7
  6
CONTINUOUS
 10
440.9320986454
 20
203.835195952
 11
440.9320986454
 21
202.5509873428
  0
LINE
  5
77E
100
AcDbEntity
  8
0
100
AcDbLine
 62
7
  6
CONTINUOUS
 10
440.9320986454
 20
201.8923420581
 11
440.9320986454
 21
200.6081334488
  0
LINE
  5
77F
100
AcDbEntity
  8
0
100
AcDbLine
 62
7
  6
CONTINUOUS
 10
441.5025004917
 20
200.2788192394
 11
441.5025004917
 21
201.5630278486
  0
LINE
  5
780
100
AcDbEntity
  8
0
100
AcDbLine
 62
7
  6
CONTINUOUS
 10
441.5025004917
 20
202.2216731334
 11
441.5025004917
 21
203.5058817426
  0
LINE
  5
781
100
AcDbEntity
  8
0
100
AcDbLine
 62
7
  6
CONTINUOUS
 10
441.7099128663
 20
202.1019262521
 11
441.7099128663
 21
201.6827767241
  0
LINE
  5
782
100
AcDbEntity
  8
0
100
AcDbLine
 62
7
  6
CONTINUOUS
 10
442.6137008395
 20
200.9214905422
 11
442.6137008395
 21
201.580135827
  0
LINE
  5
783
100
AcDbEntity
  8
0
100
AcDbLine
 62
7
  6
CONTINUOUS
 10
424.9756137131
 20
193.9828397402
 11
424.6848492172
 21
193.8090032381
  0
LINE
  5
784
100
AcDbEntity
  8
7_ALL_ROUNDS
100
AcDbLine
 62
9
  6
CONTINUOUS
 10
423.7854430012
 20
196.7085245681
 11
423.3208663416
 21
196.4403025507
  0
LINE
  5
785
100
AcDbEntity
  8
0
100
AcDbLine
 62
7
  6
CONTINUOUS
 10
440.3985436253
 20
205.0781800516
 11
439.7040141904
 21
204.6771956889
  0
LINE
  5
786
100
AcDbEntity
  8
7_ALL_ROUNDS
100
AcDbLine
 62
9
  6
CONTINUOUS
 10
424.6157006963
 20
195.3918550148
 11
424.0985685734
 21
195.0932902496
  0
LINE
  5
787
100
AcDbEntity
  8
0
100
AcDbLine
 62
7
  6
CONTINUOUS
 10
439.8208982976
 20
202.5338793645
 11
440.3913100008
 21
202.8632047491
  0
LINE
  5
788
100
AcDbEntity
  8
0
100
AcDbLine
 62
7
  6
CONTINUOUS
 10
440.9320986454
 20
202.5509873428
 11
441.5025004917
 21
202.8803070366
  0
LINE
  5
789
100
AcDbEntity
  8
0
100
AcDbLine
 62
7
  6
CONTINUOUS
 10
440.9320986454
 20
201.8923420581
 11
441.5025054201
 21
202.2216645972
  0
LINE
  5
78A
100
AcDbEntity
  8
7_ALL_ROUNDS
100
AcDbLine
 62
9
  6
CONTINUOUS
 10
424.6334898573
 20
192.8996904691
 11
424.0985685734
 21
192.6120485669
  0
LINE
  5
78B
100
AcDbEntity
  8
7_ALL_ROUNDS
100
AcDbLine
 62
7
  6
CONTINUOUS
 10
424.5787463077
 20
192.4890309207
 11
423.8582570044
 21
192.1016039854
  0
LINE
  5
78C
100
AcDbEntity
  8
0
100
AcDbLine
 62
7
  6
CONTINUOUS
 10
416.8516620614
 20
190.4505213656
 11
417.0456583751
 21
190.5471353722
  0
LINE
  5
78D
100
AcDbEntity
  8
7_ALL_ROUNDS
100
AcDbLine
 62
7
  6
CONTINUOUS
 10
428.5924799572
 20
237.6377343109
 11
406.5801542134
 21
250.3462689991
  0
LINE
  5
78E
100
AcDbEntity
  8
7_ALL_ROUNDS
100
AcDbLine
 62
7
  6
CONTINUOUS
 10
428.6557668165
 20
238.6340720099
 11
406.5168673541
 21
251.4156824154
  0
LINE
  5
78F
100
AcDbEntity
  8
7_ALL_ROUNDS
100
AcDbLine
 62
7
  6
CONTINUOUS
 10
406.5466134103
 20
252.04674546
 11
429.2171595682
 21
238.9581956357
  0
LINE
  5
790
100
AcDbEntity
  8
0
100
AcDbLine
 62
7
  6
CONTINUOUS
 10
441.5025004917
 20
201.5630278486
 11
442.0729121949
 21
201.8923532332
  0
LINE
  5
791
100
AcDbEntity
  8
0
100
AcDbLine
 62
7
  6
CONTINUOUS
 10
440.9320986454
 20
200.6081334488
 11
441.5025004917
 21
200.9374531426
  0
LINE
  5
792
100
AcDbEntity
  8
0
100
AcDbLine
 62
7
  6
CONTINUOUS
 10
428.5687871849
 20
192.1055529308
 11
428.8647172014
 21
192.2764071857
  0
LINE
  5
793
100
AcDbEntity
  8
0
100
AcDbLine
 62
7
  6
CONTINUOUS
 10
428.8647172014
 20
191.7375155904
 11
428.5687871849
 21
191.5666613355
  0
LINE
  5
794
100
AcDbEntity
  8
0
100
AcDbLine
 62
7
  6
CONTINUOUS
 10
443.423527245
 20
199.8387169015
 11
442.7290006478
 21
199.4377341772
  0
LINE
  5
795
100
AcDbEntity
  8
7_ALL_ROUNDS
100
AcDbLine
 62
7
  6
CONTINUOUS
 10
423.6230805997
 20
192.022483727
 11
423.8588568568
 21
192.1019284306
  0
LINE
  5
796
100
AcDbEntity
  8
7_ALL_ROUNDS
100
AcDbLine
 62
9
  6
CONTINUOUS
 10
451.3682085895
 20
160.6713399154
 11
451.3682085895
 21
231.7216803288
  0
LINE
  5
797
100
AcDbEntity
  8
7_ALL_ROUNDS
100
AcDbLine
 62
9
  6
CONTINUOUS
 10
453.6602322391
 20
160.648247461
 11
453.6602322391
 21
231.6985878744
  0
LINE
  5
798
100
AcDbEntity
  8
7_ALL_ROUNDS
100
AcDbLine
 62
9
  6
CONTINUOUS
 10
448.6474945434
 20
236.43406913
 11
387.1162784351
 21
271.9583296475
  0
LINE
  5
799
100
AcDbEntity
  8
7_ALL_ROUNDS
100
AcDbLine
 62
9
  6
CONTINUOUS
 10
449.7734978876
 20
238.430571876
 11
388.2422817792
 21
273.9548323936
  0
LINE
  5
79A
100
AcDbEntity
  8
0
100
AcDbLine
 62
7
  6
CONTINUOUS
 10
456.7121645582
 20
242.7499910106
 11
456.7121645582
 21
237.4387143364
  0
LINE
  5
79B
100
AcDbEntity
  8
7_ALL_ROUNDS
100
AcDbLine
 62
7
  6
CONTINUOUS
 10
457.646756101
 20
234.0001974445
 11
457.646756101
 21
162.6392042653
  0
LINE
  5
79C
100
AcDbEntity
  8
7_ALL_ROUNDS
100
AcDbLine
 62
9
  6
CONTINUOUS
 10
429.2171595682
 20
179.0120742044
 11
429.3523802958
 21
179.1014431058
  0
LINE
  5
79D
100
AcDbEntity
  8
7_ALL_ROUNDS
100
AcDbLine
 62
9
  6
CONTINUOUS
 10
427.967665808
 20
181.115692466
 11
428.8647172014
 21
181.6336022379
  0
LINE
  5
79E
100
AcDbEntity
  8
7_ALL_ROUNDS
100
AcDbLine
 62
7
  6
CONTINUOUS
 10
427.70205834
 20
180.5903132799
 11
428.6368940415
 21
181.1300377021
  0
LINE
  5
79F
100
AcDbEntity
  8
7_ALL_ROUNDS
100
AcDbLine
 62
9
  6
CONTINUOUS
 10
430.7718533088
 20
180.4798454117
 11
430.2104605571
 21
180.1994736498
  0
LINE
  5
7A0
100
AcDbEntity
  8
7_ALL_ROUNDS
100
AcDbLine
 62
7
  6
CONTINUOUS
 10
391.9597732571
 20
276.4117643692
 11
453.7600217494
 21
240.7321814461
  0
LINE
  5
7A1
100
AcDbEntity
  8
7_ALL_ROUNDS
100
AcDbLine
 62
7
  6
CONTINUOUS
 10
430.7444790655
 20
179.6853290285
 11
429.7161934124
 21
179.1717807873
  0
LINE
  5
7A2
100
AcDbEntity
  8
0
100
AcDbLine
 62
7
  6
CONTINUOUS
 10
431.6196688517
 20
257.2368224255
 11
456.7121645582
 21
242.7499910106
  0
LINE
  5
7A3
100
AcDbEntity
  8
7_ALL_ROUNDS
100
AcDbLine
 62
9
  6
CONTINUOUS
 10
453.6602322391
 20
160.648247461
 11
457.646756101
 21
162.6392042653
  0
LINE
  5
7A4
100
AcDbEntity
  8
7_ALL_ROUNDS
100
AcDbLine
 62
7
  6
CONTINUOUS
 10
452.4071606787
 20
158.0703235187
 11
456.4110882393
 21
160.069972109
  0
LWPOLYLINE
  5
7A5
100
AcDbEntity
  8
0
100
AcDbPolyline
 62
7
  6
CONTINUOUS
 90
2
 70
1
 43
0.275
 10
352.8204016008
 20
12.9238244663
 42
1.0
 10
355.6144016008
 20
12.9238244663
 42
1.0
  0
LWPOLYLINE
  5
7A6
100
AcDbEntity
  8
0
100
AcDbPolyline
 62
7
  6
CONTINUOUS
 90
2
 70
1
 43
0.275
 10
353.5189016008
 20
12.9238244663
 42
1.0
 10
354.9159016008
 20
12.9238244663
 42
1.0
  0
ARC
  5
7A7
100
AcDbEntity
  8
0
100
AcDbCircle
 62
7
  6
CONTINUOUS
 10
422.780688838
 20
48.2800174462
 40
0.2488752598
100
AcDbArc
 50
90.0
 51
180.0
  0
ARC
  5
7A8
100
AcDbEntity
  8
0
100
AcDbCircle
 62
7
  6
CONTINUOUS
 10
404.3460011257
 20
48.3250963884
 40
0.2488752598
100
AcDbArc
 50
90.0
 51
180.0
  0
ARC
  5
7A9
100
AcDbEntity
  8
0
100
AcDbCircle
 62
7
  6
CONTINUOUS
 10
428.5155448037
 20
48.7777679648
 40
0.2488752588
100
AcDbArc
 50
270.0
 51
360.0
  0
ARC
  5
7AA
100
AcDbEntity
  8
0
100
AcDbCircle
 62
7
  6
CONTINUOUS
 10
417.3349230569
 20
46.2954345955
 40
0.2488752588
100
AcDbArc
 50
0.0
 51
89.9999995368
  0
ARC
  5
7AB
100
AcDbEntity
  8
0
100
AcDbCircle
 62
7
  6
CONTINUOUS
 10
411.7629689795
 20
45.289506509
 40
0.2488752588
100
AcDbArc
 50
90.0
 51
180.0
  0
ARC
  5
7AC
100
AcDbEntity
  8
0
100
AcDbCircle
 62
7
  6
CONTINUOUS
 10
411.7629689795
 20
44.8179782483
 40
0.2488752588
100
AcDbArc
 50
180.0
 51
270.0
  0
ARC
  5
7AD
100
AcDbEntity
  8
0
100
AcDbCircle
 62
7
  6
CONTINUOUS
 10
419.5435053397
 20
48.7678383723
 40
0.2488752588
100
AcDbArc
 50
270.0
 51
360.0
  0
ARC
  5
7AE
100
AcDbEntity
  8
0
100
AcDbCircle
 62
7
  6
CONTINUOUS
 10
419.5435053397
 20
49.275689523
 40
0.2488752588
100
AcDbArc
 50
359.9999995369
 51
90.0
  0
ARC
  5
7AF
100
AcDbEntity
  8
0
100
AcDbCircle
 62
7
  6
CONTINUOUS
 10
404.3460011247
 20
45.8434276242
 40
0.2488752588
100
AcDbArc
 50
180.0
 51
270.0
  0
ARC
  5
7B0
100
AcDbEntity
  8
0
100
AcDbCircle
 62
7
  6
CONTINUOUS
 10
413.9639881522
 20
47.7991909005
 40
0.2488752588
100
AcDbArc
 50
180.0
 51
270.0
  0
ARC
  5
7B1
100
AcDbEntity
  8
0
100
AcDbCircle
 62
7
  6
CONTINUOUS
 10
422.7806888369
 20
45.8088167264
 40
0.2488752588
100
AcDbArc
 50
180.0
 51
270.0
  0
ARC
  5
7B2
100
AcDbEntity
  8
0
100
AcDbCircle
 62
7
  6
CONTINUOUS
 10
428.5155448047
 20
49.275689525
 40
0.2488752577
100
AcDbArc
 50
0.000000539
 51
89.9999999245
  0
ARC
  5
7B3
100
AcDbEntity
  8
0
100
AcDbCircle
 62
7
  6
CONTINUOUS
 10
428.515544805
 20
44.8096740079
 40
0.2488752574
100
AcDbArc
 50
270.1250535673
 51
360.0
  0
ARC
  5
7B4
100
AcDbEntity
  8
0
100
AcDbCircle
 62
7
  6
CONTINUOUS
 10
428.5155448047
 20
45.3110662099
 40
0.2488752577
100
AcDbArc
 50
0.0
 51
90.0
  0
ARC
  5
7B5
100
AcDbEntity
  8
0
100
AcDbCircle
 62
7
  6
CONTINUOUS
 10
413.9639881513
 20
48.2700878557
 40
0.2488752577
100
AcDbArc
 50
90.0
 51
180.0
  0
ARC
  5
7B6
100
AcDbEntity
  8
0
100
AcDbCircle
 62
7
  6
CONTINUOUS
 10
409.3184400375
 20
45.8434276282
 40
0.2488752577
100
AcDbArc
 50
270.0
 51
360.0
  0
ARC
  5
7B7
100
AcDbEntity
  8
0
100
AcDbCircle
 62
7
  6
CONTINUOUS
 10
409.3184400375
 20
48.3250963904
 40
0.2488752577
100
AcDbArc
 50
0.0000004631
 51
90.0000004631
  0
ARC
  5
7B8
100
AcDbEntity
  8
0
100
AcDbCircle
 62
7
  6
CONTINUOUS
 10
417.3349230578
 20
45.7872570255
 40
0.2488752577
100
AcDbArc
 50
270.0
 51
360.0
  0
ARC
  5
7B9
100
AcDbEntity
  8
0
100
AcDbCircle
 62
7
  6
CONTINUOUS
 10
407.3002169236
 20
46.0739991679
 40
0.0957212534
100
AcDbArc
 50
90.0000000001
 51
180.0
  0
ARC
  5
7BA
100
AcDbEntity
  8
0
100
AcDbCircle
 62
7
  6
CONTINUOUS
 10
407.3219872209
 20
44.0881660352
 40
0.0957212524
100
AcDbArc
 50
180.0
 51
270.0
  0
ARC
  5
7BB
100
AcDbEntity
  8
0
100
AcDbCircle
 62
7
  6
CONTINUOUS
 10
408.8124644897
 20
44.0881660352
 40
0.0957212524
100
AcDbArc
 50
270.0
 51
360.0
  0
ARC
  5
7BC
100
AcDbEntity
  8
0
100
AcDbCircle
 62
7
  6
CONTINUOUS
 10
408.7830983804
 20
46.0739991709
 40
0.0957212504
100
AcDbArc
 50
0.0
 51
89.9999987958
  0
ARC
  5
7BD
100
AcDbEntity
  8
7_ALL_ROUNDS
100
AcDbCircle
 62
7
  6
CONTINUOUS
 10
172.1781468482
 20
185.200668347
 40
3.0
100
AcDbArc
 50
0.0
 51
90.0
  0
ARC
  5
7BE
100
AcDbEntity
  8
7_ALL_ROUNDS
100
AcDbCircle
 62
7
  6
CONTINUOUS
 10
172.1781468482
 20
108.580668513
 40
3.0
100
AcDbArc
 50
270.0
 51
360.0
  0
ARC
  5
7BF
100
AcDbEntity
  8
7_ALL_ROUNDS
100
AcDbCircle
 62
7
  6
CONTINUOUS
 10
95.3781468482
 20
108.580668513
 40
3.0
100
AcDbArc
 50
180.0
 51
270.0
  0
ARC
  5
7C0
100
AcDbEntity
  8
7_ALL_ROUNDS
100
AcDbCircle
 62
7
  6
CONTINUOUS
 10
95.3781468482
 20
185.200668347
 40
3.0
100
AcDbArc
 50
90.0
 51
180.0
  0
ARC
  5
7C1
100
AcDbEntity
  8
0
100
AcDbCircle
 62
7
  6
CONTINUOUS
 10
163.7781468482
 20
145.180668347
 40
2.25
100
AcDbArc
 50
180.0
 51
360.0
  0
ARC
  5
7C2
100
AcDbEntity
  8
0
100
AcDbCircle
 62
7
  6
CONTINUOUS
 10
163.7781468482
 20
148.180668347
 40
2.25
100
AcDbArc
 50
0.0
 51
180.0
  0
ARC
  5
7C3
100
AcDbEntity
  8
0
100
AcDbCircle
 62
7
  6
CONTINUOUS
 10
103.7781468482
 20
148.180668347
 40
2.25
100
AcDbArc
 50
0.0
 51
180.0
  0
ARC
  5
7C4
100
AcDbEntity
  8
0
100
AcDbCircle
 62
7
  6
CONTINUOUS
 10
103.7781468482
 20
145.180668347
 40
2.25
100
AcDbArc
 50
180.0
 51
360.0
  0
ARC
  5
7C5
100
AcDbEntity
  8
0
100
AcDbCircle
 62
7
  6
CONTINUOUS
 10
115.7576850482
 20
139.687668347
 40
2.1
100
AcDbArc
 50
90.0
 51
270.0
  0
ARC
  5
7C6
100
AcDbEntity
  8
0
100
AcDbCircle
 62
7
  6
CONTINUOUS
 10
115.7576850482
 20
139.687668347
 40
1.8719204304
100
AcDbArc
 50
90.0
 51
270.0
  0
ARC
  5
7C7
100
AcDbEntity
  8
7_ALL_ROUNDS
100
AcDbCircle
 62
9
  6
CONTINUOUS
 10
125.3969983672
 20
129.311816828
 40
1.0000020916
100
AcDbArc
 50
90.0088455625
 51
179.9911544375
  0
ARC
  5
7C8
100
AcDbEntity
  8
7_ALL_ROUNDS
100
AcDbCircle
 62
9
  6
CONTINUOUS
 10
125.3969983672
 20
126.549519866
 40
1.0000020916
100
AcDbArc
 50
180.0088455625
 51
269.9911544375
  0
ARC
  5
7C9
100
AcDbEntity
  8
7_ALL_ROUNDS
100
AcDbCircle
 62
9
  6
CONTINUOUS
 10
142.1592953292
 20
126.549519866
 40
1.0000020916
100
AcDbArc
 50
270.0088455625
 51
359.9911544375
  0
ARC
  5
7CA
100
AcDbEntity
  8
7_ALL_ROUNDS
100
AcDbCircle
 62
9
  6
CONTINUOUS
 10
142.1592953292
 20
129.311816828
 40
1.0000020916
100
AcDbArc
 50
0.0088455625
 51
89.9911544375
  0
ARC
  5
7CB
100
AcDbEntity
  8
7_ALL_ROUNDS
100
AcDbCircle
 62
7
  6
CONTINUOUS
 10
119.6281468482
 20
177.5608143302
 40
1.0
100
AcDbArc
 50
90.0
 51
180.0
  0
ARC
  5
7CC
100
AcDbEntity
  8
7_ALL_ROUNDS
100
AcDbCircle
 62
7
  6
CONTINUOUS
 10
147.9281468482
 20
177.5608143302
 40
1.0
100
AcDbArc
 50
0.0
 51
90.0
  0
ARC
  5
7CD
100
AcDbEntity
  8
7_ALL_ROUNDS
100
AcDbCircle
 62
7
  6
CONTINUOUS
 10
120.2781468482
 20
139.480668347
 40
1.0
100
AcDbArc
 50
90.0
 51
180.0
  0
ARC
  5
7CE
100
AcDbEntity
  8
7_ALL_ROUNDS
100
AcDbCircle
 62
7
  6
CONTINUOUS
 10
147.2781468482
 20
139.480668347
 40
1.0
100
AcDbArc
 50
0.0
 51
90.0
  0
ARC
  5
7CF
100
AcDbEntity
  8
7_ALL_ROUNDS
100
AcDbCircle
 62
7
  6
CONTINUOUS
 10
147.2781468482
 20
116.3810068858
 40
1.0
100
AcDbArc
 50
270.0
 51
360.0
  0
ARC
  5
7D0
100
AcDbEntity
  8
7_ALL_ROUNDS
100
AcDbCircle
 62
7
  6
CONTINUOUS
 10
120.2781468482
 20
116.3810068858
 40
1.0
100
AcDbArc
 50
180.0
 51
270.0
  0
CIRCLE
  5
7D1
100
AcDbEntity
  8
0
100
AcDbCircle
 62
7
  6
CONTINUOUS
 10
115.7576850482
 20
139.687668347
 40
0.8044432378
  0
ARC
  5
7D2
100
AcDbEntity
  8
7_ALL_ROUNDS
100
AcDbCircle
 62
9
  6
CONTINUOUS
 10
142.1594793474
 20
129.3120008462
 40
0.4998933852
100
AcDbArc
 50
359.9966035085
 51
90.00339649
  0
ARC
  5
7D3
100
AcDbEntity
  8
7_ALL_ROUNDS
100
AcDbCircle
 62
9
  6
CONTINUOUS
 10
142.1594791416
 20
126.5493360536
 40
0.4998933852
100
AcDbArc
 50
269.9966271042
 51
0.003372894
  0
ARC
  5
7D4
100
AcDbEntity
  8
7_ALL_ROUNDS
100
AcDbCircle
 62
9
  6
CONTINUOUS
 10
125.3968145549
 20
126.5493360536
 40
0.4998933852
100
AcDbArc
 50
179.9966271042
 51
270.003372894
  0
ARC
  5
7D5
100
AcDbEntity
  8
7_ALL_ROUNDS
100
AcDbCircle
 62
9
  6
CONTINUOUS
 10
125.396814349
 20
129.3120008462
 40
0.4998933852
100
AcDbArc
 50
89.9966035085
 51
180.00339649
  0
ARC
  5
7D6
100
AcDbEntity
  8
7_ALL_ROUNDS
100
AcDbCircle
 62
7
  6
CONTINUOUS
 10
124.8969201351
 20
236.8204290385
 40
0.5
100
AcDbArc
 50
206.6903669148
 51
270.0
  0
ARC
  5
7D7
100
AcDbEntity
  8
7_ALL_ROUNDS
100
AcDbCircle
 62
7
  6
CONTINUOUS
 10
142.6593735613
 20
236.8204290385
 40
0.5
100
AcDbArc
 50
269.9999999995
 51
333.309669084
  0
ARC
  5
7D8
100
AcDbEntity
  8
7_ALL_ROUNDS
100
AcDbCircle
 62
7
  6
CONTINUOUS
 10
116.5560868482
 20
266.4062458464
 40
0.38
100
AcDbArc
 50
0.0
 51
131.4373058419
  0
ARC
  5
7D9
100
AcDbEntity
  8
7_ALL_ROUNDS
100
AcDbCircle
 62
7
  6
CONTINUOUS
 10
115.2013084129
 20
265.2102793583
 40
0.38
100
AcDbArc
 50
131.4373058419
 51
214.3996422699
  0
ARC
  5
7DA
100
AcDbEntity
  8
7_ALL_ROUNDS
100
AcDbCircle
 62
7
  6
CONTINUOUS
 10
115.6400626215
 20
260.9763151746
 40
0.38
100
AcDbArc
 50
205.989187002
 51
360.0
  0
ARC
  5
7DB
100
AcDbEntity
  8
7_ALL_ROUNDS
100
AcDbCircle
 62
7
  6
CONTINUOUS
 10
111.6010868482
 20
260.9783190385
 40
0.38
100
AcDbArc
 50
90.0
 51
180.0
  0
ARC
  5
7DC
100
AcDbEntity
  8
7_ALL_ROUNDS
100
AcDbCircle
 62
9
  6
CONTINUOUS
 10
121.1531205231
 20
58.9843040022
 40
1.000273062
100
AcDbArc
 50
90.0240505121
 51
179.975989394
  0
ARC
  5
7DD
100
AcDbEntity
  8
7_ALL_ROUNDS
100
AcDbCircle
 62
9
  6
CONTINUOUS
 10
121.1531196468
 20
53.5108907945
 40
1.0002729795
100
AcDbArc
 50
180.0240584647
 51
269.9759997034
  0
ARC
  5
7DE
100
AcDbEntity
  8
7_ALL_ROUNDS
100
AcDbCircle
 62
9
  6
CONTINUOUS
 10
130.3857340922
 20
58.9843034273
 40
1.000272841
100
AcDbArc
 50
0.0240435593
 51
89.9760021395
  0
ARC
  5
7DF
100
AcDbEntity
  8
7_ALL_ROUNDS
100
AcDbCircle
 62
9
  6
CONTINUOUS
 10
130.3857367777
 20
53.5108870513
 40
1.0002696453
100
AcDbArc
 50
270.0238441208
 51
359.9761558792
  0
ARC
  5
7E0
100
AcDbEntity
  8
7_ALL_ROUNDS
100
AcDbCircle
 62
7
  6
CONTINUOUS
 10
124.8969201351
 20
83.3645829808
 40
0.5
100
AcDbArc
 50
90.0
 51
153.3096330852
  0
ARC
  5
7E1
100
AcDbEntity
  8
7_ALL_ROUNDS
100
AcDbCircle
 62
7
  6
CONTINUOUS
 10
142.6593735613
 20
83.3645829808
 40
0.5
100
AcDbArc
 50
26.690330916
 51
90.0000000005
  0
ARC
  5
7E2
100
AcDbEntity
  8
7_ALL_ROUNDS
100
AcDbCircle
 62
7
  6
CONTINUOUS
 10
115.6400626215
 20
59.2086968446
 40
0.38
100
AcDbArc
 50
0.0
 51
24.6323889114
  0
ARC
  5
7E3
100
AcDbEntity
  8
7_ALL_ROUNDS
100
AcDbCircle
 62
7
  6
CONTINUOUS
 10
115.2013084129
 20
54.9747326609
 40
0.38
100
AcDbArc
 50
145.6003577301
 51
228.5626941581
  0
ARC
  5
7E4
100
AcDbEntity
  8
7_ALL_ROUNDS
100
AcDbCircle
 62
7
  6
CONTINUOUS
 10
116.5560868482
 20
53.7787661729
 40
0.38
100
AcDbArc
 50
228.5626941581
 51
360.0
  0
ARC
  5
7E5
100
AcDbEntity
  8
7_ALL_ROUNDS
100
AcDbCircle
 62
7
  6
CONTINUOUS
 10
111.6010868482
 20
59.2066929808
 40
0.38
100
AcDbArc
 50
180.0
 51
270.0
  0
ARC
  5
7E6
100
AcDbEntity
  8
7_ALL_ROUNDS
100
AcDbCircle
 62
9
  6
CONTINUOUS
 10
49.0987017673
 20
186.0580682775
 40
54.4258288207
100
AcDbArc
 50
268.9959566849
 51
269.3160703806
  0
ARC
  5
7E7
100
AcDbEntity
  8
7_ALL_ROUNDS
100
AcDbCircle
 62
9
  6
CONTINUOUS
 10
48.9257239435
 20
170.5006394822
 40
38.8674457139
100
AcDbArc
 50
269.2972952719
 51
269.7088372338
  0
ARC
  5
7E8
100
AcDbEntity
  8
0
100
AcDbCircle
 62
7
  6
CONTINUOUS
 10
67.2271364519
 20
127.930668347
 40
1.6175180217
100
AcDbArc
 50
222.4235101701
 51
137.5764898299
  0
ARC
  5
7E9
100
AcDbEntity
  8
7_ALL_ROUNDS
100
AcDbCircle
 62
7
  6
CONTINUOUS
 10
48.1449998843
 20
131.658048347
 40
1.0
100
AcDbArc
 50
270.0
 51
292.6933416605
  0
ARC
  5
7EA
100
AcDbEntity
  8
7_ALL_ROUNDS
100
AcDbCircle
 62
7
  6
CONTINUOUS
 10
48.1449998843
 20
131.658048347
 40
1.0
100
AcDbArc
 50
354.7247772819
 51
359.0
  0
ARC
  5
7EB
100
AcDbEntity
  8
7_ALL_ROUNDS
100
AcDbCircle
 62
7
  6
CONTINUOUS
 10
42.6707474888
 20
131.658048347
 40
1.0
100
AcDbArc
 50
181.0
 51
270.0
  0
ARC
  5
7EC
100
AcDbEntity
  8
7_ALL_ROUNDS
100
AcDbCircle
 62
7
  6
CONTINUOUS
 10
72.5248596865
 20
126.0494416339
 40
0.5
100
AcDbArc
 50
271.0
 51
360.0
  0
ARC
  5
7ED
100
AcDbEntity
  8
7_ALL_ROUNDS
100
AcDbCircle
 62
7
  6
CONTINUOUS
 10
72.5248596865
 20
129.8118950601
 40
0.5
100
AcDbArc
 50
0.0
 51
89.0
  0
ARC
  5
7EE
100
AcDbEntity
  8
7_ALL_ROUNDS
100
AcDbCircle
 62
9
  6
CONTINUOUS
 10
254.2158994849
 20
187.2648101551
 40
55.6326945233
100
AcDbArc
 50
270.6807814407
 51
271.0004236042
  0
ARC
  5
7EF
100
AcDbEntity
  8
7_ALL_ROUNDS
100
AcDbCircle
 62
9
  6
CONTINUOUS
 10
254.3828434964
 20
173.2637761915
 40
41.6306653164
100
AcDbArc
 50
270.2953394603
 51
270.679986539
  0
ARC
  5
7F0
100
AcDbEntity
  8
0
100
AcDbCircle
 62
7
  6
CONTINUOUS
 10
236.1050985592
 20
127.930668347
 40
1.6175180217
100
AcDbArc
 50
42.4235101701
 51
317.5764898299
  0
ARC
  5
7F1
100
AcDbEntity
  8
7_ALL_ROUNDS
100
AcDbCircle
 62
7
  6
CONTINUOUS
 10
255.1872351268
 20
131.658048347
 40
1.0
100
AcDbArc
 50
247.3066583395
 51
270.0
  0
ARC
  5
7F2
100
AcDbEntity
  8
7_ALL_ROUNDS
100
AcDbCircle
 62
7
  6
CONTINUOUS
 10
255.1872351268
 20
131.658048347
 40
1.0
100
AcDbArc
 50
181.0
 51
185.2752227181
  0
ARC
  5
7F3
100
AcDbEntity
  8
7_ALL_ROUNDS
100
AcDbCircle
 62
7
  6
CONTINUOUS
 10
260.6614875223
 20
131.658048347
 40
1.0
100
AcDbArc
 50
270.0
 51
359.0
  0
ARC
  5
7F4
100
AcDbEntity
  8
7_ALL_ROUNDS
100
AcDbCircle
 62
7
  6
CONTINUOUS
 10
230.8073753245
 20
126.0494416339
 40
0.5
100
AcDbArc
 50
180.0
 51
269.0
  0
ARC
  5
7F5
100
AcDbEntity
  8
7_ALL_ROUNDS
100
AcDbCircle
 62
7
  6
CONTINUOUS
 10
230.8073753245
 20
129.8118950601
 40
0.5
100
AcDbArc
 50
91.0
 51
180.0
  0
ARC
  5
7F6
100
AcDbEntity
  8
0
100
AcDbCircle
 62
7
  6
CONTINUOUS
 10
322.2557781563
 20
146.6802654038
 40
30.8014816777
100
AcDbArc
 50
43.0708580895
 51
70.2708580895
  0
ARC
  5
7F7
100
AcDbEntity
  8
0
100
AcDbCircle
 62
7
  6
CONTINUOUS
 10
322.2573410787
 20
146.6802654038
 40
30.8014816777
100
AcDbArc
 50
109.7291419105
 51
136.9291419105
  0
ARC
  5
7F8
100
AcDbEntity
  8
0
100
AcDbCircle
 62
7
  6
CONTINUOUS
 10
322.2573410787
 20
146.6810712901
 40
30.8014816777
100
AcDbArc
 50
223.0708580895
 51
250.2708580895
  0
ARC
  5
7F9
100
AcDbEntity
  8
0
100
AcDbCircle
 62
7
  6
CONTINUOUS
 10
322.2557781563
 20
146.6810712901
 40
30.8014816777
100
AcDbArc
 50
289.7291419105
 51
316.9291419105
  0
ARC
  5
7FA
100
AcDbEntity
  8
0
100
AcDbCircle
 62
7
  6
CONTINUOUS
 10
322.2565596175
 20
176.6741557598
 40
5.3700233764
100
AcDbArc
 50
190.7375
 51
349.2625
  0
ARC
  5
7FB
100
AcDbEntity
  8
0
100
AcDbCircle
 62
7
  6
CONTINUOUS
 10
322.2565596175
 20
116.6871809342
 40
5.3700233764
100
AcDbArc
 50
10.7375
 51
169.2625
  0
ARC
  5
7FC
100
AcDbEntity
  8
7_ALL_ROUNDS
100
AcDbCircle
 62
7
  6
CONTINUOUS
 10
283.8565596175
 20
185.200668347
 40
3.0
100
AcDbArc
 50
90.0
 51
180.0
  0
ARC
  5
7FD
100
AcDbEntity
  8
7_ALL_ROUNDS
100
AcDbCircle
 62
7
  6
CONTINUOUS
 10
360.6565596175
 20
185.200668347
 40
3.0
100
AcDbArc
 50
0.0
 51
90.0
  0
ARC
  5
7FE
100
AcDbEntity
  8
7_ALL_ROUNDS
100
AcDbCircle
 62
7
  6
CONTINUOUS
 10
360.6565596175
 20
108.580668513
 40
3.0
100
AcDbArc
 50
270.0
 51
360.0
  0
ARC
  5
7FF
100
AcDbEntity
  8
7_ALL_ROUNDS
100
AcDbCircle
 62
7
  6
CONTINUOUS
 10
283.8565596175
 20
108.580668513
 40
3.0
100
AcDbArc
 50
180.0
 51
270.0
  0
ARC
  5
800
100
AcDbEntity
  8
0
100
AcDbCircle
 62
7
  6
CONTINUOUS
 10
292.2565596175
 20
145.180668347
 40
2.25
100
AcDbArc
 50
180.0
 51
360.0
  0
ARC
  5
801
100
AcDbEntity
  8
0
100
AcDbCircle
 62
7
  6
CONTINUOUS
 10
292.2565596175
 20
148.180668347
 40
2.25
100
AcDbArc
 50
0.0
 51
180.0
  0
ARC
  5
802
100
AcDbEntity
  8
0
100
AcDbCircle
 62
7
  6
CONTINUOUS
 10
352.2565596175
 20
145.180668347
 40
2.25
100
AcDbArc
 50
180.0
 51
360.0
  0
ARC
  5
803
100
AcDbEntity
  8
0
100
AcDbCircle
 62
7
  6
CONTINUOUS
 10
352.2565596175
 20
148.180668347
 40
2.25
100
AcDbArc
 50
0.0
 51
180.0
  0
ARC
  5
804
100
AcDbEntity
  8
0
100
AcDbCircle
 62
7
  6
CONTINUOUS
 10
333.2565606102
 20
171.1806696105
 40
1.7500009888
100
AcDbArc
 50
193.2130132045
 51
346.7869719378
  0
ARC
  5
805
100
AcDbEntity
  8
0
100
AcDbCircle
 62
7
  6
CONTINUOUS
 10
311.2565606102
 20
171.1806696105
 40
1.7500009888
100
AcDbArc
 50
193.2130132045
 51
346.7869719378
  0
ARC
  5
806
100
AcDbEntity
  8
0
100
AcDbCircle
 62
7
  6
CONTINUOUS
 10
333.2565596175
 20
171.180668347
 40
1.75
100
AcDbArc
 50
13.2129803602
 51
166.7870196398
  0
ARC
  5
807
100
AcDbEntity
  8
0
100
AcDbCircle
 62
7
  6
CONTINUOUS
 10
311.2565596175
 20
171.180668347
 40
1.75
100
AcDbArc
 50
13.2129803602
 51
166.7870196398
  0
CIRCLE
  5
808
100
AcDbEntity
  8
0
100
AcDbCircle
 62
7
  6
CONTINUOUS
 10
341.8565596175
 20
128.680668347
 40
1.25
  0
CIRCLE
  5
809
100
AcDbEntity
  8
0
100
AcDbCircle
 62
7
  6
CONTINUOUS
 10
302.6565596175
 20
128.680668347
 40
1.25
  0
ARC
  5
80A
100
AcDbEntity
  8
7_ALL_ROUNDS
100
AcDbCircle
 62
7
  6
CONTINUOUS
 10
334.8820058152
 20
131.658048347
 40
1.0
100
AcDbArc
 50
270.0
 51
359.0
  0
ARC
  5
80B
100
AcDbEntity
  8
7_ALL_ROUNDS
100
AcDbCircle
 62
7
  6
CONTINUOUS
 10
325.6485534197
 20
131.658048347
 40
1.0
100
AcDbArc
 50
181.0
 51
270.0
  0
CIRCLE
  5
80C
100
AcDbEntity
  8
0
100
AcDbCircle
 62
7
  6
CONTINUOUS
 10
341.8565596175
 20
128.680668347
 40
0.97
  0
CIRCLE
  5
80D
100
AcDbEntity
  8
0
100
AcDbCircle
 62
7
  6
CONTINUOUS
 10
302.6565596175
 20
128.680668347
 40
0.97
  0
ARC
  5
80E
100
AcDbEntity
  8
0
100
AcDbCircle
 62
7
  6
CONTINUOUS
 10
333.2565606102
 20
171.1806696105
 40
0.8000006487
100
AcDbArc
 50
210.0028108488
 51
329.9975815097
  0
ARC
  5
80F
100
AcDbEntity
  8
0
100
AcDbCircle
 62
7
  6
CONTINUOUS
 10
311.2565606102
 20
171.1806696105
 40
0.8000006487
100
AcDbArc
 50
210.0028108488
 51
329.9975815097
  0
ARC
  5
810
100
AcDbEntity
  8
0
100
AcDbCircle
 62
7
  6
CONTINUOUS
 10
333.2565596175
 20
171.180668347
 40
0.8
100
AcDbArc
 50
30.000001195
 51
150.0000003552
  0
ARC
  5
811
100
AcDbEntity
  8
0
100
AcDbCircle
 62
7
  6
CONTINUOUS
 10
311.2565596175
 20
171.180668347
 40
0.8
100
AcDbArc
 50
30.000001195
 51
150.0000003552
  0
ARC
  5
812
100
AcDbEntity
  8
0
100
AcDbCircle
 62
7
  6
CONTINUOUS
 10
438.9419522906
 20
201.0916475202
 40
4.3536354545
100
AcDbArc
 50
48.4339112464
 51
49.2470038578
  0
ARC
  5
813
100
AcDbEntity
  8
0
100
AcDbCircle
 62
7
  6
CONTINUOUS
 10
392.273135377
 20
228.0360211618
 40
4.3529915027
100
AcDbArc
 50
48.4338706903
 51
49.2595416849
  0
ARC
  5
814
100
AcDbEntity
  8
0
100
AcDbCircle
 62
7
  6
CONTINUOUS
 10
439.2455272431
 20
200.5717384317
 40
4.3507273795
100
AcDbArc
 50
10.7335855019
 51
11.5585041202
  0
ARC
  5
815
100
AcDbEntity
  8
0
100
AcDbCircle
 62
7
  6
CONTINUOUS
 10
392.5763563775
 20
227.5156423927
 40
4.3506549873
100
AcDbArc
 50
10.7320708019
 51
11.5585087228
  0
ARC
  5
816
100
AcDbEntity
  8
0
100
AcDbCircle
 62
7
  6
CONTINUOUS
 10
393.4276205311
 20
230.1186472966
 40
1.9499212805
100
AcDbArc
 50
74.9708526423
 51
78.9099921883
  0
ARC
  5
817
100
AcDbEntity
  8
0
100
AcDbCircle
 62
7
  6
CONTINUOUS
 10
440.0968623908
 20
203.1747574983
 40
1.9499212805
100
AcDbArc
 50
74.9708526423
 51
78.9099921883
  0
ARC
  5
818
100
AcDbEntity
  8
0
100
AcDbCircle
 62
7
  6
CONTINUOUS
 10
441.6263942402
 20
200.5281363783
 40
1.9476111747
100
AcDbArc
 50
341.0980902615
 51
345.0435270543
  0
ARC
  5
819
100
AcDbEntity
  8
0
100
AcDbCircle
 62
7
  6
CONTINUOUS
 10
394.9571523805
 20
227.4720261766
 40
1.9476111747
100
AcDbArc
 50
341.0980902615
 51
345.0435270544
  0
ARC
  5
81A
100
AcDbEntity
  8
0
100
AcDbCircle
 62
7
  6
CONTINUOUS
 10
441.3389894982
 20
204.1250661749
 40
1.6863844631
100
AcDbArc
 50
155.0641980725
 51
158.5795538787
  0
ARC
  5
81B
100
AcDbEntity
  8
0
100
AcDbCircle
 62
7
  6
CONTINUOUS
 10
394.6697476383
 20
231.0689559733
 40
1.6863844629
100
AcDbArc
 50
155.0641980723
 51
158.5795538788
  0
ARC
  5
81C
100
AcDbEntity
  8
0
100
AcDbCircle
 62
7
  6
CONTINUOUS
 10
396.3945499176
 20
228.0321511793
 40
1.6446591456
100
AcDbArc
 50
261.4234515858
 51
267.0738070311
  0
ARC
  5
81D
100
AcDbEntity
  8
0
100
AcDbCircle
 62
7
  6
CONTINUOUS
 10
443.0637917773
 20
201.0882613809
 40
1.6446591456
100
AcDbArc
 50
261.4234515858
 51
267.073807031
  0
ARC
  5
81E
100
AcDbEntity
  8
0
100
AcDbCircle
 62
7
  6
CONTINUOUS
 10
393.4276593325
 20
230.9406106794
 40
1.1157519723
100
AcDbArc
 50
116.3095673083
 51
120.0006094149
  0
ARC
  5
81F
100
AcDbEntity
  8
0
100
AcDbCircle
 62
7
  6
CONTINUOUS
 10
440.0969011921
 20
203.9967208812
 40
1.1157519721
100
AcDbArc
 50
116.3095673081
 51
120.0006094151
  0
SPLINE
  5
820
100
AcDbEntity
  8
0
100
AcDbSpline
 62
7
  6
CONTINUOUS
 70
0
 71
3
 72
13
 73
9
 74
0
 42
0.0000001
 43
0.0000001
 44
0.0000000001
 40
0.0
 40
0.0
 40
0.0
 40
0.0
 40
0.1317357684
 40
0.2713541552
 40
0.4178991716
 40
0.5930152361
 40
0.7698067128
 40
1.0
 40
1.0
 40
1.0
 40
1.0
 10
421.8248312598
 20
49.5245647827
 30
0.0
 10
421.6841863706
 20
49.514089458
 30
0.0
 10
421.3944808918
 20
49.4925120033
 30
0.0
 10
421.0018722719
 20
49.2492293256
 30
0.0
 10
420.7200261352
 20
48.8408015241
 30
0.0
 10
420.5367552153
 20
48.3413842291
 30
0.0
 10
420.433525842
 20
47.7308886795
 30
0.0
 10
420.4240212092
 20
47.2995018034
 30
0.0
 10
420.4190951782
 20
47.0554744722
 30
0.0
  0
SPLINE
  5
821
100
AcDbEntity
  8
0
100
AcDbSpline
 62
7
  6
CONTINUOUS
 70
0
 71
3
 72
13
 73
9
 74
0
 42
0.0000001
 43
0.0000001
 44
0.0000000001
 40
0.0
 40
0.0
 40
0.0
 40
0.0
 40
0.2249509061
 40
0.4029463322
 40
0.5792549365
 40
0.726797924
 40
0.8673671114
 40
1.0
 40
1.0
 40
1.0
 40
1.0
 10
420.4195319803
 20
47.0176060265
 30
0.0
 10
420.4243609276
 20
46.7807522576
 30
0.0
 10
420.4347232321
 20
46.3566136718
 30
0.0
 10
420.5367551308
 20
45.7531948705
 30
0.0
 10
420.7200282454
 20
45.2538334318
 30
0.0
 10
421.0018655911
 20
44.8452322959
 30
0.0
 10
421.394504175
 20
44.6025311647
 30
0.0
 10
421.6841390237
 20
44.5795843493
 30
0.0
 10
421.8248312598
 20
44.5691055022
 30
0.0
  0
SPLINE
  5
822
100
AcDbEntity
  8
0
100
AcDbSpline
 62
7
  6
CONTINUOUS
 70
0
 71
3
 72
13
 73
9
 74
0
 42
0.0000001
 43
0.0000001
 44
0.0000000001
 40
0.0
 40
0.0
 40
0.0
 40
0.0
 40
0.1604571392
 40
0.3334692485
 40
0.4767982758
 40
0.6242014838
 40
0.7505998515
 40
1.0
 40
1.0
 40
1.0
 40
1.0
 10
418.6802657841
 20
44.5691029896
 30
0.0
 10
418.7968922722
 20
44.5747183469
 30
0.0
 10
419.0392706837
 20
44.5863884284
 30
0.0
 10
419.3652009912
 20
44.7278924217
 30
0.0
 10
419.610800217
 20
44.965748824
 30
0.0
 10
419.7492050402
 20
45.2384419997
 30
0.0
 10
419.8553179535
 20
45.6042626885
 30
0.0
 10
419.859624019
 20
45.8780255369
 30
0.0
 10
419.8624817552
 20
46.0597093157
 30
0.0
  0
SPLINE
  5
823
100
AcDbEntity
  8
0
100
AcDbSpline
 62
7
  6
CONTINUOUS
 70
0
 71
3
 72
13
 73
9
 74
0
 42
0.0000001
 43
0.0000001
 44
0.0000000001
 40
0.0
 40
0.0
 40
0.0
 40
0.0
 40
0.2494001485
 40
0.3757985162
 40
0.5232017242
 40
0.6665307515
 40
0.8395428608
 40
1.0
 40
1.0
 40
1.0
 40
1.0
 10
419.8624817552
 20
46.0597093157
 30
0.0
 10
419.859624019
 20
46.2413930965
 30
0.0
 10
419.8553179535
 20
46.5151559429
 30
0.0
 10
419.7492050402
 20
46.8809766356
 30
0.0
 10
419.610800217
 20
47.1536698114
 30
0.0
 10
419.3652009912
 20
47.3915262097
 30
0.0
 10
419.0392706837
 20
47.5330302029
 30
0.0
 10
418.7968922722
 20
47.5447002885
 30
0.0
 10
418.6802657841
 20
47.5503156418
 30
0.0
  0
SPLINE
  5
824
100
AcDbEntity
  8
0
100
AcDbSpline
 62
7
  6
CONTINUOUS
 70
0
 71
3
 72
13
 73
9
 74
0
 42
0.0000001
 43
0.0000001
 44
0.0000000001
 40
0.0
 40
0.0
 40
0.0
 40
0.0
 40
0.1133740464
 40
0.2392044088
 40
0.3655787964
 40
0.4912154373
 40
0.7445390876
 40
1.0
 40
1.0
 40
1.0
 40
1.0
 10
412.5549312989
 20
49.5245647817
 30
0.0
 10
412.4750952414
 20
49.5206324824
 30
0.0
 10
412.3066516041
 20
49.5123358434
 30
0.0
 10
412.0564452428
 20
49.4375816577
 30
0.0
 10
411.8326112681
 20
49.2866296725
 30
0.0
 10
411.6039628683
 20
49.0085703604
 30
0.0
 10
411.4600827913
 20
48.5720542355
 30
0.0
 10
411.4444789741
 20
48.2141441183
 30
0.0
 10
411.4366442972
 20
48.034437318
 30
0.0
  0
SPLINE
  5
825
100
AcDbEntity
  8
0
100
AcDbSpline
 62
7
  6
CONTINUOUS
 70
0
 71
3
 72
13
 73
9
 74
0
 42
0.0000001
 43
0.0000001
 44
0.0000000001
 40
0.0
 40
0.0
 40
0.0
 40
0.0
 40
0.2554609124
 40
0.5087845627
 40
0.6344212036
 40
0.7607955912
 40
0.8866259536
 40
1.0
 40
1.0
 40
1.0
 40
1.0
 10
411.4366442972
 20
48.034437318
 30
0.0
 10
411.4444789741
 20
47.8547305157
 30
0.0
 10
411.4600827913
 20
47.4968203964
 30
0.0
 10
411.6039628683
 20
47.0603042735
 30
0.0
 10
411.8326112681
 20
46.7822449614
 30
0.0
 10
412.0564452428
 20
46.6312929783
 30
0.0
 10
412.3066516041
 20
46.5565387905
 30
0.0
 10
412.4750952414
 20
46.5482421515
 30
0.0
 10
412.5549312989
 20
46.5443098542
 30
0.0
  0
SPLINE
  5
826
100
AcDbEntity
  8
0
100
AcDbSpline
 62
7
  6
CONTINUOUS
 70
0
 71
3
 72
12
 73
8
 74
0
 42
0.0000001
 43
0.0000001
 44
0.0000000001
 40
0.0
 40
0.0
 40
0.0
 40
0.0
 40
0.2415790084
 40
0.4893269843
 40
0.7378634303
 40
0.8656387112
 40
1.0
 40
1.0
 40
1.0
 40
1.0
 10
409.6685830875
 20
44.5691029916
 30
0.0
 10
409.8049298212
 20
44.5733418568
 30
0.0
 10
410.0811050501
 20
44.5819278358
 30
0.0
 10
410.4852586774
 20
44.7260597671
 30
0.0
 10
410.7307091314
 20
44.9981427119
 30
0.0
 10
410.8388464547
 20
45.2700039051
 30
0.0
 10
410.8407952476
 20
45.4189288913
 30
0.0
 10
410.8417941252
 20
45.4952622036
 30
0.0
  0
SPLINE
  5
827
100
AcDbEntity
  8
0
100
AcDbSpline
 62
7
  6
CONTINUOUS
 70
0
 71
3
 72
12
 73
8
 74
0
 42
0.0000001
 43
0.0000001
 44
0.0000000001
 40
0.0
 40
0.0
 40
0.0
 40
0.0
 40
0.1343612888
 40
0.2621365697
 40
0.5106730157
 40
0.7584209916
 40
1.0
 40
1.0
 40
1.0
 40
1.0
 10
410.8417941252
 20
48.5925934048
 30
0.0
 10
410.8407952476
 20
48.6689267211
 30
0.0
 10
410.8388464547
 20
48.8178517073
 30
0.0
 10
410.7307091314
 20
49.0897129005
 30
0.0
 10
410.4852586774
 20
49.3617958453
 30
0.0
 10
410.0811050501
 20
49.5059277746
 30
0.0
 10
409.8049298212
 20
49.5145137515
 30
0.0
 10
409.6685830875
 20
49.5187526188
 30
0.0
  0
SPLINE
  5
828
100
AcDbEntity
  8
0
100
AcDbSpline
 62
7
  6
CONTINUOUS
 70
0
 71
3
 72
12
 73
8
 74
0
 42
0.0000001
 43
0.0000001
 44
0.0000000001
 40
0.0
 40
0.0
 40
0.0
 40
0.0
 40
0.1341799809
 40
0.290831959
 40
0.5815217441
 40
0.760783857
 40
1.0
 40
1.0
 40
1.0
 40
1.0
 10
403.3592638589
 20
49.5187526188
 30
0.0
 10
403.2216464052
 20
49.4952324887
 30
0.0
 10
402.9233638069
 20
49.444253158
 30
0.0
 10
402.4212529227
 20
49.0691272825
 30
0.0
 10
402.1834277277
 20
48.4380156682
 30
0.0
 10
402.0442783314
 20
47.7225924891
 30
0.0
 10
402.0338328218
 20
47.2898719396
 30
0.0
 10
402.0278618176
 20
47.042514427
 30
0.0
  0
SPLINE
  5
829
100
AcDbEntity
  8
0
100
AcDbSpline
 62
7
  6
CONTINUOUS
 70
0
 71
3
 72
12
 73
8
 74
0
 42
0.0000001
 43
0.0000001
 44
0.0000000001
 40
0.0
 40
0.0
 40
0.0
 40
0.0
 40
0.2392679579
 40
0.4185688994
 40
0.7093216488
 40
0.8660075581
 40
1.0
 40
1.0
 40
1.0
 40
1.0
 10
402.0278618176
 20
47.042514427
 30
0.0
 10
402.0338352077
 20
46.7951665544
 30
0.0
 10
402.0442848855
 20
46.3624628708
 30
0.0
 10
402.1834042554
 20
45.6469182868
 30
0.0
 10
402.4213747581
 20
45.0163942279
 30
0.0
 10
402.9229628731
 20
44.6400502439
 30
0.0
 10
403.2216018485
 20
44.5914883209
 30
0.0
 10
403.3592638589
 20
44.5691029916
 30
0.0
  0
SPLINE
  5
82A
100
AcDbEntity
  8
0
100
AcDbSpline
 62
7
  6
CONTINUOUS
 70
0
 71
3
 72
9
 73
5
 74
0
 42
0.0000001
 43
0.0000001
 44
0.0000000001
 40
0.0
 40
0.0
 40
0.0
 40
0.0
 40
0.5000155535
 40
1.0
 40
1.0
 40
1.0
 40
1.0
 10
124.4818193519
 20
248.8593390385
 30
0.0
 10
124.3173909481
 20
248.6082732314
 30
0.0
 10
123.9866514929
 20
248.107478855
 30
0.0
 10
123.6488880361
 20
247.6110076104
 30
0.0
 10
123.4709671712
 20
247.3693390385
 30
0.0
  0
SPLINE
  5
82B
100
AcDbEntity
  8
0
100
AcDbSpline
 62
7
  6
CONTINUOUS
 70
0
 71
3
 72
9
 73
5
 74
0
 42
0.0000001
 43
0.0000001
 44
0.0000000001
 40
0.0
 40
0.0
 40
0.0
 40
0.0
 40
0.4999844554
 40
1.0
 40
1.0
 40
1.0
 40
1.0
 10
122.0853265252
 20
247.3693390385
 30
0.0
 10
121.907405657
 20
247.6110076146
 30
0.0
 10
121.5696421816
 20
248.1074788466
 30
0.0
 10
121.2389027454
 20
248.6082732359
 30
0.0
 10
121.0744743445
 20
248.8593390385
 30
0.0
  0
SPLINE
  5
82C
100
AcDbEntity
  8
0
100
AcDbSpline
 62
7
  6
CONTINUOUS
 70
0
 71
3
 72
9
 73
5
 74
0
 42
0.0000001
 43
0.0000001
 44
0.0000000001
 40
0.0
 40
0.0
 40
0.0
 40
0.0
 40
0.5000155535
 40
1.0
 40
1.0
 40
1.0
 40
1.0
 10
146.4818193519
 20
248.8593390385
 30
0.0
 10
146.3173909481
 20
248.6082732314
 30
0.0
 10
145.9866514929
 20
248.107478855
 30
0.0
 10
145.6488880361
 20
247.6110076104
 30
0.0
 10
145.4709671712
 20
247.3693390385
 30
0.0
  0
SPLINE
  5
82D
100
AcDbEntity
  8
0
100
AcDbSpline
 62
7
  6
CONTINUOUS
 70
0
 71
3
 72
9
 73
5
 74
0
 42
0.0000001
 43
0.0000001
 44
0.0000000001
 40
0.0
 40
0.0
 40
0.0
 40
0.0
 40
0.4999844554
 40
1.0
 40
1.0
 40
1.0
 40
1.0
 10
144.0853265252
 20
247.3693390385
 30
0.0
 10
143.907405657
 20
247.6110076146
 30
0.0
 10
143.5696421816
 20
248.1074788466
 30
0.0
 10
143.2389027454
 20
248.6082732359
 30
0.0
 10
143.0744743445
 20
248.8593390385
 30
0.0
  0
SPLINE
  5
82E
100
AcDbEntity
  8
0
100
AcDbSpline
 62
7
  6
CONTINUOUS
 70
0
 71
3
 72
9
 73
5
 74
0
 42
0.0000001
 43
0.0000001
 44
0.0000000001
 40
0.0
 40
0.0
 40
0.0
 40
0.0
 40
0.5000155535
 40
1.0
 40
1.0
 40
1.0
 40
1.0
 10
121.0744743445
 20
259.3493290385
 30
0.0
 10
121.2389027483
 20
259.6003948455
 30
0.0
 10
121.5696422035
 20
260.1011892219
 30
0.0
 10
121.9074056604
 20
260.5976604666
 30
0.0
 10
122.0853265252
 20
260.8393290385
 30
0.0
  0
SPLINE
  5
82F
100
AcDbEntity
  8
0
100
AcDbSpline
 62
7
  6
CONTINUOUS
 70
0
 71
3
 72
9
 73
5
 74
0
 42
0.0000001
 43
0.0000001
 44
0.0000000001
 40
0.0
 40
0.0
 40
0.0
 40
0.0
 40
0.4999844554
 40
1.0
 40
1.0
 40
1.0
 40
1.0
 10
123.4709671712
 20
260.8393290385
 30
0.0
 10
123.6488880393
 20
260.5976604622
 30
0.0
 10
123.986651515
 20
260.1011892304
 30
0.0
 10
124.317390951
 20
259.600394841
 30
0.0
 10
124.4818193519
 20
259.3493290385
 30
0.0
  0
SPLINE
  5
830
100
AcDbEntity
  8
0
100
AcDbSpline
 62
7
  6
CONTINUOUS
 70
0
 71
3
 72
9
 73
5
 74
0
 42
0.0000001
 43
0.0000001
 44
0.0000000001
 40
0.0
 40
0.0
 40
0.0
 40
0.0
 40
0.5000155535
 40
1.0
 40
1.0
 40
1.0
 40
1.0
 10
143.0744743445
 20
259.3493290385
 30
0.0
 10
143.2389027483
 20
259.6003948455
 30
0.0
 10
143.5696422035
 20
260.1011892219
 30
0.0
 10
143.9074056604
 20
260.5976604666
 30
0.0
 10
144.0853265252
 20
260.8393290385
 30
0.0
  0
SPLINE
  5
831
100
AcDbEntity
  8
0
100
AcDbSpline
 62
7
  6
CONTINUOUS
 70
0
 71
3
 72
9
 73
5
 74
0
 42
0.0000001
 43
0.0000001
 44
0.0000000001
 40
0.0
 40
0.0
 40
0.0
 40
0.0
 40
0.4999844554
 40
1.0
 40
1.0
 40
1.0
 40
1.0
 10
145.4709671712
 20
260.8393290385
 30
0.0
 10
145.6488880393
 20
260.5976604622
 30
0.0
 10
145.986651515
 20
260.1011892304
 30
0.0
 10
146.317390951
 20
259.600394841
 30
0.0
 10
146.4818193519
 20
259.3493290385
 30
0.0
  0
SPLINE
  5
832
100
AcDbEntity
  8
0
100
AcDbSpline
 62
7
  6
CONTINUOUS
 70
0
 71
3
 72
9
 73
5
 74
0
 42
0.0000001
 43
0.0000001
 44
0.0000000001
 40
0.0
 40
0.0
 40
0.0
 40
0.0
 40
0.499984475
 40
1.0
 40
1.0
 40
1.0
 40
1.0
 10
123.4709671712
 20
72.8156729808
 30
0.0
 10
123.6488882578
 20
72.574004552
 30
0.0
 10
123.9866510332
 20
72.0775328243
 30
0.0
 10
124.3173908543
 20
71.5767387047
 30
0.0
 10
124.4818193519
 20
71.3256729808
 30
0.0
  0
SPLINE
  5
833
100
AcDbEntity
  8
0
100
AcDbSpline
 62
7
  6
CONTINUOUS
 70
0
 71
3
 72
9
 73
5
 74
0
 42
0.0000001
 43
0.0000001
 44
0.0000000001
 40
0.0
 40
0.0
 40
0.0
 40
0.0
 40
0.5000155328
 40
1.0
 40
1.0
 40
1.0
 40
1.0
 10
121.0744743445
 20
71.3256729808
 30
0.0
 10
121.2389028257
 20
71.5767387235
 30
0.0
 10
121.5696417897
 20
72.0775334238
 30
0.0
 10
121.9074054714
 20
72.5740045313
 30
0.0
 10
122.0853265252
 20
72.8156729808
 30
0.0
  0
SPLINE
  5
834
100
AcDbEntity
  8
0
100
AcDbSpline
 62
7
  6
CONTINUOUS
 70
0
 71
3
 72
9
 73
5
 74
0
 42
0.0000001
 43
0.0000001
 44
0.0000000001
 40
0.0
 40
0.0
 40
0.0
 40
0.0
 40
0.5000155535
 40
1.0
 40
1.0
 40
1.0
 40
1.0
 10
143.0744743445
 20
71.3256729808
 30
0.0
 10
143.2389027483
 20
71.5767387878
 30
0.0
 10
143.5696422035
 20
72.0775331642
 30
0.0
 10
143.9074056604
 20
72.5740044089
 30
0.0
 10
144.0853265252
 20
72.8156729808
 30
0.0
  0
SPLINE
  5
835
100
AcDbEntity
  8
0
100
AcDbSpline
 62
7
  6
CONTINUOUS
 70
0
 71
3
 72
9
 73
5
 74
0
 42
0.0000001
 43
0.0000001
 44
0.0000000001
 40
0.0
 40
0.0
 40
0.0
 40
0.0
 40
0.4999844554
 40
1.0
 40
1.0
 40
1.0
 40
1.0
 10
145.4709671712
 20
72.8156729808
 30
0.0
 10
145.6488880395
 20
72.5740044046
 30
0.0
 10
145.9866515149
 20
72.0775331726
 30
0.0
 10
146.317390951
 20
71.5767387833
 30
0.0
 10
146.4818193519
 20
71.3256729808
 30
0.0
  0
SPLINE
  5
836
100
AcDbEntity
  8
7_ALL_ROUNDS
100
AcDbSpline
 62
9
  6
CONTINUOUS
 70
0
 71
3
 72
21
 73
17
 74
0
 42
0.0000001
 43
0.0000001
 44
0.0000000001
 40
0.0
 40
0.0
 40
0.0
 40
0.0
 40
0.0012865955
 40
0.0049340824
 40
0.0109678146
 40
0.0193805772
 40
0.0432747937
 40
0.0763768598
 40
0.1183751115
 40
0.1688560792
 40
0.2273349724
 40
0.2932463022
 40
0.4447537223
 40
0.617557827
 40
0.8050328566
 40
1.0
 40
1.0
 40
1.0
 40
1.0
 10
72.5335858898
 20
130.3118189076
 30
0.0
 10
72.5340146766
 20
130.3118110766
 30
0.0
 10
72.5339457821
 20
130.3093373965
 30
0.0
 10
72.5346185781
 20
130.3064917405
 30
0.0
 10
72.5347734446
 20
130.3000249184
 30
0.0
 10
72.535391357
 20
130.2875229804
 30
0.0
 10
72.5358136507
 20
130.2655270352
 30
0.0
 10
72.5363438473
 20
130.2326274488
 30
0.0
 10
72.536713502
 20
130.1907330693
 30
0.0
 10
72.536999538
 20
130.1404280034
 30
0.0
 10
72.5371653212
 20
130.082134461
 30
0.0
 10
72.5372385661
 20
129.9901717542
 30
0.0
 10
72.5370038495
 20
129.8600985255
 30
0.0
 10
72.5362926949
 20
129.6895074588
 30
0.0
 10
72.5351572008
 20
129.5044315546
 30
0.0
 10
72.5341532261
 20
129.3769567557
 30
0.0
 10
72.5335858898
 20
129.3119712125
 30
0.0
  0
SPLINE
  5
837
100
AcDbEntity
  8
7_ALL_ROUNDS
100
AcDbSpline
 62
9
  6
CONTINUOUS
 70
0
 71
3
 72
21
 73
17
 74
0
 42
0.0000001
 43
0.0000001
 44
0.0000000001
 40
0.0
 40
0.0
 40
0.0
 40
0.0
 40
0.1952201325
 40
0.3828669374
 40
0.5557333675
 40
0.7071984649
 40
0.7730569886
 40
0.831469432
 40
0.8818773893
 40
0.9237992638
 40
0.9568351143
 40
0.9806708328
 40
0.9890652283
 40
0.9950846228
 40
0.9987193335
 40
1.0
 40
1.0
 40
1.0
 40
1.0
 10
72.5335858898
 20
126.5493654815
 30
0.0
 10
72.5341553522
 20
126.4842956162
 30
0.0
 10
72.5351577106
 20
126.3566791951
 30
0.0
 10
72.5362952596
 20
126.1714409155
 30
0.0
 10
72.5370050933
 20
126.0007858934
 30
0.0
 10
72.537238938
 20
125.8707235781
 30
0.0
 10
72.5371646053
 20
125.7788147191
 30
0.0
 10
72.5369982419
 20
125.7205852583
 30
0.0
 10
72.5367117083
 20
125.6703521276
 30
0.0
 10
72.5363413724
 20
125.6285296514
 30
0.0
 10
72.5358120066
 20
125.5956969681
 30
0.0
 10
72.5353894375
 20
125.5737490454
 30
0.0
 10
72.53477236
 20
125.5612770714
 30
0.0
 10
72.5346165033
 20
125.5548262883
 30
0.0
 10
72.5339465768
 20
125.5519892741
 30
0.0
 10
72.5340127061
 20
125.549525281
 30
0.0
 10
72.5335858898
 20
125.5495177863
 30
0.0
  0
SPLINE
  5
838
100
AcDbEntity
  8
7_ALL_ROUNDS
100
AcDbSpline
 62
9
  6
CONTINUOUS
 70
0
 71
3
 72
18
 73
14
 74
0
 42
0.0000001
 43
0.0000001
 44
0.0000000001
 40
0.0
 40
0.0
 40
0.0
 40
0.0
 40
0.1948307245
 40
0.3825401098
 40
0.5553040034
 40
0.7067204983
 40
0.8310661681
 40
0.881486706
 40
0.9234472278
 40
0.9565301545
 40
0.9803911737
 40
0.9948790574
 40
1.0
 40
1.0
 40
1.0
 40
1.0
 10
42.6707474888
 20
131.6405959405
 30
0.0
 10
42.6057950552
 20
131.6394625369
 30
0.0
 10
42.478259558
 20
131.6374533727
 30
0.0
 10
42.2931219349
 20
131.6351822288
 30
0.0
 10
42.1224366223
 20
131.6337515884
 30
0.0
 10
41.972920129
 20
131.6332407717
 30
0.0
 10
41.8640745094
 20
131.6335045627
 30
0.0
 10
41.7919515119
 20
131.6343666928
 30
0.0
 10
41.7498295454
 20
131.6350142567
 30
0.0
 10
41.7176415529
 20
131.6363182527
 30
0.0
 10
41.6920670722
 20
131.6366817607
 30
0.0
 10
41.6808006791
 20
131.6392512036
 30
0.0
 10
41.6709295932
 20
131.638888727
 30
0.0
 10
41.6708997936
 20
131.6405959405
 30
0.0
  0
SPLINE
  5
839
100
AcDbEntity
  8
7_ALL_ROUNDS
100
AcDbSpline
 62
9
  6
CONTINUOUS
 70
0
 71
3
 72
16
 73
12
 74
0
 42
0.0000001
 43
0.0000001
 44
0.0000000001
 40
0.0
 40
0.0
 40
0.0
 40
0.0
 40
0.0048964432
 40
0.0177664439
 40
0.0388649921
 40
0.0681659365
 40
0.1511107509
 40
0.2655844547
 40
0.4098568779
 40
0.5820746897
 40
1.0
 40
1.0
 40
1.0
 40
1.0
 10
49.1448475794
 20
131.6405959405
 30
0.0
 10
49.1448356985
 20
131.639915284
 30
0.0
 10
49.1414369771
 20
131.6393106862
 30
0.0
 10
49.1369974514
 20
131.6384170556
 30
0.0
 10
49.1277358831
 20
131.6376671156
 30
0.0
 10
49.1095307978
 20
131.6364826689
 30
0.0
 10
49.0778049351
 20
131.6354002627
 30
0.0
 10
49.0304137299
 20
131.6344009817
 30
0.0
 10
48.9704595953
 20
131.6337275626
 30
0.0
 10
48.8683718811
 20
131.6332182305
 30
0.0
 10
48.786314311
 20
131.6334104146
 30
0.0
 10
48.7282101929
 20
131.633695627
 30
0.0
  0
SPLINE
  5
83A
100
AcDbEntity
  8
7_ALL_ROUNDS
100
AcDbSpline
 62
9
  6
CONTINUOUS
 70
0
 71
3
 72
21
 73
17
 74
0
 42
0.0000001
 43
0.0000001
 44
0.0000000001
 40
0.0
 40
0.0
 40
0.0
 40
0.0
 40
0.0012865955
 40
0.0049340824
 40
0.0109678146
 40
0.0193805772
 40
0.0432747937
 40
0.0763768598
 40
0.1183751115
 40
0.1688560792
 40
0.2273349724
 40
0.2932463022
 40
0.4447537223
 40
0.617557827
 40
0.8050328566
 40
1.0
 40
1.0
 40
1.0
 40
1.0
 10
230.7986491213
 20
125.5495177863
 30
0.0
 10
230.7982203344
 20
125.5495256173
 30
0.0
 10
230.7982892289
 20
125.5519992975
 30
0.0
 10
230.7976164329
 20
125.5548449534
 30
0.0
 10
230.7974615665
 20
125.5613117755
 30
0.0
 10
230.7968436541
 20
125.5738137136
 30
0.0
 10
230.7964213603
 20
125.5958096587
 30
0.0
 10
230.7958911637
 20
125.6287092452
 30
0.0
 10
230.7955215091
 20
125.6706036247
 30
0.0
 10
230.7952354731
 20
125.7209086905
 30
0.0
 10
230.7950696898
 20
125.779202233
 30
0.0
 10
230.794996445
 20
125.8711649397
 30
0.0
 10
230.7952311616
 20
126.0012381684
 30
0.0
 10
230.7959423162
 20
126.1718292352
 30
0.0
 10
230.7970778103
 20
126.3569051394
 30
0.0
 10
230.798081785
 20
126.4843799382
 30
0.0
 10
230.7986491213
 20
126.5493654815
 30
0.0
  0
SPLINE
  5
83B
100
AcDbEntity
  8
7_ALL_ROUNDS
100
AcDbSpline
 62
9
  6
CONTINUOUS
 70
0
 71
3
 72
21
 73
17
 74
0
 42
0.0000001
 43
0.0000001
 44
0.0000000001
 40
0.0
 40
0.0
 40
0.0
 40
0.0
 40
0.1952201325
 40
0.3828669374
 40
0.5557333675
 40
0.7071984649
 40
0.7730569886
 40
0.831469432
 40
0.8818773893
 40
0.9237992638
 40
0.9568351143
 40
0.9806708328
 40
0.9890652283
 40
0.9950846228
 40
0.9987193335
 40
1.0
 40
1.0
 40
1.0
 40
1.0
 10
230.7986491213
 20
129.3119712125
 30
0.0
 10
230.7980796589
 20
129.3770410778
 30
0.0
 10
230.7970773004
 20
129.5046574988
 30
0.0
 10
230.7959397515
 20
129.6898957785
 30
0.0
 10
230.7952299177
 20
129.8605508006
 30
0.0
 10
230.794996073
 20
129.9906131158
 30
0.0
 10
230.7950704058
 20
130.0825219749
 30
0.0
 10
230.7952367692
 20
130.1407514356
 30
0.0
 10
230.7955233028
 20
130.1909845663
 30
0.0
 10
230.7958936387
 20
130.2328070425
 30
0.0
 10
230.7964230045
 20
130.2656397259
 30
0.0
 10
230.7968455736
 20
130.2875876485
 30
0.0
 10
230.7974626511
 20
130.3000596226
 30
0.0
 10
230.7976185078
 20
130.3065104056
 30
0.0
 10
230.7982884343
 20
130.3093474199
 30
0.0
 10
230.798222305
 20
130.311811413
 30
0.0
 10
230.7986491213
 20
130.3118189076
 30
0.0
  0
SPLINE
  5
83C
100
AcDbEntity
  8
7_ALL_ROUNDS
100
AcDbSpline
 62
9
  6
CONTINUOUS
 70
0
 71
3
 72
18
 73
14
 74
0
 42
0.0000001
 43
0.0000001
 44
0.0000000001
 40
0.0
 40
0.0
 40
0.0
 40
0.0
 40
0.0051235657
 40
0.0196169852
 40
0.0434822935
 40
0.0765688503
 40
0.1185359159
 40
0.1689599422
 40
0.2933008506
 40
0.4447136369
 40
0.6174732464
 40
0.8051733461
 40
1.0
 40
1.0
 40
1.0
 40
1.0
 10
261.6613352174
 20
131.6405959405
 30
0.0
 10
261.6613054026
 20
131.6388878527
 30
0.0
 10
261.6514295203
 20
131.6392523267
 30
0.0
 10
261.6401604137
 20
131.636681178
 30
0.0
 10
261.6145809983
 20
131.6363181125
 30
0.0
 10
261.5823883253
 20
131.63501361
 30
0.0
 10
261.5402617521
 20
131.6343664074
 30
0.0
 10
261.4681370138
 20
131.6335044151
 30
0.0
 10
261.3592930739
 20
131.6332407325
 30
0.0
 10
261.2097808546
 20
131.6337517365
 30
0.0
 10
261.0391013293
 20
131.6351823824
 30
0.0
 10
260.8539696139
 20
131.6374534091
 30
0.0
 10
260.7264385892
 20
131.6394625608
 30
0.0
 10
260.6614875223
 20
131.6405959405
 30
0.0
  0
SPLINE
  5
83D
100
AcDbEntity
  8
7_ALL_ROUNDS
100
AcDbSpline
 62
9
  6
CONTINUOUS
 70
0
 71
3
 72
16
 73
12
 74
0
 42
0.0000001
 43
0.0000001
 44
0.0000000001
 40
0.0
 40
0.0
 40
0.0
 40
0.0
 40
0.4182723992
 40
0.5904893418
 40
0.7346906448
 40
0.8490647964
 40
0.9319205182
 40
0.9611825315
 40
0.9822501253
 40
0.9951015014
 40
1.0
 40
1.0
 40
1.0
 40
1.0
 10
254.5974338883
 20
131.633663945
 30
0.0
 10
254.5402002256
 20
131.6333954202
 30
0.0
 10
254.4593917343
 20
131.6332241405
 30
0.0
 10
254.358879311
 20
131.6337519647
 30
0.0
 10
254.2998963753
 20
131.6344328769
 30
0.0
 10
254.2532889929
 20
131.6354325234
 30
0.0
 10
254.2220978074
 20
131.6365132566
 30
0.0
 10
254.2042002622
 20
131.6376880343
 30
0.0
 10
254.1951022572
 20
131.6384375892
 30
0.0
 10
254.1907324878
 20
131.6393163064
 30
0.0
 10
254.1873991297
 20
131.6399257567
 30
0.0
 10
254.1873874316
 20
131.6405959405
 30
0.0
  0
SPLINE
  5
83E
100
AcDbEntity
  8
7_ALL_ROUNDS
100
AcDbSpline
 62
9
  6
CONTINUOUS
 70
0
 71
3
 72
18
 73
14
 74
0
 42
0.0000001
 43
0.0000001
 44
0.0000000001
 40
0.0
 40
0.0
 40
0.0
 40
0.0
 40
0.0051243077
 40
0.0196193175
 40
0.0434859189
 40
0.0765736714
 40
0.1185435875
 40
0.1689712196
 40
0.2933248384
 40
0.4447532395
 40
0.6175165515
 40
0.8051894219
 40
1.0
 40
1.0
 40
1.0
 40
1.0
 10
335.8818535104
 20
131.6405959405
 30
0.0
 10
335.8818236913
 20
131.6388876055
 30
0.0
 10
335.8719464375
 20
131.639252654
 30
0.0
 10
335.8606765387
 20
131.6366810184
 30
0.0
 10
335.8350956275
 20
131.63631808
 30
0.0
 10
335.8029012245
 20
131.6350133954
 30
0.0
 10
335.7607720749
 20
131.6343662808
 30
0.0
 10
335.6886409638
 20
131.6335042821
 30
0.0
 10
335.5797863694
 20
131.6332408217
 30
0.0
 10
335.4302634822
 20
131.6337519045
 30
0.0
 10
335.2595866049
 20
131.6351828453
 30
0.0
 10
335.0744680987
 20
131.6374535285
 30
0.0
 10
334.94695152
 20
131.6394626543
 30
0.0
 10
334.8820058152
 20
131.6405959405
 30
0.0
  0
SPLINE
  5
83F
100
AcDbEntity
  8
7_ALL_ROUNDS
100
AcDbSpline
 62
9
  6
CONTINUOUS
 70
0
 71
3
 72
18
 73
14
 74
0
 42
0.0000001
 43
0.0000001
 44
0.0000000001
 40
0.0
 40
0.0
 40
0.0
 40
0.0
 40
0.1948266539
 40
0.3825267536
 40
0.5552863631
 40
0.7066991494
 40
0.8310400578
 40
0.8814640841
 40
0.9234311497
 40
0.9565177065
 40
0.9803830148
 40
0.9948764343
 40
1.0
 40
1.0
 40
1.0
 40
1.0
 10
325.6485534197
 20
131.6405959405
 30
0.0
 10
325.5836023528
 20
131.6394625608
 30
0.0
 10
325.4560713281
 20
131.6374534091
 30
0.0
 10
325.2709396127
 20
131.6351823824
 30
0.0
 10
325.1002600874
 20
131.6337517365
 30
0.0
 10
324.9507478681
 20
131.6332407325
 30
0.0
 10
324.8419039282
 20
131.6335044151
 30
0.0
 10
324.7697791899
 20
131.6343664074
 30
0.0
 10
324.7276526167
 20
131.63501361
 30
0.0
 10
324.6954599437
 20
131.6363181125
 30
0.0
 10
324.6698805283
 20
131.636681178
 30
0.0
 10
324.6586114217
 20
131.6392523267
 30
0.0
 10
324.6487355394
 20
131.6388878527
 30
0.0
 10
324.6487057246
 20
131.6405959405
 30
0.0
  0
SPLINE
  5
840
100
AcDbEntity
  8
0
100
AcDbSpline
 62
7
  6
CONTINUOUS
 70
0
 71
3
 72
16
 73
12
 74
0
 42
0.0000001
 43
0.0000001
 44
0.0000000001
 40
0.0
 40
0.0
 40
0.0
 40
0.0
 40
0.1287447918
 40
0.2703888475
 40
0.4176118808
 40
0.562019253
 40
0.6957478559
 40
0.8130644435
 40
0.9124726615
 40
0.9571201139
 40
1.0
 40
1.0
 40
1.0
 40
1.0
 10
392.4082586408
 20
230.2362830138
 30
0.0
 10
392.4082586408
 20
229.9777202238
 30
0.0
 10
392.4805852325
 20
229.4340660589
 30
0.0
 10
392.7505624504
 20
228.6358256159
 30
0.0
 10
393.1666546453
 20
227.8668348581
 30
0.0
 10
393.6950093181
 20
227.1902419561
 30
0.0
 10
394.2939765938
 20
226.6604312349
 30
0.0
 10
394.9170968341
 20
226.3186301359
 30
0.0
 10
395.4460826667
 20
226.2152922116
 30
0.0
 10
395.8207643055
 20
226.2702911362
 30
0.0
 10
395.9851818441
 20
226.338560601
 30
0.0
 10
396.0597587886
 20
226.3816239747
 30
0.0
  0
SPLINE
  5
841
100
AcDbEntity
  8
0
100
AcDbSpline
 62
7
  6
CONTINUOUS
 70
0
 71
3
 72
16
 73
12
 74
0
 42
0.0000001
 43
0.0000001
 44
0.0000000001
 40
0.0
 40
0.0
 40
0.0
 40
0.0
 40
0.1287447918
 40
0.2703888475
 40
0.4176118808
 40
0.562019253
 40
0.6957478559
 40
0.8130644435
 40
0.9124726615
 40
0.9571201139
 40
1.0
 40
1.0
 40
1.0
 40
1.0
 10
439.0775005005
 20
203.2923932155
 30
0.0
 10
439.0775005005
 20
203.0338304254
 30
0.0
 10
439.1498270922
 20
202.4901762606
 30
0.0
 10
439.4198043101
 20
201.6919358176
 30
0.0
 10
439.835896505
 20
200.9229450598
 30
0.0
 10
440.3642511778
 20
200.2463521578
 30
0.0
 10
440.9632184535
 20
199.7165414366
 30
0.0
 10
441.5863386938
 20
199.3747403376
 30
0.0
 10
442.1153245264
 20
199.2714024133
 30
0.0
 10
442.4900061652
 20
199.3264013379
 30
0.0
 10
442.6544237038
 20
199.3946708026
 30
0.0
 10
442.7290006483
 20
199.4377341763
 30
0.0
  0
SPLINE
  5
842
100
AcDbEntity
  8
0
100
AcDbSpline
 62
7
  6
CONTINUOUS
 70
0
 71
3
 72
9
 73
5
 74
0
 42
0.0000001
 43
0.0000001
 44
0.0000000001
 40
0.0
 40
0.0
 40
0.0
 40
0.0
 40
0.2397595018
 40
1.0
 40
1.0
 40
1.0
 40
1.0
 10
396.9196186873
 20
227.631707
 30
0.0
 10
396.9196186873
 20
227.6874970137
 30
0.0
 10
396.9133860886
 20
227.9201740601
 30
0.0
 10
396.8838510553
 20
228.1519985183
 30
0.0
 10
396.8509128289
 20
228.3258065506
 30
0.0
  0
SPLINE
  5
843
100
AcDbEntity
  8
0
100
AcDbSpline
 62
7
  6
CONTINUOUS
 70
0
 71
3
 72
11
 73
7
 74
0
 42
0.0000001
 43
0.0000001
 44
0.0000000001
 40
0.0
 40
0.0
 40
0.0
 40
0.0
 40
0.244294812
 40
0.5000007441
 40
0.7557062907
 40
1.0
 40
1.0
 40
1.0
 40
1.0
 10
396.8387827147
 20
228.3873766059
 30
0.0
 10
396.783220963
 20
228.6590808374
 30
0.0
 10
396.6175349823
 20
229.2052672235
 30
0.0
 10
396.2434476473
 20
229.9806712853
 30
0.0
 10
395.7589784526
 20
230.6923556399
 30
0.0
 10
395.3687725155
 20
231.1088913695
 30
0.0
 10
395.1612757306
 20
231.2928878033
 30
0.0
  0
SPLINE
  5
844
100
AcDbEntity
  8
0
100
AcDbSpline
 62
7
  6
CONTINUOUS
 70
0
 71
3
 72
9
 73
5
 74
0
 42
0.0000001
 43
0.0000001
 44
0.0000000001
 40
0.0
 40
0.0
 40
0.0
 40
0.0
 40
0.5315405611
 40
1.0
 40
1.0
 40
1.0
 40
1.0
 10
395.1140438191
 20
231.3341682546
 30
0.0
 10
394.9308219507
 20
231.491981698
 30
0.0
 10
394.5608426104
 20
231.7614386576
 30
0.0
 10
394.1391133712
 20
231.9467139297
 30
0.0
 10
393.9332553882
 20
232.0018696392
 30
0.0
  0
SPLINE
  5
845
100
AcDbEntity
  8
0
100
AcDbSpline
 62
7
  6
CONTINUOUS
 70
0
 71
3
 72
9
 73
5
 74
0
 42
0.0000001
 43
0.0000001
 44
0.0000000001
 40
0.0
 40
0.0
 40
0.0
 40
0.0
 40
0.5224829951
 40
1.0
 40
1.0
 40
1.0
 40
1.0
 10
393.8026895069
 20
232.0321561844
 30
0.0
 10
393.6511926075
 20
232.0617653497
 30
0.0
 10
393.3516807914
 20
232.0832130864
 30
0.0
 10
393.0595969276
 20
232.0033181453
 30
0.0
 10
392.9331347605
 20
231.9407846199
 30
0.0
  0
SPLINE
  5
846
100
AcDbEntity
  8
0
100
AcDbSpline
 62
7
  6
CONTINUOUS
 70
0
 71
3
 72
9
 73
5
 74
0
 42
0.0000001
 43
0.0000001
 44
0.0000000001
 40
0.0
 40
0.0
 40
0.0
 40
0.0
 40
0.2397582098
 40
1.0
 40
1.0
 40
1.0
 40
1.0
 10
443.588860547
 20
200.6878172016
 30
0.0
 10
443.588860547
 20
200.7436160363
 30
0.0
 10
443.582625943
 20
200.9763311219
 30
0.0
 10
443.5530816782
 20
201.2081932046
 30
0.0
 10
443.5201334006
 20
201.3820290761
 30
0.0
  0
SPLINE
  5
847
100
AcDbEntity
  8
0
100
AcDbSpline
 62
7
  6
CONTINUOUS
 70
0
 71
3
 72
11
 73
7
 74
0
 42
0.0000001
 43
0.0000001
 44
0.0000000001
 40
0.0
 40
0.0
 40
0.0
 40
0.0
 40
0.244294812
 40
0.5000007441
 40
0.7557062907
 40
1.0
 40
1.0
 40
1.0
 40
1.0
 10
443.5080245744
 20
201.4434868076
 30
0.0
 10
443.4524628227
 20
201.7151910391
 30
0.0
 10
443.286776842
 20
202.2613774252
 30
0.0
 10
442.912689507
 20
203.036781487
 30
0.0
 10
442.4282203123
 20
203.7484658415
 30
0.0
 10
442.0380143752
 20
204.1650015712
 30
0.0
 10
441.8305175903
 20
204.3489980049
 30
0.0
  0
SPLINE
  5
848
100
AcDbEntity
  8
0
100
AcDbSpline
 62
7
  6
CONTINUOUS
 70
0
 71
3
 72
9
 73
5
 74
0
 42
0.0000001
 43
0.0000001
 44
0.0000000001
 40
0.0
 40
0.0
 40
0.0
 40
0.0
 40
0.5315551655
 40
1.0
 40
1.0
 40
1.0
 40
1.0
 10
441.7840027576
 20
204.3896606818
 30
0.0
 10
441.6006840976
 20
204.5476276115
 30
0.0
 10
441.2304988998
 20
204.8173416257
 30
0.0
 10
440.8084908585
 20
205.0027877925
 30
0.0
 10
440.6024972479
 20
205.0579798409
 30
0.0
  0
SPLINE
  5
849
100
AcDbEntity
  8
0
100
AcDbSpline
 62
7
  6
CONTINUOUS
 70
0
 71
3
 72
9
 73
5
 74
0
 42
0.0000001
 43
0.0000001
 44
0.0000000001
 40
0.0
 40
0.0
 40
0.0
 40
0.0
 40
0.5224829951
 40
1.0
 40
1.0
 40
1.0
 40
1.0
 10
440.4719313666
 20
205.0882663861
 30
0.0
 10
440.3204344672
 20
205.1178755513
 30
0.0
 10
440.0209226511
 20
205.1393232881
 30
0.0
 10
439.7288387873
 20
205.059428347
 30
0.0
 10
439.6023766202
 20
204.9968948216
 30
0.0
  0
SPLINE
  5
84A
100
AcDbEntity
  8
7_ALL_ROUNDS
100
AcDbSpline
 62
7
  6
CONTINUOUS
 70
0
 71
3
 72
8
 73
4
 74
0
 42
0.0000001
 43
0.0000001
 44
0.0000000001
 40
0.0
 40
0.0
 40
0.0
 40
0.0
 40
1.0
 40
1.0
 40
1.0
 40
1.0
 10
406.0301822275
 20
250.4007014488
 30
0.0
 10
406.05912388
 20
250.4174108234
 30
0.0
 10
406.090635057
 20
250.4302204085
 30
0.0
 10
406.1229626784
 20
250.4386907892
 30
0.0
  0
SPLINE
  5
84B
100
AcDbEntity
  8
7_ALL_ROUNDS
100
AcDbSpline
 62
7
  6
CONTINUOUS
 70
0
 71
3
 72
9
 73
5
 74
0
 42
0.0000001
 43
0.0000001
 44
0.0000000001
 40
0.0
 40
0.0
 40
0.0
 40
0.0
 40
0.456296637
 40
1.0
 40
1.0
 40
1.0
 40
1.0
 10
406.1229626784
 20
250.4386907892
 30
0.0
 10
406.1928839928
 20
250.4570113499
 30
0.0
 10
406.3577599147
 20
250.4533007237
 30
0.0
 10
406.5055650492
 20
250.3893320989
 30
0.0
 10
406.5801542134
 20
250.3462689991
 30
0.0
  0
SPLINE
  5
84C
100
AcDbEntity
  8
0
100
AcDbSpline
 62
7
  6
CONTINUOUS
 70
0
 71
3
 72
11
 73
7
 74
0
 42
0.0000001
 43
0.0000001
 44
0.0000000001
 40
0.0
 40
0.0
 40
0.0
 40
0.0
 40
0.2177853238
 40
0.4509152369
 40
0.7102996252
 40
1.0
 40
1.0
 40
1.0
 40
1.0
 10
439.7040141899
 20
204.6771956898
 30
0.0
 10
439.6042321386
 20
204.6195779931
 30
0.0
 10
439.4175361342
 20
204.4626270134
 30
0.0
 10
439.2187783138
 20
204.1376458585
 30
0.0
 10
439.1007362511
 20
203.7371517181
 30
0.0
 10
439.0775005005
 20
203.4456636074
 30
0.0
 10
439.0775005005
 20
203.2923932155
 30
0.0
  0
SPLINE
  5
84D
100
AcDbEntity
  8
0
100
AcDbSpline
 62
7
  6
CONTINUOUS
 70
0
 71
3
 72
11
 73
7
 74
0
 42
0.0000001
 43
0.0000001
 44
0.0000000001
 40
0.0
 40
0.0
 40
0.0
 40
0.0
 40
0.2177853238
 40
0.4509152369
 40
0.7102996252
 40
1.0
 40
1.0
 40
1.0
 40
1.0
 10
393.0347723302
 20
231.6210854881
 30
0.0
 10
392.9349902789
 20
231.5634677915
 30
0.0
 10
392.7482942745
 20
231.4065168117
 30
0.0
 10
392.5495364541
 20
231.0815356569
 30
0.0
 10
392.4314943914
 20
230.6810415165
 30
0.0
 10
392.4082586408
 20
230.3895534058
 30
0.0
 10
392.4082586408
 20
230.2362830138
 30
0.0
  0
SPLINE
  5
84E
100
AcDbEntity
  8
0
100
AcDbSpline
 62
7
  6
CONTINUOUS
 70
0
 71
3
 72
9
 73
5
 74
0
 42
0.0000001
 43
0.0000001
 44
0.0000000001
 40
0.0
 40
0.0
 40
0.0
 40
0.0
 40
0.4770458555
 40
1.0
 40
1.0
 40
1.0
 40
1.0
 10
442.8939999097
 20
199.1519453665
 30
0.0
 10
443.0257822162
 20
199.2280411459
 30
0.0
 10
443.2698574921
 20
199.4481423263
 30
0.0
 10
443.4148515908
 20
199.7394162619
 30
0.0
 10
443.4689796287
 20
199.8972097789
 30
0.0
  0
SPLINE
  5
84F
100
AcDbEntity
  8
0
100
AcDbSpline
 62
7
  6
CONTINUOUS
 70
0
 71
3
 72
9
 73
5
 74
0
 42
0.0000001
 43
0.0000001
 44
0.0000000001
 40
0.0
 40
0.0
 40
0.0
 40
0.0
 40
0.2369674713
 40
1.0
 40
1.0
 40
1.0
 40
1.0
 10
443.5080245744
 20
200.0254868251
 30
0.0
 10
443.5216764777
 20
200.0764829142
 30
0.0
 10
443.5709277048
 20
200.2939080324
 30
0.0
 10
443.588860547
 20
200.5178281704
 30
0.0
 10
443.588860547
 20
200.6878172016
 30
0.0
  0
SPLINE
  5
850
100
AcDbEntity
  8
0
100
AcDbSpline
 62
7
  6
CONTINUOUS
 70
0
 71
3
 72
9
 73
5
 74
0
 42
0.0000001
 43
0.0000001
 44
0.0000000001
 40
0.0
 40
0.0
 40
0.0
 40
0.0
 40
0.4770458555
 40
1.0
 40
1.0
 40
1.0
 40
1.0
 10
396.22475805
 20
226.0958351649
 30
0.0
 10
396.3565403565
 20
226.1719309442
 30
0.0
 10
396.6006156324
 20
226.3920321246
 30
0.0
 10
396.7456097311
 20
226.6833060602
 30
0.0
 10
396.799737769
 20
226.8410995773
 30
0.0
  0
SPLINE
  5
851
100
AcDbEntity
  8
0
100
AcDbSpline
 62
7
  6
CONTINUOUS
 70
0
 71
3
 72
9
 73
5
 74
0
 42
0.0000001
 43
0.0000001
 44
0.0000000001
 40
0.0
 40
0.0
 40
0.0
 40
0.0
 40
0.2369674713
 40
1.0
 40
1.0
 40
1.0
 40
1.0
 10
396.8387827147
 20
226.9693766235
 30
0.0
 10
396.852434618
 20
227.0203727125
 30
0.0
 10
396.9016858451
 20
227.2377978307
 30
0.0
 10
396.9196186873
 20
227.4617179687
 30
0.0
 10
396.9196186873
 20
227.631707
 30
0.0
  0
SPLINE
  5
852
100
AcDbEntity
  8
7_ALL_ROUNDS
100
AcDbSpline
 62
7
  6
CONTINUOUS
 70
0
 71
3
 72
11
 73
7
 74
0
 42
0.0000001
 43
0.0000001
 44
0.0000000001
 40
0.0
 40
0.0
 40
0.0
 40
0.0
 40
0.2372465045
 40
0.4999989083
 40
0.7627519059
 40
1.0
 40
1.0
 40
1.0
 40
1.0
 10
428.5924799572
 20
237.6377343109
 30
0.0
 10
428.7029115588
 20
237.5739780383
 30
0.0
 10
428.9119015928
 20
237.3981186451
 30
0.0
 10
429.1557304709
 20
237.0647832369
 30
0.0
 10
429.3224950202
 20
236.6869534996
 30
0.0
 10
429.3703006549
 20
236.4180323851
 30
0.0
 10
429.3703006549
 20
236.2905168221
 30
0.0
  0
SPLINE
  5
853
100
AcDbEntity
  8
0
100
AcDbSpline
 62
7
  6
CONTINUOUS
 70
0
 71
3
 72
16
 73
12
 74
0
 42
0.0000001
 43
0.0000001
 44
0.0000000001
 40
0.0
 40
0.0
 40
0.0
 40
0.0
 40
0.1287447918
 40
0.2703888475
 40
0.4176118808
 40
0.562019253
 40
0.6957478559
 40
0.8130644435
 40
0.9124726615
 40
0.9571201139
 40
1.0
 40
1.0
 40
1.0
 40
1.0
 10
443.3555143377
 20
200.8225366506
 30
0.0
 10
443.3555143377
 20
201.0810994407
 30
0.0
 10
443.283187746
 20
201.6247536055
 30
0.0
 10
443.0132105281
 20
202.4229940485
 30
0.0
 10
442.5971183332
 20
203.1919848063
 30
0.0
 10
442.0687636604
 20
203.8685777083
 30
0.0
 10
441.4697963847
 20
204.3983884295
 30
0.0
 10
440.8466761445
 20
204.7401895285
 30
0.0
 10
440.3176903118
 20
204.8435274528
 30
0.0
 10
439.943008673
 20
204.7885285282
 30
0.0
 10
439.7785911344
 20
204.7202590635
 30
0.0
 10
439.7040141899
 20
204.6771956898
 30
0.0
  0
SPLINE
  5
854
100
AcDbEntity
  8
7_ALL_ROUNDS
100
AcDbSpline
 62
9
  6
CONTINUOUS
 70
0
 71
3
 72
11
 73
7
 74
0
 42
0.0000001
 43
0.0000001
 44
0.0000000001
 40
0.0
 40
0.0
 40
0.0
 40
0.0
 40
0.2373950303
 40
0.5002141202
 40
0.762902088
 40
1.0
 40
1.0
 40
1.0
 40
1.0
 10
423.327597712
 20
195.0971728462
 30
0.0
 10
423.327594875
 20
195.1609609023
 30
0.0
 10
423.3036707939
 20
195.2954557597
 30
0.0
 10
423.2202915121
 20
195.4843862695
 30
0.0
 10
423.0983572071
 20
195.6509557199
 30
0.0
 10
422.9939196707
 20
195.7388251242
 30
0.0
 10
422.9387465961
 20
195.7706789967
 30
0.0
  0
SPLINE
  5
855
100
AcDbEntity
  8
7_ALL_ROUNDS
100
AcDbSpline
 62
9
  6
CONTINUOUS
 70
0
 71
3
 72
11
 73
7
 74
0
 42
0.0000001
 43
0.0000001
 44
0.0000000001
 40
0.0
 40
0.0
 40
0.0
 40
0.0
 40
0.2755430986
 40
0.5001650861
 40
0.7247363515
 40
1.0
 40
1.0
 40
1.0
 40
1.0
 10
422.9387465961
 20
192.3914214482
 30
0.0
 10
422.9842561649
 20
192.3651497796
 30
0.0
 10
423.0752097341
 20
192.3273929177
 30
0.0
 10
423.2222111003
 20
192.3496579801
 30
0.0
 10
423.3148357153
 20
192.4658678595
 30
0.0
 10
423.327597424
 20
192.5634361798
 30
0.0
 10
423.327597712
 20
192.6159311635
 30
0.0
  0
SPLINE
  5
856
100
AcDbEntity
  8
7_ALL_ROUNDS
100
AcDbSpline
 62
9
  6
CONTINUOUS
 70
0
 71
3
 72
11
 73
7
 74
0
 42
0.0000001
 43
0.0000001
 44
0.0000000001
 40
0.0
 40
0.0
 40
0.0
 40
0.0
 40
0.2373950303
 40
0.5002141202
 40
0.762902088
 40
1.0
 40
1.0
 40
1.0
 40
1.0
 10
409.5115937958
 20
200.5924242912
 30
0.0
 10
409.5115966328
 20
200.5286362351
 30
0.0
 10
409.5355207139
 20
200.3941413778
 30
0.0
 10
409.6188999957
 20
200.2052108679
 30
0.0
 10
409.7408343007
 20
200.0386414176
 30
0.0
 10
409.8452718371
 20
199.9507720132
 30
0.0
 10
409.9004449117
 20
199.9189181407
 30
0.0
  0
SPLINE
  5
857
100
AcDbEntity
  8
7_ALL_ROUNDS
100
AcDbSpline
 62
9
  6
CONTINUOUS
 70
0
 71
3
 72
11
 73
7
 74
0
 42
0.0000001
 43
0.0000001
 44
0.0000000001
 40
0.0
 40
0.0
 40
0.0
 40
0.0
 40
0.2755430986
 40
0.5001650861
 40
0.7247363515
 40
1.0
 40
1.0
 40
1.0
 40
1.0
 10
409.9004449117
 20
203.2981756892
 30
0.0
 10
409.8549353429
 20
203.3244473578
 30
0.0
 10
409.7639817737
 20
203.3622042198
 30
0.0
 10
409.6169804075
 20
203.3399391573
 30
0.0
 10
409.5243557925
 20
203.2237292779
 30
0.0
 10
409.5115940838
 20
203.1261609576
 30
0.0
 10
409.5115937958
 20
203.0736659739
 30
0.0
  0
SPLINE
  5
858
100
AcDbEntity
  8
0
100
AcDbSpline
 62
7
  6
CONTINUOUS
 70
0
 71
3
 72
17
 73
13
 74
0
 42
0.0000001
 43
0.0000001
 44
0.0000000001
 40
0.0
 40
0.0
 40
0.0
 40
0.0
 40
0.1286888805
 40
0.2702714229
 40
0.4174305201
 40
0.5617751791
 40
0.6954457062
 40
0.8127113456
 40
0.8646748728
 40
0.9125106729
 40
0.9571387358
 40
1.0
 40
1.0
 40
1.0
 40
1.0
 10
438.8441542912
 20
203.4271126645
 30
0.0
 10
438.8441542912
 20
203.1403430246
 30
0.0
 10
438.9243664908
 20
202.5373819557
 30
0.0
 10
439.2238183372
 20
201.6520566689
 30
0.0
 10
439.6852153982
 20
200.7991916949
 30
0.0
 10
440.2715215182
 20
200.0487322796
 30
0.0
 10
440.9347944045
 20
199.4613108279
 30
0.0
 10
441.5351348155
 20
199.1330216816
 30
0.0
 10
442.0047610087
 20
199.008111759
 30
0.0
 10
442.3279770142
 20
198.9842879247
 30
0.0
 10
442.6289330598
 20
199.028467704
 30
0.0
 10
442.8112872985
 20
199.1041841702
 30
0.0
 10
442.8939999097
 20
199.1519453665
 30
0.0
  0
SPLINE
  5
859
100
AcDbEntity
  8
7_ALL_ROUNDS
100
AcDbSpline
 62
9
  6
CONTINUOUS
 70
0
 71
3
 72
15
 73
11
 74
0
 42
0.0000001
 43
0.0000001
 44
0.0000000001
 40
0.0
 40
0.0
 40
0.0
 40
0.0
 40
0.1448920526
 40
0.2745559293
 40
0.3911400691
 40
0.5000328908
 40
0.608915362
 40
0.7254729761
 40
0.8551060295
 40
1.0
 40
1.0
 40
1.0
 40
1.0
 10
387.1162784351
 20
271.9583296475
 30
0.0
 10
386.947369904
 20
272.0558317225
 30
0.0
 10
386.6114718167
 20
272.215722721
 30
0.0
 10
386.0952472825
 20
272.3404838548
 30
0.0
 10
385.6104907771
 20
272.3281790965
 30
0.0
 10
385.1790605271
 20
272.1717842738
 30
0.0
 10
384.8279846985
 20
271.8763111676
 30
0.0
 10
384.5750746438
 20
271.46268873
 30
0.0
 10
384.4250520508
 20
270.9533162376
 30
0.0
 10
384.3955753725
 20
270.5825124472
 30
0.0
 10
384.395564389
 20
270.3874797491
 30
0.0
  0
SPLINE
  5
85A
100
AcDbEntity
  8
7_ALL_ROUNDS
100
AcDbSpline
 62
9
  6
CONTINUOUS
 70
0
 71
3
 72
11
 73
7
 74
0
 42
0.0000001
 43
0.0000001
 44
0.0000000001
 40
0.0
 40
0.0
 40
0.0
 40
0.0
 40
0.2372450848
 40
0.500045365
 40
0.7627897141
 40
1.0
 40
1.0
 40
1.0
 40
1.0
 10
451.3682085895
 20
231.7216803288
 30
0.0
 10
451.3681786755
 20
232.1677178785
 30
0.0
 10
451.2010845142
 20
233.1084651273
 30
0.0
 10
450.6179790738
 20
234.4303133818
 30
0.0
 10
449.7647539735
 20
235.5961155185
 30
0.0
 10
449.033707361
 20
236.2110651008
 30
0.0
 10
448.6474945434
 20
236.43406913
 30
0.0
  0
SPLINE
  5
85B
100
AcDbEntity
  8
0
100
AcDbSpline
 62
7
  6
CONTINUOUS
 70
0
 71
3
 72
11
 73
7
 74
0
 42
0.0000001
 43
0.0000001
 44
0.0000000001
 40
0.0
 40
0.0
 40
0.0
 40
0.0
 40
0.2177853238
 40
0.4509152369
 40
0.7102996252
 40
1.0
 40
1.0
 40
1.0
 40
1.0
 10
442.7290006483
 20
199.4377341763
 30
0.0
 10
442.8287826996
 20
199.495351873
 30
0.0
 10
443.015478704
 20
199.6523028527
 30
0.0
 10
443.2142365245
 20
199.9772840076
 30
0.0
 10
443.3322785871
 20
200.377778148
 30
0.0
 10
443.3555143377
 20
200.6692662587
 30
0.0
 10
443.3555143377
 20
200.8225366506
 30
0.0
  0
SPLINE
  5
85C
100
AcDbEntity
  8
7_ALL_ROUNDS
100
AcDbSpline
 62
9
  6
CONTINUOUS
 70
0
 71
3
 72
11
 73
7
 74
0
 42
0.0000001
 43
0.0000001
 44
0.0000000001
 40
0.0
 40
0.0
 40
0.0
 40
0.0
 40
0.2173540014
 40
0.4501254503
 40
0.7094715238
 40
1.0
 40
1.0
 40
1.0
 40
1.0
 10
423.8588580018
 20
192.1019290753
 30
0.0
 10
423.8964447617
 20
192.1222310656
 30
0.0
 10
423.9671831941
 20
192.1787514297
 30
0.0
 10
424.0429516454
 20
192.2981881992
 30
0.0
 10
424.0885968306
 20
192.4465609828
 30
0.0
 10
424.0981311691
 20
192.5549490986
 30
0.0
 10
424.0985685734
 20
192.6120485669
 30
0.0
  0
SPLINE
  5
85D
100
AcDbEntity
  8
0
100
AcDbSpline
 62
7
  6
CONTINUOUS
 70
0
 71
3
 72
11
 73
7
 74
0
 42
0.0000001
 43
0.0000001
 44
0.0000000001
 40
0.0
 40
0.0
 40
0.0
 40
0.0
 40
0.2177853238
 40
0.4509152369
 40
0.7102996252
 40
1.0
 40
1.0
 40
1.0
 40
1.0
 10
396.0597587886
 20
226.3816239747
 30
0.0
 10
396.1595408399
 20
226.4392416713
 30
0.0
 10
396.3462368443
 20
226.5961926511
 30
0.0
 10
396.5449946648
 20
226.9211738059
 30
0.0
 10
396.6630367274
 20
227.3216679463
 30
0.0
 10
396.686272478
 20
227.613156057
 30
0.0
 10
396.686272478
 20
227.766426449
 30
0.0
  0
SPLINE
  5
85E
100
AcDbEntity
  8
0
100
AcDbSpline
 62
7
  6
CONTINUOUS
 70
0
 71
3
 72
11
 73
7
 74
0
 42
0.0000001
 43
0.0000001
 44
0.0000000001
 40
0.0
 40
0.0
 40
0.0
 40
0.0
 40
0.2177853238
 40
0.4509152369
 40
0.7102996252
 40
1.0
 40
1.0
 40
1.0
 40
1.0
 10
439.5390149285
 20
204.9629844996
 30
0.0
 10
439.4283475626
 20
204.8990812361
 30
0.0
 10
439.2212847213
 20
204.7250083312
 30
0.0
 10
439.0008442295
 20
204.3645746868
 30
0.0
 10
438.869924851
 20
203.9203902765
 30
0.0
 10
438.8441542912
 20
203.5971034628
 30
0.0
 10
438.8441542912
 20
203.4271126645
 30
0.0
  0
SPLINE
  5
85F
100
AcDbEntity
  8
0
100
AcDbSpline
 62
7
  6
CONTINUOUS
 70
0
 71
3
 72
9
 73
5
 74
0
 42
0.0000001
 43
0.0000001
 44
0.0000000001
 40
0.0
 40
0.0
 40
0.0
 40
0.0
 40
0.2435348353
 40
1.0
 40
1.0
 40
1.0
 40
1.0
 10
439.9715570686
 20
205.1056721117
 30
0.0
 10
439.9560285362
 20
205.0853790099
 30
0.0
 10
439.8947219167
 20
205.0001838899
 30
0.0
 10
439.8432999922
 20
204.9080098407
 30
0.0
 10
439.8098085331
 20
204.836050094
 30
0.0
  0
SPLINE
  5
860
100
AcDbEntity
  8
0
100
AcDbSpline
 62
7
  6
CONTINUOUS
 70
0
 71
3
 72
11
 73
7
 74
0
 42
0.0000001
 43
0.0000001
 44
0.0000000001
 40
0.0
 40
0.0
 40
0.0
 40
0.0
 40
0.2177853238
 40
0.4509152369
 40
0.7102996252
 40
1.0
 40
1.0
 40
1.0
 40
1.0
 10
392.8697730688
 20
231.9068742979
 30
0.0
 10
392.7591057029
 20
231.8429710344
 30
0.0
 10
392.5520428616
 20
231.6688981296
 30
0.0
 10
392.3316023698
 20
231.3084644851
 30
0.0
 10
392.2006829913
 20
230.8642800748
 30
0.0
 10
392.1749124315
 20
230.5409932612
 30
0.0
 10
392.1749124315
 20
230.3710024628
 30
0.0
  0
SPLINE
  5
861
100
AcDbEntity
  8
0
100
AcDbSpline
 62
7
  6
CONTINUOUS
 70
0
 71
3
 72
9
 73
5
 74
0
 42
0.0000001
 43
0.0000001
 44
0.0000000001
 40
0.0
 40
0.0
 40
0.0
 40
0.0
 40
0.2435348353
 40
1.0
 40
1.0
 40
1.0
 40
1.0
 10
393.3023152089
 20
232.04956191
 30
0.0
 10
393.2867866765
 20
232.0292688082
 30
0.0
 10
393.225480057
 20
231.9440736883
 30
0.0
 10
393.1740581325
 20
231.851899639
 30
0.0
 10
393.1405666734
 20
231.7799398923
 30
0.0
  0
SPLINE
  5
862
100
AcDbEntity
  8
7_ALL_ROUNDS
100
AcDbSpline
 62
9
  6
CONTINUOUS
 70
0
 71
3
 72
15
 73
11
 74
0
 42
0.0000001
 43
0.0000001
 44
0.0000000001
 40
0.0
 40
0.0
 40
0.0
 40
0.0
 40
0.1448892646
 40
0.2745481092
 40
0.3911308959
 40
0.5000199677
 40
0.6089001798
 40
0.7254631918
 40
0.8551059861
 40
1.0
 40
1.0
 40
1.0
 40
1.0
 10
448.6474945434
 20
159.1004900169
 30
0.0
 10
448.8163996264
 20
159.0029894631
 30
0.0
 10
449.1522869584
 20
158.8431002221
 30
0.0
 10
449.6684987299
 20
158.7183407444
 30
0.0
 10
450.153240499
 20
158.7306336496
 30
0.0
 10
450.5846680425
 20
158.8870070656
 30
0.0
 10
450.9357500534
 20
159.1824711471
 30
0.0
 10
451.1886873115
 20
159.5960976947
 30
0.0
 10
451.3387209448
 20
160.1054903506
 30
0.0
 10
451.3681969157
 20
160.4763071528
 30
0.0
 10
451.3682085895
 20
160.6713399154
 30
0.0
  0
SPLINE
  5
863
100
AcDbEntity
  8
7_ALL_ROUNDS
100
AcDbSpline
 62
9
  6
CONTINUOUS
 70
0
 71
3
 72
11
 73
7
 74
0
 42
0.0000001
 43
0.0000001
 44
0.0000000001
 40
0.0
 40
0.0
 40
0.0
 40
0.0
 40
0.2372450848
 40
0.500045365
 40
0.7627897141
 40
1.0
 40
1.0
 40
1.0
 40
1.0
 10
384.395564389
 20
199.3371393356
 30
0.0
 10
384.3955943031
 20
198.8911017859
 30
0.0
 10
384.5626884643
 20
197.9503545371
 30
0.0
 10
385.1457939047
 20
196.6285062826
 30
0.0
 10
385.9990190051
 20
195.462704146
 30
0.0
 10
386.7300656175
 20
194.8477545636
 30
0.0
 10
387.1162784351
 20
194.6247505345
 30
0.0
  0
SPLINE
  5
864
100
AcDbEntity
  8
7_ALL_ROUNDS
100
AcDbSpline
 62
9
  6
CONTINUOUS
 70
0
 71
3
 72
11
 73
7
 74
0
 42
0.0000001
 43
0.0000001
 44
0.0000000001
 40
0.0
 40
0.0
 40
0.0
 40
0.0
 40
0.2362308655
 40
0.4978410765
 40
0.7606207884
 40
1.0
 40
1.0
 40
1.0
 40
1.0
 10
448.6474945434
 20
236.43406913
 30
0.0
 10
448.6474945434
 20
236.6208268055
 30
0.0
 10
448.7159564238
 20
237.014700008
 30
0.0
 10
448.9562366279
 20
237.5706114473
 30
0.0
 10
449.3093748636
 20
238.0656841529
 30
0.0
 10
449.6124888718
 20
238.3311213873
 30
0.0
 10
449.7734978876
 20
238.430571876
 30
0.0
  0
SPLINE
  5
865
100
AcDbEntity
  8
7_ALL_ROUNDS
100
AcDbSpline
 62
9
  6
CONTINUOUS
 70
0
 71
3
 72
11
 73
7
 74
0
 42
0.0000001
 43
0.0000001
 44
0.0000000001
 40
0.0
 40
0.0
 40
0.0
 40
0.0
 40
0.2362297956
 40
0.4978399409
 40
0.7606202006
 40
1.0
 40
1.0
 40
1.0
 40
1.0
 10
451.3682085895
 20
231.7216803288
 30
0.0
 10
451.5299454756
 20
231.6283036335
 30
0.0
 10
451.9052806105
 20
231.4906610277
 30
0.0
 10
452.5068532572
 20
231.4207984264
 30
0.0
 10
453.1121676636
 20
231.4790906901
 30
0.0
 10
453.4936004507
 20
231.6088759038
 30
0.0
 10
453.6602322391
 20
231.6985878744
 30
0.0
  0
SPLINE
  5
866
100
AcDbEntity
  8
7_ALL_ROUNDS
100
AcDbSpline
 62
9
  6
CONTINUOUS
 70
0
 71
3
 72
11
 73
7
 74
0
 42
0.0000001
 43
0.0000001
 44
0.0000000001
 40
0.0
 40
0.0
 40
0.0
 40
0.0
 40
0.2362298177
 40
0.4978399638
 40
0.760620212
 40
1.0
 40
1.0
 40
1.0
 40
1.0
 10
451.3682085895
 20
160.6713399154
 30
0.0
 10
451.529945482
 20
160.5779631894
 30
0.0
 10
451.9052806325
 20
160.4403205417
 30
0.0
 10
452.5068533012
 20
160.3704579304
 30
0.0
 10
453.1121677002
 20
160.4287502275
 30
0.0
 10
453.4936004655
 20
160.5585354746
 30
0.0
 10
453.6602322391
 20
160.648247461
 30
0.0
  0
SPLINE
  5
867
100
AcDbEntity
  8
7_ALL_ROUNDS
100
AcDbSpline
 62
9
  6
CONTINUOUS
 70
0
 71
3
 72
11
 73
7
 74
0
 42
0.0000001
 43
0.0000001
 44
0.0000000001
 40
0.0
 40
0.0
 40
0.0
 40
0.0
 40
0.2895622913
 40
0.5491055987
 40
0.7822423889
 40
1.0
 40
1.0
 40
1.0
 40
1.0
 10
448.6474945434
 20
159.1004900169
 30
0.0
 10
448.6474945546
 20
159.0169286812
 30
0.0
 10
448.6602338453
 20
158.8579384381
 30
0.0
 10
448.7245264752
 20
158.6394675782
 30
0.0
 10
448.8329268184
 20
158.462118396
 30
0.0
 10
448.9348483618
 20
158.3766313205
 30
0.0
 10
448.9892643128
 20
158.345202359
 30
0.0
  0
SPLINE
  5
868
100
AcDbEntity
  8
7_ALL_ROUNDS
100
AcDbSpline
 62
9
  6
CONTINUOUS
 70
0
 71
3
 72
11
 73
7
 74
0
 42
0.0000001
 43
0.0000001
 44
0.0000000001
 40
0.0
 40
0.0
 40
0.0
 40
0.0
 40
0.2895622855
 40
0.549105612
 40
0.7822423968
 40
1.0
 40
1.0
 40
1.0
 40
1.0
 10
387.1162784351
 20
194.6247505345
 30
0.0
 10
387.1162784351
 20
194.5411892059
 30
0.0
 10
387.1290177172
 20
194.3821989693
 30
0.0
 10
387.1933103133
 20
194.1637281111
 30
0.0
 10
387.3017106552
 20
193.9863789407
 30
0.0
 10
387.4036321884
 20
193.9008918721
 30
0.0
 10
387.4580481358
 20
193.8694629172
 30
0.0
  0
SPLINE
  5
869
100
AcDbEntity
  8
7_ALL_ROUNDS
100
AcDbSpline
 62
9
  6
CONTINUOUS
 70
0
 71
3
 72
11
 73
7
 74
0
 42
0.0000001
 43
0.0000001
 44
0.0000000001
 40
0.0
 40
0.0
 40
0.0
 40
0.0
 40
0.2895632748
 40
0.5491068169
 40
0.7822431889
 40
1.0
 40
1.0
 40
1.0
 40
1.0
 10
384.395564389
 20
199.3371393356
 30
0.0
 10
384.3231992533
 20
199.378918409
 30
0.0
 10
384.1918812404
 20
199.4694426191
 30
0.0
 10
384.0348278734
 20
199.6343512891
 30
0.0
 10
383.9354394092
 20
199.8168973891
 30
0.0
 10
383.9123653709
 20
199.9479038047
 30
0.0
 10
383.9123544586
 20
200.0107421187
 30
0.0
  0
SPLINE
  5
86A
100
AcDbEntity
  8
7_ALL_ROUNDS
100
AcDbSpline
 62
9
  6
CONTINUOUS
 70
0
 71
3
 72
11
 73
7
 74
0
 42
0.0000001
 43
0.0000001
 44
0.0000000001
 40
0.0
 40
0.0
 40
0.0
 40
0.0
 40
0.2895632788
 40
0.5491068404
 40
0.7822432093
 40
1.0
 40
1.0
 40
1.0
 40
1.0
 10
384.395564389
 20
270.3874797491
 30
0.0
 10
384.3231992531
 20
270.4292588346
 30
0.0
 10
384.1918812413
 20
270.5197830736
 30
0.0
 10
384.0348278666
 20
270.6846917631
 30
0.0
 10
383.9354394094
 20
270.867237879
 30
0.0
 10
383.912365369
 20
270.9982442951
 30
0.0
 10
383.9123544592
 20
271.0610826069
 30
0.0
  0
SPLINE
  5
86B
100
AcDbEntity
  8
7_ALL_ROUNDS
100
AcDbSpline
 62
9
  6
CONTINUOUS
 70
0
 71
3
 72
11
 73
7
 74
0
 42
0.0000001
 43
0.0000001
 44
0.0000000001
 40
0.0
 40
0.0
 40
0.0
 40
0.0
 40
0.2362308521
 40
0.4978410548
 40
0.7606207706
 40
1.0
 40
1.0
 40
1.0
 40
1.0
 10
387.1162784351
 20
271.9583296475
 30
0.0
 10
387.1162784118
 20
272.1450873158
 30
0.0
 10
387.1847402503
 20
272.5389605171
 30
0.0
 10
387.4250204263
 20
273.094871968
 30
0.0
 10
387.7781586876
 20
273.5899446855
 30
0.0
 10
388.0812727376
 20
273.8553819133
 30
0.0
 10
388.2422817792
 20
273.9548323936
 30
0.0
  0
SPLINE
  5
86C
100
AcDbEntity
  8
7_ALL_ROUNDS
100
AcDbSpline
 62
9
  6
CONTINUOUS
 70
0
 71
3
 72
11
 73
7
 74
0
 42
0.0000001
 43
0.0000001
 44
0.0000000001
 40
0.0
 40
0.0
 40
0.0
 40
0.0
 40
0.291117077
 40
0.550389402
 40
0.7826672193
 40
1.0
 40
1.0
 40
1.0
 40
1.0
 10
388.2422812393
 20
273.9548320367
 30
0.0
 10
387.9884523427
 20
274.0982252578
 30
0.0
 10
387.4845466908
 20
274.33098089
 30
0.0
 10
386.7117284883
 20
274.5013900922
 30
0.0
 10
385.9921661018
 20
274.4594459901
 30
0.0
 10
385.5672133189
 20
274.2797245798
 30
0.0
 10
385.3854666635
 20
274.1599901779
 30
0.0
  0
SPLINE
  5
86D
100
AcDbEntity
  8
7_ALL_ROUNDS
100
AcDbSpline
 62
9
  6
CONTINUOUS
 70
0
 71
3
 72
13
 73
9
 74
0
 42
0.0000001
 43
0.0000001
 44
0.0000000001
 40
0.0
 40
0.0
 40
0.0
 40
0.0
 40
0.1139941772
 40
0.2372628624
 40
0.5000455139
 40
0.7627722657
 40
0.8860060345
 40
1.0
 40
1.0
 40
1.0
 40
1.0
 10
453.6602316601
 20
231.6985875401
 30
0.0
 10
453.6573370012
 20
232.0046519382
 30
0.0
 10
453.5958711979
 20
232.6417698105
 30
0.0
 10
453.282836503
 20
233.9505969265
 30
0.0
 10
452.5697590773
 20
235.5572561952
 30
0.0
 10
451.5348743733
 20
236.9779953162
 30
0.0
 10
450.5580616695
 20
237.9033012372
 30
0.0
 10
450.037111512
 20
238.2750363371
 30
0.0
 10
449.7734978876
 20
238.430571876
 30
0.0
  0
SPLINE
  5
86E
100
AcDbEntity
  8
7_ALL_ROUNDS
100
AcDbSpline
 62
9
  6
CONTINUOUS
 70
0
 71
3
 72
11
 73
7
 74
0
 42
0.0000001
 43
0.0000001
 44
0.0000000001
 40
0.0
 40
0.0
 40
0.0
 40
0.0
 40
0.2367035642
 40
0.4989088438
 40
0.7617068279
 40
1.0
 40
1.0
 40
1.0
 40
1.0
 10
423.327597712
 20
192.6159311635
 30
0.0
 10
423.3821551512
 20
192.5844331239
 30
0.0
 10
423.5089093153
 20
192.5382341439
 30
0.0
 10
423.7118288844
 20
192.5154185909
 30
0.0
 10
423.9153848521
 20
192.5362886629
 30
0.0
 10
424.0431760002
 20
192.5811651385
 30
0.0
 10
424.0985685734
 20
192.6120485669
 30
0.0
  0
SPLINE
  5
86F
100
AcDbEntity
  8
7_ALL_ROUNDS
100
AcDbSpline
 62
9
  6
CONTINUOUS
 70
0
 71
3
 72
9
 73
5
 74
0
 42
0.0000001
 43
0.0000001
 44
0.0000000001
 40
0.0
 40
0.0
 40
0.0
 40
0.0
 40
0.5507638148
 40
1.0
 40
1.0
 40
1.0
 40
1.0
 10
422.9387465961
 20
192.3914214482
 30
0.0
 10
422.9387465595
 20
192.3388966181
 30
0.0
 10
422.9514915632
 20
192.2412963279
 30
0.0
 10
423.0155529192
 20
192.1610556538
 30
0.0
 10
423.0526583378
 20
192.1396392861
 30
0.0
  0
SPLINE
  5
870
100
AcDbEntity
  8
7_ALL_ROUNDS
100
AcDbSpline
 62
9
  6
CONTINUOUS
 70
0
 71
3
 72
9
 73
5
 74
0
 42
0.0000001
 43
0.0000001
 44
0.0000000001
 40
0.0
 40
0.0
 40
0.0
 40
0.0
 40
0.550763939
 40
1.0
 40
1.0
 40
1.0
 40
1.0
 10
409.9004449117
 20
199.9189181407
 30
0.0
 10
409.9004449117
 20
199.8663932806
 30
0.0
 10
409.9131899801
 20
199.7687929676
 30
0.0
 10
409.977251359
 20
199.6885522881
 30
0.0
 10
410.0143567739
 20
199.667135908
 30
0.0
  0
SPLINE
  5
871
100
AcDbEntity
  8
7_ALL_ROUNDS
100
AcDbSpline
 62
9
  6
CONTINUOUS
 70
0
 71
3
 72
9
 73
5
 74
0
 42
0.0000001
 43
0.0000001
 44
0.0000000001
 40
0.0
 40
0.0
 40
0.0
 40
0.0
 40
0.5507651655
 40
1.0
 40
1.0
 40
1.0
 40
1.0
 10
409.5115937958
 20
200.5924242912
 30
0.0
 10
409.4661066792
 20
200.6186857385
 30
0.0
 10
409.3879560626
 20
200.6785210368
 30
0.0
 10
409.3504959121
 20
200.774117434
 30
0.0
 10
409.3505010785
 20
200.8169587155
 30
0.0
  0
SPLINE
  5
872
100
AcDbEntity
  8
7_ALL_ROUNDS
100
AcDbSpline
 62
9
  6
CONTINUOUS
 70
0
 71
3
 72
9
 73
5
 74
0
 42
0.0000001
 43
0.0000001
 44
0.0000000001
 40
0.0
 40
0.0
 40
0.0
 40
0.0
 40
0.5507651951
 40
1.0
 40
1.0
 40
1.0
 40
1.0
 10
409.5115937958
 20
203.0736659739
 30
0.0
 10
409.4661066748
 20
203.0999273814
 30
0.0
 10
409.3879560448
 20
203.1597626294
 30
0.0
 10
409.3504959238
 20
203.2553589953
 30
0.0
 10
409.3505010776
 20
203.2982002585
 30
0.0
  0
SPLINE
  5
873
100
AcDbEntity
  8
7_ALL_ROUNDS
100
AcDbSpline
 62
9
  6
CONTINUOUS
 70
0
 71
3
 72
11
 73
7
 74
0
 42
0.0000001
 43
0.0000001
 44
0.0000000001
 40
0.0
 40
0.0
 40
0.0
 40
0.0
 40
0.2367044179
 40
0.4989096782
 40
0.7617072594
 40
1.0
 40
1.0
 40
1.0
 40
1.0
 10
409.9004449117
 20
203.2981756892
 30
0.0
 10
409.9004449556
 20
203.3611731335
 30
0.0
 10
409.9238113415
 20
203.4940455561
 30
0.0
 10
410.0055111434
 20
203.6811877568
 30
0.0
 10
410.1253625855
 20
203.8470378189
 30
0.0
 10
410.2281224371
 20
203.9352698378
 30
0.0
 10
410.2825646572
 20
203.9677992432
 30
0.0
  0
SPLINE
  5
874
100
AcDbEntity
  8
7_ALL_ROUNDS
100
AcDbSpline
 62
9
  6
CONTINUOUS
 70
0
 71
3
 72
11
 73
7
 74
0
 42
0.0000001
 43
0.0000001
 44
0.0000000001
 40
0.0
 40
0.0
 40
0.0
 40
0.0
 40
0.2367046111
 40
0.4989099465
 40
0.7617073883
 40
1.0
 40
1.0
 40
1.0
 40
1.0
 10
422.9387465961
 20
195.7706789967
 30
0.0
 10
422.9387465961
 20
195.8336764988
 30
0.0
 10
422.9621129516
 20
195.9665490222
 30
0.0
 10
423.043812774
 20
196.1536912789
 30
0.0
 10
423.1636642613
 20
196.3195412766
 30
0.0
 10
423.2664241247
 20
196.4077731941
 30
0.0
 10
423.3208663416
 20
196.4403025507
 30
0.0
  0
SPLINE
  5
875
100
AcDbEntity
  8
7_ALL_ROUNDS
100
AcDbSpline
 62
9
  6
CONTINUOUS
 70
0
 71
3
 72
11
 73
7
 74
0
 42
0.0000001
 43
0.0000001
 44
0.0000000001
 40
0.0
 40
0.0
 40
0.0
 40
0.0
 40
0.236703418
 40
0.4989085795
 40
0.7617066608
 40
1.0
 40
1.0
 40
1.0
 40
1.0
 10
423.327597712
 20
195.0971728462
 30
0.0
 10
423.3821551011
 20
195.0656747848
 30
0.0
 10
423.5089091817
 20
195.0194757368
 30
0.0
 10
423.711828726
 20
194.9966601206
 30
0.0
 10
423.9153847562
 20
195.0175302119
 30
0.0
 10
424.0431759753
 20
195.0624067613
 30
0.0
 10
424.0985685734
 20
195.0932902496
 30
0.0
  0
SPLINE
  5
876
100
AcDbEntity
  8
7_ALL_ROUNDS
100
AcDbSpline
 62
7
  6
CONTINUOUS
 70
0
 71
3
 72
11
 73
7
 74
0
 42
0.0000001
 43
0.0000001
 44
0.0000000001
 40
0.0
 40
0.0
 40
0.0
 40
0.0
 40
0.289535909
 40
0.5491073529
 40
0.7822501147
 40
1.0
 40
1.0
 40
1.0
 40
1.0
 10
428.8647172014
 20
181.6336022379
 30
0.0
 10
428.8647172014
 20
181.5778999562
 30
0.0
 10
428.8562154666
 20
181.4719081737
 30
0.0
 10
428.8133677651
 20
181.3262554968
 30
0.0
 10
428.7410948488
 20
181.2080209175
 30
0.0
 10
428.6731478602
 20
181.1510277431
 30
0.0
 10
428.6368684896
 20
181.1300819594
 30
0.0
  0
SPLINE
  5
877
100
AcDbEntity
  8
7_ALL_ROUNDS
100
AcDbSpline
 62
7
  6
CONTINUOUS
 70
0
 71
3
 72
11
 73
7
 74
0
 42
0.0000001
 43
0.0000001
 44
0.0000000001
 40
0.0
 40
0.0
 40
0.0
 40
0.0
 40
0.2372465045
 40
0.4999989083
 40
0.7627519059
 40
1.0
 40
1.0
 40
1.0
 40
1.0
 10
428.0868965037
 20
203.7278420865
 30
0.0
 10
428.1973281053
 20
203.6640858139
 30
0.0
 10
428.4063181393
 20
203.4882264206
 30
0.0
 10
428.6501470174
 20
203.1548910125
 30
0.0
 10
428.8169115668
 20
202.7770612752
 30
0.0
 10
428.8647172014
 20
202.5081401607
 30
0.0
 10
428.8647172014
 20
202.3806245976
 30
0.0
  0
SPLINE
  5
878
100
AcDbEntity
  8
7_ALL_ROUNDS
100
AcDbSpline
 62
9
  6
CONTINUOUS
 70
0
 71
3
 72
11
 73
7
 74
0
 42
0.0000001
 43
0.0000001
 44
0.0000000001
 40
0.0
 40
0.0
 40
0.0
 40
0.0
 40
0.2906751564
 40
0.5500573518
 40
0.7827764007
 40
1.0
 40
1.0
 40
1.0
 40
1.0
 10
410.2825646572
 20
203.9677992432
 30
0.0
 10
410.2328701137
 20
203.9959828438
 30
0.0
 10
410.1342004459
 20
204.0419323442
 30
0.0
 10
409.9828500205
 20
204.0765686192
 30
0.0
 10
409.8415599951
 20
204.0706376107
 30
0.0
 10
409.7572844907
 20
204.0376367643
 30
0.0
 10
409.7209310335
 20
204.0152495197
 30
0.0
  0
SPLINE
  5
879
100
AcDbEntity
  8
7_ALL_ROUNDS
100
AcDbSpline
 62
9
  6
CONTINUOUS
 70
0
 71
3
 72
11
 73
7
 74
0
 42
0.0000001
 43
0.0000001
 44
0.0000000001
 40
0.0
 40
0.0
 40
0.0
 40
0.0
 40
0.237146489
 40
0.5002143744
 40
0.7631507264
 40
1.0
 40
1.0
 40
1.0
 40
1.0
 10
424.0985685734
 20
195.0932902496
 30
0.0
 10
424.097582023
 20
195.2205756635
 30
0.0
 10
424.0481523401
 20
195.488831575
 30
0.0
 10
423.8808496736
 20
195.8659230161
 30
0.0
 10
423.6379214322
 20
196.1991512334
 30
0.0
 10
423.4304701296
 20
196.3758900387
 30
0.0
 10
423.3208663416
 20
196.4403025507
 30
0.0
  0
SPLINE
  5
87A
100
AcDbEntity
  8
7_ALL_ROUNDS
100
AcDbSpline
 62
7
  6
CONTINUOUS
 70
0
 71
3
 72
11
 73
7
 74
0
 42
0.0000001
 43
0.0000001
 44
0.0000000001
 40
0.0
 40
0.0
 40
0.0
 40
0.0
 40
0.289535909
 40
0.5491073529
 40
0.7822501147
 40
1.0
 40
1.0
 40
1.0
 40
1.0
 10
405.8023335157
 20
249.8971811702
 30
0.0
 10
405.8023335157
 20
249.9528834519
 30
0.0
 10
405.8108352505
 20
250.0588752344
 30
0.0
 10
405.853682952
 20
250.2045279113
 30
0.0
 10
405.9259558684
 20
250.3227624907
 30
0.0
 10
405.993902857
 20
250.379755665
 30
0.0
 10
406.0301822275
 20
250.4007014488
 30
0.0
  0
SPLINE
  5
87B
100
AcDbEntity
  8
0
100
AcDbSpline
 62
7
  6
CONTINUOUS
 70
0
 71
3
 72
9
 73
5
 74
0
 42
0.0000001
 43
0.0000001
 44
0.0000000001
 40
0.0
 40
0.0
 40
0.0
 40
0.0
 40
0.2565280062
 40
1.0
 40
1.0
 40
1.0
 40
1.0
 10
396.3105908858
 20
226.3896364651
 30
0.0
 10
396.3357436586
 20
226.3883782238
 30
0.0
 10
396.4338905737
 20
226.385869208
 30
0.0
 10
396.5323613398
 20
226.3932727384
 30
0.0
 10
396.6044101067
 20
226.4049515077
 30
0.0
  0
SPLINE
  5
87C
100
AcDbEntity
  8
0
100
AcDbSpline
 62
7
  6
CONTINUOUS
 70
0
 71
3
 72
9
 73
5
 74
0
 42
0.0000001
 43
0.0000001
 44
0.0000000001
 40
0.0
 40
0.0
 40
0.0
 40
0.0
 40
0.2565280062
 40
1.0
 40
1.0
 40
1.0
 40
1.0
 10
442.9798327455
 20
199.4457466668
 30
0.0
 10
443.0049855183
 20
199.4444884254
 30
0.0
 10
443.1031324334
 20
199.4419794097
 30
0.0
 10
443.2016031995
 20
199.44938294
 30
0.0
 10
443.2736519664
 20
199.4610617094
 30
0.0
  0
SPLINE
  5
87D
100
AcDbEntity
  8
7_ALL_ROUNDS
100
AcDbSpline
 62
7
  6
CONTINUOUS
 70
0
 71
3
 72
11
 73
7
 74
0
 42
0.0000001
 43
0.0000001
 44
0.0000000001
 40
0.0
 40
0.0
 40
0.0
 40
0.0
 40
0.2177508335
 40
0.4508940037
 40
0.710465094
 40
1.0
 40
1.0
 40
1.0
 40
1.0
 10
406.535765681
 20
215.9070249454
 30
0.0
 10
406.5720442397
 20
215.9279702603
 30
0.0
 10
406.6553732534
 20
215.9583166456
 30
0.0
 10
406.7939002749
 20
215.9617901759
 30
0.0
 10
406.9414591915
 20
215.9260732423
 30
0.0
 10
407.0374992597
 20
215.880442323
 30
0.0
 10
407.0857376669
 20
215.8525924957
 30
0.0
  0
SPLINE
  5
87E
100
AcDbEntity
  8
7_ALL_ROUNDS
100
AcDbSpline
 62
7
  6
CONTINUOUS
 70
0
 71
3
 72
9
 73
5
 74
0
 42
0.0000001
 43
0.0000001
 44
0.0000000001
 40
0.0
 40
0.0
 40
0.0
 40
0.0
 40
0.4562963416
 40
1.0
 40
1.0
 40
1.0
 40
1.0
 10
406.0286654725
 20
250.3842451634
 30
0.0
 10
405.9778395118
 20
250.3328501831
 30
0.0
 10
405.8986173668
 20
250.18820538
 30
0.0
 10
405.8801149378
 20
250.0282165251
 30
0.0
 10
405.8801149378
 20
249.9420880272
 30
0.0
  0
SPLINE
  5
87F
100
AcDbEntity
  8
7_ALL_ROUNDS
100
AcDbSpline
 62
9
  6
CONTINUOUS
 70
0
 71
3
 72
11
 73
7
 74
0
 42
0.0000001
 43
0.0000001
 44
0.0000000001
 40
0.0
 40
0.0
 40
0.0
 40
0.0
 40
0.2173341268
 40
0.4495987325
 40
0.7088545352
 40
1.0
 40
1.0
 40
1.0
 40
1.0
 10
452.4102459917
 20
158.071892227
 30
0.0
 10
452.6047137763
 20
158.1695005256
 30
0.0
 10
452.9726315594
 20
158.4476981436
 30
0.0
 10
453.3684424511
 20
159.049822169
 30
0.0
 10
453.6071472657
 20
159.8041243436
 30
0.0
 10
453.6575037155
 20
160.3567729445
 30
0.0
 10
453.6602322391
 20
160.648247461
 30
0.0
  0
SPLINE
  5
880
100
AcDbEntity
  8
0
100
AcDbSpline
 62
7
  6
CONTINUOUS
 70
0
 71
3
 72
16
 73
12
 74
0
 42
0.0000001
 43
0.0000001
 44
0.0000000001
 40
0.0
 40
0.0
 40
0.0
 40
0.0
 40
0.1287447918
 40
0.2703888475
 40
0.4176118808
 40
0.562019253
 40
0.6957478559
 40
0.8130644435
 40
0.9124726615
 40
0.9571201139
 40
1.0
 40
1.0
 40
1.0
 40
1.0
 10
396.686272478
 20
227.766426449
 30
0.0
 10
396.686272478
 20
228.024989239
 30
0.0
 10
396.6139458863
 20
228.5686434038
 30
0.0
 10
396.3439686684
 20
229.3668838468
 30
0.0
 10
395.9278764735
 20
230.1358746047
 30
0.0
 10
395.3995218007
 20
230.8124675066
 30
0.0
 10
394.800554525
 20
231.3422782279
 30
0.0
 10
394.1774342848
 20
231.6840793269
 30
0.0
 10
393.6484484521
 20
231.7874172512
 30
0.0
 10
393.2737668133
 20
231.7324183266
 30
0.0
 10
393.1093492747
 20
231.6641488618
 30
0.0
 10
393.0347723302
 20
231.6210854881
 30
0.0
  0
SPLINE
  5
881
100
AcDbEntity
  8
0
100
AcDbSpline
 62
7
  6
CONTINUOUS
 70
0
 71
3
 72
17
 73
13
 74
0
 42
0.0000001
 43
0.0000001
 44
0.0000000001
 40
0.0
 40
0.0
 40
0.0
 40
0.0
 40
0.1286888805
 40
0.2702714229
 40
0.4174305201
 40
0.5617751791
 40
0.6954457062
 40
0.8127113456
 40
0.8646748728
 40
0.9125106729
 40
0.9571387358
 40
1.0
 40
1.0
 40
1.0
 40
1.0
 10
392.1749124315
 20
230.3710024628
 30
0.0
 10
392.1749124315
 20
230.084232823
 30
0.0
 10
392.2551246311
 20
229.4812717541
 30
0.0
 10
392.5545764775
 20
228.5959464672
 30
0.0
 10
393.0159735385
 20
227.7430814932
 30
0.0
 10
393.6022796585
 20
226.992622078
 30
0.0
 10
394.2655525448
 20
226.4052006262
 30
0.0
 10
394.8658929558
 20
226.0769114799
 30
0.0
 10
395.335519149
 20
225.9520015573
 30
0.0
 10
395.6587351545
 20
225.9281777231
 30
0.0
 10
395.9596912001
 20
225.9723575024
 30
0.0
 10
396.1420454388
 20
226.0480739686
 30
0.0
 10
396.22475805
 20
226.0958351649
 30
0.0
  0
ELLIPSE
  5
882
100
AcDbEntity
  8
7_ALL_ROUNDS
100
AcDbEllipse
 62
7
  6
CONTINUOUS
 10
125.2702301211
 20
129.4215906184
 30
0.0
 11
-0.4349146874
 21
0.9023766753
 31
0.0
 40
0.9980776934
 41
-0.4483643207
 42
1.1221274196
  0
ELLIPSE
  5
883
100
AcDbEntity
  8
7_ALL_ROUNDS
100
AcDbEllipse
 62
7
  6
CONTINUOUS
 10
148.1984395596
 20
177.9009610584
 30
0.0
 11
1.4159370892
 21
1.4159370892
 31
0.0
 40
0.998782766
 41
-0.7847891758
 42
0.7847891758
  0
ELLIPSE
  5
884
100
AcDbEntity
  8
7_ALL_ROUNDS
100
AcDbEllipse
 62
7
  6
CONTINUOUS
 10
148.1984395596
 20
115.4603756356
 30
0.0
 11
1.4159370892
 21
-1.4159370892
 31
0.0
 40
0.998782766
 41
-0.7847891758
 42
0.7847891758
  0
ELLIPSE
  5
885
100
AcDbEntity
  8
7_ALL_ROUNDS
100
AcDbEllipse
 62
7
  6
CONTINUOUS
 10
119.3578541368
 20
115.4603756356
 30
0.0
 11
1.4159370892
 21
1.4159370892
 31
0.0
 40
0.998782766
 41
-3.9263818294
 42
-2.3568034778
  0
ELLIPSE
  5
886
100
AcDbEntity
  8
7_ALL_ROUNDS
100
AcDbEllipse
 62
7
  6
CONTINUOUS
 10
119.3578541368
 20
177.9009610584
 30
0.0
 11
-1.4159370892
 21
1.4159370892
 31
0.0
 40
0.998782766
 41
-0.7847891758
 42
0.7847891758
  0
ELLIPSE
  5
887
100
AcDbEntity
  8
7_ALL_ROUNDS
100
AcDbEllipse
 62
7
  6
CONTINUOUS
 10
125.3795412342
 20
129.329273961
 30
0.0
 11
0.7073221892
 21
-0.7073221892
 31
0.0
 40
0.9996954599
 41
2.3563467834
 42
3.9268385237
  0
ELLIPSE
  5
888
100
AcDbEntity
  8
7_ALL_ROUNDS
100
AcDbEllipse
 62
7
  6
CONTINUOUS
 10
119.5492199536
 20
177.7095952416
 30
0.0
 11
1.4159370892
 21
-1.4159370892
 31
0.0
 40
0.998782766
 41
2.3568034778
 42
3.9263818294
  0
ELLIPSE
  5
889
100
AcDbEntity
  8
7_ALL_ROUNDS
100
AcDbEllipse
 62
7
  6
CONTINUOUS
 10
148.0070737428
 20
177.7095952416
 30
0.0
 11
-1.4159370892
 21
-1.4159370892
 31
0.0
 40
0.998782766
 41
2.3568034778
 42
3.9263818294
  0
ELLIPSE
  5
88A
100
AcDbEntity
  8
7_ALL_ROUNDS
100
AcDbEllipse
 62
7
  6
CONTINUOUS
 10
148.0070737428
 20
115.6517414524
 30
0.0
 11
-1.4159370892
 21
1.4159370892
 31
0.0
 40
0.998782766
 41
2.3568034778
 42
3.9263818294
  0
ELLIPSE
  5
88B
100
AcDbEntity
  8
7_ALL_ROUNDS
100
AcDbEllipse
 62
7
  6
CONTINUOUS
 10
119.5492199536
 20
115.6517414524
 30
0.0
 11
1.4159370892
 21
1.4159370892
 31
0.0
 40
0.998782766
 41
2.3568034778
 42
3.9263818294
  0
ELLIPSE
  5
88C
100
AcDbEntity
  8
7_ALL_ROUNDS
100
AcDbEllipse
 62
7
  6
CONTINUOUS
 10
125.2782991763
 20
129.4135215633
 30
0.0
 11
-0.7073221892
 21
0.7073221892
 31
0.0
 40
0.9996954599
 41
-0.7852458701
 42
0.7852458701
  0
ELLIPSE
  5
88D
100
AcDbEntity
  8
7_ALL_ROUNDS
100
AcDbEllipse
 62
7
  6
CONTINUOUS
 10
142.2779945202
 20
129.4135215633
 30
0.0
 11
0.7073221892
 21
0.7073221892
 31
0.0
 40
0.9996954599
 41
-0.7852458701
 42
0.7852458701
  0
ELLIPSE
  5
88E
100
AcDbEntity
  8
7_ALL_ROUNDS
100
AcDbEllipse
 62
7
  6
CONTINUOUS
 10
125.3795412342
 20
126.532062733
 30
0.0
 11
0.7073221892
 21
0.7073221892
 31
0.0
 40
0.9996954599
 41
2.3563467834
 42
3.9268385237
  0
ELLIPSE
  5
88F
100
AcDbEntity
  8
7_ALL_ROUNDS
100
AcDbEllipse
 62
7
  6
CONTINUOUS
 10
142.1767524622
 20
126.532062733
 30
0.0
 11
0.7073221892
 21
-0.7073221892
 31
0.0
 40
0.9996954599
 41
-0.7852458701
 42
0.7852458701
  0
ELLIPSE
  5
890
100
AcDbEntity
  8
7_ALL_ROUNDS
100
AcDbEllipse
 62
7
  6
CONTINUOUS
 10
142.1767524622
 20
129.329273961
 30
0.0
 11
0.7073221892
 21
0.7073221892
 31
0.0
 40
0.9996954599
 41
-0.7852458701
 42
0.7852458701
  0
ELLIPSE
  5
891
100
AcDbEntity
  8
7_ALL_ROUNDS
100
AcDbEllipse
 62
7
  6
CONTINUOUS
 10
125.2782991763
 20
126.4478151307
 30
0.0
 11
-0.7073221892
 21
-0.7073221892
 31
0.0
 40
0.9996954599
 41
-0.7852458701
 42
0.7852458701
  0
ELLIPSE
  5
892
100
AcDbEntity
  8
7_ALL_ROUNDS
100
AcDbEllipse
 62
7
  6
CONTINUOUS
 10
142.2779945202
 20
126.4478151307
 30
0.0
 11
0.7073221892
 21
-0.7073221892
 31
0.0
 40
0.9996954599
 41
-0.7852458701
 42
0.7852458701
  0
ELLIPSE
  5
893
100
AcDbEntity
  8
0
100
AcDbEllipse
 62
7
  6
CONTINUOUS
 10
117.3978507556
 20
127.930668347
 30
0.0
 11
0.0
 21
1.6509982793
 31
0.0
 40
0.0349207955
 41
2.3451428521
 42
7.0796351087
  0
ELLIPSE
  5
894
100
AcDbEntity
  8
0
100
AcDbEllipse
 62
7
  6
CONTINUOUS
 10
150.1584429408
 20
127.930668347
 30
0.0
 11
0.0
 21
1.6509982793
 31
0.0
 40
0.0349207955
 41
-0.7964498015
 42
3.9380424551
  0
ELLIPSE
  5
895
100
AcDbEntity
  8
7_ALL_ROUNDS
100
AcDbEllipse
 62
7
  6
CONTINUOUS
 10
142.2860635753
 20
129.4215906184
 30
0.0
 11
0.4349146874
 21
0.9023766753
 31
0.0
 40
0.9980776934
 41
-1.1221274196
 42
0.4483643207
  0
ELLIPSE
  5
896
100
AcDbEntity
  8
7_ALL_ROUNDS
100
AcDbEllipse
 62
7
  6
CONTINUOUS
 10
142.2860636148
 20
126.439746036
 30
0.0
 11
-0.4349134809
 21
0.9023773011
 31
0.0
 40
0.9980776468
 41
-3.5899556014
 42
-2.0194638611
  0
ELLIPSE
  5
897
100
AcDbEntity
  8
7_ALL_ROUNDS
100
AcDbEllipse
 62
7
  6
CONTINUOUS
 10
125.2702300816
 20
126.439746036
 30
0.0
 11
0.4349134809
 21
0.9023773011
 31
0.0
 40
0.9980776468
 41
-4.263721446
 42
-2.6932297057
  0
ELLIPSE
  5
898
100
AcDbEntity
  8
7_ALL_ROUNDS
100
AcDbEllipse
 62
7
  6
CONTINUOUS
 10
120.2781468482
 20
236.6671293867
 30
0.0
 11
1.0
 21
-0.0
 31
0.0
 40
0.0686965359
 41
3.1415926536
 42
4.7123889804
  0
ELLIPSE
  5
899
100
AcDbEntity
  8
7_ALL_ROUNDS
100
AcDbEllipse
 62
7
  6
CONTINUOUS
 10
147.2781468482
 20
236.6671293867
 30
0.0
 11
1.0
 21
0.0
 31
0.0
 40
0.0686965359
 41
-1.5707963268
 42
-0.0
  0
ELLIPSE
  5
89A
100
AcDbEntity
  8
7_ALL_ROUNDS
100
AcDbEllipse
 62
7
  6
CONTINUOUS
 10
147.2781468482
 20
83.517880734
 30
0.0
 11
1.0
 21
0.0
 31
0.0
 40
0.0686984344
 41
-0.0
 42
1.5707963268
  0
ELLIPSE
  5
89B
100
AcDbEntity
  8
7_ALL_ROUNDS
100
AcDbEllipse
 62
7
  6
CONTINUOUS
 10
120.2781468482
 20
83.517880734
 30
0.0
 11
1.0
 21
0.0
 31
0.0
 40
0.0686984344
 41
1.5707963268
 42
3.1415926536
  0
ELLIPSE
  5
89C
100
AcDbEntity
  8
7_ALL_ROUNDS
100
AcDbEllipse
 62
7
  6
CONTINUOUS
 10
130.5781587602
 20
53.3184650688
 30
0.0
 11
-0.7073221892
 21
0.7073221892
 31
0.0
 40
0.9996954599
 41
-3.9268385237
 42
-2.3563467834
  0
ELLIPSE
  5
89D
100
AcDbEntity
  8
7_ALL_ROUNDS
100
AcDbEllipse
 62
7
  6
CONTINUOUS
 10
120.9606949363
 20
53.3184650688
 30
0.0
 11
0.7073221892
 21
0.7073221892
 31
0.0
 40
0.9996954599
 41
-3.9268385237
 42
-2.3563467834
  0
ELLIPSE
  5
89E
100
AcDbEntity
  8
7_ALL_ROUNDS
100
AcDbEllipse
 62
7
  6
CONTINUOUS
 10
120.9606949363
 20
59.1767288927
 30
0.0
 11
0.7073221892
 21
-0.7073221892
 31
0.0
 40
0.9996954599
 41
2.3563467834
 42
3.9268385237
  0
ELLIPSE
  5
89F
100
AcDbEntity
  8
7_ALL_ROUNDS
100
AcDbEllipse
 62
7
  6
CONTINUOUS
 10
130.5781587602
 20
59.1767288927
 30
0.0
 11
0.7073221892
 21
0.7073221892
 31
0.0
 40
0.9996954599
 41
-0.7852458701
 42
0.7852458701
  0
ELLIPSE
  5
8A0
100
AcDbEntity
  8
0
100
AcDbEllipse
 62
7
  6
CONTINUOUS
 10
67.2251231238
 20
127.930668347
 30
0.0
 11
1.6509995069
 21
0.0
 31
0.0
 40
0.9999992565
 41
3.9159391789
 42
8.6504314355
  0
ELLIPSE
  5
8A1
100
AcDbEntity
  8
0
100
AcDbEllipse
 62
7
  6
CONTINUOUS
 10
236.1071118873
 20
127.930668347
 30
0.0
 11
1.6509995069
 21
-0.0
 31
0.0
 40
0.9999992565
 41
0.7743465253
 42
5.5088387819
  0
ELLIPSE
  5
8A2
100
AcDbEntity
  8
7_ALL_ROUNDS
100
AcDbEllipse
 62
7
  6
CONTINUOUS
 10
407.8364714065
 20
250.8914869652
 30
0.0
 11
-1.1013356934
 21
1.9075806837
 31
0.0
 40
0.5766540214
 41
0.5738223404
 42
0.5852822875
  0
ELLIPSE
  5
8A3
100
AcDbEntity
  8
7_ALL_ROUNDS
100
AcDbEllipse
 62
7
  6
CONTINUOUS
 10
453.7552820318
 20
164.8913700105
 30
0.0
 11
-2.7533392334
 21
4.7689517092
 31
0.0
 40
0.5766540214
 41
-3.1764574025
 42
-2.3567948586
  0
ELLIPSE
  5
8A4
100
AcDbEntity
  8
7_ALL_ROUNDS
100
AcDbEllipse
 62
7
  6
CONTINUOUS
 10
453.7552820318
 20
236.2414172481
 30
0.0
 11
-2.7499876015
 21
4.763146879
 31
0.0
 40
0.5780604346
 41
-2.3555768413
 42
-0.7859984897
  0
ELLIPSE
  5
8A5
100
AcDbEntity
  8
7_ALL_ROUNDS
100
AcDbEllipse
 62
7
  6
CONTINUOUS
 10
391.9645129747
 20
271.9155273405
 30
0.0
 11
-2.7533392334
 21
4.7689517092
 31
0.0
 40
0.5766540214
 41
-0.7847805566
 42
0.0348647489
  0
ELLIPSE
  5
8A6
100
AcDbEntity
  8
7_ALL_ROUNDS
100
AcDbEllipse
 62
7
  6
CONTINUOUS
 10
406.5187632412
 20
193.8797612211
 30
0.0
 11
-1.0999950406
 21
1.9052587516
 31
0.0
 40
0.5780604346
 41
0.7860158123
 42
2.3555941639
  0
ELLIPSE
  5
8A7
100
AcDbEntity
  8
7_ALL_ROUNDS
100
AcDbEllipse
 62
7
  6
CONTINUOUS
 10
406.1886862735
 20
193.6895077052
 30
0.0
 11
-0.4887013639
 21
0.9870359426
 31
0.0
 40
0.615458279
 41
0.8247432399
 42
2.3955395667
  0
ELLIPSE
  5
8A8
100
AcDbEntity
  8
7_ALL_ROUNDS
100
AcDbEllipse
 62
7
  6
CONTINUOUS
 10
430.416307079
 20
181.6043521209
 30
0.0
 11
-1.1013356934
 21
1.9075806837
 31
0.0
 40
0.5766540214
 41
-3.7268730908
 42
-3.7154138753
  0
ELLIPSE
  5
8A9
100
AcDbEntity
  8
7_ALL_ROUNDS
100
AcDbEllipse
 62
7
  6
CONTINUOUS
 10
429.2152636812
 20
237.1618899564
 30
0.0
 11
-1.0999950406
 21
1.9052587516
 31
0.0
 40
0.5780604346
 41
-2.3555768413
 42
-0.7859984897
  0
ELLIPSE
  5
8AA
100
AcDbEntity
  8
7_ALL_ROUNDS
100
AcDbEllipse
 62
7
  6
CONTINUOUS
 10
423.8443860736
 20
195.8292774884
 30
0.0
 11
-0.6020387299
 21
0.9220311332
 31
0.0
 40
0.5373538148
 41
-2.3855278504
 42
-0.8150361101
  0
ELLIPSE
  5
8AB
100
AcDbEntity
  8
7_ALL_ROUNDS
100
AcDbEllipse
 62
7
  6
CONTINUOUS
 10
429.2152636812
 20
180.8105690159
 30
0.0
 11
-1.1013356934
 21
1.9075806837
 31
0.0
 40
0.5766540214
 41
-3.9263732102
 42
-2.3567948586
  0
ELLIPSE
  5
8AC
100
AcDbEntity
  8
7_ALL_ROUNDS
100
AcDbEllipse
 62
7
  6
CONTINUOUS
 10
423.8443843436
 20
193.1511248142
 30
0.0
 11
-0.4884084238
 21
0.9890870015
 31
0.0
 40
0.614476779
 41
-3.6690028244
 42
-2.315210738
  0
ELLIPSE
  5
8AD
100
AcDbEntity
  8
7_ALL_ROUNDS
100
AcDbEllipse
 62
7
  6
CONTINUOUS
 10
410.9749596391
 20
203.6672126311
 30
0.0
 11
-0.5501650894
 21
0.9529195655
 31
0.0
 40
0.5771809715
 41
6.6468712069
 42
6.8066288039
  0
ELLIPSE
  5
8AE
100
AcDbEntity
  8
7_ALL_ROUNDS
100
AcDbEllipse
 62
7
  6
CONTINUOUS
 10
406.5485092974
 20
250.2482506486
 30
0.0
 11
-1.1013356934
 21
1.9075806837
 31
0.0
 40
0.5766540214
 41
5.4984047506
 42
7.0679831022
  0
ELLIPSE
  5
8AF
100
AcDbEntity
  8
7_ALL_ROUNDS
100
AcDbEllipse
 62
7
  6
CONTINUOUS
 10
410.609118625
 20
203.4704898453
 30
0.0
 11
-0.602823447
 21
0.9234963844
 31
0.0
 40
0.5357413502
 41
5.4698110668
 42
6.8196820806
  0
ELLIPSE
  5
8B0
100
AcDbEntity
  8
7_ALL_ROUNDS
100
AcDbEllipse
 62
7
  6
CONTINUOUS
 10
406.5187632412
 20
249.6171876039
 30
0.0
 11
-1.1013356934
 21
1.9075806837
 31
0.0
 40
0.5766540214
 41
-0.7847805566
 42
0.784797795
  0
ELLIPSE
  5
8B1
100
AcDbEntity
  8
7_ALL_ROUNDS
100
AcDbEllipse
 62
7
  6
CONTINUOUS
 10
428.6538709294
 20
236.8377663307
 30
0.0
 11
-1.0999950406
 21
1.9052587516
 31
0.0
 40
0.5780604346
 41
-2.3555768413
 42
-0.7859984897
  0
ELLIPSE
  5
8B2
100
AcDbEntity
  8
7_ALL_ROUNDS
100
AcDbEllipse
 62
7
  6
CONTINUOUS
 10
428.6538709294
 20
181.1003399479
 30
0.0
 11
-1.1013356934
 21
1.9075806837
 31
0.0
 40
0.5766540214
 41
2.356812097
 42
3.9263904486
  0
ELLIPSE
  5
8B3
100
AcDbEntity
  8
7_ALL_ROUNDS
100
AcDbEllipse
 62
7
  6
CONTINUOUS
 10
424.1976745315
 20
193.3695902141
 30
0.0
 11
-0.5501650894
 21
0.9529195655
 31
0.0
 40
0.5771809715
 41
2.6188842095
 42
2.8038625289
  0
ELLIPSE
  5
8B4
100
AcDbEntity
  8
7_ALL_ROUNDS
100
AcDbEllipse
 62
7
  6
CONTINUOUS
 10
427.1898451103
 20
181.5647572959
 30
0.0
 11
-0.4887013639
 21
0.9870359426
 31
0.0
 40
0.615458279
 41
2.3955395667
 42
3.9663358935
  0
ELLIPSE
  5
8B5
100
AcDbEntity
  8
7_ALL_ROUNDS
100
AcDbEllipse
 62
7
  6
CONTINUOUS
 10
406.1886847968
 20
214.4365292123
 30
0.0
 11
-0.6028300873
 21
0.9215590255
 31
0.0
 40
0.5365092516
 41
-0.8152870527
 42
0.7555092741
  0
ELLIPSE
  5
8B6
100
AcDbEntity
  8
7_ALL_ROUNDS
100
AcDbEllipse
 62
7
  6
CONTINUOUS
 10
427.1898436336
 20
202.3117788031
 30
0.0
 11
-0.6028300873
 21
0.9215590255
 31
0.0
 40
0.5365092516
 41
-2.3860833795
 42
-0.8152870527
  0
ENDSEC
  0
SECTION
  2
OBJECTS
  0
DICTIONARY
  5
C
100
AcDbDictionary
280
0
281
1
  3
ACAD_GROUP
350
D
  3
ACAD_MLINESTYLE
350
17
  3
ACAD_LAYOUT
350
1A
  3
ACAD_PLOTSETTINGS
350
19
  3
ACAD_PLOTSTYLENAME
350
E
  0
DICTIONARY
  5
D
102
{ACAD_REACTORS
330
C
102
}
100
AcDbDictionary
280
0
281
1
  0
ACDBDICTIONARYWDFLT
  5
E
102
{ACAD_REACTORS
330
C
102
}
100
AcDbDictionary
281
1
  3
Normal
350
F
100
AcDbDictionaryWithDefault
340
F
  0
DICTIONARY
  5
17
102
{ACAD_REACTORS
330
C
102
}
100
AcDbDictionary
280
0
281
1
  3
Standard
350
18
  0
DICTIONARY
  5
19
102
{ACAD_REACTORS
330
C
102
}
100
AcDbDictionary
281
1
  0
DICTIONARY
  5
1A
102
{ACAD_REACTORS
330
C
102
}
100
AcDbDictionary
281
1
  3
Model
350
8B7
  3
Layout1
350
8B8
  0
ACDBPLACEHOLDER
  5
F
102
{ACAD_REACTORS
330
E
102
}
  0
MLINESTYLE
  5
18
102
{ACAD_REACTORS
330
17
102
}
100
AcDbMlineStyle
  2
STANDARD
 70
0
  3

 62
256
 51
90.0
 52
90.0
 71
2
 49
0.5
 62
256
  6
BYLAYER
 49
-0.5
 62
256
  6
BYLAYER
  0
LAYOUT
  5
8B7
102
{ACAD_REACTORS
330
1A
102
}
100
AcDbPlotSettings
  1

  2
none_device
  4

  6

 40
0.0
 41
0.0
 42
0.0
 43
0.0
 44
431.8
 45
279.4
 46
0.0
 47
0.0
 48
0.0
 49
0.0
140
0.0
141
0.0
142
1.0
143
1.0
 70
1024
 72
1
 73
0
 74
0
  7

 75
0
147
1.0
148
0.0
149
0.0
100
AcDbLayout
  1
Model
 70
0
 71
0
 10
0.0
 20
0.0
 11
431.8
 21
279.4
 12
0.0
 22
0.0
 32
0.0
 14
0.0
 24
0.0
 34
0.0
 15
0.0
 25
0.0
 35
0.0
146
0.0
 13
0.0
 23
0.0
 33
0.0
 16
1.0
 26
0.0
 36
0.0
 17
0.0
 27
1.0
 37
0.0
 76
0
330
211
345
0
346
0
  0
LAYOUT
  5
8B8
102
{ACAD_REACTORS
330
1A
102
}
100
AcDbPlotSettings
  1

  2
none_device
  4

  6

 40
0.0
 41
0.0
 42
0.0
 43
0.0
 44
431.8
 45
279.4
 46
0.0
 47
0.0
 48
0.0
 49
0.0
140
0.0
141
0.0
142
1.0
143
1.0
 70
0
 72
1
 73
0
 74
0
  7

 75
0
147
1.0
148
0.0
149
0.0
100
AcDbLayout
  1
Layout1
 70
0
 71
1
 10
0.0
 20
0.0
 11
431.8
 21
279.4
 12
0.0
 22
0.0
 32
0.0
 14
0.0
 24
0.0
 34
0.0
 15
0.0
 25
0.0
 35
0.0
146
0.0
 13
0.0
 23
0.0
 33
0.0
 16
1.0
 26
0.0
 36
0.0
 17
0.0
 27
1.0
 37
0.0
 76
0
330
212
345
0
346
0
  0
ENDSEC
  0
EOF
