  0
SECTION
  2
HEADER
  9
$ACADVER
  1
AC1015
  9
$ACADMAINTVER
 70
     6
  9
$DWGCODEPAGE
  3
ANSI_1252
  9
$INSBASE
 10
0.0
 20
0.0
 30
0.0
  9
$EXTMIN
 10
0.0
 20
0.0
 30
0.0
  9
$EXTMAX
 10
863.6
 20
558.8
 30
0.0
  9
$LIMMIN
 10
0.0
 20
0.0
  9
$LIMMAX
 10
863.6
 20
558.8
  9
$ORTHOMODE
 70
     0
  9
$REGENMODE
 70
     1
  9
$FILLMODE
 70
     1
  9
$QTEXTMODE
 70
     0
  9
$MIRRTEXT
 70
     1
  9
$LTSCALE
 40
2.0
  9
$ATTMODE
 70
     1
  9
$TEXTSIZE
 40
6.35
  9
$TRACEWID
 40
1.0
  9
$TEXTSTYLE
  7
STANDARD
  9
$CLAYER
  8
0
  9
$CELTYPE
  6
ByLayer
  9
$CECOLOR
 62
   256
  9
$CELTSCALE
 40
1.0
  9
$DISPSILH
 70
     0
  9
$DIMSCALE
 40
1.0
  9
$DIMASZ
 40
4.0
  9
$DIMEXO
 40
1.524
  9
$DIMDLI
 40
3.75
  9
$DIMRND
 40
0.0
  9
$DIMDLE
 40
0.0
  9
$DIMEXE
 40
1.524
  9
$DIMTP
 40
0.0
  9
$DIMTM
 40
0.0
  9
$DIMTXT
 40
6.35
  9
$DIMCEN
 40
2.5
  9
$DIMTSZ
 40
0.0
  9
$DIMTOL
 70
     0
  9
$DIMLIM
 70
     0
  9
$DIMTIH
 70
     1
  9
$DIMTOH
 70
     1
  9
$DIMSE1
 70
     0
  9
$DIMSE2
 70
     0
  9
$DIMTAD
 70
     0
  9
$DIMZIN
 70
     1
  9
$DIMBLK
  1

  9
$DIMASO
 70
     1
  9
$DIMSHO
 70
     1
  9
$DIMPOST
  1

  9
$DIMAPOST
  1

  9
$DIMALT
 70
     0
  9
$DIMALTD
 70
     3
  9
$DIMALTF
 40
0.0393700787
  9
$DIMLFAC
 40
1.0
  9
$DIMTOFL
 70
     1
  9
$DIMTVP
 40
0.0
  9
$DIMTIX
 70
     0
  9
$DIMSOXD
 70
     0
  9
$DIMSAH
 70
     0
  9
$DIMBLK1
  1

  9
$DIMBLK2
  1

  9
$DIMSTYLE
  2
ISO-25
  9
$DIMCLRD
 70
     0
  9
$DIMCLRE
 70
     0
  9
$DIMCLRT
 70
     0
  9
$DIMTFAC
 40
1.0
  9
$DIMGAP
 40
3.048
  9
$DIMJUST
 70
     0
  9
$DIMSD1
 70
     0
  9
$DIMSD2
 70
     0
  9
$DIMTOLJ
 70
     0
  9
$DIMTZIN
 70
     1
  9
$DIMALTZ
 70
     0
  9
$DIMALTTZ
 70
     0
  9
$DIMUPT
 70
     0
  9
$DIMDEC
 70
     1
  9
$DIMTDEC
 70
     1
  9
$DIMALTU
 70
     2
  9
$DIMALTTD
 70
     3
  9
$DIMTXSTY
  7
STANDARD
  9
$DIMAUNIT
 70
     0
  9
$DIMADEC
 70
     0
  9
$DIMALTRND
 40
0.0
  9
$DIMAZIN
 70
     0
  9
$DIMDSEP
 70
    44
  9
$DIMATFIT
 70
     3
  9
$DIMFRAC
 70
     0
  9
$DIMLDRBLK
  1

  9
$DIMLUNIT
 70
     2
  9
$DIMLWD
 70
    -2
  9
$DIMLWE
 70
    -2
  9
$DIMTMOVE
 70
     0
  9
$LUNITS
 70
     2
  9
$LUPREC
 70
     2
  9
$SKETCHINC
 40
1.0
  9
$FILLETRAD
 40
10.0
  9
$AUNITS
 70
     0
  9
$AUPREC
 70
     0
  9
$MENU
  1
.
  9
$ELEVATION
 40
0.0
  9
$PELEVATION
 40
0.0
  9
$THICKNESS
 40
0.0
  9
$LIMCHECK
 70
     0
  9
$CHAMFERA
 40
0.0
  9
$CHAMFERB
 40
0.0
  9
$CHAMFERC
 40
0.0
  9
$CHAMFERD
 40
0.0
  9
$SKPOLY
 70
     0
  9
$TDCREATE
 40
2459564.46606831
  9
$TDUCREATE
 40
2459564.799401644
  9
$TDUPDATE
 40
2459564.466071123
  9
$TDUUPDATE
 40
2459564.799404456
  9
$TDINDWG
 40
0.0000000116
  9
$TDUSRTIMER
 40
0.0000000116
  9
$USRTIMER
 70
     1
  9
$ANGBASE
 50
0.0
  9
$ANGDIR
 70
     0
  9
$PDMODE
 70
     0
  9
$PDSIZE
 40
-1.0
  9
$PLINEWID
 40
0.0
  9
$SPLFRAME
 70
     0
  9
$SPLINETYPE
 70
     6
  9
$SPLINESEGS
 70
     8
  9
$HANDSEED
  5
32A
  9
$SURFTAB1
 70
     6
  9
$SURFTAB2
 70
     6
  9
$SURFTYPE
 70
     6
  9
$SURFU
 70
     6
  9
$SURFV
 70
     6
  9
$UCSBASE
  2

  9
$UCSNAME
  2

  9
$UCSORG
 10
0.0
 20
0.0
 30
0.0
  9
$UCSXDIR
 10
1.0
 20
0.0
 30
0.0
  9
$UCSYDIR
 10
0.0
 20
1.0
 30
0.0
  9
$UCSORTHOREF
  2

  9
$UCSORTHOVIEW
 70
     0
  9
$UCSORGTOP
 10
0.0
 20
0.0
 30
0.0
  9
$UCSORGBOTTOM
 10
0.0
 20
0.0
 30
0.0
  9
$UCSORGLEFT
 10
0.0
 20
0.0
 30
0.0
  9
$UCSORGRIGHT
 10
0.0
 20
0.0
 30
0.0
  9
$UCSORGFRONT
 10
0.0
 20
0.0
 30
0.0
  9
$UCSORGBACK
 10
0.0
 20
0.0
 30
0.0
  9
$PUCSBASE
  2

  9
$PUCSNAME
  2

  9
$PUCSORG
 10
0.0
 20
0.0
 30
0.0
  9
$PUCSXDIR
 10
1.0
 20
0.0
 30
0.0
  9
$PUCSYDIR
 10
0.0
 20
1.0
 30
0.0
  9
$PUCSORTHOREF
  2

  9
$PUCSORTHOVIEW
 70
     0
  9
$PUCSORGTOP
 10
0.0
 20
0.0
 30
0.0
  9
$PUCSORGBOTTOM
 10
0.0
 20
0.0
 30
0.0
  9
$PUCSORGLEFT
 10
0.0
 20
0.0
 30
0.0
  9
$PUCSORGRIGHT
 10
0.0
 20
0.0
 30
0.0
  9
$PUCSORGFRONT
 10
0.0
 20
0.0
 30
0.0
  9
$PUCSORGBACK
 10
0.0
 20
0.0
 30
0.0
  9
$USERI1
 70
     0
  9
$USERI2
 70
     0
  9
$USERI3
 70
     0
  9
$USERI4
 70
     0
  9
$USERI5
 70
     0
  9
$USERR1
 40
0.0
  9
$USERR2
 40
0.0
  9
$USERR3
 40
0.0
  9
$USERR4
 40
0.0
  9
$USERR5
 40
0.0
  9
$WORLDVIEW
 70
     1
  9
$SHADEDGE
 70
     3
  9
$SHADEDIF
 70
    70
  9
$TILEMODE
 70
     1
  9
$MAXACTVP
 70
    64
  9
$PINSBASE
 10
0.0
 20
0.0
 30
0.0
  9
$PLIMCHECK
 70
     0
  9
$PEXTMIN
 10
1.0000000000E+20
 20
1.0000000000E+20
 30
1.0000000000E+20
  9
$PEXTMAX
 10
-1.0000000000E+20
 20
-1.0000000000E+20
 30
-1.0000000000E+20
  9
$PLIMMIN
 10
0.0
 20
0.0
  9
$PLIMMAX
 10
420.0
 20
297.0
  9
$UNITMODE
 70
     0
  9
$VISRETAIN
 70
     1
  9
$PLINEGEN
 70
     0
  9
$PSLTSCALE
 70
     1
  9
$TREEDEPTH
 70
  3020
  9
$CMLSTYLE
  2
Standard
  9
$CMLJUST
 70
     0
  9
$CMLSCALE
 40
20.0
  9
$PROXYGRAPHICS
 70
     1
  9
$MEASUREMENT
 70
     1
  9
$CELWEIGHT
370
    -1
  9
$ENDCAPS
280
     0
  9
$JOINSTYLE
280
     0
  9
$LWDISPLAY
290
     1
  9
$INSUNITS
 70
     4
  9
$HYPERLINKBASE
  1

  9
$STYLESHEET
  1

  9
$XEDIT
290
     1
  9
$CEPSNTYPE
380
     0
  9
$PSTYLEMODE
290
     1
  9
$FINGERPRINTGUID
  2
{58b3b901-6816-4eb4-8f84-b8b9e44c785f}
  9
$VERSIONGUID
  2
{FAEB1C32-E019-11D5-929B-00C0DF256EC4}
  9
$EXTNAMES
290
     1
  9
$PSVPSCALE
 40
0.0
  9
$OLESTARTUP
290
     0
  0
ENDSEC
  0
SECTION
  2
CLASSES
  0
CLASS
  1
ACDBDICTIONARYWDFLT
  2
AcDbDictionaryWithDefault
  3
ObjectDBX Classes
 90
        0
280
     0
281
     0
  0
CLASS
  1
VISUALSTYLE
  2
AcDbVisualStyle
  3
ObjectDBX Classes
 90
     4095
280
     0
281
     0
  0
CLASS
  1
MATERIAL
  2
AcDbMaterial
  3
ObjectDBX Classes
 90
     1153
280
     0
281
     0
  0
CLASS
  1
SCALE
  2
AcDbScale
  3
ObjectDBX Classes
 90
     1153
280
     0
281
     0
  0
CLASS
  1
TABLESTYLE
  2
AcDbTableStyle
  3
ObjectDBX Classes
 90
     4095
280
     0
281
     0
  0
CLASS
  1
MLEADERSTYLE
  2
AcDbMLeaderStyle
  3
ACDB_MLEADERSTYLE_CLASS
 90
     4095
280
     0
281
     0
  0
CLASS
  1
SUN
  2
AcDbSun
  3
SCENEOE
 90
     1153
280
     0
281
     0
  0
CLASS
  1
ACDBPLACEHOLDER
  2
AcDbPlaceHolder
  3
ObjectDBX Classes
 90
        0
280
     0
281
     0
  0
CLASS
  1
LAYOUT
  2
AcDbLayout
  3
ObjectDBX Classes
 90
        0
280
     0
281
     0
  0
ENDSEC
  0
SECTION
  2
TABLES
  0
TABLE
  2
VPORT
  5
8
330
0
100
AcDbSymbolTable
 70
     1
  0
VPORT
  5
29
330
8
100
AcDbSymbolTableRecord
100
AcDbViewportTableRecord
  2
*Active
 70
     0
 10
0.0
 20
0.0
 11
1.0
 21
1.0
 12
431.8
 22
279.4
 13
0.0
 23
0.0
 14
10.0
 24
10.0
 15
10.0
 25
10.0
 16
0.0
 26
0.0
 36
1.0
 17
0.0
 27
0.0
 37
0.0
 40
558.8
 41
1.5454545455
 42
50.0
 43
0.0
 44
0.0
 50
0.0
 51
0.0
 71
     0
 72
  2000
 73
     1
 74
     3
 75
     0
 76
     0
 77
     0
 78
     0
281
     0
 65
     1
110
0.0
120
0.0
130
0.0
111
1.0
121
0.0
131
0.0
112
0.0
122
1.0
132
0.0
 79
     0
146
0.0
  0
ENDTAB
  0
TABLE
  2
LTYPE
  5
5
330
0
100
AcDbSymbolTable
 70
     6
  0
LTYPE
  5
14
330
5
100
AcDbSymbolTableRecord
100
AcDbLinetypeTableRecord
  2
ByBlock
 70
     0
  3

 72
    65
 73
     0
 40
0.0
  0
LTYPE
  5
15
330
5
100
AcDbSymbolTableRecord
100
AcDbLinetypeTableRecord
  2
ByLayer
 70
     0
  3

 72
    65
 73
     0
 40
0.0
  0
LTYPE
  5
16
330
5
100
AcDbSymbolTableRecord
100
AcDbLinetypeTableRecord
  2
Continuous
 70
     0
  3
Solid line
 72
    65
 73
     0
 40
0.0
  0
LTYPE
  5
6E
330
5
100
AcDbSymbolTableRecord
100
AcDbLinetypeTableRecord
  2
HIDDEN
 70
     0
  3
Hidden __ __ __ __ __ __ __ __ __ __ __ __ __ __
 72
    65
 73
     2
 40
1.905
 49
1.27
 74
     0
 49
-0.635
 74
     0
  0
LTYPE
  5
6F
330
5
100
AcDbSymbolTableRecord
100
AcDbLinetypeTableRecord
  2
PHANTOM
 70
     0
  3
Phantom ______  __  __  ______  __  __  ______
 72
    65
 73
     6
 40
12.7
 49
6.35
 74
     0
 49
-1.27
 74
     0
 49
1.27
 74
     0
 49
-1.27
 74
     0
 49
1.27
 74
     0
 49
-1.27
 74
     0
  0
LTYPE
  5
70
330
5
100
AcDbSymbolTableRecord
100
AcDbLinetypeTableRecord
  2
CENTER
 70
     0
  3
Center ____ _ ____ _ ____ _ ____ _ ____ _ ____
 72
    65
 73
     4
 40
10.16
 49
6.35
 74
     0
 49
-1.27
 74
     0
 49
1.27
 74
     0
 49
-1.27
 74
     0
  0
LTYPE
  5
71
330
5
100
AcDbSymbolTableRecord
100
AcDbLinetypeTableRecord
  2
CENTERX2
 70
     0
  3
Center (2x) ________  __  ________  __  _____
 72
    65
 73
     4
 40
20.32
 49
12.7
 74
     0
 49
-2.54
 74
     0
 49
2.54
 74
     0
 49
-2.54
 74
     0
  0
LTYPE
  5
72
330
5
100
AcDbSymbolTableRecord
100
AcDbLinetypeTableRecord
  2
DOT2
 70
     0
  3
Dot (.5x) ........................................
 72
    65
 73
     2
 40
0.635
 49
0.0
 74
     0
 49
-0.635
 74
     0
  0
ENDTAB
  0
TABLE
  2
LAYER
  5
2
330
0
100
AcDbSymbolTable
 70
     6
  0
LAYER
  5
10
330
2
100
AcDbSymbolTableRecord
100
AcDbLayerTableRecord
  2
0
 70
     0
 62
     7
  6
Continuous
370
    -3
390
F
  0
LAYER
  5
73
330
2
100
AcDbSymbolTableRecord
100
AcDbLayerTableRecord
  2
SLD-0
 70
     0
 62
   179
  6
Continuous
370
    -3
390
F
  0
LAYER
  5
74
330
2
100
AcDbSymbolTableRecord
100
AcDbLayerTableRecord
  2
WIRE_BOND
 70
     0
 62
     6
  6
Continuous
370
   100
390
F
  0
LAYER
  5
75
330
2
100
AcDbSymbolTableRecord
100
AcDbLayerTableRecord
  2
HIGHLIGHT-BLUE
 70
     0
 62
     5
  6
Continuous
370
    70
390
F
  0
LAYER
  5
76
330
2
100
AcDbSymbolTableRecord
100
AcDbLayerTableRecord
  2
MANUAL_DIM
 70
     0
 62
   114
  6
Continuous
370
    -3
390
F
  0
LAYER
  5
77
330
2
100
AcDbSymbolTableRecord
100
AcDbLayerTableRecord
  2
TORQUE_9-10
 70
     0
 62
   155
  6
Continuous
370
    -3
390
F
  0
ENDTAB
  0
TABLE
  2
STYLE
  5
3
330
0
100
AcDbSymbolTable
 70
     5
  0
STYLE
  5
11
330
3
100
AcDbSymbolTableRecord
100
AcDbTextStyleTableRecord
  2
STANDARD
 70
     0
 40
0.0
 41
1.0
 50
0.0
 71
     0
 42
6.35
  3
GOTHIC.TTF
  4

1001
ACAD
1000
CENTURY GOTHIC
1071
       34
  0
STYLE
  5
105
330
3
100
AcDbSymbolTableRecord
100
AcDbTextStyleTableRecord
  2
SLDTEXTSTYLE0
 70
     0
 40
0.0
 41
0.913
 50
0.0
 71
     0
 42
6.35
  3
GOTHIC.TTF
  4

1001
ACAD
1000
Century Gothic
1071
      290
  0
STYLE
  5
110
330
3
100
AcDbSymbolTableRecord
100
AcDbTextStyleTableRecord
  2
SLDTEXTSTYLE1
 70
     0
 40
0.0
 41
0.9412371134
 50
0.0
 71
     0
 42
6.35
  3
GOTHIC.TTF
  4

1001
ACAD
1000
Century Gothic
1071
      290
  0
STYLE
  5
116
330
3
100
AcDbSymbolTableRecord
100
AcDbTextStyleTableRecord
  2
SLDTEXTSTYLE2
 70
     0
 40
0.0
 41
0.9412371134
 50
0.0
 71
     0
 42
6.35
  3
GOTHIC.TTF
  4
bigfont
1001
ACAD
1000
Century Gothic
1071
      290
  0
STYLE
  5
11C
330
3
100
AcDbSymbolTableRecord
100
AcDbTextStyleTableRecord
  2
SLDTEXTSTYLE3
 70
     0
 40
0.0
 41
0.948
 50
0.0
 71
     0
 42
6.35
  3
ARIAL.TTF
  4

1001
ACAD
1000
Arial
1071
      290
  0
ENDTAB
  0
TABLE
  2
VIEW
  5
6
330
0
100
AcDbSymbolTable
 70
     0
  0
ENDTAB
  0
TABLE
  2
UCS
  5
7
330
0
100
AcDbSymbolTable
 70
     0
  0
ENDTAB
  0
TABLE
  2
APPID
  5
9
330
0
100
AcDbSymbolTable
 70
     1
  0
APPID
  5
12
330
9
100
AcDbSymbolTableRecord
100
AcDbRegAppTableRecord
  2
ACAD
 70
     0
  0
ENDTAB
  0
TABLE
  2
DIMSTYLE
  5
A
330
0
100
AcDbSymbolTable
 70
     3
100
AcDbDimStyleTable
  0
DIMSTYLE
105
27
330
A
100
AcDbSymbolTableRecord
100
AcDbDimStyleTableRecord
  2
ISO-25
 70
     0
 41
2.5
 42
0.625
 43
3.75
 44
1.25
 73
     0
 74
     0
 77
     1
 78
     8
140
2.5
141
2.5
143
0.0393700787
147
0.625
171
     3
172
     1
178
     0
271
     2
272
     2
274
     3
278
    44
283
     0
284
     8
340
11
  0
DIMSTYLE
105
1D6
102
{ACAD_REACTORS
330
1D5
330
1EA
330
1FE
330
249
102
}
330
A
100
AcDbSymbolTableRecord
100
AcDbDimStyleTableRecord
  2
SLDDIMSTYLE0
 70
     0
 41
4.0
 44
0.0
 45
0.000000001
 78
    12
 79
     3
140
4.7625
143
0.0393700787
147
1.190625
148
0.000000001
170
     1
173
     1
178
     0
271
     1
272
     1
276
     2
284
    12
340
105
  0
DIMSTYLE
105
23F
102
{ACAD_REACTORS
330
23E
102
}
330
A
100
AcDbSymbolTableRecord
100
AcDbDimStyleTableRecord
  2
SLDDIMSTYLE1
 70
     0
 41
4.0
 44
0.0
 78
    12
 79
     3
140
4.7625
143
0.0393700787
144
2.0
147
1.190625
148
0.000000001
170
     1
171
     3
173
     1
178
     0
272
     1
276
     2
284
    12
340
105
  0
ENDTAB
  0
TABLE
  2
BLOCK_RECORD
  5
1
330
0
100
AcDbSymbolTable
 70
    14
  0
BLOCK_RECORD
  5
1F
330
1
100
AcDbSymbolTableRecord
100
AcDbBlockTableRecord
  2
*Model_Space
340
22
  0
BLOCK_RECORD
  5
1B
330
1
100
AcDbSymbolTableRecord
100
AcDbBlockTableRecord
  2
*Paper_Space
340
1E
  0
BLOCK_RECORD
  5
23
330
1
100
AcDbSymbolTableRecord
100
AcDbBlockTableRecord
  2
*Paper_Space0
340
26
  0
BLOCK_RECORD
  5
78
330
1
100
AcDbSymbolTableRecord
100
AcDbBlockTableRecord
  2
QSC Logo
340
0
102
{BLKREFS
331
101
102
}
  0
BLOCK_RECORD
  5
102
330
1
100
AcDbSymbolTableRecord
100
AcDbBlockTableRecord
  2
SW_NOTE_0
340
0
102
{BLKREFS
331
10B
102
}
  0
BLOCK_RECORD
  5
10D
330
1
100
AcDbSymbolTableRecord
100
AcDbBlockTableRecord
  2
SW_NOTE_0_1
340
0
102
{BLKREFS
331
118
102
}
  0
BLOCK_RECORD
  5
11E
330
1
100
AcDbSymbolTableRecord
100
AcDbBlockTableRecord
  2
SW_NOTE_0_2
340
0
102
{BLKREFS
331
123
102
}
  0
BLOCK_RECORD
  5
141
330
1
100
AcDbSymbolTableRecord
100
AcDbBlockTableRecord
  2
SW_NOTE_0_3
340
0
102
{BLKREFS
331
147
102
}
  0
BLOCK_RECORD
  5
148
330
1
100
AcDbSymbolTableRecord
100
AcDbBlockTableRecord
  2
SW_NOTE_0_4
340
0
102
{BLKREFS
331
150
102
}
  0
BLOCK_RECORD
  5
152
330
1
100
AcDbSymbolTableRecord
100
AcDbBlockTableRecord
  2
SW_NOTE_0_5
340
0
102
{BLKREFS
331
158
102
}
  0
BLOCK_RECORD
  5
175
330
1
100
AcDbSymbolTableRecord
100
AcDbBlockTableRecord
  2
SW_TABLEANNOTATION_0
340
0
102
{BLKREFS
331
19D
102
}
  0
BLOCK_RECORD
  5
1D7
330
1
100
AcDbSymbolTableRecord
100
AcDbBlockTableRecord
  2
_D
340
0
  0
BLOCK_RECORD
  5
1EB
330
1
100
AcDbSymbolTableRecord
100
AcDbBlockTableRecord
  2
_D_1
340
0
  0
BLOCK_RECORD
  5
1FF
330
1
100
AcDbSymbolTableRecord
100
AcDbBlockTableRecord
  2
_D_2
340
0
  0
BLOCK_RECORD
  5
240
330
1
100
AcDbSymbolTableRecord
100
AcDbBlockTableRecord
  2
_D_3
340
0
  0
BLOCK_RECORD
  5
24A
330
1
100
AcDbSymbolTableRecord
100
AcDbBlockTableRecord
  2
_D_4
340
0
  0
ENDTAB
  0
ENDSEC
  0
SECTION
  2
BLOCKS
  0
BLOCK
  5
20
330
1F
100
AcDbEntity
  8
0
100
AcDbBlockBegin
  2
*Model_Space
 70
     0
 10
0.0
 20
0.0
 30
0.0
  3
*Model_Space
  1

  0
ENDBLK
  5
21
330
1F
100
AcDbEntity
  8
0
100
AcDbBlockEnd
  0
BLOCK
  5
1C
330
1B
100
AcDbEntity
 67
     1
  8
0
100
AcDbBlockBegin
  2
*Paper_Space
 70
     0
 10
0.0
 20
0.0
 30
0.0
  3
*Paper_Space
  1

  0
ENDBLK
  5
1D
330
1B
100
AcDbEntity
 67
     1
  8
0
100
AcDbBlockEnd
  0
BLOCK
  5
24
330
23
100
AcDbEntity
  8
0
100
AcDbBlockBegin
  2
*Paper_Space0
 70
     0
 10
0.0
 20
0.0
 30
0.0
  3
*Paper_Space0
  1

  0
ENDBLK
  5
25
330
23
100
AcDbEntity
  8
0
100
AcDbBlockEnd
  0
BLOCK
  5
79
330
78
100
AcDbEntity
  8
0
100
AcDbBlockBegin
  2
QSC Logo
 70
     0
 10
0.0
 20
0.0
 30
0.0
  3
QSC Logo
  1

  0
ARC
  5
7B
330
78
100
AcDbEntity
  8
SLD-0
  6
Continuous
370
    25
100
AcDbCircle
 10
60.1992795138
 20
10.8757345045
 30
0.0
 40
0.565625588076033
100
AcDbArc
 50
270.0
 51
0.0
  0
ARC
  5
7C
330
78
100
AcDbEntity
  8
SLD-0
  6
Continuous
370
    25
100
AcDbCircle
 10
60.1992795161
 20
12.0073744142
 30
0.0
 40
0.5656255857900288
100
AcDbArc
 50
0.000000539
 51
89.9999999245
  0
ARC
  5
7D
330
78
100
AcDbEntity
  8
SLD-0
  6
Continuous
370
    25
100
AcDbCircle
 10
60.1992795169
 20
1.857339148
 30
0.0
 40
0.5656255850413672
100
AcDbArc
 50
270.1250535673
 51
0.0
  0
ARC
  5
7E
330
78
100
AcDbEntity
  8
SLD-0
  6
Continuous
370
    25
100
AcDbCircle
 10
60.1992795161
 20
2.99686688
 30
0.0
 40
0.5656255857900412
100
AcDbArc
 50
0.0
 51
90.0
  0
ARC
  5
7F
330
78
100
AcDbEntity
  8
SLD-0
  6
Continuous
370
    25
100
AcDbCircle
 10
47.1655159553
 20
9.7444833261
 30
0.0
 40
0.565625590361968
100
AcDbArc
 50
90.0
 51
180.0
  0
ARC
  5
80
330
78
100
AcDbEntity
  8
SLD-0
  6
Continuous
370
    25
100
AcDbCircle
 10
34.7887755437
 20
5.2340677561
 30
0.0
 40
0.5656255880763794
100
AcDbArc
 50
0.0
 51
89.9999995368
  0
ARC
  5
81
330
78
100
AcDbEntity
  8
SLD-0
  6
Continuous
370
    25
100
AcDbCircle
 10
22.1252435498
 20
2.9478675597
 30
0.0
 40
0.5656255880759771
100
AcDbArc
 50
90.0
 51
180.0
  0
ARC
  5
82
330
78
100
AcDbEntity
  8
SLD-0
  6
Continuous
370
    25
100
AcDbCircle
 10
22.1252435498
 20
1.8762124218
 30
0.0
 40
0.5656255880760186
100
AcDbArc
 50
180.0
 51
270.0
  0
ARC
  5
83
330
78
100
AcDbEntity
  8
SLD-0
  6
Continuous
370
    25
100
AcDbCircle
 10
27.1275598492
 20
9.7219160751
 30
0.0
 40
0.565625585790027
100
AcDbArc
 50
90.0
 51
180.0
  0
ARC
  5
84
330
78
100
AcDbEntity
  8
SLD-0
  6
Continuous
370
    25
100
AcDbCircle
 10
39.808280732
 20
10.8531672489
 30
0.0
 40
0.5656255880761591
100
AcDbArc
 50
270.0
 51
0.0
  0
ARC
  5
85
330
78
100
AcDbEntity
  8
SLD-0
  6
Continuous
370
    25
100
AcDbCircle
 10
39.808280732
 20
12.0073744096
 30
0.0
 40
0.5656255880761591
100
AcDbArc
 50
359.9999995369
 51
90.0
  0
ARC
  5
86
330
78
100
AcDbEntity
  8
SLD-0
  6
Continuous
370
    25
100
AcDbCircle
 10
12.0321031895
 20
0.217548301
 30
0.0
 40
0.2175483009960733
100
AcDbArc
 50
180.0
 51
270.0
  0
ARC
  5
87
330
78
100
AcDbEntity
  8
SLD-0
  6
Continuous
370
    25
100
AcDbCircle
 10
15.4195515276
 20
0.217548301
 30
0.0
 40
0.2175483009960455
100
AcDbArc
 50
270.0
 51
0.0
  0
ARC
  5
88
330
78
100
AcDbEntity
  8
SLD-0
  6
Continuous
370
    25
100
AcDbCircle
 10
5.2684984251
 20
4.2067791851
 30
0.0
 40
0.5656255880762124
100
AcDbArc
 50
180.0
 51
270.0
  0
ARC
  5
89
330
78
100
AcDbEntity
  8
SLD-0
  6
Continuous
370
    25
100
AcDbCircle
 10
11.9826252409
 20
4.7308054208
 30
0.0
 40
0.2175483032820367
100
AcDbArc
 50
90.0000000001
 51
180.0
  0
ARC
  5
8A
330
78
100
AcDbEntity
  8
SLD-0
  6
Continuous
370
    25
100
AcDbCircle
 10
15.35281037
 20
4.7308054276
 30
0.0
 40
0.2175482964241411
100
AcDbArc
 50
360.0
 51
89.9999987958
  0
ARC
  5
8B
330
78
100
AcDbEntity
  8
SLD-0
  6
Continuous
370
    25
100
AcDbCircle
 10
16.5694959544
 20
4.2067791942
 30
0.0
 40
0.5656255857899861
100
AcDbArc
 50
270.0
 51
0.0
  0
ARC
  5
8C
330
78
100
AcDbEntity
  8
SLD-0
  6
Continuous
370
    25
100
AcDbCircle
 10
5.2684984274
 20
9.8469354674
 30
0.0
 40
0.5656255903621616
100
AcDbArc
 50
90.0
 51
180.0
  0
ARC
  5
8D
330
78
100
AcDbEntity
  8
SLD-0
  6
Continuous
370
    25
100
AcDbCircle
 10
16.5694959544
 20
9.846935472
 30
0.0
 40
0.5656255857899861
100
AcDbArc
 50
0.0000004631
 51
90.0000004631
  0
ARC
  5
8E
330
78
100
AcDbEntity
  8
SLD-0
  6
Continuous
370
    25
100
AcDbCircle
 10
27.1275598515
 20
8.6516957222
 30
0.0
 40
0.5656255880759762
100
AcDbArc
 50
180.0
 51
270.0
  0
ARC
  5
8F
330
78
100
AcDbEntity
  8
SLD-0
  6
Continuous
370
    25
100
AcDbCircle
 10
34.788775546
 20
4.0791187335
 30
0.0
 40
0.5656255857899879
100
AcDbArc
 50
270.0
 51
0.0
  0
ARC
  5
90
330
78
100
AcDbEntity
  8
SLD-0
  6
Continuous
370
    25
100
AcDbCircle
 10
47.165515953
 20
4.1281180539
 30
0.0
 40
0.5656255880759771
100
AcDbArc
 50
180.0
 51
270.0
  0
LINE
  5
91
330
78
100
AcDbEntity
  8
SLD-0
  6
Continuous
370
    25
100
AcDbLine
 10
60.7649051019
 20
10.8757345045
 30
0.0
 11
60.7649051019
 21
12.0073744195
 31
0.0
  0
LINE
  5
92
330
78
100
AcDbEntity
  8
SLD-0
  6
Continuous
370
    25
100
AcDbLine
 10
60.1992795169
 20
12.573
 30
0.0
 11
44.9931123687
 21
12.573
 31
0.0
  0
LINE
  5
93
330
78
100
AcDbEntity
  8
SLD-0
  6
Continuous
370
    25
100
AcDbLine
 10
41.7982576378
 20
6.9614311124
 30
0.0
 11
41.7992503698
 21
6.8753664631
 31
0.0
  0
LINE
  5
94
330
78
100
AcDbEntity
  8
SLD-0
  6
Continuous
370
    25
100
AcDbLine
 10
44.9931123687
 20
1.3105925442
 30
0.0
 11
60.2005140483
 21
1.2917149102
 31
0.0
  0
LINE
  5
95
330
78
100
AcDbEntity
  8
SLD-0
  6
Continuous
370
    25
100
AcDbLine
 10
60.7649051019
 20
1.857339148
 30
0.0
 11
60.7649051019
 21
2.99686688
 31
0.0
  0
LINE
  5
96
330
78
100
AcDbEntity
  8
SLD-0
  6
Continuous
370
    25
100
AcDbLine
 10
60.1992795161
 20
3.5624924658
 30
0.0
 11
47.165515953
 21
3.5624924658
 31
0.0
  0
LINE
  5
97
330
78
100
AcDbEntity
  8
SLD-0
  6
Continuous
370
    25
100
AcDbLine
 10
46.5998903649
 20
4.1281180539
 30
0.0
 11
46.5998903649
 21
9.7444833261
 31
0.0
  0
LINE
  5
98
330
78
100
AcDbEntity
  8
SLD-0
  6
Continuous
370
    25
100
AcDbLine
 10
47.1655159553
 20
10.3101089164
 30
0.0
 11
60.1992795138
 21
10.3101089164
 31
0.0
  0
LINE
  5
99
330
78
100
AcDbEntity
  8
SLD-0
  6
Continuous
370
    25
100
AcDbLine
 10
23.9251579121
 20
5.7996933442
 30
0.0
 11
34.7887755483
 21
5.7996933442
 31
0.0
  0
LINE
  5
9A
330
78
100
AcDbEntity
  8
SLD-0
  6
Continuous
370
    25
100
AcDbLine
 10
35.3544011318
 20
5.2340677561
 30
0.0
 11
35.3544011318
 21
4.0791187335
 31
0.0
  0
LINE
  5
9B
330
78
100
AcDbEntity
  8
SLD-0
  6
Continuous
370
    25
100
AcDbLine
 10
34.788775546
 20
3.5134931478
 30
0.0
 11
22.1252435498
 21
3.5134931478
 31
0.0
  0
LINE
  5
9C
330
78
100
AcDbEntity
  8
SLD-0
  6
Continuous
370
    25
100
AcDbLine
 10
21.5596179617
 20
2.9478675597
 30
0.0
 11
21.5596179617
 21
1.8762124218
 31
0.0
  0
LINE
  5
9D
330
78
100
AcDbEntity
  8
SLD-0
  6
Continuous
370
    25
100
AcDbLine
 10
22.1252435498
 20
1.3105868337
 30
0.0
 11
37.846372651
 21
1.3105868337
 31
0.0
  0
LINE
  5
9E
330
78
100
AcDbEntity
  8
SLD-0
  6
Continuous
370
    25
100
AcDbLine
 10
37.846372651
 20
8.0860701342
 30
0.0
 11
27.1275598515
 21
8.0860701342
 31
0.0
  0
LINE
  5
9F
330
78
100
AcDbEntity
  8
SLD-0
  6
Continuous
370
    25
100
AcDbLine
 10
26.5619342634
 20
8.6516957222
 30
0.0
 11
26.5619342634
 21
9.7219160751
 31
0.0
  0
LINE
  5
A0
330
78
100
AcDbEntity
  8
SLD-0
  6
Continuous
370
    25
100
AcDbLine
 10
27.1275598492
 20
10.2875416608
 30
0.0
 11
39.808280732
 21
10.2875416608
 31
0.0
  0
LINE
  5
A1
330
78
100
AcDbEntity
  8
SLD-0
  6
Continuous
370
    25
100
AcDbLine
 10
40.3739063201
 20
10.8531672489
 30
0.0
 11
40.3739063201
 21
12.0073744051
 31
0.0
  0
LINE
  5
A2
330
78
100
AcDbEntity
  8
SLD-0
  6
Continuous
370
    25
100
AcDbLine
 10
39.808280732
 20
12.5729999977
 30
0.0
 11
23.9251579121
 21
12.5729999977
 31
0.0
  0
LINE
  5
A3
330
78
100
AcDbEntity
  8
SLD-0
  6
Continuous
370
    25
100
AcDbLine
 10
3.0259137302
 20
1.3105868383
 30
0.0
 11
11.8145548885
 21
1.3105868383
 31
0.0
  0
LINE
  5
A4
330
78
100
AcDbEntity
  8
SLD-0
  6
Continuous
370
    25
100
AcDbLine
 10
11.8145548885
 20
1.3105868383
 30
0.0
 11
11.8145548885
 21
0.217548301
 31
0.0
  0
LINE
  5
A5
330
78
100
AcDbEntity
  8
SLD-0
  6
Continuous
370
    25
100
AcDbLine
 10
12.0321031895
 20
0.0
 30
0.0
 11
15.4195515276
 21
0.0
 31
0.0
  0
LINE
  5
A6
330
78
100
AcDbEntity
  8
SLD-0
  6
Continuous
370
    25
100
AcDbLine
 10
15.6370998286
 20
0.217548301
 30
0.0
 11
15.6370998286
 21
1.3105868383
 31
0.0
  0
LINE
  5
A7
330
78
100
AcDbEntity
  8
SLD-0
  6
Continuous
370
    25
100
AcDbLine
 10
15.6370998286
 20
1.3105868383
 30
0.0
 11
17.3652756133
 21
1.3105868383
 31
0.0
  0
LINE
  5
A8
330
78
100
AcDbEntity
  8
SLD-0
  6
Continuous
370
    25
100
AcDbLine
 10
20.0316643354
 20
3.4154941383
 30
0.0
 11
20.0316643354
 21
10.4548832319
 31
0.0
  0
LINE
  5
A9
330
78
100
AcDbEntity
  8
SLD-0
  6
Continuous
370
    25
100
AcDbLine
 10
17.3652756133
 20
12.5597905365
 30
0.0
 11
3.0259137302
 21
12.5597905365
 31
0.0
  0
LINE
  5
AA
330
78
100
AcDbEntity
  8
SLD-0
  6
Continuous
370
    25
100
AcDbLine
 10
17.1351215402
 20
4.2067791942
 30
0.0
 11
17.1351215402
 21
9.8469354765
 31
0.0
  0
LINE
  5
AB
330
78
100
AcDbEntity
  8
SLD-0
  6
Continuous
370
    25
100
AcDbLine
 10
5.2684984251
 20
3.641153597
 30
0.0
 11
11.7650769377
 21
3.641153597
 31
0.0
  0
LINE
  5
AC
330
78
100
AcDbEntity
  8
SLD-0
  6
Continuous
370
    25
100
AcDbLine
 10
11.7650769377
 20
3.641153597
 30
0.0
 11
11.7650769377
 21
4.7308054208
 31
0.0
  0
LINE
  5
AD
330
78
100
AcDbEntity
  8
SLD-0
  6
Continuous
370
    25
100
AcDbLine
 10
11.9826252409
 20
4.948353724
 30
0.0
 11
15.3528103746
 21
4.948353724
 31
0.0
  0
LINE
  5
AE
330
78
100
AcDbEntity
  8
SLD-0
  6
Continuous
370
    25
100
AcDbLine
 10
15.5703586664
 20
3.6411536085
 30
0.0
 11
16.5694959544
 21
3.6411536085
 31
0.0
  0
LINE
  5
AF
330
78
100
AcDbEntity
  8
SLD-0
  6
Continuous
370
    25
100
AcDbLine
 10
15.5703586664
 20
3.6411536085
 30
0.0
 11
15.5703586664
 21
4.7308054276
 31
0.0
  0
LINE
  5
B0
330
78
100
AcDbEntity
  8
SLD-0
  6
Continuous
370
    25
100
AcDbLine
 10
4.7028728371
 20
4.2067791851
 30
0.0
 11
4.7028728371
 21
9.8469354674
 31
0.0
  0
LINE
  5
B1
330
78
100
AcDbEntity
  8
SLD-0
  6
Continuous
370
    25
100
AcDbLine
 10
5.2684984274
 20
10.4125610577
 30
0.0
 11
16.5694959498
 21
10.4125610577
 31
0.0
  0
SPLINE
  5
B2
330
78
100
AcDbEntity
  8
SLD-0
  6
Continuous
370
    25
100
AcDbSpline
210
0.0
220
0.0
230
1.0
 70
     8
 71
     3
 72
    13
 73
     9
 74
     0
 42
0.00000001
 43
0.00000001
 40
0.0
 40
0.0
 40
0.0
 40
0.0
 40
0.1310616762
 40
0.2699656353
 40
0.4157607805
 40
0.5899807757
 40
0.76586761
 40
0.9948829976
 40
0.9948829976
 40
0.9948829976
 40
0.9948829976
 10
44.99311236868792
 20
12.57299999999997
 30
0.0
 10
44.67346489317598
 20
12.54919244385597
 30
0.0
 10
44.01504335048406
 20
12.500152774092
 30
0.0
 10
43.12275103245616
 20
11.94723759747601
 30
0.0
 10
42.48219163082384
 20
11.01899259392404
 30
0.0
 10
42.065666812872
 20
9.883953287171995
 30
0.0
 10
41.83105460086806
 20
8.496463401756
 30
0.0
 10
41.80945316274004
 20
7.516038683411982
 30
0.0
 10
41.79825763775996
 20
6.961431112415998
 30
0.0
  0
SPLINE
  5
B3
330
78
100
AcDbEntity
  8
SLD-0
  6
Continuous
370
    25
100
AcDbSpline
210
0.0
220
0.0
230
1.0
 70
     8
 71
     3
 72
    13
 73
     9
 74
     0
 42
0.00000001
 43
0.00000001
 40
0.0
 40
0.0
 40
0.0
 40
0.0
 40
0.2222860645
 40
0.3981728988
 40
0.572392894
 40
0.7181880393
 40
0.8570919984
 40
0.9881536746
 40
0.9881536746
 40
0.9881536746
 40
0.9881536746
 10
41.79925036983584
 20
6.875366463107991
 30
0.0
 10
41.81022525009598
 20
6.337062442944019
 30
0.0
 10
41.83377594213616
 20
5.373111111516005
 30
0.0
 10
42.06566662084826
 20
4.001704744860016
 30
0.0
 10
42.48219642685186
 20
2.866792384260047
 30
0.0
 10
43.12273584884402
 20
1.938153438900053
 30
0.0
 10
44.01509626681205
 20
1.386559958904049
 30
0.0
 10
44.673357286584
 20
1.334408105879981
 30
0.0
 10
44.99311236868792
 20
1.310592544163991
 30
0.0
  0
SPLINE
  5
B4
330
78
100
AcDbEntity
  8
SLD-0
  6
Continuous
370
    25
100
AcDbSpline
210
0.0
220
0.0
230
1.0
 70
     8
 71
     3
 72
    13
 73
     9
 74
     0
 42
0.00000001
 43
0.00000001
 40
0.0
 40
0.0
 40
0.0
 40
0.0
 40
0.1604571392
 40
0.3334692485
 40
0.4767982758
 40
0.6242014838
 40
0.7505998515
 40
1.0
 40
1.0
 40
1.0
 40
1.0
 10
37.84637265102003
 20
1.310586833736069
 30
0.0
 10
38.111432851404
 20
1.323349009380026
 30
0.0
 10
38.66229287744388
 20
1.349871922044041
 30
0.0
 10
39.40304357628016
 20
1.671471906732017
 30
0.0
 10
39.96122363492422
 20
2.212054639128047
 30
0.0
 10
40.27578005127624
 20
2.831811856812
 30
0.0
 10
40.51694576350801
 20
3.663222513012002
 30
0.0
 10
40.52673227581188
 20
4.285410804828055
 30
0.0
 10
40.53322713099633
 20
4.698328483943998
 30
0.0
  0
SPLINE
  5
B5
330
78
100
AcDbEntity
  8
SLD-0
  6
Continuous
370
    25
100
AcDbSpline
210
0.0
220
0.0
230
1.0
 70
     8
 71
     3
 72
    13
 73
     9
 74
     0
 42
0.00000001
 43
0.00000001
 40
0.0
 40
0.0
 40
0.0
 40
0.0
 40
0.2494001485
 40
0.3757985162
 40
0.5232017242
 40
0.6665307515
 40
0.8395428608
 40
1.0
 40
1.0
 40
1.0
 40
1.0
 10
40.53322713099633
 20
4.698328483943998
 30
0.0
 10
40.52673227581188
 20
5.111246167632019
 30
0.0
 10
40.51694576350801
 20
5.733434454875994
 30
0.0
 10
40.27578005127624
 20
6.564845120219973
 30
0.0
 10
39.96122363492422
 20
7.184602337903994
 30
0.0
 10
39.40304357628016
 20
7.725185061155979
 30
0.0
 10
38.66229287744388
 20
8.04678504584401
 30
0.0
 10
38.111432851404
 20
8.073307967652003
 30
0.0
 10
37.84637265102003
 20
8.086070134152024
 30
0.0
  0
SPLINE
  5
B6
330
78
100
AcDbEntity
  8
SLD-0
  6
Continuous
370
    25
100
AcDbSpline
210
0.0
220
0.0
230
1.0
 70
     8
 71
     3
 72
    13
 73
     9
 74
     0
 42
0.00000001
 43
0.00000001
 40
0.0
 40
0.0
 40
0.0
 40
0.0
 40
0.1133740464
 40
0.2392044088
 40
0.3655787964
 40
0.4912154373
 40
0.7445390876
 40
1.0
 40
1.0
 40
1.0
 40
1.0
 10
23.92515791209809
 20
12.57299999771398
 30
0.0
 10
23.74371232680589
 20
12.564062953866
 30
0.0
 10
23.36088587833812
 20
12.54520695601803
 30
0.0
 10
22.79223505729805
 20
12.37531107940203
 30
0.0
 10
22.28352147833418
 20
12.03223838581805
 30
0.0
 10
21.76386602437802
 20
11.40028540385406
 30
0.0
 10
21.43686584932197
 20
10.40820330166212
 30
0.0
 10
21.40140262840212
 20
9.594771217074124
 30
0.0
 10
21.38359654463401
 20
9.186346670958107
 30
0.0
  0
SPLINE
  5
B7
330
78
100
AcDbEntity
  8
SLD-0
  6
Continuous
370
    25
100
AcDbSpline
210
0.0
220
0.0
230
1.0
 70
     8
 71
     3
 72
    13
 73
     9
 74
     0
 42
0.00000001
 43
0.00000001
 40
0.0
 40
0.0
 40
0.0
 40
0.0
 40
0.2554609124
 40
0.5087845627
 40
0.6344212036
 40
0.7607955912
 40
0.8866259536
 40
1.0
 40
1.0
 40
1.0
 40
1.0
 10
21.38359654463401
 20
9.186346670958107
 30
0.0
 10
21.40140262840212
 20
8.777922120270093
 30
0.0
 10
21.43686584932197
 20
7.964490031110036
 30
0.0
 10
21.76386602437791
 20
6.972407933490049
 30
0.0
 10
22.28352147833418
 20
6.340454951526089
 30
0.0
 10
22.79223505729805
 20
5.99738226251409
 30
0.0
 10
23.36088587833812
 20
5.827486381326144
 30
0.0
 10
23.74371232680589
 20
5.808630383478161
 30
0.0
 10
23.92515791209809
 20
5.799693344202134
 30
0.0
  0
SPLINE
  5
B8
330
78
100
AcDbEntity
  8
SLD-0
  6
Continuous
370
    25
100
AcDbSpline
210
0.0
220
0.0
230
1.0
 70
     8
 71
     3
 72
    12
 73
     8
 74
     0
 42
0.00000001
 43
0.00000001
 40
0.0
 40
0.0
 40
0.0
 40
0.0
 40
0.2415790084
 40
0.4893269843
 40
0.7378634303
 40
0.8656387112
 40
1.0
 40
1.0
 40
1.0
 40
1.0
 10
17.36527561329587
 20
1.310586838308064
 30
0.0
 10
17.67515455360796
 20
1.32022062295202
 30
0.0
 10
18.30282552838786
 20
1.339734211560001
 30
0.0
 10
19.22135649955209
 20
1.667306782728029
 30
0.0
 10
19.77919844050796
 20
2.285677111644041
 30
0.0
 10
20.02496508435619
 20
2.903543459855995
 30
0.0
 10
20.02939415906419
 20
3.242009337660015
 30
0.0
 10
20.03166433537234
 20
3.415494138264058
 30
0.0
  0
SPLINE
  5
B9
330
78
100
AcDbEntity
  8
SLD-0
  6
Continuous
370
    25
100
AcDbSpline
210
0.0
220
0.0
230
1.0
 70
     8
 71
     3
 72
    12
 73
     8
 74
     0
 42
0.00000001
 43
0.00000001
 40
0.0
 40
0.0
 40
0.0
 40
0.0
 40
0.1343612888
 40
0.2621365697
 40
0.5106730157
 40
0.7584209916
 40
1.0
 40
1.0
 40
1.0
 40
1.0
 10
20.03166433537234
 20
10.45488323192401
 30
0.0
 10
20.02939415906419
 20
10.62836804167197
 30
0.0
 10
20.02496508435619
 20
10.966833919476
 30
0.0
 10
19.77919844050796
 20
11.58470026768804
 30
0.0
 10
19.22135649955209
 20
12.203070596604
 30
0.0
 10
18.30282552838786
 20
12.5306431632
 30
0.0
 10
17.67515455360796
 20
12.55015674723599
 30
0.0
 10
17.36527561329587
 20
12.55979053645198
 30
0.0
  0
SPLINE
  5
BA
330
78
100
AcDbEntity
  8
SLD-0
  6
Continuous
370
    25
100
AcDbSpline
210
0.0
220
0.0
230
1.0
 70
     8
 71
     3
 72
    12
 73
     8
 74
     0
 42
0.00000001
 43
0.00000001
 40
0.0
 40
0.0
 40
0.0
 40
0.0
 40
0.1341799809
 40
0.290831959
 40
0.5815217441
 40
0.760783857
 40
1.0
 40
1.0
 40
1.0
 40
1.0
 10
3.02591373022798
 20
12.55979053645198
 30
0.0
 10
2.713146790103982
 20
12.50633569543196
 30
0.0
 10
2.035231793891812
 20
12.39047358019199
 30
0.0
 10
0.8940706934400522
 20
11.53791477223201
 30
0.0
 10
0.3535588864800321
 20
10.10357019413996
 30
0.0
 10
0.0373102586279095
 20
8.477608423463984
 30
0.0
 10
0.0135704640958911
 20
7.494152629139994
 30
0.0
 10
0.0
 20
6.931976464188041
 30
0.0
  0
SPLINE
  5
BB
330
78
100
AcDbEntity
  8
SLD-0
  6
Continuous
370
    25
100
AcDbSpline
210
0.0
220
0.0
230
1.0
 70
     8
 71
     3
 72
    12
 73
     8
 74
     0
 42
0.00000001
 43
0.00000001
 40
0.0
 40
0.0
 40
0.0
 40
0.0
 40
0.2392679579
 40
0.4185688994
 40
0.7093216488
 40
0.8660075581
 40
1.0
 40
1.0
 40
1.0
 40
1.0
 10
0.0
 20
6.931976464188041
 30
0.0
 10
0.0135758864880375
 20
6.369822208260004
 30
0.0
 10
0.0373251542040709
 20
5.386404745583995
 30
0.0
 10
0.353505540384047
 20
3.760167054707997
 30
0.0
 10
0.8943475920479838
 20
2.327157829800044
 30
0.0
 10
2.034320580575899
 20
1.471830593544013
 30
0.0
 10
2.713045524875946
 20
1.361462586696033
 30
0.0
 10
3.02591373022798
 20
1.310586838308064
 30
0.0
  0
ENDBLK
  5
7A
330
78
100
AcDbEntity
  8
0
100
AcDbBlockEnd
  0
BLOCK
  5
103
330
102
100
AcDbEntity
  8
0
100
AcDbBlockBegin
  2
SW_NOTE_0
 70
     0
 10
0.0
 20
0.0
 30
0.0
  3
SW_NOTE_0
  1

  0
MTEXT
  5
106
330
102
100
AcDbEntity
  8
0
  6
Continuous
 62
     0
370
     0
100
AcDbMText
 10
0.0
 20
6.0833496094
 30
0.0
 40
4.7625
 41
0.0
 71
     1
 72
     1
  1
NET WEIGHT APPROXIMATELY 0.50 KG [1.1 LBS] (1.03 KG [2.3 LBS] WITH 7" TOUCHSCREEN CONTROLER, 
  7
SLDTEXTSTYLE0
 73
     1
 44
1.0
  0
MTEXT
  5
107
330
102
100
AcDbEntity
  8
0
  6
Continuous
 62
     0
370
     0
100
AcDbMText
 10
-19.999999553
 20
6.0833496094
 30
0.0
 40
4.7625
 41
0.0
 71
     1
 72
     1
  1
1.
  7
SLDTEXTSTYLE0
 73
     1
 44
1.0
  0
MTEXT
  5
108
330
102
100
AcDbEntity
  8
0
  6
Continuous
 62
     0
370
     0
100
AcDbMText
 10
0.0
 20
-2.266650176
 30
0.0
 40
4.7625
 41
0.0
 71
     1
 72
     1
  1
1.37 KG [3.0 LBS] WITH 10" TOUCHSCREEN CONTROLER).
  7
SLDTEXTSTYLE0
 73
     1
 44
1.0
  0
MTEXT
  5
109
330
102
100
AcDbEntity
  8
0
  6
Continuous
 62
     0
370
     0
100
AcDbMText
 10
0.0
 20
-10.6166499615
 30
0.0
 40
4.7625
 41
0.0
 71
     1
 72
     1
  1
PARTS ARE SYMMETRICAL ABOUT CENTER LINES UNLESS OTHERWISE NOTED.
  7
SLDTEXTSTYLE0
 73
     1
 44
1.0
  0
MTEXT
  5
10A
330
102
100
AcDbEntity
  8
0
  6
Continuous
 62
     0
370
     0
100
AcDbMText
 10
-19.999999553
 20
-10.6166499615
 30
0.0
 40
4.7625
 41
0.0
 71
     1
 72
     1
  1
2.
  7
SLDTEXTSTYLE0
 73
     1
 44
1.0
  0
ENDBLK
  5
104
330
102
100
AcDbEntity
  8
0
100
AcDbBlockEnd
  0
BLOCK
  5
10E
330
10D
100
AcDbEntity
  8
0
100
AcDbBlockBegin
  2
SW_NOTE_0_1
 70
     0
 10
0.0
 20
0.0
 30
0.0
  3
SW_NOTE_0_1
  1

  0
MTEXT
  5
111
330
10D
100
AcDbEntity
  8
0
  6
Continuous
 62
     0
370
     0
100
AcDbMText
 10
0.0
 20
3.3796386719
 30
0.0
 40
2.6458333333
 41
0.0
 71
     1
 72
     1
  1
THIS DOCUMENT CONTAINS CONFIDENTIAL OR PROPRIETARY 
  7
SLDTEXTSTYLE1
 73
     1
 44
1.0
  0
MTEXT
  5
112
330
10D
100
AcDbEntity
  8
0
  6
Continuous
 62
     0
370
     0
100
AcDbMText
 10
0.0
 20
-0.1481390633
 30
0.0
 40
2.6458333333
 41
0.0
 71
     1
 72
     1
  1
INFORMATION WHICH IS THE PROPERTY OF QSC, LLC THAT MAY NOT BE 
  7
SLDTEXTSTYLE1
 73
     1
 44
1.0
  0
MTEXT
  5
113
330
10D
100
AcDbEntity
  8
0
  6
Continuous
 62
     0
370
     0
100
AcDbMText
 10
0.0
 20
-3.6759167984
 30
0.0
 40
2.6458333333
 41
0.0
 71
     1
 72
     1
  1
DISCLOSED, REPRODUCED OR USED WITHOUT EXPRESS WRITTEN CONSENT 
  7
SLDTEXTSTYLE1
 73
     1
 44
1.0
  0
MTEXT
  5
114
330
10D
100
AcDbEntity
  8
0
  6
Continuous
 62
     0
370
     0
100
AcDbMText
 10
0.0
 20
-7.2036945336
 30
0.0
 40
2.6458333333
 41
0.0
 71
     1
 72
     1
  1
FROM QSC, LLC. NO PORTION OF THIS DOCUMENT MAY BE REPRODUCED, 
  7
SLDTEXTSTYLE1
 73
     1
 44
1.0
  0
MTEXT
  5
115
330
10D
100
AcDbEntity
  8
0
  6
Continuous
 62
     0
370
     0
100
AcDbMText
 10
0.0
 20
-10.7314722687
 30
0.0
 40
2.6458333333
 41
0.0
 71
     1
 72
     1
  1
REDISTRIBUTED, OR OTHERWISE DISCLOSED TO ANY THIRD PARTY WITHOUT 
  7
SLDTEXTSTYLE1
 73
     1
 44
1.0
  0
MTEXT
  5
117
330
10D
100
AcDbEntity
  8
0
  6
Continuous
 62
     0
370
     0
100
AcDbMText
 10
0.0
 20
-14.2592500038
 30
0.0
 40
2.6458333333
 41
0.0
 71
     1
 72
     1
  1
QSC\U+2019S WRITTEN PERMISSION.
  7
SLDTEXTSTYLE2
 73
     1
 44
1.0
  0
ENDBLK
  5
10F
330
10D
100
AcDbEntity
  8
0
100
AcDbBlockEnd
  0
BLOCK
  5
11F
330
11E
100
AcDbEntity
  8
0
100
AcDbBlockBegin
  2
SW_NOTE_0_2
 70
     0
 10
0.0
 20
0.0
 30
0.0
  3
SW_NOTE_0_2
  1

  0
MTEXT
  5
121
330
11E
100
AcDbEntity
  8
0
  6
Continuous
 62
     0
370
     0
100
AcDbMText
 10
0.0
 20
3.89334375
 30
0.0
 40
3.048
 41
0.0
 71
     1
 72
     1
  1
1675 MACARTHUR BOULEVARD
  7
SLDTEXTSTYLE0
 73
     1
 44
1.0
  0
MTEXT
  5
122
330
11E
100
AcDbEntity
  8
0
  6
Continuous
 62
     0
370
     0
100
AcDbMText
 10
0.0
 20
-1.1546560381
 30
0.0
 40
3.048
 41
0.0
 71
     1
 72
     1
  1
COSTA MESA, CA 92626 USA
  7
SLDTEXTSTYLE0
 73
     1
 44
1.0
  0
ENDBLK
  5
120
330
11E
100
AcDbEntity
  8
0
100
AcDbBlockEnd
  0
BLOCK
  5
142
330
141
100
AcDbEntity
  8
0
100
AcDbBlockBegin
  2
SW_NOTE_0_3
 70
     0
 10
0.0
 20
0.0
 30
0.0
  3
SW_NOTE_0_3
  1

  0
MTEXT
  5
144
330
141
100
AcDbEntity
  8
0
  6
Continuous
 62
     0
370
     0
100
AcDbMText
 10
0.0
 20
4.0555664063
 30
0.0
 40
3.175
 41
0.0
 71
     1
 72
     1
  1
%%p
  7
SLDTEXTSTYLE0
 73
     1
 44
1.0
  0
MTEXT
  5
145
330
141
100
AcDbEntity
  8
0
  6
Continuous
 62
     0
370
     0
100
AcDbMText
 10
3.0268332921
 20
4.0555664063
 30
0.0
 40
3.175
 41
0.0
 71
     1
 72
     1
  1
1
  7
SLDTEXTSTYLE0
 73
     1
 44
1.0
  0
MTEXT
  5
146
330
141
100
AcDbEntity
  8
0
  6
Continuous
 62
     0
370
     0
100
AcDbMText
 10
5.3728055209
 20
4.0555664063
 30
0.0
 40
3.175
 41
0.0
 71
     1
 72
     1
  1
%%d
  7
SLDTEXTSTYLE0
 73
     1
 44
1.0
  0
ENDBLK
  5
143
330
141
100
AcDbEntity
  8
0
100
AcDbBlockEnd
  0
BLOCK
  5
149
330
148
100
AcDbEntity
  8
0
100
AcDbBlockBegin
  2
SW_NOTE_0_4
 70
     0
 10
0.0
 20
0.0
 30
0.0
  3
SW_NOTE_0_4
  1

  0
MTEXT
  5
14B
330
148
100
AcDbEntity
  8
0
  6
Continuous
 62
     0
370
     0
100
AcDbMText
 10
0.0
 20
4.0555664063
 30
0.0
 40
3.175
 41
0.0
 71
     1
 72
     1
  1
.X 
  7
SLDTEXTSTYLE0
 73
     1
 44
1.0
  0
MTEXT
  5
14C
330
148
100
AcDbEntity
  8
0
  6
Continuous
 62
     0
370
     0
100
AcDbMText
 10
4.9153706059
 20
4.0555664063
 30
0.0
 40
3.175
 41
0.0
 71
     1
 72
     1
  1
%%p
  7
SLDTEXTSTYLE0
 73
     1
 44
1.0
  0
MTEXT
  5
14D
330
148
100
AcDbEntity
  8
0
  6
Continuous
 62
     0
370
     0
100
AcDbMText
 10
7.9422034323
 20
4.0555664063
 30
0.0
 40
3.175
 41
0.0
 71
     1
 72
     1
  1
 3.0 (.12)
  7
SLDTEXTSTYLE0
 73
     1
 44
1.0
  0
MTEXT
  5
14E
330
148
100
AcDbEntity
  8
0
  6
Continuous
 62
     0
370
     0
100
AcDbMText
 10
0.0
 20
-0.1777668759
 30
0.0
 40
3.175
 41
0.0
 71
     1
 72
     1
  1
.XX 
  7
SLDTEXTSTYLE0
 73
     1
 44
1.0
  0
MTEXT
  5
14F
330
148
100
AcDbEntity
  8
0
  6
Continuous
 62
     0
370
     0
100
AcDbMText
 10
7.4906479567
 20
-0.1777668759
 30
0.0
 40
3.175
 41
0.0
 71
     1
 72
     1
  1
%%p
  7
SLDTEXTSTYLE0
 73
     1
 44
1.0
  0
ENDBLK
  5
14A
330
148
100
AcDbEntity
  8
0
100
AcDbBlockEnd
  0
BLOCK
  5
153
330
152
100
AcDbEntity
  8
0
100
AcDbBlockBegin
  2
SW_NOTE_0_5
 70
     0
 10
0.0
 20
0.0
 30
0.0
  3
SW_NOTE_0_5
  1

  0
MTEXT
  5
155
330
152
100
AcDbEntity
  8
0
  6
Continuous
 62
     0
370
     0
100
AcDbMText
 10
51.49453125
 20
8.1111328125
 30
0.0
 40
6.35
 41
0.0
 71
     2
 72
     1
  1
ACCESSORY,TSC-710T-G3,
  7
SLDTEXTSTYLE0
 73
     1
 44
1.0
  0
MTEXT
  5
156
330
152
100
AcDbEntity
  8
0
  6
Continuous
 62
     0
370
     0
100
AcDbMText
 10
53.276795423
 20
-0.3555337518
 30
0.0
 40
6.35
 41
0.0
 71
     2
 72
     1
  1
TSC-G3 7 & 10.1 IN 
  7
SLDTEXTSTYLE0
 73
     1
 44
1.0
  0
MTEXT
  5
157
330
152
100
AcDbEntity
  8
0
  6
Continuous
 62
     0
370
     0
100
AcDbMText
 10
51.2644916177
 20
-8.8222003162
 30
0.0
 40
6.35
 41
0.0
 71
     2
 72
     1
  1
TABLETOP STAND
  7
SLDTEXTSTYLE0
 73
     1
 44
1.0
  0
ENDBLK
  5
154
330
152
100
AcDbEntity
  8
0
100
AcDbBlockEnd
  0
BLOCK
  5
176
330
175
100
AcDbEntity
  8
0
100
AcDbBlockBegin
  2
SW_TABLEANNOTATION_0
 70
     0
 10
0.0
 20
0.0
 30
0.0
  3
SW_TABLEANNOTATION_0
  1

  0
LINE
  5
178
330
175
100
AcDbEntity
  8
SLD-0
 62
     0
100
AcDbLine
 10
0.0
 20
0.0
 30
0.0
 11
0.0
 21
-11.575361408
 31
0.0
  0
LINE
  5
179
330
175
100
AcDbEntity
  8
SLD-0
 62
     0
100
AcDbLine
 10
0.0
 20
-11.575361408
 30
0.0
 11
0.0
 21
-23.0844684809
 31
0.0
  0
LINE
  5
17A
330
175
100
AcDbEntity
  8
SLD-0
 62
     0
100
AcDbLine
 10
18.1778195311
 20
-11.575361408
 30
0.0
 11
18.1778195311
 21
-23.0844684809
 31
0.0
  0
LINE
  5
17B
330
175
100
AcDbEntity
  8
SLD-0
 62
     0
100
AcDbLine
 10
222.8345361832
 20
-11.575361408
 30
0.0
 11
222.8345361832
 21
-23.0844684809
 31
0.0
  0
LINE
  5
17C
330
175
100
AcDbEntity
  8
SLD-0
 62
     0
100
AcDbLine
 10
245.4117937222
 20
-11.575361408
 30
0.0
 11
245.4117937222
 21
-23.0844684809
 31
0.0
  0
LINE
  5
17D
330
175
100
AcDbEntity
  8
SLD-0
 62
     0
100
AcDbLine
 10
285.8115490213
 20
0.0
 30
0.0
 11
285.8115490213
 21
-11.575361408
 31
0.0
  0
LINE
  5
17E
330
175
100
AcDbEntity
  8
SLD-0
 62
     0
100
AcDbLine
 10
285.8115490213
 20
-11.575361408
 30
0.0
 11
285.8115490213
 21
-23.0844684809
 31
0.0
  0
LINE
  5
17F
330
175
100
AcDbEntity
  8
SLD-0
 62
     0
100
AcDbLine
 10
0.0
 20
0.0
 30
0.0
 11
18.1778195311
 21
0.0
 31
0.0
  0
LINE
  5
180
330
175
100
AcDbEntity
  8
SLD-0
 62
     0
100
AcDbLine
 10
0.0
 20
-11.575361408
 30
0.0
 11
18.1778195311
 21
-11.575361408
 31
0.0
  0
LINE
  5
181
330
175
100
AcDbEntity
  8
SLD-0
 62
     0
100
AcDbLine
 10
18.1778195311
 20
0.0
 30
0.0
 11
222.8345361832
 21
0.0
 31
0.0
  0
LINE
  5
182
330
175
100
AcDbEntity
  8
SLD-0
 62
     0
100
AcDbLine
 10
18.1778195311
 20
-11.575361408
 30
0.0
 11
222.8345361832
 21
-11.575361408
 31
0.0
  0
LINE
  5
183
330
175
100
AcDbEntity
  8
SLD-0
 62
     0
100
AcDbLine
 10
222.8345361832
 20
0.0
 30
0.0
 11
245.4117937222
 21
0.0
 31
0.0
  0
LINE
  5
184
330
175
100
AcDbEntity
  8
SLD-0
 62
     0
100
AcDbLine
 10
222.8345361832
 20
-11.575361408
 30
0.0
 11
245.4117937222
 21
-11.575361408
 31
0.0
  0
LINE
  5
185
330
175
100
AcDbEntity
  8
SLD-0
 62
     0
100
AcDbLine
 10
245.4117937222
 20
0.0
 30
0.0
 11
285.8115490213
 21
0.0
 31
0.0
  0
LINE
  5
186
330
175
100
AcDbEntity
  8
SLD-0
 62
     0
100
AcDbLine
 10
245.4117937222
 20
-11.575361408
 30
0.0
 11
285.8115490213
 21
-11.575361408
 31
0.0
  0
LINE
  5
187
330
175
100
AcDbEntity
  8
SLD-0
 62
     0
100
AcDbLine
 10
0.0
 20
-23.0844684809
 30
0.0
 11
18.1778195311
 21
-23.0844684809
 31
0.0
  0
LINE
  5
188
330
175
100
AcDbEntity
  8
SLD-0
 62
     0
100
AcDbLine
 10
18.1778195311
 20
-23.0844684809
 30
0.0
 11
222.8345361832
 21
-23.0844684809
 31
0.0
  0
LINE
  5
189
330
175
100
AcDbEntity
  8
SLD-0
 62
     0
100
AcDbLine
 10
222.8345361832
 20
-23.0844684809
 30
0.0
 11
245.4117937222
 21
-23.0844684809
 31
0.0
  0
LINE
  5
18A
330
175
100
AcDbEntity
  8
SLD-0
 62
     0
100
AcDbLine
 10
245.4117937222
 20
-23.0844684809
 30
0.0
 11
285.8115490213
 21
-23.0844684809
 31
0.0
  0
LINE
  5
18B
330
175
100
AcDbEntity
  8
SLD-0
 62
     0
100
AcDbLine
 10
0.0
 20
-23.0844684809
 30
0.0
 11
0.0
 21
-33.9916931848
 31
0.0
  0
LINE
  5
18C
330
175
100
AcDbEntity
  8
SLD-0
 62
     0
100
AcDbLine
 10
18.1778195311
 20
-23.0844684809
 30
0.0
 11
18.1778195311
 21
-33.9916931848
 31
0.0
  0
LINE
  5
18D
330
175
100
AcDbEntity
  8
SLD-0
 62
     0
100
AcDbLine
 10
222.8345361832
 20
-23.0844684809
 30
0.0
 11
222.8345361832
 21
-33.9916931848
 31
0.0
  0
LINE
  5
18E
330
175
100
AcDbEntity
  8
SLD-0
 62
     0
100
AcDbLine
 10
245.4117937222
 20
-23.0844684809
 30
0.0
 11
245.4117937222
 21
-33.9916931848
 31
0.0
  0
LINE
  5
18F
330
175
100
AcDbEntity
  8
SLD-0
 62
     0
100
AcDbLine
 10
285.8115490213
 20
-23.0844684809
 30
0.0
 11
285.8115490213
 21
-33.9916931848
 31
0.0
  0
LINE
  5
190
330
175
100
AcDbEntity
  8
SLD-0
 62
     0
100
AcDbLine
 10
0.0
 20
-33.9916931848
 30
0.0
 11
18.1778195311
 21
-33.9916931848
 31
0.0
  0
LINE
  5
191
330
175
100
AcDbEntity
  8
SLD-0
 62
     0
100
AcDbLine
 10
18.1778195311
 20
-33.9916931848
 30
0.0
 11
222.8345361832
 21
-33.9916931848
 31
0.0
  0
LINE
  5
192
330
175
100
AcDbEntity
  8
SLD-0
 62
     0
100
AcDbLine
 10
222.8345361832
 20
-33.9916931848
 30
0.0
 11
245.4117937222
 21
-33.9916931848
 31
0.0
  0
LINE
  5
193
330
175
100
AcDbEntity
  8
SLD-0
 62
     0
100
AcDbLine
 10
245.4117937222
 20
-33.9916931848
 30
0.0
 11
285.8115490213
 21
-33.9916931848
 31
0.0
  0
MTEXT
  5
194
330
175
100
AcDbEntity
  8
SLD-0
 62
     0
100
AcDbMText
 10
129.0612062283
 20
-3.7238007622
 30
0.0
 40
4.2333333333
 41
0.0
 71
     1
 72
     1
  1
REVISIONS
  7
SLDTEXTSTYLE0
 73
     1
 44
1.0
  0
MTEXT
  5
195
330
175
100
AcDbEntity
  8
SLD-0
 62
     0
100
AcDbMText
 10
3.8795578758
 20
-15.2660350026
 30
0.0
 40
4.2333333333
 41
0.0
 71
     1
 72
     1
  1
REV
  7
SLDTEXTSTYLE0
 73
     1
 44
1.0
  0
MTEXT
  5
196
330
175
100
AcDbEntity
  8
SLD-0
 62
     0
100
AcDbMText
 10
102.78497377
 20
-15.2660350026
 30
0.0
 40
4.2333333333
 41
0.0
 71
     1
 72
     1
  1
DESCRIPTION
  7
SLDTEXTSTYLE0
 73
     1
 44
1.0
  0
MTEXT
  5
197
330
175
100
AcDbEntity
  8
SLD-0
 62
     0
100
AcDbMText
 10
230.8344921814
 20
-15.2660350026
 30
0.0
 40
4.2333333333
 41
0.0
 71
     1
 72
     1
  1
BY
  7
SLDTEXTSTYLE0
 73
     1
 44
1.0
  0
MTEXT
  5
198
330
175
100
AcDbEntity
  8
SLD-0
 62
     0
100
AcDbMText
 10
258.7050665118
 20
-15.2660350026
 30
0.0
 40
4.2333333333
 41
0.0
 71
     1
 72
     1
  1
DATE
  7
SLDTEXTSTYLE0
 73
     1
 44
1.0
  0
MTEXT
  5
199
330
175
100
AcDbEntity
  8
SLD-0
 62
     0
100
AcDbMText
 10
6.9996812845
 20
-26.474200891
 30
0.0
 40
4.2333333333
 41
0.0
 71
     1
 72
     1
  1
A
  7
SLDTEXTSTYLE0
 73
     1
 44
1.0
  0
MTEXT
  5
19A
330
175
100
AcDbEntity
  8
SLD-0
 62
     0
100
AcDbMText
 10
19.1778195311
 20
-26.474200891
 30
0.0
 40
4.2333333333
 41
0.0
 71
     1
 72
     1
  1
INITIAL RELEASE
  7
SLDTEXTSTYLE0
 73
     1
 44
1.0
  0
MTEXT
  5
19B
330
175
100
AcDbEntity
  8
SLD-0
 62
     0
100
AcDbMText
 10
231.3087821724
 20
-26.474200891
 30
0.0
 40
4.2333333333
 41
0.0
 71
     1
 72
     1
  1
SS
  7
SLDTEXTSTYLE0
 73
     1
 44
1.0
  0
MTEXT
  5
19C
330
175
100
AcDbEntity
  8
SLD-0
 62
     0
100
AcDbMText
 10
248.4470722214
 20
-26.474200891
 30
0.0
 40
4.2333333333
 41
0.0
 71
     1
 72
     1
  1
15-DEC-2021
  7
SLDTEXTSTYLE0
 73
     1
 44
1.0
  0
ENDBLK
  5
177
330
175
100
AcDbEntity
  8
0
100
AcDbBlockEnd
  0
BLOCK
  5
1D8
330
1D7
100
AcDbEntity
  8
0
100
AcDbBlockBegin
  2
_D
 70
     0
 10
0.0
 20
0.0
 30
0.0
  3
_D
  1

  0
SOLID
  5
1DA
330
1D7
100
AcDbEntity
  8
SLD-0
 62
     7
100
AcDbTrace
 10
179.2614831963
 20
285.5749246549
 30
0.0
 11
183.2614831963
 21
285.0749246549
 31
0.0
 12
183.2614831963
 22
286.0749246549
 32
0.0
 13
183.2614831963
 23
286.0749246549
 33
0.0
  0
SOLID
  5
1DB
330
1D7
100
AcDbEntity
  8
SLD-0
 62
     7
100
AcDbTrace
 10
264.7614831963
 20
285.5749246549
 30
0.0
 11
260.7614831963
 21
286.0749246549
 31
0.0
 12
260.7614831963
 22
285.0749246549
 32
0.0
 13
260.7614831963
 23
285.0749246549
 33
0.0
  0
LINE
  5
1DC
330
1D7
100
AcDbEntity
  8
SLD-0
 62
     7
100
AcDbLine
 10
216.966431046
 20
285.5749255862
 30
0.0
 11
215.5178372451
 21
285.5749255862
 31
0.0
  0
LINE
  5
1DD
330
1D7
100
AcDbEntity
  8
SLD-0
 62
     7
100
AcDbLine
 10
215.5178372451
 20
285.5749255862
 30
0.0
 11
215.5178372451
 21
278.0078421231
 31
0.0
  0
LINE
  5
1DE
330
1D7
100
AcDbEntity
  8
SLD-0
 62
     7
100
AcDbLine
 10
215.5178372451
 20
278.0078421231
 30
0.0
 11
216.966431046
 21
278.0078421231
 31
0.0
  0
LINE
  5
1DF
330
1D7
100
AcDbEntity
  8
SLD-0
 62
     7
100
AcDbLine
 10
229.2783757841
 20
285.5749255862
 30
0.0
 11
230.7269695849
 21
285.5749255862
 31
0.0
  0
LINE
  5
1E0
330
1D7
100
AcDbEntity
  8
SLD-0
 62
     7
100
AcDbLine
 10
230.7269695849
 20
285.5749255862
 30
0.0
 11
230.7269695849
 21
278.0078421231
 31
0.0
  0
LINE
  5
1E1
330
1D7
100
AcDbEntity
  8
SLD-0
 62
     7
100
AcDbLine
 10
230.7269695849
 20
278.0078421231
 30
0.0
 11
229.2783757841
 21
278.0078421231
 31
0.0
  0
LINE
  5
1E2
330
1D7
100
AcDbEntity
  8
SLD-0
 62
     7
100
AcDbLine
 10
179.2614831963
 20
261.3631602914
 30
0.0
 11
179.2614831963
 21
287.0989246549
 31
0.0
  0
LINE
  5
1E3
330
1D7
100
AcDbEntity
  8
SLD-0
 62
     7
100
AcDbLine
 10
264.7614831963
 20
261.3631602914
 30
0.0
 11
264.7614831963
 21
287.0989246549
 31
0.0
  0
LINE
  5
1E4
330
1D7
100
AcDbEntity
  8
SLD-0
 62
     7
100
AcDbLine
 10
179.2614831963
 20
285.5749246549
 30
0.0
 11
211.3492631748
 21
285.5749246549
 31
0.0
  0
LINE
  5
1E5
330
1D7
100
AcDbEntity
  8
SLD-0
 62
     7
100
AcDbLine
 10
264.7614831963
 20
285.5749246549
 30
0.0
 11
234.8955436553
 21
285.5749246549
 31
0.0
  0
MTEXT
  5
1E6
330
1D7
100
AcDbEntity
  8
SLD-0
 62
     7
100
AcDbMText
 10
212.3141739686
 20
292.6240038529
 30
0.0
 40
4.7625
 41
0.0
 71
     1
 72
     1
  1
 
  7
SLDTEXTSTYLE0
 73
     1
 44
1.0
  0
MTEXT
  5
1E7
330
1D7
100
AcDbEntity
  8
SLD-0
 62
     7
100
AcDbMText
 10
216.9664305804
 20
292.6240043186
 30
0.0
 40
4.7625
 41
0.0
 71
     1
 72
     1
  1
85.5
  7
SLDTEXTSTYLE0
 73
     1
 44
1.0
  0
MTEXT
  5
1E8
330
1D7
100
AcDbEntity
  8
SLD-0
 62
     7
100
AcDbMText
 10
216.966431046
 20
284.0911919653
 30
0.0
 40
4.7625
 41
0.0
 71
     1
 72
     1
  1
3.37
  7
SLDTEXTSTYLE0
 73
     1
 44
1.0
  0
MTEXT
  5
1E9
330
1D7
100
AcDbEntity
  8
SLD-0
 62
     7
100
AcDbMText
 10
232.1755629202
 20
292.6240038529
 30
0.0
 40
4.7625
 41
0.0
 71
     1
 72
     1
  1
 
  7
SLDTEXTSTYLE0
 73
     1
 44
1.0
  0
ENDBLK
  5
1D9
330
1D7
100
AcDbEntity
  8
0
100
AcDbBlockEnd
  0
BLOCK
  5
1EC
330
1EB
100
AcDbEntity
  8
0
100
AcDbBlockBegin
  2
_D_1
 70
     0
 10
0.0
 20
0.0
 30
0.0
  3
_D_1
  1

  0
SOLID
  5
1EE
330
1EB
100
AcDbEntity
  8
SLD-0
 62
     7
100
AcDbTrace
 10
317.2999570913
 20
265.5749246549
 30
0.0
 11
316.7999570913
 21
261.5749246549
 31
0.0
 12
317.7999570913
 22
261.5749246549
 32
0.0
 13
317.7999570913
 23
261.5749246549
 33
0.0
  0
SOLID
  5
1EF
330
1EB
100
AcDbEntity
  8
SLD-0
 62
     7
100
AcDbTrace
 10
317.2999570913
 20
193.7607554026
 30
0.0
 11
317.7999570913
 21
197.7607554026
 31
0.0
 12
316.7999570913
 22
197.7607554026
 32
0.0
 13
316.7999570913
 23
197.7607554026
 33
0.0
  0
LINE
  5
1F0
330
1EB
100
AcDbEntity
  8
SLD-0
 62
     7
100
AcDbLine
 10
311.1439847223
 20
233.958595067
 30
0.0
 11
309.6953909214
 21
233.958595067
 31
0.0
  0
LINE
  5
1F1
330
1EB
100
AcDbEntity
  8
SLD-0
 62
     7
100
AcDbLine
 10
309.6953909214
 20
233.958595067
 30
0.0
 11
309.6953909214
 21
226.3915116039
 31
0.0
  0
LINE
  5
1F2
330
1EB
100
AcDbEntity
  8
SLD-0
 62
     7
100
AcDbLine
 10
309.6953909214
 20
226.3915116039
 30
0.0
 11
311.1439847223
 21
226.3915116039
 31
0.0
  0
LINE
  5
1F3
330
1EB
100
AcDbEntity
  8
SLD-0
 62
     7
100
AcDbLine
 10
323.4559294603
 20
233.958595067
 30
0.0
 11
324.9045232612
 21
233.958595067
 31
0.0
  0
LINE
  5
1F4
330
1EB
100
AcDbEntity
  8
SLD-0
 62
     7
100
AcDbLine
 10
324.9045232612
 20
233.958595067
 30
0.0
 11
324.9045232612
 21
226.3915116039
 31
0.0
  0
LINE
  5
1F5
330
1EB
100
AcDbEntity
  8
SLD-0
 62
     7
100
AcDbLine
 10
324.9045232612
 20
226.3915116039
 30
0.0
 11
323.4559294603
 21
226.3915116039
 31
0.0
  0
LINE
  5
1F6
330
1EB
100
AcDbEntity
  8
SLD-0
 62
     7
100
AcDbLine
 10
256.2854831963
 20
265.5749246549
 30
0.0
 11
318.8239570913
 21
265.5749246549
 31
0.0
  0
LINE
  5
1F7
330
1EB
100
AcDbEntity
  8
SLD-0
 62
     7
100
AcDbLine
 10
285.1854831963
 20
193.7607554026
 30
0.0
 11
318.8239570913
 21
193.7607554026
 31
0.0
  0
LINE
  5
1F8
330
1EB
100
AcDbEntity
  8
SLD-0
 62
     7
100
AcDbLine
 10
317.2999570913
 20
265.5749246549
 30
0.0
 11
317.2999570913
 21
242.4914069545
 31
0.0
  0
LINE
  5
1F9
330
1EB
100
AcDbEntity
  8
SLD-0
 62
     7
100
AcDbLine
 10
317.2999570913
 20
193.7607554026
 30
0.0
 11
317.2999570913
 21
225.4257813168
 31
0.0
  0
MTEXT
  5
1FA
330
1EB
100
AcDbEntity
  8
SLD-0
 62
     7
100
AcDbMText
 10
306.4917276449
 20
241.0076733337
 30
0.0
 40
4.7625
 41
0.0
 71
     1
 72
     1
  1
 
  7
SLDTEXTSTYLE0
 73
     1
 44
1.0
  0
MTEXT
  5
1FB
330
1EB
100
AcDbEntity
  8
SLD-0
 62
     7
100
AcDbMText
 10
311.1439842566
 20
241.0076737993
 30
0.0
 40
4.7625
 41
0.0
 71
     1
 72
     1
  1
71.8
  7
SLDTEXTSTYLE0
 73
     1
 44
1.0
  0
MTEXT
  5
1FC
330
1EB
100
AcDbEntity
  8
SLD-0
 62
     7
100
AcDbMText
 10
311.1439847223
 20
232.4748614461
 30
0.0
 40
4.7625
 41
0.0
 71
     1
 72
     1
  1
2.83
  7
SLDTEXTSTYLE0
 73
     1
 44
1.0
  0
MTEXT
  5
1FD
330
1EB
100
AcDbEntity
  8
SLD-0
 62
     7
100
AcDbMText
 10
326.3531165964
 20
241.0076733337
 30
0.0
 40
4.7625
 41
0.0
 71
     1
 72
     1
  1
 
  7
SLDTEXTSTYLE0
 73
     1
 44
1.0
  0
ENDBLK
  5
1ED
330
1EB
100
AcDbEntity
  8
0
100
AcDbBlockEnd
  0
BLOCK
  5
200
330
1FF
100
AcDbEntity
  8
0
100
AcDbBlockBegin
  2
_D_2
 70
     0
 10
0.0
 20
0.0
 30
0.0
  3
_D_2
  1

  0
SOLID
  5
202
330
1FF
100
AcDbEntity
  8
SLD-0
 62
     7
100
AcDbTrace
 10
146.7614831963
 20
164.6145701292
 30
0.0
 11
150.7614831963
 21
164.1145701292
 31
0.0
 12
150.7614831963
 22
165.1145701292
 32
0.0
 13
150.7614831963
 23
165.1145701292
 33
0.0
  0
SOLID
  5
203
330
1FF
100
AcDbEntity
  8
SLD-0
 62
     7
100
AcDbTrace
 10
297.2614831963
 20
164.6145701292
 30
0.0
 11
293.2614831963
 21
165.1145701292
 31
0.0
 12
293.2614831963
 22
164.1145701292
 32
0.0
 13
293.2614831963
 23
164.1145701292
 33
0.0
  0
LINE
  5
204
330
1FF
100
AcDbEntity
  8
SLD-0
 62
     7
100
AcDbLine
 10
216.4836235515
 20
164.6145710605
 30
0.0
 11
215.0350297506
 21
164.6145710605
 31
0.0
  0
LINE
  5
205
330
1FF
100
AcDbEntity
  8
SLD-0
 62
     7
100
AcDbLine
 10
215.0350297506
 20
164.6145710605
 30
0.0
 11
215.0350297506
 21
157.0474875975
 31
0.0
  0
LINE
  5
206
330
1FF
100
AcDbEntity
  8
SLD-0
 62
     7
100
AcDbLine
 10
215.0350297506
 20
157.0474875975
 30
0.0
 11
216.4836235515
 21
157.0474875975
 31
0.0
  0
LINE
  5
207
330
1FF
100
AcDbEntity
  8
SLD-0
 62
     7
100
AcDbLine
 10
228.7955682896
 20
164.6145710605
 30
0.0
 11
230.2441620904
 21
164.6145710605
 31
0.0
  0
LINE
  5
208
330
1FF
100
AcDbEntity
  8
SLD-0
 62
     7
100
AcDbLine
 10
230.2441620904
 20
164.6145710605
 30
0.0
 11
230.2441620904
 21
157.0474875975
 31
0.0
  0
LINE
  5
209
330
1FF
100
AcDbEntity
  8
SLD-0
 62
     7
100
AcDbLine
 10
230.2441620904
 20
157.0474875975
 30
0.0
 11
228.7955682896
 21
157.0474875975
 31
0.0
  0
LINE
  5
20A
330
1FF
100
AcDbEntity
  8
SLD-0
 62
     7
100
AcDbLine
 10
146.7614831963
 20
193.9367554026
 30
0.0
 11
146.7614831963
 21
163.0905701292
 31
0.0
  0
LINE
  5
20B
330
1FF
100
AcDbEntity
  8
SLD-0
 62
     7
100
AcDbLine
 10
297.2614831963
 20
193.9367554026
 30
0.0
 11
297.2614831963
 21
163.0905701292
 31
0.0
  0
LINE
  5
20C
330
1FF
100
AcDbEntity
  8
SLD-0
 62
     7
100
AcDbLine
 10
146.7614831963
 20
164.6145701292
 30
0.0
 11
210.8664556803
 21
164.6145701292
 31
0.0
  0
LINE
  5
20D
330
1FF
100
AcDbEntity
  8
SLD-0
 62
     7
100
AcDbLine
 10
297.2614831963
 20
164.6145701292
 30
0.0
 11
234.4127361608
 21
164.6145701292
 31
0.0
  0
MTEXT
  5
20E
330
1FF
100
AcDbEntity
  8
SLD-0
 62
     7
100
AcDbMText
 10
211.8313664741
 20
171.6636493272
 30
0.0
 40
4.7625
 41
0.0
 71
     1
 72
     1
  1
 
  7
SLDTEXTSTYLE0
 73
     1
 44
1.0
  0
MTEXT
  5
20F
330
1FF
100
AcDbEntity
  8
SLD-0
 62
     7
100
AcDbMText
 10
214.7241442635
 20
171.6636497929
 30
0.0
 40
4.7625
 41
0.0
 71
     1
 72
     1
  1
150.5
  7
SLDTEXTSTYLE0
 73
     1
 44
1.0
  0
MTEXT
  5
210
330
1FF
100
AcDbEntity
  8
SLD-0
 62
     7
100
AcDbMText
 10
216.4836235515
 20
163.1308374397
 30
0.0
 40
4.7625
 41
0.0
 71
     1
 72
     1
  1
5.93
  7
SLDTEXTSTYLE0
 73
     1
 44
1.0
  0
MTEXT
  5
211
330
1FF
100
AcDbEntity
  8
SLD-0
 62
     7
100
AcDbMText
 10
231.6927554257
 20
171.6636493272
 30
0.0
 40
4.7625
 41
0.0
 71
     1
 72
     1
  1
 
  7
SLDTEXTSTYLE0
 73
     1
 44
1.0
  0
ENDBLK
  5
201
330
1FF
100
AcDbEntity
  8
0
100
AcDbBlockEnd
  0
BLOCK
  5
241
330
240
100
AcDbEntity
  8
0
100
AcDbBlockBegin
  2
_D_3
 70
     0
 10
0.0
 20
0.0
 30
0.0
  3
_D_3
  1

  0
ARC
  5
243
330
240
100
AcDbEntity
  8
SLD-0
 62
     7
100
AcDbCircle
 10
385.5655299588
 20
228.2924562921
 30
0.0
 40
33.48903158681731
100
AcDbArc
 50
35.0
 51
109.8801993424
  0
ARC
  5
244
330
240
100
AcDbEntity
  8
SLD-0
 62
     7
100
AcDbCircle
 10
385.5655299588
 20
228.2924562921
 30
0.0
 40
33.4890315868173
100
AcDbArc
 50
132.9879712666
 51
180.0
  0
SOLID
  5
245
330
240
100
AcDbEntity
  8
SLD-0
 62
     7
100
AcDbTrace
 10
412.9981386444
 20
247.5009756865
 30
0.0
 11
410.9050557348
 21
250.9461177639
 31
0.0
 12
410.121423313
 22
250.3248929837
 32
0.0
 13
410.121423313
 23
250.3248929837
 33
0.0
  0
SOLID
  5
246
330
240
100
AcDbEntity
  8
SLD-0
 62
     7
100
AcDbTrace
 10
352.076498372
 20
228.2924562921
 30
0.0
 11
352.8132331968
 21
232.2556900472
 31
0.0
 12
351.8149992009
 22
232.3150945039
 32
0.0
 13
351.8149992009
 23
232.3150945039
 33
0.0
  0
LINE
  5
247
330
240
100
AcDbEntity
  8
SLD-0
 62
     7
100
AcDbLine
 10
363.08041391
 20
228.2924562921
 30
0.0
 11
350.552498372
 21
228.2924562921
 31
0.0
  0
MTEXT
  5
248
330
240
100
AcDbEntity
  8
SLD-0
 62
     7
100
AcDbMText
 10
361.0805568467
 20
258.8729277493
 30
0.0
 40
4.7625
 41
0.0
 71
     1
 72
     1
  1
145°
  7
SLDTEXTSTYLE0
 73
     1
 44
1.0
  0
ENDBLK
  5
242
330
240
100
AcDbEntity
  8
0
100
AcDbBlockEnd
  0
BLOCK
  5
24B
330
24A
100
AcDbEntity
  8
0
100
AcDbBlockBegin
  2
_D_4
 70
     0
 10
0.0
 20
0.0
 30
0.0
  3
_D_4
  1

  0
SOLID
  5
24D
330
24A
100
AcDbEntity
  8
SLD-0
 62
     7
100
AcDbTrace
 10
380.1439044402
 20
164.9534593413
 30
0.0
 11
384.1439044402
 21
164.4534593413
 31
0.0
 12
384.1439044402
 22
165.4534593413
 32
0.0
 13
384.1439044402
 23
165.4534593413
 33
0.0
  0
SOLID
  5
24E
330
24A
100
AcDbEntity
  8
SLD-0
 62
     7
100
AcDbTrace
 10
474.9547808925
 20
164.9534593413
 30
0.0
 11
470.9547808925
 21
165.4534593413
 31
0.0
 12
470.9547808925
 22
164.4534593413
 32
0.0
 13
470.9547808925
 23
164.4534593413
 33
0.0
  0
LINE
  5
24F
330
24A
100
AcDbEntity
  8
SLD-0
 62
     7
100
AcDbLine
 10
421.6175888263
 20
164.9534602726
 30
0.0
 11
420.1689950254
 21
164.9534602726
 31
0.0
  0
LINE
  5
250
330
24A
100
AcDbEntity
  8
SLD-0
 62
     7
100
AcDbLine
 10
420.1689950254
 20
164.9534602726
 30
0.0
 11
420.1689950254
 21
157.3863768096
 31
0.0
  0
LINE
  5
251
330
24A
100
AcDbEntity
  8
SLD-0
 62
     7
100
AcDbLine
 10
420.1689950254
 20
157.3863768096
 30
0.0
 11
421.6175888263
 21
157.3863768096
 31
0.0
  0
LINE
  5
252
330
24A
100
AcDbEntity
  8
SLD-0
 62
     7
100
AcDbLine
 10
433.9295335643
 20
164.9534602726
 30
0.0
 11
435.3781273652
 21
164.9534602726
 31
0.0
  0
LINE
  5
253
330
24A
100
AcDbEntity
  8
SLD-0
 62
     7
100
AcDbLine
 10
435.3781273652
 20
164.9534602726
 30
0.0
 11
435.3781273652
 21
157.3863768096
 31
0.0
  0
LINE
  5
254
330
24A
100
AcDbEntity
  8
SLD-0
 62
     7
100
AcDbLine
 10
435.3781273652
 20
157.3863768096
 30
0.0
 11
433.9295335643
 21
157.3863768096
 31
0.0
  0
LINE
  5
255
330
24A
100
AcDbEntity
  8
SLD-0
 62
     7
100
AcDbLine
 10
380.1439044402
 20
193.9367554026
 30
0.0
 11
380.1439044402
 21
163.4294593413
 31
0.0
  0
LINE
  5
256
330
24A
100
AcDbEntity
  8
SLD-0
 62
     7
100
AcDbLine
 10
474.9547808925
 20
193.9367554026
 30
0.0
 11
474.9547808925
 21
163.4294593413
 31
0.0
  0
LINE
  5
257
330
24A
100
AcDbEntity
  8
SLD-0
 62
     7
100
AcDbLine
 10
380.1439044402
 20
164.9534593413
 30
0.0
 11
416.0004209551
 21
164.9534593413
 31
0.0
  0
LINE
  5
258
330
24A
100
AcDbEntity
  8
SLD-0
 62
     7
100
AcDbLine
 10
474.9547808925
 20
164.9534593413
 30
0.0
 11
439.5467014355
 21
164.9534593413
 31
0.0
  0
MTEXT
  5
259
330
24A
100
AcDbEntity
  8
SLD-0
 62
     7
100
AcDbMText
 10
416.9653317489
 20
172.0025385393
 30
0.0
 40
4.7625
 41
0.0
 71
     1
 72
     1
  1
 
  7
SLDTEXTSTYLE0
 73
     1
 44
1.0
  0
MTEXT
  5
25A
330
24A
100
AcDbEntity
  8
SLD-0
 62
     7
100
AcDbMText
 10
421.6175883606
 20
172.002539005
 30
0.0
 40
4.7625
 41
0.0
 71
     1
 72
     1
  1
94.8
  7
SLDTEXTSTYLE0
 73
     1
 44
1.0
  0
MTEXT
  5
25B
330
24A
100
AcDbEntity
  8
SLD-0
 62
     7
100
AcDbMText
 10
421.6175888263
 20
163.4697266518
 30
0.0
 40
4.7625
 41
0.0
 71
     1
 72
     1
  1
3.73
  7
SLDTEXTSTYLE0
 73
     1
 44
1.0
  0
MTEXT
  5
25C
330
24A
100
AcDbEntity
  8
SLD-0
 62
     7
100
AcDbMText
 10
436.8267207004
 20
172.0025385393
 30
0.0
 40
4.7625
 41
0.0
 71
     1
 72
     1
  1
 
  7
SLDTEXTSTYLE0
 73
     1
 44
1.0
  0
ENDBLK
  5
24C
330
24A
100
AcDbEntity
  8
0
100
AcDbBlockEnd
  0
ENDSEC
  0
SECTION
  2
ENTITIES
  0
LINE
  5
BC
330
1F
100
AcDbEntity
  8
0
  6
Continuous
 62
     7
370
    18
100
AcDbLine
 10
17.7770582316
 20
541.0189283994
 30
0.0
 11
845.8170582316
 21
541.0189283994
 31
0.0
  0
LINE
  5
BD
330
1F
100
AcDbEntity
  8
0
  6
Continuous
 62
     7
370
    18
100
AcDbLine
 10
17.7770582316
 20
541.0189283994
 30
0.0
 11
17.7770582316
 21
17.7789283994
 31
0.0
  0
LINE
  5
BE
330
1F
100
AcDbEntity
  8
0
  6
Continuous
 62
     7
370
    18
100
AcDbLine
 10
845.8170582316
 20
17.7789283994
 30
0.0
 11
17.7770582316
 21
17.7789283994
 31
0.0
  0
LINE
  5
BF
330
1F
100
AcDbEntity
  8
0
  6
Continuous
 62
     7
370
    18
100
AcDbLine
 10
845.8170582316
 20
17.7789283994
 30
0.0
 11
845.8170582316
 21
541.0189283994
 31
0.0
  0
LINE
  5
C0
330
1F
100
AcDbEntity
  8
0
  6
Continuous
 62
     7
370
    18
100
AcDbLine
 10
591.8170582316
 20
17.7789283994
 30
0.0
 11
591.8170582316
 21
93.9789283994
 31
0.0
  0
LINE
  5
C1
330
1F
100
AcDbEntity
  8
0
  6
Continuous
 62
     7
370
    18
100
AcDbLine
 10
591.8170582316
 20
93.9789283994
 30
0.0
 11
845.8170582316
 21
93.9789283994
 31
0.0
  0
LINE
  5
C2
330
1F
100
AcDbEntity
  8
0
  6
Continuous
 62
     7
370
    18
100
AcDbLine
 10
658.7200825955
 20
93.9789283994
 30
0.0
 11
658.7200825955
 21
17.7789283994
 31
0.0
  0
LINE
  5
C3
330
1F
100
AcDbEntity
  8
0
  6
Continuous
 62
     7
370
    18
100
AcDbLine
 10
728.0448273613
 20
93.9789283994
 30
0.0
 11
728.0448273613
 21
17.7789283994
 31
0.0
  0
LINE
  5
C4
330
1F
100
AcDbEntity
  8
0
  6
Continuous
 62
     7
370
    18
100
AcDbLine
 10
728.0448273613
 20
24.1289283994
 30
0.0
 11
845.8170582316
 21
24.1289283994
 31
0.0
  0
LINE
  5
C5
330
1F
100
AcDbEntity
  8
0
  6
Continuous
 62
     7
370
    18
100
AcDbLine
 10
728.0448273613
 20
36.8289283994
 30
0.0
 11
845.8170582316
 21
36.8289283994
 31
0.0
  0
LINE
  5
C6
330
1F
100
AcDbEntity
  8
0
  6
Continuous
 62
     7
370
    18
100
AcDbLine
 10
728.0448273613
 20
74.9289283994
 30
0.0
 11
845.8170582316
 21
74.9289283994
 31
0.0
  0
LINE
  5
C7
330
1F
100
AcDbEntity
  8
0
  6
Continuous
 62
     7
370
    18
100
AcDbLine
 10
737.2248385306
 20
36.8289283994
 30
0.0
 11
737.2248385306
 21
24.1289283994
 31
0.0
  0
LINE
  5
C8
330
1F
100
AcDbEntity
  8
0
  6
Continuous
 62
     7
370
    18
100
AcDbLine
 10
811.2044175569
 20
24.1289283994
 30
0.0
 11
811.2044175569
 21
17.7789283994
 31
0.0
  0
LINE
  5
C9
330
1F
100
AcDbEntity
  8
0
  6
Continuous
 62
     7
370
    18
100
AcDbLine
 10
761.3548385306
 20
36.8289283994
 30
0.0
 11
761.3548385306
 21
24.1289283994
 31
0.0
  0
LINE
  5
CA
330
1F
100
AcDbEntity
  8
0
  6
Continuous
 62
     7
370
    18
100
AcDbLine
 10
751.7322172939
 20
24.1289283994
 30
0.0
 11
751.7322172939
 21
17.7789283994
 31
0.0
  0
LINE
  5
CB
330
1F
100
AcDbEntity
  8
0
  6
Continuous
 62
     7
370
    18
100
AcDbLine
 10
638.8070582316
 20
17.7789283994
 30
0.0
 11
638.8070582316
 21
26.9229283994
 31
0.0
  0
LINE
  5
CC
330
1F
100
AcDbEntity
  8
0
  6
Continuous
 62
     7
370
    18
100
AcDbLine
 10
658.6478221355
 20
31.2789283994
 30
0.0
 11
727.9725669014
 21
31.2789283994
 31
0.0
  0
LINE
  5
CD
330
1F
100
AcDbEntity
  8
0
  6
Continuous
 62
     7
370
    18
100
AcDbLine
 10
658.7200825955
 20
44.7789283994
 30
0.0
 11
728.0448273613
 21
44.7789283994
 31
0.0
  0
LINE
  5
CE
330
1F
100
AcDbEntity
  8
0
  6
Continuous
 62
     7
370
    18
100
AcDbLine
 10
658.7200825955
 20
58.2789283994
 30
0.0
 11
728.0448273613
 21
58.2789283994
 31
0.0
  0
LINE
  5
CF
330
1F
100
AcDbEntity
  8
0
  6
Continuous
 62
     7
370
    18
100
AcDbLine
 10
658.7200825955
 20
76.5625228009
 30
0.0
 11
728.0448273613
 21
76.5625228009
 31
0.0
  0
LINE
  5
D0
330
1F
100
AcDbEntity
  8
0
  6
Continuous
 62
     7
370
    18
100
AcDbLine
 10
658.7200825955
 20
71.2285228009
 30
0.0
 11
728.0448273613
 21
71.2285228009
 31
0.0
  0
LINE
  5
D1
330
1F
100
AcDbEntity
  8
0
  6
Continuous
 62
     7
370
    18
100
AcDbLine
 10
658.7200825955
 20
54.4891628938
 30
0.0
 11
591.8170582316
 21
54.4891628938
 31
0.0
  0
LINE
  5
D2
330
1F
100
AcDbEntity
  8
0
  6
CENTER
 62
     7
370
    18
100
AcDbLine
 10
647.9842335774
 20
22.5236503539
 30
0.0
 11
657.3272635762
 21
22.5236503539
 31
0.0
  0
LINE
  5
D3
330
1F
100
AcDbEntity
  8
0
  6
Continuous
 62
     7
370
    18
100
AcDbLine
 10
845.8170582316
 20
148.5889283994
 30
0.0
 11
852.1670582316
 21
148.5889283994
 31
0.0
  0
LINE
  5
D4
330
1F
100
AcDbEntity
  8
0
  6
Continuous
 62
     7
370
    18
100
AcDbLine
 10
848.9920582316
 20
277.5658412947
 30
0.0
 11
845.8170582316
 21
279.3989283994
 31
0.0
  0
LINE
  5
D5
330
1F
100
AcDbEntity
  8
0
  6
Continuous
 62
     7
370
    18
100
AcDbLine
 10
848.9920582316
 20
281.232015504
 30
0.0
 11
848.9920582316
 21
277.5658412947
 31
0.0
  0
LINE
  5
D6
330
1F
100
AcDbEntity
  8
0
  6
Continuous
 62
     7
370
    18
100
AcDbLine
 10
845.8170582316
 20
279.3989283994
 30
0.0
 11
848.9920582316
 21
281.232015504
 31
0.0
  0
LINE
  5
D7
330
1F
100
AcDbEntity
  8
0
  6
Continuous
 62
     7
370
    18
100
AcDbLine
 10
845.8170582316
 20
279.3989283994
 30
0.0
 11
852.1670582316
 21
279.3989283994
 31
0.0
  0
LINE
  5
D8
330
1F
100
AcDbEntity
  8
0
  6
Continuous
 62
     7
370
    18
100
AcDbLine
 10
845.8170582316
 20
410.2089283994
 30
0.0
 11
852.1670582316
 21
410.2089283994
 31
0.0
  0
LINE
  5
D9
330
1F
100
AcDbEntity
  8
0
  6
Continuous
 62
     7
370
    18
100
AcDbLine
 10
742.3120582316
 20
541.0189283994
 30
0.0
 11
742.3120582316
 21
547.3689283994
 31
0.0
  0
LINE
  5
DA
330
1F
100
AcDbEntity
  8
0
  6
Continuous
 62
     7
370
    18
100
AcDbLine
 10
535.3020582316
 20
17.7789283994
 30
0.0
 11
535.3020582316
 21
11.4289283994
 31
0.0
  0
LINE
  5
DB
330
1F
100
AcDbEntity
  8
0
  6
Continuous
 62
     7
370
    18
100
AcDbLine
 10
742.3120582316
 20
17.7789283994
 30
0.0
 11
742.3120582316
 21
11.4289283994
 31
0.0
  0
LINE
  5
DC
330
1F
100
AcDbEntity
  8
0
  6
Continuous
 62
     7
370
    18
100
AcDbLine
 10
638.8070582316
 20
17.7789283994
 30
0.0
 11
638.8070582316
 21
11.4289283994
 31
0.0
  0
LINE
  5
DD
330
1F
100
AcDbEntity
  8
0
  6
Continuous
 62
     7
370
    18
100
AcDbLine
 10
328.2920582316
 20
17.7789283994
 30
0.0
 11
328.2920582316
 21
11.4289283994
 31
0.0
  0
LINE
  5
DE
330
1F
100
AcDbEntity
  8
0
  6
Continuous
 62
     7
370
    18
100
AcDbLine
 10
224.7870582316
 20
17.7789283994
 30
0.0
 11
224.7870582316
 21
11.4289283994
 31
0.0
  0
LINE
  5
DF
330
1F
100
AcDbEntity
  8
0
  6
Continuous
 62
     7
370
    18
100
AcDbLine
 10
121.2820582316
 20
17.7789283994
 30
0.0
 11
121.2820582316
 21
11.4289283994
 31
0.0
  0
LINE
  5
E0
330
1F
100
AcDbEntity
  8
0
  6
Continuous
 62
     7
370
    18
100
AcDbLine
 10
638.8070582316
 20
541.0189283994
 30
0.0
 11
638.8070582316
 21
547.3689283994
 31
0.0
  0
LINE
  5
E1
330
1F
100
AcDbEntity
  8
0
  6
Continuous
 62
     7
370
    18
100
AcDbLine
 10
535.3020582316
 20
541.0189283994
 30
0.0
 11
535.3020582316
 21
547.3689283994
 31
0.0
  0
LINE
  5
E2
330
1F
100
AcDbEntity
  8
0
  6
Continuous
 62
     7
370
    18
100
AcDbLine
 10
433.6301453363
 20
544.1939283994
 30
0.0
 11
429.963971127
 21
544.1939283994
 31
0.0
  0
LINE
  5
E3
330
1F
100
AcDbEntity
  8
0
  6
Continuous
 62
     7
370
    18
100
AcDbLine
 10
431.7970582316
 20
541.0189283994
 30
0.0
 11
429.963971127
 21
544.1939283994
 31
0.0
  0
LINE
  5
E4
330
1F
100
AcDbEntity
  8
0
  6
Continuous
 62
     7
370
    18
100
AcDbLine
 10
431.7970582316
 20
541.0189283994
 30
0.0
 11
433.6301453363
 21
544.1939283994
 31
0.0
  0
LINE
  5
E5
330
1F
100
AcDbEntity
  8
0
  6
Continuous
 62
     7
370
    18
100
AcDbLine
 10
17.7770582316
 20
148.5889283994
 30
0.0
 11
11.4270582316
 21
148.5889283994
 31
0.0
  0
LINE
  5
E6
330
1F
100
AcDbEntity
  8
0
  6
Continuous
 62
     7
370
    18
100
AcDbLine
 10
17.7770582316
 20
279.3989283994
 30
0.0
 11
11.4270582316
 21
279.3989283994
 31
0.0
  0
LINE
  5
E7
330
1F
100
AcDbEntity
  8
0
  6
Continuous
 62
     7
370
    18
100
AcDbLine
 10
17.7770582316
 20
410.2089283994
 30
0.0
 11
11.4270582316
 21
410.2089283994
 31
0.0
  0
LINE
  5
E8
330
1F
100
AcDbEntity
  8
0
  6
Continuous
 62
     7
370
    18
100
AcDbLine
 10
17.7770582316
 20
279.3989283994
 30
0.0
 11
14.6020582316
 21
281.232015504
 31
0.0
  0
LINE
  5
E9
330
1F
100
AcDbEntity
  8
0
  6
Continuous
 62
     7
370
    18
100
AcDbLine
 10
14.6020582316
 20
281.232015504
 30
0.0
 11
14.6020582316
 21
277.5658412947
 31
0.0
  0
LINE
  5
EA
330
1F
100
AcDbEntity
  8
0
  6
Continuous
 62
     7
370
    18
100
AcDbLine
 10
14.6020582316
 20
277.5658412947
 30
0.0
 11
17.7770582316
 21
279.3989283994
 31
0.0
  0
LINE
  5
EB
330
1F
100
AcDbEntity
  8
0
  6
Continuous
 62
     7
370
    18
100
AcDbLine
 10
431.7970582316
 20
541.0189283994
 30
0.0
 11
431.7970582316
 21
547.3689283994
 31
0.0
  0
LINE
  5
EC
330
1F
100
AcDbEntity
  8
0
  6
Continuous
 62
     7
370
    18
100
AcDbLine
 10
328.2920582316
 20
541.0189283994
 30
0.0
 11
328.2920582316
 21
547.3689283994
 31
0.0
  0
LINE
  5
ED
330
1F
100
AcDbEntity
  8
0
  6
Continuous
 62
     7
370
    18
100
AcDbLine
 10
224.7870582316
 20
541.0189283994
 30
0.0
 11
224.7870582316
 21
547.3689283994
 31
0.0
  0
LINE
  5
EE
330
1F
100
AcDbEntity
  8
0
  6
Continuous
 62
     7
370
    18
100
AcDbLine
 10
121.2820582316
 20
541.0189283994
 30
0.0
 11
121.2820582316
 21
547.3689283994
 31
0.0
  0
LINE
  5
EF
330
1F
100
AcDbEntity
  8
0
  6
Continuous
 62
     7
370
    18
100
AcDbLine
 10
648.9300065611
 20
21.2536503539
 30
0.0
 11
656.5500065611
 21
19.9836503539
 31
0.0
  0
LINE
  5
F0
330
1F
100
AcDbEntity
  8
0
  6
Continuous
 62
     7
370
    18
100
AcDbLine
 10
648.9300065611
 20
23.7936503539
 30
0.0
 11
656.5500065611
 21
25.0636503539
 31
0.0
  0
LINE
  5
F1
330
1F
100
AcDbEntity
  8
0
  6
CENTER
 62
     7
370
    18
100
AcDbLine
 10
640.5581665611
 20
22.5236503539
 30
0.0
 11
647.1418465611
 21
22.5236503539
 31
0.0
  0
LINE
  5
F2
330
1F
100
AcDbEntity
  8
0
  6
CENTER
 62
     7
370
    18
100
AcDbLine
 10
643.8500065611
 20
19.2318103539
 30
0.0
 11
643.8500065611
 21
25.8154903539
 31
0.0
  0
LINE
  5
F3
330
1F
100
AcDbEntity
  8
0
  6
Continuous
 62
     7
370
    18
100
AcDbLine
 10
591.8170582316
 20
26.9229283994
 30
0.0
 11
658.7200825955
 21
26.9229283994
 31
0.0
  0
LINE
  5
F4
330
1F
100
AcDbEntity
  8
0
  6
Continuous
 62
     7
370
    18
100
AcDbLine
 10
591.8170582316
 20
36.0669283994
 30
0.0
 11
658.7200825955
 21
36.0669283994
 31
0.0
  0
LINE
  5
F5
330
1F
100
AcDbEntity
  8
0
  6
Continuous
 62
     7
370
    18
100
AcDbLine
 10
431.7970582316
 20
17.7789283994
 30
0.0
 11
431.7970582316
 21
11.4289283994
 31
0.0
  0
LINE
  5
F6
330
1F
100
AcDbEntity
  8
0
  6
Continuous
 62
     7
370
    18
100
AcDbLine
 10
431.7970582316
 20
17.7789283994
 30
0.0
 11
433.6301453363
 21
14.6039283994
 31
0.0
  0
LINE
  5
F7
330
1F
100
AcDbEntity
  8
0
  6
Continuous
 62
     7
370
    18
100
AcDbLine
 10
431.7970582316
 20
17.7789283994
 30
0.0
 11
429.963971127
 21
14.6039283994
 31
0.0
  0
LINE
  5
F8
330
1F
100
AcDbEntity
  8
0
  6
Continuous
 62
     7
370
    18
100
AcDbLine
 10
433.6301453363
 20
14.6039283994
 30
0.0
 11
429.963971127
 21
14.6039283994
 31
0.0
  0
LINE
  5
F9
330
1F
100
AcDbEntity
  8
0
  6
Continuous
 62
     7
370
    18
100
AcDbLine
 10
591.8170582316
 20
45.2109283994
 30
0.0
 11
658.7200825955
 21
45.2109283994
 31
0.0
  0
LINE
  5
FA
330
1F
100
AcDbEntity
  8
0
  6
Continuous
 62
     7
370
    18
100
AcDbLine
 10
648.9300065611
 20
23.7936503539
 30
0.0
 11
648.9300065611
 21
21.2536503539
 31
0.0
  0
LINE
  5
FB
330
1F
100
AcDbEntity
  8
0
  6
Continuous
 62
     7
370
    18
100
AcDbLine
 10
17.7770582316
 20
517.5004279921
 30
0.0
 11
149.8753518325
 21
517.5004279921
 31
0.0
  0
LINE
  5
FC
330
1F
100
AcDbEntity
  8
0
  6
Continuous
 62
     7
370
    18
100
AcDbLine
 10
149.8753518325
 20
541.0189283994
 30
0.0
 11
149.8753518325
 21
517.5004279921
 31
0.0
  0
LINE
  5
FD
330
1F
100
AcDbEntity
  8
0
  6
Continuous
 62
     7
370
    18
100
AcDbLine
 10
656.5500065611
 20
25.0636503539
 30
0.0
 11
656.5500065611
 21
19.9836503539
 31
0.0
  0
LINE
  5
FE
330
1F
100
AcDbEntity
  8
0
  6
Continuous
 62
     7
370
    18
100
AcDbLine
 10
824.7215725591
 20
36.8289283994
 30
0.0
 11
824.7215725591
 21
24.1289283994
 31
0.0
  0
CIRCLE
  5
FF
330
1F
100
AcDbEntity
  8
0
  6
Continuous
 62
     7
370
    18
100
AcDbCircle
 10
643.8500065611
 20
22.5236503539
 30
0.0
 40
2.539999999999736
  0
CIRCLE
  5
100
330
1F
100
AcDbEntity
  8
0
  6
Continuous
 62
     7
370
    18
100
AcDbCircle
 10
643.8500065611
 20
22.5236503539
 30
0.0
 40
1.269999999999868
  0
INSERT
  5
101
330
1F
100
AcDbEntity
  8
0
  6
Continuous
 62
     7
100
AcDbBlockReference
  2
QSC Logo
 10
731.1249168009
 20
79.6579217153
 30
0.0
 41
0.8
 42
0.8
 43
0.8
  0
INSERT
  5
10B
330
1F
100
AcDbEntity
  8
0
  6
Continuous
 62
     7
370
     0
100
AcDbBlockReference
  2
SW_NOTE_0
 10
51.4652010995
 20
495.5039591965
 30
0.0
  0
MTEXT
  5
10C
330
1F
100
AcDbEntity
  8
SLD-0
100
AcDbMText
 10
413.170510934
 20
40.9077062878
 30
0.0
 40
10.5833333333
 41
0.0
 71
     2
 72
     1
  1
STAND FOR 7" & 10" TOUCHSCREEN CONTROLLER
  7
SLDTEXTSTYLE0
 73
     1
 44
1.0
  0
INSERT
  5
118
330
1F
100
AcDbEntity
  8
0
  6
Continuous
 62
     7
370
     0
100
AcDbBlockReference
  2
SW_NOTE_0_1
 10
19.7731701097
 20
536.0083426113
 30
0.0
  0
MTEXT
  5
119
330
1F
100
AcDbEntity
  8
0
  6
Continuous
 62
     7
370
     0
100
AcDbMText
 10
832.1383823192
 20
36.1262826977
 30
0.0
 40
2.6458333333
 41
0.0
 71
     1
 72
     1
  1
REV
  7
SLDTEXTSTYLE0
 73
     1
 44
1.0
  0
MTEXT
  5
11A
330
1F
100
AcDbEntity
  8
0
  6
Continuous
 62
     7
370
     0
100
AcDbMText
 10
845.4050977242
 20
13.9900278999
 30
0.0
 40
2.0
 41
0.0
 71
     3
 72
     1
  1
Form: QMS100206 Rev D
  7
SLDTEXTSTYLE0
 73
     1
 44
1.0
  0
MTEXT
  5
11B
330
1F
100
AcDbEntity
  8
0
  6
Continuous
 62
     7
370
     0
100
AcDbMText
 10
28.2143331634
 20
514.3100768614
 30
0.0
 40
4.7625
 41
0.0
 71
     1
 72
     1
  1
NOTES: UNLESS OTHERWISE SPECIFIED
  7
SLDTEXTSTYLE0
 73
     1
 44
1.0
  0
MTEXT
  5
11D
330
1F
100
AcDbEntity
  8
0
  6
Continuous
 62
     7
370
     0
100
AcDbMText
 10
783.6845070818
 20
92.1745689395
 30
0.0
 40
5.08
 41
0.0
 71
     1
 72
     1
  1
QSC, LLC
  7
SLDTEXTSTYLE3
 73
     1
 44
1.0
  0
INSERT
  5
123
330
1F
100
AcDbEntity
  8
0
  6
Continuous
 62
     7
370
     0
100
AcDbBlockReference
  2
SW_NOTE_0_2
 10
783.6845070818
 20
81.095747344
 30
0.0
  0
MTEXT
  5
124
330
1F
100
AcDbEntity
  8
0
  6
Continuous
 62
     7
370
     0
100
AcDbMText
 10
741.3571915747
 20
30.4677761734
 30
0.0
 40
3.7041666667
 41
0.0
 71
     1
 72
     1
  1
00PW4
  7
SLDTEXTSTYLE0
 73
     1
 44
1.0
  0
MTEXT
  5
125
330
1F
100
AcDbEntity
  8
0
  6
Continuous
 62
     7
370
     0
100
AcDbMText
 10
738.5219100019
 20
35.7710989182
 30
0.0
 40
2.6458333333
 41
0.0
 71
     1
 72
     1
  1
CAGE CODE
  7
SLDTEXTSTYLE0
 73
     1
 44
1.0
  0
MTEXT
  5
126
330
1F
100
AcDbEntity
  8
0
  6
Continuous
 62
     7
370
     0
100
AcDbMText
 10
274.9044892463
 20
546.7165399178
 30
0.0
 40
4.7625
 41
0.0
 71
     1
 72
     1
  1
6
  7
SLDTEXTSTYLE0
 73
     1
 44
1.0
  0
MTEXT
  5
127
330
1F
100
AcDbEntity
  8
0
  6
Continuous
 62
     7
370
     0
100
AcDbMText
 10
660.9163968145
 20
50.378017964
 30
0.0
 40
3.175
 41
0.0
 71
     1
 72
     1
  1
T.GOSSARD
  7
SLDTEXTSTYLE0
 73
     1
 44
1.0
  0
MTEXT
  5
128
330
1F
100
AcDbEntity
  8
0
  6
Continuous
 62
     7
370
     0
100
AcDbMText
 10
611.4579743728
 20
43.0576026341
 30
0.0
 40
4.572
 41
0.0
 71
     1
 72
     1
  1
SEE NOTES
  7
SLDTEXTSTYLE0
 73
     1
 44
1.0
  0
MTEXT
  5
129
330
1F
100
AcDbEntity
  8
0
  6
Continuous
 62
     7
370
     0
100
AcDbMText
 10
769.6293302907
 20
21.8437228263
 30
0.0
 40
2.54
 41
0.0
 71
     1
 72
     1
  1
 FG-901525-2D
  7
SLDTEXTSTYLE0
 73
     1
 44
1.0
  0
MTEXT
  5
12A
330
1F
100
AcDbEntity
  8
0
  6
Continuous
 62
     7
370
     0
100
AcDbMText
 10
611.4579743728
 20
52.4912053254
 30
0.0
 40
4.572
 41
0.0
 71
     1
 72
     1
  1
SEE NOTES
  7
SLDTEXTSTYLE0
 73
     1
 44
1.0
  0
MTEXT
  5
12B
330
1F
100
AcDbEntity
  8
0
  6
Continuous
 62
     7
370
     0
100
AcDbMText
 10
663.8567271759
 20
92.0594469861
 30
0.0
 40
3.175
 41
0.0
 71
     1
 72
     1
  1
CAD GENERATED DRAWING
  7
SLDTEXTSTYLE0
 73
     1
 44
1.0
  0
MTEXT
  5
12C
330
1F
100
AcDbEntity
  8
0
  6
Continuous
 62
     7
370
     0
100
AcDbMText
 10
664.1936149874
 20
86.0966599894
 30
0.0
 40
3.175
 41
0.0
 71
     1
 72
     1
  1
DO  NOT  MANUALLY  UPDATE
  7
SLDTEXTSTYLE0
 73
     1
 44
1.0
  0
MTEXT
  5
12D
330
1F
100
AcDbEntity
  8
0
  6
Continuous
 62
     7
370
     0
100
AcDbMText
 10
595.2190951974
 20
92.0594469861
 30
0.0
 40
3.175
 41
0.0
 71
     1
 72
     1
  1
UNLESS  OTHERWISE  SPECIFIED
  7
SLDTEXTSTYLE0
 73
     1
 44
1.0
  0
MTEXT
  5
12E
330
1F
100
AcDbEntity
  8
0
  6
Continuous
 62
     7
370
     0
100
AcDbMText
 10
595.5635604058
 20
86.0966599894
 30
0.0
 40
3.175
 41
0.0
 71
     1
 72
     1
  1
DIMENSIONS  ARE  IN  MM [IN]
  7
SLDTEXTSTYLE0
 73
     1
 44
1.0
  0
MTEXT
  5
12F
330
1F
100
AcDbEntity
  8
0
  6
Continuous
 62
     7
370
     0
100
AcDbMText
 10
847.5215828392
 20
85.9414361542
 30
0.0
 40
4.7625
 41
0.0
 71
     1
 72
     1
  1
A
  7
SLDTEXTSTYLE0
 73
     1
 44
1.0
  0
MTEXT
  5
130
330
1F
100
AcDbEntity
  8
0
  6
Continuous
 62
     7
370
     0
100
AcDbMText
 10
848.5673279065
 20
216.6712265686
 30
0.0
 40
4.7625
 41
0.0
 71
     1
 72
     1
  1
B
  7
SLDTEXTSTYLE0
 73
     1
 44
1.0
  0
MTEXT
  5
131
330
1F
100
AcDbEntity
  8
0
  6
Continuous
 62
     7
370
     0
100
AcDbMText
 10
847.1136724834
 20
347.601157245
 30
0.0
 40
4.7625
 41
0.0
 71
     1
 72
     1
  1
C
  7
SLDTEXTSTYLE0
 73
     1
 44
1.0
  0
MTEXT
  5
132
330
1F
100
AcDbEntity
  8
0
  6
Continuous
 62
     7
370
     0
100
AcDbMText
 10
847.6406414995
 20
478.3100785054
 30
0.0
 40
4.7625
 41
0.0
 71
     1
 72
     1
  1
D
  7
SLDTEXTSTYLE0
 73
     1
 44
1.0
  0
MTEXT
  5
133
330
1F
100
AcDbEntity
  8
0
  6
Continuous
 62
     7
370
     0
100
AcDbMText
 10
792.5830446789
 20
546.7940520172
 30
0.0
 40
4.7625
 41
0.0
 71
     1
 72
     1
  1
1
  7
SLDTEXTSTYLE0
 73
     1
 44
1.0
  0
MTEXT
  5
134
330
1F
100
AcDbEntity
  8
0
  6
Continuous
 62
     7
370
     0
100
AcDbMText
 10
688.894906649
 20
546.7526281102
 30
0.0
 40
4.7625
 41
0.0
 71
     1
 72
     1
  1
2
  7
SLDTEXTSTYLE0
 73
     1
 44
1.0
  0
MTEXT
  5
135
330
1F
100
AcDbEntity
  8
0
  6
Continuous
 62
     7
370
     0
100
AcDbMText
 10
585.3611054217
 20
546.6471015398
 30
0.0
 40
4.7625
 41
0.0
 71
     1
 72
     1
  1
3
  7
SLDTEXTSTYLE0
 73
     1
 44
1.0
  0
MTEXT
  5
136
330
1F
100
AcDbEntity
  8
0
  6
Continuous
 62
     7
370
     0
100
AcDbMText
 10
481.9144239716
 20
546.6593937128
 30
0.0
 40
4.7625
 41
0.0
 71
     1
 72
     1
  1
4
  7
SLDTEXTSTYLE0
 73
     1
 44
1.0
  0
MTEXT
  5
137
330
1F
100
AcDbEntity
  8
0
  6
Continuous
 62
     7
370
     0
100
AcDbMText
 10
378.4264775994
 20
546.6423769039
 30
0.0
 40
4.7625
 41
0.0
 71
     1
 72
     1
  1
5
  7
SLDTEXTSTYLE0
 73
     1
 44
1.0
  0
MTEXT
  5
138
330
1F
100
AcDbEntity
  8
0
  6
Continuous
 62
     7
370
     0
100
AcDbMText
 10
171.5249301416
 20
546.8422076892
 30
0.0
 40
4.7625
 41
0.0
 71
     1
 72
     1
  1
7
  7
SLDTEXTSTYLE0
 73
     1
 44
1.0
  0
MTEXT
  5
139
330
1F
100
AcDbEntity
  8
0
  6
Continuous
 62
     7
370
     0
100
AcDbMText
 10
660.9163968145
 20
36.291216444
 30
0.0
 40
3.175
 41
0.0
 71
     1
 72
     1
  1
D.HOCH
  7
SLDTEXTSTYLE0
 73
     1
 44
1.0
  0
MTEXT
  5
13A
330
1F
100
AcDbEntity
  8
0
  6
Continuous
 62
     7
370
     0
100
AcDbMText
 10
660.9163968145
 20
22.9772361569
 30
0.0
 40
3.175
 41
0.0
 71
     1
 72
     1
  1
T.MORGAN
  7
SLDTEXTSTYLE0
 73
     1
 44
1.0
  0
MTEXT
  5
13B
330
1F
100
AcDbEntity
  8
0
  6
Continuous
 62
     7
370
     0
100
AcDbMText
 10
660.9163968145
 20
63.6534242981
 30
0.0
 40
3.175
 41
0.0
 71
     1
 72
     1
  1
S. STASIAK
  7
SLDTEXTSTYLE0
 73
     1
 44
1.0
  0
MTEXT
  5
13C
330
1F
100
AcDbEntity
  8
0
  6
Continuous
 62
     7
370
     0
100
AcDbMText
 10
793.1702789326
 20
32.047807006
 30
0.0
 40
6.35
 41
0.0
 71
     2
 72
     1
  1
FG-901525-2D
  7
SLDTEXTSTYLE0
 73
     1
 44
1.0
  0
MTEXT
  5
13D
330
1F
100
AcDbEntity
  8
0
  6
Continuous
 62
     7
370
     0
100
AcDbMText
 10
823.5592003829
 20
23.0161842784
 30
0.0
 40
3.7041666667
 41
0.0
 71
     1
 72
     1
  1
1  OF  3
  7
SLDTEXTSTYLE0
 73
     1
 44
1.0
  0
MTEXT
  5
13E
330
1F
100
AcDbEntity
  8
0
  6
Continuous
 62
     7
370
     0
100
AcDbMText
 10
746.7323009597
 20
22.8437594925
 30
0.0
 40
3.556
 41
0.0
 71
     2
 72
     1
  1
1:2
  7
SLDTEXTSTYLE0
 73
     1
 44
1.0
  0
MTEXT
  5
13F
330
1F
100
AcDbEntity
  8
0
  6
Continuous
 62
     7
370
     0
100
AcDbMText
 10
682.1772990516
 20
75.3103156625
 30
0.0
 40
2.6458333333
 41
0.0
 71
     1
 72
     1
  1
APPROVALS
  7
SLDTEXTSTYLE0
 73
     1
 44
1.0
  0
MTEXT
  5
140
330
1F
100
AcDbEntity
  8
0
  6
Continuous
 62
     7
370
     0
100
AcDbMText
 10
592.7354064203
 20
24.8393822778
 30
0.0
 40
3.175
 41
0.0
 71
     1
 72
     1
  1
PROJECTION SYMBOL
  7
SLDTEXTSTYLE0
 73
     1
 44
1.0
  0
INSERT
  5
147
330
1F
100
AcDbEntity
  8
0
  6
Continuous
 62
     7
370
     0
100
AcDbBlockReference
  2
SW_NOTE_0_3
 10
638.2468476512
 20
61.8160885603
 30
0.0
  0
INSERT
  5
150
330
1F
100
AcDbEntity
  8
0
  6
Continuous
 62
     7
370
     0
100
AcDbBlockReference
  2
SW_NOTE_0_4
 10
597.9698078925
 20
61.8160885603
 30
0.0
  0
MTEXT
  5
151
330
1F
100
AcDbEntity
  8
0
  6
Continuous
 62
     7
370
     0
100
AcDbMText
 10
67.944147644
 20
546.6480712239
 30
0.0
 40
4.7625
 41
0.0
 71
     1
 72
     1
  1
8
  7
SLDTEXTSTYLE0
 73
     1
 44
1.0
  0
INSERT
  5
158
330
1F
100
AcDbEntity
  8
0
  6
Continuous
 62
     7
370
     0
100
AcDbBlockReference
  2
SW_NOTE_0_5
 10
736.5857054243
 20
62.087351624
 30
0.0
  0
MTEXT
  5
159
330
1F
100
AcDbEntity
  8
0
  6
Continuous
 62
     7
370
     0
100
AcDbMText
 10
835.0890379196
 20
32.1777370848
 30
0.0
 40
6.35
 41
0.0
 71
     2
 72
     1
  1
A
  7
SLDTEXTSTYLE0
 73
     1
 44
1.0
  0
MTEXT
  5
15A
330
1F
100
AcDbEntity
  8
0
  6
Continuous
 62
     7
370
     0
100
AcDbMText
 10
67.7761843366
 20
16.7592836782
 30
0.0
 40
4.7625
 41
0.0
 71
     1
 72
     1
  1
8
  7
SLDTEXTSTYLE0
 73
     1
 44
1.0
  0
MTEXT
  5
15B
330
1F
100
AcDbEntity
  8
0
  6
Continuous
 62
     7
370
     0
100
AcDbMText
 10
171.3588469983
 20
16.8315671061
 30
0.0
 40
4.7625
 41
0.0
 71
     1
 72
     1
  1
7
  7
SLDTEXTSTYLE0
 73
     1
 44
1.0
  0
MTEXT
  5
15C
330
1F
100
AcDbEntity
  8
0
  6
Continuous
 62
     7
370
     0
100
AcDbMText
 10
274.8985307608
 20
16.9129951712
 30
0.0
 40
4.7625
 41
0.0
 71
     1
 72
     1
  1
6
  7
SLDTEXTSTYLE0
 73
     1
 44
1.0
  0
MTEXT
  5
15D
330
1F
100
AcDbEntity
  8
0
  6
Continuous
 62
     7
370
     0
100
AcDbMText
 10
378.4160175024
 20
16.7716636708
 30
0.0
 40
4.7625
 41
0.0
 71
     1
 72
     1
  1
5
  7
SLDTEXTSTYLE0
 73
     1
 44
1.0
  0
MTEXT
  5
15E
330
1F
100
AcDbEntity
  8
0
  6
Continuous
 62
     7
370
     0
100
AcDbMText
 10
481.8362164345
 20
16.8241970873
 30
0.0
 40
4.7625
 41
0.0
 71
     1
 72
     1
  1
4
  7
SLDTEXTSTYLE0
 73
     1
 44
1.0
  0
MTEXT
  5
15F
330
1F
100
AcDbEntity
  8
0
  6
Continuous
 62
     7
370
     0
100
AcDbMText
 10
585.2668238139
 20
16.7624653566
 30
0.0
 40
4.7625
 41
0.0
 71
     1
 72
     1
  1
3
  7
SLDTEXTSTYLE0
 73
     1
 44
1.0
  0
MTEXT
  5
160
330
1F
100
AcDbEntity
  8
0
  6
Continuous
 62
     7
370
     0
100
AcDbMText
 10
688.8634389669
 20
16.8679362557
 30
0.0
 40
4.7625
 41
0.0
 71
     1
 72
     1
  1
2
  7
SLDTEXTSTYLE0
 73
     1
 44
1.0
  0
MTEXT
  5
161
330
1F
100
AcDbEntity
  8
0
  6
Continuous
 62
     7
370
     0
100
AcDbMText
 10
792.3915769235
 20
16.7025094057
 30
0.0
 40
4.7625
 41
0.0
 71
     1
 72
     1
  1
1
  7
SLDTEXTSTYLE0
 73
     1
 44
1.0
  0
MTEXT
  5
162
330
1F
100
AcDbEntity
  8
0
  6
Continuous
 62
     7
370
     0
100
AcDbMText
 10
596.3851348475
 20
33.1835015171
 30
0.0
 40
3.175
 41
0.0
 71
     1
 72
     1
  1
DO  NOT  SCALE  DRAWING
  7
SLDTEXTSTYLE0
 73
     1
 44
1.0
  0
MTEXT
  5
163
330
1F
100
AcDbEntity
  8
0
  6
Continuous
 62
     7
370
     0
100
AcDbMText
 10
592.8448218548
 20
44.0912828052
 30
0.0
 40
2.6458333333
 41
0.0
 71
     1
 72
     1
  1
FINISH
  7
SLDTEXTSTYLE0
 73
     1
 44
1.0
  0
MTEXT
  5
164
330
1F
100
AcDbEntity
  8
0
  6
Continuous
 62
     7
370
     0
100
AcDbMText
 10
592.6633205219
 20
53.1953724323
 30
0.0
 40
2.6458333333
 41
0.0
 71
     1
 72
     1
  1
MATERIAL
  7
SLDTEXTSTYLE0
 73
     1
 44
1.0
  0
MTEXT
  5
165
330
1F
100
AcDbEntity
  8
0
  6
Continuous
 62
     7
370
     0
100
AcDbMText
 10
601.6886717457
 20
71.6714992177
 30
0.0
 40
2.6458333333
 41
0.0
 71
     1
 72
     1
  1
DECIMALS                 ANGLES
  7
SLDTEXTSTYLE0
 73
     1
 44
1.0
  0
MTEXT
  5
166
330
1F
100
AcDbEntity
  8
0
  6
Continuous
 62
     7
370
     0
100
AcDbMText
 10
595.7579078884
 20
79.9530029733
 30
0.0
 40
3.175
 41
0.0
 71
     1
 72
     1
  1
TOLERANCES  ARE:
  7
SLDTEXTSTYLE0
 73
     1
 44
1.0
  0
MTEXT
  5
167
330
1F
100
AcDbEntity
  8
0
  6
Continuous
 62
     7
370
     0
100
AcDbMText
 10
660.9163968145
 20
29.5712043791
 30
0.0
 40
2.6458333333
 41
0.0
 71
     1
 72
     1
  1
MFG ENGINEER
  7
SLDTEXTSTYLE0
 73
     1
 44
1.0
  0
MTEXT
  5
168
330
1F
100
AcDbEntity
  8
0
  6
Continuous
 62
     7
370
     0
100
AcDbMText
 10
660.9163968145
 20
43.2161066649
 30
0.0
 40
2.6458333333
 41
0.0
 71
     1
 72
     1
  1
TECH DIRECTOR
  7
SLDTEXTSTYLE0
 73
     1
 44
1.0
  0
MTEXT
  5
169
330
1F
100
AcDbEntity
  8
0
  6
Continuous
 62
     7
370
     0
100
AcDbMText
 10
660.9163968145
 20
56.6450739991
 30
0.0
 40
2.6458333333
 41
0.0
 71
     1
 72
     1
  1
MECH ENGINEER
  7
SLDTEXTSTYLE0
 73
     1
 44
1.0
  0
MTEXT
  5
16A
330
1F
100
AcDbEntity
  8
0
  6
Continuous
 62
     7
370
     0
100
AcDbMText
 10
660.9163968145
 20
70.3327149453
 30
0.0
 40
2.6458333333
 41
0.0
 71
     1
 72
     1
  1
DRAWN BY
  7
SLDTEXTSTYLE0
 73
     1
 44
1.0
  0
MTEXT
  5
16B
330
1F
100
AcDbEntity
  8
0
  6
Continuous
 62
     7
370
     0
100
AcDbMText
 10
811.8237811206
 20
23.008513856
 30
0.0
 40
2.6458333333
 41
0.0
 71
     1
 72
     1
  1
SHEET:
  7
SLDTEXTSTYLE0
 73
     1
 44
1.0
  0
MTEXT
  5
16C
330
1F
100
AcDbEntity
  8
0
  6
Continuous
 62
     7
370
     0
100
AcDbMText
 10
731.1971915747
 20
30.4677761734
 30
0.0
 40
3.7041666667
 41
0.0
 71
     1
 72
     1
  1
B
  7
SLDTEXTSTYLE0
 73
     1
 44
1.0
  0
MTEXT
  5
16D
330
1F
100
AcDbEntity
  8
0
  6
Continuous
 62
     7
370
     0
100
AcDbMText
 10
762.8747160102
 20
35.7710989182
 30
0.0
 40
2.6458333333
 41
0.0
 71
     1
 72
     1
  1
DWG.  NO.
  7
SLDTEXTSTYLE0
 73
     1
 44
1.0
  0
MTEXT
  5
16E
330
1F
100
AcDbEntity
  8
0
  6
Continuous
 62
     7
370
     0
100
AcDbMText
 10
752.8418251795
 20
23.008513856
 30
0.0
 40
2.6458333333
 41
0.0
 71
     1
 72
     1
  1
CAD FILE:
  7
SLDTEXTSTYLE0
 73
     1
 44
1.0
  0
MTEXT
  5
16F
330
1F
100
AcDbEntity
  8
0
  6
Continuous
 62
     7
370
     0
100
AcDbMText
 10
729.3779100019
 20
35.7710989182
 30
0.0
 40
2.6458333333
 41
0.0
 71
     1
 72
     1
  1
SIZE
  7
SLDTEXTSTYLE0
 73
     1
 44
1.0
  0
MTEXT
  5
170
330
1F
100
AcDbEntity
  8
0
  6
Continuous
 62
     7
370
     0
100
AcDbMText
 10
729.6544009966
 20
23.008513856
 30
0.0
 40
2.6458333333
 41
0.0
 71
     1
 72
     1
  1
SCALE:  
  7
SLDTEXTSTYLE0
 73
     1
 44
1.0
  0
MTEXT
  5
171
330
1F
100
AcDbEntity
  8
0
  6
Continuous
 62
     7
370
     0
100
AcDbMText
 10
11.4696716321
 20
478.4508072522
 30
0.0
 40
4.7625
 41
0.0
 71
     1
 72
     1
  1
D
  7
SLDTEXTSTYLE0
 73
     1
 44
1.0
  0
MTEXT
  5
172
330
1F
100
AcDbEntity
  8
0
  6
Continuous
 62
     7
370
     0
100
AcDbMText
 10
11.4794853763
 20
347.6322123788
 30
0.0
 40
4.7625
 41
0.0
 71
     1
 72
     1
  1
C
  7
SLDTEXTSTYLE0
 73
     1
 44
1.0
  0
MTEXT
  5
173
330
1F
100
AcDbEntity
  8
0
  6
Continuous
 62
     7
370
     0
100
AcDbMText
 10
11.4785739269
 20
216.8638453104
 30
0.0
 40
4.7625
 41
0.0
 71
     1
 72
     1
  1
B
  7
SLDTEXTSTYLE0
 73
     1
 44
1.0
  0
MTEXT
  5
174
330
1F
100
AcDbEntity
  8
0
  6
Continuous
 62
     7
370
     0
100
AcDbMText
 10
11.4973888207
 20
86.1195570852
 30
0.0
 40
4.7625
 41
0.0
 71
     1
 72
     1
  1
A
  7
SLDTEXTSTYLE0
 73
     1
 44
1.0
  0
INSERT
  5
19D
330
1F
100
AcDbEntity
  8
SLD-0
100
AcDbBlockReference
  2
SW_TABLEANNOTATION_0
 10
560.0055092103
 20
541.0189283994
 30
0.0
  0
LINE
  5
19E
330
1F
100
AcDbEntity
  8
0
  6
Continuous
 62
     7
370
    25
100
AcDbLine
 10
179.7614831963
 20
205.9607554026
 30
0.0
 11
146.7666515575
 21
197.9620083386
 31
0.0
  0
SPLINE
  5
19F
330
1F
100
AcDbEntity
  8
0
  6
Continuous
 62
     7
370
    25
100
AcDbSpline
210
0.0
220
0.0
230
1.0
 70
    24
 71
     3
 72
    15
 73
    11
 74
     0
 42
0.00000001
 43
0.00000001
 40
0.0
 40
0.0
 40
0.0
 40
0.0
 40
0.1458112652656028
 40
0.2854386936690301
 40
0.4188787237526178
 40
0.5462197530140568
 40
0.6676532124448425
 40
0.7834761113368561
 40
0.8940906759968441
 40
1.0
 40
1.0
 40
1.0
 40
1.0
 10
297.2614831963143
 20
197.9607554025895
 30
0.0
 10
295.8993058077896
 20
198.29098022405
 30
0.0
 10
293.2327207972439
 20
198.9374250750913
 30
0.0
 10
289.1032012137302
 20
199.9385207317008
 30
0.0
 10
284.983486260075
 20
200.9372395083444
 30
0.0
 10
280.8592332492212
 20
201.9370584200666
 30
0.0
 10
276.7348702442798
 20
202.9369039970221
 30
0.0
 10
272.6042707547158
 20
203.9382614490376
 30
0.0
 10
268.4844123697011
 20
204.9370149969199
 30
0.0
 10
265.6485846377823
 20
205.6244883864759
 30
0.0
 10
264.2614831963143
 20
205.9607554025895
 30
0.0
  0
SPLINE
  5
1A0
330
1F
100
AcDbEntity
  8
0
  6
Continuous
 62
     7
370
    25
100
AcDbSpline
210
0.0
220
0.0
230
1.0
 70
     8
 71
     3
 72
    19
 73
    15
 74
     0
 42
0.00000001
 43
0.00000001
 40
0.0
 40
0.0
 40
0.0
 40
0.0
 40
0.0480161503342147
 40
0.1421003439050167
 40
0.2357478701517339
 40
0.3284423639143839
 40
0.4197952415804654
 40
0.5095254185913578
 40
0.5975906349641753
 40
0.6844231481822648
 40
0.7713197650621915
 40
0.859998006102587
 40
0.95483597553618
 40
1.0
 40
1.0
 40
1.0
 40
1.0
 10
189.2614831963143
 20
230.1785172722315
 30
0.0
 10
189.1179997453947
 20
230.1802820516859
 30
0.0
 10
188.6933707907943
 20
230.1855047895701
 30
0.0
 10
187.9950753396021
 20
230.2444591750004
 30
0.0
 10
187.1980953239274
 20
230.3753760084053
 30
0.0
 10
186.4634279602084
 20
230.5634958942248
 30
0.0
 10
185.8140082304255
 20
230.7960318357761
 30
0.0
 10
185.2687752173184
 20
231.0573465436709
 30
0.0
 10
184.8413424232447
 20
231.3271885826302
 30
0.0
 10
184.537737284951
 20
231.5813918974851
 30
0.0
 10
184.3543552561097
 20
231.7929732373819
 30
0.0
 10
184.2732816716022
 20
231.933896616279
 30
0.0
 10
184.261377301391
 20
231.9820522664546
 30
0.0
 10
184.2617714359688
 20
231.9798694441122
 30
0.0
 10
184.2618985820417
 20
231.979165275272
 30
0.0
  0
SPLINE
  5
1A1
330
1F
100
AcDbEntity
  8
0
  6
Continuous
 62
     7
370
    25
100
AcDbSpline
210
0.0
220
0.0
230
1.0
 70
     8
 71
     3
 72
    19
 73
    15
 74
     0
 42
0.00000001
 43
0.00000001
 40
0.0
 40
0.0
 40
0.0
 40
0.0
 40
0.0036383858023241
 40
0.1161470870377437
 40
0.2052287919952665
 40
0.2889431951057396
 40
0.3770404443659451
 40
0.4639828371229287
 40
0.5515218108489698
 40
0.6405116748028498
 40
0.731164930254747
 40
0.8232983721398672
 40
0.9165549377959733
 40
1.0
 40
1.0
 40
1.0
 40
1.0
 10
259.7615787601503
 20
231.9826112503914
 30
0.0
 10
259.7615814298816
 20
231.9826770340711
 30
0.0
 10
259.7616666549051
 20
231.9847770265363
 30
0.0
 10
259.7613160047479
 20
231.9638947875553
 30
0.0
 10
259.6994508622143
 20
231.8394971347222
 30
0.0
 10
259.5493448096785
 20
231.6477671213982
 30
0.0
 10
259.2854129266302
 20
231.4058734427447
 30
0.0
 10
258.895668984804
 20
231.1390161439417
 30
0.0
 10
258.3937589860132
 20
230.8770628149663
 30
0.0
 10
257.7884149625987
 20
230.6378750561174
 30
0.0
 10
257.0930512110573
 20
230.4362213701408
 30
0.0
 10
256.3258284658469
 20
230.2860545274647
 30
0.0
 10
255.5393045342608
 20
230.1945673783979
 30
0.0
 10
255.010978394245
 20
230.1836655295747
 30
0.0
 10
254.7614831963143
 20
230.1785172722314
 30
0.0
  0
LINE
  5
1A2
330
1F
100
AcDbEntity
  8
0
  6
Continuous
 62
     7
370
    25
100
AcDbLine
 10
254.7614831963
 20
230.1785172722
 30
0.0
 11
189.2614831963
 21
230.1785172722
 31
0.0
  0
SPLINE
  5
1A3
330
1F
100
AcDbEntity
  8
0
  6
Continuous
 62
     7
370
    25
100
AcDbSpline
210
0.0
220
0.0
230
1.0
 70
     8
 71
     3
 72
     9
 73
     5
 74
     0
 42
0.00000001
 43
0.00000001
 40
0.0
 40
0.0
 40
0.0
 40
0.0
 40
0.4996527734836631
 40
1.0
 40
1.0
 40
1.0
 40
1.0
 10
181.3173352953548
 20
206.1373180173655
 30
0.0
 10
181.3716340651679
 20
206.1083753825847
 30
0.0
 10
181.4803070730941
 20
206.0504498864866
 30
0.0
 10
181.5899104961785
 20
205.9906674025976
 30
0.0
 10
181.6447502649355
 20
205.9607554025894
 30
0.0
  0
SPLINE
  5
1A4
330
1F
100
AcDbEntity
  8
0
  6
Continuous
 62
     7
370
    25
100
AcDbSpline
210
0.0
220
0.0
230
1.0
 70
     8
 71
     3
 72
     9
 73
     5
 74
     0
 42
0.00000001
 43
0.00000001
 40
0.0
 40
0.0
 40
0.0
 40
0.0
 40
0.5003472265163179
 40
1.0
 40
1.0
 40
1.0
 40
1.0
 10
262.378216127693
 20
205.9607554025895
 30
0.0
 10
262.43305589645
 20
205.9906674025976
 30
0.0
 10
262.5426593195345
 20
206.0504498864867
 30
0.0
 10
262.6513323274606
 20
206.1083753825847
 30
0.0
 10
262.7056310972738
 20
206.1373180173655
 30
0.0
  0
LINE
  5
1A5
330
1F
100
AcDbEntity
  8
0
  6
Continuous
 62
     7
370
    25
100
AcDbLine
 10
158.7614831966
 20
195.4607554026
 30
0.0
 11
146.7614831963
 21
195.4607554026
 31
0.0
  0
LINE
  5
1A6
330
1F
100
AcDbEntity
  8
0
  6
Continuous
 62
     7
370
    25
100
AcDbLine
 10
146.7614831963
 20
195.4607554026
 30
0.0
 11
146.7614831963
 21
197.9607554026
 31
0.0
  0
SPLINE
  5
1A7
330
1F
100
AcDbEntity
  8
0
  6
Continuous
 62
     7
370
    25
100
AcDbSpline
210
0.0
220
0.0
230
1.0
 70
    24
 71
     3
 72
    15
 73
    11
 74
     0
 42
0.00000001
 43
0.00000001
 40
0.0
 40
0.0
 40
0.0
 40
0.0
 40
0.1250000000000007
 40
0.2500000000000004
 40
0.3750000000000006
 40
0.500000000000001
 40
0.6250000000000014
 40
0.7500000000000018
 40
0.8750000000000027
 40
0.9999999999999999
 40
0.9999999999999999
 40
0.9999999999999999
 40
0.9999999999999999
 10
158.7614831965999
 20
197.9607554025895
 30
0.0
 10
157.9760891749892
 20
197.9607554025895
 30
0.0
 10
156.4053011317678
 20
197.9607554025895
 30
0.0
 10
154.1397082701529
 20
197.9607554025895
 30
0.0
 10
152.051557835708
 20
197.9607554025895
 30
0.0
 10
150.2219027874356
 20
197.9607554025895
 30
0.0
 10
148.7180419465388
 20
197.9607554025895
 30
0.0
 10
147.6090165178168
 20
197.9607554025895
 30
0.0
 10
146.8954648185616
 20
197.9607554025895
 30
0.0
 10
146.8061437370634
 20
197.9607554025895
 30
0.0
 10
146.7614831963143
 20
197.9607554025895
 30
0.0
  0
LINE
  5
1A8
330
1F
100
AcDbEntity
  8
0
  6
Continuous
 62
     7
370
    25
100
AcDbLine
 10
285.2614831963
 20
195.4607554026
 30
0.0
 11
158.7614831966
 21
195.4607554026
 31
0.0
  0
LINE
  5
1A9
330
1F
100
AcDbEntity
  8
0
  6
Continuous
 62
     7
370
    25
100
AcDbLine
 10
285.2614831963
 20
197.9607554026
 30
0.0
 11
158.7614831966
 21
197.9607554026
 31
0.0
  0
LINE
  5
1AA
330
1F
100
AcDbEntity
  8
0
  6
Continuous
 62
     7
370
    25
100
AcDbLine
 10
297.2614831963
 20
195.4607554026
 30
0.0
 11
297.2614831963
 21
197.9607554026
 31
0.0
  0
LINE
  5
1AB
330
1F
100
AcDbEntity
  8
0
  6
Continuous
 62
     7
370
    25
100
AcDbLine
 10
297.2614831963
 20
195.4607554026
 30
0.0
 11
285.2614831963
 21
195.4607554026
 31
0.0
  0
SPLINE
  5
1AC
330
1F
100
AcDbEntity
  8
0
  6
Continuous
 62
     7
370
    25
100
AcDbSpline
210
0.0
220
0.0
230
1.0
 70
    24
 71
     3
 72
    15
 73
    11
 74
     0
 42
0.00000001
 43
0.00000001
 40
0.0
 40
0.0
 40
0.0
 40
0.0
 40
0.1249999999999999
 40
0.249999999999999
 40
0.3749999999999992
 40
0.4999999999999983
 40
0.6249999999999989
 40
0.7499999999999987
 40
0.8749999999999986
 40
1.0
 40
1.0
 40
1.0
 40
1.0
 10
297.2614831963143
 20
197.9607554025895
 30
0.0
 10
297.2168226555358
 20
197.9607554025895
 30
0.0
 10
297.1275015739789
 20
197.9607554025894
 30
0.0
 10
296.4139498746872
 20
197.9607554025894
 30
0.0
 10
295.3049244459662
 20
197.9607554025894
 30
0.0
 10
293.8010636051078
 20
197.9607554025894
 30
0.0
 10
291.9714085569043
 20
197.9607554025894
 30
0.0
 10
289.88325812255
 20
197.9607554025894
 30
0.0
 10
287.6176652610383
 20
197.9607554025894
 30
0.0
 10
286.0468772178842
 20
197.9607554025895
 30
0.0
 10
285.2614831963072
 20
197.9607554025895
 30
0.0
  0
SPLINE
  5
1AD
330
1F
100
AcDbEntity
  8
0
  6
Continuous
 62
     7
370
    25
100
AcDbSpline
210
0.0
220
0.0
230
1.0
 70
    24
 71
     3
 72
    14
 73
    10
 74
     0
 42
0.00000001
 43
0.00000001
 40
0.0
 40
0.0
 40
0.0
 40
0.0
 40
0.1266453711266997
 40
0.2631942332043753
 40
0.4077826673719115
 40
0.5566857849465205
 40
0.7118345978139378
 40
0.8608013325188077
 40
1.0
 40
1.0
 40
1.0
 40
1.0
 10
188.7614831963143
 20
205.9607554025895
 30
0.0
 10
188.1650107919038
 20
205.9607554025895
 30
0.0
 10
186.9254226750249
 20
205.9607554025895
 30
0.0
 10
185.0827292085717
 20
205.9607554025895
 30
0.0
 10
183.3200906133535
 20
205.9607554025895
 30
0.0
 10
181.7711323891619
 20
205.9607554025895
 30
0.0
 10
180.6092734870319
 20
205.9607554025895
 30
0.0
 10
179.8896787317825
 20
205.9607554025895
 30
0.0
 10
179.8032383390152
 20
205.9607554025895
 30
0.0
 10
179.7614831963142
 20
205.9607554025895
 30
0.0
  0
LINE
  5
1AE
330
1F
100
AcDbEntity
  8
0
  6
Continuous
 62
     7
370
    25
100
AcDbLine
 10
255.2614831963
 20
205.9607554026
 30
0.0
 11
188.7614831963
 21
205.9607554026
 31
0.0
  0
SPLINE
  5
1AF
330
1F
100
AcDbEntity
  8
0
  6
Continuous
 62
     7
370
    25
100
AcDbSpline
210
0.0
220
0.0
230
1.0
 70
    24
 71
     3
 72
    14
 73
    10
 74
     0
 42
0.00000001
 43
0.00000001
 40
0.0
 40
0.0
 40
0.0
 40
0.0
 40
0.1326627182286196
 40
0.2743449827971052
 40
0.4220599232186129
 40
0.5711838747092529
 40
0.7233859469369198
 40
0.8670906160005563
 40
1.0
 40
1.0
 40
1.0
 40
1.0
 10
264.2614831963143
 20
205.9607554025895
 30
0.0
 10
264.2235920438577
 20
205.9607554025894
 30
0.0
 10
264.1452335742918
 20
205.9607554025893
 30
0.0
 10
263.4923516113397
 20
205.9607554025893
 30
0.0
 10
262.4171617910922
 20
205.9607554025893
 30
0.0
 10
260.9165571726184
 20
205.9607554025893
 30
0.0
 10
259.1201891631103
 20
205.9607554025893
 30
0.0
 10
257.1905765822597
 20
205.9607554025893
 30
0.0
 10
255.8875636361604
 20
205.9607554025894
 30
0.0
 10
255.2614831963143
 20
205.9607554025895
 30
0.0
  0
LWPOLYLINE
  5
1B0
330
1F
100
AcDbEntity
  8
0
  6
Continuous
 62
     7
370
    25
100
AcDbPolyline
 90
        2
 70
   128
 43
0.0
 10
264.2614831963
 20
205.9607554026
 10
264.2614831963
 20
205.9607554026
  0
LWPOLYLINE
  5
1B1
330
1F
100
AcDbEntity
  8
0
  6
Continuous
 62
     7
370
    25
100
AcDbPolyline
 90
        2
 70
   128
 43
0.0
 10
146.7614831963
 20
197.9607554026
 10
146.7614831963
 20
197.9607554026
  0
LWPOLYLINE
  5
1B2
330
1F
100
AcDbEntity
  8
0
  6
Continuous
 62
     7
370
    25
100
AcDbPolyline
 90
        2
 70
   128
 43
0.0
 10
297.2614831963
 20
197.9607554026
 10
297.2614831963
 20
197.9607554026
  0
LWPOLYLINE
  5
1B3
330
1F
100
AcDbEntity
  8
0
  6
Continuous
 62
     7
370
    25
100
AcDbPolyline
 90
       13
 70
   128
 43
0.0
 10
189.2614831963
 20
226.6541522035
 10
187.9562212741
 20
226.7032224628
 10
186.6732927453
 20
226.8495936348
 10
185.4346488727
 20
227.0907612683
 10
184.2614831963
 20
227.4225989181
 10
183.1738689062
 20
227.8394287501
 10
182.1904153844
 20
228.3341186903
 10
181.3279497934
 20
228.8982044566
 10
180.6012291585
 20
229.5220343853
 10
180.0226878712
 20
230.1949345731
 10
179.6022249334
 20
230.9053915115
 10
179.3470345826
 20
231.6412490852
 10
179.2614831963
 20
232.389916567
  0
LINE
  5
1B4
330
1F
100
AcDbEntity
  8
0
  6
Continuous
 62
     7
370
    25
100
AcDbLine
 10
179.2614831963
 20
232.389916567
 30
0.0
 11
179.2614831963
 21
234.0282206556
 31
0.0
  0
LWPOLYLINE
  5
1B5
330
1F
100
AcDbEntity
  8
0
  6
Continuous
 62
     7
370
    25
100
AcDbPolyline
 90
       13
 70
   128
 43
0.0
 10
189.2614831963
 20
228.2924562921
 10
187.9562212741
 20
228.3415265513
 10
186.6732927453
 20
228.4878977234
 10
185.4346488727
 20
228.7290653568
 10
184.2614831963
 20
229.0609030067
 10
183.1738689062
 20
229.4777328387
 10
182.1904153844
 20
229.9724227789
 10
181.3279497934
 20
230.5365085452
 10
180.6012291585
 20
231.1603384738
 10
180.0226878712
 20
231.8332386617
 10
179.6022249334
 20
232.5436956001
 10
179.3470345826
 20
233.2795531737
 10
179.2614831963
 20
234.0282206556
  0
LINE
  5
1B6
330
1F
100
AcDbEntity
  8
0
  6
Continuous
 62
     7
370
    25
100
AcDbLine
 10
264.7614831963
 20
232.389916567
 30
0.0
 11
264.7614831963
 21
234.0282206556
 31
0.0
  0
LWPOLYLINE
  5
1B7
330
1F
100
AcDbEntity
  8
0
  6
Continuous
 62
     7
370
    25
100
AcDbPolyline
 90
       13
 70
   128
 43
0.0
 10
264.7614831963
 20
232.389916567
 10
264.6759318101
 20
231.6412490852
 10
264.4207414592
 20
230.9053915115
 10
264.0002785214
 20
230.1949345731
 10
263.4217372342
 20
229.5220343853
 10
262.6950165992
 20
228.8982044566
 10
261.8325510082
 20
228.3341186903
 10
260.8490974864
 20
227.8394287501
 10
259.7614831963
 20
227.4225989181
 10
258.58831752
 20
227.0907612683
 10
257.3496736473
 20
226.8495936348
 10
256.0667451185
 20
226.7032224628
 10
254.7614831963
 20
226.6541522035
  0
LWPOLYLINE
  5
1B8
330
1F
100
AcDbEntity
  8
0
  6
Continuous
 62
     7
370
    25
100
AcDbPolyline
 90
       13
 70
   128
 43
0.0
 10
264.7614831963
 20
234.0282206556
 10
264.6759318101
 20
233.2795531737
 10
264.4207414592
 20
232.5436956001
 10
264.0002785214
 20
231.8332386617
 10
263.4217372342
 20
231.1603384738
 10
262.6950165992
 20
230.5365085452
 10
261.8325510082
 20
229.9724227789
 10
260.8490974864
 20
229.4777328387
 10
259.7614831963
 20
229.0609030067
 10
258.58831752
 20
228.7290653568
 10
257.3496736473
 20
228.4878977234
 10
256.0667451185
 20
228.3415265513
 10
254.7614831963
 20
228.2924562921
  0
LINE
  5
1B9
330
1F
100
AcDbEntity
  8
0
  6
Continuous
 62
     7
370
    25
100
AcDbLine
 10
254.7614831963
 20
228.2924562921
 30
0.0
 11
189.2614831963
 21
228.2924562921
 31
0.0
  0
LINE
  5
1BA
330
1F
100
AcDbEntity
  8
0
  6
Continuous
 62
     7
370
    25
100
AcDbLine
 10
179.2614831963
 20
234.0282206556
 30
0.0
 11
179.2614831963
 21
259.8391602914
 31
0.0
  0
LWPOLYLINE
  5
1BB
330
1F
100
AcDbEntity
  8
0
  6
Continuous
 62
     7
370
    25
100
AcDbPolyline
 90
       13
 70
   128
 43
0.0
 10
179.2614831963
 20
259.8391602914
 10
179.3470345826
 20
260.5878277732
 10
179.6022249334
 20
261.3236853469
 10
180.0226878712
 20
262.0341422852
 10
180.6012291585
 20
262.7070424731
 10
181.3279497934
 20
263.3308724018
 10
182.1904153844
 20
263.8949581681
 10
183.1738689062
 20
264.3896481083
 10
184.2614831963
 20
264.8064779403
 10
185.4346488727
 20
265.1383155901
 10
186.6732927453
 20
265.3794832236
 10
187.9562212741
 20
265.5258543956
 10
189.2614831963
 20
265.5749246549
  0
LINE
  5
1BC
330
1F
100
AcDbEntity
  8
0
  6
Continuous
 62
     7
370
    25
100
AcDbLine
 10
189.2614831963
 20
265.5749246549
 30
0.0
 11
254.7614831963
 21
265.5749246549
 31
0.0
  0
LWPOLYLINE
  5
1BD
330
1F
100
AcDbEntity
  8
0
  6
Continuous
 62
     7
370
    25
100
AcDbPolyline
 90
       13
 70
   128
 43
0.0
 10
254.7614831963
 20
265.5749246549
 10
256.0667451185
 20
265.5258543956
 10
257.3496736473
 20
265.3794832236
 10
258.58831752
 20
265.1383155901
 10
259.7614831963
 20
264.8064779403
 10
260.8490974864
 20
264.3896481083
 10
261.8325510082
 20
263.8949581681
 10
262.6950165992
 20
263.3308724018
 10
263.4217372342
 20
262.7070424731
 10
264.0002785214
 20
262.0341422852
 10
264.4207414592
 20
261.3236853469
 10
264.6759318101
 20
260.5878277732
 10
264.7614831963
 20
259.8391602914
  0
LINE
  5
1BE
330
1F
100
AcDbEntity
  8
0
  6
Continuous
 62
     7
370
    25
100
AcDbLine
 10
264.7614831963
 20
259.8391602914
 30
0.0
 11
264.7614831963
 21
234.0282206556
 31
0.0
  0
LINE
  5
1BF
330
1F
100
AcDbEntity
  8
0
  6
Continuous
 62
     7
370
    25
100
AcDbLine
 10
254.7614831963
 20
226.6541522035
 30
0.0
 11
189.2614831963
 21
226.6541522035
 31
0.0
  0
LINE
  5
1C0
330
1F
100
AcDbEntity
  8
0
  6
Continuous
 62
     7
370
    25
100
AcDbLine
 10
273.5114831963
 20
193.7607554026
 30
0.0
 11
170.5114831963
 21
193.7607554026
 31
0.0
  0
LINE
  5
1C1
330
1F
100
AcDbEntity
  8
0
  6
Continuous
 62
     7
370
    25
100
AcDbLine
 10
170.5114831963
 20
193.7607554026
 30
0.0
 11
160.3614831963
 21
193.7607554026
 31
0.0
  0
LINE
  5
1C2
330
1F
100
AcDbEntity
  8
0
  6
Continuous
 62
     7
370
    25
100
AcDbLine
 10
160.3614831963
 20
193.7607554026
 30
0.0
 11
160.3614831963
 21
195.4607554026
 31
0.0
  0
LINE
  5
1C3
330
1F
100
AcDbEntity
  8
0
  6
Continuous
 62
     7
370
    25
100
AcDbLine
 10
283.6614831963
 20
193.7607554026
 30
0.0
 11
283.6614831963
 21
195.4607554026
 31
0.0
  0
LINE
  5
1C4
330
1F
100
AcDbEntity
  8
0
  6
Continuous
 62
     7
370
    25
100
AcDbLine
 10
283.6614831963
 20
193.7607554026
 30
0.0
 11
273.5114831963
 21
193.7607554026
 31
0.0
  0
LINE
  5
1C5
330
1F
100
AcDbEntity
  8
0
  6
Continuous
 62
     7
370
    25
100
AcDbLine
 10
189.2614831963
 20
205.9620626966
 30
0.0
 11
254.7614831963
 21
205.9620626966
 31
0.0
  0
SPLINE
  5
1C6
330
1F
100
AcDbEntity
  8
0
  6
Continuous
 62
     7
370
    25
100
AcDbSpline
210
0.0
220
0.0
230
1.0
 70
     8
 71
     3
 72
    19
 73
    15
 74
     0
 42
0.00000001
 43
0.00000001
 40
0.0
 40
0.0
 40
0.0
 40
0.0
 40
0.0794374871211215
 40
0.1360898222897423
 40
0.2072564913819468
 40
0.2706003078132123
 40
0.3643476210828751
 40
0.4506472472120742
 40
0.5296153561529539
 40
0.6551679132037913
 40
0.7143823680974355
 40
0.771356609251002
 40
0.887353044285587
 40
1.0
 40
1.0
 40
1.0
 40
1.0
 10
181.2614831963142
 20
206.1607554025894
 30
0.0
 10
181.2713414969876
 20
206.1529960738818
 30
0.0
 10
181.2882304298496
 20
206.1397030342455
 30
0.0
 10
181.4158646635366
 20
206.1207747093893
 30
0.0
 10
181.5965836873679
 20
206.1024947601666
 30
0.0
 10
181.8995447452778
 20
206.0820707504709
 30
0.0
 10
182.3298499906523
 20
206.0596047485389
 30
0.0
 10
182.9192327324029
 20
206.0380563230727
 30
0.0
 10
183.7144567791525
 20
206.0168079746997
 30
0.0
 10
184.5874513112505
 20
205.9979437622746
 30
0.0
 10
185.4967610089813
 20
205.9848552579048
 30
0.0
 10
186.4307639612306
 20
205.9743684923384
 30
0.0
 10
187.6813480007106
 20
205.9637972619098
 30
0.0
 10
188.7399406995914
 20
205.9626352106158
 30
0.0
 10
189.2614831963143
 20
205.9620626966226
 30
0.0
  0
LINE
  5
1C7
330
1F
100
AcDbEntity
  8
0
  6
Continuous
 62
     7
370
    25
100
AcDbLine
 10
181.2614831963
 20
206.1607554026
 30
0.0
 11
181.2614831963
 21
228.9484579489
 31
0.0
  0
LINE
  5
1C8
330
1F
100
AcDbEntity
  8
0
  6
Continuous
 62
     7
370
    25
100
AcDbLine
 10
262.7614831963
 20
206.1607554026
 30
0.0
 11
262.7614831963
 21
228.9484579489
 31
0.0
  0
SPLINE
  5
1C9
330
1F
100
AcDbEntity
  8
0
  6
Continuous
 62
     7
370
    25
100
AcDbSpline
210
0.0
220
0.0
230
1.0
 70
     8
 71
     3
 72
    20
 73
    16
 74
     0
 42
0.00000001
 43
0.00000001
 40
0.0
 40
0.0
 40
0.0
 40
0.0
 40
0.112620954173241
 40
0.1701734753413323
 40
0.228788549010201
 40
0.3447857886150379
 40
0.4063762239509956
 40
0.4704860249520184
 40
0.5538611972108745
 40
0.6396161202834217
 40
0.7294533540068281
 40
0.7927756967500437
 40
0.8639371662372061
 40
0.9205718167999509
 40
1.0
 40
1.0
 40
1.0
 40
1.0
 10
254.7614831963143
 20
205.9620626966326
 30
0.0
 10
255.2833209775797
 20
205.9626222182712
 30
0.0
 10
256.0718327554655
 20
205.9634676714327
 30
0.0
 10
257.0862468841918
 20
205.9701460259466
 30
0.0
 10
258.073594618229
 20
205.9792418855956
 30
0.0
 10
258.99876795202
 20
205.9908192479955
 30
0.0
 10
259.8352796269439
 20
206.0064779721327
 30
0.0
 10
260.4899554497215
 20
206.0215098386736
 30
0.0
 10
261.1257839703912
 20
206.0393982646723
 30
0.0
 10
261.7088684495254
 20
206.0610096415756
 30
0.0
 10
262.128542151621
 20
206.0823015713675
 30
0.0
 10
262.4263804646488
 20
206.1025246559971
 30
0.0
 10
262.6070884885357
 20
206.1207665809597
 30
0.0
 10
262.7347339113641
 20
206.139705059482
 30
0.0
 10
262.7516236340205
 20
206.152996422506
 30
0.0
 10
262.7614831963143
 20
206.1607554025894
 30
0.0
  0
LINE
  5
1CA
330
1F
100
AcDbEntity
  8
0
  6
Continuous
 62
     7
370
    25
100
AcDbLine
 10
259.7614831963
 20
231.9803405449
 30
0.0
 11
259.7614831963
 21
257.7912801807
 31
0.0
  0
LINE
  5
1CB
330
1F
100
AcDbEntity
  8
0
  6
Continuous
 62
     7
370
    25
100
AcDbLine
 10
184.2614831963
 20
257.7912801807
 30
0.0
 11
184.2614831963
 21
231.9803405449
 31
0.0
  0
LINE
  5
1CC
330
1F
100
AcDbEntity
  8
0
  6
Continuous
 62
     7
370
    25
100
AcDbLine
 10
184.4609280233
 20
240.4252568417
 30
0.0
 11
184.4609280233
 21
231.6815585886
 31
0.0
  0
LWPOLYLINE
  5
1CD
330
1F
100
AcDbEntity
  8
0
  6
Continuous
 62
     7
370
    25
100
AcDbPolyline
 90
        9
 70
   128
 43
0.0
 10
189.2614831963
 20
243.1787421704
 10
188.3249413418
 20
243.1258347219
 10
187.4243902654
 20
242.9691455799
 10
186.5944376402
 20
242.7146962204
 10
185.86697808
 20
242.3722649895
 10
185.2699674478
 20
241.9550113274
 10
184.8263485273
 20
241.4789700583
 10
184.5531693449
 20
240.9624351812
 10
184.4609280233
 20
240.4252568417
  0
LINE
  5
1CE
330
1F
100
AcDbEntity
  8
0
  6
Continuous
 62
     7
370
    25
100
AcDbLine
 10
254.7614831963
 20
243.1787421704
 30
0.0
 11
189.2614831963
 21
243.1787421704
 31
0.0
  0
LWPOLYLINE
  5
1CF
330
1F
100
AcDbEntity
  8
0
  6
Continuous
 62
     7
370
    25
100
AcDbPolyline
 90
        9
 70
   128
 43
0.0
 10
259.5620383693
 20
240.4252568417
 10
259.4697970478
 20
240.9624351812
 10
259.1966178654
 20
241.4789700583
 10
258.7529989449
 20
241.9550113274
 10
258.1559883126
 20
242.3722649895
 10
257.4285287524
 20
242.7146962204
 10
256.5985761272
 20
242.9691455799
 10
255.6980250509
 20
243.1258347219
 10
254.7614831963
 20
243.1787421704
  0
LINE
  5
1D0
330
1F
100
AcDbEntity
  8
0
  6
Continuous
 62
     7
370
    25
100
AcDbLine
 10
259.5620383693
 20
231.677355322
 30
0.0
 11
259.5620383693
 21
240.4252568417
 31
0.0
  0
LINE
  5
1D1
330
1F
100
AcDbEntity
  8
0
  6
Continuous
 62
     7
370
    25
100
AcDbLine
 10
181.2614831963
 20
206.1607554026
 30
0.0
 11
181.6078933578
 21
205.9607554026
 31
0.0
  0
LINE
  5
1D2
330
1F
100
AcDbEntity
  8
0
  6
Continuous
 62
     7
370
    25
100
AcDbLine
 10
262.4150730348
 20
205.9607554026
 30
0.0
 11
262.7614831963
 21
206.1607554026
 31
0.0
  0
LWPOLYLINE
  5
1D3
330
1F
100
AcDbEntity
  8
0
  6
Continuous
 62
     7
370
    25
100
AcDbPolyline
 90
        3
 70
   128
 43
0.0
 10
259.5620383693
 20
239.5888671833
 10
259.6855219614
 20
239.2849552678
 10
259.7614831963
 20
238.7869527532
  0
LWPOLYLINE
  5
1D4
330
1F
100
AcDbEntity
  8
0
  6
Continuous
 62
     7
370
    25
100
AcDbPolyline
 90
        3
 70
   128
 43
0.0
 10
184.2614831963
 20
238.7869527532
 10
184.3374444313
 20
239.2849552678
 10
184.4609280233
 20
239.5888671833
  0
DIMENSION
  5
1D5
330
1F
100
AcDbEntity
  8
SLD-0
 62
     7
100
AcDbDimension
  2
_D
 10
264.7614831963
 20
285.5749246549
 30
0.0
 11
223.122403415
 21
285.5749246549
 31
0.0
 70
   160
  1
<>
 71
     2
 42
-1.0
  3
SLDDIMSTYLE0
100
AcDbAlignedDimension
 13
179.2614831963
 23
259.8391602914
 33
0.0
 14
264.7614831963
 24
259.8391602914
 34
0.0
100
AcDbRotatedDimension
  0
DIMENSION
  5
1EA
330
1F
100
AcDbEntity
  8
SLD-0
 62
     7
100
AcDbDimension
  2
_D_1
 10
317.2999570913
 20
193.7607554026
 30
0.0
 11
317.2999570913
 21
233.9585941357
 31
0.0
 70
   160
  1
<>
 71
     2
 42
-1.0
  3
SLDDIMSTYLE0
100
AcDbAlignedDimension
 13
254.7614831963
 23
265.5749246549
 33
0.0
 14
283.6614831963
 24
193.7607554026
 34
0.0
 50
90.0
100
AcDbRotatedDimension
  0
DIMENSION
  5
1FE
330
1F
100
AcDbEntity
  8
SLD-0
 62
     7
100
AcDbDimension
  2
_D_2
 10
297.2614831963
 20
164.6145701292
 30
0.0
 11
222.6395959205
 21
164.6145701292
 31
0.0
 70
   160
  1
<>
 71
     2
 42
-1.0
  3
SLDDIMSTYLE0
100
AcDbAlignedDimension
 13
146.7614831963
 23
195.4607554026
 33
0.0
 14
297.2614831963
 24
195.4607554026
 34
0.0
100
AcDbRotatedDimension
  0
LINE
  5
212
330
1F
100
AcDbEntity
  8
SLD-0
  6
CENTERX2
 62
     7
370
    18
100
AcDbLine
 10
222.0114831963
 20
272.2679307897
 30
0.0
 11
222.0114831963
 21
183.92403811
 31
0.0
  0
LINE
  5
213
330
1F
100
AcDbEntity
  8
0
  6
Continuous
 62
     7
370
    25
100
AcDbLine
 10
402.1439044402
 20
205.9607554026
 30
0.0
 11
380.1489023219
 21
197.9625728141
 31
0.0
  0
SPLINE
  5
214
330
1F
100
AcDbEntity
  8
0
  6
Continuous
 62
     7
370
    25
100
AcDbSpline
210
0.0
220
0.0
230
1.0
 70
    24
 71
     3
 72
    13
 73
     9
 74
     0
 42
0.00000001
 43
0.00000001
 40
0.0
 40
0.0
 40
0.0
 40
0.0
 40
0.1418721492673336
 40
0.2912625024653523
 40
0.4502878293918671
 40
0.6206217833584011
 40
0.8035430502839334
 40
1.0
 40
1.0
 40
1.0
 40
1.0
 10
474.9547808924764
 20
197.9607554025895
 30
0.0
 10
474.1691693753107
 20
198.4096762695413
 30
0.0
 10
472.5563145786717
 20
199.3313075819064
 30
0.0
 10
470.2159969404892
 20
200.6686319465822
 30
0.0
 10
467.873574835915
 20
202.0071588634817
 30
0.0
 10
465.5397286694815
 20
203.3407852443009
 30
0.0
 10
463.1984847000585
 20
204.678638941114
 30
0.0
 10
461.7202624605648
 20
205.5233373636818
 30
0.0
 10
460.9547808924764
 20
205.9607554025895
 30
0.0
  0
LWPOLYLINE
  5
215
330
1F
100
AcDbEntity
  8
0
  6
Continuous
 62
     7
370
    25
100
AcDbPolyline
 90
        2
 70
   128
 43
0.0
 10
402.1439044402
 20
205.9607554026
 10
402.1439044402
 20
205.9607554026
  0
SPLINE
  5
216
330
1F
100
AcDbEntity
  8
0
  6
Continuous
 62
     7
370
    25
100
AcDbSpline
210
0.0
220
0.0
230
1.0
 70
    24
 71
     3
 72
    14
 73
    10
 74
     0
 42
0.00000001
 43
0.00000001
 40
0.0
 40
0.0
 40
0.0
 40
0.0
 40
0.1326627182286196
 40
0.2743449827971052
 40
0.4220599232186129
 40
0.5711838747092529
 40
0.7233859469369198
 40
0.8670906160005563
 40
1.0
 40
1.0
 40
1.0
 40
1.0
 10
411.1439044402315
 20
205.9607554025895
 30
0.0
 10
410.5189851820911
 20
205.9607554025894
 30
0.0
 10
409.226659309281
 20
205.9607554025893
 30
0.0
 10
407.3266356689552
 20
205.9607554025893
 30
0.0
 10
405.5498603829573
 20
205.9607554025893
 30
0.0
 10
404.0331642794752
 20
205.9607554025893
 30
0.0
 10
402.9286403431972
 20
205.9607554025893
 30
0.0
 10
402.2612216451851
 20
205.9607554025893
 30
0.0
 10
402.1819793244306
 20
205.9607554025894
 30
0.0
 10
402.1439044402316
 20
205.9607554025895
 30
0.0
  0
LINE
  5
217
330
1F
100
AcDbEntity
  8
0
  6
Continuous
 62
     7
370
    25
100
AcDbLine
 10
451.9547808925
 20
205.9607554026
 30
0.0
 11
411.1439044402
 21
205.9607554026
 31
0.0
  0
SPLINE
  5
218
330
1F
100
AcDbEntity
  8
0
  6
Continuous
 62
     7
370
    25
100
AcDbSpline
210
0.0
220
0.0
230
1.0
 70
    24
 71
     3
 72
    14
 73
    10
 74
     0
 42
0.00000001
 43
0.00000001
 40
0.0
 40
0.0
 40
0.0
 40
0.0
 40
0.1266453710958642
 40
0.2631942331383691
 40
0.4077826672683809
 40
0.5566857848067099
 40
0.7118345976452358
 40
0.860801332389341
 40
1.0
 40
1.0
 40
1.0
 40
1.0
 10
460.9547808924764
 20
205.9607554025895
 30
0.0
 10
460.9202414710974
 20
205.9607554025895
 30
0.0
 10
460.8484616938799
 20
205.9607554025896
 30
0.0
 10
460.2439507874394
 20
205.9607554025893
 30
0.0
 10
459.224861676828
 20
205.9607554025896
 30
0.0
 10
457.7604706175972
 20
205.9607554025894
 30
0.0
 10
455.9548143317162
 20
205.9607554025895
 30
0.0
 10
453.9682531814143
 20
205.9607554025895
 30
0.0
 10
452.6105979805012
 20
205.9607554025895
 30
0.0
 10
451.9547808924764
 20
205.9607554025895
 30
0.0
  0
SPLINE
  5
219
330
1F
100
AcDbEntity
  8
0
  6
Continuous
 62
     7
370
    25
100
AcDbSpline
210
0.0
220
0.0
230
1.0
 70
    24
 71
     3
 72
    15
 73
    11
 74
     0
 42
0.00000001
 43
0.00000001
 40
0.0
 40
0.0
 40
0.0
 40
0.0
 40
0.1249999999999999
 40
0.249999999999999
 40
0.3749999999999992
 40
0.4999999999999983
 40
0.6249999999999989
 40
0.7499999999999987
 40
0.8749999999999986
 40
1.0
 40
1.0
 40
1.0
 40
1.0
 10
392.1439044402316
 20
197.9607554025895
 30
0.0
 10
391.3585104186545
 20
197.9607554025895
 30
0.0
 10
389.7877223755006
 20
197.9607554025894
 30
0.0
 10
387.5221295139892
 20
197.9607554025894
 30
0.0
 10
385.4339790796357
 20
197.9607554025894
 30
0.0
 10
383.604324031433
 20
197.9607554025894
 30
0.0
 10
382.1004631905757
 20
197.9607554025894
 30
0.0
 10
380.9914377618558
 20
197.9607554025894
 30
0.0
 10
380.2778860625655
 20
197.9607554025894
 30
0.0
 10
380.1885649810096
 20
197.9607554025895
 30
0.0
 10
380.1439044402316
 20
197.9607554025895
 30
0.0
  0
LWPOLYLINE
  5
21A
330
1F
100
AcDbEntity
  8
0
  6
Continuous
 62
     7
370
    25
100
AcDbPolyline
 90
        2
 70
   128
 43
0.0
 10
380.1439044402
 20
197.9607554026
 10
380.1439044402
 20
197.9607554026
  0
SPLINE
  5
21B
330
1F
100
AcDbEntity
  8
0
  6
Continuous
 62
     7
370
    25
100
AcDbSpline
210
0.0
220
0.0
230
1.0
 70
    24
 71
     3
 72
    15
 73
    11
 74
     0
 42
0.00000001
 43
0.00000001
 40
0.0
 40
0.0
 40
0.0
 40
0.0
 40
0.1250000000000021
 40
0.2500000000000013
 40
0.3750000000000004
 40
0.5000000000000002
 40
0.6249999999999997
 40
0.7499999999999986
 40
0.8749999999999988
 40
1.0
 40
1.0
 40
1.0
 40
1.0
 10
474.9547808924765
 20
197.9607554025895
 30
0.0
 10
474.910120351708
 20
197.9607554025895
 30
0.0
 10
474.8207992701709
 20
197.9607554025895
 30
0.0
 10
474.1072475708984
 20
197.9607554025895
 30
0.0
 10
472.9982221421881
 20
197.9607554025895
 30
0.0
 10
471.4943613013316
 20
197.9607554025895
 30
0.0
 10
469.6647062531221
 20
197.9607554025895
 30
0.0
 10
467.5765558187557
 20
197.9607554025895
 30
0.0
 10
465.310962957227
 20
197.9607554025895
 30
0.0
 10
463.74017491406
 20
197.9607554025895
 30
0.0
 10
462.9547808924764
 20
197.9607554025894
 30
0.0
  0
LINE
  5
21C
330
1F
100
AcDbEntity
  8
0
  6
Continuous
 62
     7
370
    25
100
AcDbLine
 10
462.9547808925
 20
197.9607554026
 30
0.0
 11
392.1439044402
 21
197.9607554026
 31
0.0
  0
LINE
  5
21D
330
1F
100
AcDbEntity
  8
0
  6
Continuous
 62
     7
370
    25
100
AcDbLine
 10
474.9547808925
 20
195.4607554026
 30
0.0
 11
474.9547808925
 21
197.9607554026
 31
0.0
  0
LINE
  5
21E
330
1F
100
AcDbEntity
  8
0
  6
Continuous
 62
     7
370
    25
100
AcDbLine
 10
474.9547808925
 20
195.4607554026
 30
0.0
 11
462.9547808925
 21
195.4607554026
 31
0.0
  0
LINE
  5
21F
330
1F
100
AcDbEntity
  8
0
  6
Continuous
 62
     7
370
    25
100
AcDbLine
 10
462.9547808925
 20
195.4607554026
 30
0.0
 11
392.1439044402
 21
195.4607554026
 31
0.0
  0
LINE
  5
220
330
1F
100
AcDbEntity
  8
0
  6
Continuous
 62
     7
370
    25
100
AcDbLine
 10
392.1439044402
 20
195.4607554026
 30
0.0
 11
380.1439044402
 21
195.4607554026
 31
0.0
  0
LINE
  5
221
330
1F
100
AcDbEntity
  8
0
  6
Continuous
 62
     7
370
    25
100
AcDbLine
 10
380.1439044402
 20
195.4607554026
 30
0.0
 11
380.1439044402
 21
197.9607554026
 31
0.0
  0
LINE
  5
222
330
1F
100
AcDbEntity
  8
0
  6
Continuous
 62
     7
370
    25
100
AcDbLine
 10
468.3098198297
 20
193.7607554026
 30
0.0
 11
468.3098198297
 21
195.4607554026
 31
0.0
  0
LINE
  5
223
330
1F
100
AcDbEntity
  8
0
  6
Continuous
 62
     7
370
    25
100
AcDbLine
 10
468.3098198297
 20
193.7607554026
 30
0.0
 11
458.1598198297
 21
193.7607554026
 31
0.0
  0
LINE
  5
224
330
1F
100
AcDbEntity
  8
0
  6
Continuous
 62
     7
370
    25
100
AcDbLine
 10
458.1598198297
 20
193.7607554026
 30
0.0
 11
399.9598198297
 21
193.7607554026
 31
0.0
  0
LINE
  5
225
330
1F
100
AcDbEntity
  8
0
  6
Continuous
 62
     7
370
    25
100
AcDbLine
 10
389.8098198297
 20
193.7607554026
 30
0.0
 11
389.8098198297
 21
195.4607554026
 31
0.0
  0
LINE
  5
226
330
1F
100
AcDbEntity
  8
0
  6
Continuous
 62
     7
370
    25
100
AcDbLine
 10
399.9598198297
 20
193.7607554026
 30
0.0
 11
389.8098198297
 21
193.7607554026
 31
0.0
  0
LINE
  5
227
330
1F
100
AcDbEntity
  8
0
  6
Continuous
 62
     7
370
    25
100
AcDbLine
 10
439.9575657103
 20
263.9366205663
 30
0.0
 11
431.7660452674
 21
258.2008562028
 31
0.0
  0
ARC
  5
228
330
1F
100
AcDbEntity
  8
0
  6
Continuous
 62
     7
370
    25
100
AcDbCircle
 10
441.104718583
 20
262.2983164777
 30
0.0
 40
2.000000000000018
100
AcDbArc
 50
125.0
 51
215.0
  0
LINE
  5
229
330
1F
100
AcDbEntity
  8
0
  6
Continuous
 62
     7
370
    25
100
AcDbLine
 10
439.9575657103
 20
263.9366205663
 30
0.0
 11
438.8104128376
 21
265.5749246549
 31
0.0
  0
LINE
  5
22A
330
1F
100
AcDbEntity
  8
0
  6
Continuous
 62
     7
370
    25
100
AcDbLine
 10
438.8104128376
 20
265.5749246549
 30
0.0
 11
430.6188923947
 21
259.8391602914
 31
0.0
  0
LINE
  5
22B
330
1F
100
AcDbEntity
  8
0
  6
Continuous
 62
     7
370
    25
100
AcDbLine
 10
431.7660452674
 20
258.2008562028
 30
0.0
 11
394.9042032744
 21
232.389916567
 31
0.0
  0
LINE
  5
22C
330
1F
100
AcDbEntity
  8
0
  6
Continuous
 62
     7
370
    25
100
AcDbLine
 10
430.6188923947
 20
259.8391602914
 30
0.0
 11
393.7570504017
 21
234.0282206556
 31
0.0
  0
ARC
  5
22D
330
1F
100
AcDbEntity
  8
0
  6
Continuous
 62
     7
370
    25
100
AcDbCircle
 10
387.8598357042
 20
225.0158481149
 30
0.0
 40
2.000000000000035
100
AcDbArc
 50
35.0
 51
125.0
  0
LINE
  5
22E
330
1F
100
AcDbEntity
  8
0
  6
Continuous
 62
     7
370
    25
100
AcDbLine
 10
394.9042032744
 20
232.389916567
 30
0.0
 11
386.7126828315
 21
226.6541522035
 31
0.0
  0
LINE
  5
22F
330
1F
100
AcDbEntity
  8
0
  6
Continuous
 62
     7
370
    25
100
AcDbLine
 10
386.7126828315
 20
226.6541522035
 30
0.0
 11
385.5655299588
 21
228.2924562921
 31
0.0
  0
LINE
  5
230
330
1F
100
AcDbEntity
  8
0
  6
Continuous
 62
     7
370
    25
100
AcDbLine
 10
393.7570504017
 20
234.0282206556
 30
0.0
 11
385.5655299588
 21
228.2924562921
 31
0.0
  0
LINE
  5
231
330
1F
100
AcDbEntity
  8
0
  6
Continuous
 62
     7
370
    25
100
AcDbLine
 10
457.0022535324
 20
207.7522174128
 30
0.0
 11
463.7716104158
 21
212.4921721315
 31
0.0
  0
ARC
  5
232
330
1F
100
AcDbEntity
  8
0
  6
Continuous
 62
     7
370
    25
100
AcDbCircle
 10
451.9547808925
 20
214.9607554026
 30
0.0
 40
8.800000000000011
100
AcDbArc
 50
270.0
 51
305.0
  0
LINE
  5
233
330
1F
100
AcDbEntity
  8
0
  6
Continuous
 62
     7
370
    25
100
AcDbLine
 10
413.2700596427
 20
206.1607554026
 30
0.0
 11
451.9547808925
 21
206.1607554026
 31
0.0
  0
LINE
  5
234
330
1F
100
AcDbEntity
  8
0
  6
Continuous
 62
     7
370
    25
100
AcDbLine
 10
413.2700596427
 20
205.9607554026
 30
0.0
 11
413.2700596427
 21
206.1607554026
 31
0.0
  0
LINE
  5
235
330
1F
100
AcDbEntity
  8
0
  6
Continuous
 62
     7
370
    25
100
AcDbLine
 10
403.6429890631
 20
205.9620626966
 30
0.0
 11
389.4981397928
 21
226.1630009876
 31
0.0
  0
SPLINE
  5
236
330
1F
100
AcDbEntity
  8
0
  6
Continuous
 62
     7
370
    25
100
AcDbSpline
210
0.0
220
0.0
230
1.0
 70
     8
 71
     3
 72
    20
 73
    16
 74
     0
 42
0.00000001
 43
0.00000001
 40
0.0
 40
0.0
 40
0.0
 40
0.0
 40
0.112620954173241
 40
0.1701734753413323
 40
0.228788549010201
 40
0.3447857886150379
 40
0.4063762239509956
 40
0.4704860249520184
 40
0.5538611972108745
 40
0.6396161202834217
 40
0.7294533540068281
 40
0.7927756967500437
 40
0.8639371662372061
 40
0.9205718167999509
 40
1.0
 40
1.0
 40
1.0
 40
1.0
 10
403.6429890630879
 20
205.9620626966326
 30
0.0
 10
403.6773471323634
 20
205.9626222182712
 30
0.0
 10
403.7292631554298
 20
205.9634676714327
 30
0.0
 10
404.0437053058365
 20
205.9701460259466
 30
0.0
 10
404.4662333456565
 20
205.9792418855956
 30
0.0
 10
405.0642370863526
 20
205.9908192479955
 30
0.0
 10
405.8061666031247
 20
206.0064779721327
 30
0.0
 10
406.5190017900426
 20
206.0215098386736
 30
0.0
 10
407.3926941163491
 20
206.0393982646723
 30
0.0
 10
408.4407693298522
 20
206.0610096415756
 30
0.0
 10
409.4646744560445
 20
206.0823015713675
 30
0.0
 10
410.4585224921598
 20
206.1025246559971
 30
0.0
 10
411.3238718394133
 20
206.1207665809597
 30
0.0
 10
412.2739891229076
 20
206.139705059482
 30
0.0
 10
412.9029163954136
 20
206.152996422506
 30
0.0
 10
413.2700596426812
 20
206.1607554025894
 30
0.0
  0
LINE
  5
237
330
1F
100
AcDbEntity
  8
0
  6
Continuous
 62
     7
370
    25
100
AcDbLine
 10
470.1557794654
 20
216.7182605075
 30
0.0
 11
463.8863257031
 21
212.3283417226
 31
0.0
  0
LINE
  5
238
330
1F
100
AcDbEntity
  8
0
  6
Continuous
 62
     7
370
    25
100
AcDbLine
 10
463.7716104158
 20
212.4921721315
 30
0.0
 11
470.3248267701
 21
217.0807836223
 31
0.0
  0
LINE
  5
239
330
1F
100
AcDbEntity
  8
0
  6
Continuous
 62
     7
370
    25
100
AcDbLine
 10
470.1557794654
 20
216.7182605075
 30
0.0
 11
470.3248267701
 21
217.0807836223
 31
0.0
  0
LINE
  5
23A
330
1F
100
AcDbEntity
  8
0
  6
Continuous
 62
     7
370
    25
100
AcDbLine
 10
470.3248267701
 20
217.0807836223
 30
0.0
 11
439.4664144945
 21
261.151163605
 31
0.0
  0
LINE
  5
23B
330
1F
100
AcDbEntity
  8
0
  6
Continuous
 62
     7
370
    25
100
AcDbLine
 10
463.8863257031
 20
212.3283417226
 30
0.0
 11
457.1169688196
 21
207.588387004
 31
0.0
  0
ARC
  5
23C
330
1F
100
AcDbEntity
  8
0
  6
Continuous
 62
     7
370
    25
100
AcDbCircle
 10
451.9547808925
 20
214.9607554026
 30
0.0
 40
8.999999999999993
100
AcDbArc
 50
270.0
 51
305.0
  0
LINE
  5
23D
330
1F
100
AcDbEntity
  8
SLD-0
  6
HIDDEN
 62
     7
100
AcDbLine
 10
385.5655299588
 20
228.2924562921
 30
0.0
 11
364.60441391
 21
228.2924562921
 31
0.0
  0
DIMENSION
  5
23E
330
1F
100
AcDbEntity
  8
SLD-0
 62
     7
100
AcDbDimension
  2
_D_3
 10
364.60441391
 20
228.2924562921
 30
0.0
 11
367.6289941366
 21
256.5731196386
 31
0.0
 70
   162
  1
<>
 71
     1
 42
-1.0
  3
SLDDIMSTYLE1
100
AcDb2LineAngularDimension
 13
438.8104128376
 23
265.5749246549
 33
0.0
 14
385.5655299588
 24
228.2924562921
 34
0.0
 15
385.5655299588
 25
228.2924562921
 35
0.0
 16
395.6692614088
 26
260.2209678047
 36
0.0
  0
DIMENSION
  5
249
330
1F
100
AcDbEntity
  8
SLD-0
 62
     7
100
AcDbDimension
  2
_D_4
 10
474.9547808925
 20
164.9534593413
 30
0.0
 11
427.7735611953
 21
164.9534593413
 31
0.0
 70
   160
  1
<>
 71
     2
 42
-1.0
  3
SLDDIMSTYLE0
100
AcDbAlignedDimension
 13
380.1439044402
 23
195.4607554026
 33
0.0
 14
474.9547808925
 24
195.4607554026
 34
0.0
 50
0.0
100
AcDbRotatedDimension
  0
LINE
  5
25D
330
1F
100
AcDbEntity
  8
0
  6
Continuous
 62
     7
370
    25
100
AcDbLine
 10
584.2983685844
 20
205.9607554026
 30
0.0
 11
551.2983685844
 21
197.9607554026
 31
0.0
  0
LINE
  5
25E
330
1F
100
AcDbEntity
  8
0
  6
Continuous
 62
     7
370
    25
100
AcDbLine
 10
701.7983685844
 20
197.9607554026
 30
0.0
 11
668.7983685844
 21
205.9607554026
 31
0.0
  0
LINE
  5
25F
330
1F
100
AcDbEntity
  8
0
  6
Continuous
 62
     7
370
    25
100
AcDbLine
 10
689.7983685843
 20
195.4607554026
 30
0.0
 11
689.7983685843
 21
197.9607554026
 31
0.0
  0
LINE
  5
260
330
1F
100
AcDbEntity
  8
0
  6
Continuous
 62
     7
370
    25
100
AcDbLine
 10
689.7983685843
 20
195.4607554026
 30
0.0
 11
563.2983685845
 21
195.4607554026
 31
0.0
  0
LINE
  5
261
330
1F
100
AcDbEntity
  8
0
  6
Continuous
 62
     7
370
    25
100
AcDbLine
 10
563.2983685845
 20
195.4607554026
 30
0.0
 11
563.2983685845
 21
197.9607554026
 31
0.0
  0
LINE
  5
262
330
1F
100
AcDbEntity
  8
0
  6
Continuous
 62
     7
370
    25
100
AcDbLine
 10
689.7983685843
 20
197.9607554026
 30
0.0
 11
563.2983685845
 21
197.9607554026
 31
0.0
  0
LINE
  5
263
330
1F
100
AcDbEntity
  8
0
  6
Continuous
 62
     7
370
    25
100
AcDbLine
 10
563.2983685845
 20
195.4607554026
 30
0.0
 11
551.2983685844
 21
195.4607554026
 31
0.0
  0
LINE
  5
264
330
1F
100
AcDbEntity
  8
0
  6
Continuous
 62
     7
370
    25
100
AcDbLine
 10
551.2983685844
 20
195.4607554026
 30
0.0
 11
551.2983685844
 21
197.9607554026
 31
0.0
  0
SPLINE
  5
265
330
1F
100
AcDbEntity
  8
0
  6
Continuous
 62
     7
370
    25
100
AcDbSpline
210
0.0
220
0.0
230
1.0
 70
    24
 71
     3
 72
    15
 73
    11
 74
     0
 42
0.00000001
 43
0.00000001
 40
0.0
 40
0.0
 40
0.0
 40
0.0
 40
0.1250000000000023
 40
0.2500000000000018
 40
0.3750000000000011
 40
0.5000000000000006
 40
0.6250000000000007
 40
0.7500000000000003
 40
0.8750000000000002
 40
1.0
 40
1.0
 40
1.0
 40
1.0
 10
563.2983685845156
 20
197.9607554025895
 30
0.0
 10
562.5129745629315
 20
197.9607554025895
 30
0.0
 10
560.9421865197633
 20
197.9607554025895
 30
0.0
 10
558.6765936582249
 20
197.9607554025895
 30
0.0
 10
556.5884432238432
 20
197.9607554025895
 30
0.0
 10
554.7587881756133
 20
197.9607554025895
 30
0.0
 10
553.2549273347319
 20
197.9607554025895
 30
0.0
 10
552.1459019059932
 20
197.9607554025895
 30
0.0
 10
551.4323502066898
 20
197.9607554025895
 30
0.0
 10
551.3430291251315
 20
197.9607554025895
 30
0.0
 10
551.2983685843523
 20
197.9607554025894
 30
0.0
  0
LINE
  5
266
330
1F
100
AcDbEntity
  8
0
  6
Continuous
 62
     7
370
    25
100
AcDbLine
 10
701.7983685844
 20
195.4607554026
 30
0.0
 11
701.7983685844
 21
197.9607554026
 31
0.0
  0
LINE
  5
267
330
1F
100
AcDbEntity
  8
0
  6
Continuous
 62
     7
370
    25
100
AcDbLine
 10
701.7983685844
 20
195.4607554026
 30
0.0
 11
689.7983685843
 21
195.4607554026
 31
0.0
  0
SPLINE
  5
268
330
1F
100
AcDbEntity
  8
0
  6
Continuous
 62
     7
370
    25
100
AcDbSpline
210
0.0
220
0.0
230
1.0
 70
    24
 71
     3
 72
    15
 73
    11
 74
     0
 42
0.00000001
 43
0.00000001
 40
0.0
 40
0.0
 40
0.0
 40
0.0
 40
0.124999999999998
 40
0.2499999999999981
 40
0.3749999999999985
 40
0.4999999999999988
 40
0.6249999999999994
 40
0.7499999999999994
 40
0.8750000000000001
 40
1.0
 40
1.0
 40
1.0
 40
1.0
 10
701.7983685843523
 20
197.9607554025894
 30
0.0
 10
701.753708043574
 20
197.9607554025895
 30
0.0
 10
701.6643869620173
 20
197.9607554025895
 30
0.0
 10
700.9508352627264
 20
197.9607554025895
 30
0.0
 10
699.8418098340062
 20
197.9607554025895
 30
0.0
 10
698.337948993149
 20
197.9607554025895
 30
0.0
 10
696.5082939449464
 20
197.9607554025895
 30
0.0
 10
694.4201435105933
 20
197.9607554025895
 30
0.0
 10
692.1545506490826
 20
197.9607554025895
 30
0.0
 10
690.583762605929
 20
197.9607554025894
 30
0.0
 10
689.7983685843523
 20
197.9607554025894
 30
0.0
  0
LINE
  5
269
330
1F
100
AcDbEntity
  8
0
  6
Continuous
 62
     7
370
    25
100
AcDbLine
 10
659.7983685844
 20
205.9607554026
 30
0.0
 11
593.2983685844
 21
205.9607554026
 31
0.0
  0
SPLINE
  5
26A
330
1F
100
AcDbEntity
  8
0
  6
Continuous
 62
     7
370
    25
100
AcDbSpline
210
0.0
220
0.0
230
1.0
 70
    24
 71
     3
 72
    14
 73
    10
 74
     0
 42
0.00000001
 43
0.00000001
 40
0.0
 40
0.0
 40
0.0
 40
0.0
 40
0.1326627182034162
 40
0.2743449827632155
 40
0.4220599231896425
 40
0.5711838746874532
 40
0.7233859469229951
 40
0.867090615994073
 40
1.0
 40
1.0
 40
1.0
 40
1.0
 10
668.7983685843523
 20
205.9607554025895
 30
0.0
 10
668.7604774319092
 20
205.9607554025895
 30
0.0
 10
668.6821189623657
 20
205.9607554025894
 30
0.0
 10
668.0292369995574
 20
205.9607554025895
 30
0.0
 10
666.954047179383
 20
205.9607554025894
 30
0.0
 10
665.4534425609037
 20
205.9607554025894
 30
0.0
 10
663.657074551334
 20
205.9607554025894
 30
0.0
 10
661.7274619703941
 20
205.9607554025895
 30
0.0
 10
660.424449024229
 20
205.9607554025895
 30
0.0
 10
659.7983685843523
 20
205.9607554025895
 30
0.0
  0
LWPOLYLINE
  5
26B
330
1F
100
AcDbEntity
  8
0
  6
Continuous
 62
     7
370
    25
100
AcDbPolyline
 90
        2
 70
   128
 43
0.0
 10
668.7983685844
 20
205.9607554026
 10
668.7983685844
 20
205.9607554026
  0
SPLINE
  5
26C
330
1F
100
AcDbEntity
  8
0
  6
Continuous
 62
     7
370
    25
100
AcDbSpline
210
0.0
220
0.0
230
1.0
 70
    24
 71
     3
 72
    14
 73
    10
 74
     0
 42
0.00000001
 43
0.00000001
 40
0.0
 40
0.0
 40
0.0
 40
0.0
 40
0.1266453710958637
 40
0.2631942331383697
 40
0.4077826672683809
 40
0.5566857848067094
 40
0.7118345976452349
 40
0.8608013323893409
 40
1.0
 40
1.0
 40
1.0
 40
1.0
 10
593.2983685843523
 20
205.9607554025895
 30
0.0
 10
592.7018961800876
 20
205.9607554025895
 30
0.0
 10
591.4623080635207
 20
205.9607554025896
 30
0.0
 10
589.6196145974981
 20
205.9607554025894
 30
0.0
 10
587.856976002599
 20
205.9607554025895
 30
0.0
 10
586.3080177784831
 20
205.9607554025894
 30
0.0
 10
585.1461588760053
 20
205.9607554025895
 30
0.0
 10
584.4265641200216
 20
205.9607554025895
 30
0.0
 10
584.3401237271285
 20
205.9607554025895
 30
0.0
 10
584.2983685843523
 20
205.9607554025895
 30
0.0
  0
LWPOLYLINE
  5
26D
330
1F
100
AcDbEntity
  8
0
  6
Continuous
 62
     7
370
    25
100
AcDbPolyline
 90
        2
 70
   128
 43
0.0
 10
701.7983685844
 20
197.9607554026
 10
701.7983685844
 20
197.9607554026
  0
LWPOLYLINE
  5
26E
330
1F
100
AcDbEntity
  8
0
  6
Continuous
 62
     7
370
    25
100
AcDbPolyline
 90
        2
 70
   128
 43
0.0
 10
551.2983685844
 20
197.9607554026
 10
551.2983685844
 20
197.9607554026
  0
LWPOLYLINE
  5
26F
330
1F
100
AcDbEntity
  8
0
  6
Continuous
 62
     7
370
    25
100
AcDbPolyline
 90
       12
 70
   128
 43
0.0
 10
659.2983685844
 20
217.0807836223
 10
660.4368872905
 20
217.0340781735
 10
661.5522290391
 20
216.8949126156
 10
662.6216886884
 20
216.6661199578
 10
663.623495124
 20
216.3523577589
 10
664.5372544559
 20
215.9600133125
 10
665.3443651792
 20
215.4970736201
 10
666.028396847
 20
214.9729627989
 10
666.5754245472
 20
214.3983502336
 10
666.9743123733
 20
213.7849333791
 10
667.2169401194
 20
213.1451996337
 10
667.2983685844
 20
212.4921721315
  0
LINE
  5
270
330
1F
100
AcDbEntity
  8
0
  6
Continuous
 62
     7
370
    25
100
AcDbLine
 10
667.2983685844
 20
212.4921721315
 30
0.0
 11
666.9519584228
 21
212.3283417226
 31
0.0
  0
LWPOLYLINE
  5
271
330
1F
100
AcDbEntity
  8
0
  6
Continuous
 62
     7
370
    25
100
AcDbPolyline
 90
       12
 70
   128
 43
0.0
 10
666.9519584228
 20
212.3283417226
 10
666.8740559138
 20
212.9530923045
 10
666.6419342573
 20
213.5651247662
 10
666.2603187808
 20
214.1519798917
 10
665.7369780748
 20
214.701711003
 10
665.0825658471
 20
215.20312716
 10
664.3104040433
 20
215.6460209757
 10
663.4362116511
 20
216.0213764092
 10
662.4777847066
 20
216.3215523063
 10
661.4546340186
 20
216.5404379514
 10
660.3875879844
 20
216.673577464
 10
659.2983685844
 20
216.7182605075
  0
LINE
  5
272
330
1F
100
AcDbEntity
  8
0
  6
Continuous
 62
     7
370
    25
100
AcDbLine
 10
659.2983685844
 20
217.0807836223
 30
0.0
 11
659.2983685844
 21
216.7182605075
 31
0.0
  0
LINE
  5
273
330
1F
100
AcDbEntity
  8
0
  6
Continuous
 62
     7
370
    25
100
AcDbLine
 10
593.7983685844
 20
217.0807836223
 30
0.0
 11
659.2983685844
 21
217.0807836223
 31
0.0
  0
LINE
  5
274
330
1F
100
AcDbEntity
  8
0
  6
Continuous
 62
     7
370
    25
100
AcDbLine
 10
659.2983685844
 20
216.7182605075
 30
0.0
 11
593.7983685844
 21
216.7182605075
 31
0.0
  0
LINE
  5
275
330
1F
100
AcDbEntity
  8
0
  6
Continuous
 62
     7
370
    25
100
AcDbLine
 10
593.7983685844
 20
216.7182605075
 30
0.0
 11
593.7983685844
 21
217.0807836223
 31
0.0
  0
LWPOLYLINE
  5
276
330
1F
100
AcDbEntity
  8
0
  6
Continuous
 62
     7
370
    25
100
AcDbPolyline
 90
       12
 70
   128
 43
0.0
 10
593.7983685844
 20
216.7182605075
 10
592.7091491843
 20
216.673577464
 10
591.6421031501
 20
216.5404379514
 10
590.6189524621
 20
216.3215523063
 10
589.6605255176
 20
216.0213764092
 10
588.7863331254
 20
215.6460209757
 10
588.0141713216
 20
215.20312716
 10
587.3597590939
 20
214.701711003
 10
586.8364183879
 20
214.1519798917
 10
586.4548029114
 20
213.5651247662
 10
586.2226812549
 20
212.9530923045
 10
586.1447787459
 20
212.3283417226
  0
LINE
  5
277
330
1F
100
AcDbEntity
  8
0
  6
Continuous
 62
     7
370
    25
100
AcDbLine
 10
586.1447787459
 20
212.3283417226
 30
0.0
 11
585.7983685844
 21
212.4921721315
 31
0.0
  0
LWPOLYLINE
  5
278
330
1F
100
AcDbEntity
  8
0
  6
Continuous
 62
     7
370
    25
100
AcDbPolyline
 90
       12
 70
   128
 43
0.0
 10
585.7983685844
 20
212.4921721315
 10
585.8797970493
 20
213.1451996337
 10
586.1224247954
 20
213.7849333791
 10
586.5213126215
 20
214.3983502336
 10
587.0683403217
 20
214.9729627989
 10
587.7523719895
 20
215.4970736201
 10
588.5594827128
 20
215.9600133125
 10
589.4732420447
 20
216.3523577589
 10
590.4750484803
 20
216.6661199578
 10
591.5445081296
 20
216.8949126156
 10
592.6598498782
 20
217.0340781735
 10
593.7983685844
 20
217.0807836223
  0
LWPOLYLINE
  5
279
330
1F
100
AcDbEntity
  8
0
  6
Continuous
 62
     7
370
    25
100
AcDbPolyline
 90
       12
 70
   128
 43
0.0
 10
667.2983685844
 20
256.5625521142
 10
667.2169401194
 20
257.2155796164
 10
666.9743123733
 20
257.8553133619
 10
666.5754245472
 20
258.4687302163
 10
666.028396847
 20
259.0433427816
 10
665.3443651792
 20
259.5674536029
 10
664.5372544559
 20
260.0303932953
 10
663.623495124
 20
260.4227377417
 10
662.6216886884
 20
260.7364999405
 10
661.5522290391
 20
260.9652925983
 10
660.4368872905
 20
261.1044581563
 10
659.2983685844
 20
261.151163605
  0
LINE
  5
27A
330
1F
100
AcDbEntity
  8
0
  6
Continuous
 62
     7
370
    25
100
AcDbLine
 10
667.2983685844
 20
212.4921721315
 30
0.0
 11
667.2983685844
 21
256.5625521142
 31
0.0
  0
LINE
  5
27B
330
1F
100
AcDbEntity
  8
0
  6
Continuous
 62
     7
370
    25
100
AcDbLine
 10
659.2983685844
 20
217.0807836223
 30
0.0
 11
659.2983685844
 21
261.151163605
 31
0.0
  0
LINE
  5
27C
330
1F
100
AcDbEntity
  8
0
  6
Continuous
 62
     7
370
    25
100
AcDbLine
 10
659.2983685844
 20
261.151163605
 30
0.0
 11
593.7983685844
 21
261.151163605
 31
0.0
  0
LINE
  5
27D
330
1F
100
AcDbEntity
  8
0
  6
Continuous
 62
     7
370
    25
100
AcDbLine
 10
593.7983685844
 20
217.0807836223
 30
0.0
 11
593.7983685844
 21
261.151163605
 31
0.0
  0
LWPOLYLINE
  5
27E
330
1F
100
AcDbEntity
  8
0
  6
Continuous
 62
     7
370
    25
100
AcDbPolyline
 90
       12
 70
   128
 43
0.0
 10
593.7983685844
 20
261.151163605
 10
592.6598498782
 20
261.1044581563
 10
591.5445081296
 20
260.9652925983
 10
590.4750484803
 20
260.7364999405
 10
589.4732420447
 20
260.4227377417
 10
588.5594827128
 20
260.0303932953
 10
587.7523719895
 20
259.5674536029
 10
587.0683403217
 20
259.0433427816
 10
586.5213126215
 20
258.4687302163
 10
586.1224247954
 20
257.8553133619
 10
585.8797970493
 20
257.2155796164
 10
585.7983685844
 20
256.5625521142
  0
LINE
  5
27F
330
1F
100
AcDbEntity
  8
0
  6
Continuous
 62
     7
370
    25
100
AcDbLine
 10
585.7983685844
 20
212.4921721315
 30
0.0
 11
585.7983685844
 21
256.5625521142
 31
0.0
  0
LWPOLYLINE
  5
280
330
1F
100
AcDbEntity
  8
0
  6
Continuous
 62
     7
370
    25
100
AcDbPolyline
 90
        9
 70
   128
 43
0.0
 10
630.7983685844
 20
211.9841958608
 10
630.769546505
 20
212.1520446783
 10
630.6841878831
 20
212.3134431599
 10
630.5455730028
 20
212.4621888524
 10
630.3590287561
 20
212.5925655423
 10
630.1317239339
 20
212.6995629265
 10
629.8723937329
 20
212.7790691556
 10
629.5910040674
 20
212.8280288498
 10
629.2983685844
 20
212.8445605153
  0
LINE
  5
281
330
1F
100
AcDbEntity
  8
0
  6
Continuous
 62
     7
370
    25
100
AcDbLine
 10
629.2983685844
 20
212.8445605153
 30
0.0
 11
623.7983685844
 21
212.8445605153
 31
0.0
  0
LWPOLYLINE
  5
282
330
1F
100
AcDbEntity
  8
0
  6
Continuous
 62
     7
370
    25
100
AcDbPolyline
 90
        9
 70
   128
 43
0.0
 10
623.7983685844
 20
212.8445605153
 10
623.5057331013
 20
212.8280288498
 10
623.2243434358
 20
212.7790691556
 10
622.9650132348
 20
212.6995629265
 10
622.7377084126
 20
212.5925655423
 10
622.5511641659
 20
212.4621888524
 10
622.4125492856
 20
212.3134431599
 10
622.3271906637
 20
212.1520446783
 10
622.2983685844
 20
211.9841958608
  0
LINE
  5
283
330
1F
100
AcDbEntity
  8
0
  6
Continuous
 62
     7
370
    25
100
AcDbLine
 10
622.2983685844
 20
211.9841958608
 30
0.0
 11
622.2983685844
 21
207.588387004
 31
0.0
  0
LINE
  5
284
330
1F
100
AcDbEntity
  8
0
  6
Continuous
 62
     7
370
    25
100
AcDbLine
 10
586.1447787459
 20
207.588387004
 30
0.0
 11
622.2983685844
 21
207.588387004
 31
0.0
  0
LINE
  5
285
330
1F
100
AcDbEntity
  8
0
  6
Continuous
 62
     7
370
    25
100
AcDbLine
 10
586.1447787459
 20
212.3283417226
 30
0.0
 11
586.1447787459
 21
207.588387004
 31
0.0
  0
LINE
  5
286
330
1F
100
AcDbEntity
  8
0
  6
Continuous
 62
     7
370
    25
100
AcDbLine
 10
666.9519584228
 20
207.588387004
 30
0.0
 11
666.9519584228
 21
212.3283417226
 31
0.0
  0
LINE
  5
287
330
1F
100
AcDbEntity
  8
0
  6
Continuous
 62
     7
370
    25
100
AcDbLine
 10
630.7983685844
 20
207.588387004
 30
0.0
 11
666.9519584228
 21
207.588387004
 31
0.0
  0
LINE
  5
288
330
1F
100
AcDbEntity
  8
0
  6
Continuous
 62
     7
370
    25
100
AcDbLine
 10
630.7983685844
 20
207.588387004
 30
0.0
 11
630.7983685844
 21
211.9841958608
 31
0.0
  0
LINE
  5
289
330
1F
100
AcDbEntity
  8
0
  6
Continuous
 62
     7
370
    25
100
AcDbLine
 10
688.1983685844
 20
193.7607554026
 30
0.0
 11
688.1983685844
 21
195.4607554026
 31
0.0
  0
LINE
  5
28A
330
1F
100
AcDbEntity
  8
0
  6
Continuous
 62
     7
370
    25
100
AcDbLine
 10
688.1983685844
 20
193.7607554026
 30
0.0
 11
678.0483685844
 21
193.7607554026
 31
0.0
  0
LINE
  5
28B
330
1F
100
AcDbEntity
  8
0
  6
Continuous
 62
     7
370
    25
100
AcDbLine
 10
678.0483685844
 20
193.7607554026
 30
0.0
 11
678.0483685844
 21
195.4607554026
 31
0.0
  0
LINE
  5
28C
330
1F
100
AcDbEntity
  8
0
  6
Continuous
 62
     7
370
    25
100
AcDbLine
 10
678.0483685844
 20
193.7607554026
 30
0.0
 11
575.0483685844
 21
193.7607554026
 31
0.0
  0
LINE
  5
28D
330
1F
100
AcDbEntity
  8
0
  6
Continuous
 62
     7
370
    25
100
AcDbLine
 10
575.0483685844
 20
193.7607554026
 30
0.0
 11
575.0483685844
 21
195.4607554026
 31
0.0
  0
LINE
  5
28E
330
1F
100
AcDbEntity
  8
0
  6
Continuous
 62
     7
370
    25
100
AcDbLine
 10
575.0483685844
 20
193.7607554026
 30
0.0
 11
564.8983685844
 21
193.7607554026
 31
0.0
  0
LINE
  5
28F
330
1F
100
AcDbEntity
  8
0
  6
Continuous
 62
     7
370
    25
100
AcDbLine
 10
564.8983685844
 20
193.7607554026
 30
0.0
 11
564.8983685844
 21
195.4607554026
 31
0.0
  0
LINE
  5
290
330
1F
100
AcDbEntity
  8
0
  6
Continuous
 62
     7
370
    25
100
AcDbLine
 10
622.2983685844
 20
208.4075390483
 30
0.0
 11
630.7983685844
 21
208.4075390483
 31
0.0
  0
LINE
  5
291
330
1F
100
AcDbEntity
  8
0
  6
Continuous
 62
     7
370
    25
100
AcDbLine
 10
667.2983685844
 20
212.4921721315
 30
0.0
 11
667.2983685844
 21
207.7522174128
 31
0.0
  0
LINE
  5
292
330
1F
100
AcDbEntity
  8
0
  6
Continuous
 62
     7
370
    25
100
AcDbLine
 10
667.2983685844
 20
207.7522174128
 30
0.0
 11
666.9519584228
 21
207.588387004
 31
0.0
  0
LINE
  5
293
330
1F
100
AcDbEntity
  8
0
  6
Continuous
 62
     7
370
    25
100
AcDbLine
 10
586.1447787459
 20
207.588387004
 30
0.0
 11
585.7983685844
 21
207.7522174128
 31
0.0
  0
LINE
  5
294
330
1F
100
AcDbEntity
  8
0
  6
Continuous
 62
     7
370
    25
100
AcDbLine
 10
585.7983685844
 20
207.7522174128
 30
0.0
 11
585.7983685844
 21
212.4921721315
 31
0.0
  0
LINE
  5
295
330
1F
100
AcDbEntity
  8
0
  6
Continuous
 62
     7
370
    25
100
AcDbLine
 10
667.2983685844
 20
206.1607554026
 30
0.0
 11
666.9519584228
 21
205.9607554026
 31
0.0
  0
LINE
  5
296
330
1F
100
AcDbEntity
  8
0
  6
Continuous
 62
     7
370
    25
100
AcDbLine
 10
666.9519584228
 20
205.9607554026
 30
0.0
 11
666.9519584228
 21
207.588387004
 31
0.0
  0
LINE
  5
297
330
1F
100
AcDbEntity
  8
0
  6
Continuous
 62
     7
370
    25
100
AcDbLine
 10
667.2983685844
 20
207.7522174128
 30
0.0
 11
667.2983685844
 21
206.1607554026
 31
0.0
  0
LINE
  5
298
330
1F
100
AcDbEntity
  8
0
  6
Continuous
 62
     7
370
    25
100
AcDbLine
 10
622.2983685844
 20
207.588387004
 30
0.0
 11
630.7983685844
 21
207.588387004
 31
0.0
  0
LINE
  5
299
330
1F
100
AcDbEntity
  8
0
  6
Continuous
 62
     7
370
    25
100
AcDbLine
 10
586.1447787459
 20
207.588387004
 30
0.0
 11
586.1447787459
 21
205.9607554026
 31
0.0
  0
LINE
  5
29A
330
1F
100
AcDbEntity
  8
0
  6
Continuous
 62
     7
370
    25
100
AcDbLine
 10
586.1447787459
 20
205.9607554026
 30
0.0
 11
585.7983685844
 21
206.1607554026
 31
0.0
  0
LINE
  5
29B
330
1F
100
AcDbEntity
  8
0
  6
Continuous
 62
     7
370
    25
100
AcDbLine
 10
585.7983685844
 20
206.1607554026
 30
0.0
 11
585.7983685844
 21
207.7522174128
 31
0.0
  0
LINE
  5
29C
330
1F
100
AcDbEntity
  8
0
  6
Continuous
 62
     7
370
    25
100
AcDbLine
 10
659.2983685844
 20
263.9366205663
 30
0.0
 11
659.2983685844
 21
261.151163605
 31
0.0
  0
LWPOLYLINE
  5
29D
330
1F
100
AcDbEntity
  8
0
  6
Continuous
 62
     7
370
    25
100
AcDbPolyline
 90
       13
 70
   128
 43
0.0
 10
669.2983685844
 20
258.2008562028
 10
669.2128171981
 20
258.9495236846
 10
668.9576268472
 20
259.6853812583
 10
668.5371639095
 20
260.3958381967
 10
667.9586226222
 20
261.0687383846
 10
667.2319019873
 20
261.6925683132
 10
666.3694363962
 20
262.2566540795
 10
665.3859828744
 20
262.7513440197
 10
664.2983685844
 20
263.1681738517
 10
663.125202908
 20
263.5000115016
 10
661.8865590354
 20
263.741179135
 10
660.6036305066
 20
263.8875503071
 10
659.2983685844
 20
263.9366205663
  0
ARC
  5
29E
330
1F
100
AcDbEntity
  8
0
  6
Continuous
 62
     7
370
    25
100
AcDbCircle
 10
669.1338736202
 20
256.361740842
 30
0.0
 40
1.846457122063624
100
AcDbArc
 50
84.8889262044
 51
173.7564536149
  0
LINE
  5
29F
330
1F
100
AcDbEntity
  8
0
  6
Continuous
 62
     7
370
    25
100
AcDbLine
 10
659.2983685844
 20
263.9366205663
 30
0.0
 11
593.7983685844
 21
263.9366205663
 31
0.0
  0
LINE
  5
2A0
330
1F
100
AcDbEntity
  8
0
  6
Continuous
 62
     7
370
    25
100
AcDbLine
 10
593.7983685844
 20
263.9366205663
 30
0.0
 11
593.7983685844
 21
261.151163605
 31
0.0
  0
LWPOLYLINE
  5
2A1
330
1F
100
AcDbEntity
  8
0
  6
Continuous
 62
     7
370
    25
100
AcDbPolyline
 90
       13
 70
   128
 43
0.0
 10
593.7983685844
 20
263.9366205663
 10
592.4931066622
 20
263.8875503071
 10
591.2101781333
 20
263.741179135
 10
589.9715342607
 20
263.5000115016
 10
588.7983685844
 20
263.1681738517
 10
587.7107542943
 20
262.7513440197
 10
586.7273007725
 20
262.2566540795
 10
585.8648351814
 20
261.6925683132
 10
585.1381145465
 20
261.0687383846
 10
584.5595732592
 20
260.3958381967
 10
584.1391103215
 20
259.6853812583
 10
583.8839199706
 20
258.9495236846
 10
583.7983685844
 20
258.2008562028
  0
ARC
  5
2A2
330
1F
100
AcDbEntity
  8
0
  6
Continuous
 62
     7
370
    25
100
AcDbCircle
 10
583.9628635485
 20
256.361740842
 30
0.0
 40
1.846457122063354
100
AcDbArc
 50
6.2435463851
 51
95.1110737956
  0
LINE
  5
2A3
330
1F
100
AcDbEntity
  8
0
  6
Continuous
 62
     7
370
    25
100
AcDbLine
 10
669.2983685844
 20
258.2008562028
 30
0.0
 11
669.2983685844
 21
259.8391602914
 31
0.0
  0
LINE
  5
2A4
330
1F
100
AcDbEntity
  8
0
  6
Continuous
 62
     7
370
    25
100
AcDbLine
 10
659.2983685844
 20
263.9366205663
 30
0.0
 11
659.2983685844
 21
265.5749246549
 31
0.0
  0
LWPOLYLINE
  5
2A5
330
1F
100
AcDbEntity
  8
0
  6
Continuous
 62
     7
370
    25
100
AcDbPolyline
 90
       13
 70
   128
 43
0.0
 10
669.2983685844
 20
259.8391602914
 10
669.2128171981
 20
260.5878277732
 10
668.9576268472
 20
261.3236853469
 10
668.5371639095
 20
262.0341422852
 10
667.9586226222
 20
262.7070424731
 10
667.2319019873
 20
263.3308724018
 10
666.3694363962
 20
263.8949581681
 10
665.3859828744
 20
264.3896481083
 10
664.2983685844
 20
264.8064779403
 10
663.125202908
 20
265.1383155901
 10
661.8865590354
 20
265.3794832236
 10
660.6036305066
 20
265.5258543956
 10
659.2983685844
 20
265.5749246549
  0
LINE
  5
2A6
330
1F
100
AcDbEntity
  8
0
  6
Continuous
 62
     7
370
    25
100
AcDbLine
 10
593.7983685844
 20
263.9366205663
 30
0.0
 11
593.7983685844
 21
265.5749246549
 31
0.0
  0
LINE
  5
2A7
330
1F
100
AcDbEntity
  8
0
  6
Continuous
 62
     7
370
    25
100
AcDbLine
 10
659.2983685844
 20
265.5749246549
 30
0.0
 11
593.7983685844
 21
265.5749246549
 31
0.0
  0
LINE
  5
2A8
330
1F
100
AcDbEntity
  8
0
  6
Continuous
 62
     7
370
    25
100
AcDbLine
 10
583.7983685844
 20
258.2008562028
 30
0.0
 11
583.7983685844
 21
259.8391602914
 31
0.0
  0
LWPOLYLINE
  5
2A9
330
1F
100
AcDbEntity
  8
0
  6
Continuous
 62
     7
370
    25
100
AcDbPolyline
 90
       13
 70
   128
 43
0.0
 10
593.7983685844
 20
265.5749246549
 10
592.4931066622
 20
265.5258543956
 10
591.2101781333
 20
265.3794832236
 10
589.9715342607
 20
265.1383155901
 10
588.7983685844
 20
264.8064779403
 10
587.7107542943
 20
264.3896481083
 10
586.7273007725
 20
263.8949581681
 10
585.8648351814
 20
263.3308724018
 10
585.1381145465
 20
262.7070424731
 10
584.5595732592
 20
262.0341422852
 10
584.1391103215
 20
261.3236853469
 10
583.8839199706
 20
260.5878277732
 10
583.7983685844
 20
259.8391602914
  0
LINE
  5
2AA
330
1F
100
AcDbEntity
  8
0
  6
Continuous
 62
     7
370
    25
100
AcDbLine
 10
669.2983685844
 20
232.389916567
 30
0.0
 11
669.2983685844
 21
258.2008562028
 31
0.0
  0
ARC
  5
2AB
330
1F
100
AcDbEntity
  8
0
  6
Continuous
 62
     7
370
    25
100
AcDbCircle
 10
669.1338736202
 20
230.5508012062
 30
0.0
 40
1.846457122063567
100
AcDbArc
 50
84.8889262044
 51
173.7564536149
  0
LINE
  5
2AC
330
1F
100
AcDbEntity
  8
0
  6
Continuous
 62
     7
370
    25
100
AcDbLine
 10
583.7983685844
 20
258.2008562028
 30
0.0
 11
583.7983685844
 21
232.389916567
 31
0.0
  0
ARC
  5
2AD
330
1F
100
AcDbEntity
  8
0
  6
Continuous
 62
     7
370
    25
100
AcDbCircle
 10
583.9628635485
 20
230.5508012062
 30
0.0
 40
1.846457122063354
100
AcDbArc
 50
6.2435463851
 51
95.1110737956
  0
ARC
  5
2AE
330
1F
100
AcDbEntity
  8
0
  6
Continuous
 62
     7
370
    25
100
AcDbCircle
 10
664.8613249216
 20
232.6666215114
 30
0.0
 40
4.445663290374478
100
AcDbArc
 50
303.2425503247
 51
356.4315156651
  0
ARC
  5
2AF
330
1F
100
AcDbEntity
  8
0
  6
Continuous
 62
     7
370
    25
100
AcDbCircle
 10
588.3192896027
 20
232.715366747
 30
0.0
 40
4.532620067212228
100
AcDbArc
 50
184.1174819676
 51
236.2084520426
  0
SPLINE
  5
2B0
330
1F
100
AcDbEntity
  8
0
  6
Continuous
 62
     7
370
    25
100
AcDbSpline
210
0.0
220
0.0
230
1.0
 70
     8
 71
     3
 72
    16
 73
    12
 74
     0
 42
0.00000001
 43
0.00000001
 40
0.0
 40
0.0
 40
0.0
 40
0.0
 40
0.0556464805964346
 40
0.171842867822873
 40
0.2880459929027266
 40
0.403936345268687
 40
0.5195134550859429
 40
0.6349823893350509
 40
0.7509411461363146
 40
0.8687147470485409
 40
1.0
 40
1.0
 40
1.0
 40
1.0
 10
729.626965939794
 20
403.3798134764931
 30
0.0
 10
729.533370759075
 20
403.2557852345591
 30
0.0
 10
729.2443378481565
 20
402.8727714562118
 30
0.0
 10
728.6695893279855
 20
402.2839058858235
 30
0.0
 10
727.8876406938853
 20
401.6789429489413
 30
0.0
 10
727.0459009016208
 20
401.2089602514986
 30
0.0
 10
726.1860196057296
 20
400.8891785952198
 30
0.0
 10
725.3459612472315
 20
400.7249406053641
 30
0.0
 10
724.5647751979448
 20
400.7139174982019
 30
0.0
 10
723.8407352626951
 20
400.8383618880501
 30
0.0
 10
723.458278976403
 20
401.024836417049
 30
0.0
 10
723.2566765458539
 20
401.1231318814696
 30
0.0
  0
LINE
  5
2B1
330
1F
100
AcDbEntity
  8
0
  6
Continuous
 62
     7
370
    25
100
AcDbLine
 10
755.6922243801
 20
439.5026524921
 30
0.0
 11
729.6269659398
 21
403.3798134765
 31
0.0
  0
LINE
  5
2B2
330
1F
100
AcDbEntity
  8
0
  6
Continuous
 62
     7
370
    25
100
AcDbLine
 10
723.2566765459
 20
401.1231318815
 30
0.0
 11
676.9411823781
 21
427.8604975437
 31
0.0
  0
LINE
  5
2B3
330
1F
100
AcDbEntity
  8
0
  6
Continuous
 62
     7
370
    25
100
AcDbLine
 10
759.5254581524
 20
448.1403189501
 30
0.0
 11
758.714298577
 21
449.0097886453
 31
0.0
  0
SPLINE
  5
2B4
330
1F
100
AcDbEntity
  8
0
  6
Continuous
 62
     7
370
    25
100
AcDbSpline
210
0.0
220
0.0
230
1.0
 70
     8
 71
     3
 72
    15
 73
    11
 74
     0
 42
0.00000001
 43
0.00000001
 40
0.0
 40
0.0
 40
0.0
 40
0.0
 40
0.0502226101455328
 40
0.2247303621112645
 40
0.367939152263162
 40
0.5042883675412292
 40
0.6493441934556261
 40
0.7906171877874115
 40
0.9302439148489722
 40
1.0
 40
1.0
 40
1.0
 40
1.0
 10
756.0614334860479
 20
444.4955399343602
 30
0.0
 10
756.1101174405354
 20
444.4512078380637
 30
0.0
 10
756.3279628031976
 20
444.2528356701295
 30
0.0
 10
756.555199275693
 20
443.8020661444943
 30
0.0
 10
756.7480855468783
 20
443.1426361441002
 30
0.0
 10
756.7935571690172
 20
442.4118540816298
 30
0.0
 10
756.6901606663077
 20
441.6026998070608
 30
0.0
 10
756.4152957261155
 20
440.7446420675716
 30
0.0
 10
756.0598008889791
 20
440.0371727667855
 30
0.0
 10
755.784080794558
 20
439.6362277199106
 30
0.0
 10
755.6922243800748
 20
439.5026524921489
 30
0.0
  0
LINE
  5
2B5
330
1F
100
AcDbEntity
  8
0
  6
Continuous
 62
     7
370
    25
100
AcDbLine
 10
780.6944099573
 20
422.5177885304
 30
0.0
 11
761.3540528388
 21
443.248425165
 31
0.0
  0
ARC
  5
2B6
330
1F
100
AcDbEntity
  8
0
  6
Continuous
 62
     7
370
    25
100
AcDbCircle
 10
723.7308969843
 20
410.7115237133
 30
0.0
 40
0.9999999999999809
100
AcDbArc
 50
43.0128965811
 51
60.0026882664
  0
LINE
  5
2B7
330
1F
100
AcDbEntity
  8
0
  6
Continuous
 62
     7
370
    25
100
AcDbLine
 10
724.8682522167
 20
410.9583352029
 30
0.0
 11
724.4620971579
 21
411.3936866749
 31
0.0
  0
LINE
  5
2B8
330
1F
100
AcDbEntity
  8
0
  6
Continuous
 62
     7
370
    25
100
AcDbLine
 10
724.2308563506
 20
411.5775725757
 30
0.0
 11
707.9674003833
 21
420.9662658617
 31
0.0
  0
LINE
  5
2B9
330
1F
100
AcDbEntity
  8
0
  6
Continuous
 62
     7
370
    25
100
AcDbLine
 10
807.8339796998
 20
390.3699811646
 30
0.0
 11
807.8339796998
 21
392.4113331944
 31
0.0
  0
LINE
  5
2BA
330
1F
100
AcDbEntity
  8
0
  6
Continuous
 62
     7
370
    25
100
AcDbLine
 10
671.7095424974
 20
425.9810560602
 30
0.0
 11
672.5207020727
 21
425.111586365
 31
0.0
  0
SPLINE
  5
2BB
330
1F
100
AcDbEntity
  8
0
  6
Continuous
 62
     7
370
    25
100
AcDbSpline
210
0.0
220
0.0
230
1.0
 70
     8
 71
     3
 72
     9
 73
     5
 74
     0
 42
0.00000001
 43
0.00000001
 40
0.0
 40
0.0
 40
0.0
 40
0.0
 40
0.3560005406803221
 40
1.0
 40
1.0
 40
1.0
 40
1.0
 10
676.9411823781351
 20
427.8604975436634
 30
0.0
 10
676.8652987793553
 20
427.9063442999848
 30
0.0
 10
676.6521429267412
 20
428.0351271277687
 30
0.0
 10
676.4928749911395
 20
428.2093993294317
 30
0.0
 10
676.3903065267251
 20
428.321630533077
 30
0.0
  0
ARC
  5
2BC
330
1F
100
AcDbEntity
  8
0
  6
Continuous
 62
     7
370
    25
100
AcDbCircle
 10
700.806293627
 20
415.8514365657
 30
0.0
 40
1.00000000000002
100
AcDbArc
 50
144.1868081068
 51
223.0128965811
  0
LINE
  5
2BD
330
1F
100
AcDbEntity
  8
0
  6
Continuous
 62
     7
370
    25
100
AcDbLine
 10
700.7869711376
 20
417.5336381385
 30
0.0
 11
699.9953645114
 21
416.4365809661
 31
0.0
  0
ARC
  5
2BE
330
1F
100
AcDbEntity
  8
0
  6
Continuous
 62
     7
370
    25
100
AcDbCircle
 10
701.5979002533
 20
416.9484937381
 30
0.0
 40
1.000000000000015
100
AcDbArc
 50
118.2341305986
 51
144.1868081068
  0
LINE
  5
2BF
330
1F
100
AcDbEntity
  8
0
  6
Continuous
 62
     7
370
    25
100
AcDbLine
 10
706.9943653512
 20
420.9812388006
 30
0.0
 11
701.1248245875
 21
417.8295155395
 31
0.0
  0
LINE
  5
2C0
330
1F
100
AcDbEntity
  8
0
  6
Continuous
 62
     7
370
    25
100
AcDbLine
 10
700.0750934535
 20
415.1692736041
 30
0.0
 11
701.4169908223
 21
413.7309140855
 31
0.0
  0
LINE
  5
2C1
330
1F
100
AcDbEntity
  8
0
  6
Continuous
 62
     7
370
    25
100
AcDbLine
 10
679.1123324825
 20
420.9779680675
 30
0.0
 11
684.866278688
 21
414.8104000505
 31
0.0
  0
ARC
  5
2C2
330
1F
100
AcDbEntity
  8
0
  6
Continuous
 62
     7
370
    25
100
AcDbCircle
 10
707.467441017
 20
420.1002169993
 30
0.0
 40
0.9999999999999971
100
AcDbArc
 50
60.0026882663
 51
118.2341305986
  0
LINE
  5
2C3
330
1F
100
AcDbEntity
  8
0
  6
Continuous
 62
     7
370
    25
100
AcDbLine
 10
644.3141209586
 20
415.1438592967
 30
0.0
 11
644.3141209586
 21
413.102507267
 31
0.0
  0
ARC
  5
2C4
330
1F
100
AcDbEntity
  8
0
  6
Continuous
 62
     7
370
    25
100
AcDbCircle
 10
745.7631287787
 20
372.8603653296
 30
0.0
 40
18.37112789848949
100
AcDbArc
 50
242.4914255687
 51
297.5085744312
  0
SPLINE
  5
2C5
330
1F
100
AcDbEntity
  8
0
  6
Continuous
 62
     7
370
    25
100
AcDbSpline
210
0.0
220
0.0
230
1.0
 70
     8
 71
     3
 72
    15
 73
    11
 74
     0
 42
0.00000001
 43
0.00000001
 40
0.0
 40
0.0
 40
0.0
 40
0.0
 40
0.1249999999999996
 40
0.2499999999999997
 40
0.3750000000000001
 40
0.499999999999999
 40
0.6249999999999983
 40
0.7499999999999988
 40
0.8749999999999988
 40
1.0
 40
1.0
 40
1.0
 40
1.0
 10
754.2484101529291
 20
358.6075975529747
 30
0.0
 10
753.6614729431328
 20
358.3052271417634
 30
0.0
 10
752.4875985235401
 20
357.7004863193408
 30
0.0
 10
750.3810252024612
 20
357.0669368219813
 30
0.0
 10
748.1202804690353
 20
356.6672540234379
 30
0.0
 10
745.763128778687
 20
356.5342635066074
 30
0.0
 10
743.405977088339
 20
356.6672540234387
 30
0.0
 10
741.1452323549133
 20
357.0669368219828
 30
0.0
 10
739.0386590338353
 20
357.700486319343
 30
0.0
 10
737.8647846142431
 20
358.3052271417661
 30
0.0
 10
737.277847404447
 20
358.6075975529777
 30
0.0
  0
SPLINE
  5
2C6
330
1F
100
AcDbEntity
  8
0
  6
Continuous
 62
     7
370
    25
100
AcDbSpline
210
0.0
220
0.0
230
1.0
 70
     8
 71
     3
 72
    12
 73
     8
 74
     0
 42
0.00000001
 43
0.00000001
 40
0.0
 40
0.0
 40
0.0
 40
0.0
 40
0.2191026237789331
 40
0.4553387663957448
 40
0.7054837579762239
 40
0.963093360752947
 40
1.0
 40
1.0
 40
1.0
 40
1.0
 10
684.5983922060543
 20
413.5121046735563
 30
0.0
 10
684.2015703736008
 20
413.7696335826753
 30
0.0
 10
683.3768957962184
 20
414.3048298015384
 30
0.0
 10
682.4925232950822
 20
415.3046764190389
 30
0.0
 10
682.0031746561637
 20
416.4365331536486
 30
0.0
 10
681.8604760622652
 20
417.3098155318337
 30
0.0
 10
682.0386661071556
 20
417.7608235688305
 30
0.0
 10
682.0609955911223
 20
417.8173406247476
 30
0.0
  0
LINE
  5
2C7
330
1F
100
AcDbEntity
  8
0
  6
Continuous
 62
     7
370
    25
100
AcDbLine
 10
731.620993155
 20
386.3665349555
 30
0.0
 11
684.5983922061
 21
413.5121046736
 31
0.0
  0
SPLINE
  5
2C8
330
1F
100
AcDbEntity
  8
0
  6
Continuous
 62
     7
370
    25
100
AcDbSpline
210
0.0
220
0.0
230
1.0
 70
     8
 71
     3
 72
    14
 73
    10
 74
     0
 42
0.00000001
 43
0.00000001
 40
0.0
 40
0.0
 40
0.0
 40
0.0
 40
0.1326627182286191
 40
0.2743449827971062
 40
0.4220599232186152
 40
0.5711838747092547
 40
0.723385946936919
 40
0.8670906160005566
 40
0.9999999999999999
 40
0.9999999999999999
 40
0.9999999999999999
 40
0.9999999999999999
 10
744.3489152163177
 20
386.3665349554512
 30
0.0
 10
743.8802374803435
 20
386.126907701777
 30
0.0
 10
742.9110172869831
 20
385.6313612840285
 30
0.0
 10
741.1058404231762
 20
385.1222729930285
 30
0.0
 10
739.0891965568426
 20
384.8358829603408
 30
0.0
 10
736.9556427554685
 20
384.8293143508947
 30
0.0
 10
734.9044023891138
 20
385.1117279076454
 30
0.0
 10
733.0680239608764
 20
385.6269605699666
 30
0.0
 10
732.0906218883532
 20
386.1265087027376
 30
0.0
 10
731.6209931549598
 20
386.3665349554511
 30
0.0
  0
LINE
  5
2C9
330
1F
100
AcDbEntity
  8
0
  6
Continuous
 62
     7
370
    25
100
AcDbLine
 10
773.2065627019
 20
403.0257002486
 30
0.0
 11
744.3489152163
 21
386.3665349555
 31
0.0
  0
SPLINE
  5
2CA
330
1F
100
AcDbEntity
  8
0
  6
Continuous
 62
     7
370
    25
100
AcDbSpline
210
0.0
220
0.0
230
1.0
 70
     8
 71
     3
 72
    11
 73
     7
 74
     0
 42
0.00000001
 43
0.00000001
 40
0.0
 40
0.0
 40
0.0
 40
0.0
 40
0.214309233355934
 40
0.48928121829413
 40
0.7532966367361682
 40
1.0
 40
1.0
 40
1.0
 40
1.0
 10
775.759158645129
 20
407.2223982877297
 30
0.0
 10
775.8006153743482
 20
406.8935577372219
 30
0.0
 10
775.8952636480658
 20
406.1427944469174
 30
0.0
 10
775.4263449611858
 20
405.0041324622158
 30
0.0
 10
774.5417410054667
 20
403.9000442328822
 30
0.0
 10
773.6414496143269
 20
403.3104867484157
 30
0.0
 10
773.2065627018663
 20
403.0257002485547
 30
0.0
  0
LINE
  5
2CB
330
1F
100
AcDbEntity
  8
0
  6
Continuous
 62
     7
370
    25
100
AcDbLine
 10
737.2778474044
 20
358.607597553
 30
0.0
 11
647.8288395846
 21
410.2454106256
 31
0.0
  0
SPLINE
  5
2CC
330
1F
100
AcDbEntity
  8
0
  6
Continuous
 62
     7
370
    25
100
AcDbSpline
210
0.0
220
0.0
230
1.0
 70
     8
 71
     3
 72
    15
 73
    11
 74
     0
 42
0.00000001
 43
0.00000001
 40
0.0
 40
0.0
 40
0.0
 40
0.0
 40
0.1250000000000002
 40
0.2500000000000008
 40
0.3750000000000009
 40
0.5000000000000011
 40
0.6250000000000003
 40
0.7500000000000019
 40
0.8750000000000013
 40
1.0
 40
1.0
 40
1.0
 40
1.0
 10
647.8288395845559
 20
410.2454106256446
 30
0.0
 10
647.3050619171969
 20
410.5842422646334
 30
0.0
 10
646.2575065824789
 20
411.2619055426111
 30
0.0
 10
645.1600477519229
 20
412.4780044355215
 30
0.0
 10
644.467701820774
 20
413.7831045903436
 30
0.0
 10
644.2373305274909
 20
415.143859296761
 30
0.0
 10
644.4677018208171
 20
416.5046140031761
 30
0.0
 10
645.1600477520072
 20
417.8097141579909
 30
0.0
 10
646.2575065826018
 20
419.0258130508897
 30
0.0
 10
647.3050619173412
 20
419.7034763288564
 30
0.0
 10
647.8288395847109
 20
420.0423079678397
 30
0.0
  0
LINE
  5
2CD
330
1F
100
AcDbEntity
  8
0
  6
Continuous
 62
     7
370
    25
100
AcDbLine
 10
647.8288395847
 20
420.0423079678
 30
0.0
 11
670.2103084711
 21
432.9628549344
 31
0.0
  0
LINE
  5
2CE
330
1F
100
AcDbEntity
  8
0
  6
Continuous
 62
     7
370
    25
100
AcDbLine
 10
779.1082569283
 20
411.863784768
 30
0.0
 11
804.319261074
 21
397.3097818654
 31
0.0
  0
SPLINE
  5
2CF
330
1F
100
AcDbEntity
  8
0
  6
Continuous
 62
     7
370
    25
100
AcDbSpline
210
0.0
220
0.0
230
1.0
 70
     8
 71
     3
 72
    15
 73
    11
 74
     0
 42
0.00000001
 43
0.00000001
 40
0.0
 40
0.0
 40
0.0
 40
0.0
 40
0.1250000000000017
 40
0.2500000000000016
 40
0.3750000000000009
 40
0.5000000000000007
 40
0.625
 40
0.7499999999999994
 40
0.8749999999999983
 40
1.0
 40
1.0
 40
1.0
 40
1.0
 10
804.3192610739591
 20
397.3097818653582
 30
0.0
 10
804.8430387412957
 20
396.9709502263781
 30
0.0
 10
805.890594075969
 20
396.2932869484179
 30
0.0
 10
806.9880529064878
 20
395.0771880555487
 30
0.0
 10
807.6803988376273
 20
393.7720879007726
 30
0.0
 10
807.9107701309324
 20
392.4113331944026
 30
0.0
 10
807.6803988376593
 20
391.0505784880307
 30
0.0
 10
806.9880529065506
 20
389.7454783332494
 30
0.0
 10
805.8905940760606
 20
388.5293794403715
 30
0.0
 10
804.8430387414031
 20
387.8517161624031
 30
0.0
 10
804.3192610740746
 20
387.5128845234188
 30
0.0
  0
LINE
  5
2D0
330
1F
100
AcDbEntity
  8
0
  6
Continuous
 62
     7
370
    25
100
AcDbLine
 10
804.3192610741
 20
387.5128845234
 30
0.0
 11
754.2484101529
 21
358.607597553
 31
0.0
  0
LWPOLYLINE
  5
2D1
330
1F
100
AcDbEntity
  8
0
  6
Continuous
 62
     7
370
    25
100
AcDbPolyline
 90
       11
 70
   128
 43
0.0
 10
733.2192657881
 20
401.1138097595
 10
732.2260970407
 20
399.9083204532
 10
731.0832702468
 20
398.8330276804
 10
729.8189255951
 20
397.914408718
 10
728.464195447
 20
397.1750830136
 10
727.0524377548
 20
396.6332552196
 10
725.6184146783
 20
396.3022669345
 10
724.1974366248
 20
396.1902681885
 10
722.8244927899
 20
396.3000167623
 10
721.5333896076
 20
396.6288102819
 10
720.3559183229
 20
397.1685527596
  0
LWPOLYLINE
  5
2D2
330
1F
100
AcDbEntity
  8
0
  6
Continuous
 62
     7
370
    25
100
AcDbPolyline
 90
       11
 70
   128
 43
0.0
 10
732.4081062128
 20
401.9832794547
 10
731.4149374653
 20
400.7777901484
 10
730.2721106715
 20
399.7024973756
 10
729.0077660198
 20
398.7838784133
 10
727.6530358717
 20
398.0445527088
 10
726.2412781795
 20
397.5027249148
 10
724.8072551029
 20
397.1717366297
 10
723.3862770494
 20
397.0597378837
 10
722.0133332146
 20
397.1694864576
 10
720.7222300322
 20
397.4982799771
 10
719.5447587475
 20
398.0380224548
  0
LINE
  5
2D3
330
1F
100
AcDbEntity
  8
0
  6
Continuous
 62
     7
370
    25
100
AcDbLine
 10
719.5447587475
 20
398.0380224548
 30
0.0
 11
673.2292645798
 21
424.775388117
 31
0.0
  0
LWPOLYLINE
  5
2D4
330
1F
100
AcDbEntity
  8
0
  6
Continuous
 62
     7
370
    25
100
AcDbPolyline
 90
       11
 70
   128
 43
0.0
 10
673.2292645798
 20
424.775388117
 10
672.1944184437
 20
425.5127893016
 10
671.3276788024
 20
426.4296919287
 10
670.6503876625
 20
427.5035188127
 10
670.1792221797
 20
428.7078287718
 10
669.9257840118
 20
430.0129676978
 10
669.8963136476
 20
431.3867987391
 10
670.0915367454
 20
432.7954936158
 10
670.5066462645
 20
434.2043655849
 10
671.1314208309
 20
435.5787235427
 10
671.9504764213
 20
436.8847262351
  0
LINE
  5
2D5
330
1F
100
AcDbEntity
  8
0
  6
Continuous
 62
     7
370
    25
100
AcDbLine
 10
671.9504764213
 20
436.8847262351
 30
0.0
 11
698.0157348616
 21
473.0075652508
 31
0.0
  0
LWPOLYLINE
  5
2D6
330
1F
100
AcDbEntity
  8
0
  6
Continuous
 62
     7
370
    25
100
AcDbPolyline
 90
       11
 70
   128
 43
0.0
 10
698.0157348616
 20
473.0075652508
 10
699.0089036091
 20
474.2130545571
 10
700.1517304029
 20
475.2883473298
 10
701.4160750546
 20
476.2069662922
 10
702.7708052027
 20
476.9462919967
 10
704.1825628949
 20
477.4881197907
 10
705.6165859715
 20
477.8191080757
 10
707.037564025
 20
477.9311068218
 10
708.4105078598
 20
477.8213582479
 10
709.7016110422
 20
477.4925647283
 10
710.8790823269
 20
476.9528222507
  0
LINE
  5
2D7
330
1F
100
AcDbEntity
  8
0
  6
Continuous
 62
     7
370
    25
100
AcDbLine
 10
710.8790823269
 20
476.9528222507
 30
0.0
 11
757.1945764946
 21
450.2154565885
 31
0.0
  0
LWPOLYLINE
  5
2D8
330
1F
100
AcDbEntity
  8
0
  6
Continuous
 62
     7
370
    25
100
AcDbPolyline
 90
       11
 70
   128
 43
0.0
 10
757.1945764946
 20
450.2154565885
 10
758.2294226307
 20
449.4780554039
 10
759.096162272
 20
448.5611527767
 10
759.7734534119
 20
447.4873258928
 10
760.2446188947
 20
446.2830159337
 10
760.4980570626
 20
444.9778770076
 10
760.5275274268
 20
443.6040459664
 10
760.332304329
 20
442.1953510897
 10
759.9171948099
 20
440.7864791206
 10
759.2924202435
 20
439.4121211628
 10
758.4733646531
 20
438.1061184704
  0
LINE
  5
2D9
330
1F
100
AcDbEntity
  8
0
  6
Continuous
 62
     7
370
    25
100
AcDbLine
 10
758.4733646531
 20
438.1061184704
 30
0.0
 11
732.4081062128
 21
401.9832794547
 31
0.0
  0
LINE
  5
2DA
330
1F
100
AcDbEntity
  8
0
  6
Continuous
 62
     7
370
    25
100
AcDbLine
 10
759.2845242284
 20
437.2366487751
 30
0.0
 11
733.2192657881
 21
401.1138097595
 31
0.0
  0
LINE
  5
2DB
330
1F
100
AcDbEntity
  8
0
  6
Continuous
 62
     7
370
    25
100
AcDbLine
 10
804.3192610741
 20
385.4715324937
 30
0.0
 11
754.2484101529
 21
356.5662455233
 31
0.0
  0
LINE
  5
2DC
330
1F
100
AcDbEntity
  8
0
  6
Continuous
 62
     7
370
    25
100
AcDbLine
 10
737.2778474044
 20
356.5662455233
 30
0.0
 11
647.8288395846
 21
408.2040585959
 31
0.0
  0
SPLINE
  5
2DD
330
1F
100
AcDbEntity
  8
0
  6
Continuous
 62
     7
370
    25
100
AcDbSpline
210
0.0
220
0.0
230
1.0
 70
     8
 71
     3
 72
    18
 73
    14
 74
     0
 42
0.00000001
 43
0.00000001
 40
0.0
 40
0.0
 40
0.0
 40
0.0
 40
0.1126490857222129
 40
0.2286550950751111
 40
0.3446813095900843
 40
0.4062871295794624
 40
0.4704129445453789
 40
0.5538089430595128
 40
0.6395852868244709
 40
0.7294449609592424
 40
0.8156194099632756
 40
0.8991615807252501
 40
1.0
 40
1.0
 40
1.0
 40
1.0
 10
732.3274526667607
 20
387.1836368655505
 30
0.0
 10
732.7216919723307
 20
386.985865248082
 30
0.0
 10
733.5219188478491
 20
386.5844284525189
 30
0.0
 10
734.9951446725352
 20
386.2140294832154
 30
0.0
 10
736.3279626459052
 20
386.0573105684265
 30
0.0
 10
737.4449039120701
 20
386.0318351666164
 30
0.0
 10
738.411688672902
 20
386.0677750108466
 30
0.0
 10
739.4791689003779
 20
386.1794817647195
 30
0.0
 10
740.6324610766488
 20
386.3870324291418
 30
0.0
 10
741.7511312945114
 20
386.6759095584916
 30
0.0
 10
742.798727586687
 20
387.0341915881794
 30
0.0
 10
743.8274015639678
 20
387.4679380396288
 30
0.0
 10
744.4507579292375
 20
387.8183905944293
 30
0.0
 10
744.7916738060451
 20
388.0100543788323
 30
0.0
  0
LINE
  5
2DE
330
1F
100
AcDbEntity
  8
0
  6
Continuous
 62
     7
370
    25
100
AcDbLine
 10
720.3559183229
 20
397.1685527596
 30
0.0
 11
674.0404241552
 21
423.9059184218
 31
0.0
  0
LINE
  5
2DF
330
1F
100
AcDbEntity
  8
0
  6
Continuous
 62
     7
370
    25
100
AcDbLine
 10
775.7150046616
 20
407.1612069804
 30
0.0
 11
780.5016628182
 21
413.7948523904
 31
0.0
  0
ARC
  5
2E0
330
1F
100
AcDbEntity
  8
0
  6
Continuous
 62
     7
370
    25
100
AcDbCircle
 10
765.9431762953
 20
413.9658799808
 30
0.0
 40
11.90765318031737
100
AcDbArc
 50
301.3928084743
 51
325.1483378707
  0
LINE
  5
2E1
330
1F
100
AcDbEntity
  8
0
  6
Continuous
 62
     7
370
    25
100
AcDbLine
 10
744.791673806
 20
388.0100543788
 30
0.0
 11
772.1459025301
 21
403.8013144948
 31
0.0
  0
LWPOLYLINE
  5
2E2
330
1F
100
AcDbEntity
  8
0
  6
Continuous
 62
     7
370
    25
100
AcDbPolyline
 90
       10
 70
   128
 43
0.0
 10
759.5254581524
 20
448.1403189501
 10
759.9073218474
 20
447.6916830815
 10
760.5846129873
 20
446.6178561976
 10
761.0557784701
 20
445.4135462385
 10
761.309216638
 20
444.1084073124
 10
761.3386870021
 20
442.7345762712
 10
761.1434639044
 20
441.3258813945
 10
760.7283543853
 20
439.9170094254
 10
760.1035798188
 20
438.5426514675
 10
759.2845242284
 20
437.2366487751
  0
LINE
  5
2E3
330
1F
100
AcDbEntity
  8
0
  6
Continuous
 62
     7
370
    25
100
AcDbLine
 10
686.011958499
 20
413.9210025277
 30
0.0
 11
732.3274526668
 21
387.1836368656
 31
0.0
  0
ARC
  5
2E4
330
1F
100
AcDbEntity
  8
0
  6
Continuous
 62
     7
370
    25
100
AcDbCircle
 10
775.3062447333
 20
418.2732510083
 30
0.0
 40
6.859185320230901
100
AcDbArc
 50
319.2389892496
 51
38.2293400936
  0
LWPOLYLINE
  5
2E5
330
1F
100
AcDbEntity
  8
0
  6
Continuous
 62
     7
370
    25
100
AcDbPolyline
 90
        3
 70
   128
 43
0.0
 10
685.2392800847
 20
424.45907588
 10
684.7620333158
 20
423.6696325841
 10
684.6434843063
 20
423.4140532858
  0
LINE
  5
2E6
330
1F
100
AcDbEntity
  8
0
  6
Continuous
 62
     7
370
    25
100
AcDbLine
 10
711.304538525
 20
460.5819148956
 30
0.0
 11
685.2392800847
 21
424.45907588
 31
0.0
  0
ARC
  5
2E7
330
1F
100
AcDbEntity
  8
0
  6
Continuous
 62
     7
370
    25
100
AcDbCircle
 10
715.4911642842
 20
457.9454290891
 30
0.0
 40
4.947614845051548
100
AcDbArc
 50
66.302372882
 51
147.7997367962
  0
LINE
  5
2E8
330
1F
100
AcDbEntity
  8
0
  6
Continuous
 62
     7
370
    25
100
AcDbLine
 10
756.1011153573
 20
440.1801653656
 30
0.0
 11
717.4796594467
 21
462.4758572856
 31
0.0
  0
ARC
  5
2E9
330
1F
100
AcDbEntity
  8
0
  6
Continuous
 62
     7
370
    25
100
AcDbCircle
 10
719.2095841463
 20
404.1692139999
 30
0.0
 40
1.23464681002164
100
AcDbArc
 50
300.1445465386
 51
324.1503353382
  0
LINE
  5
2EA
330
1F
100
AcDbEntity
  8
0
  6
Continuous
 62
     7
370
    25
100
AcDbLine
 10
724.8441588243
 20
409.8679681854
 30
0.0
 11
720.2103351016
 21
403.4461301382
 31
0.0
  0
ARC
  5
2EB
330
1F
100
AcDbEntity
  8
0
  6
Continuous
 62
     7
370
    25
100
AcDbCircle
 10
724.174558438
 20
410.4282137699
 30
0.0
 40
0.8730634526268636
100
AcDbArc
 50
320.0812330382
 51
37.387096305
  0
ARC
  5
2EC
330
1F
100
AcDbEntity
  8
0
  6
Continuous
 62
     7
370
    25
100
AcDbCircle
 10
801.8805374234
 20
390.9315163447
 30
0.0
 40
5.979865943111721
100
AcDbArc
 50
294.0681184712
 51
354.6117405712
  0
LWPOLYLINE
  5
2ED
330
1F
100
AcDbEntity
  8
0
  6
Continuous
 62
     7
370
    25
100
AcDbPolyline
 90
        3
 70
   128
 43
0.0
 10
674.0404241552
 20
423.9059184218
 10
673.005578019
 20
424.6433196064
 10
672.5207020727
 20
425.111586365
  0
SPLINE
  5
2EE
330
1F
100
AcDbEntity
  8
0
  6
Continuous
 62
     7
370
    25
100
AcDbSpline
210
0.0
220
0.0
230
1.0
 70
     8
 71
     3
 72
     9
 73
     5
 74
     0
 42
0.00000001
 43
0.00000001
 40
0.0
 40
0.0
 40
0.0
 40
0.0
 40
0.192549751164173
 40
1.0
 40
1.0
 40
1.0
 40
1.0
 10
684.8873837260547
 20
414.8284707730696
 30
0.0
 10
684.9374722105507
 20
414.7619137273694
 30
0.0
 10
685.1976048993395
 20
414.4162521760156
 30
0.0
 10
685.6481587113914
 20
414.1422475949237
 30
0.0
 10
686.0119584990467
 20
413.9210025277389
 30
0.0
  0
ARC
  5
2EF
330
1F
100
AcDbEntity
  8
0
  6
Continuous
 62
     7
370
    25
100
AcDbCircle
 10
650.2675632352
 20
413.6640424471
 30
0.0
 40
5.979865943219426
100
AcDbArc
 50
185.3882594292
 51
245.9318815303
  0
MTEXT
  5
2F0
330
1F
100
AcDbEntity
  8
SLD-0
100
AcDbMText
 10
695.1262620501
 20
358.3358252794
 30
0.0
 40
4.7625
 41
0.0
 71
     2
 72
     1
  1
ISOMETRIC VIEW
  7
SLDTEXTSTYLE0
 73
     1
 44
1.0
  0
SPLINE
  5
2F1
330
1F
100
AcDbEntity
  8
0
  6
Continuous
 62
     7
370
    25
100
AcDbSpline
210
0.0
220
0.0
230
1.0
 70
     8
 71
     3
 72
    18
 73
    14
 74
     0
 42
0.00000001
 43
0.00000001
 40
0.0
 40
0.0
 40
0.0
 40
0.0
 40
0.0446721504321808
 40
0.1642087893886419
 40
0.2660789786767876
 40
0.3632202190342192
 40
0.4664039554688322
 40
0.5663265504348644
 40
0.6644099149006863
 40
0.7615875929960793
 40
0.8583414926829723
 40
0.9548835545500395
 40
0.9999999999999999
 40
0.9999999999999999
 40
0.9999999999999999
 40
0.9999999999999999
 10
184.2614831963143
 20
398.9670015420603
 30
0.0
 10
184.2634358308318
 20
399.0401356935293
 30
0.0
 10
184.2706134515002
 20
399.3089669532627
 30
0.0
 10
184.3624361674979
 20
399.7472827389607
 30
0.0
 10
184.5900032334413
 20
400.2773087673358
 30
0.0
 10
184.9209393964989
 20
400.7760293700501
 30
0.0
 10
185.3673424831794
 20
401.2509345008201
 30
0.0
 10
185.9303801359362
 20
401.6838928504288
 30
0.0
 10
186.5799267691393
 20
402.046310460017
 30
0.0
 10
187.3006221962241
 20
402.3283449307454
 30
0.0
 10
188.0741070290384
 20
402.5195024748575
 30
0.0
 10
188.7374465230128
 20
402.6015585581367
 30
0.0
 10
189.1348994567146
 20
402.6084477527524
 30
0.0
 10
189.2614831963143
 20
402.6106418742278
 30
0.0
  0
SPLINE
  5
2F2
330
1F
100
AcDbEntity
  8
0
  6
Continuous
 62
     7
370
    25
100
AcDbSpline
210
0.0
220
0.0
230
1.0
 70
     8
 71
     3
 72
    18
 73
    14
 74
     0
 42
0.00000001
 43
0.00000001
 40
0.0
 40
0.0
 40
0.0
 40
0.0
 40
0.0459623841580153
 40
0.1421118787044706
 40
0.2381840350136764
 40
0.3341224753277576
 40
0.4300427047231012
 40
0.5262400198993484
 40
0.6232796258557044
 40
0.7221122546340455
 40
0.8241885761671329
 40
0.931441910600902
 40
1.0
 40
1.0
 40
1.0
 40
1.0
 10
254.7614831963143
 20
402.6106418742278
 30
0.0
 10
254.8904483609997
 20
402.6083675280915
 30
0.0
 10
255.2891979510531
 20
402.6013354385213
 30
0.0
 10
255.9517766383782
 20
402.518777289901
 30
0.0
 10
256.7190348856589
 20
402.3290445176736
 30
0.0
 10
257.430176412356
 20
402.0516917508443
 30
0.0
 10
258.0661776270077
 20
401.6998937017878
 30
0.0
 10
258.6122711550022
 20
401.2872747355997
 30
0.0
 10
259.0581926003743
 20
400.8289876580725
 30
0.0
 10
259.3993121097179
 20
400.3386982404579
 30
0.0
 10
259.632393148467
 20
399.8257138910785
 30
0.0
 10
259.7456739810125
 20
399.3671677228024
 30
0.0
 10
259.7570479065694
 20
399.079268528359
 30
0.0
 10
259.7614831963143
 20
398.9670015420603
 30
0.0
  0
LINE
  5
2F3
330
1F
100
AcDbEntity
  8
0
  6
Continuous
 62
     7
370
    25
100
AcDbLine
 10
189.2614831963
 20
402.6106418742
 30
0.0
 11
254.7614831963
 21
402.6106418742
 31
0.0
  0
ARC
  5
2F4
330
1F
100
AcDbEntity
  8
0
  6
Continuous
 62
     7
370
    25
100
AcDbCircle
 10
210.5114831963
 20
370.2295065038
 30
0.0
 40
1.0
100
AcDbArc
 50
180.0
 51
270.0
  0
ARC
  5
2F5
330
1F
100
AcDbEntity
  8
0
  6
Continuous
 62
     7
370
    25
100
AcDbCircle
 10
233.5114831963
 20
370.2295065038
 30
0.0
 40
1.0
100
AcDbArc
 50
270.0
 51
0.0
  0
LINE
  5
2F6
330
1F
100
AcDbEntity
  8
0
  6
Continuous
 62
     7
370
    25
100
AcDbLine
 10
210.5114831963
 20
369.2295065038
 30
0.0
 11
233.5114831963
 21
369.2295065038
 31
0.0
  0
LINE
  5
2F7
330
1F
100
AcDbEntity
  8
0
  6
Continuous
 62
     7
370
    25
100
AcDbLine
 10
254.7614831963
 20
352.4796980153
 30
0.0
 11
189.2614831963
 21
352.4796980153
 31
0.0
  0
LWPOLYLINE
  5
2F8
330
1F
100
AcDbEntity
  8
0
  6
Continuous
 62
     7
370
    25
100
AcDbPolyline
 90
       13
 70
   128
 43
0.0
 10
189.2614831963
 20
352.4796980153
 10
187.9562212741
 20
352.5497776082
 10
186.6732927453
 20
352.7588173058
 10
185.4346488727
 20
353.1032403808
 10
184.2614831963
 20
353.577153659
 10
183.1738689062
 20
354.1724483527
 10
182.1904153844
 20
354.8789388048
 10
181.3279497934
 20
355.6845367676
 10
180.6012291585
 20
356.5754582367
 10
180.0226878712
 20
357.5364592988
 10
179.6022249334
 20
358.5510969592
 10
179.3470345826
 20
359.6020104863
 10
179.2614831963
 20
360.6712184582
  0
LINE
  5
2F9
330
1F
100
AcDbEntity
  8
0
  6
Continuous
 62
     7
370
    25
100
AcDbLine
 10
179.2614831963
 20
360.6712184582
 30
0.0
 11
179.2614831963
 21
397.5330604512
 31
0.0
  0
LWPOLYLINE
  5
2FA
330
1F
100
AcDbEntity
  8
0
  6
Continuous
 62
     7
370
    25
100
AcDbPolyline
 90
       13
 70
   128
 43
0.0
 10
179.2614831963
 20
397.5330604512
 10
179.3470345826
 20
398.6022684231
 10
179.6022249334
 20
399.6531819501
 10
180.0226878712
 20
400.6678196106
 10
180.6012291585
 20
401.6288206726
 10
181.3279497934
 20
402.5197421418
 10
182.1904153844
 20
403.3253401046
 10
183.1738689062
 20
404.0318305566
 10
184.2614831963
 20
404.6271252503
 10
185.4346488727
 20
405.1010385285
 10
186.6732927453
 20
405.4454616035
 10
187.9562212741
 20
405.6545013011
 10
189.2614831963
 20
405.7245808941
  0
LINE
  5
2FB
330
1F
100
AcDbEntity
  8
0
  6
Continuous
 62
     7
370
    25
100
AcDbLine
 10
189.2614831963
 20
405.7245808941
 30
0.0
 11
254.7614831963
 21
405.7245808941
 31
0.0
  0
LWPOLYLINE
  5
2FC
330
1F
100
AcDbEntity
  8
0
  6
Continuous
 62
     7
370
    25
100
AcDbPolyline
 90
       13
 70
   128
 43
0.0
 10
254.7614831963
 20
405.7245808941
 10
256.0667451185
 20
405.6545013011
 10
257.3496736473
 20
405.4454616035
 10
258.58831752
 20
405.1010385285
 10
259.7614831963
 20
404.6271252503
 10
260.8490974864
 20
404.0318305566
 10
261.8325510082
 20
403.3253401046
 10
262.6950165992
 20
402.5197421418
 10
263.4217372342
 20
401.6288206726
 10
264.0002785214
 20
400.6678196106
 10
264.4207414592
 20
399.6531819501
 10
264.6759318101
 20
398.6022684231
 10
264.7614831963
 20
397.5330604512
  0
LINE
  5
2FD
330
1F
100
AcDbEntity
  8
0
  6
Continuous
 62
     7
370
    25
100
AcDbLine
 10
264.7614831963
 20
397.5330604512
 30
0.0
 11
264.7614831963
 21
360.6712184582
 31
0.0
  0
LWPOLYLINE
  5
2FE
330
1F
100
AcDbEntity
  8
0
  6
Continuous
 62
     7
370
    25
100
AcDbPolyline
 90
       13
 70
   128
 43
0.0
 10
264.7614831963
 20
360.6712184582
 10
264.6759318101
 20
359.6020104863
 10
264.4207414592
 20
358.5510969592
 10
264.0002785214
 20
357.5364592988
 10
263.4217372342
 20
356.5754582367
 10
262.6950165992
 20
355.6845367676
 10
261.8325510082
 20
354.8789388048
 10
260.8490974864
 20
354.1724483527
 10
259.7614831963
 20
353.577153659
 10
258.58831752
 20
353.1032403808
 10
257.3496736473
 20
352.7588173058
 10
256.0667451185
 20
352.5497776082
 10
254.7614831963
 20
352.4796980153
  0
LWPOLYLINE
  5
2FF
330
1F
100
AcDbEntity
  8
0
  6
Continuous
 62
     7
370
    25
100
AcDbPolyline
 90
       13
 70
   128
 43
0.0
 10
254.7614831963
 20
406.8717337668
 10
256.0667451185
 20
406.8016541738
 10
257.3496736473
 20
406.5926144762
 10
258.58831752
 20
406.2481914012
 10
259.7614831963
 20
405.774278123
 10
260.8490974864
 20
405.1789834293
 10
261.8325510082
 20
404.4724929773
 10
262.6950165992
 20
403.6668950145
 10
263.4217372342
 20
402.7759735453
 10
264.0002785214
 20
401.8149724833
 10
264.4207414592
 20
400.8003348229
 10
264.6759318101
 20
399.7494212958
 10
264.7614831963
 20
398.6802133239
  0
LINE
  5
300
330
1F
100
AcDbEntity
  8
0
  6
Continuous
 62
     7
370
    25
100
AcDbLine
 10
264.7614831963
 20
398.6802133239
 30
0.0
 11
264.7614831963
 21
397.5330604512
 31
0.0
  0
LINE
  5
301
330
1F
100
AcDbEntity
  8
0
  6
Continuous
 62
     7
370
    25
100
AcDbLine
 10
179.2614831963
 20
398.6802133239
 30
0.0
 11
179.2614831963
 21
397.5330604512
 31
0.0
  0
LWPOLYLINE
  5
302
330
1F
100
AcDbEntity
  8
0
  6
Continuous
 62
     7
370
    25
100
AcDbPolyline
 90
       13
 70
   128
 43
0.0
 10
179.2614831963
 20
398.6802133239
 10
179.3470345826
 20
399.7494212958
 10
179.6022249334
 20
400.8003348229
 10
180.0226878712
 20
401.8149724833
 10
180.6012291585
 20
402.7759735453
 10
181.3279497934
 20
403.6668950145
 10
182.1904153844
 20
404.4724929773
 10
183.1738689062
 20
405.1789834293
 10
184.2614831963
 20
405.774278123
 10
185.4346488727
 20
406.2481914012
 10
186.6732927453
 20
406.5926144762
 10
187.9562212741
 20
406.8016541738
 10
189.2614831963
 20
406.8717337668
  0
LINE
  5
303
330
1F
100
AcDbEntity
  8
0
  6
Continuous
 62
     7
370
    25
100
AcDbLine
 10
189.2614831963
 20
406.8717337668
 30
0.0
 11
254.7614831963
 21
406.8717337668
 31
0.0
  0
LINE
  5
304
330
1F
100
AcDbEntity
  8
0
  6
Continuous
 62
     7
370
    25
100
AcDbLine
 10
181.2614831963
 20
430.6857784723
 30
0.0
 11
181.2614831963
 21
403.5951255896
 31
0.0
  0
LWPOLYLINE
  5
305
330
1F
100
AcDbEntity
  8
0
  6
Continuous
 62
     7
370
    25
100
AcDbPolyline
 90
       12
 70
   128
 43
0.0
 10
189.2614831963
 20
437.2389948266
 10
188.1229644901
 20
437.1722925331
 10
187.0076227416
 20
436.9735435188
 10
185.9381630923
 20
436.6467937406
 10
184.9363566567
 20
436.1986948817
 10
184.0225973248
 20
435.6383689427
 10
183.2154866015
 20
434.9772225438
 10
182.5314549337
 20
434.228714719
 10
181.9844272335
 20
433.4080829293
 10
181.5855394074
 20
432.5320328713
 10
181.3429116613
 20
431.6183983979
 10
181.2614831963
 20
430.6857784723
  0
LWPOLYLINE
  5
306
330
1F
100
AcDbEntity
  8
0
  6
Continuous
 62
     7
370
    25
100
AcDbPolyline
 90
       12
 70
   128
 43
0.0
 10
262.7614831963
 20
430.6857784723
 10
262.6800547314
 20
431.6183983979
 10
262.4374269852
 20
432.5320328713
 10
262.0385391592
 20
433.4080829293
 10
261.491511459
 20
434.228714719
 10
260.8074797911
 20
434.9772225438
 10
260.0003690679
 20
435.6383689427
 10
259.086609736
 20
436.1986948817
 10
258.0848033003
 20
436.6467937406
 10
257.015343651
 20
436.9735435188
 10
255.9000019025
 20
437.1722925331
 10
254.7614831963
 20
437.2389948266
  0
LINE
  5
307
330
1F
100
AcDbEntity
  8
0
  6
Continuous
 62
     7
370
    25
100
AcDbLine
 10
262.7614831963
 20
430.6857784723
 30
0.0
 11
262.7614831963
 21
403.5951255896
 31
0.0
  0
LINE
  5
308
330
1F
100
AcDbEntity
  8
0
  6
Continuous
 62
     7
370
    25
100
AcDbLine
 10
254.7614831963
 20
437.2389948266
 30
0.0
 11
189.2614831963
 21
437.2389948266
 31
0.0
  0
LINE
  5
309
330
1F
100
AcDbEntity
  8
0
  6
Continuous
 62
     7
370
    25
100
AcDbLine
 10
184.2614831963
 20
398.9670015421
 30
0.0
 11
184.2614831963
 21
362.1051595491
 31
0.0
  0
LINE
  5
30A
330
1F
100
AcDbEntity
  8
0
  6
Continuous
 62
     7
370
    25
100
AcDbLine
 10
259.7614831963
 20
362.1051595491
 30
0.0
 11
259.7614831963
 21
398.9670015421
 31
0.0
  0
ARC
  5
30B
330
1F
100
AcDbEntity
  8
0
  6
Continuous
 62
     7
370
    25
100
AcDbCircle
 10
188.8666496207
 20
374.7469827956
 30
0.0
 40
4.432009644542879
100
AcDbArc
 50
186.2435463851
 51
275.1110737956
  0
LINE
  5
30C
330
1F
100
AcDbEntity
  8
0
  6
Continuous
 62
     7
370
    25
100
AcDbLine
 10
184.4609280233
 20
399.9348423483
 30
0.0
 11
184.4609280233
 21
374.2649799997
 31
0.0
  0
LINE
  5
30D
330
1F
100
AcDbEntity
  8
0
  6
Continuous
 62
     7
370
    25
100
AcDbLine
 10
259.5620383693
 20
374.2649799997
 30
0.0
 11
259.5620383693
 21
399.9414329983
 31
0.0
  0
ARC
  5
30E
330
1F
100
AcDbEntity
  8
0
  6
Continuous
 62
     7
370
    25
100
AcDbCircle
 10
255.1563167719
 20
374.7469827956
 30
0.0
 40
4.43200964454277
100
AcDbArc
 50
264.8889262044
 51
353.7564536149
  0
LINE
  5
30F
330
1F
100
AcDbEntity
  8
0
  6
Continuous
 62
     7
370
    25
100
AcDbLine
 10
189.2614831963
 20
370.332595416
 30
0.0
 11
209.5114831963
 21
370.332595416
 31
0.0
  0
LINE
  5
310
330
1F
100
AcDbEntity
  8
0
  6
Continuous
 62
     7
370
    25
100
AcDbLine
 10
234.5114831963
 20
370.332595416
 30
0.0
 11
254.7614831963
 21
370.332595416
 31
0.0
  0
ARC
  5
311
330
1F
100
AcDbEntity
  8
0
  6
Continuous
 62
     7
370
    25
100
AcDbCircle
 10
233.5937306784
 20
380.1237758401
 30
0.0
 40
0.9232285610317021
100
AcDbArc
 50
6.2435463851
 51
95.1110737956
  0
LINE
  5
312
330
1F
100
AcDbEntity
  8
0
  6
Continuous
 62
     7
370
    25
100
AcDbLine
 10
210.5114831963
 20
381.0433335205
 30
0.0
 11
233.5114831963
 21
381.0433335205
 31
0.0
  0
ARC
  5
313
330
1F
100
AcDbEntity
  8
0
  6
Continuous
 62
     7
370
    25
100
AcDbCircle
 10
210.4292357142
 20
380.1237758401
 30
0.0
 40
0.9232285610319246
100
AcDbArc
 50
84.8889262044
 51
173.7564536149
  0
SPLINE
  5
314
330
1F
100
AcDbEntity
  8
0
  6
Continuous
 62
     7
370
    25
100
AcDbSpline
210
0.0
220
0.0
230
1.0
 70
     8
 71
     3
 72
    10
 73
     6
 74
     0
 42
0.00000001
 43
0.00000001
 40
0.0
 40
0.0
 40
0.0
 40
0.0
 40
0.3617927036969462
 40
0.748183170100609
 40
1.0
 40
1.0
 40
1.0
 40
1.0
 10
179.7614831963143
 20
418.8689489489192
 30
0.0
 10
179.8021452444461
 20
419.4920856924317
 30
0.0
 10
179.8862338945576
 20
420.7807253454797
 30
0.0
 10
180.413595322367
 20
422.4570868761504
 30
0.0
 10
181.0215880853373
 20
423.3773459051761
 30
0.0
 10
181.2614831963143
 20
423.7404516119236
 30
0.0
  0
LINE
  5
315
330
1F
100
AcDbEntity
  8
0
  6
Continuous
 62
     7
370
    25
100
AcDbLine
 10
179.7614831963
 20
401.0970781127
 30
0.0
 11
179.7614831963
 21
418.8689489489
 31
0.0
  0
LINE
  5
316
330
1F
100
AcDbEntity
  8
0
  6
Continuous
 62
     7
370
    25
100
AcDbLine
 10
264.2614831963
 20
418.8689489489
 30
0.0
 11
264.2614831963
 21
401.1510530592
 31
0.0
  0
SPLINE
  5
317
330
1F
100
AcDbEntity
  8
0
  6
Continuous
 62
     7
370
    25
100
AcDbSpline
210
0.0
220
0.0
230
1.0
 70
     8
 71
     3
 72
    10
 73
     6
 74
     0
 42
0.00000001
 43
0.00000001
 40
0.0
 40
0.0
 40
0.0
 40
0.0
 40
0.2117636389056034
 40
0.619241413681109
 40
0.9999999999999999
 40
0.9999999999999999
 40
0.9999999999999999
 40
0.9999999999999999
 10
262.7614831963143
 20
423.7219009418577
 30
0.0
 10
262.9700221865493
 20
423.4225637493981
 30
0.0
 10
263.5798340493797
 20
422.5472388485608
 30
0.0
 10
264.121727732134
 20
420.8747317285873
 30
0.0
 10
264.2159628173859
 20
419.5222614523985
 30
0.0
 10
264.2614831963143
 20
418.8689489489192
 30
0.0
  0
SPLINE
  5
318
330
1F
100
AcDbEntity
  8
0
  6
Continuous
 62
     7
370
    25
100
AcDbSpline
210
0.0
220
0.0
230
1.0
 70
     8
 71
     3
 72
    15
 73
    11
 74
     0
 42
0.00000001
 43
0.00000001
 40
0.0
 40
0.0
 40
0.0
 40
0.0
 40
0.1249999999999998
 40
0.2499999999999988
 40
0.3749999999999989
 40
0.499999999999998
 40
0.624999999999999
 40
0.7499999999999981
 40
0.8749999999999987
 40
1.0
 40
1.0
 40
1.0
 40
1.0
 10
297.2614831963143
 20
359.0580724966743
 30
0.0
 10
297.2168226555358
 20
358.2726784750973
 30
0.0
 10
297.1275015739789
 20
356.7018904319432
 30
0.0
 10
296.4139498746873
 20
354.436297570432
 30
0.0
 10
295.3049244459662
 20
352.3481471360784
 30
0.0
 10
293.8010636051079
 20
350.5184920878757
 30
0.0
 10
291.9714085569043
 20
349.0146312470184
 30
0.0
 10
289.88325812255
 20
347.9056058182987
 30
0.0
 10
287.6176652610383
 20
347.1920541190083
 30
0.0
 10
286.0468772178842
 20
347.1027330374523
 30
0.0
 10
285.2614831963072
 20
347.0580724966744
 30
0.0
  0
LINE
  5
319
330
1F
100
AcDbEntity
  8
0
  6
Continuous
 62
     7
370
    25
100
AcDbLine
 10
285.2614831963
 20
347.0580724967
 30
0.0
 11
158.7614831966
 21
347.0580724967
 31
0.0
  0
SPLINE
  5
31A
330
1F
100
AcDbEntity
  8
0
  6
Continuous
 62
     7
370
    25
100
AcDbSpline
210
0.0
220
0.0
230
1.0
 70
     8
 71
     3
 72
    15
 73
    11
 74
     0
 42
0.00000001
 43
0.00000001
 40
0.0
 40
0.0
 40
0.0
 40
0.0
 40
0.1250000000000004
 40
0.2500000000000001
 40
0.3750000000000002
 40
0.5000000000000011
 40
0.6250000000000016
 40
0.7500000000000016
 40
0.8750000000000027
 40
1.0
 40
1.0
 40
1.0
 40
1.0
 10
158.7614831965999
 20
347.0580724966744
 30
0.0
 10
157.9760891749892
 20
347.1027330374378
 30
0.0
 10
156.4053011317678
 20
347.1920541189647
 30
0.0
 10
154.1397082701528
 20
347.9056058182612
 30
0.0
 10
152.051557835708
 20
349.0146312470214
 30
0.0
 10
150.2219027874356
 20
350.5184920879516
 30
0.0
 10
148.7180419465388
 20
352.3481471362515
 30
0.0
 10
147.6090165178168
 20
354.4362975707166
 30
0.0
 10
146.8954648185617
 20
356.7018904323446
 30
0.0
 10
146.8061437370634
 20
358.2726784755675
 30
0.0
 10
146.7614831963143
 20
359.0580724971791
 30
0.0
  0
LINE
  5
31B
330
1F
100
AcDbEntity
  8
0
  6
Continuous
 62
     7
370
    25
100
AcDbLine
 10
146.7614831963
 20
359.0580724972
 30
0.0
 11
146.7614831963
 21
429.8689489489
 31
0.0
  0
SPLINE
  5
31C
330
1F
100
AcDbEntity
  8
0
  6
Continuous
 62
     7
370
    25
100
AcDbSpline
210
0.0
220
0.0
230
1.0
 70
     8
 71
     3
 72
    15
 73
    11
 74
     0
 42
0.00000001
 43
0.00000001
 40
0.0
 40
0.0
 40
0.0
 40
0.0
 40
0.1249999999999986
 40
0.249999999999999
 40
0.3749999999999987
 40
0.4999999999999993
 40
0.6249999999999991
 40
0.7499999999999993
 40
0.8749999999999994
 40
1.0
 40
1.0
 40
1.0
 40
1.0
 10
146.7614831963143
 20
429.8689489489175
 30
0.0
 10
146.8061437370926
 20
430.6543429704943
 30
0.0
 10
146.8954648186492
 20
432.2251310136479
 30
0.0
 10
147.6090165179401
 20
434.4907238751587
 30
0.0
 10
148.7180419466602
 20
436.578874309512
 30
0.0
 10
150.2219027875175
 20
438.4085293577147
 30
0.0
 10
152.05155783572
 20
439.9123901985723
 30
0.0
 10
154.1397082700732
 20
441.0214156272928
 30
0.0
 10
156.4053011315839
 20
441.734967326584
 30
0.0
 10
157.9760891747375
 20
441.8242884081409
 30
0.0
 10
158.7614831963143
 20
441.8689489489192
 30
0.0
  0
LINE
  5
31D
330
1F
100
AcDbEntity
  8
0
  6
Continuous
 62
     7
370
    25
100
AcDbLine
 10
158.7614831963
 20
441.8689489489
 30
0.0
 11
285.2614831962
 21
441.8689489489
 31
0.0
  0
SPLINE
  5
31E
330
1F
100
AcDbEntity
  8
0
  6
Continuous
 62
     7
370
    25
100
AcDbSpline
210
0.0
220
0.0
230
1.0
 70
     8
 71
     3
 72
    15
 73
    11
 74
     0
 42
0.00000001
 43
0.00000001
 40
0.0
 40
0.0
 40
0.0
 40
0.0
 40
0.125000000000002
 40
0.2500000000000018
 40
0.3750000000000006
 40
0.5000000000000004
 40
0.6249999999999998
 40
0.7499999999999993
 40
0.8749999999999989
 40
1.0
 40
1.0
 40
1.0
 40
1.0
 10
285.2614831961508
 20
441.8689489489194
 30
0.0
 10
286.046877217735
 20
441.8242884081508
 30
0.0
 10
287.6176652609033
 20
441.7349673266137
 30
0.0
 10
289.8832581224416
 20
441.0214156273412
 30
0.0
 10
291.9714085568232
 20
439.9123901986309
 30
0.0
 10
293.8010636050532
 20
438.4085293577745
 30
0.0
 10
295.3049244459345
 20
436.578874309565
 30
0.0
 10
296.4139498746733
 20
434.4907238751984
 30
0.0
 10
297.1275015739767
 20
432.2251310136699
 30
0.0
 10
297.2168226555351
 20
430.6543429705027
 30
0.0
 10
297.2614831963143
 20
429.8689489489192
 30
0.0
  0
LINE
  5
31F
330
1F
100
AcDbEntity
  8
0
  6
Continuous
 62
     7
370
    25
100
AcDbLine
 10
297.2614831963
 20
429.8689489489
 30
0.0
 11
297.2614831963
 21
359.0580724967
 31
0.0
  0
LWPOLYLINE
  5
320
330
1F
100
AcDbEntity
  8
0
  6
Continuous
 62
     7
370
    25
100
AcDbPolyline
 90
        3
 70
   128
 43
0.0
 10
259.7614831963
 20
375.4121328724
 10
259.6855219614
 20
374.7009115738
 10
259.5620383693
 20
374.2668803773
  0
LWPOLYLINE
  5
321
330
1F
100
AcDbEntity
  8
0
  6
Continuous
 62
     7
370
    25
100
AcDbPolyline
 90
        3
 70
   128
 43
0.0
 10
184.4609280233
 20
374.2668803773
 10
184.3374444313
 20
374.7009115738
 10
184.2614831963
 20
375.4121328724
  0
LINE
  5
322
330
1F
100
AcDbEntity
  8
0
  6
Continuous
 62
     7
370
    25
100
AcDbLine
 10
234.5114831963
 20
379.6497914837
 30
0.0
 11
234.5114831963
 21
371.3490073307
 31
0.0
  0
LINE
  5
323
330
1F
100
AcDbEntity
  8
0
  6
Continuous
 62
     7
370
    25
100
AcDbLine
 10
209.5114831963
 20
371.3490073307
 30
0.0
 11
209.5114831963
 21
379.6497914837
 31
0.0
  0
LINE
  5
324
330
1F
100
AcDbEntity
  8
0
  6
Continuous
 62
     7
370
    25
100
AcDbLine
 10
234.5114831963
 20
371.3490073307
 30
0.0
 11
234.5114831963
 21
370.2295065038
 31
0.0
  0
LINE
  5
325
330
1F
100
AcDbEntity
  8
0
  6
Continuous
 62
     7
370
    25
100
AcDbLine
 10
209.5114831963
 20
370.2295065038
 30
0.0
 11
209.5114831963
 21
371.3490073307
 31
0.0
  0
LINE
  5
326
330
1F
100
AcDbEntity
  8
0
  6
Continuous
 62
     7
370
    25
100
AcDbLine
 10
209.5114831963
 20
379.6497914837
 30
0.0
 11
209.5114831963
 21
380.2241814763
 31
0.0
  0
LINE
  5
327
330
1F
100
AcDbEntity
  8
0
  6
Continuous
 62
     7
370
    25
100
AcDbLine
 10
234.5114831963
 20
380.2241814763
 30
0.0
 11
234.5114831963
 21
379.6497914837
 31
0.0
  0
MTEXT
  5
328
330
1F
100
AcDbEntity
  8
SLD-0
 62
     7
100
AcDbMText
 10
207.18329867
 20
335.6681212371
 30
0.0
 40
4.7625
 41
0.0
 71
     1
 72
     1
  1
TOP VIEW
  7
SLDTEXTSTYLE0
 73
     1
 44
1.0
  0
ENDSEC
  0
SECTION
  2
OBJECTS
  0
DICTIONARY
  5
C
330
0
100
AcDbDictionary
281
     1
  3
ACAD_GROUP
350
D
  3
ACAD_LAYOUT
350
1A
  3
ACAD_MLINESTYLE
350
17
  3
ACAD_PLOTSETTINGS
350
19
  3
ACAD_PLOTSTYLENAME
350
E
  3
ACAD_SCALELIST
350
47
  3
DWGPROPS
350
329
  0
DICTIONARY
  5
D
102
{ACAD_REACTORS
330
C
102
}
330
C
100
AcDbDictionary
281
     1
  0
DICTIONARY
  5
1A
102
{ACAD_REACTORS
330
C
102
}
330
C
100
AcDbDictionary
281
     1
  3
Layout1
350
1E
  3
Layout2
350
26
  3
Model
350
22
  0
DICTIONARY
  5
17
102
{ACAD_REACTORS
330
C
102
}
330
C
100
AcDbDictionary
281
     1
  3
Standard
350
18
  0
DICTIONARY
  5
19
102
{ACAD_REACTORS
330
C
102
}
330
C
100
AcDbDictionary
281
     1
  0
ACDBDICTIONARYWDFLT
  5
E
102
{ACAD_REACTORS
330
C
102
}
330
C
100
AcDbDictionary
281
     1
  3
Normal
350
F
100
AcDbDictionaryWithDefault
340
F
  0
DICTIONARY
  5
47
102
{ACAD_REACTORS
330
C
102
}
330
C
100
AcDbDictionary
281
     1
  3
A0
350
48
  3
A1
350
49
  3
A2
350
4A
  3
A3
350
4B
  3
A4
350
4C
  3
A5
350
4D
  3
A6
350
4E
  3
A7
350
4F
  3
A8
350
50
  3
A9
350
51
  3
B0
350
52
  3
B1
350
53
  3
B2
350
54
  3
B3
350
55
  3
B4
350
56
  3
B5
350
57
  3
B6
350
58
  3
B7
350
59
  3
B8
350
5A
  3
B9
350
5B
  3
C0
350
5C
  3
C1
350
5D
  3
C2
350
5E
  3
C3
350
5F
  3
C4
350
60
  3
C5
350
61
  3
C6
350
62
  3
C7
350
63
  3
C8
350
64
  3
C9
350
65
  3
D0
350
66
  3
D1
350
67
  3
D2
350
68
  0
XRECORD
  5
329
102
{ACAD_REACTORS
330
C
102
}
330
C
100
AcDbXrecord
280
     1
  1
DWGPROPS COOKIE
  2

  3

  4

  6

  7

  8
Suzanne.Stasiak
  9

300
=
301
=
302
=
303
=
304
=
305
=
306
=
307
=
308
=
309
=
 40
0.0
 41
2459564.799401644
 42
2459564.799404456
  1

 90
        0
  0
LAYOUT
  5
1E
102
{ACAD_REACTORS
330
1A
102
}
330
1A
100
AcDbPlotSettings
  1

  2
none_device
  4

  6

 40
0.0
 41
0.0
 42
0.0
 43
0.0
 44
0.0
 45
0.0
 46
0.0
 47
0.0
 48
0.0
 49
0.0
140
0.0
141
0.0
142
1.0
143
1.0
 70
   688
 72
     1
 73
     0
 74
     5
  7

 75
    16
147
1.0
148
0.0
149
0.0
100
AcDbLayout
  1
Layout1
 70
     1
 71
     1
 10
0.0
 20
0.0
 11
420.0
 21
297.0
 12
0.0
 22
0.0
 32
0.0
 14
1.0000000000E+20
 24
1.0000000000E+20
 34
1.0000000000E+20
 15
-1.0000000000E+20
 25
-1.0000000000E+20
 35
-1.0000000000E+20
146
0.0
 13
0.0
 23
0.0
 33
0.0
 16
1.0
 26
0.0
 36
0.0
 17
0.0
 27
1.0
 37
0.0
 76
     0
330
1B
  0
LAYOUT
  5
26
102
{ACAD_REACTORS
330
1A
102
}
330
1A
100
AcDbPlotSettings
  1

  2
none_device
  4

  6

 40
0.0
 41
0.0
 42
0.0
 43
0.0
 44
0.0
 45
0.0
 46
0.0
 47
0.0
 48
0.0
 49
0.0
140
0.0
141
0.0
142
1.0
143
1.0
 70
   688
 72
     1
 73
     0
 74
     5
  7

 75
    16
147
1.0
148
0.0
149
0.0
100
AcDbLayout
  1
Layout2
 70
     1
 71
     2
 10
0.0
 20
0.0
 11
0.0
 21
0.0
 12
0.0
 22
0.0
 32
0.0
 14
0.0
 24
0.0
 34
0.0
 15
0.0
 25
0.0
 35
0.0
146
0.0
 13
0.0
 23
0.0
 33
0.0
 16
1.0
 26
0.0
 36
0.0
 17
0.0
 27
1.0
 37
0.0
 76
     0
330
23
  0
LAYOUT
  5
22
102
{ACAD_REACTORS
330
1A
102
}
330
1A
100
AcDbPlotSettings
  1

  2
none_device
  4
Letter_(8.50_x_11.00_Inches)
  6

 40
6.35
 41
6.35
 42
6.35000508
 43
6.35000508
 44
215.9
 45
279.4
 46
0.0
 47
0.0
 48
0.0
 49
0.0
140
0.0
141
0.0
142
1.0
143
1.0
 70
  1712
 72
     1
 73
     0
 74
     0
  7

 75
     0
147
1.0
148
0.0
149
0.0
100
AcDbLayout
  1
Model
 70
     1
 71
     0
 10
0.0
 20
0.0
 11
863.6
 21
558.8
 12
0.0
 22
0.0
 32
0.0
 14
0.0
 24
0.0
 34
0.0
 15
863.6
 25
558.8
 35
0.0
146
0.0
 13
0.0
 23
0.0
 33
0.0
 16
1.0
 26
0.0
 36
0.0
 17
0.0
 27
1.0
 37
0.0
 76
     0
330
1F
331
29
  0
MLINESTYLE
  5
18
102
{ACAD_REACTORS
330
17
102
}
330
17
100
AcDbMlineStyle
  2
Standard
 70
     0
  3

 62
   256
 51
90.0
 52
90.0
 71
     2
 49
0.5
 62
   256
  6
BYLAYER
 49
-0.5
 62
   256
  6
BYLAYER
  0
ACDBPLACEHOLDER
  5
F
102
{ACAD_REACTORS
330
E
102
}
330
E
  0
SCALE
  5
48
102
{ACAD_REACTORS
330
47
102
}
330
47
100
AcDbScale
 70
     0
300
1:1
140
1.0
141
1.0
290
     1
  0
SCALE
  5
49
102
{ACAD_REACTORS
330
47
102
}
330
47
100
AcDbScale
 70
     0
300
1:2
140
1.0
141
2.0
290
     0
  0
SCALE
  5
4A
102
{ACAD_REACTORS
330
47
102
}
330
47
100
AcDbScale
 70
     0
300
1:4
140
1.0
141
4.0
290
     0
  0
SCALE
  5
4B
102
{ACAD_REACTORS
330
47
102
}
330
47
100
AcDbScale
 70
     0
300
1:5
140
1.0
141
5.0
290
     0
  0
SCALE
  5
4C
102
{ACAD_REACTORS
330
47
102
}
330
47
100
AcDbScale
 70
     0
300
1:8
140
1.0
141
8.0
290
     0
  0
SCALE
  5
4D
102
{ACAD_REACTORS
330
47
102
}
330
47
100
AcDbScale
 70
     0
300
1:10
140
1.0
141
10.0
290
     0
  0
SCALE
  5
4E
102
{ACAD_REACTORS
330
47
102
}
330
47
100
AcDbScale
 70
     0
300
1:16
140
1.0
141
16.0
290
     0
  0
SCALE
  5
4F
102
{ACAD_REACTORS
330
47
102
}
330
47
100
AcDbScale
 70
     0
300
1:20
140
1.0
141
20.0
290
     0
  0
SCALE
  5
50
102
{ACAD_REACTORS
330
47
102
}
330
47
100
AcDbScale
 70
     0
300
1:30
140
1.0
141
30.0
290
     0
  0
SCALE
  5
51
102
{ACAD_REACTORS
330
47
102
}
330
47
100
AcDbScale
 70
     0
300
1:40
140
1.0
141
40.0
290
     0
  0
SCALE
  5
52
102
{ACAD_REACTORS
330
47
102
}
330
47
100
AcDbScale
 70
     0
300
1:50
140
1.0
141
50.0
290
     0
  0
SCALE
  5
53
102
{ACAD_REACTORS
330
47
102
}
330
47
100
AcDbScale
 70
     0
300
1:100
140
1.0
141
100.0
290
     0
  0
SCALE
  5
54
102
{ACAD_REACTORS
330
47
102
}
330
47
100
AcDbScale
 70
     0
300
2:1
140
2.0
141
1.0
290
     0
  0
SCALE
  5
55
102
{ACAD_REACTORS
330
47
102
}
330
47
100
AcDbScale
 70
     0
300
4:1
140
4.0
141
1.0
290
     0
  0
SCALE
  5
56
102
{ACAD_REACTORS
330
47
102
}
330
47
100
AcDbScale
 70
     0
300
8:1
140
8.0
141
1.0
290
     0
  0
SCALE
  5
57
102
{ACAD_REACTORS
330
47
102
}
330
47
100
AcDbScale
 70
     0
300
10:1
140
10.0
141
1.0
290
     0
  0
SCALE
  5
58
102
{ACAD_REACTORS
330
47
102
}
330
47
100
AcDbScale
 70
     0
300
100:1
140
100.0
141
1.0
290
     0
  0
SCALE
  5
59
102
{ACAD_REACTORS
330
47
102
}
330
47
100
AcDbScale
 70
     0
300
1/128" = 1'-0"
140
0.0078125
141
12.0
290
     0
  0
SCALE
  5
5A
102
{ACAD_REACTORS
330
47
102
}
330
47
100
AcDbScale
 70
     0
300
1/64" = 1'-0"
140
0.015625
141
12.0
290
     0
  0
SCALE
  5
5B
102
{ACAD_REACTORS
330
47
102
}
330
47
100
AcDbScale
 70
     0
300
1/32" = 1'-0"
140
0.03125
141
12.0
290
     0
  0
SCALE
  5
5C
102
{ACAD_REACTORS
330
47
102
}
330
47
100
AcDbScale
 70
     0
300
1/16" = 1'-0"
140
0.0625
141
12.0
290
     0
  0
SCALE
  5
5D
102
{ACAD_REACTORS
330
47
102
}
330
47
100
AcDbScale
 70
     0
300
3/32" = 1'-0"
140
0.09375
141
12.0
290
     0
  0
SCALE
  5
5E
102
{ACAD_REACTORS
330
47
102
}
330
47
100
AcDbScale
 70
     0
300
1/8" = 1'-0"
140
0.125
141
12.0
290
     0
  0
SCALE
  5
5F
102
{ACAD_REACTORS
330
47
102
}
330
47
100
AcDbScale
 70
     0
300
3/16" = 1'-0"
140
0.1875
141
12.0
290
     0
  0
SCALE
  5
60
102
{ACAD_REACTORS
330
47
102
}
330
47
100
AcDbScale
 70
     0
300
1/4" = 1'-0"
140
0.25
141
12.0
290
     0
  0
SCALE
  5
61
102
{ACAD_REACTORS
330
47
102
}
330
47
100
AcDbScale
 70
     0
300
3/8" = 1'-0"
140
0.375
141
12.0
290
     0
  0
SCALE
  5
62
102
{ACAD_REACTORS
330
47
102
}
330
47
100
AcDbScale
 70
     0
300
1/2" = 1'-0"
140
0.5
141
12.0
290
     0
  0
SCALE
  5
63
102
{ACAD_REACTORS
330
47
102
}
330
47
100
AcDbScale
 70
     0
300
3/4" = 1'-0"
140
0.75
141
12.0
290
     0
  0
SCALE
  5
64
102
{ACAD_REACTORS
330
47
102
}
330
47
100
AcDbScale
 70
     0
300
1" = 1'-0"
140
1.0
141
12.0
290
     0
  0
SCALE
  5
65
102
{ACAD_REACTORS
330
47
102
}
330
47
100
AcDbScale
 70
     0
300
1-1/2" = 1'-0"
140
1.5
141
12.0
290
     0
  0
SCALE
  5
66
102
{ACAD_REACTORS
330
47
102
}
330
47
100
AcDbScale
 70
     0
300
3" = 1'-0"
140
3.0
141
12.0
290
     0
  0
SCALE
  5
67
102
{ACAD_REACTORS
330
47
102
}
330
47
100
AcDbScale
 70
     0
300
6" = 1'-0"
140
6.0
141
12.0
290
     0
  0
SCALE
  5
68
102
{ACAD_REACTORS
330
47
102
}
330
47
100
AcDbScale
 70
     0
300
1'-0" = 1'-0"
140
12.0
141
12.0
290
     0
  0
ENDSEC
  0
EOF
