  0
SECTION
  2
HEADER
  9
$ACADVER
  1
AC1015
  9
$ACADMAINTVER
 70
     6
  9
$DWGCODEPAGE
  3
ANSI_1252
  9
$INSBASE
 10
0.0
 20
0.0
 30
0.0
  9
$EXTMIN
 10
0.0
 20
0.0
 30
0.0
  9
$EXTMAX
 10
2159.0
 20
1397.0
 30
0.0
  9
$LIMMIN
 10
0.0
 20
0.0
  9
$LIMMAX
 10
2159.0
 20
1397.0
  9
$ORTHOMODE
 70
     0
  9
$REGENMODE
 70
     1
  9
$FILLMODE
 70
     1
  9
$QTEXTMODE
 70
     0
  9
$MIRRTEXT
 70
     1
  9
$LTSCALE
 40
5.0
  9
$ATTMODE
 70
     1
  9
$TEXTSIZE
 40
15.875
  9
$TRACEWID
 40
1.0
  9
$TEXTSTYLE
  7
STANDARD
  9
$CLAYER
  8
0
  9
$CELTYPE
  6
ByLayer
  9
$CECOLOR
 62
   256
  9
$CELTSCALE
 40
1.0
  9
$DISPSILH
 70
     0
  9
$DIMSCALE
 40
1.0
  9
$DIMASZ
 40
10.0
  9
$DIMEXO
 40
3.81
  9
$DIMDLI
 40
3.75
  9
$DIMRND
 40
0.0
  9
$DIMDLE
 40
0.0
  9
$DIMEXE
 40
3.81
  9
$DIMTP
 40
0.0
  9
$DIMTM
 40
0.0
  9
$DIMTXT
 40
15.875
  9
$DIMCEN
 40
2.5
  9
$DIMTSZ
 40
0.0
  9
$DIMTOL
 70
     0
  9
$DIMLIM
 70
     0
  9
$DIMTIH
 70
     1
  9
$DIMTOH
 70
     1
  9
$DIMSE1
 70
     0
  9
$DIMSE2
 70
     0
  9
$DIMTAD
 70
     0
  9
$DIMZIN
 70
     1
  9
$DIMBLK
  1

  9
$DIMASO
 70
     1
  9
$DIMSHO
 70
     1
  9
$DIMPOST
  1

  9
$DIMAPOST
  1

  9
$DIMALT
 70
     0
  9
$DIMALTD
 70
     3
  9
$DIMALTF
 40
0.0393700787
  9
$DIMLFAC
 40
1.0
  9
$DIMTOFL
 70
     1
  9
$DIMTVP
 40
0.0
  9
$DIMTIX
 70
     0
  9
$DIMSOXD
 70
     0
  9
$DIMSAH
 70
     0
  9
$DIMBLK1
  1

  9
$DIMBLK2
  1

  9
$DIMSTYLE
  2
ISO-25
  9
$DIMCLRD
 70
     0
  9
$DIMCLRE
 70
     0
  9
$DIMCLRT
 70
     0
  9
$DIMTFAC
 40
1.0
  9
$DIMGAP
 40
7.62
  9
$DIMJUST
 70
     0
  9
$DIMSD1
 70
     0
  9
$DIMSD2
 70
     0
  9
$DIMTOLJ
 70
     0
  9
$DIMTZIN
 70
     1
  9
$DIMALTZ
 70
     0
  9
$DIMALTTZ
 70
     0
  9
$DIMUPT
 70
     0
  9
$DIMDEC
 70
     2
  9
$DIMTDEC
 70
     2
  9
$DIMALTU
 70
     2
  9
$DIMALTTD
 70
     3
  9
$DIMTXSTY
  7
STANDARD
  9
$DIMAUNIT
 70
     0
  9
$DIMADEC
 70
     0
  9
$DIMALTRND
 40
0.0
  9
$DIMAZIN
 70
     0
  9
$DIMDSEP
 70
    44
  9
$DIMATFIT
 70
     3
  9
$DIMFRAC
 70
     0
  9
$DIMLDRBLK
  1

  9
$DIMLUNIT
 70
     2
  9
$DIMLWD
 70
    -2
  9
$DIMLWE
 70
    -2
  9
$DIMTMOVE
 70
     0
  9
$LUNITS
 70
     2
  9
$LUPREC
 70
     2
  9
$SKETCHINC
 40
1.0
  9
$FILLETRAD
 40
10.0
  9
$AUNITS
 70
     0
  9
$AUPREC
 70
     0
  9
$MENU
  1
.
  9
$ELEVATION
 40
0.0
  9
$PELEVATION
 40
0.0
  9
$THICKNESS
 40
0.0
  9
$LIMCHECK
 70
     0
  9
$CHAMFERA
 40
0.0
  9
$CHAMFERB
 40
0.0
  9
$CHAMFERC
 40
0.0
  9
$CHAMFERD
 40
0.0
  9
$SKPOLY
 70
     0
  9
$TDCREATE
 40
2459523.608283577
  9
$TDUCREATE
 40
2459523.899950243
  9
$TDUPDATE
 40
2459523.608286632
  9
$TDUUPDATE
 40
2459523.899953299
  9
$TDINDWG
 40
0.0000000116
  9
$TDUSRTIMER
 40
0.0000000116
  9
$USRTIMER
 70
     1
  9
$ANGBASE
 50
0.0
  9
$ANGDIR
 70
     0
  9
$PDMODE
 70
     0
  9
$PDSIZE
 40
-1.0
  9
$PLINEWID
 40
0.0
  9
$SPLFRAME
 70
     0
  9
$SPLINETYPE
 70
     6
  9
$SPLINESEGS
 70
     8
  9
$HANDSEED
  5
3C6
  9
$SURFTAB1
 70
     6
  9
$SURFTAB2
 70
     6
  9
$SURFTYPE
 70
     6
  9
$SURFU
 70
     6
  9
$SURFV
 70
     6
  9
$UCSBASE
  2

  9
$UCSNAME
  2

  9
$UCSORG
 10
0.0
 20
0.0
 30
0.0
  9
$UCSXDIR
 10
1.0
 20
0.0
 30
0.0
  9
$UCSYDIR
 10
0.0
 20
1.0
 30
0.0
  9
$UCSORTHOREF
  2

  9
$UCSORTHOVIEW
 70
     0
  9
$UCSORGTOP
 10
0.0
 20
0.0
 30
0.0
  9
$UCSORGBOTTOM
 10
0.0
 20
0.0
 30
0.0
  9
$UCSORGLEFT
 10
0.0
 20
0.0
 30
0.0
  9
$UCSORGRIGHT
 10
0.0
 20
0.0
 30
0.0
  9
$UCSORGFRONT
 10
0.0
 20
0.0
 30
0.0
  9
$UCSORGBACK
 10
0.0
 20
0.0
 30
0.0
  9
$PUCSBASE
  2

  9
$PUCSNAME
  2

  9
$PUCSORG
 10
0.0
 20
0.0
 30
0.0
  9
$PUCSXDIR
 10
1.0
 20
0.0
 30
0.0
  9
$PUCSYDIR
 10
0.0
 20
1.0
 30
0.0
  9
$PUCSORTHOREF
  2

  9
$PUCSORTHOVIEW
 70
     0
  9
$PUCSORGTOP
 10
0.0
 20
0.0
 30
0.0
  9
$PUCSORGBOTTOM
 10
0.0
 20
0.0
 30
0.0
  9
$PUCSORGLEFT
 10
0.0
 20
0.0
 30
0.0
  9
$PUCSORGRIGHT
 10
0.0
 20
0.0
 30
0.0
  9
$PUCSORGFRONT
 10
0.0
 20
0.0
 30
0.0
  9
$PUCSORGBACK
 10
0.0
 20
0.0
 30
0.0
  9
$USERI1
 70
     0
  9
$USERI2
 70
     0
  9
$USERI3
 70
     0
  9
$USERI4
 70
     0
  9
$USERI5
 70
     0
  9
$USERR1
 40
0.0
  9
$USERR2
 40
0.0
  9
$USERR3
 40
0.0
  9
$USERR4
 40
0.0
  9
$USERR5
 40
0.0
  9
$WORLDVIEW
 70
     1
  9
$SHADEDGE
 70
     3
  9
$SHADEDIF
 70
    70
  9
$TILEMODE
 70
     1
  9
$MAXACTVP
 70
    64
  9
$PINSBASE
 10
0.0
 20
0.0
 30
0.0
  9
$PLIMCHECK
 70
     0
  9
$PEXTMIN
 10
1.0000000000E+20
 20
1.0000000000E+20
 30
1.0000000000E+20
  9
$PEXTMAX
 10
-1.0000000000E+20
 20
-1.0000000000E+20
 30
-1.0000000000E+20
  9
$PLIMMIN
 10
0.0
 20
0.0
  9
$PLIMMAX
 10
420.0
 20
297.0
  9
$UNITMODE
 70
     0
  9
$VISRETAIN
 70
     1
  9
$PLINEGEN
 70
     0
  9
$PSLTSCALE
 70
     1
  9
$TREEDEPTH
 70
  3020
  9
$CMLSTYLE
  2
Standard
  9
$CMLJUST
 70
     0
  9
$CMLSCALE
 40
20.0
  9
$PROXYGRAPHICS
 70
     1
  9
$MEASUREMENT
 70
     1
  9
$CELWEIGHT
370
    -1
  9
$ENDCAPS
280
     0
  9
$JOINSTYLE
280
     0
  9
$LWDISPLAY
290
     1
  9
$INSUNITS
 70
     4
  9
$HYPERLINKBASE
  1

  9
$STYLESHEET
  1

  9
$XEDIT
290
     1
  9
$CEPSNTYPE
380
     0
  9
$PSTYLEMODE
290
     1
  9
$FINGERPRINTGUID
  2
{82b55ece-48c9-4606-9b8e-6eaa5fd85c6b}
  9
$VERSIONGUID
  2
{FAEB1C32-E019-11D5-929B-00C0DF256EC4}
  9
$EXTNAMES
290
     1
  9
$PSVPSCALE
 40
0.0
  9
$OLESTARTUP
290
     0
  0
ENDSEC
  0
SECTION
  2
CLASSES
  0
CLASS
  1
ACDBDICTIONARYWDFLT
  2
AcDbDictionaryWithDefault
  3
ObjectDBX Classes
 90
        0
280
     0
281
     0
  0
CLASS
  1
VISUALSTYLE
  2
AcDbVisualStyle
  3
ObjectDBX Classes
 90
     4095
280
     0
281
     0
  0
CLASS
  1
MATERIAL
  2
AcDbMaterial
  3
ObjectDBX Classes
 90
     1153
280
     0
281
     0
  0
CLASS
  1
SCALE
  2
AcDbScale
  3
ObjectDBX Classes
 90
     1153
280
     0
281
     0
  0
CLASS
  1
TABLESTYLE
  2
AcDbTableStyle
  3
ObjectDBX Classes
 90
     4095
280
     0
281
     0
  0
CLASS
  1
MLEADERSTYLE
  2
AcDbMLeaderStyle
  3
ACDB_MLEADERSTYLE_CLASS
 90
     4095
280
     0
281
     0
  0
CLASS
  1
SUN
  2
AcDbSun
  3
SCENEOE
 90
     1153
280
     0
281
     0
  0
CLASS
  1
ACDBPLACEHOLDER
  2
AcDbPlaceHolder
  3
ObjectDBX Classes
 90
        0
280
     0
281
     0
  0
CLASS
  1
LAYOUT
  2
AcDbLayout
  3
ObjectDBX Classes
 90
        0
280
     0
281
     0
  0
ENDSEC
  0
SECTION
  2
TABLES
  0
TABLE
  2
VPORT
  5
8
330
0
100
AcDbSymbolTable
 70
     1
  0
VPORT
  5
29
330
8
100
AcDbSymbolTableRecord
100
AcDbViewportTableRecord
  2
*Active
 70
     0
 10
0.0
 20
0.0
 11
1.0
 21
1.0
 12
1079.5
 22
698.5
 13
0.0
 23
0.0
 14
10.0
 24
10.0
 15
10.0
 25
10.0
 16
0.0
 26
0.0
 36
1.0
 17
0.0
 27
0.0
 37
0.0
 40
1397.0
 41
1.5454545455
 42
50.0
 43
0.0
 44
0.0
 50
0.0
 51
0.0
 71
     0
 72
  2000
 73
     1
 74
     3
 75
     0
 76
     0
 77
     0
 78
     0
281
     0
 65
     1
110
0.0
120
0.0
130
0.0
111
1.0
121
0.0
131
0.0
112
0.0
122
1.0
132
0.0
 79
     0
146
0.0
  0
ENDTAB
  0
TABLE
  2
LTYPE
  5
5
330
0
100
AcDbSymbolTable
 70
     6
  0
LTYPE
  5
14
330
5
100
AcDbSymbolTableRecord
100
AcDbLinetypeTableRecord
  2
ByBlock
 70
     0
  3

 72
    65
 73
     0
 40
0.0
  0
LTYPE
  5
15
330
5
100
AcDbSymbolTableRecord
100
AcDbLinetypeTableRecord
  2
ByLayer
 70
     0
  3

 72
    65
 73
     0
 40
0.0
  0
LTYPE
  5
16
330
5
100
AcDbSymbolTableRecord
100
AcDbLinetypeTableRecord
  2
Continuous
 70
     0
  3
Solid line
 72
    65
 73
     0
 40
0.0
  0
LTYPE
  5
6E
330
5
100
AcDbSymbolTableRecord
100
AcDbLinetypeTableRecord
  2
HIDDEN
 70
     0
  3
Hidden __ __ __ __ __ __ __ __ __ __ __ __ __ __
 72
    65
 73
     2
 40
1.905
 49
1.27
 74
     0
 49
-0.635
 74
     0
  0
LTYPE
  5
6F
330
5
100
AcDbSymbolTableRecord
100
AcDbLinetypeTableRecord
  2
PHANTOM
 70
     0
  3
Phantom ______  __  __  ______  __  __  ______
 72
    65
 73
     6
 40
12.7
 49
6.35
 74
     0
 49
-1.27
 74
     0
 49
1.27
 74
     0
 49
-1.27
 74
     0
 49
1.27
 74
     0
 49
-1.27
 74
     0
  0
LTYPE
  5
70
330
5
100
AcDbSymbolTableRecord
100
AcDbLinetypeTableRecord
  2
CENTER
 70
     0
  3
Center ____ _ ____ _ ____ _ ____ _ ____ _ ____
 72
    65
 73
     4
 40
10.16
 49
6.35
 74
     0
 49
-1.27
 74
     0
 49
1.27
 74
     0
 49
-1.27
 74
     0
  0
LTYPE
  5
71
330
5
100
AcDbSymbolTableRecord
100
AcDbLinetypeTableRecord
  2
CENTERX2
 70
     0
  3
Center (2x) ________  __  ________  __  _____
 72
    65
 73
     4
 40
20.32
 49
12.7
 74
     0
 49
-2.54
 74
     0
 49
2.54
 74
     0
 49
-2.54
 74
     0
  0
LTYPE
  5
72
330
5
100
AcDbSymbolTableRecord
100
AcDbLinetypeTableRecord
  2
DOT2
 70
     0
  3
Dot (.5x) ........................................
 72
    65
 73
     2
 40
0.635
 49
0.0
 74
     0
 49
-0.635
 74
     0
  0
ENDTAB
  0
TABLE
  2
LAYER
  5
2
330
0
100
AcDbSymbolTable
 70
     6
  0
LAYER
  5
10
330
2
100
AcDbSymbolTableRecord
100
AcDbLayerTableRecord
  2
0
 70
     0
 62
     7
  6
Continuous
370
    -3
390
F
  0
LAYER
  5
73
330
2
100
AcDbSymbolTableRecord
100
AcDbLayerTableRecord
  2
SLD-0
 70
     0
 62
   179
  6
Continuous
370
    -3
390
F
  0
LAYER
  5
74
330
2
100
AcDbSymbolTableRecord
100
AcDbLayerTableRecord
  2
WIRE_BOND
 70
     0
 62
     6
  6
Continuous
370
   100
390
F
  0
LAYER
  5
75
330
2
100
AcDbSymbolTableRecord
100
AcDbLayerTableRecord
  2
HIGHLIGHT-BLUE
 70
     0
 62
     5
  6
Continuous
370
    70
390
F
  0
LAYER
  5
76
330
2
100
AcDbSymbolTableRecord
100
AcDbLayerTableRecord
  2
MANUAL_DIM
 70
     0
 62
   114
  6
Continuous
370
    -3
390
F
  0
LAYER
  5
77
330
2
100
AcDbSymbolTableRecord
100
AcDbLayerTableRecord
  2
TORQUE_9-10
 70
     0
 62
   155
  6
Continuous
370
    -3
390
F
  0
ENDTAB
  0
TABLE
  2
STYLE
  5
3
330
0
100
AcDbSymbolTable
 70
     5
  0
STYLE
  5
11
330
3
100
AcDbSymbolTableRecord
100
AcDbTextStyleTableRecord
  2
STANDARD
 70
     0
 40
0.0
 41
1.0
 50
0.0
 71
     0
 42
15.875
  3
GOTHIC.TTF
  4

1001
ACAD
1000
CENTURY GOTHIC
1071
       34
  0
STYLE
  5
105
330
3
100
AcDbSymbolTableRecord
100
AcDbTextStyleTableRecord
  2
SLDTEXTSTYLE0
 70
     0
 40
0.0
 41
0.9412371134
 50
0.0
 71
     0
 42
15.875
  3
GOTHIC.TTF
  4

1001
ACAD
1000
Century Gothic
1071
      290
  0
STYLE
  5
10B
330
3
100
AcDbSymbolTableRecord
100
AcDbTextStyleTableRecord
  2
SLDTEXTSTYLE1
 70
     0
 40
0.0
 41
0.9412371134
 50
0.0
 71
     0
 42
15.875
  3
GOTHIC.TTF
  4
bigfont
1001
ACAD
1000
Century Gothic
1071
      290
  0
STYLE
  5
10E
330
3
100
AcDbSymbolTableRecord
100
AcDbTextStyleTableRecord
  2
SLDTEXTSTYLE2
 70
     0
 40
0.0
 41
0.913
 50
0.0
 71
     0
 42
15.875
  3
GOTHIC.TTF
  4

1001
ACAD
1000
Century Gothic
1071
      290
  0
STYLE
  5
112
330
3
100
AcDbSymbolTableRecord
100
AcDbTextStyleTableRecord
  2
SLDTEXTSTYLE3
 70
     0
 40
0.0
 41
0.948
 50
0.0
 71
     0
 42
15.875
  3
ARIAL.TTF
  4

1001
ACAD
1000
Arial
1071
      290
  0
ENDTAB
  0
TABLE
  2
VIEW
  5
6
330
0
100
AcDbSymbolTable
 70
     0
  0
ENDTAB
  0
TABLE
  2
UCS
  5
7
330
0
100
AcDbSymbolTable
 70
     0
  0
ENDTAB
  0
TABLE
  2
APPID
  5
9
330
0
100
AcDbSymbolTable
 70
     1
  0
APPID
  5
12
330
9
100
AcDbSymbolTableRecord
100
AcDbRegAppTableRecord
  2
ACAD
 70
     0
  0
ENDTAB
  0
TABLE
  2
DIMSTYLE
  5
A
330
0
100
AcDbSymbolTable
 70
     4
100
AcDbDimStyleTable
  0
DIMSTYLE
105
27
330
A
100
AcDbSymbolTableRecord
100
AcDbDimStyleTableRecord
  2
ISO-25
 70
     0
 41
2.5
 42
0.625
 43
3.75
 44
1.25
 73
     0
 74
     0
 77
     1
 78
     8
140
2.5
141
2.5
143
0.0393700787
147
0.625
171
     3
172
     1
178
     0
271
     2
272
     2
274
     3
278
    44
283
     0
284
     8
340
11
  0
DIMSTYLE
105
2D6
102
{ACAD_REACTORS
330
2D5
102
}
330
A
100
AcDbSymbolTableRecord
100
AcDbDimStyleTableRecord
  2
SLDDIMSTYLE0
 70
     0
 41
10.0
 44
0.0
 45
0.000000001
 78
     4
 79
     1
140
11.90625
147
2.9765625
173
     1
178
     0
271
     1
272
     2
276
     2
284
    12
340
10E
  0
DIMSTYLE
105
2E2
102
{ACAD_REACTORS
330
2E1
330
2ED
330
337
102
}
330
A
100
AcDbSymbolTableRecord
100
AcDbDimStyleTableRecord
  2
SLDDIMSTYLE1
 70
     0
 41
10.0
 44
0.0
 45
0.000000001
 78
    12
 79
     3
140
11.90625
147
2.9765625
173
     1
178
     0
271
     1
272
     2
276
     2
284
    12
340
10E
  0
DIMSTYLE
105
344
102
{ACAD_REACTORS
330
343
330
351
330
35D
330
390
330
39B
102
}
330
A
100
AcDbSymbolTableRecord
100
AcDbDimStyleTableRecord
  2
SLDDIMSTYLE2
 70
     0
 41
10.0
 44
0.0
 45
0.000000001
 78
    12
 79
     3
140
11.90625
147
2.9765625
172
     1
173
     1
178
     0
271
     1
272
     2
276
     2
284
    12
289
     0
340
10E
  0
ENDTAB
  0
TABLE
  2
BLOCK_RECORD
  5
1
330
0
100
AcDbSymbolTable
 70
    21
  0
BLOCK_RECORD
  5
1F
330
1
100
AcDbSymbolTableRecord
100
AcDbBlockTableRecord
  2
*Model_Space
340
22
  0
BLOCK_RECORD
  5
1B
330
1
100
AcDbSymbolTableRecord
100
AcDbBlockTableRecord
  2
*Paper_Space
340
1E
  0
BLOCK_RECORD
  5
23
330
1
100
AcDbSymbolTableRecord
100
AcDbBlockTableRecord
  2
*Paper_Space0
340
26
  0
BLOCK_RECORD
  5
78
330
1
100
AcDbSymbolTableRecord
100
AcDbBlockTableRecord
  2
QSC Logo
340
0
102
{BLKREFS
331
101
102
}
  0
BLOCK_RECORD
  5
102
330
1
100
AcDbSymbolTableRecord
100
AcDbBlockTableRecord
  2
SW_NOTE_0
340
0
102
{BLKREFS
331
10D
102
}
  0
BLOCK_RECORD
  5
114
330
1
100
AcDbSymbolTableRecord
100
AcDbBlockTableRecord
  2
SW_NOTE_0_1
340
0
102
{BLKREFS
331
119
102
}
  0
BLOCK_RECORD
  5
137
330
1
100
AcDbSymbolTableRecord
100
AcDbBlockTableRecord
  2
SW_NOTE_0_2
340
0
102
{BLKREFS
331
13D
102
}
  0
BLOCK_RECORD
  5
13E
330
1
100
AcDbSymbolTableRecord
100
AcDbBlockTableRecord
  2
SW_NOTE_0_3
340
0
102
{BLKREFS
331
146
102
}
  0
BLOCK_RECORD
  5
148
330
1
100
AcDbSymbolTableRecord
100
AcDbBlockTableRecord
  2
SW_NOTE_0_4
340
0
102
{BLKREFS
331
14D
102
}
  0
BLOCK_RECORD
  5
16A
330
1
100
AcDbSymbolTableRecord
100
AcDbBlockTableRecord
  2
SW_TABLEANNOTATION_0
340
0
102
{BLKREFS
331
192
102
}
  0
BLOCK_RECORD
  5
2D7
330
1
100
AcDbSymbolTableRecord
100
AcDbBlockTableRecord
  2
_D
340
0
  0
BLOCK_RECORD
  5
2E3
330
1
100
AcDbSymbolTableRecord
100
AcDbBlockTableRecord
  2
_D_1
340
0
  0
BLOCK_RECORD
  5
2EE
330
1
100
AcDbSymbolTableRecord
100
AcDbBlockTableRecord
  2
_D_2
340
0
  0
BLOCK_RECORD
  5
2F8
330
1
100
AcDbSymbolTableRecord
100
AcDbBlockTableRecord
  2
SW_SYMBOL_MOD_CL
340
0
102
{BLKREFS
331
2FD
331
369
102
}
  0
BLOCK_RECORD
  5
338
330
1
100
AcDbSymbolTableRecord
100
AcDbBlockTableRecord
  2
_D_3
340
0
  0
BLOCK_RECORD
  5
345
330
1
100
AcDbSymbolTableRecord
100
AcDbBlockTableRecord
  2
_D_4
340
0
  0
BLOCK_RECORD
  5
352
330
1
100
AcDbSymbolTableRecord
100
AcDbBlockTableRecord
  2
_D_5
340
0
  0
BLOCK_RECORD
  5
35E
330
1
100
AcDbSymbolTableRecord
100
AcDbBlockTableRecord
  2
_D_6
340
0
  0
BLOCK_RECORD
  5
36A
330
1
100
AcDbSymbolTableRecord
100
AcDbBlockTableRecord
  2
SW_CENTERMARKSYMBOL_0
340
0
102
{BLKREFS
331
371
102
}
  0
BLOCK_RECORD
  5
372
330
1
100
AcDbSymbolTableRecord
100
AcDbBlockTableRecord
  2
SW_CENTERMARKSYMBOL_1
340
0
102
{BLKREFS
331
379
102
}
  0
BLOCK_RECORD
  5
391
330
1
100
AcDbSymbolTableRecord
100
AcDbBlockTableRecord
  2
_D_7
340
0
  0
BLOCK_RECORD
  5
39C
330
1
100
AcDbSymbolTableRecord
100
AcDbBlockTableRecord
  2
_D_8
340
0
  0
BLOCK_RECORD
  5
3A7
330
1
100
AcDbSymbolTableRecord
100
AcDbBlockTableRecord
  2
SW_NOTE_0_5
340
0
102
{BLKREFS
331
3AE
102
}
  0
ENDTAB
  0
ENDSEC
  0
SECTION
  2
BLOCKS
  0
BLOCK
  5
20
330
1F
100
AcDbEntity
  8
0
100
AcDbBlockBegin
  2
*Model_Space
 70
     0
 10
0.0
 20
0.0
 30
0.0
  3
*Model_Space
  1

  0
ENDBLK
  5
21
330
1F
100
AcDbEntity
  8
0
100
AcDbBlockEnd
  0
BLOCK
  5
1C
330
1B
100
AcDbEntity
 67
     1
  8
0
100
AcDbBlockBegin
  2
*Paper_Space
 70
     0
 10
0.0
 20
0.0
 30
0.0
  3
*Paper_Space
  1

  0
ENDBLK
  5
1D
330
1B
100
AcDbEntity
 67
     1
  8
0
100
AcDbBlockEnd
  0
BLOCK
  5
24
330
23
100
AcDbEntity
  8
0
100
AcDbBlockBegin
  2
*Paper_Space0
 70
     0
 10
0.0
 20
0.0
 30
0.0
  3
*Paper_Space0
  1

  0
ENDBLK
  5
25
330
23
100
AcDbEntity
  8
0
100
AcDbBlockEnd
  0
BLOCK
  5
79
330
78
100
AcDbEntity
  8
0
100
AcDbBlockBegin
  2
QSC Logo
 70
     0
 10
0.0
 20
0.0
 30
0.0
  3
QSC Logo
  1

  0
ARC
  5
7B
330
78
100
AcDbEntity
  8
SLD-0
  6
Continuous
370
    25
100
AcDbCircle
 10
150.4981987846
 20
27.1893362613
 30
0.0
 40
1.414063970190082
100
AcDbArc
 50
270.0
 51
0.0
  0
ARC
  5
7C
330
78
100
AcDbEntity
  8
SLD-0
  6
Continuous
370
    25
100
AcDbCircle
 10
150.4981987903
 20
30.0184360355
 30
0.0
 40
1.414063964475069
100
AcDbArc
 50
0.000000539
 51
89.9999999245
  0
ARC
  5
7D
330
78
100
AcDbEntity
  8
SLD-0
  6
Continuous
370
    25
100
AcDbCircle
 10
150.4981987922
 20
4.64334787
 30
0.0
 40
1.414063962603421
100
AcDbArc
 50
270.1250535673
 51
0.0
  0
ARC
  5
7E
330
78
100
AcDbEntity
  8
SLD-0
  6
Continuous
370
    25
100
AcDbCircle
 10
150.4981987903
 20
7.4921672
 30
0.0
 40
1.414063964475104
100
AcDbArc
 50
0.0
 51
90.0
  0
ARC
  5
7F
330
78
100
AcDbEntity
  8
SLD-0
  6
Continuous
370
    25
100
AcDbCircle
 10
117.9137898883
 20
24.3612083152
 30
0.0
 40
1.41406397590492
100
AcDbArc
 50
90.0
 51
180.0
  0
ARC
  5
80
330
78
100
AcDbEntity
  8
SLD-0
  6
Continuous
370
    25
100
AcDbCircle
 10
86.9719388593
 20
13.0851693903
 30
0.0
 40
1.414063970190938
100
AcDbArc
 50
0.0
 51
89.9999995368
  0
ARC
  5
81
330
78
100
AcDbEntity
  8
SLD-0
  6
Continuous
370
    25
100
AcDbCircle
 10
55.3131088744
 20
7.3696688992
 30
0.0
 40
1.414063970189942
100
AcDbArc
 50
90.0
 51
180.0
  0
ARC
  5
82
330
78
100
AcDbEntity
  8
SLD-0
  6
Continuous
370
    25
100
AcDbCircle
 10
55.3131088744
 20
4.6905310545
 30
0.0
 40
1.414063970190047
100
AcDbArc
 50
180.0
 51
270.0
  0
ARC
  5
83
330
78
100
AcDbEntity
  8
SLD-0
  6
Continuous
370
    25
100
AcDbCircle
 10
67.8188996229
 20
24.3047901876
 30
0.0
 40
1.414063964475069
100
AcDbArc
 50
90.0
 51
180.0
  0
ARC
  5
84
330
78
100
AcDbEntity
  8
SLD-0
  6
Continuous
370
    25
100
AcDbCircle
 10
99.5207018301
 20
27.1329181223
 30
0.0
 40
1.414063970190398
100
AcDbArc
 50
270.0
 51
0.0
  0
ARC
  5
85
330
78
100
AcDbEntity
  8
SLD-0
  6
Continuous
370
    25
100
AcDbCircle
 10
99.5207018301
 20
30.0184360241
 30
0.0
 40
1.414063970190398
100
AcDbArc
 50
359.9999995369
 51
90.0
  0
ARC
  5
86
330
78
100
AcDbEntity
  8
SLD-0
  6
Continuous
370
    25
100
AcDbCircle
 10
30.0802579737
 20
0.5438707525
 30
0.0
 40
0.5438707524901822
100
AcDbArc
 50
180.0
 51
270.0
  0
ARC
  5
87
330
78
100
AcDbEntity
  8
SLD-0
  6
Continuous
370
    25
100
AcDbCircle
 10
38.548878819
 20
0.5438707525
 30
0.0
 40
0.5438707524901137
100
AcDbArc
 50
270.0
 51
0.0
  0
ARC
  5
88
330
78
100
AcDbEntity
  8
SLD-0
  6
Continuous
370
    25
100
AcDbCircle
 10
13.1712460628
 20
10.5169479628
 30
0.0
 40
1.414063970190531
100
AcDbArc
 50
180.0
 51
270.0
  0
ARC
  5
89
330
78
100
AcDbEntity
  8
SLD-0
  6
Continuous
370
    25
100
AcDbCircle
 10
29.9565631024
 20
11.8270135519
 30
0.0
 40
0.5438707582050917
100
AcDbArc
 50
90.0000000001
 51
180.0
  0
ARC
  5
8A
330
78
100
AcDbEntity
  8
SLD-0
  6
Continuous
370
    25
100
AcDbCircle
 10
38.382025925
 20
11.8270135691
 30
0.0
 40
0.5438707410603527
100
AcDbArc
 50
360.0
 51
89.9999987958
  0
ARC
  5
8B
330
78
100
AcDbEntity
  8
SLD-0
  6
Continuous
370
    25
100
AcDbCircle
 10
41.423739886
 20
10.5169479856
 30
0.0
 40
1.41406396447497
100
AcDbArc
 50
270.0
 51
0.0
  0
ARC
  5
8C
330
78
100
AcDbEntity
  8
SLD-0
  6
Continuous
370
    25
100
AcDbCircle
 10
13.1712460686
 20
24.6173386685
 30
0.0
 40
1.414063975905405
100
AcDbArc
 50
90.0
 51
180.0
  0
ARC
  5
8D
330
78
100
AcDbEntity
  8
SLD-0
  6
Continuous
370
    25
100
AcDbCircle
 10
41.423739886
 20
24.6173386799
 30
0.0
 40
1.41406396447497
100
AcDbArc
 50
0.0000004631
 51
90.0000004631
  0
ARC
  5
8E
330
78
100
AcDbEntity
  8
SLD-0
  6
Continuous
370
    25
100
AcDbCircle
 10
67.8188996286
 20
21.6292393056
 30
0.0
 40
1.41406397018994
100
AcDbArc
 50
180.0
 51
270.0
  0
ARC
  5
8F
330
78
100
AcDbEntity
  8
SLD-0
  6
Continuous
370
    25
100
AcDbCircle
 10
86.971938865
 20
10.1977968339
 30
0.0
 40
1.414063964474963
100
AcDbArc
 50
270.0
 51
0.0
  0
ARC
  5
90
330
78
100
AcDbEntity
  8
SLD-0
  6
Continuous
370
    25
100
AcDbCircle
 10
117.9137898826
 20
10.3202951347
 30
0.0
 40
1.414063970189943
100
AcDbArc
 50
180.0
 51
270.0
  0
LINE
  5
91
330
78
100
AcDbEntity
  8
SLD-0
  6
Continuous
370
    25
100
AcDbLine
 10
151.9122627548
 20
27.1893362613
 30
0.0
 11
151.9122627548
 21
30.0184360488
 31
0.0
  0
LINE
  5
92
330
78
100
AcDbEntity
  8
SLD-0
  6
Continuous
370
    25
100
AcDbLine
 10
150.4981987922
 20
31.4325
 30
0.0
 11
112.4827809217
 21
31.4325
 31
0.0
  0
LINE
  5
93
330
78
100
AcDbEntity
  8
SLD-0
  6
Continuous
370
    25
100
AcDbLine
 10
104.4956440944
 20
17.403577781
 30
0.0
 11
104.4981259246
 21
17.1884161578
 31
0.0
  0
LINE
  5
94
330
78
100
AcDbEntity
  8
SLD-0
  6
Continuous
370
    25
100
AcDbLine
 10
112.4827809217
 20
3.2764813604
 30
0.0
 11
150.5012851208
 21
3.2292872755
 31
0.0
  0
LINE
  5
95
330
78
100
AcDbEntity
  8
SLD-0
  6
Continuous
370
    25
100
AcDbLine
 10
151.9122627548
 20
4.64334787
 30
0.0
 11
151.9122627548
 21
7.4921672
 31
0.0
  0
LINE
  5
96
330
78
100
AcDbEntity
  8
SLD-0
  6
Continuous
370
    25
100
AcDbLine
 10
150.4981987903
 20
8.9062311645
 30
0.0
 11
117.9137898826
 21
8.9062311645
 31
0.0
  0
LINE
  5
97
330
78
100
AcDbEntity
  8
SLD-0
  6
Continuous
370
    25
100
AcDbLine
 10
116.4997259124
 20
10.3202951347
 30
0.0
 11
116.4997259124
 21
24.3612083152
 31
0.0
  0
LINE
  5
98
330
78
100
AcDbEntity
  8
SLD-0
  6
Continuous
370
    25
100
AcDbLine
 10
117.9137898883
 20
25.7752722911
 30
0.0
 11
150.4981987846
 21
25.7752722911
 31
0.0
  0
LINE
  5
99
330
78
100
AcDbEntity
  8
SLD-0
  6
Continuous
370
    25
100
AcDbLine
 10
59.8128947802
 20
14.4992333605
 30
0.0
 11
86.9719388707
 21
14.4992333605
 31
0.0
  0
LINE
  5
9A
330
78
100
AcDbEntity
  8
SLD-0
  6
Continuous
370
    25
100
AcDbLine
 10
88.3860028295
 20
13.0851693903
 30
0.0
 11
88.3860028295
 21
10.1977968339
 31
0.0
  0
LINE
  5
9B
330
78
100
AcDbEntity
  8
SLD-0
  6
Continuous
370
    25
100
AcDbLine
 10
86.971938865
 20
8.7837328694
 30
0.0
 11
55.3131088744
 21
8.7837328694
 31
0.0
  0
LINE
  5
9C
330
78
100
AcDbEntity
  8
SLD-0
  6
Continuous
370
    25
100
AcDbLine
 10
53.8990449043
 20
7.3696688992
 30
0.0
 11
53.8990449043
 21
4.6905310545
 31
0.0
  0
LINE
  5
9D
330
78
100
AcDbEntity
  8
SLD-0
  6
Continuous
370
    25
100
AcDbLine
 10
55.3131088744
 20
3.2764670843
 30
0.0
 11
94.6159316276
 21
3.2764670843
 31
0.0
  0
LINE
  5
9E
330
78
100
AcDbEntity
  8
SLD-0
  6
Continuous
370
    25
100
AcDbLine
 10
94.6159316276
 20
20.2151753354
 30
0.0
 11
67.8188996286
 21
20.2151753354
 31
0.0
  0
LINE
  5
9F
330
78
100
AcDbEntity
  8
SLD-0
  6
Continuous
370
    25
100
AcDbLine
 10
66.4048356584
 20
21.6292393056
 30
0.0
 11
66.4048356584
 21
24.3047901876
 31
0.0
  0
LINE
  5
A0
330
78
100
AcDbEntity
  8
SLD-0
  6
Continuous
370
    25
100
AcDbLine
 10
67.8188996229
 20
25.7188541521
 30
0.0
 11
99.5207018301
 21
25.7188541521
 31
0.0
  0
LINE
  5
A1
330
78
100
AcDbEntity
  8
SLD-0
  6
Continuous
370
    25
100
AcDbLine
 10
100.9347658002
 20
27.1329181223
 30
0.0
 11
100.9347658002
 21
30.0184360127
 31
0.0
  0
LINE
  5
A2
330
78
100
AcDbEntity
  8
SLD-0
  6
Continuous
370
    25
100
AcDbLine
 10
99.5207018301
 20
31.4324999943
 30
0.0
 11
59.8128947802
 21
31.4324999943
 31
0.0
  0
LINE
  5
A3
330
78
100
AcDbEntity
  8
SLD-0
  6
Continuous
370
    25
100
AcDbLine
 10
7.5647843256
 20
3.2764670958
 30
0.0
 11
29.5363872212
 21
3.2764670958
 31
0.0
  0
LINE
  5
A4
330
78
100
AcDbEntity
  8
SLD-0
  6
Continuous
370
    25
100
AcDbLine
 10
29.5363872212
 20
3.2764670958
 30
0.0
 11
29.5363872212
 21
0.5438707525
 31
0.0
  0
LINE
  5
A5
330
78
100
AcDbEntity
  8
SLD-0
  6
Continuous
370
    25
100
AcDbLine
 10
30.0802579737
 20
0.0
 30
0.0
 11
38.548878819
 21
0.0
 31
0.0
  0
LINE
  5
A6
330
78
100
AcDbEntity
  8
SLD-0
  6
Continuous
370
    25
100
AcDbLine
 10
39.0927495715
 20
0.5438707525
 30
0.0
 11
39.0927495715
 21
3.2764670958
 31
0.0
  0
LINE
  5
A7
330
78
100
AcDbEntity
  8
SLD-0
  6
Continuous
370
    25
100
AcDbLine
 10
39.0927495715
 20
3.2764670958
 30
0.0
 11
43.4131890332
 21
3.2764670958
 31
0.0
  0
LINE
  5
A8
330
78
100
AcDbEntity
  8
SLD-0
  6
Continuous
370
    25
100
AcDbLine
 10
50.0791608384
 20
8.5387353457
 30
0.0
 11
50.0791608384
 21
26.1372080798
 31
0.0
  0
LINE
  5
A9
330
78
100
AcDbEntity
  8
SLD-0
  6
Continuous
370
    25
100
AcDbLine
 10
43.4131890332
 20
31.3994763411
 30
0.0
 11
7.5647843256
 21
31.3994763411
 31
0.0
  0
LINE
  5
AA
330
78
100
AcDbEntity
  8
SLD-0
  6
Continuous
370
    25
100
AcDbLine
 10
42.8378038505
 20
10.5169479856
 30
0.0
 11
42.8378038505
 21
24.6173386913
 31
0.0
  0
LINE
  5
AB
330
78
100
AcDbEntity
  8
SLD-0
  6
Continuous
370
    25
100
AcDbLine
 10
13.1712460628
 20
9.1028839926
 30
0.0
 11
29.4126923442
 21
9.1028839926
 31
0.0
  0
LINE
  5
AC
330
78
100
AcDbEntity
  8
SLD-0
  6
Continuous
370
    25
100
AcDbLine
 10
29.4126923442
 20
9.1028839926
 30
0.0
 11
29.4126923442
 21
11.8270135519
 31
0.0
  0
LINE
  5
AD
330
78
100
AcDbEntity
  8
SLD-0
  6
Continuous
370
    25
100
AcDbLine
 10
29.9565631024
 20
12.3708843101
 30
0.0
 11
38.3820259365
 21
12.3708843101
 31
0.0
  0
LINE
  5
AE
330
78
100
AcDbEntity
  8
SLD-0
  6
Continuous
370
    25
100
AcDbLine
 10
38.9258966661
 20
9.1028840211
 30
0.0
 11
41.423739886
 21
9.1028840211
 31
0.0
  0
LINE
  5
AF
330
78
100
AcDbEntity
  8
SLD-0
  6
Continuous
370
    25
100
AcDbLine
 10
38.9258966661
 20
9.1028840211
 30
0.0
 11
38.9258966661
 21
11.8270135691
 31
0.0
  0
LINE
  5
B0
330
78
100
AcDbEntity
  8
SLD-0
  6
Continuous
370
    25
100
AcDbLine
 10
11.7571820926
 20
10.5169479628
 30
0.0
 11
11.7571820926
 21
24.6173386685
 31
0.0
  0
LINE
  5
B1
330
78
100
AcDbEntity
  8
SLD-0
  6
Continuous
370
    25
100
AcDbLine
 10
13.1712460686
 20
26.0314026444
 30
0.0
 11
41.4237398746
 21
26.0314026444
 31
0.0
  0
SPLINE
  5
B2
330
78
100
AcDbEntity
  8
SLD-0
  6
Continuous
370
    25
100
AcDbSpline
210
0.0
220
0.0
230
1.0
 70
     8
 71
     3
 72
    13
 73
     9
 74
     0
 42
0.00000001
 43
0.00000001
 40
0.0
 40
0.0
 40
0.0
 40
0.0
 40
0.1310616762
 40
0.2699656353
 40
0.4157607805
 40
0.5899807757
 40
0.76586761
 40
0.9948829976
 40
0.9948829976
 40
0.9948829976
 40
0.9948829976
 10
112.4827809217198
 20
31.43249999999993
 30
0.0
 10
111.6836622329399
 20
31.37298110963992
 30
0.0
 10
110.0376083762102
 20
31.25038193523
 30
0.0
 10
107.8068775811404
 20
29.86809399369003
 30
0.0
 10
106.2054790770596
 20
27.5474814848101
 30
0.0
 10
105.16416703218
 20
24.70988321792999
 30
0.0
 10
104.5776365021701
 20
21.24115850439
 30
0.0
 10
104.5236329068501
 20
18.79009670852995
 30
0.0
 10
104.4956440943999
 20
17.40357778103999
 30
0.0
  0
SPLINE
  5
B3
330
78
100
AcDbEntity
  8
SLD-0
  6
Continuous
370
    25
100
AcDbSpline
210
0.0
220
0.0
230
1.0
 70
     8
 71
     3
 72
    13
 73
     9
 74
     0
 42
0.00000001
 43
0.00000001
 40
0.0
 40
0.0
 40
0.0
 40
0.0
 40
0.2222860645
 40
0.3981728988
 40
0.572392894
 40
0.7181880393
 40
0.8570919984
 40
0.9881536746
 40
0.9881536746
 40
0.9881536746
 40
0.9881536746
 10
104.4981259245896
 20
17.18841615776998
 30
0.0
 10
104.5255631252399
 20
15.84265610736005
 30
0.0
 10
104.5844398553404
 20
13.43277777879001
 30
0.0
 10
105.1641665521207
 20
10.00426186215004
 30
0.0
 10
106.2054910671296
 20
7.166980960650118
 30
0.0
 10
107.80683962211
 20
4.845383597250133
 30
0.0
 10
110.0377406670301
 20
3.466399897260122
 30
0.0
 10
111.68339321646
 20
3.336020264699951
 30
0.0
 10
112.4827809217198
 20
3.276481360409977
 30
0.0
  0
SPLINE
  5
B4
330
78
100
AcDbEntity
  8
SLD-0
  6
Continuous
370
    25
100
AcDbSpline
210
0.0
220
0.0
230
1.0
 70
     8
 71
     3
 72
    13
 73
     9
 74
     0
 42
0.00000001
 43
0.00000001
 40
0.0
 40
0.0
 40
0.0
 40
0.0
 40
0.1604571392
 40
0.3334692485
 40
0.4767982758
 40
0.6242014838
 40
0.7505998515
 40
1.0
 40
1.0
 40
1.0
 40
1.0
 10
94.61593162755008
 20
3.276467084340172
 30
0.0
 10
95.27858212851001
 20
3.308372523450065
 30
0.0
 10
96.65573219360971
 20
3.374679805110102
 30
0.0
 10
98.50760894070041
 20
4.178679766830042
 30
0.0
 10
99.90305908731054
 20
5.530136597820118
 30
0.0
 10
100.6894501281906
 20
7.07952964203
 30
0.0
 10
101.29236440877
 20
9.158056282530005
 30
0.0
 10
101.3168306895297
 20
10.71352701207014
 30
0.0
 10
101.3330678274908
 20
11.74582120985999
 30
0.0
  0
SPLINE
  5
B5
330
78
100
AcDbEntity
  8
SLD-0
  6
Continuous
370
    25
100
AcDbSpline
210
0.0
220
0.0
230
1.0
 70
     8
 71
     3
 72
    13
 73
     9
 74
     0
 42
0.00000001
 43
0.00000001
 40
0.0
 40
0.0
 40
0.0
 40
0.0
 40
0.2494001485
 40
0.3757985162
 40
0.5232017242
 40
0.6665307515
 40
0.8395428608
 40
1.0
 40
1.0
 40
1.0
 40
1.0
 10
101.3330678274908
 20
11.74582120985999
 30
0.0
 10
101.3168306895297
 20
12.77811541908005
 30
0.0
 10
101.29236440877
 20
14.33358613718998
 30
0.0
 10
100.6894501281906
 20
16.41211280054993
 30
0.0
 10
99.90305908731054
 20
17.96150584475999
 30
0.0
 10
98.50760894070041
 20
19.31296265288995
 30
0.0
 10
96.65573219360971
 20
20.11696261461002
 30
0.0
 10
95.27858212851001
 20
20.18326991913001
 30
0.0
 10
94.61593162755008
 20
20.21517533538006
 30
0.0
  0
SPLINE
  5
B6
330
78
100
AcDbEntity
  8
SLD-0
  6
Continuous
370
    25
100
AcDbSpline
210
0.0
220
0.0
230
1.0
 70
     8
 71
     3
 72
    13
 73
     9
 74
     0
 42
0.00000001
 43
0.00000001
 40
0.0
 40
0.0
 40
0.0
 40
0.0
 40
0.1133740464
 40
0.2392044088
 40
0.3655787964
 40
0.4912154373
 40
0.7445390876
 40
1.0
 40
1.0
 40
1.0
 40
1.0
 10
59.81289478024524
 20
31.43249999428496
 30
0.0
 10
59.35928081701472
 20
31.410157384665
 30
0.0
 10
58.40221469584531
 20
31.36301739004508
 30
0.0
 10
56.98058764324512
 20
30.93827769850506
 30
0.0
 10
55.70880369583545
 20
30.08059596454511
 30
0.0
 10
54.40966506094505
 20
28.50071350963514
 30
0.0
 10
53.59216462330493
 20
26.02050825415529
 30
0.0
 10
53.5035065710053
 20
23.98692804268531
 30
0.0
 10
53.45899136158502
 20
22.96586667739527
 30
0.0
  0
SPLINE
  5
B7
330
78
100
AcDbEntity
  8
SLD-0
  6
Continuous
370
    25
100
AcDbSpline
210
0.0
220
0.0
230
1.0
 70
     8
 71
     3
 72
    13
 73
     9
 74
     0
 42
0.00000001
 43
0.00000001
 40
0.0
 40
0.0
 40
0.0
 40
0.0
 40
0.2554609124
 40
0.5087845627
 40
0.6344212036
 40
0.7607955912
 40
0.8866259536
 40
1.0
 40
1.0
 40
1.0
 40
1.0
 10
53.45899136158502
 20
22.96586667739527
 30
0.0
 10
53.5035065710053
 20
21.94480530067523
 30
0.0
 10
53.59216462330493
 20
19.91122507777509
 30
0.0
 10
54.40966506094477
 20
17.43101983372512
 30
0.0
 10
55.70880369583545
 20
15.85113737881522
 30
0.0
 10
56.98058764324512
 20
14.99345565628522
 30
0.0
 10
58.40221469584531
 20
14.56871595331536
 30
0.0
 10
59.35928081701472
 20
14.5215759586954
 30
0.0
 10
59.81289478024524
 20
14.49923336050533
 30
0.0
  0
SPLINE
  5
B8
330
78
100
AcDbEntity
  8
SLD-0
  6
Continuous
370
    25
100
AcDbSpline
210
0.0
220
0.0
230
1.0
 70
     8
 71
     3
 72
    12
 73
     8
 74
     0
 42
0.00000001
 43
0.00000001
 40
0.0
 40
0.0
 40
0.0
 40
0.0
 40
0.2415790084
 40
0.4893269843
 40
0.7378634303
 40
0.8656387112
 40
1.0
 40
1.0
 40
1.0
 40
1.0
 10
43.41318903323968
 20
3.276467095770161
 30
0.0
 10
44.18788638401991
 20
3.300551557380051
 30
0.0
 10
45.75706382096964
 20
3.349335528900002
 30
0.0
 10
48.05339124888022
 20
4.168266956820071
 30
0.0
 10
49.4479961012699
 20
5.714192779110102
 30
0.0
 10
50.06241271089048
 20
7.258858649639988
 30
0.0
 10
50.07348539766046
 20
8.105023344150037
 30
0.0
 10
50.07916083843087
 20
8.538735345660145
 30
0.0
  0
SPLINE
  5
B9
330
78
100
AcDbEntity
  8
SLD-0
  6
Continuous
370
    25
100
AcDbSpline
210
0.0
220
0.0
230
1.0
 70
     8
 71
     3
 72
    12
 73
     8
 74
     0
 42
0.00000001
 43
0.00000001
 40
0.0
 40
0.0
 40
0.0
 40
0.0
 40
0.1343612888
 40
0.2621365697
 40
0.5106730157
 40
0.7584209916
 40
1.0
 40
1.0
 40
1.0
 40
1.0
 10
50.07916083843087
 20
26.13720807981002
 30
0.0
 10
50.07348539766046
 20
26.57092010417993
 30
0.0
 10
50.06241271089048
 20
27.41708479869001
 30
0.0
 10
49.4479961012699
 20
28.96175066922011
 30
0.0
 10
48.05339124888022
 20
30.50767649151
 30
0.0
 10
45.75706382096964
 20
31.32660790800001
 30
0.0
 10
44.18788638401991
 20
31.37539186808997
 30
0.0
 10
43.41318903323968
 20
31.39947634112995
 30
0.0
  0
SPLINE
  5
BA
330
78
100
AcDbEntity
  8
SLD-0
  6
Continuous
370
    25
100
AcDbSpline
210
0.0
220
0.0
230
1.0
 70
     8
 71
     3
 72
    12
 73
     8
 74
     0
 42
0.00000001
 43
0.00000001
 40
0.0
 40
0.0
 40
0.0
 40
0.0
 40
0.1341799809
 40
0.290831959
 40
0.5815217441
 40
0.760783857
 40
1.0
 40
1.0
 40
1.0
 40
1.0
 10
7.564784325569951
 20
31.39947634112995
 30
0.0
 10
6.782866975259955
 20
31.26583923857989
 30
0.0
 10
5.08807948472953
 20
30.97618395047998
 30
0.0
 10
2.23517673360013
 20
28.84478693058003
 30
0.0
 10
0.8838972162000802
 20
25.2589254853499
 30
0.0
 10
0.0932756465697737
 20
21.19402105865996
 30
0.0
 10
0.0339261602397278
 20
18.73538157284998
 30
0.0
 10
0.0
 20
17.3299411604701
 30
0.0
  0
SPLINE
  5
BB
330
78
100
AcDbEntity
  8
SLD-0
  6
Continuous
370
    25
100
AcDbSpline
210
0.0
220
0.0
230
1.0
 70
     8
 71
     3
 72
    12
 73
     8
 74
     0
 42
0.00000001
 43
0.00000001
 40
0.0
 40
0.0
 40
0.0
 40
0.0
 40
0.2392679579
 40
0.4185688994
 40
0.7093216488
 40
0.8660075581
 40
1.0
 40
1.0
 40
1.0
 40
1.0
 10
0.0
 20
17.3299411604701
 30
0.0
 10
0.0339397162200938
 20
15.92455552065001
 30
0.0
 10
0.0933128855101772
 20
13.46601186395999
 30
0.0
 10
0.8837638509601176
 20
9.400417636769992
 30
0.0
 10
2.235868980119959
 20
5.817894574500111
 30
0.0
 10
5.085801451439748
 20
3.679576483860032
 30
0.0
 10
6.782613812189863
 20
3.403656466740082
 30
0.0
 10
7.564784325569951
 20
3.276467095770161
 30
0.0
  0
ENDBLK
  5
7A
330
78
100
AcDbEntity
  8
0
100
AcDbBlockEnd
  0
BLOCK
  5
103
330
102
100
AcDbEntity
  8
0
100
AcDbBlockBegin
  2
SW_NOTE_0
 70
     0
 10
0.0
 20
0.0
 30
0.0
  3
SW_NOTE_0
  1

  0
MTEXT
  5
106
330
102
100
AcDbEntity
  8
0
  6
Continuous
 62
     0
370
     0
100
AcDbMText
 10
0.0
 20
8.4490966797
 30
0.0
 40
6.6145833333
 41
0.0
 71
     1
 72
     1
  1
THIS DOCUMENT CONTAINS CONFIDENTIAL OR PROPRIETARY 
  7
SLDTEXTSTYLE0
 73
     1
 44
1.0
  0
MTEXT
  5
107
330
102
100
AcDbEntity
  8
0
  6
Continuous
 62
     0
370
     0
100
AcDbMText
 10
0.0
 20
-0.3703476582
 30
0.0
 40
6.6145833333
 41
0.0
 71
     1
 72
     1
  1
INFORMATION WHICH IS THE PROPERTY OF QSC, LLC THAT MAY NOT BE 
  7
SLDTEXTSTYLE0
 73
     1
 44
1.0
  0
MTEXT
  5
108
330
102
100
AcDbEntity
  8
0
  6
Continuous
 62
     0
370
     0
100
AcDbMText
 10
0.0
 20
-9.189791996
 30
0.0
 40
6.6145833333
 41
0.0
 71
     1
 72
     1
  1
DISCLOSED, REPRODUCED OR USED WITHOUT EXPRESS WRITTEN CONSENT 
  7
SLDTEXTSTYLE0
 73
     1
 44
1.0
  0
MTEXT
  5
109
330
102
100
AcDbEntity
  8
0
  6
Continuous
 62
     0
370
     0
100
AcDbMText
 10
0.0
 20
-18.0092363339
 30
0.0
 40
6.6145833333
 41
0.0
 71
     1
 72
     1
  1
FROM QSC, LLC. NO PORTION OF THIS DOCUMENT MAY BE REPRODUCED, 
  7
SLDTEXTSTYLE0
 73
     1
 44
1.0
  0
MTEXT
  5
10A
330
102
100
AcDbEntity
  8
0
  6
Continuous
 62
     0
370
     0
100
AcDbMText
 10
0.0
 20
-26.8286806718
 30
0.0
 40
6.6145833333
 41
0.0
 71
     1
 72
     1
  1
REDISTRIBUTED, OR OTHERWISE DISCLOSED TO ANY THIRD PARTY WITHOUT 
  7
SLDTEXTSTYLE0
 73
     1
 44
1.0
  0
MTEXT
  5
10C
330
102
100
AcDbEntity
  8
0
  6
Continuous
 62
     0
370
     0
100
AcDbMText
 10
0.0
 20
-35.6481250096
 30
0.0
 40
6.6145833333
 41
0.0
 71
     1
 72
     1
  1
QSC\U+2019S WRITTEN PERMISSION.
  7
SLDTEXTSTYLE1
 73
     1
 44
1.0
  0
ENDBLK
  5
104
330
102
100
AcDbEntity
  8
0
100
AcDbBlockEnd
  0
BLOCK
  5
115
330
114
100
AcDbEntity
  8
0
100
AcDbBlockBegin
  2
SW_NOTE_0_1
 70
     0
 10
0.0
 20
0.0
 30
0.0
  3
SW_NOTE_0_1
  1

  0
MTEXT
  5
117
330
114
100
AcDbEntity
  8
0
  6
Continuous
 62
     0
370
     0
100
AcDbMText
 10
0.0
 20
9.733359375
 30
0.0
 40
7.62
 41
0.0
 71
     1
 72
     1
  1
1675 MACARTHUR BOULEVARD
  7
SLDTEXTSTYLE2
 73
     1
 44
1.0
  0
MTEXT
  5
118
330
114
100
AcDbEntity
  8
0
  6
Continuous
 62
     0
370
     0
100
AcDbMText
 10
0.0
 20
-2.8866400952
 30
0.0
 40
7.62
 41
0.0
 71
     1
 72
     1
  1
COSTA MESA, CA 92626 USA
  7
SLDTEXTSTYLE2
 73
     1
 44
1.0
  0
ENDBLK
  5
116
330
114
100
AcDbEntity
  8
0
100
AcDbBlockEnd
  0
BLOCK
  5
138
330
137
100
AcDbEntity
  8
0
100
AcDbBlockBegin
  2
SW_NOTE_0_2
 70
     0
 10
0.0
 20
0.0
 30
0.0
  3
SW_NOTE_0_2
  1

  0
MTEXT
  5
13A
330
137
100
AcDbEntity
  8
0
  6
Continuous
 62
     0
370
     0
100
AcDbMText
 10
0.0
 20
10.1389160156
 30
0.0
 40
7.9375
 41
0.0
 71
     1
 72
     1
  1
%%p
  7
SLDTEXTSTYLE2
 73
     1
 44
1.0
  0
MTEXT
  5
13B
330
137
100
AcDbEntity
  8
0
  6
Continuous
 62
     0
370
     0
100
AcDbMText
 10
7.5670832302
 20
10.1389160156
 30
0.0
 40
7.9375
 41
0.0
 71
     1
 72
     1
  1
1
  7
SLDTEXTSTYLE2
 73
     1
 44
1.0
  0
MTEXT
  5
13C
330
137
100
AcDbEntity
  8
0
  6
Continuous
 62
     0
370
     0
100
AcDbMText
 10
13.4320138022
 20
10.1389160156
 30
0.0
 40
7.9375
 41
0.0
 71
     1
 72
     1
  1
%%d
  7
SLDTEXTSTYLE2
 73
     1
 44
1.0
  0
ENDBLK
  5
139
330
137
100
AcDbEntity
  8
0
100
AcDbBlockEnd
  0
BLOCK
  5
13F
330
13E
100
AcDbEntity
  8
0
100
AcDbBlockBegin
  2
SW_NOTE_0_3
 70
     0
 10
0.0
 20
0.0
 30
0.0
  3
SW_NOTE_0_3
  1

  0
MTEXT
  5
141
330
13E
100
AcDbEntity
  8
0
  6
Continuous
 62
     0
370
     0
100
AcDbMText
 10
0.0
 20
10.1389160156
 30
0.0
 40
7.9375
 41
0.0
 71
     1
 72
     1
  1
.X 
  7
SLDTEXTSTYLE2
 73
     1
 44
1.0
  0
MTEXT
  5
142
330
13E
100
AcDbEntity
  8
0
  6
Continuous
 62
     0
370
     0
100
AcDbMText
 10
12.2884265147
 20
10.1389160156
 30
0.0
 40
7.9375
 41
0.0
 71
     1
 72
     1
  1
%%p
  7
SLDTEXTSTYLE2
 73
     1
 44
1.0
  0
MTEXT
  5
143
330
13E
100
AcDbEntity
  8
0
  6
Continuous
 62
     0
370
     0
100
AcDbMText
 10
19.8555085808
 20
10.1389160156
 30
0.0
 40
7.9375
 41
0.0
 71
     1
 72
     1
  1
 3.0
  7
SLDTEXTSTYLE2
 73
     1
 44
1.0
  0
MTEXT
  5
144
330
13E
100
AcDbEntity
  8
0
  6
Continuous
 62
     0
370
     0
100
AcDbMText
 10
0.0
 20
-0.4444171898
 30
0.0
 40
7.9375
 41
0.0
 71
     1
 72
     1
  1
.XX 
  7
SLDTEXTSTYLE2
 73
     1
 44
1.0
  0
MTEXT
  5
145
330
13E
100
AcDbEntity
  8
0
  6
Continuous
 62
     0
370
     0
100
AcDbMText
 10
18.7266198918
 20
-0.4444171898
 30
0.0
 40
7.9375
 41
0.0
 71
     1
 72
     1
  1
%%p
  7
SLDTEXTSTYLE2
 73
     1
 44
1.0
  0
ENDBLK
  5
140
330
13E
100
AcDbEntity
  8
0
100
AcDbBlockEnd
  0
BLOCK
  5
149
330
148
100
AcDbEntity
  8
0
100
AcDbBlockBegin
  2
SW_NOTE_0_4
 70
     0
 10
0.0
 20
0.0
 30
0.0
  3
SW_NOTE_0_4
  1

  0
MTEXT
  5
14B
330
148
100
AcDbEntity
  8
0
  6
Continuous
 62
     0
370
     0
100
AcDbMText
 10
127.744140625
 20
20.2778320313
 30
0.0
 40
15.875
 41
0.0
 71
     2
 72
     1
  1
PROCESSOR, QIO SERIES, 
  7
SLDTEXTSTYLE2
 73
     1
 44
1.0
  0
MTEXT
  5
14C
330
148
100
AcDbEntity
  8
0
  6
Continuous
 62
     0
370
     0
100
AcDbMText
 10
122.55352588
 20
-0.8888343796
 30
0.0
 40
15.875
 41
0.0
 71
     2
 72
     1
  1
RACK KIT
  7
SLDTEXTSTYLE2
 73
     1
 44
1.0
  0
ENDBLK
  5
14A
330
148
100
AcDbEntity
  8
0
100
AcDbBlockEnd
  0
BLOCK
  5
16B
330
16A
100
AcDbEntity
  8
0
100
AcDbBlockBegin
  2
SW_TABLEANNOTATION_0
 70
     0
 10
0.0
 20
0.0
 30
0.0
  3
SW_TABLEANNOTATION_0
  1

  0
LINE
  5
16D
330
16A
100
AcDbEntity
  8
SLD-0
 62
     0
100
AcDbLine
 10
0.0
 20
0.0
 30
0.0
 11
0.0
 21
-28.9384035201
 31
0.0
  0
LINE
  5
16E
330
16A
100
AcDbEntity
  8
SLD-0
 62
     0
100
AcDbLine
 10
0.0
 20
-28.9384035201
 30
0.0
 11
0.0
 21
-57.7111712022
 31
0.0
  0
LINE
  5
16F
330
16A
100
AcDbEntity
  8
SLD-0
 62
     0
100
AcDbLine
 10
45.4445488277
 20
-28.9384035201
 30
0.0
 11
45.4445488277
 21
-57.7111712022
 31
0.0
  0
LINE
  5
170
330
16A
100
AcDbEntity
  8
SLD-0
 62
     0
100
AcDbLine
 10
557.086340458
 20
-28.9384035201
 30
0.0
 11
557.086340458
 21
-57.7111712022
 31
0.0
  0
LINE
  5
171
330
16A
100
AcDbEntity
  8
SLD-0
 62
     0
100
AcDbLine
 10
613.5294843056
 20
-28.9384035201
 30
0.0
 11
613.5294843056
 21
-57.7111712022
 31
0.0
  0
LINE
  5
172
330
16A
100
AcDbEntity
  8
SLD-0
 62
     0
100
AcDbLine
 10
714.5288725533
 20
0.0
 30
0.0
 11
714.5288725533
 21
-28.9384035201
 31
0.0
  0
LINE
  5
173
330
16A
100
AcDbEntity
  8
SLD-0
 62
     0
100
AcDbLine
 10
714.5288725533
 20
-28.9384035201
 30
0.0
 11
714.5288725533
 21
-57.7111712022
 31
0.0
  0
LINE
  5
174
330
16A
100
AcDbEntity
  8
SLD-0
 62
     0
100
AcDbLine
 10
0.0
 20
0.0
 30
0.0
 11
45.4445488277
 21
0.0
 31
0.0
  0
LINE
  5
175
330
16A
100
AcDbEntity
  8
SLD-0
 62
     0
100
AcDbLine
 10
0.0
 20
-28.9384035201
 30
0.0
 11
45.4445488277
 21
-28.9384035201
 31
0.0
  0
LINE
  5
176
330
16A
100
AcDbEntity
  8
SLD-0
 62
     0
100
AcDbLine
 10
45.4445488277
 20
0.0
 30
0.0
 11
557.086340458
 21
0.0
 31
0.0
  0
LINE
  5
177
330
16A
100
AcDbEntity
  8
SLD-0
 62
     0
100
AcDbLine
 10
45.4445488277
 20
-28.9384035201
 30
0.0
 11
557.086340458
 21
-28.9384035201
 31
0.0
  0
LINE
  5
178
330
16A
100
AcDbEntity
  8
SLD-0
 62
     0
100
AcDbLine
 10
557.086340458
 20
0.0
 30
0.0
 11
613.5294843056
 21
0.0
 31
0.0
  0
LINE
  5
179
330
16A
100
AcDbEntity
  8
SLD-0
 62
     0
100
AcDbLine
 10
557.086340458
 20
-28.9384035201
 30
0.0
 11
613.5294843056
 21
-28.9384035201
 31
0.0
  0
LINE
  5
17A
330
16A
100
AcDbEntity
  8
SLD-0
 62
     0
100
AcDbLine
 10
613.5294843056
 20
0.0
 30
0.0
 11
714.5288725533
 21
0.0
 31
0.0
  0
LINE
  5
17B
330
16A
100
AcDbEntity
  8
SLD-0
 62
     0
100
AcDbLine
 10
613.5294843056
 20
-28.9384035201
 30
0.0
 11
714.5288725533
 21
-28.9384035201
 31
0.0
  0
LINE
  5
17C
330
16A
100
AcDbEntity
  8
SLD-0
 62
     0
100
AcDbLine
 10
0.0
 20
-57.7111712022
 30
0.0
 11
45.4445488277
 21
-57.7111712022
 31
0.0
  0
LINE
  5
17D
330
16A
100
AcDbEntity
  8
SLD-0
 62
     0
100
AcDbLine
 10
45.4445488277
 20
-57.7111712022
 30
0.0
 11
557.086340458
 21
-57.7111712022
 31
0.0
  0
LINE
  5
17E
330
16A
100
AcDbEntity
  8
SLD-0
 62
     0
100
AcDbLine
 10
557.086340458
 20
-57.7111712022
 30
0.0
 11
613.5294843056
 21
-57.7111712022
 31
0.0
  0
LINE
  5
17F
330
16A
100
AcDbEntity
  8
SLD-0
 62
     0
100
AcDbLine
 10
613.5294843056
 20
-57.7111712022
 30
0.0
 11
714.5288725533
 21
-57.7111712022
 31
0.0
  0
LINE
  5
180
330
16A
100
AcDbEntity
  8
SLD-0
 62
     0
100
AcDbLine
 10
0.0
 20
-57.7111712022
 30
0.0
 11
0.0
 21
-84.9792329619
 31
0.0
  0
LINE
  5
181
330
16A
100
AcDbEntity
  8
SLD-0
 62
     0
100
AcDbLine
 10
45.4445488277
 20
-57.7111712022
 30
0.0
 11
45.4445488277
 21
-84.9792329619
 31
0.0
  0
LINE
  5
182
330
16A
100
AcDbEntity
  8
SLD-0
 62
     0
100
AcDbLine
 10
557.086340458
 20
-57.7111712022
 30
0.0
 11
557.086340458
 21
-84.9792329619
 31
0.0
  0
LINE
  5
183
330
16A
100
AcDbEntity
  8
SLD-0
 62
     0
100
AcDbLine
 10
613.5294843056
 20
-57.7111712022
 30
0.0
 11
613.5294843056
 21
-84.9792329619
 31
0.0
  0
LINE
  5
184
330
16A
100
AcDbEntity
  8
SLD-0
 62
     0
100
AcDbLine
 10
714.5288725533
 20
-57.7111712022
 30
0.0
 11
714.5288725533
 21
-84.9792329619
 31
0.0
  0
LINE
  5
185
330
16A
100
AcDbEntity
  8
SLD-0
 62
     0
100
AcDbLine
 10
0.0
 20
-84.9792329619
 30
0.0
 11
45.4445488277
 21
-84.9792329619
 31
0.0
  0
LINE
  5
186
330
16A
100
AcDbEntity
  8
SLD-0
 62
     0
100
AcDbLine
 10
45.4445488277
 20
-84.9792329619
 30
0.0
 11
557.086340458
 21
-84.9792329619
 31
0.0
  0
LINE
  5
187
330
16A
100
AcDbEntity
  8
SLD-0
 62
     0
100
AcDbLine
 10
557.086340458
 20
-84.9792329619
 30
0.0
 11
613.5294843056
 21
-84.9792329619
 31
0.0
  0
LINE
  5
188
330
16A
100
AcDbEntity
  8
SLD-0
 62
     0
100
AcDbLine
 10
613.5294843056
 20
-84.9792329619
 30
0.0
 11
714.5288725533
 21
-84.9792329619
 31
0.0
  0
MTEXT
  5
189
330
16A
100
AcDbEntity
  8
SLD-0
 62
     0
100
AcDbMText
 10
322.6530155707
 20
-9.3235139515
 30
0.0
 40
10.5833333333
 41
0.0
 71
     1
 72
     1
  1
REVISIONS
  7
SLDTEXTSTYLE2
 73
     1
 44
1.0
  0
MTEXT
  5
18A
330
16A
100
AcDbEntity
  8
SLD-0
 62
     0
100
AcDbMText
 10
9.6988946894
 20
-38.1790995526
 30
0.0
 40
10.5833333333
 41
0.0
 71
     1
 72
     1
  1
REV
  7
SLDTEXTSTYLE2
 73
     1
 44
1.0
  0
MTEXT
  5
18B
330
16A
100
AcDbEntity
  8
SLD-0
 62
     0
100
AcDbMText
 10
256.962434425
 20
-38.1790995526
 30
0.0
 40
10.5833333333
 41
0.0
 71
     1
 72
     1
  1
DESCRIPTION
  7
SLDTEXTSTYLE2
 73
     1
 44
1.0
  0
MTEXT
  5
18C
330
16A
100
AcDbEntity
  8
SLD-0
 62
     0
100
AcDbMText
 10
577.0862304535
 20
-38.1790995526
 30
0.0
 40
10.5833333333
 41
0.0
 71
     1
 72
     1
  1
BY
  7
SLDTEXTSTYLE2
 73
     1
 44
1.0
  0
MTEXT
  5
18D
330
16A
100
AcDbEntity
  8
SLD-0
 62
     0
100
AcDbMText
 10
646.7626662795
 20
-38.1790995526
 30
0.0
 40
10.5833333333
 41
0.0
 71
     1
 72
     1
  1
DATE
  7
SLDTEXTSTYLE2
 73
     1
 44
1.0
  0
MTEXT
  5
18E
330
16A
100
AcDbEntity
  8
SLD-0
 62
     0
100
AcDbMText
 10
17.4992032112
 20
-66.1995142734
 30
0.0
 40
10.5833333333
 41
0.0
 71
     1
 72
     1
  1
A
  7
SLDTEXTSTYLE2
 73
     1
 44
1.0
  0
MTEXT
  5
18F
330
16A
100
AcDbEntity
  8
SLD-0
 62
     0
100
AcDbMText
 10
47.9445488277
 20
-66.1995142734
 30
0.0
 40
10.5833333333
 41
0.0
 71
     1
 72
     1
  1
INITIAL RELEASE
  7
SLDTEXTSTYLE2
 73
     1
 44
1.0
  0
MTEXT
  5
190
330
16A
100
AcDbEntity
  8
SLD-0
 62
     0
100
AcDbMText
 10
578.2719554309
 20
-66.1995142734
 30
0.0
 40
10.5833333333
 41
0.0
 71
     1
 72
     1
  1
SS
  7
SLDTEXTSTYLE2
 73
     1
 44
1.0
  0
MTEXT
  5
191
330
16A
100
AcDbEntity
  8
SLD-0
 62
     0
100
AcDbMText
 10
631.2992412002
 20
-66.1995142734
 30
0.0
 40
10.5833333333
 41
0.0
 71
     1
 72
     1
  1
4-NOV-21
  7
SLDTEXTSTYLE2
 73
     1
 44
1.0
  0
ENDBLK
  5
16C
330
16A
100
AcDbEntity
  8
0
100
AcDbBlockEnd
  0
BLOCK
  5
2D8
330
2D7
100
AcDbEntity
  8
0
100
AcDbBlockBegin
  2
_D
 70
     0
 10
0.0
 20
0.0
 30
0.0
  3
_D
  1

  0
SOLID
  5
2DA
330
2D7
100
AcDbEntity
  8
SLD-0
 62
     7
100
AcDbTrace
 10
1195.5921504764
 20
1128.2165949099
 30
0.0
 11
1194.3421504764
 21
1118.2165949099
 31
0.0
 12
1196.8421504764
 22
1118.2165949099
 32
0.0
 13
1196.8421504764
 23
1118.2165949099
 33
0.0
  0
SOLID
  5
2DB
330
2D7
100
AcDbEntity
  8
SLD-0
 62
     7
100
AcDbTrace
 10
1195.5921504764
 20
866.2165949099
 30
0.0
 11
1196.8421504764
 21
876.2165949099
 31
0.0
 12
1194.3421504764
 22
876.2165949099
 32
0.0
 13
1194.3421504764
 23
876.2165949099
 33
0.0
  0
LINE
  5
2DC
330
2D7
100
AcDbEntity
  8
SLD-0
 62
     7
100
AcDbLine
 10
1129.1621504764
 20
1128.2165949099
 30
0.0
 11
1199.4021504764
 21
1128.2165949099
 31
0.0
  0
LINE
  5
2DD
330
2D7
100
AcDbEntity
  8
SLD-0
 62
     7
100
AcDbLine
 10
1149.4021504764
 20
866.2165949099
 30
0.0
 11
1199.4021504764
 21
866.2165949099
 31
0.0
  0
LINE
  5
2DE
330
2D7
100
AcDbEntity
  8
SLD-0
 62
     7
100
AcDbLine
 10
1195.5921504764
 20
1128.2165949099
 30
0.0
 11
1195.5921504764
 21
1016.1901996485
 31
0.0
  0
LINE
  5
2DF
330
2D7
100
AcDbEntity
  8
SLD-0
 62
     7
100
AcDbLine
 10
1195.5921504764
 20
866.2165949099
 30
0.0
 11
1195.5921504764
 21
997.2724909909
 31
0.0
  0
MTEXT
  5
2E0
330
2D7
100
AcDbEntity
  8
SLD-0
 62
     7
100
AcDbMText
 10
1175.8035224979
 20
1012.4808655964
 30
0.0
 40
11.90625
 41
0.0
 71
     1
 72
     1
  1
262.0
  7
SLDTEXTSTYLE2
 73
     1
 44
1.0
  0
ENDBLK
  5
2D9
330
2D7
100
AcDbEntity
  8
0
100
AcDbBlockEnd
  0
BLOCK
  5
2E4
330
2E3
100
AcDbEntity
  8
0
100
AcDbBlockBegin
  2
_D_1
 70
     0
 10
0.0
 20
0.0
 30
0.0
  3
_D_1
  1

  0
SOLID
  5
2E6
330
2E3
100
AcDbEntity
  8
SLD-0
 62
     7
100
AcDbTrace
 10
663.7921504764
 20
816.2165949099
 30
0.0
 11
673.7921504764
 21
814.9665949099
 31
0.0
 12
673.7921504764
 22
817.4665949099
 32
0.0
 13
673.7921504764
 23
817.4665949099
 33
0.0
  0
SOLID
  5
2E7
330
2E3
100
AcDbEntity
  8
SLD-0
 62
     7
100
AcDbTrace
 10
1145.5921504764
 20
816.2165949099
 30
0.0
 11
1135.5921504764
 21
817.4665949099
 31
0.0
 12
1135.5921504764
 22
814.9665949099
 32
0.0
 13
1135.5921504764
 23
814.9665949099
 33
0.0
  0
LINE
  5
2E8
330
2E3
100
AcDbEntity
  8
SLD-0
 62
     7
100
AcDbLine
 10
663.7921504764
 20
862.4065949099
 30
0.0
 11
663.7921504764
 21
812.4065949099
 31
0.0
  0
LINE
  5
2E9
330
2E3
100
AcDbEntity
  8
SLD-0
 62
     7
100
AcDbLine
 10
1145.5921504764
 20
862.4065949099
 30
0.0
 11
1145.5921504764
 21
812.4065949099
 31
0.0
  0
LINE
  5
2EA
330
2E3
100
AcDbEntity
  8
SLD-0
 62
     7
100
AcDbLine
 10
663.7921504764
 20
816.2165949099
 30
0.0
 11
888.2391739633
 21
816.2165949099
 31
0.0
  0
LINE
  5
2EB
330
2E3
100
AcDbEntity
  8
SLD-0
 62
     7
100
AcDbLine
 10
1145.5921504764
 20
816.2165949099
 30
0.0
 11
927.8164299201
 21
816.2165949099
 31
0.0
  0
MTEXT
  5
2EC
330
2E3
100
AcDbEntity
  8
SLD-0
 62
     7
100
AcDbMText
 10
888.2391739633
 20
821.9661151865
 30
0.0
 40
11.90625
 41
0.0
 71
     1
 72
     1
  1
481.8
  7
SLDTEXTSTYLE2
 73
     1
 44
1.0
  0
ENDBLK
  5
2E5
330
2E3
100
AcDbEntity
  8
0
100
AcDbBlockEnd
  0
BLOCK
  5
2EF
330
2EE
100
AcDbEntity
  8
0
100
AcDbBlockBegin
  2
_D_2
 70
     0
 10
0.0
 20
0.0
 30
0.0
  3
_D_2
  1

  0
SOLID
  5
2F1
330
2EE
100
AcDbEntity
  8
SLD-0
 62
     7
100
AcDbTrace
 10
682.4521504764
 20
1178.2165949099
 30
0.0
 11
692.4521504764
 21
1176.9665949099
 31
0.0
 12
692.4521504764
 22
1179.4665949099
 32
0.0
 13
692.4521504764
 23
1179.4665949099
 33
0.0
  0
SOLID
  5
2F2
330
2EE
100
AcDbEntity
  8
SLD-0
 62
     7
100
AcDbTrace
 10
1126.9321504764
 20
1178.2165949099
 30
0.0
 11
1116.9321504764
 21
1179.4665949099
 31
0.0
 12
1116.9321504764
 22
1176.9665949099
 32
0.0
 13
1116.9321504764
 23
1176.9665949099
 33
0.0
  0
LINE
  5
2F3
330
2EE
100
AcDbEntity
  8
SLD-0
 62
     7
100
AcDbLine
 10
682.4521504764
 20
1131.8512392726
 30
0.0
 11
682.4521504764
 21
1182.0265949099
 31
0.0
  0
LINE
  5
2F4
330
2EE
100
AcDbEntity
  8
SLD-0
 62
     7
100
AcDbLine
 10
1126.9321504764
 20
1128.2542789183
 30
0.0
 11
1126.9321504764
 21
1182.0265949099
 31
0.0
  0
LINE
  5
2F5
330
2EE
100
AcDbEntity
  8
SLD-0
 62
     7
100
AcDbLine
 10
682.4521504764
 20
1178.2165949099
 30
0.0
 11
888.2391739633
 21
1178.2165949099
 31
0.0
  0
LINE
  5
2F6
330
2EE
100
AcDbEntity
  8
SLD-0
 62
     7
100
AcDbLine
 10
1126.9321504764
 20
1178.2165949099
 30
0.0
 11
927.8164299201
 21
1178.2165949099
 31
0.0
  0
MTEXT
  5
2F7
330
2EE
100
AcDbEntity
  8
SLD-0
 62
     7
100
AcDbMText
 10
888.2391739633
 20
1183.9661151865
 30
0.0
 40
11.90625
 41
0.0
 71
     1
 72
     1
  1
444.5
  7
SLDTEXTSTYLE2
 73
     1
 44
1.0
  0
ENDBLK
  5
2F0
330
2EE
100
AcDbEntity
  8
0
100
AcDbBlockEnd
  0
BLOCK
  5
2F9
330
2F8
100
AcDbEntity
  8
0
100
AcDbBlockBegin
  2
SW_SYMBOL_MOD_CL
 70
     0
 10
0.0
 20
0.0
 30
0.0
  3
SW_SYMBOL_MOD_CL
  1

  0
MTEXT
  5
2FB
330
2F8
100
AcDbEntity
  8
SLD-0
 62
     0
100
AcDbMText
 10
2000.0
 20
3000.0
 30
0.0
 40
3914.373088685
 41
0.0
 71
     5
 72
     1
  1
C
  7
SLDTEXTSTYLE2
 73
     1
 44
1.0
  0
MTEXT
  5
2FC
330
2F8
100
AcDbEntity
  8
SLD-0
 62
     0
100
AcDbMText
 10
3000.0
 20
1500.0
 30
0.0
 40
3914.373088685
 41
0.0
 71
     5
 72
     1
  1
L
  7
SLDTEXTSTYLE2
 73
     1
 44
1.0
  0
ENDBLK
  5
2FA
330
2F8
100
AcDbEntity
  8
0
100
AcDbBlockEnd
  0
BLOCK
  5
339
330
338
100
AcDbEntity
  8
0
100
AcDbBlockBegin
  2
_D_3
 70
     0
 10
0.0
 20
0.0
 30
0.0
  3
_D_3
  1

  0
SOLID
  5
33B
330
338
100
AcDbEntity
  8
SLD-0
 62
     7
100
AcDbTrace
 10
672.1401504764
 20
455.5776832294
 30
0.0
 11
682.1401504764
 21
454.3276832294
 31
0.0
 12
682.1401504764
 22
456.8276832294
 32
0.0
 13
682.1401504764
 23
456.8276832294
 33
0.0
  0
SOLID
  5
33C
330
338
100
AcDbEntity
  8
SLD-0
 62
     7
100
AcDbTrace
 10
1137.2441504764
 20
455.5776832294
 30
0.0
 11
1127.2441504764
 21
456.8276832294
 31
0.0
 12
1127.2441504764
 22
454.3276832294
 32
0.0
 13
1127.2441504764
 23
454.3276832294
 33
0.0
  0
LINE
  5
33D
330
338
100
AcDbEntity
  8
SLD-0
 62
     7
100
AcDbLine
 10
672.1401504764
 20
536.9022060536
 30
0.0
 11
672.1401504764
 21
451.7676832294
 31
0.0
  0
LINE
  5
33E
330
338
100
AcDbEntity
  8
SLD-0
 62
     7
100
AcDbLine
 10
1137.2441504764
 20
536.9022060535
 30
0.0
 11
1137.2441504764
 21
451.7676832294
 31
0.0
  0
LINE
  5
33F
330
338
100
AcDbEntity
  8
SLD-0
 62
     7
100
AcDbLine
 10
672.1401504764
 20
455.5776832294
 30
0.0
 11
874.5977892111
 21
455.5776832294
 31
0.0
  0
LINE
  5
340
330
338
100
AcDbEntity
  8
SLD-0
 62
     7
100
AcDbLine
 10
1137.2441504764
 20
455.5776832294
 30
0.0
 11
937.017407691
 21
455.5776832294
 31
0.0
  0
MTEXT
  5
341
330
338
100
AcDbEntity
  8
SLD-0
 62
     7
100
AcDbMText
 10
874.5977892111
 20
461.3272035061
 30
0.0
 40
11.90625
 41
0.0
 71
     1
 72
     1
  1
2X 
  7
SLDTEXTSTYLE2
 73
     1
 44
1.0
  0
MTEXT
  5
342
330
338
100
AcDbEntity
  8
SLD-0
 62
     7
100
AcDbMText
 10
897.4401517342
 20
461.3272035061
 30
0.0
 40
11.90625
 41
0.0
 71
     1
 72
     1
  1
465.1
  7
SLDTEXTSTYLE2
 73
     1
 44
1.0
  0
ENDBLK
  5
33A
330
338
100
AcDbEntity
  8
0
100
AcDbBlockEnd
  0
BLOCK
  5
346
330
345
100
AcDbEntity
  8
0
100
AcDbBlockBegin
  2
_D_4
 70
     0
 10
0.0
 20
0.0
 30
0.0
  3
_D_4
  1

  0
SOLID
  5
348
330
345
100
AcDbEntity
  8
SLD-0
 62
     7
100
AcDbTrace
 10
1107.9696501324
 20
579.2622060536
 30
0.0
 11
1109.2196501324
 21
589.2622060536
 31
0.0
 12
1106.7196501324
 22
589.2622060536
 32
0.0
 13
1106.7196501324
 23
589.2622060536
 33
0.0
  0
SOLID
  5
349
330
345
100
AcDbEntity
  8
SLD-0
 62
     7
100
AcDbTrace
 10
1107.9696501324
 20
572.4622060536
 30
0.0
 11
1106.7196501324
 21
562.4622060536
 31
0.0
 12
1109.2196501324
 22
562.4622060536
 32
0.0
 13
1109.2196501324
 23
562.4622060536
 33
0.0
  0
LINE
  5
34A
330
345
100
AcDbEntity
  8
SLD-0
 62
     7
100
AcDbLine
 10
1133.4341504764
 20
579.2622060535
 30
0.0
 11
1104.1596501324
 21
579.2622060536
 31
0.0
  0
LINE
  5
34B
330
345
100
AcDbEntity
  8
SLD-0
 62
     7
100
AcDbLine
 10
1131.6841504764
 20
572.4622060535
 30
0.0
 11
1104.1596501324
 21
572.4622060536
 31
0.0
  0
LINE
  5
34C
330
345
100
AcDbEntity
  8
SLD-0
 62
     7
100
AcDbLine
 10
1097.9696501324
 20
609.0894180439
 30
0.0
 11
1107.9696501324
 21
609.0894180439
 31
0.0
  0
LINE
  5
34D
330
345
100
AcDbEntity
  8
SLD-0
 62
     7
100
AcDbLine
 10
1107.9696501324
 20
609.0894180439
 30
0.0
 11
1107.9696501324
 21
579.2622060536
 31
0.0
  0
LINE
  5
34E
330
345
100
AcDbEntity
  8
SLD-0
 62
     7
100
AcDbLine
 10
1107.9696501324
 20
572.4622060536
 30
0.0
 11
1107.9696501324
 21
552.4622060536
 31
0.0
  0
MTEXT
  5
34F
330
345
100
AcDbEntity
  8
SLD-0
 62
     7
100
AcDbMText
 10
1053.1448245327
 20
614.8389383205
 30
0.0
 40
11.90625
 41
0.0
 71
     1
 72
     1
  1
4X 
  7
SLDTEXTSTYLE2
 73
     1
 44
1.0
  0
MTEXT
  5
350
330
345
100
AcDbEntity
  8
SLD-0
 62
     7
100
AcDbMText
 10
1075.9871870557
 20
614.8389383205
 30
0.0
 40
11.90625
 41
0.0
 71
     1
 72
     1
  1
6.8
  7
SLDTEXTSTYLE2
 73
     1
 44
1.0
  0
ENDBLK
  5
347
330
345
100
AcDbEntity
  8
0
100
AcDbBlockEnd
  0
BLOCK
  5
353
330
352
100
AcDbEntity
  8
0
100
AcDbBlockBegin
  2
_D_5
 70
     0
 10
0.0
 20
0.0
 30
0.0
  3
_D_5
  1

  0
SOLID
  5
355
330
352
100
AcDbEntity
  8
SLD-0
 62
     7
100
AcDbTrace
 10
1190.1152454217
 20
544.1122060535
 30
0.0
 11
1188.8652454217
 21
534.1122060535
 31
0.0
 12
1191.3652454217
 22
534.1122060535
 32
0.0
 13
1191.3652454217
 23
534.1122060535
 33
0.0
  0
SOLID
  5
356
330
352
100
AcDbEntity
  8
SLD-0
 62
     7
100
AcDbTrace
 10
1190.1152454217
 20
575.8622060535
 30
0.0
 11
1191.3652454217
 21
585.8622060535
 31
0.0
 12
1188.8652454217
 22
585.8622060535
 32
0.0
 13
1188.8652454217
 23
585.8622060535
 33
0.0
  0
LINE
  5
357
330
352
100
AcDbEntity
  8
SLD-0
 62
     7
100
AcDbLine
 10
1142.8041504764
 20
544.1122060535
 30
0.0
 11
1193.9252454217
 21
544.1122060535
 31
0.0
  0
LINE
  5
358
330
352
100
AcDbEntity
  8
SLD-0
 62
     7
100
AcDbLine
 10
1142.8041504764
 20
575.8622060535
 30
0.0
 11
1193.9252454217
 21
575.8622060535
 31
0.0
  0
LINE
  5
359
330
352
100
AcDbEntity
  8
SLD-0
 62
     7
100
AcDbLine
 10
1190.1152454217
 20
544.1122060535
 30
0.0
 11
1190.1152454217
 21
524.1122060535
 31
0.0
  0
LINE
  5
35A
330
352
100
AcDbEntity
  8
SLD-0
 62
     7
100
AcDbLine
 10
1190.1152454217
 20
575.8622060535
 30
0.0
 11
1190.1152454217
 21
595.8622060535
 31
0.0
  0
MTEXT
  5
35B
330
352
100
AcDbEntity
  8
SLD-0
 62
     7
100
AcDbMText
 10
1163.3041332377
 20
567.2026091195
 30
0.0
 40
11.90625
 41
0.0
 71
     1
 72
     1
  1
2X 
  7
SLDTEXTSTYLE2
 73
     1
 44
1.0
  0
MTEXT
  5
35C
330
352
100
AcDbEntity
  8
SLD-0
 62
     7
100
AcDbMText
 10
1186.1464957607
 20
567.2026091195
 30
0.0
 40
11.90625
 41
0.0
 71
     1
 72
     1
  1
31.8
  7
SLDTEXTSTYLE2
 73
     1
 44
1.0
  0
ENDBLK
  5
354
330
352
100
AcDbEntity
  8
0
100
AcDbBlockEnd
  0
BLOCK
  5
35F
330
35E
100
AcDbEntity
  8
0
100
AcDbBlockBegin
  2
_D_6
 70
     0
 10
0.0
 20
0.0
 30
0.0
  3
_D_6
  1

  0
SOLID
  5
361
330
35E
100
AcDbEntity
  8
SLD-0
 62
     7
100
AcDbTrace
 10
1135.4941504764
 20
636.7931012583
 30
0.0
 11
1125.4941504764
 21
638.0431012583
 31
0.0
 12
1125.4941504764
 22
635.5431012583
 32
0.0
 13
1125.4941504764
 23
635.5431012583
 33
0.0
  0
SOLID
  5
362
330
35E
100
AcDbEntity
  8
SLD-0
 62
     7
100
AcDbTrace
 10
1138.9941504764
 20
636.7931012583
 30
0.0
 11
1148.9941504764
 21
635.5431012583
 31
0.0
 12
1148.9941504764
 22
638.0431012583
 32
0.0
 13
1148.9941504764
 23
638.0431012583
 33
0.0
  0
LINE
  5
363
330
35E
100
AcDbEntity
  8
SLD-0
 62
     7
100
AcDbLine
 10
1135.4941504764
 20
579.6722060535
 30
0.0
 11
1135.4941504764
 21
640.6031012583
 31
0.0
  0
LINE
  5
364
330
35E
100
AcDbEntity
  8
SLD-0
 62
     7
100
AcDbLine
 10
1138.9941504764
 20
579.6722060535
 30
0.0
 11
1138.9941504764
 21
640.6031012583
 31
0.0
  0
LINE
  5
365
330
35E
100
AcDbEntity
  8
SLD-0
 62
     7
100
AcDbLine
 10
1135.4941504764
 20
636.7931012583
 30
0.0
 11
1095.9111475853
 21
636.7931012583
 31
0.0
  0
LINE
  5
366
330
35E
100
AcDbEntity
  8
SLD-0
 62
     7
100
AcDbLine
 10
1138.9941504764
 20
636.7931012583
 30
0.0
 11
1158.9941504764
 21
636.7931012583
 31
0.0
  0
MTEXT
  5
367
330
35E
100
AcDbEntity
  8
SLD-0
 62
     7
100
AcDbMText
 10
1051.0863219855
 20
642.5426215349
 30
0.0
 40
11.90625
 41
0.0
 71
     1
 72
     1
  1
4X 
  7
SLDTEXTSTYLE2
 73
     1
 44
1.0
  0
MTEXT
  5
368
330
35E
100
AcDbEntity
  8
SLD-0
 62
     7
100
AcDbMText
 10
1073.9286845086
 20
642.5426215349
 30
0.0
 40
11.90625
 41
0.0
 71
     1
 72
     1
  1
3.5
  7
SLDTEXTSTYLE2
 73
     1
 44
1.0
  0
ENDBLK
  5
360
330
35E
100
AcDbEntity
  8
0
100
AcDbBlockEnd
  0
BLOCK
  5
36B
330
36A
100
AcDbEntity
  8
0
100
AcDbBlockBegin
  2
SW_CENTERMARKSYMBOL_0
 70
     0
 10
0.0
 20
0.0
 30
0.0
  3
SW_CENTERMARKSYMBOL_0
  1

  0
LINE
  5
36D
330
36A
100
AcDbEntity
  8
SLD-0
 62
     0
100
AcDbLine
 10
0.0
 20
0.0
 30
0.0
 11
2.0
 21
0.0
 31
0.0
  0
LINE
  5
36E
330
36A
100
AcDbEntity
  8
SLD-0
 62
     0
100
AcDbLine
 10
0.0
 20
0.0
 30
0.0
 11
0.0
 21
2.0
 31
0.0
  0
LINE
  5
36F
330
36A
100
AcDbEntity
  8
SLD-0
 62
     0
100
AcDbLine
 10
0.0
 20
0.0
 30
0.0
 11
-2.0
 21
0.0
 31
0.0
  0
LINE
  5
370
330
36A
100
AcDbEntity
  8
SLD-0
 62
     0
100
AcDbLine
 10
0.0
 20
0.0
 30
0.0
 11
0.0
 21
-2.0
 31
0.0
  0
ENDBLK
  5
36C
330
36A
100
AcDbEntity
  8
0
100
AcDbBlockEnd
  0
BLOCK
  5
373
330
372
100
AcDbEntity
  8
0
100
AcDbBlockBegin
  2
SW_CENTERMARKSYMBOL_1
 70
     0
 10
0.0
 20
0.0
 30
0.0
  3
SW_CENTERMARKSYMBOL_1
  1

  0
LINE
  5
375
330
372
100
AcDbEntity
  8
SLD-0
 62
     0
100
AcDbLine
 10
0.0
 20
0.0
 30
0.0
 11
2.0
 21
0.0
 31
0.0
  0
LINE
  5
376
330
372
100
AcDbEntity
  8
SLD-0
 62
     0
100
AcDbLine
 10
0.0
 20
0.0
 30
0.0
 11
0.0
 21
2.0
 31
0.0
  0
LINE
  5
377
330
372
100
AcDbEntity
  8
SLD-0
 62
     0
100
AcDbLine
 10
0.0
 20
0.0
 30
0.0
 11
-2.0
 21
0.0
 31
0.0
  0
LINE
  5
378
330
372
100
AcDbEntity
  8
SLD-0
 62
     0
100
AcDbLine
 10
0.0
 20
0.0
 30
0.0
 11
0.0
 21
-2.0
 31
0.0
  0
ENDBLK
  5
374
330
372
100
AcDbEntity
  8
0
100
AcDbBlockEnd
  0
BLOCK
  5
392
330
391
100
AcDbEntity
  8
0
100
AcDbBlockBegin
  2
_D_7
 70
     0
 10
0.0
 20
0.0
 30
0.0
  3
_D_7
  1

  0
SOLID
  5
394
330
391
100
AcDbEntity
  8
SLD-0
 62
     7
100
AcDbTrace
 10
537.2432119464
 20
538.1872060536
 30
0.0
 11
535.9932119464
 21
528.1872060536
 31
0.0
 12
538.4932119464
 22
528.1872060536
 32
0.0
 13
538.4932119464
 23
528.1872060536
 33
0.0
  0
SOLID
  5
395
330
391
100
AcDbEntity
  8
SLD-0
 62
     7
100
AcDbTrace
 10
537.2432119464
 20
581.7872060536
 30
0.0
 11
538.4932119464
 21
591.7872060536
 31
0.0
 12
535.9932119464
 22
591.7872060536
 32
0.0
 13
535.9932119464
 23
591.7872060536
 33
0.0
  0
LINE
  5
396
330
391
100
AcDbEntity
  8
SLD-0
 62
     7
100
AcDbLine
 10
495.8733813203
 20
538.1872060536
 30
0.0
 11
541.0532119464
 21
538.1872060536
 31
0.0
  0
LINE
  5
397
330
391
100
AcDbEntity
  8
SLD-0
 62
     7
100
AcDbLine
 10
499.0733813203
 20
581.7872060536
 30
0.0
 11
541.0532119464
 21
581.7872060536
 31
0.0
  0
LINE
  5
398
330
391
100
AcDbEntity
  8
SLD-0
 62
     7
100
AcDbLine
 10
537.2432119464
 20
538.1872060536
 30
0.0
 11
537.2432119464
 21
518.1872060536
 31
0.0
  0
LINE
  5
399
330
391
100
AcDbEntity
  8
SLD-0
 62
     7
100
AcDbLine
 10
537.2432119464
 20
581.7872060536
 30
0.0
 11
537.2432119464
 21
601.7872060536
 31
0.0
  0
MTEXT
  5
39A
330
391
100
AcDbEntity
  8
SLD-0
 62
     7
100
AcDbMText
 10
521.8532810238
 20
567.6563234161
 30
0.0
 40
11.90625
 41
0.0
 71
     1
 72
     1
  1
43.6
  7
SLDTEXTSTYLE2
 73
     1
 44
1.0
  0
ENDBLK
  5
393
330
391
100
AcDbEntity
  8
0
100
AcDbBlockEnd
  0
BLOCK
  5
39D
330
39C
100
AcDbEntity
  8
0
100
AcDbBlockBegin
  2
_D_8
 70
     0
 10
0.0
 20
0.0
 30
0.0
  3
_D_8
  1

  0
SOLID
  5
39F
330
39C
100
AcDbEntity
  8
SLD-0
 62
     7
100
AcDbTrace
 10
223.1621142277
 20
538.1872060536
 30
0.0
 11
221.9121142277
 21
528.1872060536
 31
0.0
 12
224.4121142277
 22
528.1872060536
 32
0.0
 13
224.4121142277
 23
528.1872060536
 33
0.0
  0
SOLID
  5
3A0
330
39C
100
AcDbEntity
  8
SLD-0
 62
     7
100
AcDbTrace
 10
223.1621142277
 20
546.7309082774
 30
0.0
 11
224.4121142277
 21
556.7309082774
 31
0.0
 12
221.9121142277
 22
556.7309082774
 32
0.0
 13
221.9121142277
 23
556.7309082774
 33
0.0
  0
LINE
  5
3A1
330
39C
100
AcDbEntity
  8
SLD-0
 62
     7
100
AcDbLine
 10
233.6533813203
 20
538.1872060536
 30
0.0
 11
219.3521142277
 21
538.1872060536
 31
0.0
  0
LINE
  5
3A2
330
39C
100
AcDbEntity
  8
SLD-0
 62
     7
100
AcDbLine
 10
233.2256973119
 20
546.7309082774
 30
0.0
 11
219.3521142277
 21
546.7309082774
 31
0.0
  0
LINE
  5
3A3
330
39C
100
AcDbEntity
  8
SLD-0
 62
     7
100
AcDbLine
 10
213.1621142277
 20
572.0560157635
 30
0.0
 11
223.1621142277
 21
572.0560157635
 31
0.0
  0
LINE
  5
3A4
330
39C
100
AcDbEntity
  8
SLD-0
 62
     7
100
AcDbLine
 10
223.1621142277
 20
572.0560157635
 30
0.0
 11
223.1621142277
 21
546.7309082774
 31
0.0
  0
LINE
  5
3A5
330
39C
100
AcDbEntity
  8
SLD-0
 62
     7
100
AcDbLine
 10
223.1621142277
 20
538.1872060536
 30
0.0
 11
223.1621142277
 21
518.1872060536
 31
0.0
  0
MTEXT
  5
3A6
330
39C
100
AcDbEntity
  8
SLD-0
 62
     7
100
AcDbMText
 10
191.1796488226
 20
577.8055360401
 30
0.0
 40
11.90625
 41
0.0
 71
     1
 72
     1
  1
8.5
  7
SLDTEXTSTYLE2
 73
     1
 44
1.0
  0
ENDBLK
  5
39E
330
39C
100
AcDbEntity
  8
0
100
AcDbBlockEnd
  0
BLOCK
  5
3A8
330
3A7
100
AcDbEntity
  8
0
100
AcDbBlockBegin
  2
SW_NOTE_0_5
 70
     0
 10
0.0
 20
0.0
 30
0.0
  3
SW_NOTE_0_5
  1

  0
MTEXT
  5
3AA
330
3A7
100
AcDbEntity
  8
SLD-0
 62
     0
100
AcDbMText
 10
0.0
 20
15.2083740234
 30
0.0
 40
11.90625
 41
0.0
 71
     1
 72
     1
  1
NET WEIGHT APPROXIMATLY 1.09KG. [2.4 LBS].
  7
SLDTEXTSTYLE2
 73
     1
 44
1.0
  0
MTEXT
  5
3AB
330
3A7
100
AcDbEntity
  8
SLD-0
 62
     0
100
AcDbMText
 10
-49.9999988824
 20
15.2083740234
 30
0.0
 40
11.90625
 41
0.0
 71
     1
 72
     1
  1
1.
  7
SLDTEXTSTYLE2
 73
     1
 44
1.0
  0
MTEXT
  5
3AC
330
3A7
100
AcDbEntity
  8
SLD-0
 62
     0
100
AcDbMText
 10
0.0
 20
-5.6666254401
 30
0.0
 40
11.90625
 41
0.0
 71
     1
 72
     1
  1
PARTS ARE SYMMETRICAL ABOUT CENTER LINES UNLESS OTHERWISE NOTED.
  7
SLDTEXTSTYLE2
 73
     1
 44
1.0
  0
MTEXT
  5
3AD
330
3A7
100
AcDbEntity
  8
SLD-0
 62
     0
100
AcDbMText
 10
-49.9999988824
 20
-5.6666254401
 30
0.0
 40
11.90625
 41
0.0
 71
     1
 72
     1
  1
2.
  7
SLDTEXTSTYLE2
 73
     1
 44
1.0
  0
ENDBLK
  5
3A9
330
3A7
100
AcDbEntity
  8
0
100
AcDbBlockEnd
  0
ENDSEC
  0
SECTION
  2
ENTITIES
  0
LINE
  5
BC
330
1F
100
AcDbEntity
  8
0
  6
Continuous
 62
     7
370
    18
100
AcDbLine
 10
44.4426455791
 20
1352.5473209984
 30
0.0
 11
2114.5426455791
 21
1352.5473209984
 31
0.0
  0
LINE
  5
BD
330
1F
100
AcDbEntity
  8
0
  6
Continuous
 62
     7
370
    18
100
AcDbLine
 10
44.4426455791
 20
1352.5473209984
 30
0.0
 11
44.4426455791
 21
44.4473209984
 31
0.0
  0
LINE
  5
BE
330
1F
100
AcDbEntity
  8
0
  6
Continuous
 62
     7
370
    18
100
AcDbLine
 10
2114.5426455791
 20
44.4473209984
 30
0.0
 11
44.4426455791
 21
44.4473209984
 31
0.0
  0
LINE
  5
BF
330
1F
100
AcDbEntity
  8
0
  6
Continuous
 62
     7
370
    18
100
AcDbLine
 10
2114.5426455791
 20
44.4473209984
 30
0.0
 11
2114.5426455791
 21
1352.5473209984
 31
0.0
  0
LINE
  5
C0
330
1F
100
AcDbEntity
  8
0
  6
Continuous
 62
     7
370
    18
100
AcDbLine
 10
1479.5426455791
 20
44.4473209984
 30
0.0
 11
1479.5426455791
 21
234.9473209984
 31
0.0
  0
LINE
  5
C1
330
1F
100
AcDbEntity
  8
0
  6
Continuous
 62
     7
370
    18
100
AcDbLine
 10
1479.5426455791
 20
234.9473209984
 30
0.0
 11
2114.5426455791
 21
234.9473209984
 31
0.0
  0
LINE
  5
C2
330
1F
100
AcDbEntity
  8
0
  6
Continuous
 62
     7
370
    18
100
AcDbLine
 10
1646.8002064887
 20
234.9473209984
 30
0.0
 11
1646.8002064887
 21
44.4473209984
 31
0.0
  0
LINE
  5
C3
330
1F
100
AcDbEntity
  8
0
  6
Continuous
 62
     7
370
    18
100
AcDbLine
 10
1820.1120684032
 20
234.9473209984
 30
0.0
 11
1820.1120684032
 21
44.4473209984
 31
0.0
  0
LINE
  5
C4
330
1F
100
AcDbEntity
  8
0
  6
Continuous
 62
     7
370
    18
100
AcDbLine
 10
1820.1120684032
 20
60.3223209984
 30
0.0
 11
2114.5426455791
 21
60.3223209984
 31
0.0
  0
LINE
  5
C5
330
1F
100
AcDbEntity
  8
0
  6
Continuous
 62
     7
370
    18
100
AcDbLine
 10
1820.1120684032
 20
92.0723209984
 30
0.0
 11
2114.5426455791
 21
92.0723209984
 31
0.0
  0
LINE
  5
C6
330
1F
100
AcDbEntity
  8
0
  6
Continuous
 62
     7
370
    18
100
AcDbLine
 10
1820.1120684032
 20
187.3223209984
 30
0.0
 11
2114.5426455791
 21
187.3223209984
 31
0.0
  0
LINE
  5
C7
330
1F
100
AcDbEntity
  8
0
  6
Continuous
 62
     7
370
    18
100
AcDbLine
 10
1843.0620963264
 20
92.0723209984
 30
0.0
 11
1843.0620963264
 21
60.3223209984
 31
0.0
  0
LINE
  5
C8
330
1F
100
AcDbEntity
  8
0
  6
Continuous
 62
     7
370
    18
100
AcDbLine
 10
2028.0110438922
 20
60.3223209984
 30
0.0
 11
2028.0110438922
 21
44.4473209984
 31
0.0
  0
LINE
  5
C9
330
1F
100
AcDbEntity
  8
0
  6
Continuous
 62
     7
370
    18
100
AcDbLine
 10
1903.3870963264
 20
92.0723209984
 30
0.0
 11
1903.3870963264
 21
60.3223209984
 31
0.0
  0
LINE
  5
CA
330
1F
100
AcDbEntity
  8
0
  6
Continuous
 62
     7
370
    18
100
AcDbLine
 10
1879.3305432348
 20
60.3223209984
 30
0.0
 11
1879.3305432348
 21
44.4473209984
 31
0.0
  0
LINE
  5
CB
330
1F
100
AcDbEntity
  8
0
  6
Continuous
 62
     7
370
    18
100
AcDbLine
 10
1597.0176455791
 20
44.4473209984
 30
0.0
 11
1597.0176455791
 21
67.3073209984
 31
0.0
  0
LINE
  5
CC
330
1F
100
AcDbEntity
  8
0
  6
Continuous
 62
     7
370
    18
100
AcDbLine
 10
1646.6195553389
 20
78.1973209984
 30
0.0
 11
1819.9314172534
 21
78.1973209984
 31
0.0
  0
LINE
  5
CD
330
1F
100
AcDbEntity
  8
0
  6
Continuous
 62
     7
370
    18
100
AcDbLine
 10
1646.8002064887
 20
111.9473209984
 30
0.0
 11
1820.1120684032
 21
111.9473209984
 31
0.0
  0
LINE
  5
CE
330
1F
100
AcDbEntity
  8
0
  6
Continuous
 62
     7
370
    18
100
AcDbLine
 10
1646.8002064887
 20
145.6973209984
 30
0.0
 11
1820.1120684032
 21
145.6973209984
 31
0.0
  0
LINE
  5
CF
330
1F
100
AcDbEntity
  8
0
  6
Continuous
 62
     7
370
    18
100
AcDbLine
 10
1646.8002064887
 20
191.4063070022
 30
0.0
 11
1820.1120684032
 21
191.4063070022
 31
0.0
  0
LINE
  5
D0
330
1F
100
AcDbEntity
  8
0
  6
Continuous
 62
     7
370
    18
100
AcDbLine
 10
1646.8002064887
 20
178.0713070022
 30
0.0
 11
1820.1120684032
 21
178.0713070022
 31
0.0
  0
LINE
  5
D1
330
1F
100
AcDbEntity
  8
0
  6
Continuous
 62
     7
370
    18
100
AcDbLine
 10
1646.8002064887
 20
136.2229072346
 30
0.0
 11
1479.5426455791
 21
136.2229072346
 31
0.0
  0
LINE
  5
D2
330
1F
100
AcDbEntity
  8
0
  6
CENTER
 62
     7
370
    18
100
AcDbLine
 10
1619.9605839435
 20
56.3091258848
 30
0.0
 11
1643.3181589405
 21
56.3091258848
 31
0.0
  0
LINE
  5
D3
330
1F
100
AcDbEntity
  8
0
  6
Continuous
 62
     7
370
    18
100
AcDbLine
 10
2114.5426455791
 20
371.4723209984
 30
0.0
 11
2130.4176455791
 21
371.4723209984
 31
0.0
  0
LINE
  5
D4
330
1F
100
AcDbEntity
  8
0
  6
Continuous
 62
     7
370
    18
100
AcDbLine
 10
2122.4801455791
 20
693.9146032367
 30
0.0
 11
2114.5426455791
 21
698.4973209984
 31
0.0
  0
LINE
  5
D5
330
1F
100
AcDbEntity
  8
0
  6
Continuous
 62
     7
370
    18
100
AcDbLine
 10
2122.4801455791
 20
703.0800387601
 30
0.0
 11
2122.4801455791
 21
693.9146032367
 31
0.0
  0
LINE
  5
D6
330
1F
100
AcDbEntity
  8
0
  6
Continuous
 62
     7
370
    18
100
AcDbLine
 10
2114.5426455791
 20
698.4973209984
 30
0.0
 11
2122.4801455791
 21
703.0800387601
 31
0.0
  0
LINE
  5
D7
330
1F
100
AcDbEntity
  8
0
  6
Continuous
 62
     7
370
    18
100
AcDbLine
 10
2114.5426455791
 20
698.4973209984
 30
0.0
 11
2130.4176455791
 21
698.4973209984
 31
0.0
  0
LINE
  5
D8
330
1F
100
AcDbEntity
  8
0
  6
Continuous
 62
     7
370
    18
100
AcDbLine
 10
2114.5426455791
 20
1025.5223209984
 30
0.0
 11
2130.4176455791
 21
1025.5223209984
 31
0.0
  0
LINE
  5
D9
330
1F
100
AcDbEntity
  8
0
  6
Continuous
 62
     7
370
    18
100
AcDbLine
 10
1855.7801455791
 20
1352.5473209984
 30
0.0
 11
1855.7801455791
 21
1368.4223209984
 31
0.0
  0
LINE
  5
DA
330
1F
100
AcDbEntity
  8
0
  6
Continuous
 62
     7
370
    18
100
AcDbLine
 10
1338.2551455791
 20
44.4473209984
 30
0.0
 11
1338.2551455791
 21
28.5723209984
 31
0.0
  0
LINE
  5
DB
330
1F
100
AcDbEntity
  8
0
  6
Continuous
 62
     7
370
    18
100
AcDbLine
 10
1855.7801455791
 20
44.4473209984
 30
0.0
 11
1855.7801455791
 21
28.5723209984
 31
0.0
  0
LINE
  5
DC
330
1F
100
AcDbEntity
  8
0
  6
Continuous
 62
     7
370
    18
100
AcDbLine
 10
1597.0176455791
 20
44.4473209984
 30
0.0
 11
1597.0176455791
 21
28.5723209984
 31
0.0
  0
LINE
  5
DD
330
1F
100
AcDbEntity
  8
0
  6
Continuous
 62
     7
370
    18
100
AcDbLine
 10
820.7301455791
 20
44.4473209984
 30
0.0
 11
820.7301455791
 21
28.5723209984
 31
0.0
  0
LINE
  5
DE
330
1F
100
AcDbEntity
  8
0
  6
Continuous
 62
     7
370
    18
100
AcDbLine
 10
561.9676455791
 20
44.4473209984
 30
0.0
 11
561.9676455791
 21
28.5723209984
 31
0.0
  0
LINE
  5
DF
330
1F
100
AcDbEntity
  8
0
  6
Continuous
 62
     7
370
    18
100
AcDbLine
 10
303.2051455791
 20
44.4473209984
 30
0.0
 11
303.2051455791
 21
28.5723209984
 31
0.0
  0
LINE
  5
E0
330
1F
100
AcDbEntity
  8
0
  6
Continuous
 62
     7
370
    18
100
AcDbLine
 10
1597.0176455791
 20
1352.5473209984
 30
0.0
 11
1597.0176455791
 21
1368.4223209984
 31
0.0
  0
LINE
  5
E1
330
1F
100
AcDbEntity
  8
0
  6
Continuous
 62
     7
370
    18
100
AcDbLine
 10
1338.2551455791
 20
1352.5473209984
 30
0.0
 11
1338.2551455791
 21
1368.4223209984
 31
0.0
  0
LINE
  5
E2
330
1F
100
AcDbEntity
  8
0
  6
Continuous
 62
     7
370
    18
100
AcDbLine
 10
1084.0753633408
 20
1360.4848209984
 30
0.0
 11
1074.9099278174
 21
1360.4848209984
 31
0.0
  0
LINE
  5
E3
330
1F
100
AcDbEntity
  8
0
  6
Continuous
 62
     7
370
    18
100
AcDbLine
 10
1079.4926455791
 20
1352.5473209984
 30
0.0
 11
1074.9099278174
 21
1360.4848209984
 31
0.0
  0
LINE
  5
E4
330
1F
100
AcDbEntity
  8
0
  6
Continuous
 62
     7
370
    18
100
AcDbLine
 10
1079.4926455791
 20
1352.5473209984
 30
0.0
 11
1084.0753633408
 21
1360.4848209984
 31
0.0
  0
LINE
  5
E5
330
1F
100
AcDbEntity
  8
0
  6
Continuous
 62
     7
370
    18
100
AcDbLine
 10
44.4426455791
 20
371.4723209984
 30
0.0
 11
28.5676455791
 21
371.4723209984
 31
0.0
  0
LINE
  5
E6
330
1F
100
AcDbEntity
  8
0
  6
Continuous
 62
     7
370
    18
100
AcDbLine
 10
44.4426455791
 20
698.4973209984
 30
0.0
 11
28.5676455791
 21
698.4973209984
 31
0.0
  0
LINE
  5
E7
330
1F
100
AcDbEntity
  8
0
  6
Continuous
 62
     7
370
    18
100
AcDbLine
 10
44.4426455791
 20
1025.5223209984
 30
0.0
 11
28.5676455791
 21
1025.5223209984
 31
0.0
  0
LINE
  5
E8
330
1F
100
AcDbEntity
  8
0
  6
Continuous
 62
     7
370
    18
100
AcDbLine
 10
44.4426455791
 20
698.4973209984
 30
0.0
 11
36.5051455791
 21
703.0800387601
 31
0.0
  0
LINE
  5
E9
330
1F
100
AcDbEntity
  8
0
  6
Continuous
 62
     7
370
    18
100
AcDbLine
 10
36.5051455791
 20
703.0800387601
 30
0.0
 11
36.5051455791
 21
693.9146032367
 31
0.0
  0
LINE
  5
EA
330
1F
100
AcDbEntity
  8
0
  6
Continuous
 62
     7
370
    18
100
AcDbLine
 10
36.5051455791
 20
693.9146032367
 30
0.0
 11
44.4426455791
 21
698.4973209984
 31
0.0
  0
LINE
  5
EB
330
1F
100
AcDbEntity
  8
0
  6
Continuous
 62
     7
370
    18
100
AcDbLine
 10
1079.4926455791
 20
1352.5473209984
 30
0.0
 11
1079.4926455791
 21
1368.4223209984
 31
0.0
  0
LINE
  5
EC
330
1F
100
AcDbEntity
  8
0
  6
Continuous
 62
     7
370
    18
100
AcDbLine
 10
820.7301455791
 20
1352.5473209984
 30
0.0
 11
820.7301455791
 21
1368.4223209984
 31
0.0
  0
LINE
  5
ED
330
1F
100
AcDbEntity
  8
0
  6
Continuous
 62
     7
370
    18
100
AcDbLine
 10
561.9676455791
 20
1352.5473209984
 30
0.0
 11
561.9676455791
 21
1368.4223209984
 31
0.0
  0
LINE
  5
EE
330
1F
100
AcDbEntity
  8
0
  6
Continuous
 62
     7
370
    18
100
AcDbLine
 10
303.2051455791
 20
1352.5473209984
 30
0.0
 11
303.2051455791
 21
1368.4223209984
 31
0.0
  0
LINE
  5
EF
330
1F
100
AcDbEntity
  8
0
  6
Continuous
 62
     7
370
    18
100
AcDbLine
 10
1622.3250164028
 20
53.1341258848
 30
0.0
 11
1641.3750164028
 21
49.9591258848
 31
0.0
  0
LINE
  5
F0
330
1F
100
AcDbEntity
  8
0
  6
Continuous
 62
     7
370
    18
100
AcDbLine
 10
1622.3250164028
 20
59.4841258848
 30
0.0
 11
1641.3750164028
 21
62.6591258848
 31
0.0
  0
LINE
  5
F1
330
1F
100
AcDbEntity
  8
0
  6
CENTER
 62
     7
370
    18
100
AcDbLine
 10
1601.3954164028
 20
56.3091258848
 30
0.0
 11
1617.8546164028
 21
56.3091258848
 31
0.0
  0
LINE
  5
F2
330
1F
100
AcDbEntity
  8
0
  6
CENTER
 62
     7
370
    18
100
AcDbLine
 10
1609.6250164028
 20
48.0795258848
 30
0.0
 11
1609.6250164028
 21
64.5387258848
 31
0.0
  0
LINE
  5
F3
330
1F
100
AcDbEntity
  8
0
  6
Continuous
 62
     7
370
    18
100
AcDbLine
 10
1479.5426455791
 20
67.3073209984
 30
0.0
 11
1646.8002064887
 21
67.3073209984
 31
0.0
  0
LINE
  5
F4
330
1F
100
AcDbEntity
  8
0
  6
Continuous
 62
     7
370
    18
100
AcDbLine
 10
1479.5426455791
 20
90.1673209984
 30
0.0
 11
1646.8002064887
 21
90.1673209984
 31
0.0
  0
LINE
  5
F5
330
1F
100
AcDbEntity
  8
0
  6
Continuous
 62
     7
370
    18
100
AcDbLine
 10
1079.4926455791
 20
44.4473209984
 30
0.0
 11
1079.4926455791
 21
28.5723209984
 31
0.0
  0
LINE
  5
F6
330
1F
100
AcDbEntity
  8
0
  6
Continuous
 62
     7
370
    18
100
AcDbLine
 10
1079.4926455791
 20
44.4473209984
 30
0.0
 11
1084.0753633408
 21
36.5098209984
 31
0.0
  0
LINE
  5
F7
330
1F
100
AcDbEntity
  8
0
  6
Continuous
 62
     7
370
    18
100
AcDbLine
 10
1079.4926455791
 20
44.4473209984
 30
0.0
 11
1074.9099278174
 21
36.5098209984
 31
0.0
  0
LINE
  5
F8
330
1F
100
AcDbEntity
  8
0
  6
Continuous
 62
     7
370
    18
100
AcDbLine
 10
1084.0753633408
 20
36.5098209984
 30
0.0
 11
1074.9099278174
 21
36.5098209984
 31
0.0
  0
LINE
  5
F9
330
1F
100
AcDbEntity
  8
0
  6
Continuous
 62
     7
370
    18
100
AcDbLine
 10
1479.5426455791
 20
113.0273209984
 30
0.0
 11
1646.8002064887
 21
113.0273209984
 31
0.0
  0
LINE
  5
FA
330
1F
100
AcDbEntity
  8
0
  6
Continuous
 62
     7
370
    18
100
AcDbLine
 10
1622.3250164028
 20
59.4841258848
 30
0.0
 11
1622.3250164028
 21
53.1341258848
 31
0.0
  0
LINE
  5
FB
330
1F
100
AcDbEntity
  8
0
  6
Continuous
 62
     7
370
    18
100
AcDbLine
 10
44.4426455791
 20
1293.7510699803
 30
0.0
 11
374.6883795813
 21
1293.7510699803
 31
0.0
  0
LINE
  5
FC
330
1F
100
AcDbEntity
  8
0
  6
Continuous
 62
     7
370
    18
100
AcDbLine
 10
374.6883795813
 20
1352.5473209984
 30
0.0
 11
374.6883795813
 21
1293.7510699803
 31
0.0
  0
LINE
  5
FD
330
1F
100
AcDbEntity
  8
0
  6
Continuous
 62
     7
370
    18
100
AcDbLine
 10
1641.3750164028
 20
62.6591258848
 30
0.0
 11
1641.3750164028
 21
49.9591258848
 31
0.0
  0
LINE
  5
FE
330
1F
100
AcDbEntity
  8
0
  6
Continuous
 62
     7
370
    18
100
AcDbLine
 10
2061.8039313978
 20
92.0723209984
 30
0.0
 11
2061.8039313978
 21
60.3223209984
 31
0.0
  0
CIRCLE
  5
FF
330
1F
100
AcDbEntity
  8
0
  6
Continuous
 62
     7
370
    18
100
AcDbCircle
 10
1609.6250164028
 20
56.3091258848
 30
0.0
 40
6.349999999999454
  0
CIRCLE
  5
100
330
1F
100
AcDbEntity
  8
0
  6
Continuous
 62
     7
370
    18
100
AcDbCircle
 10
1609.6250164028
 20
56.3091258848
 30
0.0
 40
3.174999999999727
  0
INSERT
  5
101
330
1F
100
AcDbEntity
  8
0
  6
Continuous
 62
     7
100
AcDbBlockReference
  2
QSC Logo
 10
1827.8122920021
 20
199.1448042883
 30
0.0
 41
0.8
 42
0.8
 43
0.8
  0
INSERT
  5
10D
330
1F
100
AcDbEntity
  8
0
  6
Continuous
 62
     7
370
     0
100
AcDbBlockReference
  2
SW_NOTE_0
 10
49.4329252742
 20
1340.0208565283
 30
0.0
  0
MTEXT
  5
10F
330
1F
100
AcDbEntity
  8
0
  6
Continuous
 62
     7
370
     0
100
AcDbMText
 10
2080.345955798
 20
90.3157067443
 30
0.0
 40
6.6145833333
 41
0.0
 71
     1
 72
     1
  1
REV
  7
SLDTEXTSTYLE2
 73
     1
 44
1.0
  0
MTEXT
  5
110
330
1F
100
AcDbEntity
  8
0
  6
Continuous
 62
     7
370
     0
100
AcDbMText
 10
2113.5127443106
 20
34.9750697497
 30
0.0
 40
5.0
 41
0.0
 71
     3
 72
     1
  1
Form: QMS100206 Rev D
  7
SLDTEXTSTYLE2
 73
     1
 44
1.0
  0
MTEXT
  5
111
330
1F
100
AcDbEntity
  8
0
  6
Continuous
 62
     7
370
     0
100
AcDbMText
 10
70.5358329086
 20
1285.7751921535
 30
0.0
 40
11.90625
 41
0.0
 71
     1
 72
     1
  1
NOTES: UNLESS OTHERWISE SPECIFIED
  7
SLDTEXTSTYLE2
 73
     1
 44
1.0
  0
MTEXT
  5
113
330
1F
100
AcDbEntity
  8
0
  6
Continuous
 62
     7
370
     0
100
AcDbMText
 10
1959.2112677046
 20
230.4364223488
 30
0.0
 40
12.7
 41
0.0
 71
     1
 72
     1
  1
QSC, LLC
  7
SLDTEXTSTYLE3
 73
     1
 44
1.0
  0
INSERT
  5
119
330
1F
100
AcDbEntity
  8
0
  6
Continuous
 62
     7
370
     0
100
AcDbBlockReference
  2
SW_NOTE_0_1
 10
1959.2112677046
 20
202.7393683599
 30
0.0
  0
MTEXT
  5
11A
330
1F
100
AcDbEntity
  8
0
  6
Continuous
 62
     7
370
     0
100
AcDbMText
 10
1853.3929789366
 20
76.1694404336
 30
0.0
 40
9.2604166667
 41
0.0
 71
     1
 72
     1
  1
00PW4
  7
SLDTEXTSTYLE2
 73
     1
 44
1.0
  0
MTEXT
  5
11B
330
1F
100
AcDbEntity
  8
0
  6
Continuous
 62
     7
370
     0
100
AcDbMText
 10
1846.3047750049
 20
89.4277472955
 30
0.0
 40
6.6145833333
 41
0.0
 71
     1
 72
     1
  1
CAGE CODE
  7
SLDTEXTSTYLE2
 73
     1
 44
1.0
  0
MTEXT
  5
11C
330
1F
100
AcDbEntity
  8
0
  6
Continuous
 62
     7
370
     0
100
AcDbMText
 10
687.2612231158
 20
1366.7913497944
 30
0.0
 40
11.90625
 41
0.0
 71
     1
 72
     1
  1
6
  7
SLDTEXTSTYLE2
 73
     1
 44
1.0
  0
MTEXT
  5
11D
330
1F
100
AcDbEntity
  8
0
  6
Continuous
 62
     7
370
     0
100
AcDbMText
 10
1652.2909920362
 20
125.9450449101
 30
0.0
 40
7.9375
 41
0.0
 71
     1
 72
     1
  1
T. GOSSARD
  7
SLDTEXTSTYLE2
 73
     1
 44
1.0
  0
MTEXT
  5
11E
330
1F
100
AcDbEntity
  8
0
  6
Continuous
 62
     7
370
     0
100
AcDbMText
 10
1528.6449359321
 20
107.6440065852
 30
0.0
 40
11.43
 41
0.0
 71
     1
 72
     1
  1
SEE NOTES
  7
SLDTEXTSTYLE2
 73
     1
 44
1.0
  0
MTEXT
  5
11F
330
1F
100
AcDbEntity
  8
0
  6
Continuous
 62
     7
370
     0
100
AcDbMText
 10
1924.0733257268
 20
54.6093070659
 30
0.0
 40
6.35
 41
0.0
 71
     1
 72
     1
  1
 FG-901528-2D
  7
SLDTEXTSTYLE2
 73
     1
 44
1.0
  0
MTEXT
  5
120
330
1F
100
AcDbEntity
  8
0
  6
Continuous
 62
     7
370
     0
100
AcDbMText
 10
1528.6449359321
 20
131.2280133135
 30
0.0
 40
11.43
 41
0.0
 71
     1
 72
     1
  1
SEE NOTES
  7
SLDTEXTSTYLE2
 73
     1
 44
1.0
  0
MTEXT
  5
121
330
1F
100
AcDbEntity
  8
0
  6
Continuous
 62
     7
370
     0
100
AcDbMText
 10
1659.6418179397
 20
230.1486174653
 30
0.0
 40
7.9375
 41
0.0
 71
     1
 72
     1
  1
CAD GENERATED DRAWING
  7
SLDTEXTSTYLE2
 73
     1
 44
1.0
  0
MTEXT
  5
122
330
1F
100
AcDbEntity
  8
0
  6
Continuous
 62
     7
370
     0
100
AcDbMText
 10
1660.4840374685
 20
215.2416499734
 30
0.0
 40
7.9375
 41
0.0
 71
     1
 72
     1
  1
DO  NOT  MANUALLY  UPDATE
  7
SLDTEXTSTYLE2
 73
     1
 44
1.0
  0
MTEXT
  5
123
330
1F
100
AcDbEntity
  8
0
  6
Continuous
 62
     7
370
     0
100
AcDbMText
 10
1488.0477379936
 20
230.1486174653
 30
0.0
 40
7.9375
 41
0.0
 71
     1
 72
     1
  1
UNLESS  OTHERWISE  SPECIFIED
  7
SLDTEXTSTYLE2
 73
     1
 44
1.0
  0
MTEXT
  5
124
330
1F
100
AcDbEntity
  8
0
  6
Continuous
 62
     7
370
     0
100
AcDbMText
 10
1488.9089010144
 20
215.2416499734
 30
0.0
 40
7.9375
 41
0.0
 71
     1
 72
     1
  1
DIMENSIONS  ARE  IN  MM [IN]
  7
SLDTEXTSTYLE2
 73
     1
 44
1.0
  0
MTEXT
  5
125
330
1F
100
AcDbEntity
  8
0
  6
Continuous
 62
     7
370
     0
100
AcDbMText
 10
2118.8039570981
 20
214.8535903856
 30
0.0
 40
11.90625
 41
0.0
 71
     1
 72
     1
  1
A
  7
SLDTEXTSTYLE2
 73
     1
 44
1.0
  0
MTEXT
  5
126
330
1F
100
AcDbEntity
  8
0
  6
Continuous
 62
     7
370
     0
100
AcDbMText
 10
2121.4183197663
 20
541.6780664215
 30
0.0
 40
11.90625
 41
0.0
 71
     1
 72
     1
  1
B
  7
SLDTEXTSTYLE2
 73
     1
 44
1.0
  0
MTEXT
  5
127
330
1F
100
AcDbEntity
  8
0
  6
Continuous
 62
     7
370
     0
100
AcDbMText
 10
2117.7841812085
 20
869.0028931124
 30
0.0
 40
11.90625
 41
0.0
 71
     1
 72
     1
  1
C
  7
SLDTEXTSTYLE2
 73
     1
 44
1.0
  0
MTEXT
  5
128
330
1F
100
AcDbEntity
  8
0
  6
Continuous
 62
     7
370
     0
100
AcDbMText
 10
2119.1016037488
 20
1195.7751962635
 30
0.0
 40
11.90625
 41
0.0
 71
     1
 72
     1
  1
D
  7
SLDTEXTSTYLE2
 73
     1
 44
1.0
  0
MTEXT
  5
129
330
1F
100
AcDbEntity
  8
0
  6
Continuous
 62
     7
370
     0
100
AcDbMText
 10
1981.4576116973
 20
1366.9851300429
 30
0.0
 40
11.90625
 41
0.0
 71
     1
 72
     1
  1
1
  7
SLDTEXTSTYLE2
 73
     1
 44
1.0
  0
MTEXT
  5
12A
330
1F
100
AcDbEntity
  8
0
  6
Continuous
 62
     7
370
     0
100
AcDbMText
 10
1722.2372666224
 20
1366.8815702755
 30
0.0
 40
11.90625
 41
0.0
 71
     1
 72
     1
  1
2
  7
SLDTEXTSTYLE2
 73
     1
 44
1.0
  0
MTEXT
  5
12B
330
1F
100
AcDbEntity
  8
0
  6
Continuous
 62
     7
370
     0
100
AcDbMText
 10
1463.4027635543
 20
1366.6177538495
 30
0.0
 40
11.90625
 41
0.0
 71
     1
 72
     1
  1
3
  7
SLDTEXTSTYLE2
 73
     1
 44
1.0
  0
MTEXT
  5
12C
330
1F
100
AcDbEntity
  8
0
  6
Continuous
 62
     7
370
     0
100
AcDbMText
 10
1204.7860599289
 20
1366.648484282
 30
0.0
 40
11.90625
 41
0.0
 71
     1
 72
     1
  1
4
  7
SLDTEXTSTYLE2
 73
     1
 44
1.0
  0
MTEXT
  5
12D
330
1F
100
AcDbEntity
  8
0
  6
Continuous
 62
     7
370
     0
100
AcDbMText
 10
946.0661939986
 20
1366.6059422598
 30
0.0
 40
11.90625
 41
0.0
 71
     1
 72
     1
  1
5
  7
SLDTEXTSTYLE2
 73
     1
 44
1.0
  0
MTEXT
  5
12E
330
1F
100
AcDbEntity
  8
0
  6
Continuous
 62
     7
370
     0
100
AcDbMText
 10
428.812325354
 20
1367.1055192231
 30
0.0
 40
11.90625
 41
0.0
 71
     1
 72
     1
  1
7
  7
SLDTEXTSTYLE2
 73
     1
 44
1.0
  0
MTEXT
  5
12F
330
1F
100
AcDbEntity
  8
0
  6
Continuous
 62
     7
370
     0
100
AcDbMText
 10
1652.2909920362
 20
90.7280411101
 30
0.0
 40
7.9375
 41
0.0
 71
     1
 72
     1
  1
A. FOSTER
  7
SLDTEXTSTYLE2
 73
     1
 44
1.0
  0
MTEXT
  5
130
330
1F
100
AcDbEntity
  8
0
  6
Continuous
 62
     7
370
     0
100
AcDbMText
 10
1652.2909920362
 20
57.4430903922
 30
0.0
 40
7.9375
 41
0.0
 71
     1
 72
     1
  1
C. WHITNEY
  7
SLDTEXTSTYLE2
 73
     1
 44
1.0
  0
MTEXT
  5
131
330
1F
100
AcDbEntity
  8
0
  6
Continuous
 62
     7
370
     0
100
AcDbMText
 10
1652.2909920362
 20
159.1335607452
 30
0.0
 40
7.9375
 41
0.0
 71
     1
 72
     1
  1
S. STASIAK
  7
SLDTEXTSTYLE2
 73
     1
 44
1.0
  0
MTEXT
  5
132
330
1F
100
AcDbEntity
  8
0
  6
Continuous
 62
     7
370
     0
100
AcDbMText
 10
1982.9256973315
 20
80.1195175149
 30
0.0
 40
15.875
 41
0.0
 71
     2
 72
     1
  1
FG-901528-2D
  7
SLDTEXTSTYLE2
 73
     1
 44
1.0
  0
MTEXT
  5
133
330
1F
100
AcDbEntity
  8
0
  6
Continuous
 62
     7
370
     0
100
AcDbMText
 10
2058.8980009574
 20
57.5404606961
 30
0.0
 40
9.2604166667
 41
0.0
 71
     1
 72
     1
  1
1  OF  1
  7
SLDTEXTSTYLE2
 73
     1
 44
1.0
  0
MTEXT
  5
134
330
1F
100
AcDbEntity
  8
0
  6
Continuous
 62
     7
370
     0
100
AcDbMText
 10
1866.8307523994
 20
57.1093987313
 30
0.0
 40
8.89
 41
0.0
 71
     2
 72
     1
  1
1:5
  7
SLDTEXTSTYLE2
 73
     1
 44
1.0
  0
MTEXT
  5
135
330
1F
100
AcDbEntity
  8
0
  6
Continuous
 62
     7
370
     0
100
AcDbMText
 10
1705.4432476289
 20
188.2757891562
 30
0.0
 40
6.6145833333
 41
0.0
 71
     1
 72
     1
  1
APPROVALS
  7
SLDTEXTSTYLE2
 73
     1
 44
1.0
  0
MTEXT
  5
136
330
1F
100
AcDbEntity
  8
0
  6
Continuous
 62
     7
370
     0
100
AcDbMText
 10
1481.8385160508
 20
62.0984556946
 30
0.0
 40
7.9375
 41
0.0
 71
     1
 72
     1
  1
PROJECTION SYMBOL
  7
SLDTEXTSTYLE2
 73
     1
 44
1.0
  0
INSERT
  5
13D
330
1F
100
AcDbEntity
  8
0
  6
Continuous
 62
     7
370
     0
100
AcDbBlockReference
  2
SW_NOTE_0_2
 10
1595.617119128
 20
154.5402214008
 30
0.0
  0
INSERT
  5
146
330
1F
100
AcDbEntity
  8
0
  6
Continuous
 62
     7
370
     0
100
AcDbBlockReference
  2
SW_NOTE_0_3
 10
1494.9245197314
 20
154.5402214008
 30
0.0
  0
MTEXT
  5
147
330
1F
100
AcDbEntity
  8
0
  6
Continuous
 62
     7
370
     0
100
AcDbMText
 10
169.8603691101
 20
1366.6201780598
 30
0.0
 40
11.90625
 41
0.0
 71
     1
 72
     1
  1
8
  7
SLDTEXTSTYLE2
 73
     1
 44
1.0
  0
INSERT
  5
14D
330
1F
100
AcDbEntity
  8
0
  6
Continuous
 62
     7
370
     0
100
AcDbBlockReference
  2
SW_NOTE_0_4
 10
1847.7315895135
 20
155.2183813884
 30
0.0
  0
MTEXT
  5
14E
330
1F
100
AcDbEntity
  8
0
  6
Continuous
 62
     7
370
     0
100
AcDbMText
 10
2087.7225947991
 20
80.4443427119
 30
0.0
 40
15.875
 41
0.0
 71
     2
 72
     1
  1
A
  7
SLDTEXTSTYLE2
 73
     1
 44
1.0
  0
MTEXT
  5
14F
330
1F
100
AcDbEntity
  8
0
  6
Continuous
 62
     7
370
     0
100
AcDbMText
 10
169.4404608416
 20
41.8982091954
 30
0.0
 40
11.90625
 41
0.0
 71
     1
 72
     1
  1
8
  7
SLDTEXTSTYLE2
 73
     1
 44
1.0
  0
MTEXT
  5
150
330
1F
100
AcDbEntity
  8
0
  6
Continuous
 62
     7
370
     0
100
AcDbMText
 10
428.3971174957
 20
42.0789177652
 30
0.0
 40
11.90625
 41
0.0
 71
     1
 72
     1
  1
7
  7
SLDTEXTSTYLE2
 73
     1
 44
1.0
  0
MTEXT
  5
151
330
1F
100
AcDbEntity
  8
0
  6
Continuous
 62
     7
370
     0
100
AcDbMText
 10
687.2463269021
 20
42.2824879279
 30
0.0
 40
11.90625
 41
0.0
 71
     1
 72
     1
  1
6
  7
SLDTEXTSTYLE2
 73
     1
 44
1.0
  0
MTEXT
  5
152
330
1F
100
AcDbEntity
  8
0
  6
Continuous
 62
     7
370
     0
100
AcDbMText
 10
946.0400437561
 20
41.929159177
 30
0.0
 40
11.90625
 41
0.0
 71
     1
 72
     1
  1
5
  7
SLDTEXTSTYLE2
 73
     1
 44
1.0
  0
MTEXT
  5
153
330
1F
100
AcDbEntity
  8
0
  6
Continuous
 62
     7
370
     0
100
AcDbMText
 10
1204.5905410863
 20
42.0604927183
 30
0.0
 40
11.90625
 41
0.0
 71
     1
 72
     1
  1
4
  7
SLDTEXTSTYLE2
 73
     1
 44
1.0
  0
MTEXT
  5
154
330
1F
100
AcDbEntity
  8
0
  6
Continuous
 62
     7
370
     0
100
AcDbMText
 10
1463.1670595346
 20
41.9061633914
 30
0.0
 40
11.90625
 41
0.0
 71
     1
 72
     1
  1
3
  7
SLDTEXTSTYLE2
 73
     1
 44
1.0
  0
MTEXT
  5
155
330
1F
100
AcDbEntity
  8
0
  6
Continuous
 62
     7
370
     0
100
AcDbMText
 10
1722.1585974172
 20
42.1698406392
 30
0.0
 40
11.90625
 41
0.0
 71
     1
 72
     1
  1
2
  7
SLDTEXTSTYLE2
 73
     1
 44
1.0
  0
MTEXT
  5
156
330
1F
100
AcDbEntity
  8
0
  6
Continuous
 62
     7
370
     0
100
AcDbMText
 10
1980.9789423087
 20
41.7562735142
 30
0.0
 40
11.90625
 41
0.0
 71
     1
 72
     1
  1
1
  7
SLDTEXTSTYLE2
 73
     1
 44
1.0
  0
MTEXT
  5
157
330
1F
100
AcDbEntity
  8
0
  6
Continuous
 62
     7
370
     0
100
AcDbMText
 10
1490.9628371187
 20
82.9587537929
 30
0.0
 40
7.9375
 41
0.0
 71
     1
 72
     1
  1
DO  NOT  SCALE  DRAWING
  7
SLDTEXTSTYLE2
 73
     1
 44
1.0
  0
MTEXT
  5
158
330
1F
100
AcDbEntity
  8
0
  6
Continuous
 62
     7
370
     0
100
AcDbMText
 10
1482.112054637
 20
110.228207013
 30
0.0
 40
6.6145833333
 41
0.0
 71
     1
 72
     1
  1
FINISH
  7
SLDTEXTSTYLE2
 73
     1
 44
1.0
  0
MTEXT
  5
159
330
1F
100
AcDbEntity
  8
0
  6
Continuous
 62
     7
370
     0
100
AcDbMText
 10
1481.6583013047
 20
132.9884310808
 30
0.0
 40
6.6145833333
 41
0.0
 71
     1
 72
     1
  1
MATERIAL
  7
SLDTEXTSTYLE2
 73
     1
 44
1.0
  0
MTEXT
  5
15A
330
1F
100
AcDbEntity
  8
0
  6
Continuous
 62
     7
370
     0
100
AcDbMText
 10
1504.2216793643
 20
179.1787480443
 30
0.0
 40
6.6145833333
 41
0.0
 71
     1
 72
     1
  1
DECIMALS                 ANGLES
  7
SLDTEXTSTYLE2
 73
     1
 44
1.0
  0
MTEXT
  5
15B
330
1F
100
AcDbEntity
  8
0
  6
Continuous
 62
     7
370
     0
100
AcDbMText
 10
1489.394769721
 20
199.8825074334
 30
0.0
 40
7.9375
 41
0.0
 71
     1
 72
     1
  1
TOLERANCES  ARE:
  7
SLDTEXTSTYLE2
 73
     1
 44
1.0
  0
MTEXT
  5
15C
330
1F
100
AcDbEntity
  8
0
  6
Continuous
 62
     7
370
     0
100
AcDbMText
 10
1652.2909920362
 20
73.9280109477
 30
0.0
 40
6.6145833333
 41
0.0
 71
     1
 72
     1
  1
MFG ENGINEER
  7
SLDTEXTSTYLE2
 73
     1
 44
1.0
  0
MTEXT
  5
15D
330
1F
100
AcDbEntity
  8
0
  6
Continuous
 62
     7
370
     0
100
AcDbMText
 10
1652.2909920362
 20
108.0402666623
 30
0.0
 40
6.6145833333
 41
0.0
 71
     1
 72
     1
  1
TECH DIRECTOR
  7
SLDTEXTSTYLE2
 73
     1
 44
1.0
  0
MTEXT
  5
15E
330
1F
100
AcDbEntity
  8
0
  6
Continuous
 62
     7
370
     0
100
AcDbMText
 10
1652.2909920362
 20
141.6126849977
 30
0.0
 40
6.6145833333
 41
0.0
 71
     1
 72
     1
  1
MECH ENGINEER
  7
SLDTEXTSTYLE2
 73
     1
 44
1.0
  0
MTEXT
  5
15F
330
1F
100
AcDbEntity
  8
0
  6
Continuous
 62
     7
370
     0
100
AcDbMText
 10
1652.2909920362
 20
175.8317873632
 30
0.0
 40
6.6145833333
 41
0.0
 71
     1
 72
     1
  1
DRAWN BY
  7
SLDTEXTSTYLE2
 73
     1
 44
1.0
  0
MTEXT
  5
160
330
1F
100
AcDbEntity
  8
0
  6
Continuous
 62
     7
370
     0
100
AcDbMText
 10
2029.5594528015
 20
57.52128464
 30
0.0
 40
6.6145833333
 41
0.0
 71
     1
 72
     1
  1
SHEET:
  7
SLDTEXTSTYLE2
 73
     1
 44
1.0
  0
MTEXT
  5
161
330
1F
100
AcDbEntity
  8
0
  6
Continuous
 62
     7
370
     0
100
AcDbMText
 10
1827.9929789366
 20
76.1694404336
 30
0.0
 40
9.2604166667
 41
0.0
 71
     1
 72
     1
  1
B
  7
SLDTEXTSTYLE2
 73
     1
 44
1.0
  0
MTEXT
  5
162
330
1F
100
AcDbEntity
  8
0
  6
Continuous
 62
     7
370
     0
100
AcDbMText
 10
1907.1867900256
 20
89.4277472955
 30
0.0
 40
6.6145833333
 41
0.0
 71
     1
 72
     1
  1
DWG.  NO.
  7
SLDTEXTSTYLE2
 73
     1
 44
1.0
  0
MTEXT
  5
163
330
1F
100
AcDbEntity
  8
0
  6
Continuous
 62
     7
370
     0
100
AcDbMText
 10
1882.1045629487
 20
57.52128464
 30
0.0
 40
6.6145833333
 41
0.0
 71
     1
 72
     1
  1
CAD FILE:
  7
SLDTEXTSTYLE2
 73
     1
 44
1.0
  0
MTEXT
  5
164
330
1F
100
AcDbEntity
  8
0
  6
Continuous
 62
     7
370
     0
100
AcDbMText
 10
1823.4447750049
 20
89.4277472955
 30
0.0
 40
6.6145833333
 41
0.0
 71
     1
 72
     1
  1
SIZE
  7
SLDTEXTSTYLE2
 73
     1
 44
1.0
  0
MTEXT
  5
165
330
1F
100
AcDbEntity
  8
0
  6
Continuous
 62
     7
370
     0
100
AcDbMText
 10
1824.1360024915
 20
57.52128464
 30
0.0
 40
6.6145833333
 41
0.0
 71
     1
 72
     1
  1
SCALE:  
  7
SLDTEXTSTYLE2
 73
     1
 44
1.0
  0
MTEXT
  5
166
330
1F
100
AcDbEntity
  8
0
  6
Continuous
 62
     7
370
     0
100
AcDbMText
 10
28.6741790803
 20
1196.1270181304
 30
0.0
 40
11.90625
 41
0.0
 71
     1
 72
     1
  1
D
  7
SLDTEXTSTYLE2
 73
     1
 44
1.0
  0
MTEXT
  5
167
330
1F
100
AcDbEntity
  8
0
  6
Continuous
 62
     7
370
     0
100
AcDbMText
 10
28.6987134408
 20
869.0805309471
 30
0.0
 40
11.90625
 41
0.0
 71
     1
 72
     1
  1
C
  7
SLDTEXTSTYLE2
 73
     1
 44
1.0
  0
MTEXT
  5
168
330
1F
100
AcDbEntity
  8
0
  6
Continuous
 62
     7
370
     0
100
AcDbMText
 10
28.6964348173
 20
542.159613276
 30
0.0
 40
11.90625
 41
0.0
 71
     1
 72
     1
  1
B
  7
SLDTEXTSTYLE2
 73
     1
 44
1.0
  0
MTEXT
  5
169
330
1F
100
AcDbEntity
  8
0
  6
Continuous
 62
     7
370
     0
100
AcDbMText
 10
28.7434720518
 20
215.298892713
 30
0.0
 40
11.90625
 41
0.0
 71
     1
 72
     1
  1
A
  7
SLDTEXTSTYLE2
 73
     1
 44
1.0
  0
INSERT
  5
192
330
1F
100
AcDbEntity
  8
SLD-0
100
AcDbBlockReference
  2
SW_TABLEANNOTATION_0
 10
1400.0137730257
 20
1352.5473209984
 30
0.0
  0
LINE
  5
193
330
1F
100
AcDbEntity
  8
0
  6
Continuous
 62
     7
370
    25
100
AcDbLine
 10
1869.7089787743
 20
933.3932324591
 30
0.0
 11
1869.7089787743
 21
899.0821875437
 31
0.0
  0
LINE
  5
194
330
1F
100
AcDbEntity
  8
0
  6
Continuous
 62
     7
370
    25
100
AcDbLine
 10
1881.7689430069
 20
890.8239803277
 30
0.0
 11
1882.6174711443
 21
891.3138251948
 31
0.0
  0
LINE
  5
195
330
1F
100
AcDbEntity
  8
0
  6
Continuous
 62
     7
370
    25
100
AcDbLine
 10
1873.7334924864
 20
900.6565327859
 30
0.0
 11
1875.1695183095
 21
901.4855328478
 31
0.0
  0
LINE
  5
196
330
1F
100
AcDbEntity
  8
0
  6
Continuous
 62
     7
370
    25
100
AcDbLine
 10
1883.2751641865
 20
906.1648226111
 30
0.0
 11
2051.1968587865
 21
1003.1039534963
 31
0.0
  0
LINE
  5
197
330
1F
100
AcDbEntity
  8
0
  6
Continuous
 62
     7
370
    25
100
AcDbLine
 10
2052.3760059623
 20
1010.3245311173
 30
0.0
 11
1740.446387653
 21
1190.3976668028
 31
0.0
  0
LINE
  5
198
330
1F
100
AcDbEntity
  8
0
  6
Continuous
 62
     7
370
    25
100
AcDbLine
 10
2053.5825515576
 20
1009.6864354507
 30
0.0
 11
2052.7340234202
 21
1010.1762803178
 31
0.0
  0
LINE
  5
199
330
1F
100
AcDbEntity
  8
0
  6
Continuous
 62
     7
370
    25
100
AcDbLine
 10
1543.248810053
 20
1121.3099990967
 30
0.0
 11
1542.4002819156
 21
1120.8201542296
 31
0.0
  0
LINE
  5
19A
330
1F
100
AcDbEntity
  8
0
  6
Continuous
 62
     7
370
    25
100
AcDbLine
 10
1553.3487034624
 20
1079.7773234854
 30
0.0
 11
1554.1972315998
 21
1080.2671683525
 31
0.0
  0
LINE
  5
19B
330
1F
100
AcDbEntity
  8
0
  6
Continuous
 62
     7
370
    25
100
AcDbLine
 10
1740.1362575932
 20
1190.6351293551
 30
0.0
 11
1739.2877294558
 21
1191.1249742222
 31
0.0
  0
ARC
  5
19C
330
1F
100
AcDbEntity
  8
0
  6
Continuous
 62
     7
370
    25
100
AcDbCircle
 10
1870.0314168007
 20
897.3088633152
 30
0.0
 40
0.6857667111902432
100
AcDbArc
 50
1.5024370059
 51
26.2925084784
  0
LINE
  5
19D
330
1F
100
AcDbEntity
  8
0
  6
Continuous
 62
     7
370
    25
100
AcDbLine
 10
1870.6462370745
 20
932.0869794802
 30
0.0
 11
1880.1815720188
 21
926.5823477862
 31
0.0
  0
ARC
  5
19E
330
1F
100
AcDbEntity
  8
0
  6
Continuous
 62
     7
370
    25
100
AcDbCircle
 10
1877.5523249272
 20
922.471974625
 30
0.0
 40
4.879355264041481
100
AcDbArc
 50
2.6054784857
 51
57.39452166
  0
LINE
  5
19F
330
1F
100
AcDbEntity
  8
0
  6
Continuous
 62
     7
370
    25
100
AcDbLine
 10
1882.4266360491
 20
922.693782831
 30
0.0
 11
1882.4266360491
 21
892.2776375882
 31
0.0
  0
ARC
  5
1A0
330
1F
100
AcDbEntity
  8
0
  6
Continuous
 62
     7
370
    25
100
AcDbCircle
 10
1881.0579749325
 20
892.0556187381
 30
0.0
 40
1.386551701835439
100
AcDbArc
 50
230.7967147643
 51
9.2140369905
  0
LINE
  5
1A1
330
1F
100
AcDbEntity
  8
0
  6
Continuous
 62
     7
370
    25
100
AcDbLine
 10
1880.1815720188
 20
890.981168388
 30
0.0
 11
1871.0705011432
 21
896.2408776484
 31
0.0
  0
ARC
  5
1A2
330
1F
100
AcDbEntity
  8
0
  6
Continuous
 62
     7
370
    25
100
AcDbCircle
 10
1871.4845558033
 20
896.8881805084
 30
0.0
 40
0.7684024037862486
100
AcDbArc
 50
182.6054784856
 51
237.39452166
  0
LINE
  5
1A3
330
1F
100
AcDbEntity
  8
0
  6
Continuous
 62
     7
370
    25
100
AcDbLine
 10
1870.7169477526
 20
896.8532500823
 30
0.0
 11
1870.7169477526
 21
897.3268437532
 31
0.0
  0
LWPOLYLINE
  5
1A4
330
1F
100
AcDbEntity
  8
0
  6
Continuous
 62
     7
370
    25
100
AcDbPolyline
 90
       10
 70
   128
 43
0.0
 10
1877.7611455068
 20
899.9926939422
 10
1878.5834176998
 20
899.3505786255
 10
1879.3065117309
 20
898.4510565252
 10
1879.8432117882
 20
897.402623282
 10
1880.1287839239
 20
896.3317354185
 10
1880.1287839239
 20
895.3675578155
 10
1879.8432117882
 20
894.6263845216
 10
1879.3065117309
 20
894.1976119748
 10
1878.5834176998
 20
894.1329564721
 10
1877.7611455068
 20
894.4402164214
  0
LINE
  5
1A5
330
1F
100
AcDbEntity
  8
0
  6
Continuous
 62
     7
370
    25
100
AcDbLine
 10
1875.2862717726
 20
901.4214081379
 30
0.0
 11
1877.7611455068
 21
899.9926939422
 31
0.0
  0
LWPOLYLINE
  5
1A6
330
1F
100
AcDbEntity
  8
0
  6
Continuous
 62
     7
370
    25
100
AcDbPolyline
 90
       10
 70
   128
 43
0.0
 10
1875.2862717726
 20
895.8689306171
 10
1874.4639995796
 20
896.5110459338
 10
1873.7409055486
 20
897.4105680342
 10
1873.2042054913
 20
898.4590012773
 10
1872.9186333556
 20
899.5298891408
 10
1872.9186333556
 20
900.4940667439
 10
1873.2042054913
 20
901.2352400377
 10
1873.7409055486
 20
901.6640125845
 10
1874.4639995796
 20
901.7286680872
 10
1875.2862717726
 20
901.4214081379
  0
LINE
  5
1A7
330
1F
100
AcDbEntity
  8
0
  6
Continuous
 62
     7
370
    25
100
AcDbLine
 10
1877.7611455068
 20
894.4402164214
 30
0.0
 11
1875.2862717726
 21
895.8689306171
 31
0.0
  0
LWPOLYLINE
  5
1A8
330
1F
100
AcDbEntity
  8
0
  6
Continuous
 62
     7
370
    25
100
AcDbPolyline
 90
       10
 70
   128
 43
0.0
 10
1877.7611455068
 20
925.9178647196
 10
1878.5834176998
 20
925.2757494029
 10
1879.3065117309
 20
924.3762273025
 10
1879.8432117882
 20
923.3277940594
 10
1880.1287839239
 20
922.2569061959
 10
1880.1287839239
 20
921.2927285928
 10
1879.8432117882
 20
920.551555299
 10
1879.3065117309
 20
920.1227827522
 10
1878.5834176998
 20
920.0581272495
 10
1877.7611455068
 20
920.3653871988
  0
LINE
  5
1A9
330
1F
100
AcDbEntity
  8
0
  6
Continuous
 62
     7
370
    25
100
AcDbLine
 10
1875.2862717726
 20
927.3465789153
 30
0.0
 11
1877.7611455068
 21
925.9178647196
 31
0.0
  0
LWPOLYLINE
  5
1AA
330
1F
100
AcDbEntity
  8
0
  6
Continuous
 62
     7
370
    25
100
AcDbPolyline
 90
       10
 70
   128
 43
0.0
 10
1875.2862717726
 20
921.7941013945
 10
1874.4639995796
 20
922.4362167112
 10
1873.7409055486
 20
923.3357388115
 10
1873.2042054913
 20
924.3841720546
 10
1872.9186333556
 20
925.4550599182
 10
1872.9186333556
 20
926.4192375212
 10
1873.2042054913
 20
927.1604108151
 10
1873.7409055486
 20
927.5891833619
 10
1874.4639995796
 20
927.6538388646
 10
1875.2862717726
 20
927.3465789153
  0
LINE
  5
1AB
330
1F
100
AcDbEntity
  8
0
  6
Continuous
 62
     7
370
    25
100
AcDbLine
 10
1877.7611455068
 20
920.3653871988
 30
0.0
 11
1875.2862717726
 21
921.7941013945
 31
0.0
  0
ARC
  5
1AC
330
1F
100
AcDbEntity
  8
0
  6
Continuous
 62
     7
370
    25
100
AcDbCircle
 10
1878.4008530646
 20
922.9618194921
 30
0.0
 40
4.87935526404114
100
AcDbArc
 50
2.6054784857
 51
57.39452166
  0
LINE
  5
1AD
330
1F
100
AcDbEntity
  8
0
  6
Continuous
 62
     7
370
    25
100
AcDbLine
 10
1883.2751641865
 20
923.1836276981
 30
0.0
 11
1883.2751641865
 21
892.7674824553
 31
0.0
  0
LINE
  5
1AE
330
1F
100
AcDbEntity
  8
0
  6
Continuous
 62
     7
370
    25
100
AcDbLine
 10
1871.4947652119
 20
932.5768243473
 30
0.0
 11
1881.0301001562
 21
927.0721926533
 31
0.0
  0
LWPOLYLINE
  5
1AF
330
1F
100
AcDbEntity
  8
0
  6
Continuous
 62
     7
370
    25
100
AcDbPolyline
 90
        3
 70
   128
 43
0.0
 10
1879.8314924393
 20
920.5351402832
 10
1879.4319458372
 20
920.5479721166
 10
1878.6096736442
 20
920.8552320659
  0
LWPOLYLINE
  5
1B0
330
1F
100
AcDbEntity
  8
0
  6
Continuous
 62
     7
370
    25
100
AcDbPolyline
 90
        8
 70
   128
 43
0.0
 10
1876.1347999101
 20
922.2839462616
 10
1875.3125277171
 20
922.9260615783
 10
1874.589433686
 20
923.8255836786
 10
1874.0527336287
 20
924.8740169217
 10
1873.767161493
 20
925.9449047853
 10
1873.767161493
 20
926.9090823883
 10
1874.0527336287
 20
927.6502556822
 10
1874.0644529776
 20
927.6666706979
  0
LINE
  5
1B1
330
1F
100
AcDbEntity
  8
0
  6
Continuous
 62
     7
370
    25
100
AcDbLine
 10
1878.6096736442
 20
920.8552320659
 30
0.0
 11
1876.1347999101
 21
922.2839462616
 31
0.0
  0
ARC
  5
1B2
330
1F
100
AcDbEntity
  8
0
  6
Continuous
 62
     7
370
    25
100
AcDbCircle
 10
1871.1420035602
 20
933.3932324591
 30
0.0
 40
1.397169013869729
100
AcDbArc
 50
110.7834207995
 51
249.2165792005
  0
SPLINE
  5
1B3
330
1F
100
AcDbEntity
  8
0
  6
Continuous
 62
     7
370
    25
100
AcDbSpline
210
0.0
220
0.0
230
1.0
 70
     8
 71
     3
 72
     8
 73
     4
 74
     0
 42
0.00000001
 43
0.00000001
 40
0.0
 40
0.0
 40
0.0
 40
0.0
 40
1.0
 40
1.0
 40
1.0
 40
1.0
 10
1870.381141629758
 20
897.9494614666982
 30
0.0
 10
1870.4769140032
 20
897.8782337423169
 30
0.0
 10
1870.579966583146
 20
897.7529191659016
 30
0.0
 10
1870.6462370745
 20
897.612626402372
 30
0.0
  0
ARC
  5
1B4
330
1F
100
AcDbEntity
  8
0
  6
Continuous
 62
     7
370
    25
100
AcDbCircle
 10
1871.1468757983
 20
899.169644994
 30
0.0
 40
1.440554288212896
100
AcDbArc
 50
183.4806228353
 51
237.8894040829
  0
ARC
  5
1B5
330
1F
100
AcDbEntity
  8
0
  6
Continuous
 62
     7
370
    25
100
AcDbCircle
 10
1871.8046192655
 20
933.3932324591
 30
0.0
 40
0.8732306336686785
100
AcDbArc
 50
110.7834207995
 51
249.2165792005
  0
LINE
  5
1B6
330
1F
100
AcDbEntity
  8
0
  6
Continuous
 62
     7
370
    25
100
AcDbLine
 10
1879.6155647347
 20
938.8976783478
 30
0.0
 11
1871.4947652119
 21
934.2096405709
 31
0.0
  0
ARC
  5
1B7
330
1F
100
AcDbEntity
  8
0
  6
Continuous
 62
     7
370
    25
100
AcDbCircle
 10
1881.47841104
 20
935.6890469438
 30
0.0
 40
3.710190270553136
100
AcDbArc
 50
112.4862664689
 51
120.1383140363
  0
LINE
  5
1B8
330
1F
100
AcDbEntity
  8
0
  6
Continuous
 62
     7
370
    25
100
AcDbLine
 10
2051.8265699646
 20
1009.688077705
 30
0.0
 11
1880.0594043535
 21
939.1171560242
 31
0.0
  0
ARC
  5
1B9
330
1F
100
AcDbEntity
  8
0
  6
Continuous
 62
     7
370
    25
100
AcDbCircle
 10
2052.6834536609
 20
1008.1725633597
 30
0.0
 40
1.740986329630911
100
AcDbArc
 50
14.3653780273
 51
119.4841583518
  0
ARC
  5
1BA
330
1F
100
AcDbEntity
  8
0
  6
Continuous
 62
     7
370
    25
100
AcDbCircle
 10
2050.0958903814
 20
1007.987990011
 30
0.0
 40
4.31835071173557
100
AcDbArc
 50
301.2048730281
 51
8.2080194519
  0
LINE
  5
1BB
330
1F
100
AcDbEntity
  8
0
  6
Continuous
 62
     7
370
    25
100
AcDbLine
 10
2052.3332268339
 20
1004.2944174223
 30
0.0
 11
2051.7362837364
 21
1003.9498095073
 31
0.0
  0
LINE
  5
1BC
330
1F
100
AcDbEntity
  8
0
  6
Continuous
 62
     7
370
    25
100
AcDbLine
 10
1878.7670365973
 20
939.3875232148
 30
0.0
 11
1870.6462370745
 21
934.699485438
 31
0.0
  0
ARC
  5
1BD
330
1F
100
AcDbEntity
  8
0
  6
Continuous
 62
     7
370
    25
100
AcDbCircle
 10
1880.6298829023
 20
936.1788918114
 30
0.0
 40
3.710190269946584
100
AcDbArc
 50
112.4862664686
 51
120.1383140372
  0
LINE
  5
1BE
330
1F
100
AcDbEntity
  8
0
  6
Continuous
 62
     7
370
    25
100
AcDbLine
 10
2050.9780418271
 20
1010.1779225721
 30
0.0
 11
1879.2108762161
 21
939.6070008913
 31
0.0
  0
LWPOLYLINE
  5
1BF
330
1F
100
AcDbEntity
  8
0
  6
Continuous
 62
     7
370
    25
100
AcDbPolyline
 90
        3
 70
   128
 43
0.0
 10
1879.8314924393
 20
894.6099695059
 10
1879.4319458372
 20
894.6228013392
 10
1878.6096736442
 20
894.9300612885
  0
ARC
  5
1C0
330
1F
100
AcDbEntity
  8
0
  6
Continuous
 62
     7
370
    25
100
AcDbCircle
 10
1881.7648625467
 20
892.5751916644
 30
0.0
 40
1.522493609632027
100
AcDbArc
 50
304.0563508261
 51
7.2558295673
  0
LWPOLYLINE
  5
1C1
330
1F
100
AcDbEntity
  8
0
  6
Continuous
 62
     7
370
    25
100
AcDbPolyline
 90
        8
 70
   128
 43
0.0
 10
1876.1347999101
 20
896.3587754842
 10
1875.3125277171
 20
897.0008908009
 10
1874.589433686
 20
897.9004129012
 10
1874.0527336287
 20
898.9488461444
 10
1873.767161493
 20
900.0197340079
 10
1873.767161493
 20
900.983911611
 10
1874.0527336287
 20
901.7250849048
 10
1874.0644529776
 20
901.7414999205
  0
LINE
  5
1C2
330
1F
100
AcDbEntity
  8
0
  6
Continuous
 62
     7
370
    25
100
AcDbLine
 10
1878.6096736442
 20
894.9300612885
 30
0.0
 11
1876.1347999101
 21
896.3587754842
 31
0.0
  0
SPLINE
  5
1C3
330
1F
100
AcDbEntity
  8
0
  6
Continuous
 62
     7
370
    25
100
AcDbSpline
210
0.0
220
0.0
230
1.0
 70
     8
 71
     3
 72
    10
 73
     6
 74
     0
 42
0.00000001
 43
0.00000001
 40
0.0
 40
0.0
 40
0.0
 40
0.0
 40
0.5
 40
0.5
 40
1.0
 40
1.0
 40
1.0
 40
1.0
 10
2051.503827723809
 20
1003.594118829834
 30
0.0
 10
2051.514502745957
 20
1003.651698072233
 30
0.0
 10
2051.542738706107
 20
1003.724911810407
 30
0.0
 10
2051.625363740426
 20
1003.858397381855
 30
0.0
 10
2051.680052606741
 20
1003.917347967117
 30
0.0
 10
2051.736283736375
 20
1003.949809507292
 30
0.0
  0
ARC
  5
1C4
330
1F
100
AcDbEntity
  8
0
  6
Continuous
 62
     7
370
    25
100
AcDbCircle
 10
2050.835031118
 20
1003.6717534347
 30
0.0
 40
0.6732874807985847
100
AcDbArc
 50
302.5071206996
 51
353.3786805988
  0
LINE
  5
1C5
330
1F
100
AcDbEntity
  8
0
  6
Continuous
 62
     7
370
    25
100
AcDbLine
 10
1558.3171718244
 20
1079.4020375358
 30
0.0
 11
1869.7089787743
 21
899.6393737396
 31
0.0
  0
LINE
  5
1C6
330
1F
100
AcDbEntity
  8
0
  6
Continuous
 62
     7
370
    25
100
AcDbLine
 10
1558.3171718244
 20
1080.3818865101
 30
0.0
 11
1869.7089787743
 21
900.6192227138
 31
0.0
  0
LINE
  5
1C7
330
1F
100
AcDbEntity
  8
0
  6
Continuous
 62
     7
370
    25
100
AcDbLine
 10
1869.3981936057
 20
908.2483591931
 30
0.0
 11
1869.7089787743
 21
908.0212143246
 31
0.0
  0
LWPOLYLINE
  5
1C8
330
1F
100
AcDbEntity
  8
0
  6
Continuous
 62
     7
370
    25
100
AcDbPolyline
 90
       14
 70
   128
 43
0.0
 10
1869.7089787743
 20
906.7202266212
 10
1869.3981936057
 20
906.4930817527
 10
1868.7006834057
 20
906.2240302246
 10
1867.8779140262
 20
906.1295518919
 10
1867.0551446466
 20
906.2240302246
 10
1866.3576344466
 20
906.4930817527
 10
1865.8915730313
 20
906.8957458202
 10
1865.7279140262
 20
907.3707204729
 10
1865.8915730313
 20
907.8456951256
 10
1866.3576344466
 20
908.2483591931
 10
1867.0551446466
 20
908.5174107213
 10
1867.8779140262
 20
908.6118890539
 10
1868.7006834057
 20
908.5174107213
 10
1869.3981936057
 20
908.2483591931
  0
LWPOLYLINE
  5
1C9
330
1F
100
AcDbEntity
  8
0
  6
Continuous
 62
     7
370
    25
100
AcDbPolyline
 90
       17
 70
   128
 43
0.0
 10
1791.5457369971
 20
953.191625749
 10
1792.0117984124
 20
952.7889616815
 10
1792.1754574175
 20
952.3139870288
 10
1792.0117984124
 20
951.839012376
 10
1791.5457369971
 20
951.4363483086
 10
1790.8482267971
 20
951.1672967804
 10
1790.0254574175
 20
951.0728184478
 10
1789.2026880379
 20
951.1672967804
 10
1788.505177838
 20
951.4363483086
 10
1788.0391164226
 20
951.839012376
 10
1787.8754574175
 20
952.3139870288
 10
1788.0391164226
 20
952.7889616815
 10
1788.505177838
 20
953.191625749
 10
1789.2026880379
 20
953.4606772771
 10
1790.0254574175
 20
953.5551556097
 10
1790.8482267971
 20
953.4606772771
 10
1791.5457369971
 20
953.191625749
  0
LWPOLYLINE
  5
1CA
330
1F
100
AcDbEntity
  8
0
  6
Continuous
 62
     7
370
    25
100
AcDbPolyline
 90
       17
 70
   128
 43
0.0
 10
1970.266975942
 20
1039.9553978329
 10
1970.7330373573
 20
1039.5527337654
 10
1970.8966963624
 20
1039.0777591127
 10
1970.7330373573
 20
1038.60278446
 10
1970.266975942
 20
1038.2001203925
 10
1969.569465742
 20
1037.9310688644
 10
1968.7466963624
 20
1037.8365905317
 10
1967.9239269828
 20
1037.9310688644
 10
1967.2264167829
 20
1038.2001203925
 10
1966.7603553675
 20
1038.60278446
 10
1966.5966963624
 20
1039.0777591127
 10
1966.7603553675
 20
1039.5527337654
 10
1967.2264167829
 20
1039.9553978329
 10
1967.9239269828
 20
1040.2244493611
 10
1968.7466963624
 20
1040.3189276937
 10
1969.569465742
 20
1040.2244493611
 10
1970.266975942
 20
1039.9553978329
  0
LWPOLYLINE
  5
1CB
330
1F
100
AcDbEntity
  8
0
  6
Continuous
 62
     7
370
    25
100
AcDbPolyline
 90
       17
 70
   128
 43
0.0
 10
1892.4145193333
 20
1084.8986643888
 10
1892.8805807487
 20
1084.4960003213
 10
1893.0442397538
 20
1084.0210256686
 10
1892.8805807487
 20
1083.5460510158
 10
1892.4145193333
 20
1083.1433869484
 10
1891.7170091334
 20
1082.8743354202
 10
1890.8942397538
 20
1082.7798570876
 10
1890.0714703742
 20
1082.8743354202
 10
1889.3739601742
 20
1083.1433869484
 10
1888.9078987589
 20
1083.5460510158
 10
1888.7442397538
 20
1084.0210256686
 10
1888.9078987589
 20
1084.4960003213
 10
1889.3739601742
 20
1084.8986643888
 10
1890.0714703742
 20
1085.1677159169
 10
1890.8942397538
 20
1085.2621942495
 10
1891.7170091334
 20
1085.1677159169
 10
1892.4145193333
 20
1084.8986643888
  0
LINE
  5
1CC
330
1F
100
AcDbEntity
  8
0
  6
Continuous
 62
     7
370
    25
100
AcDbLine
 10
2033.9065862488
 20
1003.2170328009
 30
0.0
 11
2033.9590800321
 21
1003.1856443002
 31
0.0
  0
LWPOLYLINE
  5
1CD
330
1F
100
AcDbEntity
  8
0
  6
Continuous
 62
     7
370
    25
100
AcDbPolyline
 90
        9
 70
   128
 43
0.0
 10
2030.4860814354
 20
1001.7587551093
 10
2030.3999656743
 20
1001.864419428
 10
2030.2363066692
 20
1002.3393940807
 10
2030.3999656743
 20
1002.8143687334
 10
2030.8660270897
 20
1003.2170328009
 10
2031.5635372896
 20
1003.4860843291
 10
2032.3863066692
 20
1003.5805626617
 10
2033.2090760488
 20
1003.4860843291
 10
2033.9065862488
 20
1003.2170328009
  0
LWPOLYLINE
  5
1CE
330
1F
100
AcDbEntity
  8
0
  6
Continuous
 62
     7
370
    25
100
AcDbPolyline
 90
       17
 70
   128
 43
0.0
 10
1956.0541296401
 20
1048.1602993567
 10
1956.5201910555
 20
1047.7576352893
 10
1956.6838500606
 20
1047.2826606365
 10
1956.5201910555
 20
1046.8076859838
 10
1956.0541296401
 20
1046.4050219163
 10
1955.3566194402
 20
1046.1359703882
 10
1954.5338500606
 20
1046.0414920556
 10
1953.711080681
 20
1046.1359703882
 10
1953.013570481
 20
1046.4050219163
 10
1952.5475090657
 20
1046.8076859838
 10
1952.3838500606
 20
1047.2826606365
 10
1952.5475090657
 20
1047.7576352893
 10
1953.013570481
 20
1048.1602993567
 10
1953.711080681
 20
1048.4293508849
 10
1954.5338500606
 20
1048.5238292175
 10
1955.3566194402
 20
1048.4293508849
 10
1956.0541296401
 20
1048.1602993567
  0
LWPOLYLINE
  5
1CF
330
1F
100
AcDbEntity
  8
0
  6
Continuous
 62
     7
370
    25
100
AcDbPolyline
 90
       17
 70
   128
 43
0.0
 10
1929.8911787362
 20
987.827739893
 10
1930.3572401516
 20
987.4250758256
 10
1930.5208991567
 20
986.9501011728
 10
1930.3572401516
 20
986.4751265201
 10
1929.8911787362
 20
986.0724624526
 10
1929.1936685362
 20
985.8034109245
 10
1928.3708991567
 20
985.7089325919
 10
1927.5481297771
 20
985.8034109245
 10
1926.8506195771
 20
986.0724624526
 10
1926.3845581618
 20
986.4751265201
 10
1926.2208991567
 20
986.9501011728
 10
1926.3845581618
 20
987.4250758256
 10
1926.8506195771
 20
987.827739893
 10
1927.5481297771
 20
988.0967914212
 10
1928.3708991567
 20
988.1912697538
 10
1929.1936685362
 20
988.0967914212
 10
1929.8911787362
 20
987.827739893
  0
LWPOLYLINE
  5
1D0
330
1F
100
AcDbEntity
  8
0
  6
Continuous
 62
     7
370
    25
100
AcDbPolyline
 90
       17
 70
   128
 43
0.0
 10
1852.0387221276
 20
1032.7710064489
 10
1852.5047835429
 20
1032.3683423814
 10
1852.668442548
 20
1031.8933677287
 10
1852.5047835429
 20
1031.418393076
 10
1852.0387221276
 20
1031.0157290085
 10
1851.3412119276
 20
1030.7466774803
 10
1850.518442548
 20
1030.6521991477
 10
1849.6956731684
 20
1030.7466774803
 10
1848.9981629685
 20
1031.0157290085
 10
1848.5321015531
 20
1031.418393076
 10
1848.368442548
 20
1031.8933677287
 10
1848.5321015531
 20
1032.3683423814
 10
1848.9981629685
 20
1032.7710064489
 10
1849.6956731684
 20
1033.040057977
 10
1850.518442548
 20
1033.1345363097
 10
1851.3412119276
 20
1033.040057977
 10
1852.0387221276
 20
1032.7710064489
  0
LWPOLYLINE
  5
1D1
330
1F
100
AcDbEntity
  8
0
  6
Continuous
 62
     7
370
    25
100
AcDbPolyline
 90
       17
 70
   128
 43
0.0
 10
1983.5605834283
 20
1018.8104277367
 10
1984.0266448436
 20
1018.4077636692
 10
1984.1903038487
 20
1017.9327890165
 10
1984.0266448436
 20
1017.4578143638
 10
1983.5605834283
 20
1017.0551502963
 10
1982.8630732283
 20
1016.7860987681
 10
1982.0403038487
 20
1016.6916204355
 10
1981.2175344691
 20
1016.7860987681
 10
1980.5200242692
 20
1017.0551502963
 10
1980.0539628538
 20
1017.4578143638
 10
1979.8903038487
 20
1017.9327890165
 10
1980.0539628538
 20
1018.4077636692
 10
1980.5200242692
 20
1018.8104277367
 10
1981.2175344691
 20
1019.0794792649
 10
1982.0403038487
 20
1019.1739575975
 10
1982.8630732283
 20
1019.0794792649
 10
1983.5605834283
 20
1018.8104277367
  0
LWPOLYLINE
  5
1D2
330
1F
100
AcDbEntity
  8
0
  6
Continuous
 62
     7
370
    25
100
AcDbPolyline
 90
       17
 70
   128
 43
0.0
 10
1905.7081268196
 20
1063.7536942926
 10
1906.174188235
 20
1063.3510302251
 10
1906.3378472401
 20
1062.8760555724
 10
1906.174188235
 20
1062.4010809196
 10
1905.7081268196
 20
1061.9984168521
 10
1905.0106166197
 20
1061.729365324
 10
1904.1878472401
 20
1061.6348869914
 10
1903.3650778605
 20
1061.729365324
 10
1902.6675676605
 20
1061.9984168521
 10
1902.2015062452
 20
1062.4010809196
 10
1902.0378472401
 20
1062.8760555724
 10
1902.2015062452
 20
1063.3510302251
 10
1902.6675676605
 20
1063.7536942926
 10
1903.3650778605
 20
1064.0227458207
 10
1904.1878472401
 20
1064.1172241533
 10
1905.0106166197
 20
1064.0227458207
 10
1905.7081268196
 20
1063.7536942926
  0
LWPOLYLINE
  5
1D3
330
1F
100
AcDbEntity
  8
0
  6
Continuous
 62
     7
370
    25
100
AcDbPolyline
 90
       17
 70
   128
 43
0.0
 10
1805.7585832989
 20
944.9867242252
 10
1806.2246447143
 20
944.5840601577
 10
1806.3883037194
 20
944.1090855049
 10
1806.2246447143
 20
943.6341108522
 10
1805.7585832989
 20
943.2314467847
 10
1805.061073099
 20
942.9623952566
 10
1804.2383037194
 20
942.867916924
 10
1803.4155343398
 20
942.9623952566
 10
1802.7180241398
 20
943.2314467847
 10
1802.2519627245
 20
943.6341108522
 10
1802.0883037194
 20
944.1090855049
 10
1802.2519627245
 20
944.5840601577
 10
1802.7180241398
 20
944.9867242252
 10
1803.4155343398
 20
945.2557757533
 10
1804.2383037194
 20
945.3502540859
 10
1805.061073099
 20
945.2557757533
 10
1805.7585832989
 20
944.9867242252
  0
LWPOLYLINE
  5
1D4
330
1F
100
AcDbEntity
  8
0
  6
Continuous
 62
     7
370
    25
100
AcDbPolyline
 90
       17
 70
   128
 43
0.0
 10
1727.9061266903
 20
989.929990781
 10
1728.3721881056
 20
989.5273267135
 10
1728.5358471107
 20
989.0523520608
 10
1728.3721881056
 20
988.5773774081
 10
1727.9061266903
 20
988.1747133406
 10
1727.2086164903
 20
987.9056618124
 10
1726.3858471107
 20
987.8111834798
 10
1725.5630777311
 20
987.9056618124
 10
1724.8655675312
 20
988.1747133406
 10
1724.3995061158
 20
988.5773774081
 10
1724.2358471107
 20
989.0523520608
 10
1724.3995061158
 20
989.5273267135
 10
1724.8655675312
 20
989.929990781
 10
1725.5630777311
 20
990.1990423092
 10
1726.3858471107
 20
990.2935206418
 10
1727.2086164903
 20
990.1990423092
 10
1727.9061266903
 20
989.929990781
  0
LWPOLYLINE
  5
1D5
330
1F
100
AcDbEntity
  8
0
  6
Continuous
 62
     7
370
    25
100
AcDbPolyline
 90
       17
 70
   128
 43
0.0
 10
1750.0032136024
 20
1153.6402274042
 10
1750.4692750177
 20
1153.2375633367
 10
1750.6329340228
 20
1152.762588684
 10
1750.4692750177
 20
1152.2876140313
 10
1750.0032136024
 20
1151.8849499638
 10
1749.3057034024
 20
1151.6158984357
 10
1748.4829340228
 20
1151.521420103
 10
1747.6601646432
 20
1151.6158984357
 10
1746.9626544433
 20
1151.8849499638
 10
1746.4965930279
 20
1152.2876140313
 10
1746.3329340228
 20
1152.762588684
 10
1746.4965930279
 20
1153.2375633367
 10
1746.9626544433
 20
1153.6402274042
 10
1747.6601646432
 20
1153.9092789324
 10
1748.4829340228
 20
1154.003757265
 10
1749.3057034024
 20
1153.9092789324
 10
1750.0032136024
 20
1153.6402274042
  0
LWPOLYLINE
  5
1D6
330
1F
100
AcDbEntity
  8
0
  6
Continuous
 62
     7
370
    25
100
AcDbPolyline
 90
       17
 70
   128
 43
0.0
 10
1696.3338089103
 20
1122.6575395606
 10
1696.7998703256
 20
1122.2548754931
 10
1696.9635293307
 20
1121.7799008404
 10
1696.7998703256
 20
1121.3049261876
 10
1696.3338089103
 20
1120.9022621202
 10
1695.6362987103
 20
1120.633210592
 10
1694.8135293307
 20
1120.5387322594
 10
1693.9907599512
 20
1120.633210592
 10
1693.2932497512
 20
1120.9022621202
 10
1692.8271883358
 20
1121.3049261876
 10
1692.6635293307
 20
1121.7799008404
 10
1692.8271883358
 20
1122.2548754931
 10
1693.2932497512
 20
1122.6575395606
 10
1693.9907599512
 20
1122.9265910887
 10
1694.8135293307
 20
1123.0210694213
 10
1695.6362987103
 20
1122.9265910887
 10
1696.3338089103
 20
1122.6575395606
  0
LWPOLYLINE
  5
1D7
330
1F
100
AcDbEntity
  8
0
  6
Continuous
 62
     7
370
    25
100
AcDbPolyline
 90
       17
 70
   128
 43
0.0
 10
1800.3492164228
 20
1138.0468324684
 10
1800.8152778382
 20
1137.6441684009
 10
1800.9789368433
 20
1137.1691937482
 10
1800.8152778382
 20
1136.6942190955
 10
1800.3492164228
 20
1136.291555028
 10
1799.6517062229
 20
1136.0225034999
 10
1798.8289368433
 20
1135.9280251672
 10
1798.0061674637
 20
1136.0225034999
 10
1797.3086572637
 20
1136.291555028
 10
1796.8425958484
 20
1136.6942190955
 10
1796.6789368433
 20
1137.1691937482
 10
1796.8425958484
 20
1137.6441684009
 10
1797.3086572637
 20
1138.0468324684
 10
1798.0061674637
 20
1138.3158839966
 10
1798.8289368433
 20
1138.4103623292
 10
1799.6517062229
 20
1138.3158839966
 10
1800.3492164228
 20
1138.0468324684
  0
LWPOLYLINE
  5
1D8
330
1F
100
AcDbEntity
  8
0
  6
Continuous
 62
     7
370
    25
100
AcDbPolyline
 90
       17
 70
   128
 43
0.0
 10
1736.7096061161
 20
1174.7851975004
 10
1737.1756675314
 20
1174.382533433
 10
1737.3393265365
 20
1173.9075587802
 10
1737.1756675314
 20
1173.4325841275
 10
1736.7096061161
 20
1173.02992006
 10
1736.0120959161
 20
1172.7608685319
 10
1735.1893265365
 20
1172.6663901993
 10
1734.3665571569
 20
1172.7608685319
 10
1733.6690469569
 20
1173.02992006
 10
1733.2029855416
 20
1173.4325841275
 10
1733.0393265365
 20
1173.9075587802
 10
1733.2029855416
 20
1174.382533433
 10
1733.6690469569
 20
1174.7851975004
 10
1734.3665571569
 20
1175.0542490286
 10
1735.1893265365
 20
1175.1487273612
 10
1736.0120959161
 20
1175.0542490286
 10
1736.7096061161
 20
1174.7851975004
  0
LWPOLYLINE
  5
1D9
330
1F
100
AcDbEntity
  8
0
  6
Continuous
 62
     7
370
    25
100
AcDbPolyline
 90
       17
 70
   128
 43
0.0
 10
1635.8408237798
 20
1043.0781588607
 10
1636.3068851951
 20
1042.6754947932
 10
1636.4705442002
 20
1042.2005201404
 10
1636.3068851951
 20
1041.7255454877
 10
1635.8408237798
 20
1041.3228814202
 10
1635.1433135798
 20
1041.0538298921
 10
1634.3205442002
 20
1040.9593515595
 10
1633.4977748207
 20
1041.0538298921
 10
1632.8002646207
 20
1041.3228814202
 10
1632.3342032053
 20
1041.7255454877
 10
1632.1705442002
 20
1042.2005201404
 10
1632.3342032053
 20
1042.6754947932
 10
1632.8002646207
 20
1043.0781588607
 10
1633.4977748207
 20
1043.3472103888
 10
1634.3205442002
 20
1043.4416887214
 10
1635.1433135798
 20
1043.3472103888
 10
1635.8408237798
 20
1043.0781588607
  0
LWPOLYLINE
  5
1DA
330
1F
100
AcDbEntity
  8
0
  6
Continuous
 62
     7
370
    25
100
AcDbPolyline
 90
       17
 70
   128
 43
0.0
 10
1572.201213473
 20
1079.8165238927
 10
1572.6672748883
 20
1079.4138598252
 10
1572.8309338934
 20
1078.9388851725
 10
1572.6672748883
 20
1078.4639105197
 10
1572.201213473
 20
1078.0612464523
 10
1571.503703273
 20
1077.7921949241
 10
1570.6809338934
 20
1077.6977165915
 10
1569.8581645139
 20
1077.7921949241
 10
1569.1606543139
 20
1078.0612464523
 10
1568.6945928985
 20
1078.4639105197
 10
1568.5309338934
 20
1078.9388851725
 10
1568.6945928985
 20
1079.4138598252
 10
1569.1606543139
 20
1079.8165238927
 10
1569.8581645139
 20
1080.0855754208
 10
1570.6809338934
 20
1080.1800537534
 10
1571.503703273
 20
1080.0855754208
 10
1572.201213473
 20
1079.8165238927
  0
LWPOLYLINE
  5
1DB
330
1F
100
AcDbEntity
  8
0
  6
Continuous
 62
     7
370
    25
100
AcDbPolyline
 90
       17
 70
   128
 43
0.0
 10
1753.3266154739
 20
1155.558786467
 10
1753.8619139995
 20
1155.3523050617
 10
1754.4933416629
 20
1155.2797984343
 10
1755.1247693263
 20
1155.3523050617
 10
1755.6600678519
 20
1155.558786467
 10
1756.0177428915
 20
1155.8678077281
 10
1756.1433416629
 20
1156.2323231593
 10
1756.0177428915
 20
1156.5968385904
 10
1755.6600678519
 20
1156.9058598515
 10
1755.1247693263
 20
1157.1123412569
 10
1754.4933416629
 20
1157.1848478842
 10
1753.8619139995
 20
1157.1123412569
 10
1753.3266154739
 20
1156.9058598515
 10
1752.9689404342
 20
1156.5968385904
 10
1752.8433416629
 20
1156.2323231593
 10
1752.9689404342
 20
1155.8678077281
 10
1753.3266154739
 20
1155.558786467
  0
LWPOLYLINE
  5
1DC
330
1F
100
AcDbEntity
  8
0
  6
Continuous
 62
     7
370
    25
100
AcDbPolyline
 90
       17
 70
   128
 43
0.0
 10
1699.6572107819
 20
1124.5760986234
 10
1700.1925093074
 20
1124.369617218
 10
1700.8239369708
 20
1124.2971105907
 10
1701.4553646342
 20
1124.369617218
 10
1701.9906631598
 20
1124.5760986234
 10
1702.3483381995
 20
1124.8851198845
 10
1702.4739369708
 20
1125.2496353156
 10
1702.3483381995
 20
1125.6141507468
 10
1701.9906631598
 20
1125.9231720079
 10
1701.4553646342
 20
1126.1296534132
 10
1700.8239369708
 20
1126.2021600405
 10
1700.1925093074
 20
1126.1296534132
 10
1699.6572107819
 20
1125.9231720079
 10
1699.2995357422
 20
1125.6141507468
 10
1699.1739369708
 20
1125.2496353156
 10
1699.2995357422
 20
1124.8851198845
 10
1699.6572107819
 20
1124.5760986234
  0
LWPOLYLINE
  5
1DD
330
1F
100
AcDbEntity
  8
0
  6
Continuous
 62
     7
370
    25
100
AcDbPolyline
 90
       17
 70
   128
 43
0.0
 10
1650.0536700816
 20
1034.8732573368
 10
1650.519731497
 20
1034.4705932693
 10
1650.6833905021
 20
1033.9956186166
 10
1650.519731497
 20
1033.5206439639
 10
1650.0536700816
 20
1033.1179798964
 10
1649.3561598817
 20
1032.8489283683
 10
1648.5333905021
 20
1032.7544500356
 10
1647.7106211225
 20
1032.8489283683
 10
1647.0131109225
 20
1033.1179798964
 10
1646.5470495072
 20
1033.5206439639
 10
1646.3833905021
 20
1033.9956186166
 10
1646.5470495072
 20
1034.4705932693
 10
1647.0131109225
 20
1034.8732573368
 10
1647.7106211225
 20
1035.142308865
 10
1648.5333905021
 20
1035.2367871976
 10
1649.3561598817
 20
1035.142308865
 10
1650.0536700816
 20
1034.8732573368
  0
LWPOLYLINE
  5
1DE
330
1F
100
AcDbEntity
  8
0
  6
Continuous
 62
     7
370
    25
100
AcDbPolyline
 90
       17
 70
   128
 43
0.0
 10
1827.855670211
 20
1108.6969608484
 10
1828.3217316263
 20
1108.2942967809
 10
1828.4853906314
 20
1107.8193221282
 10
1828.3217316263
 20
1107.3443474755
 10
1827.855670211
 20
1106.941683408
 10
1827.158160011
 20
1106.6726318798
 10
1826.3353906314
 20
1106.5781535472
 10
1825.5126212519
 20
1106.6726318798
 10
1824.8151110519
 20
1106.941683408
 10
1824.3490496365
 20
1107.3443474755
 10
1824.1853906314
 20
1107.8193221282
 10
1824.3490496365
 20
1108.2942967809
 10
1824.8151110519
 20
1108.6969608484
 10
1825.5126212519
 20
1108.9660123766
 10
1826.3353906314
 20
1109.0604907092
 10
1827.158160011
 20
1108.9660123766
 10
1827.855670211
 20
1108.6969608484
  0
LWPOLYLINE
  5
1DF
330
1F
100
AcDbEntity
  8
0
  6
Continuous
 62
     7
370
    25
100
AcDbPolyline
 90
       17
 70
   128
 43
0.0
 10
1774.1862655189
 20
1077.7142730047
 10
1774.6523269343
 20
1077.3116089372
 10
1774.8159859394
 20
1076.8366342845
 10
1774.6523269343
 20
1076.3616596318
 10
1774.1862655189
 20
1075.9589955643
 10
1773.488755319
 20
1075.6899440362
 10
1772.6659859394
 20
1075.5954657035
 10
1771.8432165598
 20
1075.6899440362
 10
1771.1457063598
 20
1075.9589955643
 10
1770.6796449445
 20
1076.3616596318
 10
1770.5159859394
 20
1076.8366342845
 10
1770.6796449445
 20
1077.3116089372
 10
1771.1457063598
 20
1077.7142730047
 10
1771.8432165598
 20
1077.9833245329
 10
1772.6659859394
 20
1078.0778028655
 10
1773.488755319
 20
1077.9833245329
 10
1774.1862655189
 20
1077.7142730047
  0
LWPOLYLINE
  5
1E0
330
1F
100
AcDbEntity
  8
0
  6
Continuous
 62
     7
370
    25
100
AcDbPolyline
 90
       17
 70
   128
 43
0.0
 10
1878.2016730315
 20
1093.1035659126
 10
1878.6677344468
 20
1092.7009018451
 10
1878.8313934519
 20
1092.2259271924
 10
1878.6677344468
 20
1091.7509525397
 10
1878.2016730315
 20
1091.3482884722
 10
1877.5041628315
 20
1091.079236944
 10
1876.6813934519
 20
1090.9847586114
 10
1875.8586240723
 20
1091.079236944
 10
1875.1611138724
 20
1091.3482884722
 10
1874.695052457
 20
1091.7509525397
 10
1874.5313934519
 20
1092.2259271924
 10
1874.695052457
 20
1092.7009018451
 10
1875.1611138724
 20
1093.1035659126
 10
1875.8586240723
 20
1093.3726174407
 10
1876.6813934519
 20
1093.4670957734
 10
1877.5041628315
 20
1093.3726174407
 10
1878.2016730315
 20
1093.1035659126
  0
LWPOLYLINE
  5
1E1
330
1F
100
AcDbEntity
  8
0
  6
Continuous
 62
     7
370
    25
100
AcDbPolyline
 90
       17
 70
   128
 43
0.0
 10
1814.5620627247
 20
1129.8419309446
 10
1815.02812414
 20
1129.4392668771
 10
1815.1917831451
 20
1128.9642922244
 10
1815.02812414
 20
1128.4893175717
 10
1814.5620627247
 20
1128.0866535042
 10
1813.8645525247
 20
1127.817601976
 10
1813.0417831451
 20
1127.7231236434
 10
1812.2190137656
 20
1127.817601976
 10
1811.5215035656
 20
1128.0866535042
 10
1811.0554421502
 20
1128.4893175717
 10
1810.8917831451
 20
1128.9642922244
 10
1811.0554421502
 20
1129.4392668771
 10
1811.5215035656
 20
1129.8419309446
 10
1812.2190137656
 20
1130.1109824728
 10
1813.0417831451
 20
1130.2054608054
 10
1813.8645525247
 20
1130.1109824728
 10
1814.5620627247
 20
1129.8419309446
  0
LWPOLYLINE
  5
1E2
330
1F
100
AcDbEntity
  8
0
  6
Continuous
 62
     7
370
    25
100
AcDbPolyline
 90
       17
 70
   128
 43
0.0
 10
1713.6932803884
 20
998.1348923048
 10
1714.1593418038
 20
997.7322282373
 10
1714.3230008089
 20
997.2572535846
 10
1714.1593418038
 20
996.7822789319
 10
1713.6932803884
 20
996.3796148644
 10
1712.9957701885
 20
996.1105633362
 10
1712.1730008089
 20
996.0160850036
 10
1711.3502314293
 20
996.1105633362
 10
1710.6527212293
 20
996.3796148644
 10
1710.186659814
 20
996.7822789319
 10
1710.0230008089
 20
997.2572535846
 10
1710.186659814
 20
997.7322282373
 10
1710.6527212293
 20
998.1348923048
 10
1711.3502314293
 20
998.403943833
 10
1712.1730008089
 20
998.4984221656
 10
1712.9957701885
 20
998.403943833
 10
1713.6932803884
 20
998.1348923048
  0
LWPOLYLINE
  5
1E3
330
1F
100
AcDbEntity
  8
0
  6
Continuous
 62
     7
370
    25
100
AcDbPolyline
 90
       17
 70
   128
 43
0.0
 10
1777.5096673905
 20
1079.6328320675
 10
1778.0449659161
 20
1079.4263506622
 10
1778.6763935795
 20
1079.3538440348
 10
1779.3078212429
 20
1079.4263506622
 10
1779.8431197684
 20
1079.6328320675
 10
1780.2007948081
 20
1079.9418533286
 10
1780.3263935795
 20
1080.3063687598
 10
1780.2007948081
 20
1080.6708841909
 10
1779.8431197684
 20
1080.979905452
 10
1779.3078212429
 20
1081.1863868574
 10
1778.6763935795
 20
1081.2588934847
 10
1778.0449659161
 20
1081.1863868574
 10
1777.5096673905
 20
1080.979905452
 10
1777.1519923508
 20
1080.6708841909
 10
1777.0263935795
 20
1080.3063687598
 10
1777.1519923508
 20
1079.9418533286
 10
1777.5096673905
 20
1079.6328320675
  0
LWPOLYLINE
  5
1E4
330
1F
100
AcDbEntity
  8
0
  6
Continuous
 62
     7
370
    25
100
AcDbPolyline
 90
       17
 70
   128
 43
0.0
 10
1986.8839852999
 20
1020.7289867995
 10
1987.4192838254
 20
1020.5225053942
 10
1988.0507114888
 20
1020.4499987668
 10
1988.6821391522
 20
1020.5225053942
 10
1989.2174376778
 20
1020.7289867995
 10
1989.5751127175
 20
1021.0380080606
 10
1989.7007114888
 20
1021.4025234918
 10
1989.5751127175
 20
1021.7670389229
 10
1989.2174376778
 20
1022.076060184
 10
1988.6821391522
 20
1022.2825415893
 10
1988.0507114888
 20
1022.3550482167
 10
1987.4192838254
 20
1022.2825415893
 10
1986.8839852999
 20
1022.076060184
 10
1986.5263102602
 20
1021.7670389229
 10
1986.4007114888
 20
1021.4025234918
 10
1986.5263102602
 20
1021.0380080606
 10
1986.8839852999
 20
1020.7289867995
  0
LWPOLYLINE
  5
1E5
330
1F
100
AcDbEntity
  8
0
  6
Continuous
 62
     7
370
    25
100
AcDbPolyline
 90
       17
 70
   128
 43
0.0
 10
1831.1790720826
 20
1110.6155199112
 10
1831.7143706081
 20
1110.4090385059
 10
1832.3457982715
 20
1110.3365318785
 10
1832.9772259349
 20
1110.4090385059
 10
1833.5125244605
 20
1110.6155199112
 10
1833.8701995002
 20
1110.9245411723
 10
1833.9957982715
 20
1111.2890566034
 10
1833.8701995002
 20
1111.6535720346
 10
1833.5125244605
 20
1111.9625932957
 10
1832.9772259349
 20
1112.169074701
 10
1832.3457982715
 20
1112.2415813284
 10
1831.7143706081
 20
1112.169074701
 10
1831.1790720826
 20
1111.9625932957
 10
1830.8213970429
 20
1111.6535720346
 10
1830.6957982715
 20
1111.2890566034
 10
1830.8213970429
 20
1110.9245411723
 10
1831.1790720826
 20
1110.6155199112
  0
LWPOLYLINE
  5
1E6
330
1F
100
AcDbEntity
  8
0
  6
Continuous
 62
     7
370
    25
100
AcDbPolyline
 90
       17
 70
   128
 43
0.0
 10
1855.3621239992
 20
1034.6895655117
 10
1855.8974225247
 20
1034.4830841063
 10
1856.5288501881
 20
1034.410577479
 10
1857.1602778515
 20
1034.4830841063
 10
1857.6955763771
 20
1034.6895655117
 10
1858.0532514168
 20
1034.9985867728
 10
1858.1788501881
 20
1035.3631022039
 10
1858.0532514168
 20
1035.7276176351
 10
1857.6955763771
 20
1036.0366388962
 10
1857.1602778515
 20
1036.2431203015
 10
1856.5288501881
 20
1036.3156269289
 10
1855.8974225247
 20
1036.2431203015
 10
1855.3621239992
 20
1036.0366388962
 10
1855.0044489595
 20
1035.7276176351
 10
1854.8788501881
 20
1035.3631022039
 10
1855.0044489595
 20
1034.9985867728
 10
1855.3621239992
 20
1034.6895655117
  0
LWPOLYLINE
  5
1E7
330
1F
100
AcDbEntity
  8
0
  6
Continuous
 62
     7
370
    25
100
AcDbPolyline
 90
       17
 70
   128
 43
0.0
 10
1909.0315286912
 20
1065.6722533553
 10
1909.5668272168
 20
1065.46577195
 10
1910.1982548802
 20
1065.3932653227
 10
1910.8296825436
 20
1065.46577195
 10
1911.3649810691
 20
1065.6722533553
 10
1911.7226561088
 20
1065.9812746164
 10
1911.8482548802
 20
1066.3457900476
 10
1911.7226561088
 20
1066.7103054788
 10
1911.3649810691
 20
1067.0193267399
 10
1910.8296825436
 20
1067.2258081452
 10
1910.1982548802
 20
1067.2983147725
 10
1909.5668272168
 20
1067.2258081452
 10
1909.0315286912
 20
1067.0193267399
 10
1908.6738536515
 20
1066.7103054788
 10
1908.5482548802
 20
1066.3457900476
 10
1908.6738536515
 20
1065.9812746164
 10
1909.0315286912
 20
1065.6722533553
  0
LWPOLYLINE
  5
1E8
330
1F
100
AcDbEntity
  8
0
  6
Continuous
 62
     7
370
    25
100
AcDbPolyline
 90
       17
 70
   128
 43
0.0
 10
1933.2145806078
 20
989.7462989558
 10
1933.7498791333
 20
989.5398175505
 10
1934.3813067967
 20
989.4673109231
 10
1935.0127344602
 20
989.5398175505
 10
1935.5480329857
 20
989.7462989558
 10
1935.9057080254
 20
990.0553202169
 10
1936.0313067967
 20
990.4198356481
 10
1935.9057080254
 20
990.7843510792
 10
1935.5480329857
 20
991.0933723403
 10
1935.0127344602
 20
991.2998537457
 10
1934.3813067967
 20
991.372360373
 10
1933.7498791333
 20
991.2998537457
 10
1933.2145806078
 20
991.0933723403
 10
1932.8569055681
 20
990.7843510792
 10
1932.7313067967
 20
990.4198356481
 10
1932.8569055681
 20
990.0553202169
 10
1933.2145806078
 20
989.7462989558
  0
LINE
  5
1E9
330
1F
100
AcDbEntity
  8
0
  6
Continuous
 62
     7
370
    25
100
AcDbLine
 10
1869.3981936057
 20
908.0442239902
 30
0.0
 11
1869.7089787743
 21
907.8170791217
 31
0.0
  0
LWPOLYLINE
  5
1EA
330
1F
100
AcDbEntity
  8
0
  6
Continuous
 62
     7
370
    25
100
AcDbPolyline
 90
        7
 70
   128
 43
0.0
 10
1865.735196165
 20
907.2686528843
 10
1865.8915730313
 20
907.6415599227
 10
1866.3576344466
 20
908.0442239902
 10
1867.0551446466
 20
908.3132755183
 10
1867.8779140262
 20
908.4077538509
 10
1868.7006834057
 20
908.3132755183
 10
1869.3981936057
 20
908.0442239902
  0
ARC
  5
1EB
330
1F
100
AcDbEntity
  8
0
  6
Continuous
 62
     7
370
    25
100
AcDbCircle
 10
1867.8779140262
 20
903.3071005635
 30
0.0
 40
4.884609765234139
100
AcDbArc
 50
68.4444625489
 51
111.5555374521
  0
LWPOLYLINE
  5
1EC
330
1F
100
AcDbEntity
  8
0
  6
Continuous
 62
     7
370
    25
100
AcDbPolyline
 90
        3
 70
   128
 43
0.0
 10
1805.7585832989
 20
944.7825890222
 10
1806.2246447143
 20
944.3799249547
 10
1806.3810215823
 20
944.0070179035
  0
LWPOLYLINE
  5
1ED
330
1F
100
AcDbEntity
  8
0
  6
Continuous
 62
     7
370
    25
100
AcDbPolyline
 90
        7
 70
   128
 43
0.0
 10
1802.0955858564
 20
944.0070179035
 10
1802.2519627245
 20
944.3799249547
 10
1802.7180241398
 20
944.7825890222
 10
1803.4155343398
 20
945.0516405503
 10
1804.2383037194
 20
945.146118883
 10
1805.061073099
 20
945.0516405503
 10
1805.7585832989
 20
944.7825890222
  0
ARC
  5
1EE
330
1F
100
AcDbEntity
  8
0
  6
Continuous
 62
     7
370
    25
100
AcDbCircle
 10
1804.2383037194
 20
940.0454655958
 30
0.0
 40
4.884609764990629
100
AcDbArc
 50
68.4444625393
 51
111.5555374607
  0
LWPOLYLINE
  5
1EF
330
1F
100
AcDbEntity
  8
0
  6
Continuous
 62
     7
370
    25
100
AcDbPolyline
 90
        3
 70
   128
 43
0.0
 10
1791.5457369971
 20
952.987490546
 10
1792.0117984124
 20
952.5848264785
 10
1792.1681752805
 20
952.2119194272
  0
LWPOLYLINE
  5
1F0
330
1F
100
AcDbEntity
  8
0
  6
Continuous
 62
     7
370
    25
100
AcDbPolyline
 90
        7
 70
   128
 43
0.0
 10
1787.8827395545
 20
952.2119194272
 10
1788.0391164226
 20
952.5848264785
 10
1788.505177838
 20
952.987490546
 10
1789.2026880379
 20
953.2565420742
 10
1790.0254574175
 20
953.3510204068
 10
1790.8482267971
 20
953.2565420742
 10
1791.5457369971
 20
952.987490546
  0
ARC
  5
1F1
330
1F
100
AcDbEntity
  8
0
  6
Continuous
 62
     7
370
    25
100
AcDbCircle
 10
1790.0254574175
 20
948.2503671196
 30
0.0
 40
4.884609765012495
100
AcDbArc
 50
68.4444625394
 51
111.5555374606
  0
LWPOLYLINE
  5
1F2
330
1F
100
AcDbEntity
  8
0
  6
Continuous
 62
     7
370
    25
100
AcDbPolyline
 90
        3
 70
   128
 43
0.0
 10
1929.8911787362
 20
987.6236046901
 10
1930.3572401516
 20
987.2209406226
 10
1930.5136170196
 20
986.8480335716
  0
LWPOLYLINE
  5
1F3
330
1F
100
AcDbEntity
  8
0
  6
Continuous
 62
     7
370
    25
100
AcDbPolyline
 90
        7
 70
   128
 43
0.0
 10
1926.2281812937
 20
986.8480335715
 10
1926.3845581618
 20
987.2209406226
 10
1926.8506195771
 20
987.6236046901
 10
1927.5481297771
 20
987.8926562182
 10
1928.3708991567
 20
987.9871345509
 10
1929.1936685362
 20
987.8926562182
 10
1929.8911787362
 20
987.6236046901
  0
ARC
  5
1F4
330
1F
100
AcDbEntity
  8
0
  6
Continuous
 62
     7
370
    25
100
AcDbCircle
 10
1928.3708991567
 20
982.886481261
 30
0.0
 40
4.884609767595749
100
AcDbArc
 50
68.4444626357
 51
111.5555373693
  0
LWPOLYLINE
  5
1F5
330
1F
100
AcDbEntity
  8
0
  6
Continuous
 62
     7
370
    25
100
AcDbPolyline
 90
        3
 70
   128
 43
0.0
 10
1727.9061266903
 20
989.725855578
 10
1728.3721881056
 20
989.3231915105
 10
1728.5285649737
 20
988.9502844593
  0
LWPOLYLINE
  5
1F6
330
1F
100
AcDbEntity
  8
0
  6
Continuous
 62
     7
370
    25
100
AcDbPolyline
 90
        7
 70
   128
 43
0.0
 10
1724.2431292477
 20
988.9502844593
 10
1724.3995061158
 20
989.3231915105
 10
1724.8655675312
 20
989.725855578
 10
1725.5630777311
 20
989.9949071062
 10
1726.3858471107
 20
990.0893854388
 10
1727.2086164903
 20
989.9949071062
 10
1727.9061266903
 20
989.725855578
  0
ARC
  5
1F7
330
1F
100
AcDbEntity
  8
0
  6
Continuous
 62
     7
370
    25
100
AcDbCircle
 10
1726.3858471107
 20
984.9887321503
 30
0.0
 40
4.884609766249293
100
AcDbArc
 50
68.4444625831
 51
111.5555374132
  0
ARC
  5
1F8
330
1F
100
AcDbEntity
  8
0
  6
Continuous
 62
     7
370
    25
100
AcDbCircle
 10
1934.3813067967
 20
988.1831209979
 30
0.0
 40
2.24800840639605
100
AcDbArc
 50
50.9902611725
 51
129.0097388275
  0
LWPOLYLINE
  5
1F9
330
1F
100
AcDbEntity
  8
0
  6
Continuous
 62
     7
370
    25
100
AcDbPolyline
 90
        3
 70
   128
 43
0.0
 10
1713.6932803884
 20
997.9307571018
 10
1714.1593418038
 20
997.5280930343
 10
1714.3157186547
 20
997.1551861032
  0
LWPOLYLINE
  5
1FA
330
1F
100
AcDbEntity
  8
0
  6
Continuous
 62
     7
370
    25
100
AcDbPolyline
 90
        7
 70
   128
 43
0.0
 10
1710.0302829647
 20
997.1551861146
 10
1710.186659814
 20
997.5280930343
 10
1710.6527212293
 20
997.9307571018
 10
1711.3502314293
 20
998.19980863
 10
1712.1730008089
 20
998.2942869626
 10
1712.9957701885
 20
998.19980863
 10
1713.6932803884
 20
997.9307571018
  0
ARC
  5
1FB
330
1F
100
AcDbEntity
  8
0
  6
Continuous
 62
     7
370
    25
100
AcDbCircle
 10
1712.1730008089
 20
993.1936336759
 30
0.0
 40
4.884609764548476
100
AcDbArc
 50
68.4444625239
 51
111.5555374772
  0
ARC
  5
1FC
330
1F
100
AcDbEntity
  8
0
  6
Continuous
 62
     7
370
    25
100
AcDbCircle
 10
2051.7129969107
 20
1007.7875848292
 30
0.0
 40
2.622264891891415
100
AcDbArc
 50
76.5350757222
 51
130.5893642248
  0
LINE
  5
1FD
330
1F
100
AcDbEntity
  8
0
  6
Continuous
 62
     7
370
    25
100
AcDbLine
 10
2043.5652365652
 20
1007.132355058
 30
0.0
 11
1735.3767098335
 21
1185.045804546
 31
0.0
  0
LWPOLYLINE
  5
1FE
330
1F
100
AcDbEntity
  8
0
  6
Continuous
 62
     7
370
    25
100
AcDbPolyline
 90
        9
 70
   128
 43
0.0
 10
1735.3767098335
 20
1185.045804546
 10
1735.504590512
 20
1186.1151514917
 10
1735.8772195494
 20
1187.2400548851
 10
1736.4625063832
 20
1188.3236388013
 10
1737.2100465042
 20
1189.272585721
 10
1738.0554622592
 20
1190.0051729727
 10
1738.925947011
 20
1190.4583106342
 10
1739.7465351973
 20
1190.5929747943
 10
1740.446387653
 20
1190.3976668028
  0
LWPOLYLINE
  5
1FF
330
1F
100
AcDbEntity
  8
0
  6
Continuous
 62
     7
370
    25
100
AcDbPolyline
 90
        7
 70
   128
 43
0.0
 10
2030.2435896312
 20
1002.2373322505
 10
2030.3999656743
 20
1002.6102335304
 10
2030.8660270897
 20
1003.0128975979
 10
2031.5635372896
 20
1003.2819491261
 10
2032.3863066692
 20
1003.3764274587
 10
2033.2090760488
 20
1003.2819491261
 10
2033.7444173684
 20
1003.0974496678
  0
ARC
  5
200
330
1F
100
AcDbEntity
  8
0
  6
Continuous
 62
     7
370
    25
100
AcDbCircle
 10
2032.3881153427
 20
998.2139823943
 30
0.0
 40
4.942789147418805
100
AcDbArc
 50
76.3916975522
 51
111.3118756839
  0
ARC
  5
201
330
1F
100
AcDbEntity
  8
0
  6
Continuous
 62
     7
370
    25
100
AcDbCircle
 10
2051.8543764728
 20
1008.4062609039
 30
0.0
 40
1.97654938663323
100
AcDbArc
 50
63.5739916887
 51
116.318838382
  0
LWPOLYLINE
  5
202
330
1F
100
AcDbEntity
  8
0
  6
Continuous
 62
     7
370
    25
100
AcDbPolyline
 90
        3
 70
   128
 43
0.0
 10
1983.5605834283
 20
1018.6062925337
 10
1984.0266448436
 20
1018.2036284663
 10
1984.1830217117
 20
1017.8307214151
  0
LWPOLYLINE
  5
203
330
1F
100
AcDbEntity
  8
0
  6
Continuous
 62
     7
370
    25
100
AcDbPolyline
 90
        7
 70
   128
 43
0.0
 10
1979.8975859858
 20
1017.8307214151
 10
1980.0539628538
 20
1018.2036284663
 10
1980.5200242692
 20
1018.6062925337
 10
1981.2175344691
 20
1018.8753440619
 10
1982.0403038487
 20
1018.9698223945
 10
1982.8630732283
 20
1018.8753440619
 10
1983.5605834283
 20
1018.6062925337
  0
ARC
  5
204
330
1F
100
AcDbEntity
  8
0
  6
Continuous
 62
     7
370
    25
100
AcDbCircle
 10
1982.0403038487
 20
1013.8691691016
 30
0.0
 40
4.88460977052751
100
AcDbArc
 50
68.4444627456
 51
111.5555372618
  0
ARC
  5
205
330
1F
100
AcDbEntity
  8
0
  6
Continuous
 62
     7
370
    25
100
AcDbCircle
 10
1988.0507114888
 20
1019.1658088416
 30
0.0
 40
2.248008406395474
100
AcDbArc
 50
50.9902611725
 51
129.0097388275
  0
LWPOLYLINE
  5
206
330
1F
100
AcDbEntity
  8
0
  6
Continuous
 62
     7
370
    25
100
AcDbPolyline
 90
        3
 70
   128
 43
0.0
 10
1852.0387221276
 20
1032.5668712459
 10
1852.5047835429
 20
1032.1642071784
 10
1852.661160411
 20
1031.7913001272
  0
LWPOLYLINE
  5
207
330
1F
100
AcDbEntity
  8
0
  6
Continuous
 62
     7
370
    25
100
AcDbPolyline
 90
        7
 70
   128
 43
0.0
 10
1848.375724685
 20
1031.7913001272
 10
1848.5321015531
 20
1032.1642071784
 10
1848.9981629685
 20
1032.5668712459
 10
1849.6956731684
 20
1032.8359227741
 10
1850.518442548
 20
1032.9304011067
 10
1851.3412119276
 20
1032.8359227741
 10
1852.0387221276
 20
1032.5668712459
  0
ARC
  5
208
330
1F
100
AcDbEntity
  8
0
  6
Continuous
 62
     7
370
    25
100
AcDbCircle
 10
1850.518442548
 20
1027.8297478195
 30
0.0
 40
4.884609765025857
100
AcDbArc
 50
68.4444625384
 51
111.5555374615
  0
LWPOLYLINE
  5
209
330
1F
100
AcDbEntity
  8
0
  6
Continuous
 62
     7
370
    25
100
AcDbPolyline
 90
        3
 70
   128
 43
0.0
 10
1650.0536700816
 20
1034.6691221339
 10
1650.519731497
 20
1034.2664580664
 10
1650.6761083651
 20
1033.8935510151
  0
LWPOLYLINE
  5
20A
330
1F
100
AcDbEntity
  8
0
  6
Continuous
 62
     7
370
    25
100
AcDbPolyline
 90
        7
 70
   128
 43
0.0
 10
1646.3906726391
 20
1033.8935510152
 10
1646.5470495072
 20
1034.2664580664
 10
1647.0131109225
 20
1034.6691221339
 10
1647.7106211225
 20
1034.938173662
 10
1648.5333905021
 20
1035.0326519946
 10
1649.3561598817
 20
1034.938173662
 10
1650.0536700816
 20
1034.6691221339
  0
ARC
  5
20B
330
1F
100
AcDbEntity
  8
0
  6
Continuous
 62
     7
370
    25
100
AcDbCircle
 10
1648.5333905021
 20
1029.9319986904
 30
0.0
 40
4.88460978145163
100
AcDbArc
 50
68.4444631285
 51
111.5555368467
  0
ARC
  5
20C
330
1F
100
AcDbEntity
  8
0
  6
Continuous
 62
     7
370
    25
100
AcDbCircle
 10
1856.5288501881
 20
1033.1263875537
 30
0.0
 40
2.248008406395285
100
AcDbArc
 50
50.9902611724
 51
129.0097388275
  0
LWPOLYLINE
  5
20D
330
1F
100
AcDbEntity
  8
0
  6
Continuous
 62
     7
370
    25
100
AcDbPolyline
 90
        3
 70
   128
 43
0.0
 10
1970.266975942
 20
1039.75126263
 10
1970.7330373573
 20
1039.3485985625
 10
1970.8894142254
 20
1038.9756915112
  0
LWPOLYLINE
  5
20E
330
1F
100
AcDbEntity
  8
0
  6
Continuous
 62
     7
370
    25
100
AcDbPolyline
 90
        7
 70
   128
 43
0.0
 10
1966.6039784994
 20
1038.9756915112
 10
1966.7603553675
 20
1039.3485985625
 10
1967.2264167829
 20
1039.75126263
 10
1967.9239269828
 20
1040.0203141581
 10
1968.7466963624
 20
1040.1147924907
 10
1969.569465742
 20
1040.0203141581
 10
1970.266975942
 20
1039.75126263
  0
ARC
  5
20F
330
1F
100
AcDbEntity
  8
0
  6
Continuous
 62
     7
370
    25
100
AcDbCircle
 10
1968.7466963625
 20
1035.0141391848
 30
0.0
 40
4.884609783080907
100
AcDbArc
 50
68.444463214
 51
111.5555368124
  0
LWPOLYLINE
  5
210
330
1F
100
AcDbEntity
  8
0
  6
Continuous
 62
     7
370
    25
100
AcDbPolyline
 90
        3
 70
   128
 43
0.0
 10
1635.8408237798
 20
1042.8740236577
 10
1636.3068851951
 20
1042.4713595902
 10
1636.4632620632
 20
1042.098452539
  0
LWPOLYLINE
  5
211
330
1F
100
AcDbEntity
  8
0
  6
Continuous
 62
     7
370
    25
100
AcDbPolyline
 90
        7
 70
   128
 43
0.0
 10
1632.1778263373
 20
1042.098452539
 10
1632.3342032053
 20
1042.4713595902
 10
1632.8002646207
 20
1042.8740236577
 10
1633.4977748207
 20
1043.1430751858
 10
1634.3205442002
 20
1043.2375535185
 10
1635.1433135798
 20
1043.1430751858
 10
1635.8408237798
 20
1042.8740236577
  0
ARC
  5
212
330
1F
100
AcDbEntity
  8
0
  6
Continuous
 62
     7
370
    25
100
AcDbCircle
 10
1634.3205442003
 20
1038.1369002394
 30
0.0
 40
4.884609757168145
100
AcDbArc
 50
68.4444622573
 51
111.5555377536
  0
LWPOLYLINE
  5
213
330
1F
100
AcDbEntity
  8
0
  6
Continuous
 62
     7
370
    25
100
AcDbPolyline
 90
        3
 70
   128
 43
0.0
 10
1956.0541296401
 20
1047.9561641538
 10
1956.5201910555
 20
1047.5535000863
 10
1956.6765682031
 20
1047.1805910792
  0
LWPOLYLINE
  5
214
330
1F
100
AcDbEntity
  8
0
  6
Continuous
 62
     7
370
    25
100
AcDbPolyline
 90
        7
 70
   128
 43
0.0
 10
1952.3911319337
 20
1047.1805911888
 10
1952.5475090657
 20
1047.5535000863
 10
1953.013570481
 20
1047.9561641538
 10
1953.711080681
 20
1048.2252156819
 10
1954.5338500606
 20
1048.3196940146
 10
1955.3566194402
 20
1048.2252156819
 10
1956.0541296401
 20
1047.9561641538
  0
ARC
  5
215
330
1F
100
AcDbEntity
  8
0
  6
Continuous
 62
     7
370
    25
100
AcDbCircle
 10
1954.5338500606
 20
1043.219040722
 30
0.0
 40
4.884609770129383
100
AcDbArc
 50
68.4444627322
 51
111.5555372761
  0
LWPOLYLINE
  5
216
330
1F
100
AcDbEntity
  8
0
  6
Continuous
 62
     7
370
    25
100
AcDbPolyline
 90
        3
 70
   128
 43
0.0
 10
1905.7081268196
 20
1063.5495590896
 10
1906.174188235
 20
1063.1468950221
 10
1906.3305651031
 20
1062.7739879709
  0
LWPOLYLINE
  5
217
330
1F
100
AcDbEntity
  8
0
  6
Continuous
 62
     7
370
    25
100
AcDbPolyline
 90
        7
 70
   128
 43
0.0
 10
1902.0451293771
 20
1062.7739879709
 10
1902.2015062452
 20
1063.1468950221
 10
1902.6675676605
 20
1063.5495590896
 10
1903.3650778605
 20
1063.8186106177
 10
1904.1878472401
 20
1063.9130889504
 10
1905.0106166197
 20
1063.8186106177
 10
1905.7081268196
 20
1063.5495590896
  0
ARC
  5
218
330
1F
100
AcDbEntity
  8
0
  6
Continuous
 62
     7
370
    25
100
AcDbCircle
 10
1904.1878472401
 20
1058.8124356659
 30
0.0
 40
4.884609762360429
100
AcDbArc
 50
68.4444624382
 51
111.5555375553
  0
ARC
  5
219
330
1F
100
AcDbEntity
  8
0
  6
Continuous
 62
     7
370
    25
100
AcDbCircle
 10
1555.7724061336
 20
1085.2878050992
 30
0.0
 40
4.989854773226479
100
AcDbArc
 50
247.0107682106
 51
297.1382144043
  0
SPLINE
  5
21A
330
1F
100
AcDbEntity
  8
0
  6
Continuous
 62
     7
370
    25
100
AcDbSpline
210
0.0
220
0.0
230
1.0
 70
     8
 71
     3
 72
     8
 73
     4
 74
     0
 42
0.00000001
 43
0.00000001
 40
0.0
 40
0.0
 40
0.0
 40
0.0
 40
1.0
 40
1.0
 40
1.0
 40
1.0
 10
1553.522987847958
 20
1080.683981397497
 30
0.0
 10
1553.589257025018
 20
1080.74775861549
 30
0.0
 10
1553.70018950209
 20
1080.749543635956
 30
0.0
 10
1553.823577828165
 20
1080.694253217094
 30
0.0
  0
ARC
  5
21B
330
1F
100
AcDbEntity
  8
0
  6
Continuous
 62
     7
370
    25
100
AcDbCircle
 10
1555.7857295478
 20
1119.5254099472
 30
0.0
 40
4.918470105317249
100
AcDbArc
 50
242.6096722366
 51
297.3903277634
  0
ARC
  5
21C
330
1F
100
AcDbEntity
  8
0
  6
Continuous
 62
     7
370
    25
100
AcDbCircle
 10
1555.7857295478
 20
1118.3776015123
 30
0.0
 40
3.074043815823236
100
AcDbArc
 50
242.6096722366
 51
297.3903277634
  0
ARC
  5
21D
330
1F
100
AcDbEntity
  8
0
  6
Continuous
 62
     7
370
    25
100
AcDbCircle
 10
1546.6168999952
 20
1089.1721599322
 30
0.0
 40
4.879355264041113
100
AcDbArc
 50
182.6054784857
 51
237.39452166
  0
LINE
  5
21E
330
1F
100
AcDbEntity
  8
0
  6
Continuous
 62
     7
370
    25
100
AcDbLine
 10
1541.7425888734
 20
1088.9503517263
 30
0.0
 11
1541.7425888734
 21
1119.3664969691
 31
0.0
  0
ARC
  5
21F
330
1F
100
AcDbEntity
  8
0
  6
Continuous
 62
     7
370
    25
100
AcDbCircle
 10
1543.11124999
 20
1119.5885158192
 30
0.0
 40
1.386551701835397
100
AcDbArc
 50
50.7967147643
 51
189.2140369905
  0
LINE
  5
220
330
1F
100
AcDbEntity
  8
0
  6
Continuous
 62
     7
370
    25
100
AcDbLine
 10
1543.9876529037
 20
1120.6629661693
 30
0.0
 11
1553.522987848
 21
1115.1583344753
 31
0.0
  0
ARC
  5
221
330
1F
100
AcDbEntity
  8
0
  6
Continuous
 62
     7
370
    25
100
AcDbCircle
 10
1553.7303924359
 20
1080.4978232614
 30
0.0
 40
0.2786960974466898
100
AcDbArc
 50
138.0901084391
 51
183.6997526555
  0
LINE
  5
222
330
1F
100
AcDbEntity
  8
0
  6
Continuous
 62
     7
370
    25
100
AcDbLine
 10
1553.4522771698
 20
1080.4798395595
 30
0.0
 11
1553.4522771698
 21
1080.0062458886
 31
0.0
  0
ARC
  5
223
330
1F
100
AcDbEntity
  8
0
  6
Continuous
 62
     7
370
    25
100
AcDbCircle
 10
1553.2367399861
 20
1079.9712822902
 30
0.0
 40
0.218354598714475
100
AcDbArc
 50
230.7967147643
 51
9.2140369904
  0
LINE
  5
224
330
1F
100
AcDbEntity
  8
0
  6
Continuous
 62
     7
370
    25
100
AcDbLine
 10
1553.0987237792
 20
1079.8020775106
 30
0.0
 11
1543.9876529037
 21
1085.0617867711
 31
0.0
  0
LWPOLYLINE
  5
225
330
1F
100
AcDbEntity
  8
0
  6
Continuous
 62
     7
370
    25
100
AcDbPolyline
 90
       10
 70
   128
 43
0.0
 10
1548.8829531498
 20
1089.8500331628
 10
1549.7052253428
 20
1089.2079178461
 10
1550.4283193739
 20
1088.3083957458
 10
1550.9650194312
 20
1087.2599625026
 10
1551.2505915669
 20
1086.1890746391
 10
1551.2505915669
 20
1085.224897036
 10
1550.9650194312
 20
1084.4837237422
 10
1550.4283193739
 20
1084.0549511954
 10
1549.7052253428
 20
1083.9902956927
 10
1548.8829531498
 20
1084.297555642
  0
LINE
  5
226
330
1F
100
AcDbEntity
  8
0
  6
Continuous
 62
     7
370
    25
100
AcDbLine
 10
1546.4080794157
 20
1091.2787473585
 30
0.0
 11
1548.8829531498
 21
1089.8500331628
 31
0.0
  0
LWPOLYLINE
  5
227
330
1F
100
AcDbEntity
  8
0
  6
Continuous
 62
     7
370
    25
100
AcDbPolyline
 90
       10
 70
   128
 43
0.0
 10
1546.4080794157
 20
1085.7262698377
 10
1545.5858072227
 20
1086.3683851544
 10
1544.8627131916
 20
1087.2679072547
 10
1544.3260131343
 20
1088.3163404979
 10
1544.0404409986
 20
1089.3872283614
 10
1544.0404409986
 20
1090.3514059645
 10
1544.3260131343
 20
1091.0925792583
 10
1544.8627131916
 20
1091.5213518051
 10
1545.5858072227
 20
1091.5860073078
 10
1546.4080794157
 20
1091.2787473585
  0
LINE
  5
228
330
1F
100
AcDbEntity
  8
0
  6
Continuous
 62
     7
370
    25
100
AcDbLine
 10
1548.8829531498
 20
1084.297555642
 30
0.0
 11
1546.4080794157
 21
1085.7262698377
 31
0.0
  0
LWPOLYLINE
  5
229
330
1F
100
AcDbEntity
  8
0
  6
Continuous
 62
     7
370
    25
100
AcDbPolyline
 90
       10
 70
   128
 43
0.0
 10
1548.8829531498
 20
1115.7752039402
 10
1549.7052253428
 20
1115.1330886235
 10
1550.4283193739
 20
1114.2335665231
 10
1550.9650194312
 20
1113.18513328
 10
1551.2505915669
 20
1112.1142454164
 10
1551.2505915669
 20
1111.1500678134
 10
1550.9650194312
 20
1110.4088945196
 10
1550.4283193739
 20
1109.9801219728
 10
1549.7052253428
 20
1109.9154664701
 10
1548.8829531498
 20
1110.2227264194
  0
LINE
  5
22A
330
1F
100
AcDbEntity
  8
0
  6
Continuous
 62
     7
370
    25
100
AcDbLine
 10
1546.4080794157
 20
1117.2039181359
 30
0.0
 11
1548.8829531498
 21
1115.7752039402
 31
0.0
  0
LWPOLYLINE
  5
22B
330
1F
100
AcDbEntity
  8
0
  6
Continuous
 62
     7
370
    25
100
AcDbPolyline
 90
       10
 70
   128
 43
0.0
 10
1546.4080794157
 20
1111.6514406151
 10
1545.5858072227
 20
1112.2935559318
 10
1544.8627131916
 20
1113.1930780321
 10
1544.3260131343
 20
1114.2415112752
 10
1544.0404409986
 20
1115.3123991388
 10
1544.0404409986
 20
1116.2765767418
 10
1544.3260131343
 20
1117.0177500357
 10
1544.8627131916
 20
1117.4465225825
 10
1545.5858072227
 20
1117.5111780852
 10
1546.4080794157
 20
1117.2039181359
  0
LINE
  5
22C
330
1F
100
AcDbEntity
  8
0
  6
Continuous
 62
     7
370
    25
100
AcDbLine
 10
1548.8829531498
 20
1110.2227264194
 30
0.0
 11
1546.4080794157
 21
1111.6514406151
 31
0.0
  0
LINE
  5
22D
330
1F
100
AcDbEntity
  8
0
  6
Continuous
 62
     7
370
    25
100
AcDbLine
 10
1558.0484712476
 20
1115.1583344753
 30
0.0
 11
1566.1692707704
 21
1119.8463722521
 31
0.0
  0
ARC
  5
22E
330
1F
100
AcDbEntity
  8
0
  6
Continuous
 62
     7
370
    25
100
AcDbCircle
 10
1568.0321170756
 20
1116.6377408481
 30
0.0
 40
3.710190270563949
100
AcDbArc
 50
112.4862664689
 51
120.1383140362
  0
LINE
  5
22F
330
1F
100
AcDbEntity
  8
0
  6
Continuous
 62
     7
370
    25
100
AcDbLine
 10
1566.6131103891
 20
1120.0658499286
 30
0.0
 11
1738.3802760002
 21
1190.6367716094
 31
0.0
  0
ARC
  5
230
330
1F
100
AcDbEntity
  8
0
  6
Continuous
 62
     7
370
    25
100
AcDbCircle
 10
1739.2395971121
 20
1189.0206268655
 30
0.0
 40
1.830397936682009
100
AcDbArc
 50
48.8654457999
 51
118.0000472257
  0
LINE
  5
231
330
1F
100
AcDbEntity
  8
0
  6
Continuous
 62
     7
370
    25
100
AcDbLine
 10
1544.8361810411
 20
1121.1528110364
 30
0.0
 11
1554.3715159854
 21
1115.6481793424
 31
0.0
  0
LINE
  5
232
330
1F
100
AcDbEntity
  8
0
  6
Continuous
 62
     7
370
    25
100
AcDbLine
 10
1557.1999431101
 20
1115.6481793424
 30
0.0
 11
1565.3207426329
 21
1120.3362171192
 31
0.0
  0
ARC
  5
233
330
1F
100
AcDbEntity
  8
0
  6
Continuous
 62
     7
370
    25
100
AcDbCircle
 10
1910.1982548802
 20
1064.1090753974
 30
0.0
 40
2.248008406395916
100
AcDbArc
 50
50.9902611725
 51
129.0097388275
  0
LWPOLYLINE
  5
234
330
1F
100
AcDbEntity
  8
0
  6
Continuous
 62
     7
370
    25
100
AcDbPolyline
 90
        3
 70
   128
 43
0.0
 10
1550.9533000823
 20
1110.3924795038
 10
1550.5537534802
 20
1110.4053113372
 10
1549.7314812872
 20
1110.7125712865
  0
ARC
  5
235
330
1F
100
AcDbEntity
  8
0
  6
Continuous
 62
     7
370
    25
100
AcDbCircle
 10
1567.1835889382
 20
1117.1275857152
 30
0.0
 40
3.710190270577214
100
AcDbArc
 50
112.486266469
 51
120.1383140363
  0
LINE
  5
236
330
1F
100
AcDbEntity
  8
0
  6
Continuous
 62
     7
370
    25
100
AcDbLine
 10
1737.5317478628
 20
1191.1266164765
 30
0.0
 11
1565.7645822517
 21
1120.5556947957
 31
0.0
  0
LWPOLYLINE
  5
237
330
1F
100
AcDbEntity
  8
0
  6
Continuous
 62
     7
370
    25
100
AcDbPolyline
 90
        8
 70
   128
 43
0.0
 10
1547.2566075531
 20
1112.1412854822
 10
1546.4343353601
 20
1112.7834007989
 10
1545.711241329
 20
1113.6829228992
 10
1545.1745412717
 20
1114.7313561423
 10
1544.888969136
 20
1115.8022440059
 10
1544.888969136
 20
1116.7664216089
 10
1545.1745412717
 20
1117.5075949027
 10
1545.1862606206
 20
1117.5240099185
  0
ARC
  5
238
330
1F
100
AcDbEntity
  8
0
  6
Continuous
 62
     7
370
    25
100
AcDbCircle
 10
1543.9061598669
 20
1119.8546128164
 30
0.0
 40
1.596952723988007
100
AcDbArc
 50
54.3824225248
 51
114.3071190461
  0
LINE
  5
239
330
1F
100
AcDbEntity
  8
0
  6
Continuous
 62
     7
370
    25
100
AcDbLine
 10
1549.7314812872
 20
1110.7125712865
 30
0.0
 11
1547.2566075531
 21
1112.1412854822
 31
0.0
  0
LWPOLYLINE
  5
23A
330
1F
100
AcDbEntity
  8
0
  6
Continuous
 62
     7
370
    25
100
AcDbPolyline
 90
        3
 70
   128
 43
0.0
 10
1774.1862655189
 20
1077.5101378018
 10
1774.6523269343
 20
1077.1074737343
 10
1774.8087038024
 20
1076.734566683
  0
LWPOLYLINE
  5
23B
330
1F
100
AcDbEntity
  8
0
  6
Continuous
 62
     7
370
    25
100
AcDbPolyline
 90
        7
 70
   128
 43
0.0
 10
1770.5232680764
 20
1076.734566683
 10
1770.6796449445
 20
1077.1074737343
 10
1771.1457063598
 20
1077.5101378018
 10
1771.8432165598
 20
1077.7791893299
 10
1772.6659859394
 20
1077.8736676625
 10
1773.488755319
 20
1077.7791893299
 10
1774.1862655189
 20
1077.5101378018
  0
ARC
  5
23C
330
1F
100
AcDbEntity
  8
0
  6
Continuous
 62
     7
370
    25
100
AcDbCircle
 10
1772.6659859394
 20
1072.7730143755
 30
0.0
 40
4.884609764890879
100
AcDbArc
 50
68.4444625375
 51
111.5555374629
  0
LWPOLYLINE
  5
23D
330
1F
100
AcDbEntity
  8
0
  6
Continuous
 62
     7
370
    25
100
AcDbPolyline
 90
        3
 70
   128
 43
0.0
 10
1572.201213473
 20
1079.6123886897
 10
1572.6672748883
 20
1079.2097246222
 10
1572.8236517564
 20
1078.8368175711
  0
LWPOLYLINE
  5
23E
330
1F
100
AcDbEntity
  8
0
  6
Continuous
 62
     7
370
    25
100
AcDbPolyline
 90
        7
 70
   128
 43
0.0
 10
1568.5382160305
 20
1078.8368175709
 10
1568.6945928985
 20
1079.2097246222
 10
1569.1606543139
 20
1079.6123886897
 10
1569.8581645139
 20
1079.8814402179
 10
1570.6809338934
 20
1079.9759185505
 10
1571.503703273
 20
1079.8814402179
 10
1572.201213473
 20
1079.6123886897
  0
ARC
  5
23F
330
1F
100
AcDbEntity
  8
0
  6
Continuous
 62
     7
370
    25
100
AcDbCircle
 10
1570.6809338935
 20
1074.8752653334
 30
0.0
 40
4.884609697418026
100
AcDbArc
 50
68.4444601045
 51
111.5555399638
  0
LWPOLYLINE
  5
240
330
1F
100
AcDbEntity
  8
0
  6
Continuous
 62
     7
370
    25
100
AcDbPolyline
 90
        3
 70
   128
 43
0.0
 10
1550.9533000823
 20
1084.4673087265
 10
1550.5537534802
 20
1084.4801405598
 10
1549.7314812872
 20
1084.7874005091
  0
ARC
  5
241
330
1F
100
AcDbEntity
  8
0
  6
Continuous
 62
     7
370
    25
100
AcDbCircle
 10
1778.6763935795
 20
1078.0696541096
 30
0.0
 40
2.248008406396092
100
AcDbArc
 50
50.9902611725
 51
129.0097388275
  0
ARC
  5
242
330
1F
100
AcDbEntity
  8
0
  6
Continuous
 62
     7
370
    25
100
AcDbCircle
 10
1558.6318533661
 20
1080.8738366837
 30
0.0
 40
0.5839858268777602
100
AcDbArc
 50
182.6054784857
 51
237.3945216599
  0
ARC
  5
243
330
1F
100
AcDbEntity
  8
0
  6
Continuous
 62
     7
370
    25
100
AcDbCircle
 10
1559.6236858526
 20
1081.4408698579
 30
0.0
 40
2.421531776271708
100
AcDbArc
 50
201.6047683577
 51
237.3476481167
  0
LINE
  5
244
330
1F
100
AcDbEntity
  8
0
  6
Continuous
 62
     7
370
    25
100
AcDbLine
 10
1554.3008053073
 20
1080.5171584278
 30
0.0
 11
1554.3008053073
 21
1080.4960907557
 31
0.0
  0
ARC
  5
245
330
1F
100
AcDbEntity
  8
0
  6
Continuous
 62
     7
370
    25
100
AcDbCircle
 10
1554.0629625294
 20
1080.4658087414
 30
0.0
 40
0.2397627731044386
100
AcDbArc
 50
304.0563508165
 51
7.255829577
  0
LWPOLYLINE
  5
246
330
1F
100
AcDbEntity
  8
0
  6
Continuous
 62
     7
370
    25
100
AcDbPolyline
 90
        8
 70
   128
 43
0.0
 10
1547.2566075531
 20
1086.2161147048
 10
1546.4343353601
 20
1086.8582300215
 10
1545.711241329
 20
1087.7577521218
 10
1545.1745412717
 20
1088.806185365
 10
1544.888969136
 20
1089.8770732285
 10
1544.888969136
 20
1090.8412508316
 10
1545.1745412717
 20
1091.5824241254
 10
1545.1862606206
 20
1091.5988391411
  0
LWPOLYLINE
  5
247
330
1F
100
AcDbEntity
  8
0
  6
Continuous
 62
     7
370
    25
100
AcDbPolyline
 90
        3
 70
   128
 43
0.0
 10
1892.4145193333
 20
1084.6945291858
 10
1892.8805807487
 20
1084.2918651183
 10
1893.0369576168
 20
1083.9189580671
  0
LWPOLYLINE
  5
248
330
1F
100
AcDbEntity
  8
0
  6
Continuous
 62
     7
370
    25
100
AcDbPolyline
 90
        7
 70
   128
 43
0.0
 10
1888.7515218908
 20
1083.9189580671
 10
1888.9078987589
 20
1084.2918651183
 10
1889.3739601742
 20
1084.6945291858
 10
1890.0714703742
 20
1084.963580714
 10
1890.8942397538
 20
1085.0580590466
 10
1891.7170091334
 20
1084.963580714
 10
1892.4145193333
 20
1084.6945291858
  0
ARC
  5
249
330
1F
100
AcDbEntity
  8
0
  6
Continuous
 62
     7
370
    25
100
AcDbCircle
 10
1890.8942397538
 20
1079.9574057597
 30
0.0
 40
4.884609764688769
100
AcDbArc
 50
68.4444625282
 51
111.555537471
  0
LINE
  5
24A
330
1F
100
AcDbEntity
  8
0
  6
Continuous
 62
     7
370
    25
100
AcDbLine
 10
1549.7314812872
 20
1084.7874005091
 30
0.0
 11
1547.2566075531
 21
1086.2161147048
 31
0.0
  0
LWPOLYLINE
  5
24B
330
1F
100
AcDbEntity
  8
0
  6
Continuous
 62
     7
370
    25
100
AcDbPolyline
 90
        3
 70
   128
 43
0.0
 10
1878.2016730315
 20
1092.8994307096
 10
1878.6677344468
 20
1092.4967666421
 10
1878.8241113149
 20
1092.1238595909
  0
LWPOLYLINE
  5
24C
330
1F
100
AcDbEntity
  8
0
  6
Continuous
 62
     7
370
    25
100
AcDbPolyline
 90
        7
 70
   128
 43
0.0
 10
1874.5386755889
 20
1092.1238595909
 10
1874.695052457
 20
1092.4967666421
 10
1875.1611138724
 20
1092.8994307096
 10
1875.8586240723
 20
1093.1684822378
 10
1876.6813934519
 20
1093.2629605704
 10
1877.5041628315
 20
1093.1684822378
 10
1878.2016730315
 20
1092.8994307096
  0
ARC
  5
24D
330
1F
100
AcDbEntity
  8
0
  6
Continuous
 62
     7
370
    25
100
AcDbCircle
 10
1876.6813934519
 20
1088.1623072846
 30
0.0
 40
4.884609763616681
100
AcDbArc
 50
68.4444624853
 51
111.55553751
  0
LWPOLYLINE
  5
24E
330
1F
100
AcDbEntity
  8
0
  6
Continuous
 62
     7
370
    25
100
AcDbPolyline
 90
        3
 70
   128
 43
0.0
 10
1827.855670211
 20
1108.4928256454
 10
1828.3217316263
 20
1108.0901615779
 10
1828.4781084944
 20
1107.7172545267
  0
LWPOLYLINE
  5
24F
330
1F
100
AcDbEntity
  8
0
  6
Continuous
 62
     7
370
    25
100
AcDbPolyline
 90
        7
 70
   128
 43
0.0
 10
1824.1926727685
 20
1107.7172545267
 10
1824.3490496365
 20
1108.0901615779
 10
1824.8151110519
 20
1108.4928256454
 10
1825.5126212519
 20
1108.7618771736
 10
1826.3353906314
 20
1108.8563555062
 10
1827.158160011
 20
1108.7618771736
 10
1827.855670211
 20
1108.4928256454
  0
ARC
  5
250
330
1F
100
AcDbEntity
  8
0
  6
Continuous
 62
     7
370
    25
100
AcDbCircle
 10
1826.3353906314
 20
1103.755702219
 30
0.0
 40
4.884609765018991
100
AcDbArc
 50
68.4444625393
 51
111.5555374606
  0
ARC
  5
251
330
1F
100
AcDbEntity
  8
0
  6
Continuous
 62
     7
370
    25
100
AcDbCircle
 10
1832.3457982715
 20
1109.0523419532
 30
0.0
 40
2.248008406396623
100
AcDbArc
 50
50.9902611725
 51
129.0097388275
  0
LWPOLYLINE
  5
252
330
1F
100
AcDbEntity
  8
0
  6
Continuous
 62
     7
370
    25
100
AcDbPolyline
 90
        3
 70
   128
 43
0.0
 10
1696.3338089103
 20
1122.4534043576
 10
1696.7998703256
 20
1122.0507402901
 10
1696.9562471937
 20
1121.6778332387
  0
LWPOLYLINE
  5
253
330
1F
100
AcDbEntity
  8
0
  6
Continuous
 62
     7
370
    25
100
AcDbPolyline
 90
        7
 70
   128
 43
0.0
 10
1692.6708114677
 20
1121.6778332387
 10
1692.8271883358
 20
1122.0507402901
 10
1693.2932497512
 20
1122.4534043576
 10
1693.9907599512
 20
1122.7224558858
 10
1694.8135293307
 20
1122.8169342184
 10
1695.6362987103
 20
1122.7224558858
 10
1696.3338089103
 20
1122.4534043576
  0
ARC
  5
254
330
1F
100
AcDbEntity
  8
0
  6
Continuous
 62
     7
370
    25
100
AcDbCircle
 10
1694.8135293307
 20
1117.7162809231
 30
0.0
 40
4.884609772751158
100
AcDbArc
 50
68.4444628133
 51
111.5555371702
  0
ARC
  5
255
330
1F
100
AcDbEntity
  8
0
  6
Continuous
 62
     7
370
    25
100
AcDbCircle
 10
1700.8239369708
 20
1123.0129206654
 30
0.0
 40
2.248008406398128
100
AcDbArc
 50
50.9902611726
 51
129.0097388274
  0
LWPOLYLINE
  5
256
330
1F
100
AcDbEntity
  8
0
  6
Continuous
 62
     7
370
    25
100
AcDbPolyline
 90
        3
 70
   128
 43
0.0
 10
1814.5620627247
 20
1129.6377957416
 10
1815.02812414
 20
1129.2351316741
 10
1815.1845010081
 20
1128.8622246229
  0
LWPOLYLINE
  5
257
330
1F
100
AcDbEntity
  8
0
  6
Continuous
 62
     7
370
    25
100
AcDbPolyline
 90
        7
 70
   128
 43
0.0
 10
1810.8990652822
 20
1128.8622246229
 10
1811.0554421502
 20
1129.2351316741
 10
1811.5215035656
 20
1129.6377957416
 10
1812.2190137656
 20
1129.9068472698
 10
1813.0417831451
 20
1130.0013256024
 10
1813.8645525247
 20
1129.9068472698
 10
1814.5620627247
 20
1129.6377957416
  0
ARC
  5
258
330
1F
100
AcDbEntity
  8
0
  6
Continuous
 62
     7
370
    25
100
AcDbCircle
 10
1813.0417831451
 20
1124.9006723152
 30
0.0
 40
4.884609764985348
100
AcDbArc
 50
68.4444625393
 51
111.5555374607
  0
LWPOLYLINE
  5
259
330
1F
100
AcDbEntity
  8
0
  6
Continuous
 62
     7
370
    25
100
AcDbPolyline
 90
        3
 70
   128
 43
0.0
 10
1800.3492164228
 20
1137.8426972655
 10
1800.8152778382
 20
1137.440033198
 10
1800.9716547063
 20
1137.0671261467
  0
LWPOLYLINE
  5
25A
330
1F
100
AcDbEntity
  8
0
  6
Continuous
 62
     7
370
    25
100
AcDbPolyline
 90
        7
 70
   128
 43
0.0
 10
1796.6862189803
 20
1137.0671261467
 10
1796.8425958484
 20
1137.440033198
 10
1797.3086572637
 20
1137.8426972655
 10
1798.0061674637
 20
1138.1117487936
 10
1798.8289368433
 20
1138.2062271262
 10
1799.6517062229
 20
1138.1117487936
 10
1800.3492164228
 20
1137.8426972655
  0
ARC
  5
25B
330
1F
100
AcDbEntity
  8
0
  6
Continuous
 62
     7
370
    25
100
AcDbCircle
 10
1798.8289368433
 20
1133.105573839
 30
0.0
 40
4.884609765004798
100
AcDbArc
 50
68.4444625393
 51
111.5555374607
  0
LWPOLYLINE
  5
25C
330
1F
100
AcDbEntity
  8
0
  6
Continuous
 62
     7
370
    25
100
AcDbPolyline
 90
        3
 70
   128
 43
0.0
 10
1750.0032136024
 20
1153.4360922013
 10
1750.4692750177
 20
1153.0334281338
 10
1750.6256518858
 20
1152.6605210825
  0
LWPOLYLINE
  5
25D
330
1F
100
AcDbEntity
  8
0
  6
Continuous
 62
     7
370
    25
100
AcDbPolyline
 90
        7
 70
   128
 43
0.0
 10
1746.3402161598
 20
1152.6605210825
 10
1746.4965930279
 20
1153.0334281338
 10
1746.9626544433
 20
1153.4360922013
 10
1747.6601646432
 20
1153.7051437294
 10
1748.4829340228
 20
1153.799622062
 10
1749.3057034024
 20
1153.7051437294
 10
1750.0032136024
 20
1153.4360922013
  0
ARC
  5
25E
330
1F
100
AcDbEntity
  8
0
  6
Continuous
 62
     7
370
    25
100
AcDbCircle
 10
1748.4829340228
 20
1148.6989687749
 30
0.0
 40
4.884609764975619
100
AcDbArc
 50
68.4444625386
 51
111.5555374615
  0
ARC
  5
25F
330
1F
100
AcDbEntity
  8
0
  6
Continuous
 62
     7
370
    25
100
AcDbCircle
 10
1754.4933416629
 20
1153.9956085091
 30
0.0
 40
2.248008406398448
100
AcDbArc
 50
50.9902611726
 51
129.0097388274
  0
LWPOLYLINE
  5
260
330
1F
100
AcDbEntity
  8
0
  6
Continuous
 62
     7
370
    25
100
AcDbPolyline
 90
        3
 70
   128
 43
0.0
 10
1736.7096061161
 20
1174.5810622975
 10
1737.1756675314
 20
1174.17839823
 10
1737.3320443995
 20
1173.8054911787
  0
LWPOLYLINE
  5
261
330
1F
100
AcDbEntity
  8
0
  6
Continuous
 62
     7
370
    25
100
AcDbPolyline
 90
        7
 70
   128
 43
0.0
 10
1733.0466086735
 20
1173.8054911787
 10
1733.2029855416
 20
1174.17839823
 10
1733.6690469569
 20
1174.5810622975
 10
1734.3665571569
 20
1174.8501138256
 10
1735.1893265365
 20
1174.9445921583
 10
1736.0120959161
 20
1174.8501138256
 10
1736.7096061161
 20
1174.5810622975
  0
ARC
  5
262
330
1F
100
AcDbEntity
  8
0
  6
Continuous
 62
     7
370
    25
100
AcDbCircle
 10
1735.1893265365
 20
1169.8439388701
 30
0.0
 40
4.884609765921771
100
AcDbArc
 50
68.4444625709
 51
111.5555374261
  0
ARC
  5
263
330
1F
100
AcDbEntity
  8
0
  6
Continuous
 62
     7
370
    25
100
AcDbCircle
 10
1738.4080825084
 20
1189.3549548083
 30
0.0
 40
1.976549386634699
100
AcDbArc
 50
63.5739916887
 51
116.3188383819
  0
LINE
  5
264
330
1F
100
AcDbEntity
  8
0
  6
PHANTOM
 62
     8
370
    18
100
AcDbLine
 10
1870.6462370745
 20
897.6126264024
 30
0.0
 11
1870.6462370745
 21
932.0869794802
 31
0.0
  0
LINE
  5
265
330
1F
100
AcDbEntity
  8
0
  6
PHANTOM
 62
     8
370
    18
100
AcDbLine
 10
1882.4266360491
 20
922.693782831
 30
0.0
 11
1883.2751641865
 21
923.1836276981
 31
0.0
  0
LINE
  5
266
330
1F
100
AcDbEntity
  8
0
  6
PHANTOM
 62
     8
370
    18
100
AcDbLine
 10
1880.1815720188
 20
926.5823477862
 30
0.0
 11
1881.0301001562
 21
927.0721926533
 31
0.0
  0
LINE
  5
267
330
1F
100
AcDbEntity
  8
0
  6
PHANTOM
 62
     8
370
    18
100
AcDbLine
 10
1882.4266360491
 20
892.2776375882
 30
0.0
 11
1883.2751641865
 21
892.7674824553
 31
0.0
  0
LINE
  5
268
330
1F
100
AcDbEntity
  8
0
  6
PHANTOM
 62
     8
370
    18
100
AcDbLine
 10
1871.4947652119
 20
932.5768243473
 30
0.0
 11
1870.6462370745
 21
932.0869794802
 31
0.0
  0
LINE
  5
269
330
1F
100
AcDbEntity
  8
0
  6
PHANTOM
 62
     8
370
    18
100
AcDbLine
 10
1877.7611455068
 20
920.3653871988
 30
0.0
 11
1878.6096736442
 21
920.8552320659
 31
0.0
  0
LINE
  5
26A
330
1F
100
AcDbEntity
  8
0
  6
PHANTOM
 62
     8
370
    18
100
AcDbLine
 10
1875.2862717726
 20
921.7941013945
 30
0.0
 11
1876.1347999101
 21
922.2839462616
 31
0.0
  0
LINE
  5
26B
330
1F
100
AcDbEntity
  8
0
  6
PHANTOM
 62
     8
370
    18
100
AcDbLine
 10
1871.4947652119
 20
934.2096405709
 30
0.0
 11
1870.6462370745
 21
934.699485438
 31
0.0
  0
LINE
  5
26C
330
1F
100
AcDbEntity
  8
0
  6
PHANTOM
 62
     8
370
    18
100
AcDbLine
 10
1871.4947652119
 20
934.2096405709
 30
0.0
 11
1871.4947652119
 21
932.5768243473
 31
0.0
  0
LINE
  5
26D
330
1F
100
AcDbEntity
  8
0
  6
PHANTOM
 62
     8
370
    18
100
AcDbLine
 10
2051.7362837364
 20
1003.9498095073
 30
0.0
 11
1883.2751641865
 21
906.699275227
 31
0.0
  0
LINE
  5
26E
330
1F
100
AcDbEntity
  8
0
  6
PHANTOM
 62
     8
370
    18
100
AcDbLine
 10
1874.6133424812
 20
901.6989119922
 30
0.0
 11
1873.8268438502
 21
901.244875997
 31
0.0
  0
LINE
  5
26F
330
1F
100
AcDbEntity
  8
0
  6
PHANTOM
 62
     8
370
    18
100
AcDbLine
 10
1878.7670365973
 20
939.3875232148
 30
0.0
 11
1879.6155647347
 21
938.8976783478
 31
0.0
  0
LINE
  5
270
330
1F
100
AcDbEntity
  8
0
  6
PHANTOM
 62
     8
370
    18
100
AcDbLine
 10
1880.0594043535
 20
939.1171560242
 30
0.0
 11
1879.2108762161
 21
939.6070008913
 31
0.0
  0
LINE
  5
271
330
1F
100
AcDbEntity
  8
0
  6
PHANTOM
 62
     8
370
    18
100
AcDbLine
 10
2051.8265699646
 20
1009.688077705
 30
0.0
 11
2050.9780418271
 21
1010.1779225721
 31
0.0
  0
LINE
  5
272
330
1F
100
AcDbEntity
  8
0
  6
PHANTOM
 62
     8
370
    18
100
AcDbLine
 10
1877.7611455068
 20
894.4402164214
 30
0.0
 11
1878.6096736442
 21
894.9300612885
 31
0.0
  0
LINE
  5
273
330
1F
100
AcDbEntity
  8
0
  6
PHANTOM
 62
     8
370
    18
100
AcDbLine
 10
1875.2862717726
 20
895.8689306171
 30
0.0
 11
1876.1347999101
 21
896.3587754842
 31
0.0
  0
LINE
  5
274
330
1F
100
AcDbEntity
  8
0
  6
PHANTOM
 62
     8
370
    18
100
AcDbLine
 10
1558.3171718244
 20
1080.3818865101
 30
0.0
 11
1558.3171718244
 21
1079.4020375358
 31
0.0
  0
LINE
  5
275
330
1F
100
AcDbEntity
  8
0
  6
PHANTOM
 62
     8
370
    18
100
AcDbLine
 10
1558.3171718244
 20
1080.3818865101
 30
0.0
 11
1737.4983749793
 21
1183.8209933281
 31
0.0
  0
LINE
  5
276
330
1F
100
AcDbEntity
  8
0
  6
PHANTOM
 62
     8
370
    18
100
AcDbLine
 10
1553.522987848
 20
1115.1583344753
 30
0.0
 11
1553.522987848
 21
1080.6839813975
 31
0.0
  0
LINE
  5
277
330
1F
100
AcDbEntity
  8
0
  6
PHANTOM
 62
     8
370
    18
100
AcDbLine
 10
1558.0484712476
 20
1080.8472895599
 30
0.0
 11
1558.0484712476
 21
1115.1583344753
 31
0.0
  0
LINE
  5
278
330
1F
100
AcDbEntity
  8
0
  6
PHANTOM
 62
     8
370
    18
100
AcDbLine
 10
1557.1999431101
 20
1115.6481793424
 30
0.0
 11
1558.0484712476
 21
1115.1583344753
 31
0.0
  0
LINE
  5
279
330
1F
100
AcDbEntity
  8
0
  6
PHANTOM
 62
     8
370
    18
100
AcDbLine
 10
1554.3715159854
 20
1115.6481793424
 30
0.0
 11
1553.522987848
 21
1115.1583344753
 31
0.0
  0
LINE
  5
27A
330
1F
100
AcDbEntity
  8
0
  6
PHANTOM
 62
     8
370
    18
100
AcDbLine
 10
1736.9609301507
 20
1184.1312536236
 30
0.0
 11
1558.0484712476
 21
1080.8472895599
 31
0.0
  0
LINE
  5
27B
330
1F
100
AcDbEntity
  8
0
  6
PHANTOM
 62
     8
370
    18
100
AcDbLine
 10
1543.9876529037
 20
1120.6629661693
 30
0.0
 11
1544.8361810411
 21
1121.1528110364
 31
0.0
  0
LINE
  5
27C
330
1F
100
AcDbEntity
  8
0
  6
PHANTOM
 62
     8
370
    18
100
AcDbLine
 10
1566.1692707704
 20
1119.8463722521
 30
0.0
 11
1565.3207426329
 21
1120.3362171192
 31
0.0
  0
LINE
  5
27D
330
1F
100
AcDbEntity
  8
0
  6
PHANTOM
 62
     8
370
    18
100
AcDbLine
 10
1548.8829531498
 20
1110.2227264194
 30
0.0
 11
1549.7314812872
 21
1110.7125712865
 31
0.0
  0
LINE
  5
27E
330
1F
100
AcDbEntity
  8
0
  6
PHANTOM
 62
     8
370
    18
100
AcDbLine
 10
1566.6131103891
 20
1120.0658499286
 30
0.0
 11
1565.7645822517
 21
1120.5556947957
 31
0.0
  0
LINE
  5
27F
330
1F
100
AcDbEntity
  8
0
  6
PHANTOM
 62
     8
370
    18
100
AcDbLine
 10
1738.3802760002
 20
1190.6367716094
 30
0.0
 11
1737.5317478628
 21
1191.1266164765
 31
0.0
  0
LINE
  5
280
330
1F
100
AcDbEntity
  8
0
  6
PHANTOM
 62
     8
370
    18
100
AcDbLine
 10
1546.4080794157
 20
1111.6514406151
 30
0.0
 11
1547.2566075531
 21
1112.1412854822
 31
0.0
  0
LINE
  5
281
330
1F
100
AcDbEntity
  8
0
  6
PHANTOM
 62
     8
370
    18
100
AcDbLine
 10
1548.8829531498
 20
1084.297555642
 30
0.0
 11
1549.7314812872
 21
1084.7874005091
 31
0.0
  0
LINE
  5
282
330
1F
100
AcDbEntity
  8
0
  6
PHANTOM
 62
     8
370
    18
100
AcDbLine
 10
1553.8073170073
 20
1080.684799695
 30
0.0
 11
1553.4522771698
 21
1080.4798395595
 31
0.0
  0
LINE
  5
283
330
1F
100
AcDbEntity
  8
0
  6
PHANTOM
 62
     8
370
    18
100
AcDbLine
 10
1553.4522771698
 20
1080.0062458886
 30
0.0
 11
1554.3008053073
 21
1080.4960907557
 31
0.0
  0
LINE
  5
284
330
1F
100
AcDbEntity
  8
0
  6
PHANTOM
 62
     8
370
    18
100
AcDbLine
 10
1546.4080794157
 20
1085.7262698377
 30
0.0
 11
1547.2566075531
 21
1086.2161147048
 31
0.0
  0
LINE
  5
285
330
1F
100
AcDbEntity
  8
0
  6
Continuous
 62
     7
370
    25
100
AcDbLine
 10
1125.3521504764
 20
1128.2165949099
 30
0.0
 11
684.0321504764
 21
1128.2165949099
 31
0.0
  0
LINE
  5
286
330
1F
100
AcDbEntity
  8
0
  6
Continuous
 62
     7
370
    25
100
AcDbLine
 10
683.6521504764
 20
1128.1607999344
 30
0.0
 11
682.4521504764
 21
1128.1607999344
 31
0.0
  0
LINE
  5
287
330
1F
100
AcDbEntity
  8
0
  6
Continuous
 62
     7
370
    25
100
AcDbLine
 10
1126.9321504764
 20
1128.1607999344
 30
0.0
 11
1125.7321504764
 21
1128.1607999344
 31
0.0
  0
LINE
  5
288
330
1F
100
AcDbEntity
  8
0
  6
Continuous
 62
     7
370
    25
100
AcDbLine
 10
1125.7321504764
 20
880.9011397323
 30
0.0
 11
1125.7321504764
 21
869.4165949099
 31
0.0
  0
LINE
  5
289
330
1F
100
AcDbEntity
  8
0
  6
Continuous
 62
     7
370
    25
100
AcDbLine
 10
1126.9321504764
 20
880.9011397323
 30
0.0
 11
1126.9321504764
 21
869.4165949099
 31
0.0
  0
LINE
  5
28A
330
1F
100
AcDbEntity
  8
0
  6
Continuous
 62
     7
370
    25
100
AcDbLine
 10
1125.7321504764
 20
881.5288237407
 30
0.0
 11
1125.7321504764
 21
880.9011397323
 31
0.0
  0
LINE
  5
28B
330
1F
100
AcDbEntity
  8
0
  6
Continuous
 62
     7
370
    25
100
AcDbLine
 10
1126.9321504764
 20
881.5288237407
 30
0.0
 11
1126.9321504764
 21
880.9011397323
 31
0.0
  0
LINE
  5
28C
330
1F
100
AcDbEntity
  8
0
  6
Continuous
 62
     7
370
    25
100
AcDbLine
 10
682.4521504764
 20
881.5288237407
 30
0.0
 11
682.4521504764
 21
880.9011397323
 31
0.0
  0
LINE
  5
28D
330
1F
100
AcDbEntity
  8
0
  6
Continuous
 62
     7
370
    25
100
AcDbLine
 10
683.6521504764
 20
880.9011397323
 30
0.0
 11
683.6521504764
 21
881.5288237407
 31
0.0
  0
LINE
  5
28E
330
1F
100
AcDbEntity
  8
0
  6
Continuous
 62
     7
370
    25
100
AcDbLine
 10
682.4521504764
 20
869.4165949099
 30
0.0
 11
682.4521504764
 21
880.9011397323
 31
0.0
  0
LINE
  5
28F
330
1F
100
AcDbEntity
  8
0
  6
Continuous
 62
     7
370
    25
100
AcDbLine
 10
683.6521504764
 20
869.4165949099
 30
0.0
 11
683.6521504764
 21
880.9011397323
 31
0.0
  0
ARC
  5
290
330
1F
100
AcDbEntity
  8
0
  6
Continuous
 62
     7
370
    25
100
AcDbCircle
 10
680.4521504764
 20
869.4165949099
 30
0.0
 40
3.200000000000159
100
AcDbArc
 50
270.0
 51
0.0
  0
ARC
  5
291
330
1F
100
AcDbEntity
  8
0
  6
Continuous
 62
     7
370
    25
100
AcDbCircle
 10
680.4521504764
 20
869.4165949099
 30
0.0
 40
2.000000000000114
100
AcDbArc
 50
270.0
 51
0.0
  0
LINE
  5
292
330
1F
100
AcDbEntity
  8
0
  6
Continuous
 62
     7
370
    25
100
AcDbLine
 10
666.9671504764
 20
867.4165949099
 30
0.0
 11
680.4521504764
 21
867.4165949099
 31
0.0
  0
LINE
  5
293
330
1F
100
AcDbEntity
  8
0
  6
Continuous
 62
     7
370
    25
100
AcDbLine
 10
666.9671504764
 20
866.2165949099
 30
0.0
 11
680.4521504764
 21
866.2165949099
 31
0.0
  0
LINE
  5
294
330
1F
100
AcDbEntity
  8
0
  6
Continuous
 62
     7
370
    25
100
AcDbLine
 10
663.7921504764
 20
866.2165949099
 30
0.0
 11
663.7921504764
 21
867.4165949099
 31
0.0
  0
LINE
  5
295
330
1F
100
AcDbEntity
  8
0
  6
Continuous
 62
     7
370
    25
100
AcDbLine
 10
663.7921504764
 20
866.2165949099
 30
0.0
 11
666.9671504764
 21
866.2165949099
 31
0.0
  0
LINE
  5
296
330
1F
100
AcDbEntity
  8
0
  6
Continuous
 62
     7
370
    25
100
AcDbLine
 10
663.7921504764
 20
867.4165949099
 30
0.0
 11
666.9671504764
 21
867.4165949099
 31
0.0
  0
LINE
  5
297
330
1F
100
AcDbEntity
  8
0
  6
Continuous
 62
     7
370
    25
100
AcDbLine
 10
1128.9321504764
 20
866.2165949099
 30
0.0
 11
1142.4171504764
 21
866.2165949099
 31
0.0
  0
LINE
  5
298
330
1F
100
AcDbEntity
  8
0
  6
Continuous
 62
     7
370
    25
100
AcDbLine
 10
1128.9321504764
 20
867.4165949099
 30
0.0
 11
1142.4171504764
 21
867.4165949099
 31
0.0
  0
ARC
  5
299
330
1F
100
AcDbEntity
  8
0
  6
Continuous
 62
     7
370
    25
100
AcDbCircle
 10
1128.9321504764
 20
869.4165949099
 30
0.0
 40
3.200000000000045
100
AcDbArc
 50
180.0
 51
270.0
  0
ARC
  5
29A
330
1F
100
AcDbEntity
  8
0
  6
Continuous
 62
     7
370
    25
100
AcDbCircle
 10
1128.9321504764
 20
869.4165949099
 30
0.0
 40
2.000000000000114
100
AcDbArc
 50
180.0
 51
270.0
  0
LINE
  5
29B
330
1F
100
AcDbEntity
  8
0
  6
Continuous
 62
     7
370
    25
100
AcDbLine
 10
1145.5921504764
 20
866.2165949099
 30
0.0
 11
1145.5921504764
 21
867.4165949099
 31
0.0
  0
LINE
  5
29C
330
1F
100
AcDbEntity
  8
0
  6
Continuous
 62
     7
370
    25
100
AcDbLine
 10
1142.4171504764
 20
866.2165949099
 30
0.0
 11
1145.5921504764
 21
866.2165949099
 31
0.0
  0
LINE
  5
29D
330
1F
100
AcDbEntity
  8
0
  6
Continuous
 62
     7
370
    25
100
AcDbLine
 10
1142.4171504764
 20
867.4165949099
 30
0.0
 11
1145.5921504764
 21
867.4165949099
 31
0.0
  0
LINE
  5
29E
330
1F
100
AcDbEntity
  8
0
  6
Continuous
 62
     7
370
    25
100
AcDbLine
 10
1125.7321504764
 20
1124.4442789183
 30
0.0
 11
1125.7321504764
 21
881.5288237407
 31
0.0
  0
LINE
  5
29F
330
1F
100
AcDbEntity
  8
0
  6
Continuous
 62
     7
370
    25
100
AcDbLine
 10
1126.9321504764
 20
1124.4442789183
 30
0.0
 11
1126.9321504764
 21
881.5288237407
 31
0.0
  0
LINE
  5
2A0
330
1F
100
AcDbEntity
  8
0
  6
Continuous
 62
     7
370
    25
100
AcDbLine
 10
682.4521504764
 20
1124.4442789183
 30
0.0
 11
682.4521504764
 21
881.5288237407
 31
0.0
  0
LINE
  5
2A1
330
1F
100
AcDbEntity
  8
0
  6
Continuous
 62
     7
370
    25
100
AcDbLine
 10
683.6521504764
 20
881.5288237407
 30
0.0
 11
683.6521504764
 21
1124.4442789183
 31
0.0
  0
LINE
  5
2A2
330
1F
100
AcDbEntity
  8
0
  6
Continuous
 62
     7
370
    25
100
AcDbLine
 10
1125.7321504764
 20
1128.0412392726
 30
0.0
 11
1125.7321504764
 21
1124.4442789183
 31
0.0
  0
LINE
  5
2A3
330
1F
100
AcDbEntity
  8
0
  6
Continuous
 62
     7
370
    25
100
AcDbLine
 10
1126.9321504764
 20
1128.0412392726
 30
0.0
 11
1126.9321504764
 21
1124.4442789183
 31
0.0
  0
LINE
  5
2A4
330
1F
100
AcDbEntity
  8
0
  6
Continuous
 62
     7
370
    25
100
AcDbLine
 10
682.4521504764
 20
1128.0412392726
 30
0.0
 11
682.4521504764
 21
1124.4442789183
 31
0.0
  0
LINE
  5
2A5
330
1F
100
AcDbEntity
  8
0
  6
Continuous
 62
     7
370
    25
100
AcDbLine
 10
683.6521504764
 20
1124.4442789183
 30
0.0
 11
683.6521504764
 21
1128.0412392726
 31
0.0
  0
LINE
  5
2A6
330
1F
100
AcDbEntity
  8
0
  6
Continuous
 62
     7
370
    25
100
AcDbLine
 10
1125.3521504764
 20
1119.8165949099
 30
0.0
 11
684.0321504764
 21
1119.8165949099
 31
0.0
  0
LINE
  5
2A7
330
1F
100
AcDbEntity
  8
0
  6
Continuous
 62
     7
370
    25
100
AcDbLine
 10
684.0321504764
 20
1119.8165949099
 30
0.0
 11
684.0321504764
 21
1128.2165949099
 31
0.0
  0
LINE
  5
2A8
330
1F
100
AcDbEntity
  8
0
  6
Continuous
 62
     7
370
    25
100
AcDbLine
 10
1125.3521504764
 20
1128.2165949099
 30
0.0
 11
1125.3521504764
 21
1119.8165949099
 31
0.0
  0
LINE
  5
2A9
330
1F
100
AcDbEntity
  8
0
  6
Continuous
 62
     7
370
    25
100
AcDbLine
 10
682.4521504764
 20
1128.0412392726
 30
0.0
 11
682.4521504764
 21
1128.1607999344
 31
0.0
  0
LINE
  5
2AA
330
1F
100
AcDbEntity
  8
0
  6
Continuous
 62
     7
370
    25
100
AcDbLine
 10
683.6521504764
 20
1128.1607999344
 30
0.0
 11
683.6521504764
 21
1128.0412392726
 31
0.0
  0
LINE
  5
2AB
330
1F
100
AcDbEntity
  8
0
  6
Continuous
 62
     7
370
    25
100
AcDbLine
 10
1125.7321504764
 20
1128.0412392726
 30
0.0
 11
1125.7321504764
 21
1128.1607999344
 31
0.0
  0
LINE
  5
2AC
330
1F
100
AcDbEntity
  8
0
  6
Continuous
 62
     7
370
    25
100
AcDbLine
 10
1126.9321504764
 20
1128.1607999344
 30
0.0
 11
1126.9321504764
 21
1128.0412392726
 31
0.0
  0
SPLINE
  5
2AD
330
1F
100
AcDbEntity
  8
0
  6
Continuous
 62
     7
370
    25
100
AcDbSpline
210
0.0
220
0.0
230
1.0
 70
     8
 71
     3
 72
    12
 73
     8
 74
     0
 42
0.00000001
 43
0.00000001
 40
0.0
 40
0.0
 40
0.0
 40
0.0
 40
0.5000000000000004
 40
0.5000000000000004
 40
0.7500000000000002
 40
0.7500000000000002
 40
1.0
 40
1.0
 40
1.0
 40
1.0
 10
1125.732150476351
 20
1124.316594909866
 30
0.0
 10
1125.732150476352
 20
1124.230003477885
 30
0.0
 10
1125.735630782871
 20
1124.145068814362
 30
0.0
 10
1125.709064595534
 20
1124.062953322044
 30
0.0
 10
1125.694041282465
 20
1124.043230582558
 30
0.0
 10
1125.648798822674
 20
1124.020123790769
 30
0.0
 10
1125.619568842047
 20
1124.016594909866
 30
0.0
 10
1125.585388552145
 20
1124.016594909866
 30
0.0
  0
LINE
  5
2AE
330
1F
100
AcDbEntity
  8
0
  6
Continuous
 62
     7
370
    25
100
AcDbLine
 10
1125.3521504764
 20
1124.0165949099
 30
0.0
 11
1125.5853885521
 21
1124.0165949099
 31
0.0
  0
LINE
  5
2AF
330
1F
100
AcDbEntity
  8
0
  6
Continuous
 62
     7
370
    25
100
AcDbLine
 10
1125.3521504764
 20
869.4165949099
 30
0.0
 11
1125.7321504764
 21
869.4165949099
 31
0.0
  0
LINE
  5
2B0
330
1F
100
AcDbEntity
  8
0
  6
Continuous
 62
     7
370
    25
100
AcDbLine
 10
683.6521504764
 20
869.4165949099
 30
0.0
 11
684.0321504764
 21
869.4165949099
 31
0.0
  0
SPLINE
  5
2B1
330
1F
100
AcDbEntity
  8
0
  6
Continuous
 62
     7
370
    25
100
AcDbSpline
210
0.0
220
0.0
230
1.0
 70
     8
 71
     3
 72
    12
 73
     8
 74
     0
 42
0.00000001
 43
0.00000001
 40
0.0
 40
0.0
 40
0.0
 40
0.0
 40
0.2499999999999743
 40
0.2499999999999743
 40
0.4999999999999486
 40
0.4999999999999486
 40
1.0
 40
1.0
 40
1.0
 40
1.0
 10
683.7989124005575
 20
1124.016594909866
 30
0.0
 10
683.7647838110917
 20
1124.016594909866
 30
0.0
 10
683.7355174840288
 20
1124.020207006184
 30
0.0
 10
683.6907943871015
 20
1124.04286754283
 30
0.0
 10
683.6755191610206
 20
1124.062409426375
 30
0.0
 10
683.6486242129158
 20
1124.144559890302
 30
0.0
 10
683.6521504763514
 20
1124.230000587479
 30
0.0
 10
683.6521504763514
 20
1124.316594909866
 30
0.0
  0
LINE
  5
2B2
330
1F
100
AcDbEntity
  8
0
  6
Continuous
 62
     7
370
    25
100
AcDbLine
 10
683.7989124006
 20
1124.0165949099
 30
0.0
 11
684.0321504764
 21
1124.0165949099
 31
0.0
  0
CIRCLE
  5
2B3
330
1F
100
AcDbEntity
  8
0
  6
Continuous
 62
     7
370
    25
100
AcDbCircle
 10
1114.8421504764
 20
876.3915949099
 30
0.0
 40
2.149999999999977
  0
CIRCLE
  5
2B4
330
1F
100
AcDbEntity
  8
0
  6
Continuous
 62
     7
370
    25
100
AcDbCircle
 10
1004.7421504764
 20
876.3915949099
 30
0.0
 40
2.149999999999977
  0
CIRCLE
  5
2B5
330
1F
100
AcDbEntity
  8
0
  6
Continuous
 62
     7
370
    25
100
AcDbCircle
 10
1024.8421504764
 20
1109.0415949099
 30
0.0
 40
2.150000000000091
  0
CIRCLE
  5
2B6
330
1F
100
AcDbEntity
  8
0
  6
Continuous
 62
     7
370
    25
100
AcDbCircle
 10
914.7421504764
 20
1109.0415949099
 30
0.0
 40
2.150000000000091
  0
CIRCLE
  5
2B7
330
1F
100
AcDbEntity
  8
0
  6
Continuous
 62
     7
370
    25
100
AcDbCircle
 10
1114.8421504764
 20
1109.0415949099
 30
0.0
 40
2.150000000000091
  0
CIRCLE
  5
2B8
330
1F
100
AcDbEntity
  8
0
  6
Continuous
 62
     7
370
    25
100
AcDbCircle
 10
1004.7421504764
 20
1109.0415949099
 30
0.0
 40
2.150000000000091
  0
CIRCLE
  5
2B9
330
1F
100
AcDbEntity
  8
0
  6
Continuous
 62
     7
370
    25
100
AcDbCircle
 10
1060.1421504764
 20
1016.6415949099
 30
0.0
 40
2.149999999999977
  0
CIRCLE
  5
2BA
330
1F
100
AcDbEntity
  8
0
  6
Continuous
 62
     7
370
    25
100
AcDbCircle
 10
950.0421504764
 20
1016.6415949099
 30
0.0
 40
2.149999999999977
  0
CIRCLE
  5
2BB
330
1F
100
AcDbEntity
  8
0
  6
Continuous
 62
     7
370
    25
100
AcDbCircle
 10
1060.1421504764
 20
1092.5415949099
 30
0.0
 40
2.150000000000091
  0
CIRCLE
  5
2BC
330
1F
100
AcDbEntity
  8
0
  6
Continuous
 62
     7
370
    25
100
AcDbCircle
 10
950.0421504764
 20
1092.5415949099
 30
0.0
 40
2.150000000000091
  0
CIRCLE
  5
2BD
330
1F
100
AcDbEntity
  8
0
  6
Continuous
 62
     7
370
    25
100
AcDbCircle
 10
1024.8421504764
 20
876.3915949099
 30
0.0
 40
2.149999999999977
  0
CIRCLE
  5
2BE
330
1F
100
AcDbEntity
  8
0
  6
Continuous
 62
     7
370
    25
100
AcDbCircle
 10
914.7421504764
 20
876.3915949099
 30
0.0
 40
2.149999999999977
  0
LINE
  5
2BF
330
1F
100
AcDbEntity
  8
0
  6
Continuous
 62
     7
370
    25
100
AcDbLine
 10
684.0321504764
 20
869.4165949099
 30
0.0
 11
1125.3521504764
 21
869.4165949099
 31
0.0
  0
CIRCLE
  5
2C0
330
1F
100
AcDbEntity
  8
0
  6
Continuous
 62
     7
370
    25
100
AcDbCircle
 10
729.8421504764
 20
1092.5415949099
 30
0.0
 40
2.150000000000091
  0
CIRCLE
  5
2C1
330
1F
100
AcDbEntity
  8
0
  6
Continuous
 62
     7
370
    25
100
AcDbCircle
 10
729.8421504764
 20
1016.6415949099
 30
0.0
 40
2.149999999999977
  0
CIRCLE
  5
2C2
330
1F
100
AcDbEntity
  8
0
  6
Continuous
 62
     7
370
    25
100
AcDbCircle
 10
784.5421504764
 20
1109.0415949099
 30
0.0
 40
2.150000000000091
  0
CIRCLE
  5
2C3
330
1F
100
AcDbEntity
  8
0
  6
Continuous
 62
     7
370
    25
100
AcDbCircle
 10
694.5421504764
 20
1109.0415949099
 30
0.0
 40
2.150000000000091
  0
CIRCLE
  5
2C4
330
1F
100
AcDbEntity
  8
0
  6
Continuous
 62
     7
370
    25
100
AcDbCircle
 10
784.5421504764
 20
876.3915949099
 30
0.0
 40
2.149999999999977
  0
CIRCLE
  5
2C5
330
1F
100
AcDbEntity
  8
0
  6
Continuous
 62
     7
370
    25
100
AcDbCircle
 10
694.5421504764
 20
876.3915949099
 30
0.0
 40
2.149999999999977
  0
CIRCLE
  5
2C6
330
1F
100
AcDbEntity
  8
0
  6
Continuous
 62
     7
370
    25
100
AcDbCircle
 10
729.8421504764
 20
1101.0415949099
 30
0.0
 40
1.649999999999864
  0
CIRCLE
  5
2C7
330
1F
100
AcDbEntity
  8
0
  6
Continuous
 62
     7
370
    25
100
AcDbCircle
 10
729.8421504764
 20
1025.1415949099
 30
0.0
 40
1.649999999999864
  0
CIRCLE
  5
2C8
330
1F
100
AcDbEntity
  8
0
  6
Continuous
 62
     7
370
    25
100
AcDbCircle
 10
804.6421504764
 20
876.3915949099
 30
0.0
 40
2.149999999999977
  0
CIRCLE
  5
2C9
330
1F
100
AcDbEntity
  8
0
  6
Continuous
 62
     7
370
    25
100
AcDbCircle
 10
839.9421504764
 20
1092.5415949099
 30
0.0
 40
2.150000000000091
  0
CIRCLE
  5
2CA
330
1F
100
AcDbEntity
  8
0
  6
Continuous
 62
     7
370
    25
100
AcDbCircle
 10
839.9421504764
 20
1016.6415949099
 30
0.0
 40
2.149999999999977
  0
CIRCLE
  5
2CB
330
1F
100
AcDbEntity
  8
0
  6
Continuous
 62
     7
370
    25
100
AcDbCircle
 10
894.6421504764
 20
1109.0415949099
 30
0.0
 40
2.150000000000091
  0
CIRCLE
  5
2CC
330
1F
100
AcDbEntity
  8
0
  6
Continuous
 62
     7
370
    25
100
AcDbCircle
 10
804.6421504764
 20
1109.0415949099
 30
0.0
 40
2.150000000000091
  0
CIRCLE
  5
2CD
330
1F
100
AcDbEntity
  8
0
  6
Continuous
 62
     7
370
    25
100
AcDbCircle
 10
894.6421504764
 20
876.3915949099
 30
0.0
 40
2.149999999999977
  0
CIRCLE
  5
2CE
330
1F
100
AcDbEntity
  8
0
  6
Continuous
 62
     7
370
    25
100
AcDbCircle
 10
839.9421504764
 20
1025.1415949099
 30
0.0
 40
1.649999999999864
  0
CIRCLE
  5
2CF
330
1F
100
AcDbEntity
  8
0
  6
Continuous
 62
     7
370
    25
100
AcDbCircle
 10
1060.1421504764
 20
1101.0415949099
 30
0.0
 40
1.649999999999864
  0
CIRCLE
  5
2D0
330
1F
100
AcDbEntity
  8
0
  6
Continuous
 62
     7
370
    25
100
AcDbCircle
 10
839.9421504764
 20
1101.0415949099
 30
0.0
 40
1.649999999999864
  0
CIRCLE
  5
2D1
330
1F
100
AcDbEntity
  8
0
  6
Continuous
 62
     7
370
    25
100
AcDbCircle
 10
950.0421504764
 20
1025.1415949099
 30
0.0
 40
1.649999999999864
  0
CIRCLE
  5
2D2
330
1F
100
AcDbEntity
  8
0
  6
Continuous
 62
     7
370
    25
100
AcDbCircle
 10
950.0421504764
 20
1101.0415949099
 30
0.0
 40
1.649999999999864
  0
CIRCLE
  5
2D3
330
1F
100
AcDbEntity
  8
0
  6
Continuous
 62
     7
370
    25
100
AcDbCircle
 10
1060.1421504764
 20
1025.1415949099
 30
0.0
 40
1.649999999999864
  0
LINE
  5
2D4
330
1F
100
AcDbEntity
  8
SLD-0
 62
     7
100
AcDbLine
 10
904.6921504764
 20
854.2397724934
 30
0.0
 11
904.6921504764
 21
1143.7736581573
 31
0.0
  0
DIMENSION
  5
2D5
330
1F
100
AcDbEntity
  8
SLD-0
 62
     7
100
AcDbDimension
  2
_D
 10
1195.5921504764
 20
866.2165949099
 30
0.0
 11
1195.5921504764
 21
1006.7313453197
 31
0.0
 70
   160
  1
<>
 71
     2
 42
-1.0
  3
SLDDIMSTYLE0
100
AcDbAlignedDimension
 13
1125.3521504764
 23
1128.2165949099
 33
0.0
 14
1145.5921504764
 24
866.2165949099
 34
0.0
 50
90.0
100
AcDbRotatedDimension
  0
DIMENSION
  5
2E1
330
1F
100
AcDbEntity
  8
SLD-0
 62
     7
100
AcDbDimension
  2
_D_1
 10
1145.5921504764
 20
816.2165949099
 30
0.0
 11
908.0278019417
 21
816.2165949099
 31
0.0
 70
   160
  1
<>
 71
     2
 42
-1.0
  3
SLDDIMSTYLE1
100
AcDbAlignedDimension
 13
663.7921504764
 23
866.2165949099
 33
0.0
 14
1145.5921504764
 24
866.2165949099
 34
0.0
100
AcDbRotatedDimension
  0
DIMENSION
  5
2ED
330
1F
100
AcDbEntity
  8
SLD-0
 62
     7
100
AcDbDimension
  2
_D_2
 10
1126.9321504764
 20
1178.2165949099
 30
0.0
 11
908.0278019417
 21
1178.2165949099
 31
0.0
 70
   160
  1
<>
 71
     2
 42
-1.0
  3
SLDDIMSTYLE1
100
AcDbAlignedDimension
 13
682.4521504764
 23
1128.0412392726
 33
0.0
 14
1126.9321504764
 24
1124.4442789183
 34
0.0
100
AcDbRotatedDimension
  0
INSERT
  5
2FD
330
1F
100
AcDbEntity
  8
SLD-0
 62
     7
100
AcDbBlockReference
  2
SW_SYMBOL_MOD_CL
 10
895.6029685607
 20
837.4089398523
 30
0.0
 41
0.0030416748
 42
0.0030416748
 43
0.0030416748
  0
LINE
  5
2FE
330
1F
100
AcDbEntity
  8
0
  6
Continuous
 62
     7
370
    25
100
AcDbLine
 10
1125.3521504764
 20
546.5872060536
 30
0.0
 11
684.0321504764
 21
546.5872060536
 31
0.0
  0
ARC
  5
2FF
330
1F
100
AcDbEntity
  8
0
  6
Continuous
 62
     7
370
    25
100
AcDbCircle
 10
1128.5321504764
 20
539.2672060536
 30
0.0
 40
0.5000000000006821
100
AcDbArc
 50
0.0
 51
36.869897646
  0
LINE
  5
300
330
1F
100
AcDbEntity
  8
0
  6
Continuous
 62
     7
370
    25
100
AcDbLine
 10
1128.9321504764
 20
581.7872060535
 30
0.0
 11
1142.4171504764
 21
581.7872060535
 31
0.0
  0
ARC
  5
301
330
1F
100
AcDbEntity
  8
0
  6
Continuous
 62
     7
370
    25
100
AcDbCircle
 10
1142.4171504764
 20
578.6122060535
 30
0.0
 40
3.174999999999955
100
AcDbArc
 50
0.0
 51
90.0
  0
LINE
  5
302
330
1F
100
AcDbEntity
  8
0
  6
Continuous
 62
     7
370
    25
100
AcDbLine
 10
1145.5921504764
 20
578.6122060535
 30
0.0
 11
1145.5921504764
 21
541.3622060535
 31
0.0
  0
ARC
  5
303
330
1F
100
AcDbEntity
  8
0
  6
Continuous
 62
     7
370
    25
100
AcDbCircle
 10
1142.4171504764
 20
541.3622060535
 30
0.0
 40
3.174999999999955
100
AcDbArc
 50
270.0
 51
0.0
  0
ARC
  5
304
330
1F
100
AcDbEntity
  8
0
  6
Continuous
 62
     7
370
    25
100
AcDbCircle
 10
1129.5321504764
 20
538.6872060535
 30
0.0
 40
0.5
100
AcDbArc
 50
180.0
 51
270.0
  0
LINE
  5
305
330
1F
100
AcDbEntity
  8
0
  6
Continuous
 62
     7
370
    25
100
AcDbLine
 10
1129.0321504764
 20
538.6872060535
 30
0.0
 11
1129.0321504764
 21
539.2672060536
 31
0.0
  0
ARC
  5
306
330
1F
100
AcDbEntity
  8
0
  6
Continuous
 62
     7
370
    25
100
AcDbCircle
 10
1138.9941504764
 20
544.1122060535
 30
0.0
 40
3.400000000000091
100
AcDbArc
 50
270.0
 51
90.0
  0
LINE
  5
307
330
1F
100
AcDbEntity
  8
0
  6
Continuous
 62
     7
370
    25
100
AcDbLine
 10
1135.4941504764
 20
547.5122060535
 30
0.0
 11
1138.9941504764
 21
547.5122060535
 31
0.0
  0
ARC
  5
308
330
1F
100
AcDbEntity
  8
0
  6
Continuous
 62
     7
370
    25
100
AcDbCircle
 10
1135.4941504764
 20
544.1122060535
 30
0.0
 40
3.400000000000091
100
AcDbArc
 50
90.0
 51
270.0
  0
LINE
  5
309
330
1F
100
AcDbEntity
  8
0
  6
Continuous
 62
     7
370
    25
100
AcDbLine
 10
1138.9941504764
 20
540.7122060535
 30
0.0
 11
1135.4941504764
 21
540.7122060535
 31
0.0
  0
ARC
  5
30A
330
1F
100
AcDbEntity
  8
0
  6
Continuous
 62
     7
370
    25
100
AcDbCircle
 10
1138.9941504764
 20
575.8622060535
 30
0.0
 40
3.400000000000091
100
AcDbArc
 50
270.0
 51
90.0
  0
LINE
  5
30B
330
1F
100
AcDbEntity
  8
0
  6
Continuous
 62
     7
370
    25
100
AcDbLine
 10
1135.4941504764
 20
579.2622060535
 30
0.0
 11
1138.9941504764
 21
579.2622060535
 31
0.0
  0
ARC
  5
30C
330
1F
100
AcDbEntity
  8
0
  6
Continuous
 62
     7
370
    25
100
AcDbCircle
 10
1135.4941504764
 20
575.8622060535
 30
0.0
 40
3.400000000000091
100
AcDbArc
 50
90.0
 51
270.0
  0
LINE
  5
30D
330
1F
100
AcDbEntity
  8
0
  6
Continuous
 62
     7
370
    25
100
AcDbLine
 10
1138.9941504764
 20
572.4622060535
 30
0.0
 11
1135.4941504764
 21
572.4622060535
 31
0.0
  0
LINE
  5
30E
330
1F
100
AcDbEntity
  8
0
  6
Continuous
 62
     7
370
    25
100
AcDbLine
 10
1142.4171504764
 20
538.1872060535
 30
0.0
 11
1129.5321504764
 21
538.1872060535
 31
0.0
  0
ARC
  5
30F
330
1F
100
AcDbEntity
  8
0
  6
Continuous
 62
     7
370
    25
100
AcDbCircle
 10
666.9671504764
 20
578.6122060536
 30
0.0
 40
3.175000000000068
100
AcDbArc
 50
90.0
 51
180.0
  0
ARC
  5
310
330
1F
100
AcDbEntity
  8
0
  6
Continuous
 62
     7
370
    25
100
AcDbCircle
 10
680.8521504764
 20
539.2672060536
 30
0.0
 40
0.500000000000773
100
AcDbArc
 50
143.130102354
 51
180.0
  0
LINE
  5
311
330
1F
100
AcDbEntity
  8
0
  6
Continuous
 62
     7
370
    25
100
AcDbLine
 10
680.3521504764
 20
539.2672060536
 30
0.0
 11
680.3521504764
 21
538.6872060536
 31
0.0
  0
ARC
  5
312
330
1F
100
AcDbEntity
  8
0
  6
Continuous
 62
     7
370
    25
100
AcDbCircle
 10
679.8521504764
 20
538.6872060536
 30
0.0
 40
0.5
100
AcDbArc
 50
270.0
 51
0.0
  0
ARC
  5
313
330
1F
100
AcDbEntity
  8
0
  6
Continuous
 62
     7
370
    25
100
AcDbCircle
 10
673.8901504764
 20
544.1122060536
 30
0.0
 40
3.400000000000091
100
AcDbArc
 50
270.0
 51
90.0
  0
ARC
  5
314
330
1F
100
AcDbEntity
  8
0
  6
Continuous
 62
     7
370
    25
100
AcDbCircle
 10
673.8901504764
 20
575.8622060536
 30
0.0
 40
3.399999999999977
100
AcDbArc
 50
270.0
 51
90.0
  0
LINE
  5
315
330
1F
100
AcDbEntity
  8
0
  6
Continuous
 62
     7
370
    25
100
AcDbLine
 10
670.3901504764
 20
547.5122060536
 30
0.0
 11
673.8901504764
 21
547.5122060536
 31
0.0
  0
ARC
  5
316
330
1F
100
AcDbEntity
  8
0
  6
Continuous
 62
     7
370
    25
100
AcDbCircle
 10
670.3901504764
 20
575.8622060536
 30
0.0
 40
3.399999999999977
100
AcDbArc
 50
90.0
 51
270.0
  0
LINE
  5
317
330
1F
100
AcDbEntity
  8
0
  6
Continuous
 62
     7
370
    25
100
AcDbLine
 10
673.8901504764
 20
540.7122060536
 30
0.0
 11
670.3901504764
 21
540.7122060536
 31
0.0
  0
LINE
  5
318
330
1F
100
AcDbEntity
  8
0
  6
Continuous
 62
     7
370
    25
100
AcDbLine
 10
666.9671504764
 20
581.7872060536
 30
0.0
 11
680.4521504764
 21
581.7872060536
 31
0.0
  0
LINE
  5
319
330
1F
100
AcDbEntity
  8
0
  6
Continuous
 62
     7
370
    25
100
AcDbLine
 10
670.3901504764
 20
579.2622060536
 30
0.0
 11
673.8901504764
 21
579.2622060536
 31
0.0
  0
ARC
  5
31A
330
1F
100
AcDbEntity
  8
0
  6
Continuous
 62
     7
370
    25
100
AcDbCircle
 10
670.3901504764
 20
544.1122060536
 30
0.0
 40
3.400000000000091
100
AcDbArc
 50
90.0
 51
270.0
  0
LINE
  5
31B
330
1F
100
AcDbEntity
  8
0
  6
Continuous
 62
     7
370
    25
100
AcDbLine
 10
673.8901504764
 20
572.4622060536
 30
0.0
 11
670.3901504764
 21
572.4622060536
 31
0.0
  0
LINE
  5
31C
330
1F
100
AcDbEntity
  8
0
  6
Continuous
 62
     7
370
    25
100
AcDbLine
 10
679.8521504764
 20
538.1872060536
 30
0.0
 11
666.9671504764
 21
538.1872060536
 31
0.0
  0
ARC
  5
31D
330
1F
100
AcDbEntity
  8
0
  6
Continuous
 62
     7
370
    25
100
AcDbCircle
 10
666.9671504764
 20
541.3622060536
 30
0.0
 40
3.174999999999955
100
AcDbArc
 50
180.0
 51
270.0
  0
LINE
  5
31E
330
1F
100
AcDbEntity
  8
0
  6
Continuous
 62
     7
370
    25
100
AcDbLine
 10
663.7921504764
 20
541.3622060536
 30
0.0
 11
663.7921504764
 21
578.6122060536
 31
0.0
  0
LINE
  5
31F
330
1F
100
AcDbEntity
  8
0
  6
Continuous
 62
     7
370
    25
100
AcDbLine
 10
683.6521504764
 20
539.7672060536
 30
0.0
 11
680.8521504764
 21
539.7672060536
 31
0.0
  0
LINE
  5
320
330
1F
100
AcDbEntity
  8
0
  6
Continuous
 62
     7
370
    25
100
AcDbLine
 10
680.4521504764
 20
581.7872060536
 30
0.0
 11
683.6521504764
 21
581.7872060536
 31
0.0
  0
LINE
  5
321
330
1F
100
AcDbEntity
  8
0
  6
Continuous
 62
     7
370
    25
100
AcDbLine
 10
683.6521504764
 20
539.7672060536
 30
0.0
 11
683.6521504764
 21
581.7872060536
 31
0.0
  0
SPLINE
  5
322
330
1F
100
AcDbEntity
  8
0
  6
Continuous
 62
     7
370
    25
100
AcDbSpline
210
0.0
220
0.0
230
1.0
 70
     8
 71
     3
 72
     8
 73
     4
 74
     0
 42
0.00000001
 43
0.00000001
 40
0.0
 40
0.0
 40
0.0
 40
0.0
 40
1.0
 40
1.0
 40
1.0
 40
1.0
 10
680.4521504763513
 20
539.5672060535522
 30
0.0
 10
680.5458692453167
 20
539.6921644121721
 30
0.0
 10
680.6971777592895
 20
539.7672060535509
 30
0.0
 10
680.8521504763513
 20
539.7672060535509
 30
0.0
  0
LINE
  5
323
330
1F
100
AcDbEntity
  8
0
  6
Continuous
 62
     7
370
    25
100
AcDbLine
 10
1125.7321504764
 20
581.7872060535
 30
0.0
 11
1128.9321504764
 21
581.7872060535
 31
0.0
  0
LINE
  5
324
330
1F
100
AcDbEntity
  8
0
  6
Continuous
 62
     7
370
    25
100
AcDbLine
 10
1128.5321504764
 20
539.7672060536
 30
0.0
 11
1125.7321504764
 21
539.7672060536
 31
0.0
  0
LINE
  5
325
330
1F
100
AcDbEntity
  8
0
  6
Continuous
 62
     7
370
    25
100
AcDbLine
 10
1125.7321504764
 20
581.7872060535
 30
0.0
 11
1125.7321504764
 21
539.7672060536
 31
0.0
  0
SPLINE
  5
326
330
1F
100
AcDbEntity
  8
0
  6
Continuous
 62
     7
370
    25
100
AcDbSpline
210
0.0
220
0.0
230
1.0
 70
     8
 71
     3
 72
     8
 73
     4
 74
     0
 42
0.00000001
 43
0.00000001
 40
0.0
 40
0.0
 40
0.0
 40
0.0
 40
1.0
 40
1.0
 40
1.0
 40
1.0
 10
1128.532150476351
 20
539.767206053551
 30
0.0
 10
1128.687117014403
 20
539.767206053551
 30
0.0
 10
1128.838429848693
 20
539.6921668904282
 30
0.0
 10
1128.932150476351
 20
539.5672060535516
 30
0.0
  0
ARC
  5
327
330
1F
100
AcDbEntity
  8
0
  6
Continuous
 62
     7
370
    25
100
AcDbCircle
 10
1125.3521504764
 20
539.7672060536
 30
0.0
 40
0.3800000000001091
100
AcDbArc
 50
270.0
 51
0.0
  0
ARC
  5
328
330
1F
100
AcDbEntity
  8
0
  6
Continuous
 62
     7
370
    25
100
AcDbCircle
 10
1125.3521504764
 20
539.7672060536
 30
0.0
 40
1.580000000000041
100
AcDbArc
 50
270.0
 51
0.0
  0
LINE
  5
329
330
1F
100
AcDbEntity
  8
0
  6
Continuous
 62
     7
370
    25
100
AcDbLine
 10
684.0321504764
 20
539.3872060536
 30
0.0
 11
1125.3521504764
 21
539.3872060536
 31
0.0
  0
LINE
  5
32A
330
1F
100
AcDbEntity
  8
0
  6
Continuous
 62
     7
370
    25
100
AcDbLine
 10
684.0321504764
 20
538.1872060536
 30
0.0
 11
1125.3521504764
 21
538.1872060536
 31
0.0
  0
ARC
  5
32B
330
1F
100
AcDbEntity
  8
0
  6
Continuous
 62
     7
370
    25
100
AcDbCircle
 10
684.0321504764
 20
539.7672060536
 30
0.0
 40
0.3799999999999955
100
AcDbArc
 50
180.0
 51
270.0
  0
ARC
  5
32C
330
1F
100
AcDbEntity
  8
0
  6
Continuous
 62
     7
370
    25
100
AcDbCircle
 10
684.0321504764
 20
539.7672060536
 30
0.0
 40
1.580000000000041
100
AcDbArc
 50
180.0
 51
270.0
  0
LINE
  5
32D
330
1F
100
AcDbEntity
  8
0
  6
Continuous
 62
     7
370
    25
100
AcDbLine
 10
684.0321504764
 20
542.3872060536
 30
0.0
 11
684.0321504764
 21
546.5872060536
 31
0.0
  0
LINE
  5
32E
330
1F
100
AcDbEntity
  8
0
  6
Continuous
 62
     7
370
    25
100
AcDbLine
 10
1125.3521504764
 20
542.3872060536
 30
0.0
 11
684.0321504764
 21
542.3872060536
 31
0.0
  0
LINE
  5
32F
330
1F
100
AcDbEntity
  8
0
  6
Continuous
 62
     7
370
    25
100
AcDbLine
 10
1125.3521504764
 20
546.5872060536
 30
0.0
 11
1125.3521504764
 21
542.3872060536
 31
0.0
  0
LINE
  5
330
330
1F
100
AcDbEntity
  8
0
  6
Continuous
 62
     7
370
    25
100
AcDbLine
 10
684.0321504764
 20
542.3872060536
 30
0.0
 11
684.0321504764
 21
539.3872060536
 31
0.0
  0
LINE
  5
331
330
1F
100
AcDbEntity
  8
0
  6
Continuous
 62
     7
370
    25
100
AcDbLine
 10
1125.3521504764
 20
539.3872060536
 30
0.0
 11
1125.3521504764
 21
542.3872060536
 31
0.0
  0
LINE
  5
332
330
1F
100
AcDbEntity
  8
SLD-0
 62
     7
100
AcDbLine
 10
1137.2441504764
 20
579.2622060535
 30
0.0
 11
1137.2441504764
 21
572.4622060535
 31
0.0
  0
LINE
  5
333
330
1F
100
AcDbEntity
  8
SLD-0
 62
     7
100
AcDbLine
 10
904.6921504764
 20
563.2567227017
 30
0.0
 11
904.6921504764
 21
518.1122549363
 31
0.0
  0
LINE
  5
334
330
1F
100
AcDbEntity
  8
SLD-0
 62
     7
100
AcDbLine
 10
1132.0941504764
 20
575.8622060535
 30
0.0
 11
1142.3941504764
 21
575.8622060535
 31
0.0
  0
LINE
  5
335
330
1F
100
AcDbEntity
  8
SLD-0
 62
     7
100
AcDbLine
 10
1132.0941504764
 20
544.1122060535
 30
0.0
 11
1142.3941504764
 21
544.1122060535
 31
0.0
  0
LINE
  5
336
330
1F
100
AcDbEntity
  8
SLD-0
 62
     7
100
AcDbLine
 10
1137.2441504764
 20
547.5122060535
 30
0.0
 11
1137.2441504764
 21
540.7122060535
 31
0.0
  0
DIMENSION
  5
337
330
1F
100
AcDbEntity
  8
SLD-0
 62
     7
100
AcDbDimension
  2
_D_3
 10
1137.2441504764
 20
455.5776832294
 30
0.0
 11
905.8075984511
 21
455.5776832294
 31
0.0
 70
   160
  1
2X <>
 71
     2
 42
-1.0
  3
SLDDIMSTYLE1
100
AcDbAlignedDimension
 13
672.1401504764
 23
540.7122060536
 33
0.0
 14
1137.2441504764
 24
540.7122060535
 34
0.0
 50
0.0
100
AcDbRotatedDimension
  0
DIMENSION
  5
343
330
1F
100
AcDbEntity
  8
SLD-0
 62
     7
100
AcDbDimension
  2
_D_4
 10
1107.9696501324
 20
572.4622060536
 30
0.0
 11
1107.9696501324
 21
609.0894180439
 31
0.0
 70
   160
  1
4X <>
 71
     2
 42
-1.0
  3
SLDDIMSTYLE2
100
AcDbAlignedDimension
 13
1137.2441504764
 23
579.2622060535
 33
0.0
 14
1135.4941504764
 24
572.4622060535
 34
0.0
 50
90.0
100
AcDbRotatedDimension
  0
DIMENSION
  5
351
330
1F
100
AcDbEntity
  8
SLD-0
 62
     7
100
AcDbDimension
  2
_D_5
 10
1190.1152454217
 20
575.8622060535
 30
0.0
 11
1190.1152454217
 21
561.4530888428
 31
0.0
 70
   160
  1
2X <>
 71
     2
 42
-1.0
  3
SLDDIMSTYLE2
100
AcDbAlignedDimension
 13
1138.9941504764
 23
544.1122060535
 33
0.0
 14
1138.9941504764
 24
575.8622060535
 34
0.0
 50
90.0
100
AcDbRotatedDimension
  0
DIMENSION
  5
35D
330
1F
100
AcDbEntity
  8
SLD-0
 62
     7
100
AcDbDimension
  2
_D_6
 10
1138.9941504764
 20
636.7931012583
 30
0.0
 11
1073.4987347854
 21
636.7931012583
 31
0.0
 70
   160
  1
4X <>
 71
     2
 42
-1.0
  3
SLDDIMSTYLE2
100
AcDbAlignedDimension
 13
1135.4941504764
 23
575.8622060535
 33
0.0
 14
1138.9941504764
 24
575.8622060535
 34
0.0
 50
0.0
100
AcDbRotatedDimension
  0
INSERT
  5
369
330
1F
100
AcDbEntity
  8
SLD-0
 62
     7
100
AcDbBlockReference
  2
SW_SYMBOL_MOD_CL
 10
895.6393301058
 20
501.9591027649
 30
0.0
 41
0.0030416748
 42
0.0030416748
 43
0.0030416748
  0
INSERT
  5
371
330
1F
100
AcDbEntity
  8
SLD-0
 62
     7
100
AcDbBlockReference
  2
SW_CENTERMARKSYMBOL_0
 10
672.1401504764
 20
575.8622060536
 30
0.0
  0
INSERT
  5
379
330
1F
100
AcDbEntity
  8
SLD-0
 62
     7
100
AcDbBlockReference
  2
SW_CENTERMARKSYMBOL_1
 10
672.1401504764
 20
544.1122060536
 30
0.0
  0
LINE
  5
37A
330
1F
100
AcDbEntity
  8
0
  6
Continuous
 62
     7
370
    25
100
AcDbLine
 10
495.2633813203
 20
581.7872060536
 30
0.0
 11
494.0633813203
 21
581.7872060536
 31
0.0
  0
LINE
  5
37B
330
1F
100
AcDbEntity
  8
0
  6
Continuous
 62
     7
370
    25
100
AcDbLine
 10
495.2633813203
 20
578.6122060536
 30
0.0
 11
495.2633813203
 21
581.7872060536
 31
0.0
  0
LINE
  5
37C
330
1F
100
AcDbEntity
  8
0
  6
Continuous
 62
     7
370
    25
100
AcDbLine
 10
494.0633813203
 20
578.6122060536
 30
0.0
 11
494.0633813203
 21
581.7872060536
 31
0.0
  0
LINE
  5
37D
330
1F
100
AcDbEntity
  8
0
  6
Continuous
 62
     7
370
    25
100
AcDbLine
 10
495.2633813203
 20
541.3622060536
 30
0.0
 11
495.2633813203
 21
578.6122060536
 31
0.0
  0
LINE
  5
37E
330
1F
100
AcDbEntity
  8
0
  6
Continuous
 62
     7
370
    25
100
AcDbLine
 10
494.0633813203
 20
541.3622060536
 30
0.0
 11
494.0633813203
 21
578.6122060536
 31
0.0
  0
LINE
  5
37F
330
1F
100
AcDbEntity
  8
0
  6
Continuous
 62
     7
370
    25
100
AcDbLine
 10
495.2633813203
 20
538.1872060536
 30
0.0
 11
494.0633813203
 21
538.1872060536
 31
0.0
  0
LINE
  5
380
330
1F
100
AcDbEntity
  8
0
  6
Continuous
 62
     7
370
    25
100
AcDbLine
 10
495.2633813203
 20
538.1872060536
 30
0.0
 11
495.2633813203
 21
541.3622060536
 31
0.0
  0
LINE
  5
381
330
1F
100
AcDbEntity
  8
0
  6
Continuous
 62
     7
370
    25
100
AcDbLine
 10
494.0633813203
 20
538.1872060536
 30
0.0
 11
494.0633813203
 21
541.3622060536
 31
0.0
  0
LINE
  5
382
330
1F
100
AcDbEntity
  8
0
  6
Continuous
 62
     7
370
    25
100
AcDbLine
 10
492.0633813203
 20
539.7672060536
 30
0.0
 11
494.0229731145
 21
539.7672060536
 31
0.0
  0
LINE
  5
383
330
1F
100
AcDbEntity
  8
0
  6
Continuous
 62
     7
370
    25
100
AcDbLine
 10
494.0633813203
 20
581.7872060536
 30
0.0
 11
492.0633813203
 21
581.7872060536
 31
0.0
  0
ARC
  5
384
330
1F
100
AcDbEntity
  8
0
  6
Continuous
 62
     7
370
    25
100
AcDbCircle
 10
480.5788364978
 20
577.3872060536
 30
0.0
 40
4.400000000000018
100
AcDbArc
 50
90.0
 51
98.2015353416
  0
LINE
  5
385
330
1F
100
AcDbEntity
  8
0
  6
Continuous
 62
     7
370
    25
100
AcDbLine
 10
492.0633813203
 20
581.7872060536
 30
0.0
 11
480.5788364978
 21
581.7872060536
 31
0.0
  0
LINE
  5
386
330
1F
100
AcDbEntity
  8
0
  6
Continuous
 62
     7
370
    25
100
AcDbLine
 10
237.1633813203
 20
539.7672060536
 30
0.0
 11
236.3191762958
 21
539.7672060536
 31
0.0
  0
ARC
  5
387
330
1F
100
AcDbEntity
  8
0
  6
Continuous
 62
     7
370
    25
100
AcDbCircle
 10
236.3191762958
 20
542.7672060536
 30
0.0
 40
3.000000000000009
100
AcDbArc
 50
163.7697891443
 51
270.0
  0
ARC
  5
388
330
1F
100
AcDbEntity
  8
0
  6
Continuous
 62
     7
370
    25
100
AcDbCircle
 10
237.6633813203
 20
542.3759096798
 30
0.0
 40
4.400000000000026
100
AcDbArc
 50
98.2015353416
 51
163.7697891443
  0
LINE
  5
389
330
1F
100
AcDbEntity
  8
0
  6
Continuous
 62
     7
370
    25
100
AcDbLine
 10
237.0356973119
 20
546.7309082774
 30
0.0
 11
479.9511524894
 21
581.7422046512
 31
0.0
  0
LINE
  5
38A
330
1F
100
AcDbEntity
  8
0
  6
Continuous
 62
     7
370
    25
100
AcDbLine
 10
492.0633813203
 20
539.7672060536
 30
0.0
 11
492.0633813203
 21
538.1872060536
 31
0.0
  0
LINE
  5
38B
330
1F
100
AcDbEntity
  8
0
  6
Continuous
 62
     7
370
    25
100
AcDbLine
 10
492.0633813203
 20
538.1872060536
 30
0.0
 11
237.4633813203
 21
538.1872060536
 31
0.0
  0
LINE
  5
38C
330
1F
100
AcDbEntity
  8
0
  6
Continuous
 62
     7
370
    25
100
AcDbLine
 10
237.4633813203
 20
539.4672060536
 30
0.0
 11
237.4633813203
 21
538.1872060536
 31
0.0
  0
SPLINE
  5
38D
330
1F
100
AcDbEntity
  8
0
  6
Continuous
 62
     7
370
    25
100
AcDbSpline
210
0.0
220
0.0
230
1.0
 70
     8
 71
     3
 72
    10
 73
     6
 74
     0
 42
0.00000001
 43
0.00000001
 40
0.0
 40
0.0
 40
0.0
 40
0.0
 40
0.5
 40
0.5
 40
1.0
 40
1.0
 40
1.0
 40
1.0
 10
237.1633813203005
 20
539.7672060535509
 30
0.0
 10
237.2429063209701
 20
539.7672060535509
 30
0.0
 10
237.320692434035
 20
539.7344272217475
 30
0.0
 10
237.4313635203529
 20
539.6232172060106
 30
0.0
 10
237.4633813203012
 20
539.5452796127809
 30
0.0
 10
237.4633813203012
 20
539.4672060535511
 30
0.0
  0
ARC
  5
38E
330
1F
100
AcDbEntity
  8
0
  6
Continuous
 62
     7
370
    25
100
AcDbCircle
 10
237.4633813203
 20
542.3872060536
 30
0.0
 40
4.200000000000045
100
AcDbArc
 50
166.3176000794
 51
270.0
  0
LWPOLYLINE
  5
38F
330
1F
100
AcDbEntity
  8
0
  6
Continuous
 62
     7
370
    25
100
AcDbPolyline
 90
        3
 70
   128
 43
0.0
 10
235.9650212973
 20
539.7881836909
 10
236.3995666592
 20
539.5821573255
 10
237.4633813203
 20
539.3872060536
  0
DIMENSION
  5
390
330
1F
100
AcDbEntity
  8
SLD-0
 62
     7
100
AcDbDimension
  2
_D_7
 10
537.2432119464
 20
581.7872060536
 30
0.0
 11
537.2432119464
 21
561.9068031394
 31
0.0
 70
   160
  1
<>
 71
     2
 42
-1.0
  3
SLDDIMSTYLE2
100
AcDbAlignedDimension
 13
492.0633813203
 23
538.1872060536
 33
0.0
 14
495.2633813203
 24
581.7872060536
 34
0.0
 50
90.0
100
AcDbRotatedDimension
  0
DIMENSION
  5
39B
330
1F
100
AcDbEntity
  8
SLD-0
 62
     7
100
AcDbDimension
  2
_D_8
 10
223.1621142277
 20
546.7309082774
 30
0.0
 11
223.1621142277
 21
572.0560157635
 31
0.0
 70
   160
  1
<>
 71
     2
 42
-1.0
  3
SLDDIMSTYLE2
100
AcDbAlignedDimension
 13
237.4633813203
 23
538.1872060536
 33
0.0
 14
237.0356973119
 24
546.7309082774
 34
0.0
 50
90.0
100
AcDbRotatedDimension
  0
INSERT
  5
3AE
330
1F
100
AcDbEntity
  8
SLD-0
 62
     7
100
AcDbBlockReference
  2
SW_NOTE_0_5
 10
110.4089202432
 20
1242.4322592431
 30
0.0
  0
LINE
  5
3AF
330
1F
100
AcDbEntity
  8
0
  6
Continuous
 62
     7
370
    25
100
AcDbLine
 10
1468.0199546965
 20
578.6122060535
 30
0.0
 11
1468.0199546965
 21
541.3622060535
 31
0.0
  0
LINE
  5
3B0
330
1F
100
AcDbEntity
  8
0
  6
Continuous
 62
     7
370
    25
100
AcDbLine
 10
1469.2199546965
 20
578.6122060535
 30
0.0
 11
1469.2199546965
 21
541.3622060535
 31
0.0
  0
LINE
  5
3B1
330
1F
100
AcDbEntity
  8
0
  6
Continuous
 62
     7
370
    25
100
AcDbLine
 10
1468.0199546965
 20
581.7872060535
 30
0.0
 11
1469.2199546965
 21
581.7872060535
 31
0.0
  0
LINE
  5
3B2
330
1F
100
AcDbEntity
  8
0
  6
Continuous
 62
     7
370
    25
100
AcDbLine
 10
1468.0199546965
 20
581.7872060535
 30
0.0
 11
1468.0199546965
 21
578.6122060535
 31
0.0
  0
LINE
  5
3B3
330
1F
100
AcDbEntity
  8
0
  6
Continuous
 62
     7
370
    25
100
AcDbLine
 10
1469.2199546965
 20
581.7872060535
 30
0.0
 11
1469.2199546965
 21
578.6122060535
 31
0.0
  0
LINE
  5
3B4
330
1F
100
AcDbEntity
  8
0
  6
Continuous
 62
     7
370
    25
100
AcDbLine
 10
1468.0199546965
 20
538.1872060535
 30
0.0
 11
1469.2199546965
 21
538.1872060535
 31
0.0
  0
LINE
  5
3B5
330
1F
100
AcDbEntity
  8
0
  6
Continuous
 62
     7
370
    25
100
AcDbLine
 10
1468.0199546965
 20
541.3622060535
 30
0.0
 11
1468.0199546965
 21
538.1872060535
 31
0.0
  0
LINE
  5
3B6
330
1F
100
AcDbEntity
  8
0
  6
Continuous
 62
     7
370
    25
100
AcDbLine
 10
1469.2199546965
 20
541.3622060535
 30
0.0
 11
1469.2199546965
 21
538.1872060535
 31
0.0
  0
LINE
  5
3B7
330
1F
100
AcDbEntity
  8
0
  6
Continuous
 62
     7
370
    25
100
AcDbLine
 10
1469.2603629023
 20
539.7672060536
 30
0.0
 11
1471.2199546965
 21
539.7672060536
 31
0.0
  0
LINE
  5
3B8
330
1F
100
AcDbEntity
  8
0
  6
Continuous
 62
     7
370
    25
100
AcDbLine
 10
1471.2199546965
 20
581.7872060535
 30
0.0
 11
1469.2199546965
 21
581.7872060535
 31
0.0
  0
LINE
  5
3B9
330
1F
100
AcDbEntity
  8
0
  6
Continuous
 62
     7
370
    25
100
AcDbLine
 10
1482.704499519
 20
581.7872060536
 30
0.0
 11
1471.2199546965
 21
581.7872060535
 31
0.0
  0
ARC
  5
3BA
330
1F
100
AcDbEntity
  8
0
  6
Continuous
 62
     7
370
    25
100
AcDbCircle
 10
1482.704499519
 20
577.3872060536
 30
0.0
 40
4.400000000000091
100
AcDbArc
 50
81.7984646584
 51
90.0
  0
LINE
  5
3BB
330
1F
100
AcDbEntity
  8
0
  6
Continuous
 62
     7
370
    25
100
AcDbLine
 10
1726.247638705
 20
546.7309082774
 30
0.0
 11
1483.3321835274
 21
581.7422046512
 31
0.0
  0
ARC
  5
3BC
330
1F
100
AcDbEntity
  8
0
  6
Continuous
 62
     7
370
    25
100
AcDbCircle
 10
1725.6199546965
 20
542.3759096798
 30
0.0
 40
4.400000000000106
100
AcDbArc
 50
16.2302108557
 51
81.7984646584
  0
ARC
  5
3BD
330
1F
100
AcDbEntity
  8
0
  6
Continuous
 62
     7
370
    25
100
AcDbCircle
 10
1726.964159721
 20
542.7672060536
 30
0.0
 40
3.000000000000025
100
AcDbArc
 50
270.0
 51
16.2302108557
  0
LINE
  5
3BE
330
1F
100
AcDbEntity
  8
0
  6
Continuous
 62
     7
370
    25
100
AcDbLine
 10
1726.964159721
 20
539.7672060536
 30
0.0
 11
1726.1199546965
 21
539.7672060536
 31
0.0
  0
LINE
  5
3BF
330
1F
100
AcDbEntity
  8
0
  6
Continuous
 62
     7
370
    25
100
AcDbLine
 10
1471.2199546965
 20
538.1872060536
 30
0.0
 11
1471.2199546965
 21
539.7672060536
 31
0.0
  0
LINE
  5
3C0
330
1F
100
AcDbEntity
  8
0
  6
Continuous
 62
     7
370
    25
100
AcDbLine
 10
1725.8199546965
 20
538.1872060536
 30
0.0
 11
1725.8199546965
 21
539.4672060536
 31
0.0
  0
LINE
  5
3C1
330
1F
100
AcDbEntity
  8
0
  6
Continuous
 62
     7
370
    25
100
AcDbLine
 10
1725.8199546965
 20
538.1872060536
 30
0.0
 11
1471.2199546965
 21
538.1872060536
 31
0.0
  0
SPLINE
  5
3C2
330
1F
100
AcDbEntity
  8
0
  6
Continuous
 62
     7
370
    25
100
AcDbSpline
210
0.0
220
0.0
230
1.0
 70
     8
 71
     3
 72
    10
 73
     6
 74
     0
 42
0.00000001
 43
0.00000001
 40
0.0
 40
0.0
 40
0.0
 40
0.0
 40
0.5
 40
0.5
 40
1.0
 40
1.0
 40
1.0
 40
1.0
 10
1725.819954696549
 20
539.4672060535509
 30
0.0
 10
1725.819954696549
 20
539.5452692692328
 30
0.0
 10
1725.851847495333
 20
539.62300754079
 30
0.0
 10
1725.962449322429
 20
539.7343158285368
 30
0.0
 10
1726.040431870393
 20
539.7672060535509
 30
0.0
 10
1726.119954696549
 20
539.7672060535509
 30
0.0
  0
ARC
  5
3C3
330
1F
100
AcDbEntity
  8
0
  6
Continuous
 62
     7
370
    25
100
AcDbCircle
 10
1725.8199546965
 20
542.3872060536
 30
0.0
 40
4.200000000000045
100
AcDbArc
 50
270.0
 51
13.6823999241
  0
LWPOLYLINE
  5
3C4
330
1F
100
AcDbEntity
  8
0
  6
Continuous
 62
     7
370
    25
100
AcDbPolyline
 90
        3
 70
   128
 43
0.0
 10
1725.8199546965
 20
539.3872060536
 10
1726.8837693577
 20
539.5821573255
 10
1727.3183147196
 20
539.7881836909
  0
ENDSEC
  0
SECTION
  2
OBJECTS
  0
DICTIONARY
  5
C
330
0
100
AcDbDictionary
281
     1
  3
ACAD_GROUP
350
D
  3
ACAD_LAYOUT
350
1A
  3
ACAD_MLINESTYLE
350
17
  3
ACAD_PLOTSETTINGS
350
19
  3
ACAD_PLOTSTYLENAME
350
E
  3
ACAD_SCALELIST
350
47
  3
DWGPROPS
350
3C5
  0
DICTIONARY
  5
D
102
{ACAD_REACTORS
330
C
102
}
330
C
100
AcDbDictionary
281
     1
  0
DICTIONARY
  5
1A
102
{ACAD_REACTORS
330
C
102
}
330
C
100
AcDbDictionary
281
     1
  3
Layout1
350
1E
  3
Layout2
350
26
  3
Model
350
22
  0
DICTIONARY
  5
17
102
{ACAD_REACTORS
330
C
102
}
330
C
100
AcDbDictionary
281
     1
  3
Standard
350
18
  0
DICTIONARY
  5
19
102
{ACAD_REACTORS
330
C
102
}
330
C
100
AcDbDictionary
281
     1
  0
ACDBDICTIONARYWDFLT
  5
E
102
{ACAD_REACTORS
330
C
102
}
330
C
100
AcDbDictionary
281
     1
  3
Normal
350
F
100
AcDbDictionaryWithDefault
340
F
  0
DICTIONARY
  5
47
102
{ACAD_REACTORS
330
C
102
}
330
C
100
AcDbDictionary
281
     1
  3
A0
350
48
  3
A1
350
49
  3
A2
350
4A
  3
A3
350
4B
  3
A4
350
4C
  3
A5
350
4D
  3
A6
350
4E
  3
A7
350
4F
  3
A8
350
50
  3
A9
350
51
  3
B0
350
52
  3
B1
350
53
  3
B2
350
54
  3
B3
350
55
  3
B4
350
56
  3
B5
350
57
  3
B6
350
58
  3
B7
350
59
  3
B8
350
5A
  3
B9
350
5B
  3
C0
350
5C
  3
C1
350
5D
  3
C2
350
5E
  3
C3
350
5F
  3
C4
350
60
  3
C5
350
61
  3
C6
350
62
  3
C7
350
63
  3
C8
350
64
  3
C9
350
65
  3
D0
350
66
  3
D1
350
67
  3
D2
350
68
  0
XRECORD
  5
3C5
102
{ACAD_REACTORS
330
C
102
}
330
C
100
AcDbXrecord
280
     1
  1
DWGPROPS COOKIE
  2

  3

  4

  6

  7

  8
Suzanne.Stasiak
  9

300
=
301
=
302
=
303
=
304
=
305
=
306
=
307
=
308
=
309
=
 40
0.0
 41
2459523.899950243
 42
2459523.899953299
  1

 90
        0
  0
LAYOUT
  5
1E
102
{ACAD_REACTORS
330
1A
102
}
330
1A
100
AcDbPlotSettings
  1

  2
none_device
  4

  6

 40
0.0
 41
0.0
 42
0.0
 43
0.0
 44
0.0
 45
0.0
 46
0.0
 47
0.0
 48
0.0
 49
0.0
140
0.0
141
0.0
142
1.0
143
1.0
 70
   688
 72
     1
 73
     0
 74
     5
  7

 75
    16
147
1.0
148
0.0
149
0.0
100
AcDbLayout
  1
Layout1
 70
     1
 71
     1
 10
0.0
 20
0.0
 11
420.0
 21
297.0
 12
0.0
 22
0.0
 32
0.0
 14
1.0000000000E+20
 24
1.0000000000E+20
 34
1.0000000000E+20
 15
-1.0000000000E+20
 25
-1.0000000000E+20
 35
-1.0000000000E+20
146
0.0
 13
0.0
 23
0.0
 33
0.0
 16
1.0
 26
0.0
 36
0.0
 17
0.0
 27
1.0
 37
0.0
 76
     0
330
1B
  0
LAYOUT
  5
26
102
{ACAD_REACTORS
330
1A
102
}
330
1A
100
AcDbPlotSettings
  1

  2
none_device
  4

  6

 40
0.0
 41
0.0
 42
0.0
 43
0.0
 44
0.0
 45
0.0
 46
0.0
 47
0.0
 48
0.0
 49
0.0
140
0.0
141
0.0
142
1.0
143
1.0
 70
   688
 72
     1
 73
     0
 74
     5
  7

 75
    16
147
1.0
148
0.0
149
0.0
100
AcDbLayout
  1
Layout2
 70
     1
 71
     2
 10
0.0
 20
0.0
 11
0.0
 21
0.0
 12
0.0
 22
0.0
 32
0.0
 14
0.0
 24
0.0
 34
0.0
 15
0.0
 25
0.0
 35
0.0
146
0.0
 13
0.0
 23
0.0
 33
0.0
 16
1.0
 26
0.0
 36
0.0
 17
0.0
 27
1.0
 37
0.0
 76
     0
330
23
  0
LAYOUT
  5
22
102
{ACAD_REACTORS
330
1A
102
}
330
1A
100
AcDbPlotSettings
  1

  2
none_device
  4
Letter_(8.50_x_11.00_Inches)
  6

 40
6.35
 41
6.35
 42
6.35000508
 43
6.35000508
 44
215.9
 45
279.4
 46
0.0
 47
0.0
 48
0.0
 49
0.0
140
0.0
141
0.0
142
1.0
143
1.0
 70
  1712
 72
     1
 73
     0
 74
     0
  7

 75
     0
147
1.0
148
0.0
149
0.0
100
AcDbLayout
  1
Model
 70
     1
 71
     0
 10
0.0
 20
0.0
 11
2159.0
 21
1397.0
 12
0.0
 22
0.0
 32
0.0
 14
0.0
 24
0.0
 34
0.0
 15
2159.0
 25
1397.0
 35
0.0
146
0.0
 13
0.0
 23
0.0
 33
0.0
 16
1.0
 26
0.0
 36
0.0
 17
0.0
 27
1.0
 37
0.0
 76
     0
330
1F
331
29
  0
MLINESTYLE
  5
18
102
{ACAD_REACTORS
330
17
102
}
330
17
100
AcDbMlineStyle
  2
Standard
 70
     0
  3

 62
   256
 51
90.0
 52
90.0
 71
     2
 49
0.5
 62
   256
  6
BYLAYER
 49
-0.5
 62
   256
  6
BYLAYER
  0
ACDBPLACEHOLDER
  5
F
102
{ACAD_REACTORS
330
E
102
}
330
E
  0
SCALE
  5
48
102
{ACAD_REACTORS
330
47
102
}
330
47
100
AcDbScale
 70
     0
300
1:1
140
1.0
141
1.0
290
     1
  0
SCALE
  5
49
102
{ACAD_REACTORS
330
47
102
}
330
47
100
AcDbScale
 70
     0
300
1:2
140
1.0
141
2.0
290
     0
  0
SCALE
  5
4A
102
{ACAD_REACTORS
330
47
102
}
330
47
100
AcDbScale
 70
     0
300
1:4
140
1.0
141
4.0
290
     0
  0
SCALE
  5
4B
102
{ACAD_REACTORS
330
47
102
}
330
47
100
AcDbScale
 70
     0
300
1:5
140
1.0
141
5.0
290
     0
  0
SCALE
  5
4C
102
{ACAD_REACTORS
330
47
102
}
330
47
100
AcDbScale
 70
     0
300
1:8
140
1.0
141
8.0
290
     0
  0
SCALE
  5
4D
102
{ACAD_REACTORS
330
47
102
}
330
47
100
AcDbScale
 70
     0
300
1:10
140
1.0
141
10.0
290
     0
  0
SCALE
  5
4E
102
{ACAD_REACTORS
330
47
102
}
330
47
100
AcDbScale
 70
     0
300
1:16
140
1.0
141
16.0
290
     0
  0
SCALE
  5
4F
102
{ACAD_REACTORS
330
47
102
}
330
47
100
AcDbScale
 70
     0
300
1:20
140
1.0
141
20.0
290
     0
  0
SCALE
  5
50
102
{ACAD_REACTORS
330
47
102
}
330
47
100
AcDbScale
 70
     0
300
1:30
140
1.0
141
30.0
290
     0
  0
SCALE
  5
51
102
{ACAD_REACTORS
330
47
102
}
330
47
100
AcDbScale
 70
     0
300
1:40
140
1.0
141
40.0
290
     0
  0
SCALE
  5
52
102
{ACAD_REACTORS
330
47
102
}
330
47
100
AcDbScale
 70
     0
300
1:50
140
1.0
141
50.0
290
     0
  0
SCALE
  5
53
102
{ACAD_REACTORS
330
47
102
}
330
47
100
AcDbScale
 70
     0
300
1:100
140
1.0
141
100.0
290
     0
  0
SCALE
  5
54
102
{ACAD_REACTORS
330
47
102
}
330
47
100
AcDbScale
 70
     0
300
2:1
140
2.0
141
1.0
290
     0
  0
SCALE
  5
55
102
{ACAD_REACTORS
330
47
102
}
330
47
100
AcDbScale
 70
     0
300
4:1
140
4.0
141
1.0
290
     0
  0
SCALE
  5
56
102
{ACAD_REACTORS
330
47
102
}
330
47
100
AcDbScale
 70
     0
300
8:1
140
8.0
141
1.0
290
     0
  0
SCALE
  5
57
102
{ACAD_REACTORS
330
47
102
}
330
47
100
AcDbScale
 70
     0
300
10:1
140
10.0
141
1.0
290
     0
  0
SCALE
  5
58
102
{ACAD_REACTORS
330
47
102
}
330
47
100
AcDbScale
 70
     0
300
100:1
140
100.0
141
1.0
290
     0
  0
SCALE
  5
59
102
{ACAD_REACTORS
330
47
102
}
330
47
100
AcDbScale
 70
     0
300
1/128" = 1'-0"
140
0.0078125
141
12.0
290
     0
  0
SCALE
  5
5A
102
{ACAD_REACTORS
330
47
102
}
330
47
100
AcDbScale
 70
     0
300
1/64" = 1'-0"
140
0.015625
141
12.0
290
     0
  0
SCALE
  5
5B
102
{ACAD_REACTORS
330
47
102
}
330
47
100
AcDbScale
 70
     0
300
1/32" = 1'-0"
140
0.03125
141
12.0
290
     0
  0
SCALE
  5
5C
102
{ACAD_REACTORS
330
47
102
}
330
47
100
AcDbScale
 70
     0
300
1/16" = 1'-0"
140
0.0625
141
12.0
290
     0
  0
SCALE
  5
5D
102
{ACAD_REACTORS
330
47
102
}
330
47
100
AcDbScale
 70
     0
300
3/32" = 1'-0"
140
0.09375
141
12.0
290
     0
  0
SCALE
  5
5E
102
{ACAD_REACTORS
330
47
102
}
330
47
100
AcDbScale
 70
     0
300
1/8" = 1'-0"
140
0.125
141
12.0
290
     0
  0
SCALE
  5
5F
102
{ACAD_REACTORS
330
47
102
}
330
47
100
AcDbScale
 70
     0
300
3/16" = 1'-0"
140
0.1875
141
12.0
290
     0
  0
SCALE
  5
60
102
{ACAD_REACTORS
330
47
102
}
330
47
100
AcDbScale
 70
     0
300
1/4" = 1'-0"
140
0.25
141
12.0
290
     0
  0
SCALE
  5
61
102
{ACAD_REACTORS
330
47
102
}
330
47
100
AcDbScale
 70
     0
300
3/8" = 1'-0"
140
0.375
141
12.0
290
     0
  0
SCALE
  5
62
102
{ACAD_REACTORS
330
47
102
}
330
47
100
AcDbScale
 70
     0
300
1/2" = 1'-0"
140
0.5
141
12.0
290
     0
  0
SCALE
  5
63
102
{ACAD_REACTORS
330
47
102
}
330
47
100
AcDbScale
 70
     0
300
3/4" = 1'-0"
140
0.75
141
12.0
290
     0
  0
SCALE
  5
64
102
{ACAD_REACTORS
330
47
102
}
330
47
100
AcDbScale
 70
     0
300
1" = 1'-0"
140
1.0
141
12.0
290
     0
  0
SCALE
  5
65
102
{ACAD_REACTORS
330
47
102
}
330
47
100
AcDbScale
 70
     0
300
1-1/2" = 1'-0"
140
1.5
141
12.0
290
     0
  0
SCALE
  5
66
102
{ACAD_REACTORS
330
47
102
}
330
47
100
AcDbScale
 70
     0
300
3" = 1'-0"
140
3.0
141
12.0
290
     0
  0
SCALE
  5
67
102
{ACAD_REACTORS
330
47
102
}
330
47
100
AcDbScale
 70
     0
300
6" = 1'-0"
140
6.0
141
12.0
290
     0
  0
SCALE
  5
68
102
{ACAD_REACTORS
330
47
102
}
330
47
100
AcDbScale
 70
     0
300
1'-0" = 1'-0"
140
12.0
141
12.0
290
     0
  0
ENDSEC
  0
EOF
