  0
SECTION
  2
HEADER
  9
$ACADVER
  1
AC1015
  9
$ACADMAINTVER
 70
     6
  9
$DWGCODEPAGE
  3
ANSI_1252
  9
$INSBASE
 10
0.0
 20
0.0
 30
0.0
  9
$EXTMIN
 10
0.0
 20
0.0
 30
0.0
  9
$EXTMAX
 10
863.6
 20
558.8
 30
0.0
  9
$LIMMIN
 10
0.0
 20
0.0
  9
$LIMMAX
 10
863.6
 20
558.8
  9
$ORTHOMODE
 70
     0
  9
$REGENMODE
 70
     1
  9
$FILLMODE
 70
     1
  9
$QTEXTMODE
 70
     0
  9
$MIRRTEXT
 70
     1
  9
$LTSCALE
 40
2.0
  9
$ATTMODE
 70
     1
  9
$TEXTSIZE
 40
6.35
  9
$TRACEWID
 40
1.0
  9
$TEXTSTYLE
  7
STANDARD
  9
$CLAYER
  8
0
  9
$CELTYPE
  6
ByLayer
  9
$CECOLOR
 62
   256
  9
$CELTSCALE
 40
1.0
  9
$DISPSILH
 70
     0
  9
$DIMSCALE
 40
1.0
  9
$DIMASZ
 40
4.0
  9
$DIMEXO
 40
1.524
  9
$DIMDLI
 40
3.75
  9
$DIMRND
 40
0.0
  9
$DIMDLE
 40
0.0
  9
$DIMEXE
 40
1.524
  9
$DIMTP
 40
0.0
  9
$DIMTM
 40
0.0
  9
$DIMTXT
 40
6.35
  9
$DIMCEN
 40
2.5
  9
$DIMTSZ
 40
0.0
  9
$DIMTOL
 70
     0
  9
$DIMLIM
 70
     0
  9
$DIMTIH
 70
     1
  9
$DIMTOH
 70
     1
  9
$DIMSE1
 70
     0
  9
$DIMSE2
 70
     0
  9
$DIMTAD
 70
     0
  9
$DIMZIN
 70
     1
  9
$DIMBLK
  1

  9
$DIMASO
 70
     1
  9
$DIMSHO
 70
     1
  9
$DIMPOST
  1

  9
$DIMAPOST
  1

  9
$DIMALT
 70
     0
  9
$DIMALTD
 70
     3
  9
$DIMALTF
 40
0.0393700787
  9
$DIMLFAC
 40
1.0
  9
$DIMTOFL
 70
     1
  9
$DIMTVP
 40
0.0
  9
$DIMTIX
 70
     0
  9
$DIMSOXD
 70
     0
  9
$DIMSAH
 70
     0
  9
$DIMBLK1
  1

  9
$DIMBLK2
  1

  9
$DIMSTYLE
  2
ISO-25
  9
$DIMCLRD
 70
     0
  9
$DIMCLRE
 70
     0
  9
$DIMCLRT
 70
     0
  9
$DIMTFAC
 40
1.0
  9
$DIMGAP
 40
3.048
  9
$DIMJUST
 70
     0
  9
$DIMSD1
 70
     0
  9
$DIMSD2
 70
     0
  9
$DIMTOLJ
 70
     0
  9
$DIMTZIN
 70
     1
  9
$DIMALTZ
 70
     0
  9
$DIMALTTZ
 70
     0
  9
$DIMUPT
 70
     0
  9
$DIMDEC
 70
     2
  9
$DIMTDEC
 70
     2
  9
$DIMALTU
 70
     2
  9
$DIMALTTD
 70
     3
  9
$DIMTXSTY
  7
STANDARD
  9
$DIMAUNIT
 70
     0
  9
$DIMADEC
 70
     0
  9
$DIMALTRND
 40
0.0
  9
$DIMAZIN
 70
     0
  9
$DIMDSEP
 70
    44
  9
$DIMATFIT
 70
     3
  9
$DIMFRAC
 70
     0
  9
$DIMLDRBLK
  1

  9
$DIMLUNIT
 70
     2
  9
$DIMLWD
 70
    -2
  9
$DIMLWE
 70
    -2
  9
$DIMTMOVE
 70
     0
  9
$LUNITS
 70
     2
  9
$LUPREC
 70
     4
  9
$SKETCHINC
 40
1.0
  9
$FILLETRAD
 40
0.0
  9
$AUNITS
 70
     0
  9
$AUPREC
 70
     0
  9
$MENU
  1
.
  9
$ELEVATION
 40
0.0
  9
$PELEVATION
 40
0.0
  9
$THICKNESS
 40
0.0
  9
$LIMCHECK
 70
     0
  9
$CHAMFERA
 40
0.0
  9
$CHAMFERB
 40
0.0
  9
$CHAMFERC
 40
0.0
  9
$CHAMFERD
 40
0.0
  9
$SKPOLY
 70
     0
  9
$TDCREATE
 40
2460091.575559039
  9
$TDUCREATE
 40
2460091.867225706
  9
$TDUPDATE
 40
2460091.575560926
  9
$TDUUPDATE
 40
2460091.867227593
  9
$TDINDWG
 40
0.0000000116
  9
$TDUSRTIMER
 40
0.0000000116
  9
$USRTIMER
 70
     1
  9
$ANGBASE
 50
0.0
  9
$ANGDIR
 70
     0
  9
$PDMODE
 70
     0
  9
$PDSIZE
 40
-1.0
  9
$PLINEWID
 40
0.0
  9
$SPLFRAME
 70
     0
  9
$SPLINETYPE
 70
     6
  9
$SPLINESEGS
 70
     8
  9
$HANDSEED
  5
209
  9
$SURFTAB1
 70
     6
  9
$SURFTAB2
 70
     6
  9
$SURFTYPE
 70
     6
  9
$SURFU
 70
     6
  9
$SURFV
 70
     6
  9
$UCSBASE
  2

  9
$UCSNAME
  2

  9
$UCSORG
 10
0.0
 20
0.0
 30
0.0
  9
$UCSXDIR
 10
1.0
 20
0.0
 30
0.0
  9
$UCSYDIR
 10
0.0
 20
1.0
 30
0.0
  9
$UCSORTHOREF
  2

  9
$UCSORTHOVIEW
 70
     0
  9
$UCSORGTOP
 10
0.0
 20
0.0
 30
0.0
  9
$UCSORGBOTTOM
 10
0.0
 20
0.0
 30
0.0
  9
$UCSORGLEFT
 10
0.0
 20
0.0
 30
0.0
  9
$UCSORGRIGHT
 10
0.0
 20
0.0
 30
0.0
  9
$UCSORGFRONT
 10
0.0
 20
0.0
 30
0.0
  9
$UCSORGBACK
 10
0.0
 20
0.0
 30
0.0
  9
$PUCSBASE
  2

  9
$PUCSNAME
  2

  9
$PUCSORG
 10
0.0
 20
0.0
 30
0.0
  9
$PUCSXDIR
 10
1.0
 20
0.0
 30
0.0
  9
$PUCSYDIR
 10
0.0
 20
1.0
 30
0.0
  9
$PUCSORTHOREF
  2

  9
$PUCSORTHOVIEW
 70
     0
  9
$PUCSORGTOP
 10
0.0
 20
0.0
 30
0.0
  9
$PUCSORGBOTTOM
 10
0.0
 20
0.0
 30
0.0
  9
$PUCSORGLEFT
 10
0.0
 20
0.0
 30
0.0
  9
$PUCSORGRIGHT
 10
0.0
 20
0.0
 30
0.0
  9
$PUCSORGFRONT
 10
0.0
 20
0.0
 30
0.0
  9
$PUCSORGBACK
 10
0.0
 20
0.0
 30
0.0
  9
$USERI1
 70
     0
  9
$USERI2
 70
     0
  9
$USERI3
 70
     0
  9
$USERI4
 70
     0
  9
$USERI5
 70
     0
  9
$USERR1
 40
0.0
  9
$USERR2
 40
0.0
  9
$USERR3
 40
0.0
  9
$USERR4
 40
0.0
  9
$USERR5
 40
0.0
  9
$WORLDVIEW
 70
     1
  9
$SHADEDGE
 70
     3
  9
$SHADEDIF
 70
    70
  9
$TILEMODE
 70
     1
  9
$MAXACTVP
 70
    64
  9
$PINSBASE
 10
0.0
 20
0.0
 30
0.0
  9
$PLIMCHECK
 70
     0
  9
$PEXTMIN
 10
1.0000000000E+20
 20
1.0000000000E+20
 30
1.0000000000E+20
  9
$PEXTMAX
 10
-1.0000000000E+20
 20
-1.0000000000E+20
 30
-1.0000000000E+20
  9
$PLIMMIN
 10
0.0
 20
0.0
  9
$PLIMMAX
 10
420.0
 20
297.0
  9
$UNITMODE
 70
     0
  9
$VISRETAIN
 70
     1
  9
$PLINEGEN
 70
     0
  9
$PSLTSCALE
 70
     1
  9
$TREEDEPTH
 70
  3020
  9
$CMLSTYLE
  2
Standard
  9
$CMLJUST
 70
     0
  9
$CMLSCALE
 40
20.0
  9
$PROXYGRAPHICS
 70
     1
  9
$MEASUREMENT
 70
     1
  9
$CELWEIGHT
370
    -1
  9
$ENDCAPS
280
     0
  9
$JOINSTYLE
280
     0
  9
$LWDISPLAY
290
     1
  9
$INSUNITS
 70
     4
  9
$HYPERLINKBASE
  1

  9
$STYLESHEET
  1

  9
$XEDIT
290
     1
  9
$CEPSNTYPE
380
     0
  9
$PSTYLEMODE
290
     1
  9
$FINGERPRINTGUID
  2
{204ef87e-f988-408b-a92d-762ed0abeddc}
  9
$VERSIONGUID
  2
{FAEB1C32-E019-11D5-929B-00C0DF256EC4}
  9
$EXTNAMES
290
     1
  9
$PSVPSCALE
 40
0.0
  9
$OLESTARTUP
290
     0
  0
ENDSEC
  0
SECTION
  2
CLASSES
  0
CLASS
  1
ACDBDICTIONARYWDFLT
  2
AcDbDictionaryWithDefault
  3
ObjectDBX Classes
 90
        0
280
     0
281
     0
  0
CLASS
  1
VISUALSTYLE
  2
AcDbVisualStyle
  3
ObjectDBX Classes
 90
     4095
280
     0
281
     0
  0
CLASS
  1
MATERIAL
  2
AcDbMaterial
  3
ObjectDBX Classes
 90
     1153
280
     0
281
     0
  0
CLASS
  1
SCALE
  2
AcDbScale
  3
ObjectDBX Classes
 90
     1153
280
     0
281
     0
  0
CLASS
  1
TABLESTYLE
  2
AcDbTableStyle
  3
ObjectDBX Classes
 90
     4095
280
     0
281
     0
  0
CLASS
  1
MLEADERSTYLE
  2
AcDbMLeaderStyle
  3
ACDB_MLEADERSTYLE_CLASS
 90
     4095
280
     0
281
     0
  0
CLASS
  1
SUN
  2
AcDbSun
  3
SCENEOE
 90
     1153
280
     0
281
     0
  0
CLASS
  1
ACDBPLACEHOLDER
  2
AcDbPlaceHolder
  3
ObjectDBX Classes
 90
        0
280
     0
281
     0
  0
CLASS
  1
LAYOUT
  2
AcDbLayout
  3
ObjectDBX Classes
 90
        0
280
     0
281
     0
  0
ENDSEC
  0
SECTION
  2
TABLES
  0
TABLE
  2
VPORT
  5
8
330
0
100
AcDbSymbolTable
 70
     1
  0
VPORT
  5
29
330
8
100
AcDbSymbolTableRecord
100
AcDbViewportTableRecord
  2
*Active
 70
     0
 10
0.0
 20
0.0
 11
1.0
 21
1.0
 12
431.8
 22
279.4
 13
0.0
 23
0.0
 14
10.0
 24
10.0
 15
10.0
 25
10.0
 16
0.0
 26
0.0
 36
1.0
 17
0.0
 27
0.0
 37
0.0
 40
558.8
 41
1.5454545455
 42
50.0
 43
0.0
 44
0.0
 50
0.0
 51
0.0
 71
     0
 72
  2000
 73
     1
 74
     3
 75
     0
 76
     0
 77
     0
 78
     0
281
     0
 65
     1
110
0.0
120
0.0
130
0.0
111
1.0
121
0.0
131
0.0
112
0.0
122
1.0
132
0.0
 79
     0
146
0.0
  0
ENDTAB
  0
TABLE
  2
LTYPE
  5
5
330
0
100
AcDbSymbolTable
 70
     6
  0
LTYPE
  5
14
330
5
100
AcDbSymbolTableRecord
100
AcDbLinetypeTableRecord
  2
ByBlock
 70
     0
  3

 72
    65
 73
     0
 40
0.0
  0
LTYPE
  5
15
330
5
100
AcDbSymbolTableRecord
100
AcDbLinetypeTableRecord
  2
ByLayer
 70
     0
  3

 72
    65
 73
     0
 40
0.0
  0
LTYPE
  5
16
330
5
100
AcDbSymbolTableRecord
100
AcDbLinetypeTableRecord
  2
Continuous
 70
     0
  3
Solid line
 72
    65
 73
     0
 40
0.0
  0
LTYPE
  5
5E
330
5
100
AcDbSymbolTableRecord
100
AcDbLinetypeTableRecord
  2
HIDDEN
 70
     0
  3
Hidden __ __ __ __ __ __ __ __ __ __ __ __ __ __
 72
    65
 73
     2
 40
1.905
 49
1.27
 74
     0
 49
-0.635
 74
     0
  0
LTYPE
  5
5F
330
5
100
AcDbSymbolTableRecord
100
AcDbLinetypeTableRecord
  2
PHANTOM
 70
     0
  3
Phantom ______  __  __  ______  __  __  ______
 72
    65
 73
     6
 40
12.7
 49
6.35
 74
     0
 49
-1.27
 74
     0
 49
1.27
 74
     0
 49
-1.27
 74
     0
 49
1.27
 74
     0
 49
-1.27
 74
     0
  0
LTYPE
  5
60
330
5
100
AcDbSymbolTableRecord
100
AcDbLinetypeTableRecord
  2
CENTER
 70
     0
  3
Center ____ _ ____ _ ____ _ ____ _ ____ _ ____
 72
    65
 73
     4
 40
10.16
 49
6.35
 74
     0
 49
-1.27
 74
     0
 49
1.27
 74
     0
 49
-1.27
 74
     0
  0
LTYPE
  5
61
330
5
100
AcDbSymbolTableRecord
100
AcDbLinetypeTableRecord
  2
CENTERX2
 70
     0
  3
Center (2x) ________  __  ________  __  _____
 72
    65
 73
     4
 40
20.32
 49
12.7
 74
     0
 49
-2.54
 74
     0
 49
2.54
 74
     0
 49
-2.54
 74
     0
  0
LTYPE
  5
62
330
5
100
AcDbSymbolTableRecord
100
AcDbLinetypeTableRecord
  2
DOT2
 70
     0
  3
Dot (.5x) ........................................
 72
    65
 73
     2
 40
0.635
 49
0.0
 74
     0
 49
-0.635
 74
     0
  0
ENDTAB
  0
TABLE
  2
LAYER
  5
2
330
0
100
AcDbSymbolTable
 70
     6
  0
LAYER
  5
10
330
2
100
AcDbSymbolTableRecord
100
AcDbLayerTableRecord
  2
0
 70
     0
 62
     7
  6
Continuous
370
    -3
390
F
  0
LAYER
  5
63
330
2
100
AcDbSymbolTableRecord
100
AcDbLayerTableRecord
  2
SLD-0
 70
     0
 62
   179
  6
Continuous
370
    -3
390
F
  0
LAYER
  5
64
330
2
100
AcDbSymbolTableRecord
100
AcDbLayerTableRecord
  2
WIRE_BOND
 70
     0
 62
     6
  6
Continuous
370
   100
390
F
  0
LAYER
  5
65
330
2
100
AcDbSymbolTableRecord
100
AcDbLayerTableRecord
  2
HIGHLIGHT-BLUE
 70
     0
 62
     5
  6
Continuous
370
    70
390
F
  0
LAYER
  5
66
330
2
100
AcDbSymbolTableRecord
100
AcDbLayerTableRecord
  2
MANUAL_DIM
 70
     0
 62
   114
  6
Continuous
370
    -3
390
F
  0
LAYER
  5
67
330
2
100
AcDbSymbolTableRecord
100
AcDbLayerTableRecord
  2
TORQUE_9-10
 70
     0
 62
   155
  6
Continuous
370
    -3
390
F
  0
ENDTAB
  0
TABLE
  2
STYLE
  5
3
330
0
100
AcDbSymbolTable
 70
     5
  0
STYLE
  5
11
330
3
100
AcDbSymbolTableRecord
100
AcDbTextStyleTableRecord
  2
STANDARD
 70
     0
 40
0.0
 41
1.0
 50
0.0
 71
     0
 42
6.35
  3
GOTHIC.TTF
  4

1001
ACAD
1000
CENTURY GOTHIC
1071
       34
  0
STYLE
  5
73
330
3
100
AcDbSymbolTableRecord
100
AcDbTextStyleTableRecord
  2
SLDTEXTSTYLE0
 70
     0
 40
0.0
 41
0.913
 50
0.0
 71
     0
 42
6.35
  3
GOTHIC.TTF
  4

1001
ACAD
1000
Century Gothic
1071
      290
  0
STYLE
  5
8A
330
3
100
AcDbSymbolTableRecord
100
AcDbTextStyleTableRecord
  2
SLDTEXTSTYLE1
 70
     0
 40
0.0
 41
0.87
 50
0.0
 71
     0
 42
6.35
  3
ARIALN.TTF
  4

1001
ACAD
1000
Arial Narrow
1071
      290
  0
STYLE
  5
95
330
3
100
AcDbSymbolTableRecord
100
AcDbTextStyleTableRecord
  2
SLDTEXTSTYLE2
 70
     0
 40
0.0
 41
0.8969072165
 50
0.0
 71
     0
 42
6.35
  3
ARIALN.TTF
  4

1001
ACAD
1000
Arial Narrow
1071
      290
  0
STYLE
  5
9A
330
3
100
AcDbSymbolTableRecord
100
AcDbTextStyleTableRecord
  2
SLDTEXTSTYLE3
 70
     0
 40
0.0
 41
0.8969072165
 50
0.0
 71
     0
 42
6.35
  3
ARIALN.TTF
  4
bigfont
1001
ACAD
1000
Arial Narrow
1071
      290
  0
ENDTAB
  0
TABLE
  2
VIEW
  5
6
330
0
100
AcDbSymbolTable
 70
     0
  0
ENDTAB
  0
TABLE
  2
UCS
  5
7
330
0
100
AcDbSymbolTable
 70
     0
  0
ENDTAB
  0
TABLE
  2
APPID
  5
9
330
0
100
AcDbSymbolTable
 70
     1
  0
APPID
  5
12
330
9
100
AcDbSymbolTableRecord
100
AcDbRegAppTableRecord
  2
ACAD
 70
     0
  0
ENDTAB
  0
TABLE
  2
DIMSTYLE
  5
A
330
0
100
AcDbSymbolTable
 70
     6
100
AcDbDimStyleTable
  0
DIMSTYLE
105
27
330
A
100
AcDbSymbolTableRecord
100
AcDbDimStyleTableRecord
  2
ISO-25
 70
     0
 41
2.5
 42
0.625
 43
3.75
 44
1.25
 73
     0
 74
     0
 77
     1
 78
     8
140
2.5
141
2.5
143
0.0393700787
147
0.625
171
     3
172
     1
178
     0
271
     2
272
     2
274
     3
278
    44
283
     0
284
     8
340
11
  0
DIMSTYLE
105
114
102
{ACAD_REACTORS
330
113
102
}
330
A
100
AcDbSymbolTableRecord
100
AcDbDimStyleTableRecord
  2
SLDDIMSTYLE0
 70
     0
 41
4.0
 44
0.0
 45
0.000000001
 47
30.0
 48
30.0
 71
     1
 78
     4
 79
     1
140
4.7625
143
0.0393700787
147
1.190625
148
0.000000001
170
     1
173
     1
178
     0
271
     1
272
     0
276
     2
284
     8
340
73
  0
DIMSTYLE
105
12F
102
{ACAD_REACTORS
330
12E
330
143
102
}
330
A
100
AcDbSymbolTableRecord
100
AcDbDimStyleTableRecord
  2
SLDDIMSTYLE1
 70
     0
 41
4.0
 44
0.0
 45
0.000000001
 78
     4
 79
     1
140
4.7625
143
0.0393700787
147
1.190625
148
0.000000001
170
     1
173
     1
178
     0
271
     1
272
     2
274
     3
276
     2
284
    12
340
73
  0
DIMSTYLE
105
158
102
{ACAD_REACTORS
330
157
102
}
330
A
100
AcDbSymbolTableRecord
100
AcDbDimStyleTableRecord
  2
SLDDIMSTYLE2
 70
     0
 41
4.0
 44
0.0
 45
0.000000001
 47
15.0
 48
15.0
 71
     1
 78
     4
 79
     1
140
4.7625
143
0.0393700787
147
1.190625
148
0.000000001
170
     1
173
     1
178
     0
271
     1
272
     0
276
     2
284
     8
340
73
  0
DIMSTYLE
105
171
330
A
100
AcDbSymbolTableRecord
100
AcDbDimStyleTableRecord
  2
SLDDIMSTYLE3
 70
     0
 41
4.0
 44
0.0
 45
0.000000001
146
4.0
147
0.0
173
     1
178
     0
271
     0
272
     0
276
     2
340
11
  0
DIMSTYLE
105
1AE
102
{ACAD_REACTORS
330
1AD
102
}
330
A
100
AcDbSymbolTableRecord
100
AcDbDimStyleTableRecord
  2
SLDDIMSTYLE4
 70
     0
 41
4.0
 44
0.0
 45
0.000000001
 78
    12
 79
     3
140
4.7625
143
0.0393700787
147
1.190625
148
0.000000001
170
     1
172
     1
173
     1
178
     0
271
     1
272
     2
274
     3
276
     2
284
    12
289
     0
340
73
  0
ENDTAB
  0
TABLE
  2
BLOCK_RECORD
  5
1
330
0
100
AcDbSymbolTable
 70
     7
  0
BLOCK_RECORD
  5
1F
330
1
100
AcDbSymbolTableRecord
100
AcDbBlockTableRecord
  2
*Model_Space
340
22
  0
BLOCK_RECORD
  5
1B
330
1
100
AcDbSymbolTableRecord
100
AcDbBlockTableRecord
  2
*Paper_Space
340
1E
  0
BLOCK_RECORD
  5
23
330
1
100
AcDbSymbolTableRecord
100
AcDbBlockTableRecord
  2
*Paper_Space0
340
26
  0
BLOCK_RECORD
  5
A8
330
1
100
AcDbSymbolTableRecord
100
AcDbBlockTableRecord
  2
SW_BROKEN_VIEW_0
340
0
102
{BLKREFS
331
AB
102
}
  0
BLOCK_RECORD
  5
115
330
1
100
AcDbSymbolTableRecord
100
AcDbBlockTableRecord
  2
_D
340
0
  0
BLOCK_RECORD
  5
130
330
1
100
AcDbSymbolTableRecord
100
AcDbBlockTableRecord
  2
_D_1
340
0
  0
BLOCK_RECORD
  5
144
330
1
100
AcDbSymbolTableRecord
100
AcDbBlockTableRecord
  2
_D_2
340
0
  0
BLOCK_RECORD
  5
159
330
1
100
AcDbSymbolTableRecord
100
AcDbBlockTableRecord
  2
_D_3
340
0
  0
BLOCK_RECORD
  5
1AF
330
1
100
AcDbSymbolTableRecord
100
AcDbBlockTableRecord
  2
_D_4
340
0
  0
ENDTAB
  0
ENDSEC
  0
SECTION
  2
BLOCKS
  0
BLOCK
  5
20
330
1F
100
AcDbEntity
  8
0
100
AcDbBlockBegin
  2
*Model_Space
 70
     0
 10
0.0
 20
0.0
 30
0.0
  3
*Model_Space
  1

  0
ENDBLK
  5
21
330
1F
100
AcDbEntity
  8
0
100
AcDbBlockEnd
  0
BLOCK
  5
1C
330
1B
100
AcDbEntity
 67
     1
  8
0
100
AcDbBlockBegin
  2
*Paper_Space
 70
     0
 10
0.0
 20
0.0
 30
0.0
  3
*Paper_Space
  1

  0
ENDBLK
  5
1D
330
1B
100
AcDbEntity
 67
     1
  8
0
100
AcDbBlockEnd
  0
BLOCK
  5
24
330
23
100
AcDbEntity
  8
0
100
AcDbBlockBegin
  2
*Paper_Space0
 70
     0
 10
0.0
 20
0.0
 30
0.0
  3
*Paper_Space0
  1

  0
ENDBLK
  5
25
330
23
100
AcDbEntity
  8
0
100
AcDbBlockEnd
  0
BLOCK
  5
A9
330
A8
100
AcDbEntity
  8
0
100
AcDbBlockBegin
  2
SW_BROKEN_VIEW_0
 70
     0
 10
0.0
 20
0.0
 30
0.0
  3
SW_BROKEN_VIEW_0
  1

  0
ENDBLK
  5
AA
330
A8
100
AcDbEntity
  8
0
100
AcDbBlockEnd
  0
BLOCK
  5
116
330
115
100
AcDbEntity
  8
0
100
AcDbBlockBegin
  2
_D
 70
     0
 10
0.0
 20
0.0
 30
0.0
  3
_D
  1

  0
SOLID
  5
118
330
115
100
AcDbEntity
  8
SLD-0
100
AcDbTrace
 10
421.4399058042
 20
244.4379399657
 30
0.0
 11
425.4399058042
 21
243.9379399657
 31
0.0
 12
425.4399058042
 22
244.9379399657
 32
0.0
 13
425.4399058042
 23
244.9379399657
 33
0.0
  0
SOLID
  5
119
330
115
100
AcDbEntity
  8
SLD-0
100
AcDbTrace
 10
661.5641413655
 20
244.4379399657
 30
0.0
 11
657.5641413655
 21
244.9379399657
 31
0.0
 12
657.5641413655
 22
243.9379399657
 32
0.0
 13
657.5641413655
 23
243.9379399657
 33
0.0
  0
LINE
  5
11A
330
115
100
AcDbEntity
  8
SLD-0
100
AcDbLine
 10
523.8168220286
 20
244.437940897
 30
0.0
 11
522.3682282277
 21
244.437940897
 31
0.0
  0
LINE
  5
11B
330
115
100
AcDbEntity
  8
SLD-0
100
AcDbLine
 10
522.3682282277
 20
244.437940897
 30
0.0
 11
522.3682282277
 21
236.870857434
 31
0.0
  0
LINE
  5
11C
330
115
100
AcDbEntity
  8
SLD-0
100
AcDbLine
 10
522.3682282277
 20
236.870857434
 30
0.0
 11
523.8168220286
 21
236.870857434
 31
0.0
  0
LINE
  5
11D
330
115
100
AcDbEntity
  8
SLD-0
100
AcDbLine
 10
555.4433482949
 20
244.437940897
 30
0.0
 11
556.8919420958
 21
244.437940897
 31
0.0
  0
LINE
  5
11E
330
115
100
AcDbEntity
  8
SLD-0
100
AcDbLine
 10
556.8919420958
 20
244.437940897
 30
0.0
 11
556.8919420958
 21
236.870857434
 31
0.0
  0
LINE
  5
11F
330
115
100
AcDbEntity
  8
SLD-0
100
AcDbLine
 10
556.8919420958
 20
236.870857434
 30
0.0
 11
555.4433482949
 21
236.870857434
 31
0.0
  0
LINE
  5
120
330
115
100
AcDbEntity
  8
SLD-0
100
AcDbLine
 10
421.4399058042
 20
275.678856004
 30
0.0
 11
421.4399058042
 21
242.9139399657
 31
0.0
  0
LINE
  5
121
330
115
100
AcDbEntity
  8
SLD-0
100
AcDbLine
 10
661.5641413655
 20
292.2498229277
 30
0.0
 11
661.5641413655
 21
242.9139399657
 31
0.0
  0
LINE
  5
122
330
115
100
AcDbEntity
  8
SLD-0
100
AcDbLine
 10
421.4399058042
 20
244.4379399657
 30
0.0
 11
518.1980690328
 21
244.4379399657
 31
0.0
  0
LINE
  5
123
330
115
100
AcDbEntity
  8
SLD-0
100
AcDbLine
 10
661.5641413655
 20
244.4379399657
 30
0.0
 11
654.488655684
 21
244.4379399657
 31
0.0
  0
LINE
  5
124
330
115
100
AcDbEntity
  8
SLD-0
100
AcDbLine
 10
654.488655684
 20
244.4379399657
 30
0.0
 11
652.901155684
 21
241.2629399657
 31
0.0
  0
LINE
  5
125
330
115
100
AcDbEntity
  8
SLD-0
100
AcDbLine
 10
652.901155684
 20
241.2629399657
 30
0.0
 11
649.726155684
 21
247.6129399657
 31
0.0
  0
LINE
  5
126
330
115
100
AcDbEntity
  8
SLD-0
100
AcDbLine
 10
649.726155684
 20
247.6129399657
 30
0.0
 11
648.138655684
 21
244.4379399657
 31
0.0
  0
LINE
  5
127
330
115
100
AcDbEntity
  8
SLD-0
100
AcDbLine
 10
648.138655684
 20
244.4379399657
 30
0.0
 11
561.0621031533
 21
244.4379399657
 31
0.0
  0
MTEXT
  5
128
330
115
100
AcDbEntity
  8
SLD-0
100
AcDbMText
 10
519.1645649512
 20
251.4870191637
 30
0.0
 40
4.7625
 41
0.0
 71
     1
 72
     1
  1
 
  7
SLDTEXTSTYLE0
 73
     1
 44
1.0
  0
MTEXT
  5
129
330
115
100
AcDbEntity
  8
SLD-0
100
AcDbMText
 10
524.6943574649
 20
251.4870196294
 30
0.0
 40
4.7625
 41
0.0
 71
     1
 72
     1
  1
1200.0
  7
SLDTEXTSTYLE0
 73
     1
 44
1.0
  0
MTEXT
  5
12A
330
115
100
AcDbEntity
  8
SLD-0
100
AcDbMText
 10
544.044219355
 20
251.4870196294
 30
0.0
 40
4.7625
 41
0.0
 71
     1
 72
     1
  1
±30
  7
SLDTEXTSTYLE0
 73
     1
 44
1.0
  0
MTEXT
  5
12B
330
115
100
AcDbEntity
  8
SLD-0
100
AcDbMText
 10
523.8168220286
 20
242.9542072762
 30
0.0
 40
4.7625
 41
0.0
 71
     1
 72
     1
  1
47.24
  7
SLDTEXTSTYLE0
 73
     1
 44
1.0
  0
MTEXT
  5
12C
330
115
100
AcDbEntity
  8
SLD-0
100
AcDbMText
 10
539.6477244113
 20
242.9542072762
 30
0.0
 40
4.7625
 41
0.0
 71
     1
 72
     1
  1
±1.18
  7
SLDTEXTSTYLE0
 73
     1
 44
1.0
  0
MTEXT
  5
12D
330
115
100
AcDbEntity
  8
SLD-0
100
AcDbMText
 10
558.3405372937
 20
251.4870191637
 30
0.0
 40
4.7625
 41
0.0
 71
     1
 72
     1
  1
 
  7
SLDTEXTSTYLE0
 73
     1
 44
1.0
  0
ENDBLK
  5
117
330
115
100
AcDbEntity
  8
0
100
AcDbBlockEnd
  0
BLOCK
  5
131
330
130
100
AcDbEntity
  8
0
100
AcDbBlockBegin
  2
_D_1
 70
     0
 10
0.0
 20
0.0
 30
0.0
  3
_D_1
  1

  0
SOLID
  5
133
330
130
100
AcDbEntity
  8
SLD-0
100
AcDbTrace
 10
253.4481342379
 20
244.4379399657
 30
0.0
 11
257.4481342379
 21
243.9379399657
 31
0.0
 12
257.4481342379
 22
244.9379399657
 32
0.0
 13
257.4481342379
 23
244.9379399657
 33
0.0
  0
SOLID
  5
134
330
130
100
AcDbEntity
  8
SLD-0
100
AcDbTrace
 10
421.4399058042
 20
244.4379399657
 30
0.0
 11
417.4399058042
 21
244.9379399657
 31
0.0
 12
417.4399058042
 22
243.9379399657
 32
0.0
 13
417.4399058042
 23
243.9379399657
 33
0.0
  0
LINE
  5
135
330
130
100
AcDbEntity
  8
SLD-0
100
AcDbLine
 10
323.6989832214
 20
244.437940897
 30
0.0
 11
322.2503894206
 21
244.437940897
 31
0.0
  0
LINE
  5
136
330
130
100
AcDbEntity
  8
SLD-0
100
AcDbLine
 10
322.2503894206
 20
244.437940897
 30
0.0
 11
322.2503894206
 21
236.870857434
 31
0.0
  0
LINE
  5
137
330
130
100
AcDbEntity
  8
SLD-0
100
AcDbLine
 10
322.2503894206
 20
236.870857434
 30
0.0
 11
323.6989832214
 21
236.870857434
 31
0.0
  0
LINE
  5
138
330
130
100
AcDbEntity
  8
SLD-0
100
AcDbLine
 10
336.0109279595
 20
244.437940897
 30
0.0
 11
337.4595217604
 21
244.437940897
 31
0.0
  0
LINE
  5
139
330
130
100
AcDbEntity
  8
SLD-0
100
AcDbLine
 10
337.4595217604
 20
244.437940897
 30
0.0
 11
337.4595217604
 21
236.870857434
 31
0.0
  0
LINE
  5
13A
330
130
100
AcDbEntity
  8
SLD-0
100
AcDbLine
 10
337.4595217604
 20
236.870857434
 30
0.0
 11
336.0109279595
 21
236.870857434
 31
0.0
  0
LINE
  5
13B
330
130
100
AcDbEntity
  8
SLD-0
100
AcDbLine
 10
253.4481342379
 20
294.9098229277
 30
0.0
 11
253.4481342379
 21
242.9139399657
 31
0.0
  0
LINE
  5
13C
330
130
100
AcDbEntity
  8
SLD-0
100
AcDbLine
 10
421.4399058042
 20
290.4598229277
 30
0.0
 11
421.4399058042
 21
242.9139399657
 31
0.0
  0
LINE
  5
13D
330
130
100
AcDbEntity
  8
SLD-0
100
AcDbLine
 10
253.4481342379
 20
244.4379399657
 30
0.0
 11
318.0802302257
 21
244.4379399657
 31
0.0
  0
LINE
  5
13E
330
130
100
AcDbEntity
  8
SLD-0
100
AcDbLine
 10
421.4399058042
 20
244.4379399657
 30
0.0
 11
341.6296809552
 21
244.4379399657
 31
0.0
  0
MTEXT
  5
13F
330
130
100
AcDbEntity
  8
SLD-0
100
AcDbMText
 10
319.046726144
 20
251.4870191637
 30
0.0
 40
4.7625
 41
0.0
 71
     1
 72
     1
  1
 
  7
SLDTEXTSTYLE0
 73
     1
 44
1.0
  0
MTEXT
  5
140
330
130
100
AcDbEntity
  8
SLD-0
100
AcDbMText
 10
321.9395039334
 20
251.4870196294
 30
0.0
 40
4.7625
 41
0.0
 71
     1
 72
     1
  1
168.0
  7
SLDTEXTSTYLE0
 73
     1
 44
1.0
  0
MTEXT
  5
141
330
130
100
AcDbEntity
  8
SLD-0
100
AcDbMText
 10
323.6989832214
 20
242.9542072762
 30
0.0
 40
4.7625
 41
0.0
 71
     1
 72
     1
  1
6.61
  7
SLDTEXTSTYLE0
 73
     1
 44
1.0
  0
MTEXT
  5
142
330
130
100
AcDbEntity
  8
SLD-0
100
AcDbMText
 10
338.9081150956
 20
251.4870191637
 30
0.0
 40
4.7625
 41
0.0
 71
     1
 72
     1
  1
 
  7
SLDTEXTSTYLE0
 73
     1
 44
1.0
  0
ENDBLK
  5
132
330
130
100
AcDbEntity
  8
0
100
AcDbBlockEnd
  0
BLOCK
  5
145
330
144
100
AcDbEntity
  8
0
100
AcDbBlockBegin
  2
_D_2
 70
     0
 10
0.0
 20
0.0
 30
0.0
  3
_D_2
  1

  0
SOLID
  5
147
330
144
100
AcDbEntity
  8
SLD-0
100
AcDbTrace
 10
233.4440228422
 20
347.425594494
 30
0.0
 11
232.9440228422
 21
343.425594494
 31
0.0
 12
233.9440228422
 22
343.425594494
 32
0.0
 13
233.9440228422
 23
343.425594494
 33
0.0
  0
SOLID
  5
148
330
144
100
AcDbEntity
  8
SLD-0
100
AcDbTrace
 10
233.4440228422
 20
276.4420513614
 30
0.0
 11
233.9440228422
 21
280.4420513614
 31
0.0
 12
232.9440228422
 22
280.4420513614
 32
0.0
 13
232.9440228422
 23
280.4420513614
 33
0.0
  0
LINE
  5
149
330
144
100
AcDbEntity
  8
SLD-0
100
AcDbLine
 10
227.2880504731
 20
312.6625594315
 30
0.0
 11
225.8394566723
 21
312.6625594315
 31
0.0
  0
LINE
  5
14A
330
144
100
AcDbEntity
  8
SLD-0
100
AcDbLine
 10
225.8394566723
 20
312.6625594315
 30
0.0
 11
225.8394566723
 21
305.0954759684
 31
0.0
  0
LINE
  5
14B
330
144
100
AcDbEntity
  8
SLD-0
100
AcDbLine
 10
225.8394566723
 20
305.0954759684
 30
0.0
 11
227.2880504731
 21
305.0954759684
 31
0.0
  0
LINE
  5
14C
330
144
100
AcDbEntity
  8
SLD-0
100
AcDbLine
 10
239.5999952112
 20
312.6625594315
 30
0.0
 11
241.0485890121
 21
312.6625594315
 31
0.0
  0
LINE
  5
14D
330
144
100
AcDbEntity
  8
SLD-0
100
AcDbLine
 10
241.0485890121
 20
312.6625594315
 30
0.0
 11
241.0485890121
 21
305.0954759684
 31
0.0
  0
LINE
  5
14E
330
144
100
AcDbEntity
  8
SLD-0
100
AcDbLine
 10
241.0485890121
 20
305.0954759684
 30
0.0
 11
239.5999952112
 21
305.0954759684
 31
0.0
  0
LINE
  5
14F
330
144
100
AcDbEntity
  8
SLD-0
100
AcDbLine
 10
254.9200228422
 20
347.425594494
 30
0.0
 11
231.9200228422
 21
347.425594494
 31
0.0
  0
LINE
  5
150
330
144
100
AcDbEntity
  8
SLD-0
100
AcDbLine
 10
254.9200228422
 20
276.4420513614
 30
0.0
 11
231.9200228422
 21
276.4420513614
 31
0.0
  0
LINE
  5
151
330
144
100
AcDbEntity
  8
SLD-0
100
AcDbLine
 10
233.4440228422
 20
347.425594494
 30
0.0
 11
233.4440228422
 21
321.1953713191
 31
0.0
  0
LINE
  5
152
330
144
100
AcDbEntity
  8
SLD-0
100
AcDbLine
 10
233.4440228422
 20
276.4420513614
 30
0.0
 11
233.4440228422
 21
304.1297456813
 31
0.0
  0
MTEXT
  5
153
330
144
100
AcDbEntity
  8
SLD-0
100
AcDbMText
 10
222.6357933958
 20
319.7116376982
 30
0.0
 40
4.7625
 41
0.0
 71
     1
 72
     1
  1
 
  7
SLDTEXTSTYLE0
 73
     1
 44
1.0
  0
MTEXT
  5
154
330
144
100
AcDbEntity
  8
SLD-0
100
AcDbMText
 10
227.2880500075
 20
319.7116381639
 30
0.0
 40
4.7625
 41
0.0
 71
     1
 72
     1
  1
71.0
  7
SLDTEXTSTYLE0
 73
     1
 44
1.0
  0
MTEXT
  5
155
330
144
100
AcDbEntity
  8
SLD-0
100
AcDbMText
 10
227.2880504731
 20
311.1788258106
 30
0.0
 40
4.7625
 41
0.0
 71
     1
 72
     1
  1
2.79
  7
SLDTEXTSTYLE0
 73
     1
 44
1.0
  0
MTEXT
  5
156
330
144
100
AcDbEntity
  8
SLD-0
100
AcDbMText
 10
242.4971823473
 20
319.7116376982
 30
0.0
 40
4.7625
 41
0.0
 71
     1
 72
     1
  1
 
  7
SLDTEXTSTYLE0
 73
     1
 44
1.0
  0
ENDBLK
  5
146
330
144
100
AcDbEntity
  8
0
100
AcDbBlockEnd
  0
BLOCK
  5
15A
330
159
100
AcDbEntity
  8
0
100
AcDbBlockBegin
  2
_D_3
 70
     0
 10
0.0
 20
0.0
 30
0.0
  3
_D_3
  1

  0
SOLID
  5
15C
330
159
100
AcDbEntity
  8
SLD-0
100
AcDbTrace
 10
661.5641413655
 20
261.6250453953
 30
0.0
 11
657.5641413655
 21
262.1250453953
 31
0.0
 12
657.5641413655
 22
261.1250453953
 32
0.0
 13
657.5641413655
 23
261.1250453953
 33
0.0
  0
SOLID
  5
15D
330
159
100
AcDbEntity
  8
SLD-0
100
AcDbTrace
 10
591.5641246598
 20
261.6250453953
 30
0.0
 11
595.5641246598
 21
261.1250453953
 31
0.0
 12
595.5641246598
 22
262.1250453953
 32
0.0
 13
595.5641246598
 23
262.1250453953
 33
0.0
  0
LINE
  5
15E
330
159
100
AcDbEntity
  8
SLD-0
100
AcDbLine
 10
612.8650573937
 20
261.6250463267
 30
0.0
 11
611.4164635928
 21
261.6250463267
 31
0.0
  0
LINE
  5
15F
330
159
100
AcDbEntity
  8
SLD-0
100
AcDbLine
 10
611.4164635928
 20
261.6250463267
 30
0.0
 11
611.4164635928
 21
254.0579628636
 31
0.0
  0
LINE
  5
160
330
159
100
AcDbEntity
  8
SLD-0
100
AcDbLine
 10
611.4164635928
 20
254.0579628636
 30
0.0
 11
612.8650573937
 21
254.0579628636
 31
0.0
  0
LINE
  5
161
330
159
100
AcDbEntity
  8
SLD-0
100
AcDbLine
 10
637.4536683706
 20
261.6250463267
 30
0.0
 11
638.9022621715
 21
261.6250463267
 31
0.0
  0
LINE
  5
162
330
159
100
AcDbEntity
  8
SLD-0
100
AcDbLine
 10
638.9022621715
 20
261.6250463267
 30
0.0
 11
638.9022621715
 21
254.0579628636
 31
0.0
  0
LINE
  5
163
330
159
100
AcDbEntity
  8
SLD-0
100
AcDbLine
 10
638.9022621715
 20
254.0579628636
 30
0.0
 11
637.4536683706
 21
254.0579628636
 31
0.0
  0
LINE
  5
164
330
159
100
AcDbEntity
  8
SLD-0
100
AcDbLine
 10
661.5641413655
 20
292.2498229277
 30
0.0
 11
661.5641413655
 21
260.1010453953
 31
0.0
  0
LINE
  5
165
330
159
100
AcDbEntity
  8
SLD-0
100
AcDbLine
 10
591.5641246598
 20
292.6098229277
 30
0.0
 11
591.5641246598
 21
260.1010453953
 31
0.0
  0
LINE
  5
166
330
159
100
AcDbEntity
  8
SLD-0
100
AcDbLine
 10
661.5641413655
 20
261.6250453953
 30
0.0
 11
643.0724195037
 21
261.6250453953
 31
0.0
  0
LINE
  5
167
330
159
100
AcDbEntity
  8
SLD-0
100
AcDbLine
 10
591.5641246598
 20
261.6250453953
 30
0.0
 11
607.2463043979
 21
261.6250453953
 31
0.0
  0
MTEXT
  5
168
330
159
100
AcDbEntity
  8
SLD-0
100
AcDbMText
 10
608.2128003163
 20
268.6741245934
 30
0.0
 40
4.7625
 41
0.0
 71
     1
 72
     1
  1
 
  7
SLDTEXTSTYLE0
 73
     1
 44
1.0
  0
MTEXT
  5
169
330
159
100
AcDbEntity
  8
SLD-0
100
AcDbMText
 10
613.7425918987
 20
268.674125059
 30
0.0
 40
4.7625
 41
0.0
 71
     1
 72
     1
  1
70.0
  7
SLDTEXTSTYLE0
 73
     1
 44
1.0
  0
MTEXT
  5
16A
330
159
100
AcDbEntity
  8
SLD-0
100
AcDbMText
 10
626.0545366367
 20
268.674125059
 30
0.0
 40
4.7625
 41
0.0
 71
     1
 72
     1
  1
±15
  7
SLDTEXTSTYLE0
 73
     1
 44
1.0
  0
MTEXT
  5
16B
330
159
100
AcDbEntity
  8
SLD-0
100
AcDbMText
 10
612.8650573937
 20
260.1413127058
 30
0.0
 40
4.7625
 41
0.0
 71
     1
 72
     1
  1
2.76
  7
SLDTEXTSTYLE0
 73
     1
 44
1.0
  0
MTEXT
  5
16C
330
159
100
AcDbEntity
  8
SLD-0
100
AcDbMText
 10
625.1770021317
 20
260.1413127058
 30
0.0
 40
4.7625
 41
0.0
 71
     1
 72
     1
  1
±.59
  7
SLDTEXTSTYLE0
 73
     1
 44
1.0
  0
MTEXT
  5
16D
330
159
100
AcDbEntity
  8
SLD-0
100
AcDbMText
 10
640.3508536441
 20
268.6741245934
 30
0.0
 40
4.7625
 41
0.0
 71
     1
 72
     1
  1
 
  7
SLDTEXTSTYLE0
 73
     1
 44
1.0
  0
ENDBLK
  5
15B
330
159
100
AcDbEntity
  8
0
100
AcDbBlockEnd
  0
BLOCK
  5
1B0
330
1AF
100
AcDbEntity
  8
0
100
AcDbBlockBegin
  2
_D_4
 70
     0
 10
0.0
 20
0.0
 30
0.0
  3
_D_4
  1

  0
SOLID
  5
1B2
330
1AF
100
AcDbEntity
  8
SLD-0
100
AcDbTrace
 10
195.6647918902
 20
365.3098501555
 30
0.0
 11
199.6647918902
 21
364.8098501555
 31
0.0
 12
199.6647918902
 22
365.8098501555
 32
0.0
 13
199.6647918902
 23
365.8098501555
 33
0.0
  0
SOLID
  5
1B3
330
1AF
100
AcDbEntity
  8
SLD-0
100
AcDbTrace
 10
158.1647918902
 20
365.3098501555
 30
0.0
 11
154.1647918902
 21
365.8098501555
 31
0.0
 12
154.1647918902
 22
364.8098501555
 32
0.0
 13
154.1647918902
 23
364.8098501555
 33
0.0
  0
LINE
  5
1B4
330
1AF
100
AcDbEntity
  8
SLD-0
100
AcDbLine
 10
170.9339865542
 20
365.3098510868
 30
0.0
 11
169.4853927533
 21
365.3098510868
 31
0.0
  0
LINE
  5
1B5
330
1AF
100
AcDbEntity
  8
SLD-0
100
AcDbLine
 10
169.4853927533
 20
365.3098510868
 30
0.0
 11
169.4853927533
 21
357.7427676237
 31
0.0
  0
LINE
  5
1B6
330
1AF
100
AcDbEntity
  8
SLD-0
100
AcDbLine
 10
169.4853927533
 20
357.7427676237
 30
0.0
 11
170.9339865542
 21
357.7427676237
 31
0.0
  0
LINE
  5
1B7
330
1AF
100
AcDbEntity
  8
SLD-0
100
AcDbLine
 10
183.2459312922
 20
365.3098510868
 30
0.0
 11
184.6945250931
 21
365.3098510868
 31
0.0
  0
LINE
  5
1B8
330
1AF
100
AcDbEntity
  8
SLD-0
100
AcDbLine
 10
184.6945250931
 20
365.3098510868
 30
0.0
 11
184.6945250931
 21
357.7427676237
 31
0.0
  0
LINE
  5
1B9
330
1AF
100
AcDbEntity
  8
SLD-0
100
AcDbLine
 10
184.6945250931
 20
357.7427676237
 30
0.0
 11
183.2459312922
 21
357.7427676237
 31
0.0
  0
LINE
  5
1BA
330
1AF
100
AcDbEntity
  8
SLD-0
100
AcDbLine
 10
195.6647918902
 20
345.128283366
 30
0.0
 11
195.6647918902
 21
366.8338501555
 31
0.0
  0
LINE
  5
1BB
330
1AF
100
AcDbEntity
  8
SLD-0
100
AcDbLine
 10
158.1647918902
 20
345.128283366
 30
0.0
 11
158.1647918902
 21
366.8338501555
 31
0.0
  0
LINE
  5
1BC
330
1AF
100
AcDbEntity
  8
SLD-0
100
AcDbLine
 10
195.6647918902
 20
365.3098501555
 30
0.0
 11
203.6647918902
 21
365.3098501555
 31
0.0
  0
LINE
  5
1BD
330
1AF
100
AcDbEntity
  8
SLD-0
100
AcDbLine
 10
158.1647918902
 20
365.3098501555
 30
0.0
 11
150.1647918902
 21
365.3098501555
 31
0.0
  0
MTEXT
  5
1BE
330
1AF
100
AcDbEntity
  8
SLD-0
100
AcDbMText
 10
166.2817294768
 20
372.3589293535
 30
0.0
 40
4.7625
 41
0.0
 71
     1
 72
     1
  1
 
  7
SLDTEXTSTYLE0
 73
     1
 44
1.0
  0
MTEXT
  5
1BF
330
1AF
100
AcDbEntity
  8
SLD-0
100
AcDbMText
 10
170.9339860886
 20
372.3589298192
 30
0.0
 40
4.7625
 41
0.0
 71
     1
 72
     1
  1
37.5
  7
SLDTEXTSTYLE0
 73
     1
 44
1.0
  0
MTEXT
  5
1C0
330
1AF
100
AcDbEntity
  8
SLD-0
100
AcDbMText
 10
170.9339865542
 20
363.8261174659
 30
0.0
 40
4.7625
 41
0.0
 71
     1
 72
     1
  1
1.48
  7
SLDTEXTSTYLE0
 73
     1
 44
1.0
  0
MTEXT
  5
1C1
330
1AF
100
AcDbEntity
  8
SLD-0
100
AcDbMText
 10
186.1431184284
 20
372.3589293535
 30
0.0
 40
4.7625
 41
0.0
 71
     1
 72
     1
  1
 
  7
SLDTEXTSTYLE0
 73
     1
 44
1.0
  0
ENDBLK
  5
1B1
330
1AF
100
AcDbEntity
  8
0
100
AcDbBlockEnd
  0
ENDSEC
  0
SECTION
  2
ENTITIES
  0
LINE
  5
68
330
1F
100
AcDbEntity
  8
SLD-0
 62
     7
100
AcDbLine
 10
13.0
 20
545.8
 30
0.0
 11
850.6
 21
545.8
 31
0.0
  0
LINE
  5
69
330
1F
100
AcDbEntity
  8
0
  6
Continuous
 62
     7
370
    18
100
AcDbLine
 10
13.0
 20
36.0
 30
0.0
 11
850.6
 21
36.0
 31
0.0
  0
LINE
  5
6A
330
1F
100
AcDbEntity
  8
0
  6
CENTER
 62
     7
370
    18
100
AcDbLine
 10
366.9102516261
 20
17.8535393558
 30
0.0
 11
376.2532816249
 21
17.8535393558
 31
0.0
  0
LINE
  5
6B
330
1F
100
AcDbEntity
  8
0
  6
Continuous
 62
     7
370
    18
100
AcDbLine
 10
367.8560246098
 20
16.5835393558
 30
0.0
 11
375.4760246098
 21
15.3135393558
 31
0.0
  0
LINE
  5
6C
330
1F
100
AcDbEntity
  8
0
  6
Continuous
 62
     7
370
    18
100
AcDbLine
 10
367.8560246098
 20
19.1235393558
 30
0.0
 11
375.4760246098
 21
20.3935393558
 31
0.0
  0
LINE
  5
6D
330
1F
100
AcDbEntity
  8
0
  6
CENTER
 62
     7
370
    18
100
AcDbLine
 10
359.4841846098
 20
17.8535393558
 30
0.0
 11
366.0088790379
 21
17.8535393558
 31
0.0
  0
LINE
  5
6E
330
1F
100
AcDbEntity
  8
0
  6
CENTER
 62
     7
370
    18
100
AcDbLine
 10
362.7465318239
 20
14.5577954402
 30
0.0
 11
362.7465318239
 21
21.1492832714
 31
0.0
  0
LINE
  5
6F
330
1F
100
AcDbEntity
  8
0
  6
Continuous
 62
     7
370
    18
100
AcDbLine
 10
367.8560246098
 20
19.1235393558
 30
0.0
 11
367.8560246098
 21
16.5835393558
 31
0.0
  0
LINE
  5
70
330
1F
100
AcDbEntity
  8
0
  6
Continuous
 62
     7
370
    18
100
AcDbLine
 10
375.4760246098
 20
20.3935393558
 30
0.0
 11
375.4760246098
 21
15.3135393558
 31
0.0
  0
CIRCLE
  5
71
330
1F
100
AcDbEntity
  8
0
  6
Continuous
 62
     7
370
    18
100
AcDbCircle
 10
362.7465318239
 20
17.8535393558
 30
0.0
 40
2.539999999999801
  0
CIRCLE
  5
72
330
1F
100
AcDbEntity
  8
0
  6
Continuous
 62
     7
370
    18
100
AcDbCircle
 10
362.7465318239
 20
17.8535393558
 30
0.0
 40
1.269999999999822
  0
MTEXT
  5
74
330
1F
100
AcDbEntity
  8
0
  6
Continuous
 62
     7
370
     0
100
AcDbMText
 10
10.3820550102
 20
536.0223627181
 30
0.0
 40
4.7625
 41
0.0
 71
     1
 72
     1
  1
NOTES: UNLESS OTHERWISE SPECIFIED
  7
SLDTEXTSTYLE0
 73
     1
 44
1.0
  0
MTEXT
  5
75
330
1F
100
AcDbEntity
  8
0
  6
Continuous
 62
     7
370
     0
100
AcDbMText
 10
30.3820545632
 20
527.6723629326
 30
0.0
 40
4.7625
 41
0.0
 71
     1
 72
     1
  1
NET WEIGHT APPROX. .580 KG [1.27 LBS].
  7
SLDTEXTSTYLE0
 73
     1
 44
1.0
  0
MTEXT
  5
76
330
1F
100
AcDbEntity
  8
0
  6
Continuous
 62
     7
370
     0
100
AcDbMText
 10
10.3820550102
 20
527.6723629326
 30
0.0
 40
4.7625
 41
0.0
 71
     1
 72
     1
  1
1.
  7
SLDTEXTSTYLE0
 73
     1
 44
1.0
  0
MTEXT
  5
77
330
1F
100
AcDbEntity
  8
0
  6
Continuous
 62
     7
370
     0
100
AcDbMText
 10
295.5043019013
 20
28.9819567757
 30
0.0
 40
3.7041666667
 41
0.0
 71
     2
 72
     1
  1
00PW4
  7
SLDTEXTSTYLE0
 73
     1
 44
1.0
  0
MTEXT
  5
78
330
1F
100
AcDbEntity
  8
0
  6
Continuous
 62
     7
370
     0
100
AcDbMText
 10
453.4011705876
 20
17.7884262976
 30
0.0
 40
3.7041666667
 41
0.0
 71
     1
 72
     1
  1
T. GOSSARD
  7
SLDTEXTSTYLE0
 73
     1
 44
1.0
  0
MTEXT
  5
79
330
1F
100
AcDbEntity
  8
0
  6
Continuous
 62
     7
370
     0
100
AcDbMText
 10
323.1288533613
 20
33.0777444155
 30
0.0
 40
3.175
 41
0.0
 71
     1
 72
     1
  1
UNLESS  OTHERWISE  SPECIFIED
  7
SLDTEXTSTYLE0
 73
     1
 44
1.0
  0
MTEXT
  5
7A
330
1F
100
AcDbEntity
  8
0
  6
Continuous
 62
     7
370
     0
100
AcDbMText
 10
323.1288533613
 20
28.8444111333
 30
0.0
 40
3.175
 41
0.0
 71
     1
 72
     1
  1
DIMENSIONS  ARE  IN  MM [IN]
  7
SLDTEXTSTYLE0
 73
     1
 44
1.0
  0
MTEXT
  5
7B
330
1F
100
AcDbEntity
  8
0
  6
Continuous
 62
     7
370
     0
100
AcDbMText
 10
785.8422300828
 20
17.9849245354
 30
0.0
 40
3.7041666667
 41
0.0
 71
     2
 72
     1
  1
1:10
  7
SLDTEXTSTYLE0
 73
     1
 44
1.0
  0
MTEXT
  5
7C
330
1F
100
AcDbEntity
  8
0
  6
Continuous
 62
     7
370
     0
100
AcDbMText
 10
327.9605285881
 20
19.6918719363
 30
0.0
 40
3.175
 41
0.0
 71
     1
 72
     1
  1
PROJECTION
  7
SLDTEXTSTYLE0
 73
     1
 44
1.0
  0
MTEXT
  5
7D
330
1F
100
AcDbEntity
  8
0
  6
Continuous
 62
     7
370
     0
100
AcDbMText
 10
425.5151766137
 20
21.8087727956
 30
0.0
 40
3.175
 41
0.0
 71
     1
 72
     1
  1
%%p
  7
SLDTEXTSTYLE0
 73
     1
 44
1.0
  0
MTEXT
  5
7E
330
1F
100
AcDbEntity
  8
0
  6
Continuous
 62
     7
370
     0
100
AcDbMText
 10
428.5420099058
 20
21.8087727956
 30
0.0
 40
3.175
 41
0.0
 71
     1
 72
     1
  1
1
  7
SLDTEXTSTYLE0
 73
     1
 44
1.0
  0
MTEXT
  5
7F
330
1F
100
AcDbEntity
  8
0
  6
Continuous
 62
     7
370
     0
100
AcDbMText
 10
430.8879821346
 20
21.8087727956
 30
0.0
 40
3.175
 41
0.0
 71
     1
 72
     1
  1
%%d
  7
SLDTEXTSTYLE0
 73
     1
 44
1.0
  0
MTEXT
  5
80
330
1F
100
AcDbEntity
  8
0
  6
Continuous
 62
     7
370
     0
100
AcDbMText
 10
394.0737550472
 20
21.8087727956
 30
0.0
 40
3.175
 41
0.0
 71
     1
 72
     1
  1
.X 
  7
SLDTEXTSTYLE0
 73
     1
 44
1.0
  0
MTEXT
  5
81
330
1F
100
AcDbEntity
  8
0
  6
Continuous
 62
     7
370
     0
100
AcDbMText
 10
398.9891256531
 20
21.8087727956
 30
0.0
 40
3.175
 41
0.0
 71
     1
 72
     1
  1
%%p
  7
SLDTEXTSTYLE0
 73
     1
 44
1.0
  0
MTEXT
  5
82
330
1F
100
AcDbEntity
  8
0
  6
Continuous
 62
     7
370
     0
100
AcDbMText
 10
402.0159584795
 20
21.8087727956
 30
0.0
 40
3.175
 41
0.0
 71
     1
 72
     1
  1
 3 [.12]
  7
SLDTEXTSTYLE0
 73
     1
 44
1.0
  0
MTEXT
  5
83
330
1F
100
AcDbEntity
  8
0
  6
Continuous
 62
     7
370
     0
100
AcDbMText
 10
394.0737550472
 20
17.5754395134
 30
0.0
 40
3.175
 41
0.0
 71
     1
 72
     1
  1
.XX 
  7
SLDTEXTSTYLE0
 73
     1
 44
1.0
  0
MTEXT
  5
84
330
1F
100
AcDbEntity
  8
0
  6
Continuous
 62
     7
370
     0
100
AcDbMText
 10
401.5644030039
 20
17.5754395134
 30
0.0
 40
3.175
 41
0.0
 71
     1
 72
     1
  1
%%p
  7
SLDTEXTSTYLE0
 73
     1
 44
1.0
  0
MTEXT
  5
85
330
1F
100
AcDbEntity
  8
0
  6
Continuous
 62
     7
370
     0
100
AcDbMText
 10
682.8484867858
 20
27.106941941
 30
0.0
 40
6.35
 41
0.0
 71
     2
 72
     1
  1
ACCESSORY,POWER SUPPLY,NV-21-PSU
  7
SLDTEXTSTYLE0
 73
     1
 44
1.0
  0
MTEXT
  5
86
330
1F
100
AcDbEntity
  8
0
  6
Continuous
 62
     7
370
     0
100
AcDbMText
 10
394.1291861843
 20
33.0777444155
 30
0.0
 40
3.175
 41
0.0
 71
     1
 72
     1
  1
TOLERANCES  ARE:
  7
SLDTEXTSTYLE0
 73
     1
 44
1.0
  0
MTEXT
  5
87
330
1F
100
AcDbEntity
  8
0
  6
Continuous
 62
     7
370
     0
100
AcDbMText
 10
394.1291861843
 20
28.8444111333
 30
0.0
 40
3.175
 41
0.0
 71
     1
 72
     1
  1
DECIMALS          ANGLES
  7
SLDTEXTSTYLE0
 73
     1
 44
1.0
  0
MTEXT
  5
88
330
1F
100
AcDbEntity
  8
0
  6
Continuous
 62
     7
370
     0
100
AcDbMText
 10
507.2368872533
 20
21.8062403245
 30
0.0
 40
2.6458333333
 41
0.0
 71
     1
 72
     1
  1
MFG ENGINEER
  7
SLDTEXTSTYLE0
 73
     1
 44
1.0
  0
MTEXT
  5
89
330
1F
100
AcDbEntity
  8
0
  6
Continuous
 62
     7
370
     0
100
AcDbMText
 10
453.4011705876
 20
21.8062403245
 30
0.0
 40
2.6458333333
 41
0.0
 71
     1
 72
     1
  1
MECH ENGINEER
  7
SLDTEXTSTYLE0
 73
     1
 44
1.0
  0
MTEXT
  5
8B
330
1F
100
AcDbEntity
  8
0
  6
Continuous
 62
     7
370
     0
100
AcDbMText
 10
770.9809949308
 20
17.5597523616
 30
0.0
 40
2.6458333333
 41
0.0
 71
     1
 72
     1
  1
SCALE:  
  7
SLDTEXTSTYLE1
 73
     1
 44
1.0
  0
MTEXT
  5
8C
330
1F
100
AcDbEntity
  8
SLD-0
 62
     7
100
AcDbMText
 10
770.8270341986
 20
27.7753595768
 30
0.0
 40
6.35
 41
0.0
 71
     1
 72
     1
  1
FG-901591-2D
  7
SLDTEXTSTYLE0
 73
     1
 44
1.0
  0
MTEXT
  5
8D
330
1F
100
AcDbEntity
  8
0
  6
Continuous
 62
     7
370
     0
100
AcDbMText
 10
843.7692246236
 20
27.8523399428
 30
0.0
 40
6.35
 41
0.0
 71
     2
 72
     1
  1
A
  7
SLDTEXTSTYLE0
 73
     1
 44
1.0
  0
MTEXT
  5
8E
330
1F
100
AcDbEntity
  8
0
  6
Continuous
 62
     7
370
     0
100
AcDbMText
 10
841.5970786686
 20
17.9849245354
 30
0.0
 40
3.7041666667
 41
0.0
 71
     2
 72
     1
  1
1  OF  1
  7
SLDTEXTSTYLE0
 73
     1
 44
1.0
  0
MTEXT
  5
8F
330
1F
100
AcDbEntity
  8
0
  6
Continuous
 62
     7
370
     0
100
AcDbMText
 10
770.9809949308
 20
32.8518608785
 30
0.0
 40
2.6458333333
 41
0.0
 71
     1
 72
     1
  1
DRAWING NUMBER
  7
SLDTEXTSTYLE0
 73
     1
 44
1.0
  0
MTEXT
  5
90
330
1F
100
AcDbEntity
  8
SLD-0
 62
     7
100
AcDbMText
 10
507.2368872533
 20
32.8184112811
 30
0.0
 40
2.6458333333
 41
0.0
 71
     1
 72
     1
  1
TECH DIRECTOR
  7
SLDTEXTSTYLE0
 73
     1
 44
1.0
  0
MTEXT
  5
91
330
1F
100
AcDbEntity
  8
SLD-0
 62
     7
100
AcDbMText
 10
453.4011705876
 20
32.8184112811
 30
0.0
 40
2.6458333333
 41
0.0
 71
     1
 72
     1
  1
DRAWN BY
  7
SLDTEXTSTYLE0
 73
     1
 44
1.0
  0
MTEXT
  5
92
330
1F
100
AcDbEntity
  8
SLD-0
 62
     7
100
AcDbMText
 10
453.4011705876
 20
29.0353427065
 30
0.0
 40
3.7041666667
 41
0.0
 71
     1
 72
     1
  1
M. DAVILA
  7
SLDTEXTSTYLE0
 73
     1
 44
1.0
  0
MTEXT
  5
93
330
1F
100
AcDbEntity
  8
SLD-0
 62
     7
100
AcDbMText
 10
507.2368872533
 20
17.7884262976
 30
0.0
 40
3.7041666667
 41
0.0
 71
     1
 72
     1
  1
T. MORGAN
  7
SLDTEXTSTYLE0
 73
     1
 44
1.0
  0
MTEXT
  5
94
330
1F
100
AcDbEntity
  8
SLD-0
 62
     7
100
AcDbMText
 10
507.2368872533
 20
29.0353427065
 30
0.0
 40
3.7041666667
 41
0.0
 71
     1
 72
     1
  1
D. PARKINSON
  7
SLDTEXTSTYLE0
 73
     1
 44
1.0
  0
MTEXT
  5
96
330
1F
100
AcDbEntity
  8
0
  6
Continuous
 62
     7
370
     0
100
AcDbMText
 10
219.2539871701
 20
29.9000093356
 30
0.0
 40
2.1166666667
 41
0.0
 71
     2
 72
     1
  1
THIS DOCUMENT CONTAINS CONFIDENTIAL OR PROPRIETARY INFORMATION WHICH 
  7
SLDTEXTSTYLE2
 73
     1
 44
1.0
  0
MTEXT
  5
97
330
1F
100
AcDbEntity
  8
0
  6
Continuous
 62
     7
370
     0
100
AcDbMText
 10
219.4368646347
 20
27.0777871475
 30
0.0
 40
2.1166666667
 41
0.0
 71
     2
 72
     1
  1
IS THE PROPERTY OF QSC, LLC THAT MAY NOT BE DISCLOSED, REPRODUCED OR 
  7
SLDTEXTSTYLE2
 73
     1
 44
1.0
  0
MTEXT
  5
98
330
1F
100
AcDbEntity
  8
0
  6
Continuous
 62
     7
370
     0
100
AcDbMText
 10
219.3957803042
 20
24.2555649594
 30
0.0
 40
2.1166666667
 41
0.0
 71
     2
 72
     1
  1
USED WITHOUT EXPRESS WRITTEN CONSENT FROM QSC, LLC. NO PORTION OF THIS 
  7
SLDTEXTSTYLE2
 73
     1
 44
1.0
  0
MTEXT
  5
99
330
1F
100
AcDbEntity
  8
0
  6
Continuous
 62
     7
370
     0
100
AcDbMText
 10
219.325223306
 20
21.4333427713
 30
0.0
 40
2.1166666667
 41
0.0
 71
     2
 72
     1
  1
DOCUMENT MAY BE REPRODUCED, REDISTRIBUTED, OR OTHERWISE DISCLOSED TO 
  7
SLDTEXTSTYLE2
 73
     1
 44
1.0
  0
MTEXT
  5
9B
330
1F
100
AcDbEntity
  8
0
  6
Continuous
 62
     7
370
     0
100
AcDbMText
 10
218.97644348
 20
18.6111205832
 30
0.0
 40
2.1166666667
 41
0.0
 71
     2
 72
     1
  1
ANY THIRD PARTY WITHOUT QSC\U+2019S WRITTEN PERMISSION.
  7
SLDTEXTSTYLE3
 73
     1
 44
1.0
  0
MTEXT
  5
9C
330
1F
100
AcDbEntity
  8
0
  6
Continuous
 62
     7
370
     0
100
AcDbMText
 10
820.2888488759
 20
17.4944348222
 30
0.0
 40
2.6458333333
 41
0.0
 71
     1
 72
     1
  1
SHEET:
  7
SLDTEXTSTYLE0
 73
     1
 44
1.0
  0
MTEXT
  5
9D
330
1F
100
AcDbEntity
  8
SLD-0
100
AcDbMText
 10
97.8307203839
 20
30.5931483324
 30
0.0
 40
4.2333333333
 41
0.0
 71
     1
 72
     1
  1
QSC, LLC
  7
SLDTEXTSTYLE0
 73
     1
 44
1.0
  0
MTEXT
  5
9E
330
1F
100
AcDbEntity
  8
0
  6
Continuous
 62
     7
370
     0
100
AcDbMText
 10
844.0018372523
 20
32.9050913038
 30
0.0
 40
2.6458333333
 41
0.0
 71
     2
 72
     1
  1
REV
  7
SLDTEXTSTYLE0
 73
     1
 44
1.0
  0
MTEXT
  5
9F
330
1F
100
AcDbEntity
  8
SLD-0
 62
     7
100
AcDbMText
 10
560.546153547
 20
32.8184112811
 30
0.0
 40
2.6458333333
 41
0.0
 71
     1
 72
     1
  1
REV BY
  7
SLDTEXTSTYLE0
 73
     1
 44
1.0
  0
MTEXT
  5
A0
330
1F
100
AcDbEntity
  8
SLD-0
 62
     7
100
AcDbMText
 10
560.546153547
 20
29.0353427065
 30
0.0
 40
3.7041666667
 41
0.0
 71
     1
 72
     1
  1
MD
  7
SLDTEXTSTYLE0
 73
     1
 44
1.0
  0
MTEXT
  5
A1
330
1F
100
AcDbEntity
  8
SLD-0
 62
     7
100
AcDbMText
 10
560.546153547
 20
17.7884262976
 30
0.0
 40
3.7041666667
 41
0.0
 71
     1
 72
     1
  1
10-MAY-2023
  7
SLDTEXTSTYLE0
 73
     1
 44
1.0
  0
MTEXT
  5
A2
330
1F
100
AcDbEntity
  8
0
  6
Continuous
 62
     7
370
     0
100
AcDbMText
 10
560.546153547
 20
21.8062403245
 30
0.0
 40
2.6458333333
 41
0.0
 71
     1
 72
     1
  1
REV DATE
  7
SLDTEXTSTYLE0
 73
     1
 44
1.0
  0
MTEXT
  5
A3
330
1F
100
AcDbEntity
  8
SLD-0
100
AcDbMText
 10
295.5471677433
 20
22.2629071355
 30
0.0
 40
2.6458333333
 41
0.0
 71
     2
 72
     1
  1
FORM
  7
SLDTEXTSTYLE0
 73
     1
 44
1.0
  0
MTEXT
  5
A4
330
1F
100
AcDbEntity
  8
0
  6
Continuous
 62
     7
370
     0
100
AcDbMText
 10
295.9613660503
 20
18.2808667991
 30
0.0
 40
3.7041666667
 41
0.0
 71
     2
 72
     1
  1
QOS40169 B
  7
SLDTEXTSTYLE0
 73
     1
 44
1.0
  0
MTEXT
  5
A5
330
1F
100
AcDbEntity
  8
SLD-0
100
AcDbMText
 10
98.4427247375
 20
18.4600960709
 30
0.0
 40
3.175
 41
0.0
 71
     1
 72
     1
  1
COSTA MESA, CA 92626 USA
  7
SLDTEXTSTYLE0
 73
     1
 44
1.0
  0
MTEXT
  5
A6
330
1F
100
AcDbEntity
  8
SLD-0
100
AcDbMText
 10
98.2987012991
 20
23.8772967061
 30
0.0
 40
3.175
 41
0.0
 71
     1
 72
     1
  1
1675 MACARTHUR BLVD
  7
SLDTEXTSTYLE0
 73
     1
 44
1.0
  0
MTEXT
  5
A7
330
1F
100
AcDbEntity
  8
SLD-0
 62
     7
100
AcDbMText
 10
295.6823598987
 20
33.1439750107
 30
0.0
 40
2.6458333333
 41
0.0
 71
     2
 72
     1
  1
CAGE CODE
  7
SLDTEXTSTYLE0
 73
     1
 44
1.0
  0
INSERT
  5
AB
330
1F
100
AcDbEntity
  8
0
  6
Continuous
 62
     7
100
AcDbBlockReference
  2
SW_BROKEN_VIEW_0
 10
0.0
 20
0.0
 30
0.0
  0
LINE
  5
AC
330
1F
100
AcDbEntity
  8
0
  6
Continuous
 62
     7
370
    25
100
AcDbLine
 10
657.3212235942
 20
298.8538229817
 30
0.0
 11
657.3212235942
 21
300.4538230577
 31
0.0
  0
ARC
  5
AD
330
1F
100
AcDbEntity
  8
0
  6
Continuous
 62
     7
370
    25
100
AcDbCircle
 10
586.8141368308
 20
290.0838348491
 30
0.0
 40
2.000011453605232
100
AcDbArc
 50
269.9993582375
 51
359.9996812753
  0
ARC
  5
AE
330
1F
100
AcDbEntity
  8
0
  6
Continuous
 62
     7
370
    25
100
AcDbCircle
 10
586.8141348435
 20
307.3838093949
 30
0.0
 40
2.000013440932087
100
AcDbArc
 50
0.0003823274
 51
90.0005848299
  0
LINE
  5
AF
330
1F
100
AcDbEntity
  8
0
  6
Continuous
 62
     7
370
    25
100
AcDbLine
 10
552.814134933
 20
288.0838233956
 30
0.0
 11
586.814114429
 21
288.0838233956
 31
0.0
  0
LINE
  5
B0
330
1F
100
AcDbEntity
  8
0
  6
Continuous
 62
     7
370
    25
100
AcDbLine
 10
586.814114429
 20
309.3838228357
 30
0.0
 11
552.814134933
 21
309.3838228357
 31
0.0
  0
ARC
  5
B1
330
1F
100
AcDbEntity
  8
0
  6
Continuous
 62
     7
370
    25
100
AcDbCircle
 10
552.8141125311
 20
290.0838348491
 30
0.0
 40
2.000011453605247
100
AcDbArc
 50
180.0003187247
 51
270.0006417625
  0
ARC
  5
B2
330
1F
100
AcDbEntity
  8
0
  6
Continuous
 62
     7
370
    25
100
AcDbCircle
 10
552.8141145184
 20
307.3838093949
 30
0.0
 40
2.000013440932169
100
AcDbArc
 50
89.9994151701
 51
179.9996176726
  0
LINE
  5
B3
330
1F
100
AcDbEntity
  8
0
  6
Continuous
 62
     7
370
    25
100
AcDbLine
 10
588.8141482844
 20
293.1338231989
 30
0.0
 11
590.564140655
 21
293.1338231989
 31
0.0
  0
LINE
  5
B4
330
1F
100
AcDbEntity
  8
0
  6
Continuous
 62
     7
370
    25
100
AcDbLine
 10
590.564140655
 20
304.3338227996
 30
0.0
 11
588.8141482844
 21
304.3338227996
 31
0.0
  0
ARC
  5
B5
330
1F
100
AcDbEntity
  8
0
  6
Continuous
 62
     7
370
    25
100
AcDbCircle
 10
590.5641204635
 20
294.1338305156
 30
0.0
 40
1.000007316932574
100
AcDbArc
 50
270.0011568799
 51
359.9995901768
  0
ARC
  5
B6
330
1F
100
AcDbEntity
  8
0
  6
Continuous
 62
     7
370
    25
100
AcDbCircle
 10
590.5641204635
 20
303.3338154828
 30
0.0
 40
1.000007316932517
100
AcDbArc
 50
0.0004098232
 51
89.9988431201
  0
LINE
  5
B7
330
1F
100
AcDbEntity
  8
0
  6
Continuous
 62
     7
370
    25
100
AcDbLine
 10
549.0641087069
 20
293.1338231989
 30
0.0
 11
550.8141010775
 21
293.1338231989
 31
0.0
  0
LINE
  5
B8
330
1F
100
AcDbEntity
  8
0
  6
Continuous
 62
     7
370
    25
100
AcDbLine
 10
550.8141010775
 20
304.3338227996
 30
0.0
 11
549.0641087069
 21
304.3338227996
 31
0.0
  0
ARC
  5
B9
330
1F
100
AcDbEntity
  8
0
  6
Continuous
 62
     7
370
    25
100
AcDbCircle
 10
549.0641288984
 20
294.1338305156
 30
0.0
 40
1.000007316932517
100
AcDbArc
 50
180.0004098232
 51
269.9988431201
  0
ARC
  5
BA
330
1F
100
AcDbEntity
  8
0
  6
Continuous
 62
     7
370
    25
100
AcDbCircle
 10
549.0641288984
 20
303.3338154828
 30
0.0
 40
1.000007316932517
100
AcDbArc
 50
90.0011568799
 51
179.9995901768
  0
LINE
  5
BB
330
1F
100
AcDbEntity
  8
0
  6
Continuous
 62
     7
370
    25
100
AcDbLine
 10
591.5641277804
 20
295.7338225075
 30
0.0
 11
636.5641444697
 21
295.7338225075
 31
0.0
  0
LINE
  5
BC
330
1F
100
AcDbEntity
  8
0
  6
Continuous
 62
     7
370
    25
100
AcDbLine
 10
636.5641444697
 20
301.7338225597
 30
0.0
 11
591.5641277804
 21
301.7338225597
 31
0.0
  0
LINE
  5
BD
330
1F
100
AcDbEntity
  8
0
  6
Continuous
 62
     7
370
    25
100
AcDbLine
 10
495.3616946711
 20
295.7338225075
 30
0.0
 11
548.0641215815
 21
295.7338225075
 31
0.0
  0
LINE
  5
BE
330
1F
100
AcDbEntity
  8
0
  6
Continuous
 62
     7
370
    25
100
AcDbLine
 10
548.0641215815
 20
301.7338225597
 30
0.0
 11
494.2976921572
 21
301.7338225597
 31
0.0
  0
LINE
  5
BF
330
1F
100
AcDbEntity
  8
0
  6
Continuous
 62
     7
370
    25
100
AcDbLine
 10
653.9520710482
 20
300.4538230577
 30
0.0
 11
653.9520710482
 21
298.8538229817
 31
0.0
  0
LINE
  5
C0
330
1F
100
AcDbEntity
  8
0
  6
Continuous
 62
     7
370
    25
100
AcDbLine
 10
653.9520710482
 20
300.4538230577
 30
0.0
 11
656.0117095484
 21
300.4538230577
 31
0.0
  0
LINE
  5
C1
330
1F
100
AcDbEntity
  8
0
  6
Continuous
 62
     7
370
    25
100
AcDbLine
 10
656.0117095484
 20
298.8538229817
 30
0.0
 11
653.9520710482
 21
298.8538229817
 31
0.0
  0
LINE
  5
C2
330
1F
100
AcDbEntity
  8
0
  6
Continuous
 62
     7
370
    25
100
AcDbLine
 10
652.7712434306
 20
300.4538230577
 30
0.0
 11
653.9520710482
 21
300.4538230577
 31
0.0
  0
LINE
  5
C3
330
1F
100
AcDbEntity
  8
0
  6
Continuous
 62
     7
370
    25
100
AcDbLine
 10
652.7712434306
 20
298.8538229817
 30
0.0
 11
653.9520710482
 21
298.8538229817
 31
0.0
  0
LINE
  5
C4
330
1F
100
AcDbEntity
  8
0
  6
Continuous
 62
     7
370
    25
100
AcDbLine
 10
652.4176686778
 20
300.4538230577
 30
0.0
 11
652.7712434306
 21
300.4538230577
 31
0.0
  0
LINE
  5
C5
330
1F
100
AcDbEntity
  8
0
  6
Continuous
 62
     7
370
    25
100
AcDbLine
 10
652.7712434306
 20
298.8538229817
 30
0.0
 11
652.4176686778
 21
298.8538229817
 31
0.0
  0
LINE
  5
C6
330
1F
100
AcDbEntity
  8
0
  6
Continuous
 62
     7
370
    25
100
AcDbLine
 10
650.649914123
 20
300.4538230577
 30
0.0
 11
652.4176686778
 21
300.4538230577
 31
0.0
  0
LINE
  5
C7
330
1F
100
AcDbEntity
  8
0
  6
Continuous
 62
     7
370
    25
100
AcDbLine
 10
652.4176686778
 20
298.8538229817
 30
0.0
 11
650.649914123
 21
298.8538229817
 31
0.0
  0
LINE
  5
C8
330
1F
100
AcDbEntity
  8
0
  6
Continuous
 62
     7
370
    25
100
AcDbLine
 10
656.0117095484
 20
300.4538230577
 30
0.0
 11
656.3733309283
 21
300.4538230577
 31
0.0
  0
LINE
  5
C9
330
1F
100
AcDbEntity
  8
0
  6
Continuous
 62
     7
370
    25
100
AcDbLine
 10
656.3733309283
 20
298.8538229817
 30
0.0
 11
656.0117095484
 21
298.8538229817
 31
0.0
  0
LINE
  5
CA
330
1F
100
AcDbEntity
  8
0
  6
Continuous
 62
     7
370
    25
100
AcDbLine
 10
656.3733309283
 20
300.4538230577
 30
0.0
 11
657.2333663478
 21
300.4538230577
 31
0.0
  0
LINE
  5
CB
330
1F
100
AcDbEntity
  8
0
  6
Continuous
 62
     7
370
    25
100
AcDbLine
 10
657.2333663478
 20
298.8538229817
 30
0.0
 11
656.3733309283
 21
298.8538229817
 31
0.0
  0
LINE
  5
CC
330
1F
100
AcDbEntity
  8
0
  6
Continuous
 62
     7
370
    25
100
AcDbLine
 10
657.2333663478
 20
300.4538230577
 30
0.0
 11
657.3212235942
 21
300.4538230577
 31
0.0
  0
LINE
  5
CD
330
1F
100
AcDbEntity
  8
0
  6
Continuous
 62
     7
370
    25
100
AcDbLine
 10
657.3212235942
 20
298.8538229817
 30
0.0
 11
657.2333663478
 21
298.8538229817
 31
0.0
  0
LINE
  5
CE
330
1F
100
AcDbEntity
  8
0
  6
Continuous
 62
     7
370
    25
100
AcDbLine
 10
649.2357343211
 20
300.4538230577
 30
0.0
 11
650.649914123
 21
300.4538230577
 31
0.0
  0
LINE
  5
CF
330
1F
100
AcDbEntity
  8
0
  6
Continuous
 62
     7
370
    25
100
AcDbLine
 10
650.649914123
 20
298.8538229817
 30
0.0
 11
649.2357343211
 21
298.8538229817
 31
0.0
  0
LINE
  5
D0
330
1F
100
AcDbEntity
  8
0
  6
Continuous
 62
     7
370
    25
100
AcDbLine
 10
642.5641268267
 20
293.7738224843
 30
0.0
 11
642.5641268267
 21
303.9338225477
 31
0.0
  0
LINE
  5
D1
330
1F
100
AcDbEntity
  8
0
  6
Continuous
 62
     7
370
    25
100
AcDbLine
 10
641.5641397013
 20
303.9338225477
 30
0.0
 11
641.5641397013
 21
293.7738224843
 31
0.0
  0
LINE
  5
D2
330
1F
100
AcDbEntity
  8
0
  6
Continuous
 62
     7
370
    25
100
AcDbLine
 10
641.5641397013
 20
303.9338225477
 30
0.0
 11
642.5641268267
 21
303.9338225477
 31
0.0
  0
LINE
  5
D3
330
1F
100
AcDbEntity
  8
0
  6
Continuous
 62
     7
370
    25
100
AcDbLine
 10
642.5641268267
 20
293.7738224843
 30
0.0
 11
641.5641397013
 21
293.7738224843
 31
0.0
  0
ARC
  5
D4
330
1F
100
AcDbEntity
  8
0
  6
Continuous
 62
     7
370
    25
100
AcDbCircle
 10
650.8641332164
 20
294.5138066989
 30
0.0
 40
0.458240509339827
100
AcDbArc
 50
179.9979039876
 51
0.0020960124
  0
ARC
  5
D5
330
1F
100
AcDbEntity
  8
0
  6
Continuous
 62
     7
370
    25
100
AcDbCircle
 10
650.8641332164
 20
294.5138402259
 30
0.0
 40
0.458240509339827
100
AcDbArc
 50
359.9979039876
 51
180.0020960124
  0
ARC
  5
D6
330
1F
100
AcDbEntity
  8
0
  6
Continuous
 62
     7
370
    25
100
AcDbCircle
 10
650.8641332164
 20
303.1938057374
 30
0.0
 40
0.458240509339827
100
AcDbArc
 50
179.9979039876
 51
0.0020960124
  0
ARC
  5
D7
330
1F
100
AcDbEntity
  8
0
  6
Continuous
 62
     7
370
    25
100
AcDbCircle
 10
650.8641332164
 20
303.1938401957
 30
0.0
 40
0.458240509374842
100
AcDbArc
 50
359.9977875447
 51
180.0022124553
  0
LINE
  5
D8
330
1F
100
AcDbEntity
  8
0
  6
Continuous
 62
     7
370
    25
100
AcDbLine
 10
653.2641142382
 20
298.8538229817
 30
0.0
 11
653.2641142382
 21
293.7738224843
 31
0.0
  0
LINE
  5
D9
330
1F
100
AcDbEntity
  8
0
  6
Continuous
 62
     7
370
    25
100
AcDbLine
 10
653.2641142382
 20
303.9338225477
 30
0.0
 11
653.2641142382
 21
300.4538230577
 31
0.0
  0
LINE
  5
DA
330
1F
100
AcDbEntity
  8
0
  6
Continuous
 62
     7
370
    25
100
AcDbLine
 10
642.5641268267
 20
303.9338225477
 30
0.0
 11
653.2641142382
 21
303.9338225477
 31
0.0
  0
LINE
  5
DB
330
1F
100
AcDbEntity
  8
0
  6
Continuous
 62
     7
370
    25
100
AcDbLine
 10
642.5641268267
 20
293.7738224843
 30
0.0
 11
653.2641142382
 21
293.7738224843
 31
0.0
  0
LINE
  5
DC
330
1F
100
AcDbEntity
  8
0
  6
Continuous
 62
     7
370
    25
100
AcDbLine
 10
636.5641444697
 20
303.9338225477
 30
0.0
 11
636.5641444697
 21
293.7738224843
 31
0.0
  0
LINE
  5
DD
330
1F
100
AcDbEntity
  8
0
  6
Continuous
 62
     7
370
    25
100
AcDbLine
 10
641.5641397013
 20
303.9338225477
 30
0.0
 11
636.5641444697
 21
303.9338225477
 31
0.0
  0
LINE
  5
DE
330
1F
100
AcDbEntity
  8
0
  6
Continuous
 62
     7
370
    25
100
AcDbLine
 10
641.5641397013
 20
293.7738224843
 30
0.0
 11
636.5641444697
 21
293.7738224843
 31
0.0
  0
LINE
  5
DF
330
1F
100
AcDbEntity
  8
0
  6
Continuous
 62
     7
370
    25
100
AcDbLine
 10
661.5641206279
 20
293.7738224843
 30
0.0
 11
661.5641206279
 21
295.0588222572
 31
0.0
  0
LINE
  5
E0
330
1F
100
AcDbEntity
  8
0
  6
Continuous
 62
     7
370
    25
100
AcDbLine
 10
661.5641206279
 20
295.0588222572
 30
0.0
 11
653.2641142382
 21
295.0588222572
 31
0.0
  0
LINE
  5
E1
330
1F
100
AcDbEntity
  8
0
  6
Continuous
 62
     7
370
    25
100
AcDbLine
 10
653.2641142382
 20
293.7738224843
 30
0.0
 11
661.5641206279
 21
293.7738224843
 31
0.0
  0
LINE
  5
E2
330
1F
100
AcDbEntity
  8
0
  6
Continuous
 62
     7
370
    25
100
AcDbLine
 10
661.5641206279
 20
300.1388227546
 30
0.0
 11
657.3212235942
 21
300.1388227546
 31
0.0
  0
LINE
  5
E3
330
1F
100
AcDbEntity
  8
0
  6
Continuous
 62
     7
370
    25
100
AcDbLine
 10
653.2641142382
 20
297.5688232088
 30
0.0
 11
661.5641206279
 21
297.5688232088
 31
0.0
  0
LINE
  5
E4
330
1F
100
AcDbEntity
  8
0
  6
Continuous
 62
     7
370
    25
100
AcDbLine
 10
661.5641206279
 20
297.5688232088
 30
0.0
 11
661.5641206279
 21
300.1388227546
 31
0.0
  0
LINE
  5
E5
330
1F
100
AcDbEntity
  8
0
  6
Continuous
 62
     7
370
    25
100
AcDbLine
 10
653.2641142382
 20
302.6488227748
 30
0.0
 11
661.5641206279
 21
302.6488227748
 31
0.0
  0
LINE
  5
E6
330
1F
100
AcDbEntity
  8
0
  6
Continuous
 62
     7
370
    25
100
AcDbLine
 10
661.5641206279
 20
302.6488227748
 30
0.0
 11
661.5641206279
 21
303.9338225477
 31
0.0
  0
LINE
  5
E7
330
1F
100
AcDbEntity
  8
0
  6
Continuous
 62
     7
370
    25
100
AcDbLine
 10
661.5641206279
 20
303.9338225477
 30
0.0
 11
653.2641142382
 21
303.9338225477
 31
0.0
  0
LINE
  5
E8
330
1F
100
AcDbEntity
  8
0
  6
Continuous
 62
     7
370
    25
100
AcDbLine
 10
661.5641206279
 20
295.0588222572
 30
0.0
 11
661.5641206279
 21
297.5688232088
 31
0.0
  0
LINE
  5
E9
330
1F
100
AcDbEntity
  8
0
  6
Continuous
 62
     7
370
    25
100
AcDbLine
 10
661.5641206279
 20
300.1388227546
 30
0.0
 11
661.5641206279
 21
302.6488227748
 31
0.0
  0
LINE
  5
EA
330
1F
100
AcDbEntity
  8
0
  6
Continuous
 62
     7
370
    25
100
AcDbLine
 10
588.8141482844
 20
290.0838237234
 30
0.0
 11
588.8141482844
 21
307.3838218094
 31
0.0
  0
LINE
  5
EB
330
1F
100
AcDbEntity
  8
0
  6
Continuous
 62
     7
370
    25
100
AcDbLine
 10
550.8141010775
 20
290.0838237234
 30
0.0
 11
550.8141010775
 21
307.3838218094
 31
0.0
  0
LINE
  5
EC
330
1F
100
AcDbEntity
  8
0
  6
Continuous
 62
     7
370
    25
100
AcDbLine
 10
591.5641277804
 20
294.1338233628
 30
0.0
 11
591.5641277804
 21
303.3338226357
 31
0.0
  0
LINE
  5
ED
330
1F
100
AcDbEntity
  8
0
  6
Continuous
 62
     7
370
    25
100
AcDbLine
 10
548.0641215815
 20
294.1338233628
 30
0.0
 11
548.0641215815
 21
303.3338226357
 31
0.0
  0
LINE
  5
EE
330
1F
100
AcDbEntity
  8
0
  6
Continuous
 62
     7
370
    25
100
AcDbLine
 10
421.4399136932
 20
291.9838223585
 30
0.0
 11
424.8398818405
 21
291.9838223585
 31
0.0
  0
LINE
  5
EF
330
1F
100
AcDbEntity
  8
0
  6
Continuous
 62
     7
370
    25
100
AcDbLine
 10
424.8398818405
 20
305.4838227087
 30
0.0
 11
421.4399136932
 21
305.4838227087
 31
0.0
  0
LINE
  5
F0
330
1F
100
AcDbEntity
  8
0
  6
Continuous
 62
     7
370
    25
100
AcDbLine
 10
424.8398818405
 20
293.608823789
 30
0.0
 11
426.3398923309
 21
293.608823789
 31
0.0
  0
LINE
  5
F1
330
1F
100
AcDbEntity
  8
0
  6
Continuous
 62
     7
370
    25
100
AcDbLine
 10
426.3398923309
 20
303.8588231408
 30
0.0
 11
424.8398818405
 21
303.8588231408
 31
0.0
  0
LINE
  5
F2
330
1F
100
AcDbEntity
  8
0
  6
Continuous
 62
     7
370
    25
100
AcDbLine
 10
426.3398923309
 20
294.4838236996
 30
0.0
 11
438.9398970039
 21
294.9838228502
 31
0.0
  0
LINE
  5
F3
330
1F
100
AcDbEntity
  8
0
  6
Continuous
 62
     7
370
    25
100
AcDbLine
 10
438.9398970039
 20
302.4838231483
 30
0.0
 11
426.3398923309
 21
302.9838232302
 31
0.0
  0
LINE
  5
F4
330
1F
100
AcDbEntity
  8
0
  6
Continuous
 62
     7
370
    25
100
AcDbLine
 10
438.9398970039
 20
295.7338225075
 30
0.0
 11
469.9616708191
 21
295.7338225075
 31
0.0
  0
LINE
  5
F5
330
1F
100
AcDbEntity
  8
0
  6
Continuous
 62
     7
370
    25
100
AcDbLine
 10
468.8976683052
 20
301.7338225597
 30
0.0
 11
438.9398970039
 21
301.7338225597
 31
0.0
  0
LINE
  5
F6
330
1F
100
AcDbEntity
  8
0
  6
Continuous
 62
     7
370
    25
100
AcDbLine
 10
421.4358009727
 20
295.7338225075
 30
0.0
 11
421.4399136932
 21
295.7338225075
 31
0.0
  0
LINE
  5
F7
330
1F
100
AcDbEntity
  8
0
  6
Continuous
 62
     7
370
    25
100
AcDbLine
 10
421.4399136932
 20
301.7338225597
 30
0.0
 11
421.4358009727
 21
301.7338225597
 31
0.0
  0
ARC
  5
F8
330
1F
100
AcDbEntity
  8
0
  6
Continuous
 62
     7
370
    25
100
AcDbCircle
 10
418.435779023
 20
279.4379601609
 30
0.0
 40
3.000021949732162
100
AcDbArc
 50
270.0000185032
 51
359.9996257591
  0
ARC
  5
F9
330
1F
100
AcDbEntity
  8
0
  6
Continuous
 62
     7
370
    25
100
AcDbCircle
 10
418.435779023
 20
344.4296856945
 30
0.0
 40
3.000021949732215
100
AcDbArc
 50
0.0003742409
 51
89.9999814968
  0
ARC
  5
FA
330
1F
100
AcDbEntity
  8
0
  6
Continuous
 62
     7
370
    25
100
AcDbCircle
 10
256.4439637788
 20
279.437858411
 30
0.0
 40
2.999920200085563
100
AcDbArc
 50
179.9984309214
 51
270.0007864481
  0
ARC
  5
FB
330
1F
100
AcDbEntity
  8
0
  6
Continuous
 62
     7
370
    25
100
AcDbCircle
 10
256.4439637788
 20
344.4297874444
 30
0.0
 40
2.999920200085563
100
AcDbArc
 50
89.9992135519
 51
180.0015690786
  0
LINE
  5
FC
330
1F
100
AcDbEntity
  8
0
  6
Continuous
 62
     7
370
    25
100
AcDbLine
 10
256.444004956
 20
276.4379382112
 30
0.0
 11
418.4357799919
 21
276.4379382112
 31
0.0
  0
LINE
  5
FD
330
1F
100
AcDbEntity
  8
0
  6
Continuous
 62
     7
370
    25
100
AcDbLine
 10
421.4358009727
 20
279.4379405656
 30
0.0
 11
421.4358009727
 21
295.7338225075
 31
0.0
  0
LINE
  5
FE
330
1F
100
AcDbEntity
  8
0
  6
Continuous
 62
     7
370
    25
100
AcDbLine
 10
421.4358009727
 20
301.7338225597
 30
0.0
 11
421.4358009727
 21
344.4297052898
 31
0.0
  0
LINE
  5
FF
330
1F
100
AcDbEntity
  8
0
  6
Continuous
 62
     7
370
    25
100
AcDbLine
 10
418.4357799919
 20
347.4297076442
 30
0.0
 11
256.444004956
 21
347.4297076442
 31
0.0
  0
LINE
  5
100
330
1F
100
AcDbEntity
  8
0
  6
Continuous
 62
     7
370
    25
100
AcDbLine
 10
253.4440435798
 20
298.1838230022
 30
0.0
 11
253.4440435798
 21
279.4379405656
 31
0.0
  0
LINE
  5
101
330
1F
100
AcDbEntity
  8
0
  6
Continuous
 62
     7
370
    25
100
AcDbLine
 10
253.4440435798
 20
344.4297052898
 30
0.0
 11
253.4440435798
 21
325.6838228532
 31
0.0
  0
LINE
  5
102
330
1F
100
AcDbEntity
  8
0
  6
Continuous
 62
     7
370
    25
100
AcDbLine
 10
253.4481563003
 20
296.433823181
 30
0.0
 11
254.016367379
 21
296.433823181
 31
0.0
  0
LINE
  5
103
330
1F
100
AcDbEntity
  8
0
  6
Continuous
 62
     7
370
    25
100
AcDbLine
 10
253.4481563003
 20
297.4338233449
 30
0.0
 11
253.4481563003
 21
296.433823181
 31
0.0
  0
LINE
  5
104
330
1F
100
AcDbEntity
  8
0
  6
Continuous
 62
     7
370
    25
100
AcDbLine
 10
253.4481563003
 20
326.4338225105
 30
0.0
 11
253.4481563003
 21
297.4338233449
 31
0.0
  0
LINE
  5
105
330
1F
100
AcDbEntity
  8
0
  6
Continuous
 62
     7
370
    25
100
AcDbLine
 10
253.4481563003
 20
327.4338226744
 30
0.0
 11
254.016367379
 21
327.4338226744
 31
0.0
  0
LINE
  5
106
330
1F
100
AcDbEntity
  8
0
  6
Continuous
 62
     7
370
    25
100
AcDbLine
 10
253.4481563003
 20
327.4338226744
 30
0.0
 11
253.4481563003
 21
326.4338225105
 31
0.0
  0
LINE
  5
107
330
1F
100
AcDbEntity
  8
0
  6
Continuous
 62
     7
370
    25
100
AcDbLine
 10
405.9399046333
 20
291.8838225284
 30
0.0
 11
401.4399327667
 21
291.8838225284
 31
0.0
  0
ARC
  5
108
330
1F
100
AcDbEntity
  8
0
  6
Continuous
 62
     7
370
    25
100
AcDbCircle
 10
401.4399206596
 20
290.7338226193
 30
0.0
 40
1.149999909166648
100
AcDbArc
 50
89.9993967935
 51
270.0006032065
  0
LINE
  5
109
330
1F
100
AcDbEntity
  8
0
  6
Continuous
 62
     7
370
    25
100
AcDbLine
 10
401.4399327667
 20
289.5838227102
 30
0.0
 11
405.9399046333
 21
289.5838227102
 31
0.0
  0
ARC
  5
10A
330
1F
100
AcDbEntity
  8
0
  6
Continuous
 62
     7
370
    25
100
AcDbCircle
 10
405.9399167404
 20
290.7338226193
 30
0.0
 40
1.149999909166648
100
AcDbArc
 50
269.9993967935
 51
90.0006032065
  0
ARC
  5
10B
330
1F
100
AcDbEntity
  8
0
  6
Continuous
 62
     7
370
    25
100
AcDbCircle
 10
445.6099180971
 20
298.7338234649
 30
0.0
 40
24.36313084884272
100
AcDbArc
 50
172.9365680124
 51
187.0634319876
  0
LINE
  5
10C
330
1F
100
AcDbEntity
  8
0
  6
Continuous
 62
     7
370
    25
100
AcDbLine
 10
421.4399136932
 20
291.9838223585
 30
0.0
 11
421.4399136932
 21
305.4838227087
 31
0.0
  0
LINE
  5
10D
330
1F
100
AcDbEntity
  8
0
  6
Continuous
 62
     7
370
    25
100
AcDbLine
 10
424.8398818405
 20
291.9838223585
 30
0.0
 11
424.8398818405
 21
305.4838227087
 31
0.0
  0
LINE
  5
10E
330
1F
100
AcDbEntity
  8
0
  6
Continuous
 62
     7
370
    25
100
AcDbLine
 10
426.3398923309
 20
293.608823789
 30
0.0
 11
426.3398923309
 21
303.8588231408
 31
0.0
  0
LINE
  5
10F
330
1F
100
AcDbEntity
  8
0
  6
Continuous
 62
     7
370
    25
100
AcDbLine
 10
438.9398970039
 20
294.9838228502
 30
0.0
 11
438.9398970039
 21
302.4838231483
 31
0.0
  0
LINE
  5
110
330
1F
100
AcDbEntity
  8
0
  6
Continuous
 62
     7
370
    25
100
AcDbLine
 10
421.4353241355
 20
295.7342807182
 30
0.0
 11
421.4316882522
 21
295.737935228
 31
0.0
  0
LINE
  5
111
330
1F
100
AcDbEntity
  8
0
  6
Continuous
 62
     7
370
    25
100
AcDbLine
 10
253.4481563003
 20
298.1838230022
 30
0.0
 11
253.4440435798
 21
298.1838230022
 31
0.0
  0
LINE
  5
112
330
1F
100
AcDbEntity
  8
0
  6
Continuous
 62
     7
370
    25
100
AcDbLine
 10
253.4440435798
 20
325.6838228532
 30
0.0
 11
253.4481563003
 21
325.6838228532
 31
0.0
  0
DIMENSION
  5
113
330
1F
100
AcDbEntity
  8
SLD-0
100
AcDbDimension
  2
_D
 10
661.5641413655
 20
244.4379399657
 30
0.0
 11
539.6300860931
 21
244.4379399657
 31
0.0
 70
   160
  1
1200.0MAX
 71
     2
 42
-1.0
  3
SLDDIMSTYLE0
100
AcDbAlignedDimension
 13
421.4399058042
 23
291.9838229277
 33
0.0
 14
661.5641413655
 24
293.7738229277
 34
0.0
100
AcDbRotatedDimension
  0
DIMENSION
  5
12E
330
1F
100
AcDbEntity
  8
SLD-0
100
AcDbDimension
  2
_D_1
 10
421.4399058042
 20
244.4379399657
 30
0.0
 11
329.8549555905
 21
244.4379399657
 31
0.0
 70
   160
  1
<>
 71
     2
 42
-1.0
  3
SLDDIMSTYLE1
100
AcDbAlignedDimension
 13
253.4481342379
 23
296.4338229277
 33
0.0
 14
421.4399058042
 24
291.9838229277
 34
0.0
 50
0.0
100
AcDbRotatedDimension
  0
DIMENSION
  5
143
330
1F
100
AcDbEntity
  8
SLD-0
100
AcDbDimension
  2
_D_2
 10
233.4440228422
 20
276.4420513614
 30
0.0
 11
233.4440228422
 21
312.6625585002
 31
0.0
 70
   160
  1
<>
 71
     2
 42
-1.0
  3
SLDDIMSTYLE1
100
AcDbAlignedDimension
 13
256.4440228422
 23
347.425594494
 33
0.0
 14
256.4440228422
 24
276.4420513614
 34
0.0
 50
90.0
100
AcDbRotatedDimension
  0
DIMENSION
  5
157
330
1F
100
AcDbEntity
  8
SLD-0
100
AcDbDimension
  2
_D_3
 10
591.5641246598
 20
261.6250453953
 30
0.0
 11
625.1593619508
 21
261.6250453953
 31
0.0
 70
   160
  1
<>
 71
     2
 42
-1.0
  3
SLDDIMSTYLE2
100
AcDbAlignedDimension
 13
661.5641413655
 23
293.7738229277
 33
0.0
 14
591.5641246598
 24
294.1338229277
 34
0.0
100
AcDbRotatedDimension
  0
MTEXT
  5
16E
330
1F
100
AcDbEntity
  8
SLD-0
100
AcDbMText
 10
680.716158645
 20
331.4088812153
 30
0.0
 40
4.7625
 41
0.0
 71
     1
 72
     1
  1
LOCKING TAB OF
  7
SLDTEXTSTYLE0
 73
     1
 44
1.0
  0
MTEXT
  5
16F
330
1F
100
AcDbEntity
  8
SLD-0
100
AcDbMText
 10
680.716158645
 20
323.0588814299
 30
0.0
 40
4.7625
 41
0.0
 71
     1
 72
     1
  1
PHOENIX CONTACT
  7
SLDTEXTSTYLE0
 73
     1
 44
1.0
  0
MTEXT
  5
170
330
1F
100
AcDbEntity
  8
SLD-0
100
AcDbMText
 10
680.716158645
 20
314.7088816445
 30
0.0
 40
4.7625
 41
0.0
 71
     1
 72
     1
  1
1808816
  7
SLDTEXTSTYLE0
 73
     1
 44
1.0
  0
LEADER
  5
172
330
1F
100
AcDbEntity
  8
SLD-0
100
AcDbLeader
  3
SLDDIMSTYLE3
 76
     3
 10
651.7755983086
 20
300.4538229277
 30
0.0
 10
675.6731370885
 20
330.0195432009
 30
0.0
 10
679.6722689076
 20
330.0195432009
 30
0.0
  0
LINE
  5
173
330
1F
100
AcDbEntity
  8
0
  6
HIDDEN
 62
     7
370
    18
100
AcDbLine
 10
469.4296817405
 20
305.7978229277
 30
0.0
 11
470.3126817405
 21
303.1488229277
 31
0.0
  0
LINE
  5
174
330
1F
100
AcDbEntity
  8
0
  6
HIDDEN
 62
     7
370
    18
100
AcDbLine
 10
470.3126817405
 20
303.1488229277
 30
0.0
 11
468.5466817405
 21
301.3828229277
 31
0.0
  0
LINE
  5
175
330
1F
100
AcDbEntity
  8
0
  6
HIDDEN
 62
     7
370
    18
100
AcDbLine
 10
468.5466817405
 20
301.3828229277
 30
0.0
 11
470.3126817405
 21
296.0848229277
 31
0.0
  0
LINE
  5
176
330
1F
100
AcDbEntity
  8
0
  6
HIDDEN
 62
     7
370
    18
100
AcDbLine
 10
470.3126817405
 20
296.0848229277
 30
0.0
 11
468.5466817405
 21
294.3188229277
 31
0.0
  0
LINE
  5
177
330
1F
100
AcDbEntity
  8
0
  6
HIDDEN
 62
     7
370
    18
100
AcDbLine
 10
468.5466817405
 20
294.3188229277
 30
0.0
 11
469.4296817405
 21
291.6698229277
 31
0.0
  0
LINE
  5
178
330
1F
100
AcDbEntity
  8
0
  6
HIDDEN
 62
     7
370
    18
100
AcDbLine
 10
494.8296817405
 20
305.7978229277
 30
0.0
 11
495.7126817405
 21
303.1488229277
 31
0.0
  0
LINE
  5
179
330
1F
100
AcDbEntity
  8
0
  6
HIDDEN
 62
     7
370
    18
100
AcDbLine
 10
495.7126817405
 20
303.1488229277
 30
0.0
 11
493.9466817405
 21
301.3828229277
 31
0.0
  0
LINE
  5
17A
330
1F
100
AcDbEntity
  8
0
  6
HIDDEN
 62
     7
370
    18
100
AcDbLine
 10
493.9466817405
 20
301.3828229277
 30
0.0
 11
495.7126817405
 21
296.0848229277
 31
0.0
  0
LINE
  5
17B
330
1F
100
AcDbEntity
  8
0
  6
HIDDEN
 62
     7
370
    18
100
AcDbLine
 10
495.7126817405
 20
296.0848229277
 30
0.0
 11
493.9466817405
 21
294.3188229277
 31
0.0
  0
LINE
  5
17C
330
1F
100
AcDbEntity
  8
0
  6
HIDDEN
 62
     7
370
    18
100
AcDbLine
 10
493.9466817405
 20
294.3188229277
 30
0.0
 11
494.8296817405
 21
291.6698229277
 31
0.0
  0
LINE
  5
17D
330
1F
100
AcDbEntity
  8
0
  6
Continuous
 62
     7
370
    25
100
AcDbLine
 10
165.9147918902
 20
327.4338229277
 30
0.0
 11
176.7577840215
 21
327.4338229277
 31
0.0
  0
LINE
  5
17E
330
1F
100
AcDbEntity
  8
0
  6
Continuous
 62
     7
370
    25
100
AcDbLine
 10
177.071799759
 20
327.4338229277
 30
0.0
 11
187.9147918902
 21
327.4338229277
 31
0.0
  0
ARC
  5
17F
330
1F
100
AcDbEntity
  8
0
  6
Continuous
 62
     7
370
    25
100
AcDbCircle
 10
187.9147918902
 20
297.4338229277
 30
0.0
 40
1.0
100
AcDbArc
 50
270.0
 51
0.0
  0
ARC
  5
180
330
1F
100
AcDbEntity
  8
0
  6
Continuous
 62
     7
370
    25
100
AcDbCircle
 10
165.9147918902
 20
297.4338229277
 30
0.0
 40
1.0
100
AcDbArc
 50
180.0
 51
270.0
  0
LINE
  5
181
330
1F
100
AcDbEntity
  8
0
  6
Continuous
 62
     7
370
    25
100
AcDbLine
 10
164.9147918902
 20
297.4338229277
 30
0.0
 11
164.9147918902
 21
326.4338229277
 31
0.0
  0
ARC
  5
182
330
1F
100
AcDbEntity
  8
0
  6
Continuous
 62
     7
370
    25
100
AcDbCircle
 10
165.9147918902
 20
326.4338229277
 30
0.0
 40
1.0
100
AcDbArc
 50
90.0
 51
180.0
  0
ARC
  5
183
330
1F
100
AcDbEntity
  8
0
  6
Continuous
 62
     7
370
    25
100
AcDbCircle
 10
179.5718323389
 20
323.1318229277
 30
0.0
 40
1.0
100
AcDbArc
 50
45.0
 51
90.0
  0
LINE
  5
184
330
1F
100
AcDbEntity
  8
0
  6
Continuous
 62
     7
370
    25
100
AcDbLine
 10
179.5718323389
 20
324.1318229277
 30
0.0
 11
169.7247918902
 21
324.1318229277
 31
0.0
  0
ARC
  5
185
330
1F
100
AcDbEntity
  8
0
  6
Continuous
 62
     7
370
    25
100
AcDbCircle
 10
169.7247918902
 20
323.1318229277
 30
0.0
 40
1.0
100
AcDbArc
 50
90.0
 51
180.0
  0
LINE
  5
186
330
1F
100
AcDbEntity
  8
0
  6
Continuous
 62
     7
370
    25
100
AcDbLine
 10
168.7247918902
 20
323.1318229277
 30
0.0
 11
168.7247918902
 21
300.7358229277
 31
0.0
  0
ARC
  5
187
330
1F
100
AcDbEntity
  8
0
  6
Continuous
 62
     7
370
    25
100
AcDbCircle
 10
169.7247918902
 20
300.7358229277
 30
0.0
 40
1.0
100
AcDbArc
 50
180.0
 51
270.0
  0
LINE
  5
188
330
1F
100
AcDbEntity
  8
0
  6
Continuous
 62
     7
370
    25
100
AcDbLine
 10
169.7247918902
 20
299.7358229277
 30
0.0
 11
179.5718323389
 21
299.7358229277
 31
0.0
  0
ARC
  5
189
330
1F
100
AcDbEntity
  8
0
  6
Continuous
 62
     7
370
    25
100
AcDbCircle
 10
179.5718323389
 20
300.7358229277
 30
0.0
 40
1.0
100
AcDbArc
 50
270.0
 51
315.0
  0
LINE
  5
18A
330
1F
100
AcDbEntity
  8
0
  6
Continuous
 62
     7
370
    25
100
AcDbLine
 10
180.27893912
 20
300.0287161465
 30
0.0
 11
184.8118986714
 21
304.5616756979
 31
0.0
  0
ARC
  5
18B
330
1F
100
AcDbEntity
  8
0
  6
Continuous
 62
     7
370
    25
100
AcDbCircle
 10
184.1047918902
 20
305.2687824791
 30
0.0
 40
1.000000000000048
100
AcDbArc
 50
315.0
 51
0.0
  0
LINE
  5
18C
330
1F
100
AcDbEntity
  8
0
  6
Continuous
 62
     7
370
    25
100
AcDbLine
 10
185.1047918902
 20
305.2687824791
 30
0.0
 11
185.1047918902
 21
318.5988633763
 31
0.0
  0
ARC
  5
18D
330
1F
100
AcDbEntity
  8
0
  6
Continuous
 62
     7
370
    25
100
AcDbCircle
 10
184.1047918902
 20
318.5988633763
 30
0.0
 40
1.000000000000008
100
AcDbArc
 50
0.0
 51
45.0
  0
LINE
  5
18E
330
1F
100
AcDbEntity
  8
0
  6
Continuous
 62
     7
370
    25
100
AcDbLine
 10
184.8118986714
 20
319.3059701575
 30
0.0
 11
180.27893912
 21
323.8389297089
 31
0.0
  0
LINE
  5
18F
330
1F
100
AcDbEntity
  8
0
  6
Continuous
 62
     7
370
    25
100
AcDbLine
 10
188.9147918902
 20
326.4338229277
 30
0.0
 11
188.9147918902
 21
297.4338229277
 31
0.0
  0
ARC
  5
190
330
1F
100
AcDbEntity
  8
0
  6
Continuous
 62
     7
370
    25
100
AcDbCircle
 10
187.9147918902
 20
326.4338229277
 30
0.0
 40
1.0
100
AcDbArc
 50
0.0
 51
90.0
  0
LINE
  5
191
330
1F
100
AcDbEntity
  8
0
  6
Continuous
 62
     7
370
    25
100
AcDbLine
 10
187.9147918902
 20
296.4338229277
 30
0.0
 11
177.071799759
 21
296.4338229277
 31
0.0
  0
LINE
  5
192
330
1F
100
AcDbEntity
  8
0
  6
Continuous
 62
     7
370
    25
100
AcDbLine
 10
176.7577840215
 20
296.4338229277
 30
0.0
 11
165.9147918902
 21
296.4338229277
 31
0.0
  0
LINE
  5
193
330
1F
100
AcDbEntity
  8
0
  6
Continuous
 62
     7
370
    25
100
AcDbLine
 10
182.5927460183
 20
312.4726068961
 30
0.0
 11
178.9455930017
 21
312.4726068961
 31
0.0
  0
LINE
  5
194
330
1F
100
AcDbEntity
  8
0
  6
Continuous
 62
     7
370
    25
100
AcDbLine
 10
182.5927460183
 20
311.3950389594
 30
0.0
 11
182.5927460183
 21
312.4726068961
 31
0.0
  0
LINE
  5
195
330
1F
100
AcDbEntity
  8
0
  6
Continuous
 62
     7
370
    25
100
AcDbLine
 10
178.9455930017
 20
311.3950389594
 30
0.0
 11
182.5927460183
 21
311.3950389594
 31
0.0
  0
LINE
  5
196
330
1F
100
AcDbEntity
  8
0
  6
Continuous
 62
     7
370
    25
100
AcDbLine
 10
178.9455930017
 20
312.4726068961
 30
0.0
 11
178.9455930017
 21
311.3950389594
 31
0.0
  0
LINE
  5
197
330
1F
100
AcDbEntity
  8
0
  6
Continuous
 62
     7
370
    25
100
AcDbLine
 10
171.2644677093
 20
317.4459973732
 30
0.0
 11
174.9116207259
 21
317.4459973732
 31
0.0
  0
LINE
  5
198
330
1F
100
AcDbEntity
  8
0
  6
Continuous
 62
     7
370
    25
100
AcDbLine
 10
174.9116207259
 20
317.4459973732
 30
0.0
 11
174.9116207259
 21
318.5235653099
 31
0.0
  0
LINE
  5
199
330
1F
100
AcDbEntity
  8
0
  6
Continuous
 62
     7
370
    25
100
AcDbLine
 10
174.9116207259
 20
318.5235653099
 30
0.0
 11
171.2644677093
 21
318.5235653099
 31
0.0
  0
LINE
  5
19A
330
1F
100
AcDbEntity
  8
0
  6
Continuous
 62
     7
370
    25
100
AcDbLine
 10
171.2644677093
 20
318.5235653099
 30
0.0
 11
171.2644677093
 21
317.4459973732
 31
0.0
  0
LINE
  5
19B
330
1F
100
AcDbEntity
  8
0
  6
Continuous
 62
     7
370
    25
100
AcDbLine
 10
174.9116207259
 20
306.4216484823
 30
0.0
 11
171.2644677093
 21
306.4216484823
 31
0.0
  0
LINE
  5
19C
330
1F
100
AcDbEntity
  8
0
  6
Continuous
 62
     7
370
    25
100
AcDbLine
 10
174.9116207259
 20
305.3440805456
 30
0.0
 11
174.9116207259
 21
306.4216484823
 31
0.0
  0
LINE
  5
19D
330
1F
100
AcDbEntity
  8
0
  6
Continuous
 62
     7
370
    25
100
AcDbLine
 10
171.2644677093
 20
306.4216484823
 30
0.0
 11
171.2644677093
 21
305.3440805456
 31
0.0
  0
LINE
  5
19E
330
1F
100
AcDbEntity
  8
0
  6
Continuous
 62
     7
370
    25
100
AcDbLine
 10
171.2644677093
 20
305.3440805456
 30
0.0
 11
174.9116207259
 21
305.3440805456
 31
0.0
  0
ARC
  5
19F
330
1F
100
AcDbEntity
  8
0
  6
Continuous
 62
     7
370
    25
100
AcDbCircle
 10
176.9147918902
 20
344.4297058897
 30
0.0
 40
2.999999999999992
100
AcDbArc
 50
87.0
 51
93.0
  0
LINE
  5
1A0
330
1F
100
AcDbEntity
  8
0
  6
Continuous
 62
     7
370
    25
100
AcDbLine
 10
176.7577840215
 20
325.6838229277
 30
0.0
 11
177.071799759
 21
325.6838229277
 31
0.0
  0
LINE
  5
1A1
330
1F
100
AcDbEntity
  8
0
  6
Continuous
 62
     7
370
    25
100
AcDbLine
 10
177.071799759
 20
298.1838229277
 30
0.0
 11
176.7577840215
 21
298.1838229277
 31
0.0
  0
ARC
  5
1A2
330
1F
100
AcDbEntity
  8
0
  6
Continuous
 62
     7
370
    25
100
AcDbCircle
 10
176.9147918902
 20
279.4379399657
 30
0.0
 40
3.000000000000049
100
AcDbArc
 50
267.0
 51
273.0
  0
LINE
  5
1A3
330
1F
100
AcDbEntity
  8
0
  6
Continuous
 62
     7
370
    25
100
AcDbLine
 10
177.071799759
 20
347.425594494
 30
0.0
 11
192.821799759
 21
346.6001719703
 31
0.0
  0
LINE
  5
1A4
330
1F
100
AcDbEntity
  8
0
  6
Continuous
 62
     7
370
    25
100
AcDbLine
 10
192.821799759
 20
277.2674738852
 30
0.0
 11
177.071799759
 21
276.4420513614
 31
0.0
  0
LINE
  5
1A5
330
1F
100
AcDbEntity
  8
0
  6
Continuous
 62
     7
370
    25
100
AcDbLine
 10
161.0077840215
 20
346.6001719703
 30
0.0
 11
176.7577840215
 21
347.425594494
 31
0.0
  0
LINE
  5
1A6
330
1F
100
AcDbEntity
  8
0
  6
Continuous
 62
     7
370
    25
100
AcDbLine
 10
176.7577840215
 20
276.4420513614
 30
0.0
 11
161.0077840215
 21
277.2674738852
 31
0.0
  0
LINE
  5
1A7
330
1F
100
AcDbEntity
  8
0
  6
Continuous
 62
     7
370
    25
100
AcDbLine
 10
195.6647918902
 20
343.604283366
 30
0.0
 11
195.6647918902
 21
280.2633624894
 31
0.0
  0
ARC
  5
1A8
330
1F
100
AcDbEntity
  8
0
  6
Continuous
 62
     7
370
    25
100
AcDbCircle
 10
192.6647918902
 20
343.604283366
 30
0.0
 40
3.000000000000046
100
AcDbArc
 50
0.0
 51
87.0
  0
ARC
  5
1A9
330
1F
100
AcDbEntity
  8
0
  6
Continuous
 62
     7
370
    25
100
AcDbCircle
 10
192.6647918902
 20
280.2633624894
 30
0.0
 40
3.000000000000048
100
AcDbArc
 50
273.0
 51
0.0
  0
LINE
  5
1AA
330
1F
100
AcDbEntity
  8
0
  6
Continuous
 62
     7
370
    25
100
AcDbLine
 10
158.1647918902
 20
280.2633624894
 30
0.0
 11
158.1647918902
 21
343.604283366
 31
0.0
  0
ARC
  5
1AB
330
1F
100
AcDbEntity
  8
0
  6
Continuous
 62
     7
370
    25
100
AcDbCircle
 10
161.1647918902
 20
343.604283366
 30
0.0
 40
3.000000000000048
100
AcDbArc
 50
93.0
 51
180.0
  0
ARC
  5
1AC
330
1F
100
AcDbEntity
  8
0
  6
Continuous
 62
     7
370
    25
100
AcDbCircle
 10
161.1647918902
 20
280.2633624894
 30
0.0
 40
3.0
100
AcDbArc
 50
180.0
 51
267.0
  0
DIMENSION
  5
1AD
330
1F
100
AcDbEntity
  8
SLD-0
100
AcDbDimension
  2
_D_4
 10
158.1647918902
 20
365.3098501555
 30
0.0
 11
177.0899589232
 21
365.3098501555
 31
0.0
 70
   160
  1
<>
 71
     2
 42
-1.0
  3
SLDDIMSTYLE4
100
AcDbAlignedDimension
 13
195.6647918902
 23
343.604283366
 33
0.0
 14
158.1647918902
 24
343.604283366
 34
0.0
 50
0.0
100
AcDbRotatedDimension
  0
LINE
  5
1C2
330
1F
100
AcDbEntity
  8
0
  6
Continuous
 62
     7
370
    25
100
AcDbLine
 10
769.8225464909
 20
298.8538229277
 30
0.0
 11
769.8225464909
 21
300.4538229277
 31
0.0
  0
ARC
  5
1C3
330
1F
100
AcDbEntity
  8
0
  6
Continuous
 62
     7
370
    25
100
AcDbCircle
 10
770.1915636621
 20
303.1938229277
 30
0.0
 40
0.5000000000000462
100
AcDbArc
 50
180.0
 51
246.4218215218
  0
ARC
  5
1C4
330
1F
100
AcDbEntity
  8
0
  6
Continuous
 62
     7
370
    25
100
AcDbCircle
 10
770.1915636621
 20
294.5138229277
 30
0.0
 40
0.5000000000001137
100
AcDbArc
 50
113.5781784782
 51
180.0
  0
ARC
  5
1C5
330
1F
100
AcDbEntity
  8
0
  6
Continuous
 62
     7
370
    25
100
AcDbCircle
 10
770.1915636621
 20
303.1938229277
 30
0.0
 40
0.5000000000000983
100
AcDbArc
 50
113.5781784782
 51
180.0
  0
ARC
  5
1C6
330
1F
100
AcDbEntity
  8
0
  6
Continuous
 62
     7
370
    25
100
AcDbCircle
 10
770.1915636621
 20
294.5138229277
 30
0.0
 40
0.5000000000001137
100
AcDbArc
 50
180.0
 51
246.4218215218
  0
LINE
  5
1C7
330
1F
100
AcDbEntity
  8
0
  6
Continuous
 62
     7
370
    25
100
AcDbLine
 10
769.4915636621
 20
303.9338229277
 30
0.0
 11
769.4915636621
 21
300.4538229277
 31
0.0
  0
LINE
  5
1C8
330
1F
100
AcDbEntity
  8
0
  6
Continuous
 62
     7
370
    25
100
AcDbLine
 10
769.4915636621
 20
298.8538229277
 30
0.0
 11
769.4915636621
 21
293.7738229277
 31
0.0
  0
LINE
  5
1C9
330
1F
100
AcDbEntity
  8
0
  6
Continuous
 62
     7
370
    25
100
AcDbLine
 10
770.8915636621
 20
303.9338229277
 30
0.0
 11
775.8065636621
 21
303.9338229277
 31
0.0
  0
LINE
  5
1CA
330
1F
100
AcDbEntity
  8
0
  6
Continuous
 62
     7
370
    25
100
AcDbLine
 10
775.8065636621
 20
299.2731567588
 30
0.0
 11
775.8065636621
 21
298.4344890966
 31
0.0
  0
LINE
  5
1CB
330
1F
100
AcDbEntity
  8
0
  6
Continuous
 62
     7
370
    25
100
AcDbLine
 10
770.8915636621
 20
293.7738229277
 30
0.0
 11
775.8065636621
 21
293.7738229277
 31
0.0
  0
ARC
  5
1CC
330
1F
100
AcDbEntity
  8
0
  6
Continuous
 62
     7
370
    25
100
AcDbCircle
 10
773.8065636621
 20
296.3138229277
 30
0.0
 40
1.399999999999977
100
AcDbArc
 50
90.0
 51
270.0
  0
ARC
  5
1CD
330
1F
100
AcDbEntity
  8
0
  6
Continuous
 62
     7
370
    25
100
AcDbCircle
 10
773.8065636621
 20
296.3138229277
 30
0.0
 40
2.915000000000079
100
AcDbArc
 50
313.322677262
 51
46.677322738
  0
ARC
  5
1CE
330
1F
100
AcDbEntity
  8
0
  6
Continuous
 62
     7
370
    25
100
AcDbCircle
 10
773.8065636621
 20
301.3938229277
 30
0.0
 40
2.915000000000042
100
AcDbArc
 50
313.322677262
 51
46.677322738
  0
LINE
  5
1CF
330
1F
100
AcDbEntity
  8
0
  6
Continuous
 62
     7
370
    25
100
AcDbLine
 10
770.8915636621
 20
302.6488229277
 30
0.0
 11
771.5715636621
 21
302.8838229277
 31
0.0
  0
LINE
  5
1D0
330
1F
100
AcDbEntity
  8
0
  6
Continuous
 62
     7
370
    25
100
AcDbLine
 10
771.5715636621
 20
299.9038229277
 30
0.0
 11
771.5715636621
 21
302.8838229277
 31
0.0
  0
LINE
  5
1D1
330
1F
100
AcDbEntity
  8
0
  6
Continuous
 62
     7
370
    25
100
AcDbLine
 10
775.8065636621
 20
294.1931567588
 30
0.0
 11
775.8065636621
 21
293.7738229277
 31
0.0
  0
LINE
  5
1D2
330
1F
100
AcDbEntity
  8
0
  6
Continuous
 62
     7
370
    25
100
AcDbLine
 10
770.8915636621
 20
297.5688229277
 30
0.0
 11
770.8915636621
 21
300.1388229277
 31
0.0
  0
LINE
  5
1D3
330
1F
100
AcDbEntity
  8
0
  6
Continuous
 62
     7
370
    25
100
AcDbLine
 10
770.8915636621
 20
297.5688229277
 30
0.0
 11
771.5715636621
 21
297.8038229277
 31
0.0
  0
LINE
  5
1D4
330
1F
100
AcDbEntity
  8
0
  6
Continuous
 62
     7
370
    25
100
AcDbLine
 10
771.5715636621
 20
294.8238229277
 30
0.0
 11
771.5715636621
 21
297.8038229277
 31
0.0
  0
LINE
  5
1D5
330
1F
100
AcDbEntity
  8
0
  6
Continuous
 62
     7
370
    25
100
AcDbLine
 10
770.8915636621
 20
293.7738229277
 30
0.0
 11
770.8915636621
 21
295.0588229277
 31
0.0
  0
ARC
  5
1D6
330
1F
100
AcDbEntity
  8
0
  6
Continuous
 62
     7
370
    25
100
AcDbCircle
 10
773.8065636621
 20
296.3138229277
 30
0.0
 40
1.399999999999977
100
AcDbArc
 50
270.0
 51
90.0
  0
LINE
  5
1D7
330
1F
100
AcDbEntity
  8
0
  6
Continuous
 62
     7
370
    25
100
AcDbLine
 10
771.5715636621
 20
294.8238229277
 30
0.0
 11
770.8915636621
 21
295.0588229277
 31
0.0
  0
LINE
  5
1D8
330
1F
100
AcDbEntity
  8
0
  6
Continuous
 62
     7
370
    25
100
AcDbLine
 10
771.5715636621
 20
299.9038229277
 30
0.0
 11
770.8915636621
 21
300.1388229277
 31
0.0
  0
ARC
  5
1D9
330
1F
100
AcDbEntity
  8
0
  6
Continuous
 62
     7
370
    25
100
AcDbCircle
 10
773.8065636621
 20
301.3938229277
 30
0.0
 40
1.400000000000034
100
AcDbArc
 50
270.0
 51
90.0
  0
LINE
  5
1DA
330
1F
100
AcDbEntity
  8
0
  6
Continuous
 62
     7
370
    25
100
AcDbLine
 10
775.8065636621
 20
303.9338229277
 30
0.0
 11
775.8065636621
 21
303.5144890966
 31
0.0
  0
ARC
  5
1DB
330
1F
100
AcDbEntity
  8
0
  6
Continuous
 62
     7
370
    25
100
AcDbCircle
 10
773.8065636621
 20
301.3938229277
 30
0.0
 40
1.400000000000034
100
AcDbArc
 50
90.0
 51
150.0
  0
ARC
  5
1DC
330
1F
100
AcDbEntity
  8
0
  6
Continuous
 62
     7
370
    25
100
AcDbCircle
 10
773.8065636621
 20
301.3938229277
 30
0.0
 40
1.400000000000034
100
AcDbArc
 50
150.0
 51
270.0
  0
LINE
  5
1DD
330
1F
100
AcDbEntity
  8
0
  6
Continuous
 62
     7
370
    25
100
AcDbLine
 10
770.8915636621
 20
302.6488229277
 30
0.0
 11
770.8915636621
 21
303.9338229277
 31
0.0
  0
ARC
  5
1DE
330
1F
100
AcDbEntity
  8
0
  6
Continuous
 62
     7
370
    25
100
AcDbCircle
 10
773.8065636621
 20
296.3138229277
 30
0.0
 40
0.7000000000000455
100
AcDbArc
 50
270.0
 51
90.0
  0
ARC
  5
1DF
330
1F
100
AcDbEntity
  8
0
  6
Continuous
 62
     7
370
    25
100
AcDbCircle
 10
773.8065636621
 20
296.3138229277
 30
0.0
 40
0.7000000000000455
100
AcDbArc
 50
90.0
 51
270.0
  0
ARC
  5
1E0
330
1F
100
AcDbEntity
  8
0
  6
Continuous
 62
     7
370
    25
100
AcDbCircle
 10
773.8065636621
 20
301.3938229277
 30
0.0
 40
0.7000000000000455
100
AcDbArc
 50
270.0
 51
90.0
  0
ARC
  5
1E1
330
1F
100
AcDbEntity
  8
0
  6
Continuous
 62
     7
370
    25
100
AcDbCircle
 10
773.8065636621
 20
301.3938229277
 30
0.0
 40
0.7000000000000455
100
AcDbArc
 50
90.0
 51
270.0
  0
LINE
  5
1E2
330
1F
100
AcDbEntity
  8
0
  6
Continuous
 62
     7
370
    25
100
AcDbLine
 10
769.027571744
 20
300.4538229277
 30
0.0
 11
769.4518358128
 21
300.4538229277
 31
0.0
  0
LINE
  5
1E3
330
1F
100
AcDbEntity
  8
0
  6
Continuous
 62
     7
370
    25
100
AcDbLine
 10
769.4518358128
 20
298.8538229277
 30
0.0
 11
769.027571744
 21
298.8538229277
 31
0.0
  0
LINE
  5
1E4
330
1F
100
AcDbEntity
  8
0
  6
Continuous
 62
     7
370
    25
100
AcDbLine
 10
769.4518358128
 20
300.4538229277
 30
0.0
 11
769.7346785252
 21
300.4538229277
 31
0.0
  0
LINE
  5
1E5
330
1F
100
AcDbEntity
  8
0
  6
Continuous
 62
     7
370
    25
100
AcDbLine
 10
769.7346785252
 20
298.8538229277
 30
0.0
 11
769.4518358128
 21
298.8538229277
 31
0.0
  0
LINE
  5
1E6
330
1F
100
AcDbEntity
  8
0
  6
Continuous
 62
     7
370
    25
100
AcDbLine
 10
768.1675094147
 20
300.4538229277
 30
0.0
 11
769.027571744
 21
300.4538229277
 31
0.0
  0
LINE
  5
1E7
330
1F
100
AcDbEntity
  8
0
  6
Continuous
 62
     7
370
    25
100
AcDbLine
 10
769.027571744
 20
298.8538229277
 30
0.0
 11
768.1675094147
 21
298.8538229277
 31
0.0
  0
LINE
  5
1E8
330
1F
100
AcDbEntity
  8
0
  6
Continuous
 62
     7
370
    25
100
AcDbLine
 10
769.7346785252
 20
300.4538229277
 30
0.0
 11
769.8225464909
 21
300.4538229277
 31
0.0
  0
LINE
  5
1E9
330
1F
100
AcDbEntity
  8
0
  6
Continuous
 62
     7
370
    25
100
AcDbLine
 10
769.8225464909
 20
298.8538229277
 30
0.0
 11
769.7346785252
 21
298.8538229277
 31
0.0
  0
LINE
  5
1EA
330
1F
100
AcDbEntity
  8
0
  6
Continuous
 62
     7
370
    25
100
AcDbLine
 10
767.967061952
 20
300.4538229277
 30
0.0
 11
768.1675094147
 21
300.4538229277
 31
0.0
  0
LINE
  5
1EB
330
1F
100
AcDbEntity
  8
0
  6
Continuous
 62
     7
370
    25
100
AcDbLine
 10
768.1675094147
 20
298.8538229277
 30
0.0
 11
767.967061952
 21
298.8538229277
 31
0.0
  0
LINE
  5
1EC
330
1F
100
AcDbEntity
  8
0
  6
Continuous
 62
     7
370
    25
100
AcDbLine
 10
767.4915636621
 20
300.4538229277
 30
0.0
 11
767.4915636621
 21
298.8538229277
 31
0.0
  0
LINE
  5
1ED
330
1F
100
AcDbEntity
  8
0
  6
Continuous
 62
     7
370
    25
100
AcDbLine
 10
767.4915636621
 20
300.4538229277
 30
0.0
 11
767.967061952
 21
300.4538229277
 31
0.0
  0
LINE
  5
1EE
330
1F
100
AcDbEntity
  8
0
  6
Continuous
 62
     7
370
    25
100
AcDbLine
 10
767.967061952
 20
298.8538229277
 30
0.0
 11
767.4915636621
 21
298.8538229277
 31
0.0
  0
LINE
  5
1EF
330
1F
100
AcDbEntity
  8
0
  6
Continuous
 62
     7
370
    25
100
AcDbLine
 10
776.7215636621
 20
301.3938227144
 30
0.0
 11
776.7215636273
 21
303.9338229277
 31
0.0
  0
LINE
  5
1F0
330
1F
100
AcDbEntity
  8
0
  6
Continuous
 62
     7
370
    25
100
AcDbLine
 10
776.7215636273
 20
303.9338229277
 30
0.0
 11
775.8065636621
 21
303.9338229277
 31
0.0
  0
LINE
  5
1F1
330
1F
100
AcDbEntity
  8
0
  6
Continuous
 62
     7
370
    25
100
AcDbLine
 10
769.9915636621
 20
303.9338229277
 30
0.0
 11
769.9915636621
 21
300.4538229277
 31
0.0
  0
LINE
  5
1F2
330
1F
100
AcDbEntity
  8
0
  6
Continuous
 62
     7
370
    25
100
AcDbLine
 10
769.9915636621
 20
298.8538229277
 30
0.0
 11
769.9915636621
 21
293.7738229277
 31
0.0
  0
LINE
  5
1F3
330
1F
100
AcDbEntity
  8
0
  6
Continuous
 62
     7
370
    25
100
AcDbLine
 10
769.9915636621
 20
300.4538229277
 30
0.0
 11
769.8225464909
 21
300.4538229277
 31
0.0
  0
LINE
  5
1F4
330
1F
100
AcDbEntity
  8
0
  6
Continuous
 62
     7
370
    25
100
AcDbLine
 10
769.9915636621
 20
298.8538229277
 30
0.0
 11
769.8225464909
 21
298.8538229277
 31
0.0
  0
LINE
  5
1F5
330
1F
100
AcDbEntity
  8
0
  6
Continuous
 62
     7
370
    25
100
AcDbLine
 10
769.9915636621
 20
303.9338229277
 30
0.0
 11
770.8915636621
 21
303.9338229277
 31
0.0
  0
LINE
  5
1F6
330
1F
100
AcDbEntity
  8
0
  6
Continuous
 62
     7
370
    25
100
AcDbLine
 10
769.9915636621
 20
293.7738229277
 30
0.0
 11
770.8915636621
 21
293.7738229277
 31
0.0
  0
LINE
  5
1F7
330
1F
100
AcDbEntity
  8
0
  6
Continuous
 62
     7
370
    25
100
AcDbLine
 10
776.7215636273
 20
296.3138227144
 30
0.0
 11
776.7215636621
 21
301.3938227144
 31
0.0
  0
LINE
  5
1F8
330
1F
100
AcDbEntity
  8
0
  6
Continuous
 62
     7
370
    25
100
AcDbLine
 10
776.7215636273
 20
293.7738229277
 30
0.0
 11
776.7215636273
 21
296.3138227144
 31
0.0
  0
LINE
  5
1F9
330
1F
100
AcDbEntity
  8
0
  6
Continuous
 62
     7
370
    25
100
AcDbLine
 10
776.7215636273
 20
293.7738229277
 30
0.0
 11
775.8065636621
 21
293.7738229277
 31
0.0
  0
LINE
  5
1FA
330
1F
100
AcDbEntity
  8
0
  6
Continuous
 62
     7
370
    25
100
AcDbLine
 10
776.7215636273
 20
303.9338229277
 30
0.0
 11
777.2915636621
 21
303.9338229277
 31
0.0
  0
LINE
  5
1FB
330
1F
100
AcDbEntity
  8
0
  6
Continuous
 62
     7
370
    25
100
AcDbLine
 10
776.7215636273
 20
293.7738229277
 30
0.0
 11
777.2915636621
 21
293.7738229277
 31
0.0
  0
LINE
  5
1FC
330
1F
100
AcDbEntity
  8
0
  6
Continuous
 62
     7
370
    25
100
AcDbLine
 10
777.4915636621
 20
293.7738229277
 30
0.0
 11
777.4915636621
 21
303.9338229277
 31
0.0
  0
LINE
  5
1FD
330
1F
100
AcDbEntity
  8
0
  6
Continuous
 62
     7
370
    25
100
AcDbLine
 10
777.2915636621
 20
303.9338229277
 30
0.0
 11
777.4915636621
 21
303.9338229277
 31
0.0
  0
LINE
  5
1FE
330
1F
100
AcDbEntity
  8
0
  6
Continuous
 62
     7
370
    25
100
AcDbLine
 10
777.4915636621
 20
293.7738229277
 30
0.0
 11
777.2915636621
 21
293.7738229277
 31
0.0
  0
LINE
  5
1FF
330
1F
100
AcDbEntity
  8
0
  6
Continuous
 62
     7
370
    25
100
AcDbLine
 10
769.4915636621
 20
303.9338229277
 30
0.0
 11
769.9915636621
 21
303.9338229277
 31
0.0
  0
LINE
  5
200
330
1F
100
AcDbEntity
  8
0
  6
Continuous
 62
     7
370
    25
100
AcDbLine
 10
769.9915636621
 20
293.7738229277
 30
0.0
 11
769.4915636621
 21
293.7738229277
 31
0.0
  0
MTEXT
  5
201
330
1F
100
AcDbEntity
  8
SLD-0
100
AcDbMText
 10
705.4310256625
 20
284.4147545827
 30
0.0
 40
4.7625
 41
0.0
 71
     1
 72
     1
  1
(LOCKING TAB)
  7
SLDTEXTSTYLE0
 73
     1
 44
1.0
  0
LEADER
  5
202
330
1F
100
AcDbEntity
  8
SLD-0
100
AcDbLeader
  3
SLDDIMSTYLE3
 76
     3
 10
768.1675094147
 20
298.8538229277
 30
0.0
 10
756.9423764758
 20
282.0399512952
 30
0.0
 10
752.9423764758
 20
282.0399512952
 30
0.0
  0
MTEXT
  5
203
330
1F
100
AcDbEntity
  8
SLD-0
100
AcDbMText
 10
783.3497162221
 20
314.0183479485
 30
0.0
 40
4.7625
 41
0.0
 71
     1
 72
     1
  1
INNER WIRE
  7
SLDTEXTSTYLE0
 73
     1
 44
1.0
  0
LEADER
  5
204
330
1F
100
AcDbEntity
  8
SLD-0
100
AcDbLeader
  3
SLDDIMSTYLE3
 76
     3
 10
774.3513129553
 20
301.8334229819
 30
0.0
 10
778.1932773109
 20
311.5717640203
 30
0.0
 10
782.1932773109
 20
311.5717640203
 30
0.0
  0
MTEXT
  5
205
330
1F
100
AcDbEntity
  8
SLD-0
100
AcDbMText
 10
785.1170386339
 20
286.4039352638
 30
0.0
 40
4.7625
 41
0.0
 71
     1
 72
     1
  1
SHIELD WIRE
  7
SLDTEXTSTYLE0
 73
     1
 44
1.0
  0
LEADER
  5
206
330
1F
100
AcDbEntity
  8
SLD-0
100
AcDbLeader
  3
SLDDIMSTYLE3
 76
     3
 10
774.1495452697
 20
295.7036068865
 30
0.0
 10
780.1140456182
 20
283.9607196025
 30
0.0
 10
784.1140456182
 20
283.9607196025
 30
0.0
  0
OLE2FRAME
  5
207
330
1F
100
AcDbEntity
  8
0
100
AcDbOle2Frame
 70
     2
  3
Picture (Enhanced Metafile)
 10
13.4047356173
 20
31.1336361838
 30
0.0
 11
87.8295611312
 21
15.3393002226
 31
0.0
 71
     3
 72
     0
 73
     1
 90
     5248
310
80554E67BF8139CF2A4087E11EFB35223F4000000000000000006221928717F5
310
554087E11EFB35223F4000000000000000006221928717F55540725E3FC2B8AD
310
2E4000000000000000004E67BF8139CF2A40725E3FC2B8AD2E40000000000000
310
0000000000000100000000010000010000000100000000000100000000140000
310
D0CF11E0A1B11AE1000000000000000000000000000000003E000300FEFF0900
310
0600000000000000000000000100000001000000000000000010000002000000
310
01000000FEFFFFFF0000000000000000FFFFFFFFFFFFFFFFFFFFFFFFFFFFFFFF
310
FFFFFFFFFFFFFFFFFFFFFFFFFFFFFFFFFFFFFFFFFFFFFFFFFFFFFFFFFFFFFFFF
310
FFFFFFFFFFFFFFFFFFFFFFFFFFFFFFFFFFFFFFFFFFFFFFFFFFFFFFFFFFFFFFFF
310
FFFFFFFFFFFFFFFFFFFFFFFFFFFFFFFFFFFFFFFFFFFFFFFFFFFFFFFFFFFFFFFF
310
FFFFFFFFFFFFFFFFFFFFFFFFFFFFFFFFFFFFFFFFFFFFFFFFFFFFFFFFFFFFFFFF
310
FFFFFFFFFFFFFFFFFFFFFFFFFFFFFFFFFFFFFFFFFFFFFFFFFFFFFFFFFFFFFFFF
310
FFFFFFFFFFFFFFFFFFFFFFFFFFFFFFFFFFFFFFFFFFFFFFFFFFFFFFFFFFFFFFFF
310
FFFFFFFFFFFFFFFFFFFFFFFFFFFFFFFFFFFFFFFFFFFFFFFFFFFFFFFFFFFFFFFF
310
FFFFFFFFFFFFFFFFFFFFFFFFFFFFFFFFFFFFFFFFFFFFFFFFFFFFFFFFFFFFFFFF
310
FFFFFFFFFFFFFFFFFFFFFFFFFFFFFFFFFFFFFFFFFFFFFFFFFFFFFFFFFFFFFFFF
310
FFFFFFFFFFFFFFFFFFFFFFFFFFFFFFFFFFFFFFFFFFFFFFFFFFFFFFFFFFFFFFFF
310
FFFFFFFFFFFFFFFFFFFFFFFFFFFFFFFFFFFFFFFFFFFFFFFFFFFFFFFFFFFFFFFF
310
FFFFFFFFFFFFFFFFFFFFFFFFFFFFFFFFFFFFFFFFFFFFFFFFFFFFFFFFFFFFFFFF
310
FFFFFFFFFFFFFFFFFFFFFFFFFFFFFFFFFFFFFFFFFFFFFFFFFFFFFFFFFFFFFFFF
310
FDFFFFFFFEFFFFFFFEFFFFFF0400000005000000060000000700000008000000
310
FEFFFFFFFFFFFFFFFFFFFFFFFFFFFFFFFFFFFFFFFFFFFFFFFFFFFFFFFFFFFFFF
310
FFFFFFFFFFFFFFFFFFFFFFFFFFFFFFFFFFFFFFFFFFFFFFFFFFFFFFFFFFFFFFFF
310
FFFFFFFFFFFFFFFFFFFFFFFFFFFFFFFFFFFFFFFFFFFFFFFFFFFFFFFFFFFFFFFF
310
FFFFFFFFFFFFFFFFFFFFFFFFFFFFFFFFFFFFFFFFFFFFFFFFFFFFFFFFFFFFFFFF
310
FFFFFFFFFFFFFFFFFFFFFFFFFFFFFFFFFFFFFFFFFFFFFFFFFFFFFFFFFFFFFFFF
310
FFFFFFFFFFFFFFFFFFFFFFFFFFFFFFFFFFFFFFFFFFFFFFFFFFFFFFFFFFFFFFFF
310
FFFFFFFFFFFFFFFFFFFFFFFFFFFFFFFFFFFFFFFFFFFFFFFFFFFFFFFFFFFFFFFF
310
FFFFFFFFFFFFFFFFFFFFFFFFFFFFFFFFFFFFFFFFFFFFFFFFFFFFFFFFFFFFFFFF
310
FFFFFFFFFFFFFFFFFFFFFFFFFFFFFFFFFFFFFFFFFFFFFFFFFFFFFFFFFFFFFFFF
310
FFFFFFFFFFFFFFFFFFFFFFFFFFFFFFFFFFFFFFFFFFFFFFFFFFFFFFFFFFFFFFFF
310
FFFFFFFFFFFFFFFFFFFFFFFFFFFFFFFFFFFFFFFFFFFFFFFFFFFFFFFFFFFFFFFF
310
FFFFFFFFFFFFFFFFFFFFFFFFFFFFFFFFFFFFFFFFFFFFFFFFFFFFFFFFFFFFFFFF
310
FFFFFFFFFFFFFFFFFFFFFFFFFFFFFFFFFFFFFFFFFFFFFFFFFFFFFFFFFFFFFFFF
310
FFFFFFFFFFFFFFFFFFFFFFFFFFFFFFFFFFFFFFFFFFFFFFFFFFFFFFFFFFFFFFFF
310
FFFFFFFFFFFFFFFFFFFFFFFFFFFFFFFFFFFFFFFFFFFFFFFFFFFFFFFFFFFFFFFF
310
52006F006F007400200045006E00740072007900000000000000000000000000
310
0000000000000000000000000000000000000000000000000000000000000000
310
16000500FFFFFFFFFFFFFFFF020000001903000000000000C000000000000046
310
000000000000000000000000D08F80781390D90103000000000C000000000000
310
01004F006C006500000000000000000000000000000000000000000000000000
310
0000000000000000000000000000000000000000000000000000000000000000
310
0A000200FFFFFFFFFFFFFFFFFFFFFFFF00000000000000000000000000000000
310
0000000000000000000000000000000000000000000000001400000000000000
310
010043006F006D0070004F0062006A0000000000000000000000000000000000
310
0000000000000000000000000000000000000000000000000000000000000000
310
120002010100000003000000FFFFFFFF00000000000000000000000000000000
310
0000000000000000000000000000000000000000010000005800000000000000
310
43004F004E00540045004E005400530000000000000000000000000000000000
310
0000000000000000000000000000000000000000000000000000000000000000
310
12000200FFFFFFFFFFFFFFFFFFFFFFFF00000000000000000000000000000000
310
000000000000000000000000000000000000000003000000040B000000000000
310
FEFFFFFF02000000FEFFFFFF0400000005000000060000000700000008000000
310
090000000A0000000B0000000C0000000D0000000E0000000F00000010000000
310
1100000012000000130000001400000015000000160000001700000018000000
310
190000001A0000001B0000001C0000001D0000001E0000001F00000020000000
310
2100000022000000230000002400000025000000260000002700000028000000
310
290000002A0000002B0000002C0000002D0000002E0000002F000000FEFFFFFF
310
FFFFFFFFFFFFFFFFFFFFFFFFFFFFFFFFFFFFFFFFFFFFFFFFFFFFFFFFFFFFFFFF
310
FFFFFFFFFFFFFFFFFFFFFFFFFFFFFFFFFFFFFFFFFFFFFFFFFFFFFFFFFFFFFFFF
310
FFFFFFFFFFFFFFFFFFFFFFFFFFFFFFFFFFFFFFFFFFFFFFFFFFFFFFFFFFFFFFFF
310
FFFFFFFFFFFFFFFFFFFFFFFFFFFFFFFFFFFFFFFFFFFFFFFFFFFFFFFFFFFFFFFF
310
FFFFFFFFFFFFFFFFFFFFFFFFFFFFFFFFFFFFFFFFFFFFFFFFFFFFFFFFFFFFFFFF
310
FFFFFFFFFFFFFFFFFFFFFFFFFFFFFFFFFFFFFFFFFFFFFFFFFFFFFFFFFFFFFFFF
310
FFFFFFFFFFFFFFFFFFFFFFFFFFFFFFFFFFFFFFFFFFFFFFFFFFFFFFFFFFFFFFFF
310
FFFFFFFFFFFFFFFFFFFFFFFFFFFFFFFFFFFFFFFFFFFFFFFFFFFFFFFFFFFFFFFF
310
FFFFFFFFFFFFFFFFFFFFFFFFFFFFFFFFFFFFFFFFFFFFFFFFFFFFFFFFFFFFFFFF
310
FFFFFFFFFFFFFFFFFFFFFFFFFFFFFFFFFFFFFFFFFFFFFFFFFFFFFFFFFFFFFFFF
310
0100000200000000000000000000000000000000000000000000000000000000
310
0000000000000000000000000000000000000000000000000000000000000000
310
0100FEFF030A0000FFFFFFFF1903000000000000C0000000000000461C000000
310
506963747572652028456E68616E636564204D65746166696C652900FFFFFFFF
310
0E00000000000000F439B2710000000000000000000000000000000000000000
310
0000000000000000000000000000000000000000000000000000000000000000
310
74000000010000006C000000FD0A000094000000870B0000B200000062570100
310
111200003B680100BB15000020454D46000001008C0A00003800000003000000
310
0D0000005800000000000000000400000003000040010000F000000041006400
310
6F00620065002000530079007300740000000000780000000100000074000000
310
FD0A000094000000870B0000B200000062570100111200003B680100BB150000
310
20454D46000001008C0A000038000000030000000D0000005800000000000000
310
000400000003000040010000F0000000410064006F0062006500200053007900
310
7300740065006D0073000000110000000C00000008000000120000000C000000
310
010000000A0000001000000000000000000000000C0000001000000000000000
310
000000000900000010000000D7040000110100000B000000100000009D010000
310
5B000000130000000C0000000200000027000000180000000100000000000000
310
0000000000000000250000000C000000010000005F0000003400000002000000
310
2C000000000000002C0000000000000005000000000000000000000000000000
310
0000000000000000250000000C000000020000003B000000080000001B000000
310
100000003D210000F20100005800000048010000FC0A000093000000190B0000
310
B30000004B0000004921F9014921F9014921F9014921DA014921DA014921DA01
310
4921D5014621D0014221CD012821BE012821BE012821BE012321BB011D21BB01
310
1821BE01FE20CD01FE20CD01FE20CD01FA20D001F720D501F720DA01F720F801
310
F720F801F720F801F720FE01FA200302FE200602182115021821150218211502
310
1D21170223211702282115024321050243210502432105023721FE013721FE01
310
3721FE013521FD013521FD013521FD0122210902222109022221090221210902
310
1F2109021E2109020621FA010621FA010621FA010521FA010421F9010421F701
310
0421DB010421DB010421DB010421DA010521D9010621D8011E21CA011E21CA01
310
1E21CA011F21CA012121CA012221CA013A21D8013A21D8013A21D8013B21D901
310
3C21DA013C21DB013C21F2013C21F2013C21F2013D000000080000003C000000
310
080000003E000000180000009F8601009F8601006179FEFF6179FEFF13000000
310
0C000000020000003B000000080000001B000000100000002F210000E4010000
310
58000000C4000000050B00009D000000100B0000A90000002A0000002F21EF01
310
2F21EF012F21EF012F21F1012E21F2012C21F3012321F9012321F9012321F901
310
2221FA012121FA012021FA011F21FA011E21FA011D21F9011421F4011421F401
310
1421F4011221F3011121F1011121EF011121E4011121E4011121E4011121E201
310
1221E0011321DF011D21DA011D21DA011D21DA011E21D9011F21D9012021D901
310
2121D9012221D9012321DA012C21DF012C21DF012C21DF012E21E0012F21E201
310
2F21E4013D000000080000003C000000080000003E000000180000009F860100
310
9F8601006179FEFF6179FEFF130000000C000000020000005B00000038000000
310
3D0B0000A3000000430B0000A6000000010000000500000005000000B821F001
310
C821F001C821EB01B821EB01B821F001130000000C000000020000003B000000
310
080000001B0000001000000004220000E70100005800000084010000450B0000
310
9B000000590B0000AA0000005A0000000122E601FD21E501F621E501E421E501
310
E421E501E421E501D921E501D921E301D921E001D921DD01DA21DB01DC21DA01
310
DE21DA01E221D901E921D901EF21D901EF21D901EF21D9010022D9010022DB01
310
0022E0010022E1010022E1010022E1010722E1010722E1010722E1010722DF01
310
0722DF010722DF010722DB010622D8010322D6010022D401FB21D401F321D401
310
E521D401E521D401E521D401D921D401D121D601D121DF01D121E501D321E801
310
D721E901DB21EB01E221EB01EC21EB01F821EB01F821EB01F821EB010022EB01
310
0122ED010122F1010122F5010022F701F621F701E221F701E221F701E221F701
310
DA21F701D921F501D921F201D921EF01D921EF01D921EF01D121EF01D121EF01
310
D121EF01D121F201D121F201D121F201D121FC01DB21FD01E421FD01F521FD01
310
F521FD01F521FD01F921FD01FE21FD010222FB010622FA010922F6010922F201
310
0922EF010922EF010922EF010922EC010722E9010422E7013C00000008000000
310
3E000000180000009F8601009F8601006179FEFF6179FEFF130000000C000000
310
020000005B0000004C000000590B00009B0000006F0B0000AA00000001000000
310
0A0000000A0000002C22E6011722D4010C22D4012822EC012822FC013022FC01
310
3022EC014C22D4014122D4012C22E601130000000C000000020000003B000000
310
080000001B0000001000000082220000E701000058000000780100006F0B0000
310
9B000000830B0000AA000000570000007F22E6017B22E5017422E5016122E501
310
6122E5016122E5015722E5015722E3015722E0015722DB015822D9016622D901
310
6D22D9016D22D9016D22D9017E22D9017E22DB017E22E0017E22E1017E22E101
310
7E22E1018522E1018522E1018522E1018522DF018522DF018522DF018522DB01
310
8422D8018122D6017E22D4017922D4017122D4016322D4016322D4016322D401
310
5722D4014F22D6014F22DF014F22E5015122E8015522E9015922EB015F22EB01
310
6A22EB017622EB017622EB017622EB017E22EB017F22ED017F22F1017F22F501
310
7D22F7017422F7016022F7016022F7016022F7015822F7015722F5015722F201
310
5722EF015722EF015722EF014F22EF014F22EF014F22EF014F22F2014F22F201
310
4F22F2014F22FC015822FD016122FD017322FD017322FD017322FD017722FD01
310
7C22FD018022FB018422FA018622F6018622F2018622EF018622EF018622EF01
310
8622EC018522E9018222E7013C000000080000003E000000180000009F860100
310
9F8601006179FEFF6179FEFF130000000C000000020000005B00000038000000
310
300B0000A6000000340B0000AC00000001000000050000000500000093210202
310
9A2102029A21F3019321F30193210202130000000C000000020000003B000000
310
080000001B000000100000009B210000D40100005800000018010000240B0000
310
9B0000003A0B0000AA0000003F0000008021D4018021D4018021D4017421D401
310
6F21D8016F21E3016F21EE016F21EE016F21EE016F21F8017421FD018021FD01
310
8F21FD018F21FD018F21FD018F21F7018F21F7018F21F7018121F7018121F701
310
8121F7017921F7017621F5017621F0017621E1017621E1017621E1017621DC01
310
7921D9018121D9019A21D9019A21D9019A21D901A121D901A421DC01A421E101
310
A421F001A421F001A421F001A421F401A321F6019E21F7019E21F7019E21F701
310
9E21F7019E21FD019E21FD019E21FD019F21FD019F21FD019F21FD01A421FC01
310
A721FB01A921F801AB21F601AC21F201AC21EE01AC21E301AC21E301AC21E301
310
AC21D801A721D4019B21D4013C000000080000003E000000180000009F860100
310
9F8601006179FEFF6179FEFF130000000C000000020000005B0000006C000000
310
840B00009B000000870B00009F0000000100000012000000120000009222D401
310
9122D8019022D4018E22D4018E22DA018F22DA018F22D6018F22D5019022D601
310
9122DA019122DA019222D6019322D5019322D6019322DA019422DA019422D401
310
9222D401130000000C000000020000005B00000048000000830B00009B000000
310
850B00009F0000000100000009000000090000008A22D5018B22D5018B22DA01
310
8C22DA018C22D5018E22D5018E22D4018A22D4018A22D501280000000C000000
310
01000000280000000C000000020000000E000000140000000000000010000000
310
1400000000000000000000000000000000000000000000000000000000000000
310
0000000000000000000000000000000000000000000000000000000000000000
  1
OLE
  0
ENDSEC
  0
SECTION
  2
OBJECTS
  0
DICTIONARY
  5
C
330
0
100
AcDbDictionary
281
     1
  3
ACAD_GROUP
350
D
  3
ACAD_LAYOUT
350
1A
  3
ACAD_MLINESTYLE
350
17
  3
ACAD_PLOTSETTINGS
350
19
  3
ACAD_PLOTSTYLENAME
350
E
  3
ACAD_SCALELIST
350
47
  3
DWGPROPS
350
208
  0
DICTIONARY
  5
D
102
{ACAD_REACTORS
330
C
102
}
330
C
100
AcDbDictionary
281
     1
  0
DICTIONARY
  5
1A
102
{ACAD_REACTORS
330
C
102
}
330
C
100
AcDbDictionary
281
     1
  3
Layout1
350
1E
  3
Layout2
350
26
  3
Model
350
22
  0
DICTIONARY
  5
17
102
{ACAD_REACTORS
330
C
102
}
330
C
100
AcDbDictionary
281
     1
  3
Standard
350
18
  0
DICTIONARY
  5
19
102
{ACAD_REACTORS
330
C
102
}
330
C
100
AcDbDictionary
281
     1
  0
ACDBDICTIONARYWDFLT
  5
E
102
{ACAD_REACTORS
330
C
102
}
330
C
100
AcDbDictionary
281
     1
  3
Normal
350
F
100
AcDbDictionaryWithDefault
340
F
  0
DICTIONARY
  5
47
102
{ACAD_REACTORS
330
C
102
}
330
C
100
AcDbDictionary
281
     1
  3
A0
350
48
  3
A1
350
49
  3
A2
350
4A
  3
A3
350
4B
  3
A4
350
4C
  3
A5
350
4D
  3
A6
350
4E
  3
A7
350
4F
  3
A8
350
50
  3
A9
350
51
  3
B0
350
52
  3
B1
350
53
  3
B2
350
54
  3
B3
350
55
  3
B4
350
56
  3
B5
350
57
  3
B6
350
58
  0
XRECORD
  5
208
102
{ACAD_REACTORS
330
C
102
}
330
C
100
AcDbXrecord
280
     1
  1
DWGPROPS COOKIE
  2

  3

  4

  6

  7

  8
Maurice.Davila
  9

300
=
301
=
302
=
303
=
304
=
305
=
306
=
307
=
308
=
309
=
 40
0.0
 41
2460091.867225706
 42
2460091.867227593
  1

 90
        0
  0
LAYOUT
  5
1E
102
{ACAD_REACTORS
330
1A
102
}
330
1A
100
AcDbPlotSettings
  1

  2
none_device
  4

  6

 40
0.0
 41
0.0
 42
0.0
 43
0.0
 44
0.0
 45
0.0
 46
0.0
 47
0.0
 48
0.0
 49
0.0
140
0.0
141
0.0
142
1.0
143
1.0
 70
   688
 72
     1
 73
     0
 74
     5
  7

 75
    16
147
1.0
148
0.0
149
0.0
100
AcDbLayout
  1
Layout1
 70
     1
 71
     1
 10
0.0
 20
0.0
 11
420.0
 21
297.0
 12
0.0
 22
0.0
 32
0.0
 14
1.0000000000E+20
 24
1.0000000000E+20
 34
1.0000000000E+20
 15
-1.0000000000E+20
 25
-1.0000000000E+20
 35
-1.0000000000E+20
146
0.0
 13
0.0
 23
0.0
 33
0.0
 16
1.0
 26
0.0
 36
0.0
 17
0.0
 27
1.0
 37
0.0
 76
     0
330
1B
  0
LAYOUT
  5
26
102
{ACAD_REACTORS
330
1A
102
}
330
1A
100
AcDbPlotSettings
  1

  2
none_device
  4

  6

 40
0.0
 41
0.0
 42
0.0
 43
0.0
 44
0.0
 45
0.0
 46
0.0
 47
0.0
 48
0.0
 49
0.0
140
0.0
141
0.0
142
1.0
143
1.0
 70
   688
 72
     1
 73
     0
 74
     5
  7

 75
    16
147
1.0
148
0.0
149
0.0
100
AcDbLayout
  1
Layout2
 70
     1
 71
     2
 10
0.0
 20
0.0
 11
0.0
 21
0.0
 12
0.0
 22
0.0
 32
0.0
 14
0.0
 24
0.0
 34
0.0
 15
0.0
 25
0.0
 35
0.0
146
0.0
 13
0.0
 23
0.0
 33
0.0
 16
1.0
 26
0.0
 36
0.0
 17
0.0
 27
1.0
 37
0.0
 76
     0
330
23
  0
LAYOUT
  5
22
102
{ACAD_REACTORS
330
1A
102
}
330
1A
100
AcDbPlotSettings
  1

  2
none_device
  4
Letter_(8.50_x_11.00_Inches)
  6

 40
6.35
 41
6.35
 42
6.35000508
 43
6.35000508
 44
215.9
 45
279.4
 46
0.0
 47
0.0
 48
0.0
 49
0.0
140
0.0
141
0.0
142
1.0
143
1.0
 70
  1712
 72
     1
 73
     0
 74
     0
  7

 75
     0
147
1.0
148
0.0
149
0.0
100
AcDbLayout
  1
Model
 70
     1
 71
     0
 10
0.0
 20
0.0
 11
863.6
 21
558.8
 12
0.0
 22
0.0
 32
0.0
 14
0.0
 24
0.0
 34
0.0
 15
863.6
 25
558.8
 35
0.0
146
0.0
 13
0.0
 23
0.0
 33
0.0
 16
1.0
 26
0.0
 36
0.0
 17
0.0
 27
1.0
 37
0.0
 76
     0
330
1F
331
29
  0
MLINESTYLE
  5
18
102
{ACAD_REACTORS
330
17
102
}
330
17
100
AcDbMlineStyle
  2
Standard
 70
     0
  3

 62
   256
 51
90.0
 52
90.0
 71
     2
 49
0.5
 62
   256
  6
BYLAYER
 49
-0.5
 62
   256
  6
BYLAYER
  0
ACDBPLACEHOLDER
  5
F
102
{ACAD_REACTORS
330
E
102
}
330
E
  0
SCALE
  5
48
102
{ACAD_REACTORS
330
47
102
}
330
47
100
AcDbScale
 70
     0
300
1:1
140
1.0
141
1.0
290
     1
  0
SCALE
  5
49
102
{ACAD_REACTORS
330
47
102
}
330
47
100
AcDbScale
 70
     0
300
1:2
140
1.0
141
2.0
290
     0
  0
SCALE
  5
4A
102
{ACAD_REACTORS
330
47
102
}
330
47
100
AcDbScale
 70
     0
300
1:4
140
1.0
141
4.0
290
     0
  0
SCALE
  5
4B
102
{ACAD_REACTORS
330
47
102
}
330
47
100
AcDbScale
 70
     0
300
1:5
140
1.0
141
5.0
290
     0
  0
SCALE
  5
4C
102
{ACAD_REACTORS
330
47
102
}
330
47
100
AcDbScale
 70
     0
300
1:8
140
1.0
141
8.0
290
     0
  0
SCALE
  5
4D
102
{ACAD_REACTORS
330
47
102
}
330
47
100
AcDbScale
 70
     0
300
1:10
140
1.0
141
10.0
290
     0
  0
SCALE
  5
4E
102
{ACAD_REACTORS
330
47
102
}
330
47
100
AcDbScale
 70
     0
300
1:16
140
1.0
141
16.0
290
     0
  0
SCALE
  5
4F
102
{ACAD_REACTORS
330
47
102
}
330
47
100
AcDbScale
 70
     0
300
1:20
140
1.0
141
20.0
290
     0
  0
SCALE
  5
50
102
{ACAD_REACTORS
330
47
102
}
330
47
100
AcDbScale
 70
     0
300
1:30
140
1.0
141
30.0
290
     0
  0
SCALE
  5
51
102
{ACAD_REACTORS
330
47
102
}
330
47
100
AcDbScale
 70
     0
300
1:40
140
1.0
141
40.0
290
     0
  0
SCALE
  5
52
102
{ACAD_REACTORS
330
47
102
}
330
47
100
AcDbScale
 70
     0
300
1:50
140
1.0
141
50.0
290
     0
  0
SCALE
  5
53
102
{ACAD_REACTORS
330
47
102
}
330
47
100
AcDbScale
 70
     0
300
1:100
140
1.0
141
100.0
290
     0
  0
SCALE
  5
54
102
{ACAD_REACTORS
330
47
102
}
330
47
100
AcDbScale
 70
     0
300
2:1
140
2.0
141
1.0
290
     0
  0
SCALE
  5
55
102
{ACAD_REACTORS
330
47
102
}
330
47
100
AcDbScale
 70
     0
300
4:1
140
4.0
141
1.0
290
     0
  0
SCALE
  5
56
102
{ACAD_REACTORS
330
47
102
}
330
47
100
AcDbScale
 70
     0
300
8:1
140
8.0
141
1.0
290
     0
  0
SCALE
  5
57
102
{ACAD_REACTORS
330
47
102
}
330
47
100
AcDbScale
 70
     0
300
10:1
140
10.0
141
1.0
290
     0
  0
SCALE
  5
58
102
{ACAD_REACTORS
330
47
102
}
330
47
100
AcDbScale
 70
     0
300
100:1
140
100.0
141
1.0
290
     0
  0
ENDSEC
  0
EOF
