999
DXF file: C:\Users\suzanne.stasiak\OneDrive - qsc.com\Desktop\fg-901507-2d-B-2-OF-2.dxf
999
Pro/ENGINEER 2022014 by Parametric Technology Corporation
  0
SECTION
  2
HEADER
  9
$ACADVER
  1
AC1015
  9
$DWGCODEPAGE
  3
ANSI_1252
  9
$EXTMAX
 10
1727.2
 20
1117.6
 30
0.0
  9
$EXTMIN
 10
0.0
 20
0.0
 30
0.0
  9
$LIMMIN
 10
0.0
 20
0.0
  9
$LIMMAX
 10
1727.2
 20
1117.6
  9
$VIEWCTR
 10
863.6
 20
558.8
  9
$VIEWSIZE
 40
1117.6
  9
$CLAYER
  8
0
  9
$LTSCALE
 40
94.996
  9
$CELTYPE
  6
BYLAYER
  9
$DIMSCALE
 40
1.0
  9
$DIMASZ
 40
8.0
  9
$DIMEXO
 40
1.5875
  9
$DIMDLI
 40
65.6336
  9
$DIMEXE
 40
3.175
  9
$DIMCEN
 40
15.5448
  9
$DIMLFAC
 40
1.0
  9
$DIMBLK
  1
_FILLED
  9
$DIMALT
 70
1
  9
$DIMALTD
 70
1
  9
$DIMALTTD
 70
2
  9
$DIMALTF
 40
0.0393700787
  9
$DIMTXT
 40
9.144
  9
$DIMTOL
 70
1
  9
$DIMLIM
 70
0
  9
$DIMTFAC
 40
1.0
  9
$DIMTP
 40
0.01
  9
$DIMTM
 40
0.01
  9
$DIMGAP
 40
0.625
  9
$DIMDSEP
 70
46
  9
$AUNITS
 70
0
  9
$PDMODE
 70
3
  9
$PDSIZE
 40
7.9375
  9
$HANDSEED
  5
596
  9
$TILEMODE
 70
1
  9
$MEASUREMENT
 70
1
  9
$INSUNITS
 70
4
  0
ENDSEC
  0
SECTION
  2
CLASSES
  0
CLASS
  1
ACDBDICTIONARYWDFLT
  2
AcDbDictionaryWithDefault
  3
AutoCAD 2000
 90
0
280
0
281
0
  0
CLASS
  1
ACDBPLACEHOLDER
  2
AcDbPlaceHolder
  3
AutoCAD 2000
 90
0
280
0
281
0
  0
CLASS
  1
LAYOUT
  2
AcDbLayout
  3
AutoCAD 2000
 90
0
280
0
281
0
  0
ENDSEC
  0
SECTION
  2
TABLES
  0
TABLE
  2
VPORT
  5
8
100
AcDbSymbolTable
 70
2
  0
VPORT
  5
1F4
100
AcDbSymbolTableRecord
100
AcDbViewportTableRecord
  2
*ACTIVE
 70
0
 10
0.0
 20
0.0
 11
1.0
 21
1.0
 12
863.6
 22
558.8
 13
0.0
 23
0.0
 14
1.0
 24
1.0
 15
0.0
 25
0.0
 16
0.0
 26
0.0
 36
1.0
 17
0.0
 27
0.0
 37
0.0
 40
1117.6
 41
1.5454545455
 42
50.0
 43
0.0
 44
0.0
 50
0.0
 51
0.0
 71
0
 72
100
 73
1
 74
1
 75
0
 76
0
 77
0
 78
0
  0
ENDTAB
  0
TABLE
  2
LTYPE
  5
5
100
AcDbSymbolTable
 70
6
  0
LTYPE
  5
14
100
AcDbSymbolTableRecord
100
AcDbLinetypeTableRecord
  2
BYBLOCK
 70
0
  3

 72
65
 73
0
 40
0.0
  0
LTYPE
  5
15
100
AcDbSymbolTableRecord
100
AcDbLinetypeTableRecord
  2
BYLAYER
 70
0
  3

 72
65
 73
0
 40
0.0
  0
LTYPE
  5
16
100
AcDbSymbolTableRecord
100
AcDbLinetypeTableRecord
  2
CONTINUOUS
 70
64
  3
Solid line
 72
65
 73
0
 40
0.0
  0
LTYPE
  5
1F5
100
AcDbSymbolTableRecord
100
AcDbLinetypeTableRecord
  2
CENTER
 70
64
  3
____ _ ____ _ ____ _ ____ _ ____ _ ____ _ ____
 72
65
 73
4
 40
0.6
 49
0.375
 74
0
 49
-0.075
 74
0
 49
0.075
 74
0
 49
-0.075
 74
0
  0
LTYPE
  5
1F6
100
AcDbSymbolTableRecord
100
AcDbLinetypeTableRecord
  2
HIDDEN
 70
64
  3
- - - - - - - - - - - - - - - - - - - -
 72
65
 73
2
 40
0.2
 49
0.1
 74
0
 49
-0.1
 74
0
  0
LTYPE
  5
1F7
100
AcDbSymbolTableRecord
100
AcDbLinetypeTableRecord
  2
PHANTOM
 70
64
  3
_____ _ _ _____ _ _ _____ _ _ _____
 72
65
 73
6
 40
0.8
 49
0.45
 74
0
 49
-0.05
 74
0
 49
0.1
 74
0
 49
-0.05
 74
0
 49
0.1
 74
0
 49
-0.05
 74
0
  0
LTYPE
  5
1F8
100
AcDbSymbolTableRecord
100
AcDbLinetypeTableRecord
  2
DOT
 70
64
  3
. . . . . . . . . . . . . . . . . . . .
 72
65
 73
2
 40
0.2
 49
0.1
 74
0
 49
-0.1
 74
0
  0
LTYPE
  5
1F9
100
AcDbSymbolTableRecord
100
AcDbLinetypeTableRecord
  2
DASHED
 70
64
  3
- - - - - - - - - - - - - - - - - - - -
 72
65
 73
2
 40
0.2
 49
0.1
 74
0
 49
-0.1
 74
0
  0
ENDTAB
  0
TABLE
  2
LAYER
  5
2
100
AcDbSymbolTable
 70
36
  0
LAYER
  5
10
100
AcDbSymbolTableRecord
100
AcDbLayerTableRecord
  2
0
 70
0
 62
7
  6
CONTINUOUS
370
-3
390
F
  0
LAYER
  5
1FA
100
AcDbSymbolTableRecord
100
AcDbLayerTableRecord
  2
DEFAULT_1
 70
0
 62
7
  6
CENTER
370
-3
390
F
  0
LAYER
  5
1FB
100
AcDbSymbolTableRecord
100
AcDbLayerTableRecord
  2
DEFAULT_2
 70
0
 62
8
  6
HIDDEN
370
-3
390
F
  0
LAYER
  5
1FC
100
AcDbSymbolTableRecord
100
AcDbLayerTableRecord
  2
DEFAULT_3
 70
0
 62
7
  6
PHANTOM
370
-3
390
F
  0
LAYER
  5
1FD
100
AcDbSymbolTableRecord
100
AcDbLayerTableRecord
  2
01___PRT_ALL_DTM_PLN
 70
0
 62
7
  6
CONTINUOUS
370
-3
390
F
  0
LAYER
  5
1FE
100
AcDbSymbolTableRecord
100
AcDbLayerTableRecord
  2
01___PRT_DEF_DTM_PLN
 70
0
 62
7
  6
CONTINUOUS
370
-3
390
F
  0
LAYER
  5
1FF
100
AcDbSymbolTableRecord
100
AcDbLayerTableRecord
  2
02___PRT_ALL_AXES
 70
0
 62
7
  6
CONTINUOUS
370
-3
390
F
  0
LAYER
  5
200
100
AcDbSymbolTableRecord
100
AcDbLayerTableRecord
  2
03___PRT_ALL_CURVES
 70
0
 62
7
  6
CONTINUOUS
370
-3
390
F
  0
LAYER
  5
201
100
AcDbSymbolTableRecord
100
AcDbLayerTableRecord
  2
04___PRT_ALL_DTM_PNT
 70
0
 62
7
  6
CONTINUOUS
370
-3
390
F
  0
LAYER
  5
202
100
AcDbSymbolTableRecord
100
AcDbLayerTableRecord
  2
05___PRT_ALL_DTM_CSYS
 70
0
 62
7
  6
CONTINUOUS
370
-3
390
F
  0
LAYER
  5
203
100
AcDbSymbolTableRecord
100
AcDbLayerTableRecord
  2
05___PRT_DEF_DTM_CSYS
 70
0
 62
7
  6
CONTINUOUS
370
-3
390
F
  0
LAYER
  5
204
100
AcDbSymbolTableRecord
100
AcDbLayerTableRecord
  2
06___PRT_ALL_SURFS
 70
0
 62
7
  6
CONTINUOUS
370
-3
390
F
  0
ENDTAB
  0
TABLE
  2
STYLE
  5
3
100
AcDbSymbolTable
 70
1
  0
STYLE
  5
11
100
AcDbSymbolTableRecord
100
AcDbTextStyleTableRecord
  2
STANDARD
 70
0
 40
0.0
 41
1.0
 50
0.0
 71
0
 42
0.2
  3
gothic.ttf
  4

1001
ACAD
1000
Century Gothic
1071
34
  0
STYLE
  5
205
100
AcDbSymbolTableRecord
100
AcDbTextStyleTableRecord
  2
TEXTSTYLE_1
 70
0
 40
0.0
 41
0.8
 50
0.0
 71
0
 42
0.2
  3
gdt
  4

  0
STYLE
  5
206
100
AcDbSymbolTableRecord
100
AcDbTextStyleTableRecord
  2
TEXTSTYLE_2
 70
0
 40
0.0
 41
1.0
 50
0.0
 71
0
 42
0.2
  3
gothic.ttf
  4

1001
ACAD
1000
Century Gothic
1071
34
  0
STYLE
  5
207
100
AcDbSymbolTableRecord
100
AcDbTextStyleTableRecord
  2
TEXTSTYLE_3
 70
0
 40
0.0
 41
1.0
 50
0.0
 71
0
 42
0.2
  3
gdt
  4

  0
ENDTAB
  0
TABLE
  2
VIEW
  5
6
100
AcDbSymbolTable
 70
0
  0
ENDTAB
  0
TABLE
  2
UCS
  5
7
100
AcDbSymbolTable
 70
0
  0
ENDTAB
  0
TABLE
  2
APPID
  5
9
100
AcDbSymbolTable
 70
1
  0
APPID
  5
208
100
AcDbSymbolTableRecord
100
AcDbRegAppTableRecord
  2
ACAD
 70
0
  0
ENDTAB
  0
TABLE
  2
BLOCK_RECORD
  5
1
100
AcDbSymbolTable
 70
0
  0
BLOCK_RECORD
  5
209
100
AcDbSymbolTableRecord
100
AcDbBlockTableRecord
  2
*Model_Space
  0
BLOCK_RECORD
  5
20A
100
AcDbSymbolTableRecord
100
AcDbBlockTableRecord
  2
*Paper_Space
  0
BLOCK_RECORD
  5
20B
100
AcDbSymbolTableRecord
100
AcDbBlockTableRecord
  2
_FILLED
  0
BLOCK_RECORD
  5
20C
100
AcDbSymbolTableRecord
100
AcDbBlockTableRecord
  2
_DOT
  0
BLOCK_RECORD
  5
20D
100
AcDbSymbolTableRecord
100
AcDbBlockTableRecord
  2
*D0
  0
BLOCK_RECORD
  5
20E
100
AcDbSymbolTableRecord
100
AcDbBlockTableRecord
  2
*D1
  0
BLOCK_RECORD
  5
20F
100
AcDbSymbolTableRecord
100
AcDbBlockTableRecord
  2
*D2
  0
BLOCK_RECORD
  5
210
100
AcDbSymbolTableRecord
100
AcDbBlockTableRecord
  2
*D3
  0
BLOCK_RECORD
  5
211
100
AcDbSymbolTableRecord
100
AcDbBlockTableRecord
  2
*D4
  0
BLOCK_RECORD
  5
212
100
AcDbSymbolTableRecord
100
AcDbBlockTableRecord
  2
*D5
  0
BLOCK_RECORD
  5
213
100
AcDbSymbolTableRecord
100
AcDbBlockTableRecord
  2
*D6
  0
BLOCK_RECORD
  5
214
100
AcDbSymbolTableRecord
100
AcDbBlockTableRecord
  2
*D7
  0
BLOCK_RECORD
  5
215
100
AcDbSymbolTableRecord
100
AcDbBlockTableRecord
  2
*D8
  0
ENDTAB
  0
TABLE
  2
DIMSTYLE
  5
A
100
AcDbSymbolTable
 70
1
100
AcDbDimStyleTable
 71
0
  0
DIMSTYLE
105
216
100
AcDbSymbolTableRecord
100
AcDbDimStyleTableRecord
  2
STANDARD
 70
0
  3

  4

 40
1.0
 41
8.0
 42
1.5875
 43
0.38
 44
3.175
 45
0.0
 46
0.0
 47
0.01
 48
0.01
140
9.144
141
0.09
142
0.0
143
0.0393700787
144
1.0
145
0.0
146
1.0
147
0.625
 71
1
 72
0
 73
1
 74
1
 75
0
 76
0
 77
0
 78
4
 79
1
170
1
171
1
172
0
173
0
174
0
175
0
176
0
177
0
178
0
270
2
179
2
271
2
272
2
273
2
274
2
275
0
280
0
281
0
282
0
283
1
284
4
285
0
286
0
287
3
288
0
340
11
278
46
341
20B
342
20B
343
20B
344
20B
  0
DIMSTYLE
105
217
100
AcDbSymbolTableRecord
100
AcDbDimStyleTableRecord
  2
DIMSTYLE_1
 70
0
  3

  4

 40
1.0
 41
8.0
 42
1.5875
 43
0.38
 44
3.175
 45
0.0
 46
0.0
 47
0.1
 48
0.1
140
9.144
141
0.09
142
0.0
143
0.0393700787
144
1.0
145
0.0
146
1.0
147
1.143
 71
0
 72
0
 73
1
 74
1
 75
0
 76
0
 77
0
 78
4
 79
1
170
1
171
2
172
0
173
0
174
0
175
0
176
0
177
0
178
0
270
2
179
2
271
1
272
1
273
2
274
-1
275
0
280
0
281
0
282
0
283
1
284
4
285
0
286
0
287
3
288
0
340
11
278
46
341
20B
342
20B
343
20B
344
20B
  0
DIMSTYLE
105
218
100
AcDbSymbolTableRecord
100
AcDbDimStyleTableRecord
  2
DIMSTYLE_2
 70
0
  3

  4

 40
1.0
 41
8.0
 42
1.5875
 43
0.38
 44
3.175
 45
0.0
 46
0.0
 47
0.1
 48
0.1
140
9.144
141
0.09
142
0.0
143
0.0393700787
144
1.0
145
0.0
146
1.0
147
1.143
 71
0
 72
0
 73
1
 74
1
 75
0
 76
0
 77
0
 78
4
 79
1
170
1
171
2
172
0
173
0
174
0
175
0
176
0
177
0
178
0
270
2
179
2
271
1
272
1
273
2
274
2
275
0
280
0
281
0
282
0
283
1
284
4
285
0
286
0
287
3
288
0
340
11
278
46
341
20B
342
20B
343
20B
344
20B
  0
ENDTAB
  0
ENDSEC
  0
SECTION
  2
BLOCKS
  0
BLOCK
  5
20
100
AcDbEntity
  8
0
100
AcDbBlockBegin
  2
*Model_Space
 70
0
 10
0.0
 20
0.0
 30
0.0
  3
*Model_Space
  1

  0
ENDBLK
  5
21
100
AcDbEntity
  8
0
100
AcDbBlockEnd
  0
BLOCK
  5
1C
100
AcDbEntity
  8
0
100
AcDbBlockBegin
  2
*Paper_Space
 70
0
 10
0.0
 20
0.0
 30
0.0
  3
*Paper_Space
  1

  0
ENDBLK
  5
1D
100
AcDbEntity
  8
0
100
AcDbBlockEnd
  0
BLOCK
  5
219
100
AcDbEntity
  8
0
100
AcDbBlockBegin
  2
_FILLED
 70
64
 10
0.0
 20
0.0
  3
_FILLED
  1

  0
SOLID
  5
21A
100
AcDbEntity
  8
0
  6
BYBLOCK
 62
0
100
AcDbTrace
 10
0.0
 20
0.0
 11
-1.0
 21
0.1275
 12
-1.0
 22
-0.1275
 13
-1.0
 23
-0.1275
  0
ENDBLK
  5
21B
100
AcDbEntity
  8
0
  6
BYBLOCK
 62
0
100
AcDbBlockEnd
  0
BLOCK
  5
21C
100
AcDbEntity
  8
0
100
AcDbBlockBegin
  2
_DOT
 70
64
 10
0.0
 20
0.0
  3
_DOT
  1

  0
LWPOLYLINE
  5
21D
100
AcDbEntity
  8
0
  6
BYBLOCK
 62
0
100
AcDbPolyline
 90
2
 70
1
 43
0.1275
 10
-0.06375
 20
0.0
 42
1.0
 10
0.06375
 20
0.0
 42
1.0
  0
LINE
  5
21E
100
AcDbEntity
  8
0
  6
BYBLOCK
 62
0
100
AcDbLine
 10
-0.1275
 20
0.0
 11
-1.0
 21
0.0
  0
ENDBLK
  5
21F
100
AcDbEntity
  8
0
  6
BYBLOCK
 62
0
100
AcDbBlockEnd
  0
BLOCK
  5
220
100
AcDbEntity
  8
0
100
AcDbBlockBegin
 62
2
  6
CONTINUOUS
  2
*D0
 70
65
 10
0.0
 20
0.0
  3
*D0
  1

  0
MTEXT
  5
221
100
AcDbEntity
  8
0
100
AcDbMText
 62
2
  6
CONTINUOUS
  7
STANDARD
 71
2
 72
1
 10
449.6369830605
 20
596.9154245611
 30
0.0
 11
1.0
 21
0.0
 31
0.0
 73
2
 44
0.9
  1
518,1\P[20.40]
 40
9.144
 41
40.7910780669
  0
LINE
  5
222
100
AcDbEntity
  8
0
100
AcDbLine
 62
2
  6
CONTINUOUS
 10
195.0642246095
 20
507.7043691838
 11
195.0642246095
 21
605.0434245611
  0
LINE
  5
223
100
AcDbEntity
  8
0
100
AcDbLine
 62
2
  6
CONTINUOUS
 10
713.1837786863
 20
507.7043807252
 11
713.1837786863
 21
605.0434245611
  0
LINE
  5
224
100
AcDbEntity
  8
0
100
AcDbLine
 62
2
  6
CONTINUOUS
 10
195.0642246095
 20
592.3434245611
 11
429.1564626144
 21
592.3434245611
  0
LINE
  5
225
100
AcDbEntity
  8
0
100
AcDbLine
 62
2
  6
CONTINUOUS
 10
713.1837786863
 20
592.3434245611
 11
479.0915406814
 21
592.3434245611
  0
INSERT
  5
226
100
AcDbEntity
  8
0
100
AcDbBlockReference
 62
2
  6
CONTINUOUS
  2
_FILLED
 10
195.0642246095
 20
592.3434245611
 41
8.0
 42
8.0
 43
8.0
 50
180.0
  0
INSERT
  5
227
100
AcDbEntity
  8
0
100
AcDbBlockReference
 62
2
  6
CONTINUOUS
  2
_FILLED
 10
713.1837786863
 20
592.3434245611
 41
8.0
 42
8.0
 43
8.0
  0
ENDBLK
  5
228
100
AcDbEntity
  8
0
  6
BYBLOCK
 62
0
100
AcDbBlockEnd
  0
BLOCK
  5
229
100
AcDbEntity
  8
0
100
AcDbBlockBegin
 62
2
  6
CONTINUOUS
  2
*D1
 70
65
 10
0.0
 20
0.0
  3
*D1
  1

  0
MTEXT
  5
22A
100
AcDbEntity
  8
0
100
AcDbMText
 62
2
  6
CONTINUOUS
  7
STANDARD
 71
2
 72
1
 10
166.5105404609
 20
505.9263749481
 30
0.0
 11
1.0
 21
0.0
 31
0.0
 73
2
 44
0.9
  1
101,2\P[3.99]
 40
9.144
 41
33.7206245353
  0
LINE
  5
22B
100
AcDbEntity
  8
0
100
AcDbLine
 62
2
  6
CONTINUOUS
 10
200.9720600243
 20
551.9702127515
 11
154.7623322824
 21
551.9702127514
  0
LINE
  5
22C
100
AcDbEntity
  8
0
100
AcDbLine
 62
2
  6
CONTINUOUS
 10
200.972060024
 20
450.7385371448
 11
154.7623322825
 21
450.7385371447
  0
LINE
  5
22D
100
AcDbEntity
  8
0
100
AcDbLine
 62
2
  6
CONTINUOUS
 10
167.4623322824
 20
551.9702127514
 11
167.4623322824
 21
510.4983749481
  0
LINE
  5
22E
100
AcDbEntity
  8
0
100
AcDbLine
 62
2
  6
CONTINUOUS
 10
167.4623322825
 20
450.7385371448
 11
167.4623322824
 21
478.4943749481
  0
INSERT
  5
22F
100
AcDbEntity
  8
0
100
AcDbBlockReference
 62
2
  6
CONTINUOUS
  2
_FILLED
 10
167.4623322824
 20
551.9702127514
 41
8.0
 42
8.0
 43
8.0
 50
90.0
  0
INSERT
  5
230
100
AcDbEntity
  8
0
100
AcDbBlockReference
 62
2
  6
CONTINUOUS
  2
_FILLED
 10
167.4623322825
 20
450.7385371448
 41
8.0
 42
8.0
 43
8.0
 50
270.0000000001
  0
ENDBLK
  5
231
100
AcDbEntity
  8
0
  6
BYBLOCK
 62
0
100
AcDbBlockEnd
  0
BLOCK
  5
232
100
AcDbEntity
  8
0
100
AcDbBlockBegin
 62
2
  6
CONTINUOUS
  2
*D2
 70
65
 10
0.0
 20
0.0
  3
*D2
  1

  0
MTEXT
  5
233
100
AcDbEntity
  8
0
100
AcDbMText
 62
2
  6
CONTINUOUS
  7
STANDARD
 71
2
 72
1
 10
117.7955264828
 20
503.1342938498
 30
0.0
 11
1.0
 21
0.0
 31
0.0
 73
2
 44
0.9
  1
106,8\P[4.21]
 40
9.144
 41
33.7206245353
  0
LINE
  5
234
100
AcDbEntity
  8
0
100
AcDbLine
 62
2
  6
CONTINUOUS
 10
200.9720600243
 20
551.9702127515
 11
106.0473183043
 21
551.9702127514
  0
LINE
  5
235
100
AcDbEntity
  8
0
100
AcDbLine
 62
2
  6
CONTINUOUS
 10
219.2740016479
 20
445.1543749483
 11
106.0473183044
 21
445.1543749482
  0
LINE
  5
236
100
AcDbEntity
  8
0
100
AcDbLine
 62
2
  6
CONTINUOUS
 10
118.7473183043
 20
551.9702127514
 11
118.7473183043
 21
507.7062938498
  0
LINE
  5
237
100
AcDbEntity
  8
0
100
AcDbLine
 62
2
  6
CONTINUOUS
 10
118.7473183044
 20
445.1543749482
 11
118.7473183043
 21
475.7022938498
  0
INSERT
  5
238
100
AcDbEntity
  8
0
100
AcDbBlockReference
 62
2
  6
CONTINUOUS
  2
_FILLED
 10
118.7473183043
 20
551.9702127514
 41
8.0
 42
8.0
 43
8.0
 50
90.0
  0
INSERT
  5
239
100
AcDbEntity
  8
0
100
AcDbBlockReference
 62
2
  6
CONTINUOUS
  2
_FILLED
 10
118.7473183044
 20
445.1543749482
 41
8.0
 42
8.0
 43
8.0
 50
270.0000000001
  0
ENDBLK
  5
23A
100
AcDbEntity
  8
0
  6
BYBLOCK
 62
0
100
AcDbBlockEnd
  0
BLOCK
  5
23B
100
AcDbEntity
  8
0
100
AcDbBlockBegin
 62
2
  6
CONTINUOUS
  2
*D3
 70
65
 10
0.0
 20
0.0
  3
*D3
  1

  0
MTEXT
  5
23C
100
AcDbEntity
  8
0
100
AcDbMText
 62
2
  6
CONTINUOUS
  7
STANDARD
 71
2
 72
1
 10
167.1384780311
 20
254.9578998714
 30
0.0
 11
1.0
 21
0.0
 31
0.0
 73
2
 44
0.9
  1
73,0\P[2.87]
 40
9.144
 41
33.7206245353
  0
LINE
  5
23D
100
AcDbEntity
  8
0
100
AcDbLine
 62
2
  6
CONTINUOUS
 10
190.7063014188
 20
286.8858998714
 11
158.9254966185
 21
286.8858998714
  0
LINE
  5
23E
100
AcDbEntity
  8
0
100
AcDbLine
 62
2
  6
CONTINUOUS
 10
200.772197531
 20
213.8858998714
 11
158.9254966185
 21
213.8858998714
  0
LINE
  5
23F
100
AcDbEntity
  8
0
100
AcDbLine
 62
2
  6
CONTINUOUS
 10
171.6254966185
 20
286.8858998714
 11
171.6254966185
 21
259.5298998714
  0
LINE
  5
240
100
AcDbEntity
  8
0
100
AcDbLine
 62
2
  6
CONTINUOUS
 10
171.6254966185
 20
213.8858998714
 11
171.6254966185
 21
227.5258998714
  0
INSERT
  5
241
100
AcDbEntity
  8
0
100
AcDbBlockReference
 62
2
  6
CONTINUOUS
  2
_FILLED
 10
171.6254966185
 20
286.8858998714
 41
8.0
 42
8.0
 43
8.0
 50
90.0
  0
INSERT
  5
242
100
AcDbEntity
  8
0
100
AcDbBlockReference
 62
2
  6
CONTINUOUS
  2
_FILLED
 10
171.6254966185
 20
213.8858998714
 41
8.0
 42
8.0
 43
8.0
 50
270.0
  0
ENDBLK
  5
243
100
AcDbEntity
  8
0
  6
BYBLOCK
 62
0
100
AcDbBlockEnd
  0
BLOCK
  5
244
100
AcDbEntity
  8
0
100
AcDbBlockBegin
 62
2
  6
CONTINUOUS
  2
*D4
 70
65
 10
0.0
 20
0.0
  3
*D4
  1

  0
MTEXT
  5
245
100
AcDbEntity
  8
0
100
AcDbMText
 62
2
  6
CONTINUOUS
  7
STANDARD
 71
2
 72
1
 10
130.9700474748
 20
251.3869361908
 30
0.0
 11
1.0
 21
0.0
 31
0.0
 73
2
 44
0.9
  1
80,1\P[3.16]
 40
9.144
 41
33.7206245353
  0
LINE
  5
246
100
AcDbEntity
  8
0
100
AcDbLine
 62
2
  6
CONTINUOUS
 10
190.7063014188
 20
286.8858998714
 11
122.7570660621
 21
286.8858998714
  0
LINE
  5
247
100
AcDbEntity
  8
0
100
AcDbLine
 62
2
  6
CONTINUOUS
 10
219.2740016479
 20
206.7439725103
 11
122.7570660621
 21
206.7439725103
  0
LINE
  5
248
100
AcDbEntity
  8
0
100
AcDbLine
 62
2
  6
CONTINUOUS
 10
135.4570660621
 20
286.8858998714
 11
135.4570660621
 21
255.9589361908
  0
LINE
  5
249
100
AcDbEntity
  8
0
100
AcDbLine
 62
2
  6
CONTINUOUS
 10
135.4570660621
 20
206.7439725103
 11
135.4570660621
 21
223.9549361908
  0
INSERT
  5
24A
100
AcDbEntity
  8
0
100
AcDbBlockReference
 62
2
  6
CONTINUOUS
  2
_FILLED
 10
135.4570660621
 20
286.8858998714
 41
8.0
 42
8.0
 43
8.0
 50
90.0
  0
INSERT
  5
24B
100
AcDbEntity
  8
0
100
AcDbBlockReference
 62
2
  6
CONTINUOUS
  2
_FILLED
 10
135.4570660621
 20
206.7439725103
 41
8.0
 42
8.0
 43
8.0
 50
270.0
  0
ENDBLK
  5
24C
100
AcDbEntity
  8
0
  6
BYBLOCK
 62
0
100
AcDbBlockEnd
  0
BLOCK
  5
24D
100
AcDbEntity
  8
0
100
AcDbBlockBegin
 62
2
  6
CONTINUOUS
  2
*D5
 70
65
 10
0.0
 20
0.0
  3
*D5
  1

  0
MTEXT
  5
24E
100
AcDbEntity
  8
0
100
AcDbMText
 62
2
  6
CONTINUOUS
  7
STANDARD
 71
2
 72
1
 10
449.6369830743
 20
163.9117819591
 30
0.0
 11
1.0
 21
0.0
 31
0.0
 73
2
 44
0.9
  1
433,0\P[17.05]
 40
9.144
 41
40.7910780669
  0
LINE
  5
24F
100
AcDbEntity
  8
0
100
AcDbLine
 62
2
  6
CONTINUOUS
 10
237.6240646071
 20
200.422452484
 11
237.6240646071
 21
146.6397819591
  0
LINE
  5
250
100
AcDbEntity
  8
0
100
AcDbLine
 62
2
  6
CONTINUOUS
 10
670.6239387161
 20
200.4224524346
 11
670.6239387161
 21
146.6397819591
  0
LINE
  5
251
100
AcDbEntity
  8
0
100
AcDbLine
 62
2
  6
CONTINUOUS
 10
237.6240646071
 20
159.3397819591
 11
429.1564626282
 21
159.3397819591
  0
LINE
  5
252
100
AcDbEntity
  8
0
100
AcDbLine
 62
2
  6
CONTINUOUS
 10
670.6239387161
 20
159.3397819591
 11
479.0915406951
 21
159.3397819591
  0
INSERT
  5
253
100
AcDbEntity
  8
0
100
AcDbBlockReference
 62
2
  6
CONTINUOUS
  2
_FILLED
 10
237.6240646071
 20
159.3397819591
 41
8.0
 42
8.0
 43
8.0
 50
180.0
  0
INSERT
  5
254
100
AcDbEntity
  8
0
100
AcDbBlockReference
 62
2
  6
CONTINUOUS
  2
_FILLED
 10
670.6239387161
 20
159.3397819591
 41
8.0
 42
8.0
 43
8.0
  0
ENDBLK
  5
255
100
AcDbEntity
  8
0
  6
BYBLOCK
 62
0
100
AcDbBlockEnd
  0
BLOCK
  5
256
100
AcDbEntity
  8
0
100
AcDbBlockBegin
 62
2
  6
CONTINUOUS
  2
*D6
 70
65
 10
0.0
 20
0.0
  3
*D6
  1

  0
MTEXT
  5
257
100
AcDbEntity
  8
0
100
AcDbMText
 62
2
  6
CONTINUOUS
  7
STANDARD
 71
2
 72
1
 10
736.6657778993
 20
247.9869361908
 30
0.0
 11
1.0
 21
0.0
 31
0.0
 73
2
 44
0.9
  1
2X 73,3\P[2.89]
 40
9.144
 41
43.1025724907
  0
LINE
  5
258
100
AcDbEntity
  8
0
100
AcDbLine
 62
2
  6
CONTINUOUS
 10
688.9740016479
 20
280.0858998714
 11
753.8527964866
 21
280.0858998714
  0
LINE
  5
259
100
AcDbEntity
  8
0
100
AcDbLine
 62
2
  6
CONTINUOUS
 10
688.9740016479
 20
206.7439725103
 11
753.8527964866
 21
206.7439725103
  0
LINE
  5
25A
100
AcDbEntity
  8
0
100
AcDbLine
 62
2
  6
CONTINUOUS
 10
741.1527964866
 20
280.0858998714
 11
741.1527964866
 21
252.5589361908
  0
LINE
  5
25B
100
AcDbEntity
  8
0
100
AcDbLine
 62
2
  6
CONTINUOUS
 10
741.1527964866
 20
206.7439725103
 11
741.1527964866
 21
220.5549361908
  0
INSERT
  5
25C
100
AcDbEntity
  8
0
100
AcDbBlockReference
 62
2
  6
CONTINUOUS
  2
_FILLED
 10
741.1527964866
 20
280.0858998714
 41
8.0
 42
8.0
 43
8.0
 50
90.0
  0
INSERT
  5
25D
100
AcDbEntity
  8
0
100
AcDbBlockReference
 62
2
  6
CONTINUOUS
  2
_FILLED
 10
741.1527964866
 20
206.7439725103
 41
8.0
 42
8.0
 43
8.0
 50
270.0
  0
ENDBLK
  5
25E
100
AcDbEntity
  8
0
  6
BYBLOCK
 62
0
100
AcDbBlockEnd
  0
BLOCK
  5
25F
100
AcDbEntity
  8
0
100
AcDbBlockBegin
 62
2
  6
CONTINUOUS
  2
*D7
 70
65
 10
0.0
 20
0.0
  3
*D7
  1

  0
MTEXT
  5
260
100
AcDbEntity
  8
0
100
AcDbMText
 62
2
  6
CONTINUOUS
  7
STANDARD
 71
1
 72
1
 10
704.0631714276
 20
189.9742020339
 30
0.0
 11
1.0
 21
0.0
 31
0.0
 73
2
 44
0.9
  1
2X 24,0\P[.94]
 40
9.144
 41
43.1025724907
  0
LINE
  5
261
100
AcDbEntity
  8
0
100
AcDbLine
 62
2
  6
CONTINUOUS
 10
658.6240016479
 20
200.3939725103
 11
658.6240016479
 21
172.7022020339
  0
LINE
  5
262
100
AcDbEntity
  8
0
100
AcDbLine
 62
2
  6
CONTINUOUS
 10
682.6240016479
 20
200.3939725103
 11
682.6240016479
 21
172.7022020339
  0
LINE
  5
263
100
AcDbEntity
  8
0
100
AcDbLine
 62
2
  6
CONTINUOUS
 10
658.6240016479
 20
185.4022020339
 11
642.6240016479
 21
185.4022020339
  0
LINE
  5
264
100
AcDbEntity
  8
0
100
AcDbLine
 62
2
  6
CONTINUOUS
 10
682.6240016479
 20
185.4022020339
 11
699.4911714276
 21
185.4022020339
  0
INSERT
  5
265
100
AcDbEntity
  8
0
100
AcDbBlockReference
 62
2
  6
CONTINUOUS
  2
_FILLED
 10
658.6240016479
 20
185.4022020339
 41
8.0
 42
8.0
 43
8.0
  0
INSERT
  5
266
100
AcDbEntity
  8
0
100
AcDbBlockReference
 62
2
  6
CONTINUOUS
  2
_FILLED
 10
682.6240016479
 20
185.4022020339
 41
8.0
 42
8.0
 43
8.0
 50
180.0
  0
ENDBLK
  5
267
100
AcDbEntity
  8
0
  6
BYBLOCK
 62
0
100
AcDbBlockEnd
  0
BLOCK
  5
268
100
AcDbEntity
  8
0
100
AcDbBlockBegin
 62
2
  6
CONTINUOUS
  2
*D8
 70
65
 10
0.0
 20
0.0
  3
*D8
  1

  0
MTEXT
  5
269
100
AcDbEntity
  8
0
100
AcDbMText
 62
2
  6
CONTINUOUS
  7
STANDARD
 71
3
 72
1
 10
1033.2649713585
 20
506.7827026084
 30
0.0
 11
1.0
 21
0.0
 31
0.0
 73
2
 44
0.9
  1
2X 30,7\P[1.21]
 40
9.144
 41
43.1025724907
  0
LINE
  5
26A
100
AcDbEntity
  8
0
100
AcDbLine
 62
2
  6
CONTINUOUS
 10
1110.7324090325
 20
475.8543749483
 11
1054.9390085332
 21
475.8543749483
  0
LINE
  5
26B
100
AcDbEntity
  8
0
100
AcDbLine
 62
2
  6
CONTINUOUS
 10
1110.7324090325
 20
445.1543749483
 11
1054.9390085332
 21
445.1543749483
  0
LINE
  5
26C
100
AcDbEntity
  8
0
100
AcDbLine
 62
2
  6
CONTINUOUS
 10
1067.6390085332
 20
475.8543749483
 11
1067.6390085332
 21
502.2107026084
  0
LINE
  5
26D
100
AcDbEntity
  8
0
100
AcDbLine
 62
2
  6
CONTINUOUS
 10
1067.6390085332
 20
502.2107026084
 11
1046.8110085332
 21
502.2107026084
  0
LINE
  5
26E
100
AcDbEntity
  8
0
100
AcDbLine
 62
2
  6
CONTINUOUS
 10
1067.6390085332
 20
445.1543749483
 11
1067.6390085332
 21
429.1543749483
  0
INSERT
  5
26F
100
AcDbEntity
  8
0
100
AcDbBlockReference
 62
2
  6
CONTINUOUS
  2
_FILLED
 10
1067.6390085332
 20
475.8543749483
 41
8.0
 42
8.0
 43
8.0
 50
270.0
  0
INSERT
  5
270
100
AcDbEntity
  8
0
100
AcDbBlockReference
 62
2
  6
CONTINUOUS
  2
_FILLED
 10
1067.6390085332
 20
445.1543749483
 41
8.0
 42
8.0
 43
8.0
 50
90.0
  0
ENDBLK
  5
271
100
AcDbEntity
  8
0
  6
BYBLOCK
 62
0
100
AcDbBlockEnd
  0
ENDSEC
  0
SECTION
  2
ENTITIES
  0
MTEXT
  5
272
100
AcDbEntity
  8
0
100
AcDbMText
 62
2
  6
CONTINUOUS
  7
TEXTSTYLE_2
 71
1
 72
1
 10
22.2238053056
 20
172.6910887368
 30
0.0
 11
1.0
 21
0.0
 31
0.0
 73
2
 44
1.0
  1
A
 40
9.525
 41
9.8082713755
  0
MTEXT
  5
273
100
AcDbEntity
  8
0
100
AcDbMText
 62
2
  6
CONTINUOUS
  7
TEXTSTYLE_2
 71
1
 72
1
 10
22.2307102372
 20
434.0413635364
 30
0.0
 11
1.0
 21
0.0
 31
0.0
 73
2
 44
1.0
  1
B
 40
9.525
 41
7.6129182156
  0
MTEXT
  5
274
100
AcDbEntity
  8
0
100
AcDbMText
 62
2
  6
CONTINUOUS
  7
TEXTSTYLE_2
 71
1
 72
1
 10
22.2737909268
 20
695.8403126472
 30
0.0
 11
1.0
 21
0.0
 31
0.0
 73
2
 44
1.0
  1
C
 40
9.525
 41
10.7997211896
  0
MTEXT
  5
275
100
AcDbEntity
  8
0
100
AcDbMText
 62
2
  6
CONTINUOUS
  7
TEXTSTYLE_2
 71
1
 72
1
 10
22.0
 20
957.51551553
 30
0.0
 11
1.0
 21
0.0
 31
0.0
 73
2
 44
1.0
  1
D
 40
9.525
 41
9.8790892193
  0
MTEXT
  5
276
100
AcDbEntity
  8
0
100
AcDbMText
 62
2
  6
CONTINUOUS
  7
TEXTSTYLE_2
 71
1
 72
1
 10
1584.3406760492
 20
34.9324536512
 30
0.0
 11
1.0
 21
0.0
 31
0.0
 73
2
 44
1.0
  1
1
 40
9.525
 41
7.3650557621
  0
MTEXT
  5
277
100
AcDbEntity
  8
0
100
AcDbMText
 62
2
  6
CONTINUOUS
  7
TEXTSTYLE_2
 71
1
 72
1
 10
1377.0075290188
 20
34.8038706232
 30
0.0
 11
1.0
 21
0.0
 31
0.0
 73
2
 44
1.0
  1
2
 40
9.525
 41
7.3650557621
  0
MTEXT
  5
278
100
AcDbEntity
  8
0
100
AcDbMText
 62
2
  6
CONTINUOUS
  7
TEXTSTYLE_2
 71
1
 72
1
 10
1169.9944922108
 20
35.12488846
 30
0.0
 11
1.0
 21
0.0
 31
0.0
 73
2
 44
1.0
  1
3
 40
9.525
 41
7.3650557621
  0
MTEXT
  5
279
100
AcDbEntity
  8
0
100
AcDbMText
 62
2
  6
CONTINUOUS
  7
TEXTSTYLE_2
 71
1
 72
1
 10
962.810659342
 20
34.8353492836
 30
0.0
 11
1.0
 21
0.0
 31
0.0
 73
2
 44
1.0
  1
4
 40
9.525
 41
7.3650557621
  0
MTEXT
  5
27A
100
AcDbEntity
  8
0
100
AcDbMText
 62
2
  6
CONTINUOUS
  7
TEXTSTYLE_2
 71
1
 72
1
 10
756.1172769332
 20
34.867311534
 30
0.0
 11
1.0
 21
0.0
 31
0.0
 73
2
 44
1.0
  1
5
 40
9.525
 41
7.3650557621
  0
MTEXT
  5
27B
100
AcDbEntity
  8
0
100
AcDbMText
 62
2
  6
CONTINUOUS
  7
TEXTSTYLE_2
 71
1
 72
1
 10
548.9049141024
 20
34.85579536
 30
0.0
 11
1.0
 21
0.0
 31
0.0
 73
2
 44
1.0
  1
6
 40
9.525
 41
7.3650557621
  0
MTEXT
  5
27C
100
AcDbEntity
  8
0
100
AcDbMText
 62
2
  6
CONTINUOUS
  7
TEXTSTYLE_2
 71
1
 72
1
 10
341.9581322612
 20
34.6408103864
 30
0.0
 11
1.0
 21
0.0
 31
0.0
 73
2
 44
1.0
  1
7
 40
9.525
 41
7.3650557621
  0
MTEXT
  5
27D
100
AcDbEntity
  8
0
100
AcDbMText
 62
2
  6
CONTINUOUS
  7
TEXTSTYLE_2
 71
1
 72
1
 10
134.9634487404
 20
34.9595774724
 30
0.0
 11
1.0
 21
0.0
 31
0.0
 73
2
 44
1.0
  1
8
 40
9.525
 41
7.3650557621
  0
MTEXT
  5
27E
100
AcDbEntity
  8
0
100
AcDbMText
 62
2
  6
CONTINUOUS
  7
TEXTSTYLE_2
 71
1
 72
1
 10
135.0183803876
 20
1094.208955772
 30
0.0
 11
1.0
 21
0.0
 31
0.0
 73
2
 44
1.0
  1
8
 40
9.525
 41
7.3650557621
  0
MTEXT
  5
27F
100
AcDbEntity
  8
0
100
AcDbMText
 62
2
  6
CONTINUOUS
  7
TEXTSTYLE_2
 71
1
 72
1
 10
341.93656735
 20
1094.3827881364
 30
0.0
 11
1.0
 21
0.0
 31
0.0
 73
2
 44
1.0
  1
7
 40
9.525
 41
7.3650557621
  0
MTEXT
  5
280
100
AcDbEntity
  8
0
100
AcDbMText
 62
2
  6
CONTINUOUS
  7
TEXTSTYLE_2
 71
1
 72
1
 10
755.9327390752
 20
1094.154260848
 30
0.0
 11
1.0
 21
0.0
 31
0.0
 73
2
 44
1.0
  1
5
 40
9.525
 41
7.3650557621
  0
MTEXT
  5
281
100
AcDbEntity
  8
0
100
AcDbMText
 62
2
  6
CONTINUOUS
  7
TEXTSTYLE_2
 71
1
 72
1
 10
962.9520675712
 20
1094.3745247372
 30
0.0
 11
1.0
 21
0.0
 31
0.0
 73
2
 44
1.0
  1
4
 40
9.525
 41
7.3650557621
  0
MTEXT
  5
282
100
AcDbEntity
  8
0
100
AcDbMText
 62
2
  6
CONTINUOUS
  7
TEXTSTYLE_2
 71
1
 72
1
 10
1169.9204377624
 20
1094.4483647948
 30
0.0
 11
1.0
 21
0.0
 31
0.0
 73
2
 44
1.0
  1
3
 40
9.525
 41
7.3650557621
  0
MTEXT
  5
283
100
AcDbEntity
  8
0
100
AcDbMText
 62
2
  6
CONTINUOUS
  7
TEXTSTYLE_2
 71
1
 72
1
 10
1377.0170563696
 20
1094.382800572
 30
0.0
 11
1.0
 21
0.0
 31
0.0
 73
2
 44
1.0
  1
2
 40
9.525
 41
7.3650557621
  0
MTEXT
  5
284
100
AcDbEntity
  8
0
100
AcDbMText
 62
2
  6
CONTINUOUS
  7
TEXTSTYLE_2
 71
1
 72
1
 10
1584.1462439288
 20
1094.2984163532
 30
0.0
 11
1.0
 21
0.0
 31
0.0
 73
2
 44
1.0
  1
1
 40
9.525
 41
7.3650557621
  0
MTEXT
  5
285
100
AcDbEntity
  8
0
100
AcDbMText
 62
2
  6
CONTINUOUS
  7
TEXTSTYLE_2
 71
1
 72
1
 10
1694.4174922328
 20
957.5391653636
 30
0.0
 11
1.0
 21
0.0
 31
0.0
 73
2
 44
1.0
  1
D
 40
9.525
 41
9.8790892193
  0
MTEXT
  5
286
100
AcDbEntity
  8
0
100
AcDbMText
 62
2
  6
CONTINUOUS
  7
TEXTSTYLE_2
 71
1
 72
1
 10
1693.5766515948
 20
695.6019711296
 30
0.0
 11
1.0
 21
0.0
 31
0.0
 73
2
 44
1.0
  1
C
 40
9.525
 41
10.7997211896
  0
MTEXT
  5
287
100
AcDbEntity
  8
0
100
AcDbMText
 62
2
  6
CONTINUOUS
  7
TEXTSTYLE_2
 71
1
 72
1
 10
1696.6724684312
 20
434.1990726072
 30
0.0
 11
1.0
 21
0.0
 31
0.0
 73
2
 44
1.0
  1
B
 40
9.525
 41
7.6129182156
  0
MTEXT
  5
288
100
AcDbEntity
  8
0
100
AcDbMText
 62
2
  6
CONTINUOUS
  7
TEXTSTYLE_2
 71
1
 72
1
 10
1694.2757889512
 20
172.6380879672
 30
0.0
 11
1.0
 21
0.0
 31
0.0
 73
2
 44
1.0
  1
A
 40
9.525
 41
9.8082713755
  0
MTEXT
  5
289
100
AcDbEntity
  8
0
100
AcDbMText
 62
2
  6
CONTINUOUS
  7
TEXTSTYLE_2
 71
1
 72
1
 10
549.024201784
 20
1094.3189163148
 30
0.0
 11
1.0
 21
0.0
 31
0.0
 73
2
 44
1.0
  1
6
 40
9.525
 41
7.3650557621
  0
MTEXT
  5
28A
100
AcDbEntity
  8
0
100
AcDbMText
 62
2
  6
CONTINUOUS
  7
TEXTSTYLE_2
 71
1
 72
1
 10
1457.6013658602
 20
45.9931116678
 30
0.0
 11
1.0
 21
0.0
 31
0.0
 73
2
 44
1.0000002
  1
SCALE:  
 40
5.291668
 41
28.6222191078
  0
MTEXT
  5
28B
100
AcDbEntity
  8
0
100
AcDbMText
 62
2
  6
CONTINUOUS
  7
TEXTSTYLE_2
 71
1
 72
1
 10
1458.0392167371
 20
73.0022559692
 30
0.0
 11
1.0
 21
0.0
 31
0.0
 73
2
 44
1.0000002
  1
SIZE
 40
5.291668
 41
12.8455732491
  0
MTEXT
  5
28C
100
AcDbEntity
  8
0
100
AcDbMText
 62
2
  6
CONTINUOUS
  7
TEXTSTYLE_2
 71
1
 72
1
 10
1504.842413401
 20
45.5960566919
 30
0.0
 11
1.0
 21
0.0
 31
0.0
 73
2
 44
1.0000002
  1
CAD FILE:                   
 40
5.291668
 41
72.5096217398
  0
MTEXT
  5
28D
100
AcDbEntity
  8
0
100
AcDbMText
 62
2
  6
CONTINUOUS
  7
TEXTSTYLE_2
 71
1
 72
1
 10
1524.6415927006
 20
72.8175761028
 30
0.0
 11
1.0
 21
0.0
 31
0.0
 73
2
 44
1.0000002
  1
DWG. NO.
 40
5.291668
 41
37.0023327435
  0
MTEXT
  5
28E
100
AcDbEntity
  8
0
100
AcDbMText
 62
2
  6
CONTINUOUS
  7
TEXTSTYLE_2
 71
1
 72
1
 10
1461.2390569721
 20
61.3410538239
 30
0.0
 11
1.0
 21
0.0
 31
0.0
 73
2
 44
1.0000002
  1
B
 40
7.408332
 41
5.9211575465
  0
MTEXT
  5
28F
100
AcDbEntity
  8
0
100
AcDbMText
 62
2
  6
CONTINUOUS
  7
TEXTSTYLE_2
 71
1
 72
1
 10
1623.2278202986
 20
45.8103403557
 30
0.0
 11
1.0
 21
0.0
 31
0.0
 73
2
 44
1.0000002
  1
SHEET:
 40
5.291668
 41
21.8158357323
  0
MTEXT
  5
290
100
AcDbEntity
  8
0
100
AcDbMText
 62
2
  6
CONTINUOUS
  7
TEXTSTYLE_2
 71
1
 72
1
 10
1663.2743833892
 20
72.9981731991
 30
0.0
 11
1.0
 21
0.0
 31
0.0
 73
2
 44
1.0000002
  1
REV
 40
5.291668
 41
13.6127667509
  0
MTEXT
  5
291
100
AcDbEntity
  8
0
100
AcDbMText
 62
2
  6
CONTINUOUS
  7
TEXTSTYLE_2
 71
1
 72
1
 10
1474.8509880802
 20
72.9567264637
 30
0.0
 11
1.0
 21
0.0
 31
0.0
 73
2
 44
1.0000002
  1
CAGE CODE
 40
5.291668
 41
45.7365356877
  0
MTEXT
  5
292
100
AcDbEntity
  8
0
100
AcDbMText
 62
2
  6
CONTINUOUS
  7
TEXTSTYLE_2
 71
1
 72
1
 10
1481.5590569721
 20
61.3410538239
 30
0.0
 11
1.0
 21
0.0
 31
0.0
 73
2
 44
1.0000002
  1
00PW4
 40
7.408332
 41
33.2135627955
  0
MTEXT
  5
293
100
AcDbEntity
  8
0
100
AcDbMText
 62
2
  6
CONTINUOUS
  7
TEXTSTYLE_2
 71
1
 72
1
 10
37.510350478
 20
1078.780709434
 30
0.0
 11
1.0
 21
0.0
 31
0.0
 73
2
 44
1.0000002
  3
THIS DOCUMENT CONTAINS CONFIDENTIAL OR PROPRIETARY INFORMATION \PWHICH IS THE PROPERTY OF QSC, LLC, THAT MAY NOT BE DISCLOSED, \PREPRODUCED OR USED WITHOUT EXPRESS WRITTEN CONSENT FROM QSC, \PLLC. NO PORTION OF THIS DOCUMENT MAY BE REPRODUCED,\PREDIS
  1
TRUBUTED, OR OTHERWISE DISCLOSED TO ANY THIRD PARTY WITHOUT \PQSC'S WRITTEN PERMISSION.
 40
5.291668
 41
267.4751293532
  0
DIMENSION
  5
294
100
AcDbEntity
  8
0
100
AcDbDimension
 62
2
  6
CONTINUOUS
  2
*D0
 10
713.1837786863
 20
592.3434245611
 11
454.1240016479
 21
585.4854245611
 70
160
 71
2
 72
2
 41
0.9
 42
518.1195540768
  1
<>\P[]
  3
DIMSTYLE_1
100
AcDbAlignedDimension
 13
195.0642246095
 23
506.1168691838
 14
713.1837786863
 24
506.1168807252
100
AcDbRotatedDimension
  0
DIMENSION
  5
295
100
AcDbEntity
  8
0
100
AcDbDimension
 62
2
  6
CONTINUOUS
  2
*D1
 10
167.4623322825
 20
450.7385371448
 11
167.4623322824
 21
494.4963749481
 70
160
 71
2
 72
2
 41
0.9
 42
101.2316756067
  1
<>\P[]
  3
DIMSTYLE_1
100
AcDbAlignedDimension
 13
202.5595600243
 23
551.9702127515
 14
202.559560024
 24
450.7385371448
 50
270.0
100
AcDbRotatedDimension
  0
DIMENSION
  5
296
100
AcDbEntity
  8
0
100
AcDbDimension
 62
2
  6
CONTINUOUS
  2
*D2
 10
118.7473183044
 20
445.1543749482
 11
118.7473183044
 21
491.7042938498
 70
160
 71
2
 72
2
 41
0.9
 42
106.8158378032
  1
<>\P[]
  3
DIMSTYLE_1
100
AcDbAlignedDimension
 13
202.5595600243
 23
551.9702127515
 14
220.8615016479
 24
445.1543749483
 50
270.0
100
AcDbRotatedDimension
  0
DIMENSION
  5
297
100
AcDbEntity
  8
0
100
AcDbDimension
 62
2
  6
CONTINUOUS
  2
*D3
 10
171.6254966185
 20
213.8858998714
 11
171.6254966185
 21
243.5278998714
 70
160
 71
2
 72
2
 41
0.9
 42
73.0
  1
<>\P[]
  3
DIMSTYLE_1
100
AcDbAlignedDimension
 13
192.2938014188
 23
286.8858998714
 14
202.359697531
 24
213.8858998714
 50
270.0
100
AcDbRotatedDimension
  0
DIMENSION
  5
298
100
AcDbEntity
  8
0
100
AcDbDimension
 62
2
  6
CONTINUOUS
  2
*D4
 10
135.4570660621
 20
206.7439725103
 11
135.4570660621
 21
239.9569361908
 70
160
 71
2
 72
2
 41
0.9
 42
80.141927361
  1
<>\P[]
  3
DIMSTYLE_1
100
AcDbAlignedDimension
 13
192.2938014188
 23
286.8858998714
 14
220.8615016479
 24
206.7439725103
 50
270.0
100
AcDbRotatedDimension
  0
DIMENSION
  5
299
100
AcDbEntity
  8
0
100
AcDbDimension
 62
2
  6
CONTINUOUS
  2
*D5
 10
670.6239387161
 20
159.3397819591
 11
454.1240016616
 21
152.4817819591
 70
160
 71
2
 72
2
 41
0.9
 42
432.999874109
  1
<>\P[]
  3
DIMSTYLE_1
100
AcDbAlignedDimension
 13
237.6240646071
 23
202.009952484
 14
670.6239387161
 24
202.0099524346
100
AcDbRotatedDimension
  0
DIMENSION
  5
29A
100
AcDbEntity
  8
0
100
AcDbDimension
 62
2
  6
CONTINUOUS
  2
*D6
 10
741.1527964866
 20
206.7439725103
 11
741.1527964866
 21
236.5569361908
 70
160
 71
2
 72
2
 41
0.9
 42
73.341927361
  1
2X <>\P[]
  3
DIMSTYLE_2
100
AcDbAlignedDimension
 13
687.3865016479
 23
280.0858998714
 14
687.3865016479
 24
206.7439725103
 50
270.0
100
AcDbRotatedDimension
  0
DIMENSION
  5
29B
100
AcDbEntity
  8
0
100
AcDbDimension
 62
2
  6
CONTINUOUS
  2
*D7
 10
682.6240016479
 20
185.4022020339
 11
726.5662494946
 21
178.5442020339
 70
160
 71
1
 72
2
 41
0.9
 42
24.0
  1
2X <>\P[]
  3
DIMSTYLE_2
100
AcDbAlignedDimension
 13
658.6240016479
 23
201.9814725103
 14
682.6240016479
 24
201.9814725103
100
AcDbRotatedDimension
  0
DIMENSION
  5
29C
100
AcDbEntity
  8
0
100
AcDbDimension
 62
2
  6
CONTINUOUS
  2
*D8
 10
1067.6390085332
 20
445.1543749483
 11
1016.2007037005
 21
495.3527026084
 70
160
 71
3
 72
2
 41
0.9
 42
30.7
  1
2X <>\P[]
  3
DIMSTYLE_2
100
AcDbAlignedDimension
 13
1112.3199090325
 23
475.8543749483
 14
1112.3199090325
 24
445.1543749483
 50
270.0
100
AcDbRotatedDimension
  0
LINE
  5
29D
100
AcDbEntity
  8
0
100
AcDbLine
 62
2
  6
CONTINUOUS
 10
1522.5075249371
 20
73.667062859
 11
1648.5075249371
 21
73.667062859
  0
LINE
  5
29E
100
AcDbEntity
  8
0
100
AcDbLine
 62
2
  6
CONTINUOUS
 10
1522.5075249371
 20
73.667062859
 11
1522.5075249371
 21
48.729562859
  0
LINE
  5
29F
100
AcDbEntity
  8
0
100
AcDbLine
 62
2
  6
CONTINUOUS
 10
1522.5075249371
 20
48.729562859
 11
1648.5075249371
 21
48.729562859
  0
LINE
  5
2A0
100
AcDbEntity
  8
0
100
AcDbLine
 62
2
  6
CONTINUOUS
 10
1648.5075249371
 20
73.667062859
 11
1648.5075249371
 21
48.729562859
  0
MTEXT
  5
2A1
100
AcDbEntity
  8
0
100
AcDbMText
 62
2
  6
CONTINUOUS
  7
TEXTSTYLE_2
 71
2
 72
1
 10
1585.5075249371
 20
65.042062859
 30
0.0
 11
1.0
 21
0.0
 31
0.0
 73
2
 44
0.9
  1
FG-901507-2D
 40
12.7
 41
117.7464684015
  0
LINE
  5
2A2
100
AcDbEntity
  8
0
100
AcDbLine
 62
2
  6
CONTINUOUS
 10
1648.7722635306
 20
74.1095275996
 11
1690.6222635306
 21
74.1095275996
  0
LINE
  5
2A3
100
AcDbEntity
  8
0
100
AcDbLine
 62
2
  6
CONTINUOUS
 10
1648.7722635306
 20
74.1095275996
 11
1648.7722635306
 21
49.1095275996
  0
LINE
  5
2A4
100
AcDbEntity
  8
0
100
AcDbLine
 62
2
  6
CONTINUOUS
 10
1648.7722635306
 20
49.1095275996
 11
1690.6222635306
 21
49.1095275996
  0
LINE
  5
2A5
100
AcDbEntity
  8
0
100
AcDbLine
 62
2
  6
CONTINUOUS
 10
1690.6222635306
 20
74.1095275996
 11
1690.6222635306
 21
49.1095275996
  0
MTEXT
  5
2A6
100
AcDbEntity
  8
0
100
AcDbMText
 62
2
  6
CONTINUOUS
  7
TEXTSTYLE_2
 71
2
 72
1
 10
1669.6972635306
 20
64.4220275996
 30
0.0
 11
1.0
 21
0.0
 31
0.0
 73
2
 44
0.9
  1
B
 40
12.7
 41
10.1505576208
  0
LINE
  5
2A7
100
AcDbEntity
  8
0
100
AcDbLine
 62
2
  6
CONTINUOUS
 10
1621.6543594102
 20
48.6748989566
 11
1690.6543594102
 21
48.6748989566
  0
LINE
  5
2A8
100
AcDbEntity
  8
0
100
AcDbLine
 62
2
  6
CONTINUOUS
 10
1621.6543594102
 20
48.6748989566
 11
1621.6543594102
 21
36.6436489566
  0
LINE
  5
2A9
100
AcDbEntity
  8
0
100
AcDbLine
 62
2
  6
CONTINUOUS
 10
1621.6543594102
 20
36.6436489566
 11
1690.6543594102
 21
36.6436489566
  0
LINE
  5
2AA
100
AcDbEntity
  8
0
100
AcDbLine
 62
2
  6
CONTINUOUS
 10
1690.6543594102
 20
48.6748989566
 11
1690.6543594102
 21
36.6436489566
  0
MTEXT
  5
2AB
100
AcDbEntity
  8
0
100
AcDbMText
 62
2
  6
CONTINUOUS
  7
TEXTSTYLE_2
 71
2
 72
1
 10
1669.9543594102
 20
46.3634399566
 30
0.0
 11
1.0
 21
0.0
 31
0.0
 73
2
 44
0.9
  1
2 OF 2
 40
7.408332
 41
31.1755829888
  0
LINE
  5
2AC
100
AcDbEntity
  8
0
100
AcDbLine
 62
2
  6
CONTINUOUS
 10
1502.4613994496
 20
48.6559009378
 11
1621.6613994496
 21
48.6559009378
  0
LINE
  5
2AD
100
AcDbEntity
  8
0
100
AcDbLine
 62
2
  6
CONTINUOUS
 10
1502.4613994496
 20
48.6559009378
 11
1502.4613994496
 21
36.6246509378
  0
LINE
  5
2AE
100
AcDbEntity
  8
0
100
AcDbLine
 62
2
  6
CONTINUOUS
 10
1502.4613994496
 20
36.6246509378
 11
1621.6613994496
 21
36.6246509378
  0
LINE
  5
2AF
100
AcDbEntity
  8
0
100
AcDbLine
 62
2
  6
CONTINUOUS
 10
1621.6613994496
 20
48.6559009378
 11
1621.6613994496
 21
36.6246509378
  0
MTEXT
  5
2B0
100
AcDbEntity
  8
0
100
AcDbMText
 62
2
  6
CONTINUOUS
  7
TEXTSTYLE_2
 71
2
 72
1
 10
1576.9613994496
 20
45.1802759378
 30
0.0
 11
1.0
 21
0.0
 31
0.0
 73
2
 44
0.9
  1
FG-901507-2D.B.1
 40
5.08
 41
59.0148698885
  0
LINE
  5
2B1
100
AcDbEntity
  8
0
100
AcDbLine
 62
2
  6
CONTINUOUS
 10
1455.4151147437
 20
48.939179954
 11
1502.6151147437
 21
48.939179954
  0
LINE
  5
2B2
100
AcDbEntity
  8
0
100
AcDbLine
 62
2
  6
CONTINUOUS
 10
1455.4151147437
 20
48.939179954
 11
1455.4151147437
 21
36.532929954
  0
LINE
  5
2B3
100
AcDbEntity
  8
0
100
AcDbLine
 62
2
  6
CONTINUOUS
 10
1455.4151147437
 20
36.532929954
 11
1502.6151147437
 21
36.532929954
  0
LINE
  5
2B4
100
AcDbEntity
  8
0
100
AcDbLine
 62
2
  6
CONTINUOUS
 10
1502.6151147437
 20
48.939179954
 11
1502.6151147437
 21
36.532929954
  0
MTEXT
  5
2B5
100
AcDbEntity
  8
0
100
AcDbMText
 62
2
  6
CONTINUOUS
  7
TEXTSTYLE_2
 71
2
 72
1
 10
1490.8151147437
 20
46.292054954
 30
0.0
 11
1.0
 21
0.0
 31
0.0
 73
2
 44
0.9
  1
1:4
 40
7.112
 41
13.7481040892
  0
TEXT
  5
2B6
100
AcDbEntity
  8
0
100
AcDbText
 62
2
  6
CONTINUOUS
 10
43.5360682931
 20
1009.7256277893
  7
STANDARD
 40
9.144
  1
NOTE: UNLESS OTHERWISE SPECIFIED.
 41
1.0
 72
0
100
AcDbText
  0
TEXT
  5
2B7
100
AcDbEntity
  8
0
100
AcDbText
 62
2
  6
CONTINUOUS
 10
43.5360682931
 20
991.4376277893
  7
STANDARD
 40
9.144
  1
1. NET WEIGHT (WITH SURFACE MOUNTING FEET) APPROX  1.8KG [ 4.0LBS]. 
 41
1.0
 72
0
100
AcDbText
  0
TEXT
  5
2B8
100
AcDbEntity
  8
0
100
AcDbText
 62
2
  6
CONTINUOUS
 10
43.5360682931
 20
973.1496277893
  7
STANDARD
 40
9.144
  1
2. PARTS ARE SYMMETRICAL ABOUT CENTER LINES UNLESS OTHERWISE NOTED.
 41
1.0
 72
0
100
AcDbText
  0
TEXT
  5
2B9
100
AcDbEntity
  8
0
100
AcDbText
 62
2
  6
CONTINUOUS
 10
43.5360682931
 20
954.8616277893
  7
STANDARD
 40
9.144
  1
3. GRILLE NOT SHOWN FOR CLARITY.
 41
1.0
 72
0
100
AcDbText
  0
TEXT
  5
2BA
100
AcDbEntity
  8
0
100
AcDbText
 62
2
  6
CONTINUOUS
 10
48.1080682931
 20
936.5736277893
  7
STANDARD
 40
9.144
  1
4
 41
1.0
 72
0
100
AcDbText
  0
TEXT
  5
2BB
100
AcDbEntity
  8
0
100
AcDbText
 62
2
  6
CONTINUOUS
 10
59.7505218247
 20
936.5736277893
  7
STANDARD
 40
9.144
  1
. DETACHABLE FEET PROVIDED FOR SURFACE MOUNTING, 2 PIECES.
 41
1.0
 72
0
100
AcDbText
  0
MTEXT
  5
2BC
100
AcDbEntity
  8
0
100
AcDbMText
 62
2
  6
CONTINUOUS
  7
STANDARD
 71
2
 72
1
 10
1181.1489125136
 20
786.7618834971
 30
0.0
 11
1.0
 21
0.0
 31
0.0
 73
2
 44
0.9
  1
SPEAKER WITH\PSURFACE MOUNTING FEET
 40
9.144
 41
157.0796431227
  0
MTEXT
  5
2BD
100
AcDbEntity
  8
0
100
AcDbMText
 62
2
  6
CONTINUOUS
  7
STANDARD
 71
2
 72
1
 10
455.1995784641
 20
112.9414196592
 30
0.0
 11
1.0
 21
0.0
 31
0.0
 73
2
 44
0.9
  1
BOTTOM VIEW\PSPEAKER WITH SURFACE MOUNTING FEET
 40
9.144
 41
245.698260223
  0
MTEXT
  5
2BE
100
AcDbEntity
  8
0
100
AcDbMText
 62
2
  6
CONTINUOUS
  7
TEXTSTYLE_3
 71
1
 72
1
 10
448.2980087409
 20
313.3744677585
 30
0.0
 11
1.0
 21
0.0
 31
0.0
 73
2
 44
0.9
  1
{\fgdt;q}
 40
9.144
 41
14.478
  0
LEADER
  5
2BF
100
AcDbEntity
  8
0
100
AcDbLeader
 62
2
  6
CONTINUOUS
  3
STANDARD
 71
1
 72
0
 73
0
 75
0
 40
9.144
 41
94.6692936803
 76
3
 10
1270.6839391272
 20
521.9899908474
 30
0.0
 10
1244.1480772956
 20
593.4866971949
 30
0.0
 10
1218.7480772956
 20
593.4866971949
 30
0.0
340
2C0
1001
ACAD
1000
DSTYLE
1002
{
1070
77
1070
0
1070
341
1005
20C
1002
}
  0
MTEXT
  5
2C0
102
{ACAD_REACTORS
330
2BF
102
}
100
AcDbEntity
  8
0
100
AcDbMText
 62
2
  6
CONTINUOUS
  7
STANDARD
 71
3
 72
1
 10
1218.7480772956
 20
598.0586971949
 30
0.0
 11
1.0
 21
0.0
 31
0.0
 73
2
 44
0.9
  1
4X M4 THREADS
 40
9.144
 41
94.6692936803
  0
LEADER
  5
2C1
100
AcDbEntity
  8
0
100
AcDbLeader
 62
2
  6
CONTINUOUS
  3
STANDARD
 71
1
 72
0
 73
0
 75
0
 40
9.144
 41
113.3312118959
 76
3
 10
1494.0642413671
 20
502.099009906
 30
0.0
 10
1458.5978062592
 20
593.3019712686
 30
0.0
 10
1433.1978062592
 20
593.3019712686
 30
0.0
340
2C2
1001
ACAD
1000
DSTYLE
1002
{
1070
77
1070
0
1070
341
1005
20C
1002
}
  0
MTEXT
  5
2C2
102
{ACAD_REACTORS
330
2C1
102
}
100
AcDbEntity
  8
0
100
AcDbMText
 62
2
  6
CONTINUOUS
  7
STANDARD
 71
3
 72
1
 10
1433.1978062592
 20
597.8739712686
 30
0.0
 11
1.0
 21
0.0
 31
0.0
 73
2
 44
0.9
  1
RJ45 CONNECTOR
 40
9.144
 41
113.3312118959
  0
LEADER
  5
2C3
100
AcDbEntity
  8
0
100
AcDbLeader
 62
2
  6
CONTINUOUS
  3
STANDARD
 71
1
 72
0
 73
0
 75
0
 40
9.144
 41
59.0450855019
 76
3
 10
1562.0772204
 20
468.4114383087
 30
0.0
 10
1518.3605478524
 20
407.130718147
 30
0.0
 10
1492.9605478524
 20
407.130718147
 30
0.0
340
2C4
1001
ACAD
1000
DSTYLE
1002
{
1070
77
1070
0
1070
341
1005
20C
1002
}
  0
MTEXT
  5
2C4
102
{ACAD_REACTORS
330
2C3
102
}
100
AcDbEntity
  8
0
100
AcDbMText
 62
2
  6
CONTINUOUS
  7
STANDARD
 71
3
 72
1
 10
1492.9605478524
 20
411.702718147
 30
0.0
 11
1.0
 21
0.0
 31
0.0
 73
2
 44
0.9
  1
2X M3X10
 40
9.144
 41
59.0450855019
  0
TEXT
  5
2C5
100
AcDbEntity
  8
0
100
AcDbText
 62
2
  6
CONTINUOUS
 10
1187.7342822774
 20
405.1412286494
  7
STANDARD
 40
9.144
  1
4
 41
1.0
 72
0
100
AcDbText
  0
LEADER
  5
2C6
100
AcDbEntity
  8
0
100
AcDbLeader
 62
2
  6
CONTINUOUS
  3
STANDARD
 71
1
 72
0
 73
3
 75
0
 76
3
 10
1128.8330685212
 20
449.8449056404
 30
0.0
 10
1157.7622822774
 20
409.7132286494
 30
0.0
 10
1183.1622822774
 20
409.7132286494
 30
0.0
1001
ACAD
1000
DSTYLE
1002
{
1070
77
1070
0
1070
341
1005
20C
1002
}
  0
LWPOLYLINE
  5
2C7
100
AcDbEntity
  8
0
100
AcDbPolyline
 62
7
  6
CONTINUOUS
 90
2
 70
0
 43
0.9999999955
 10
28.4456627664
 20
563.0061742092
 10
28.4456627664
 20
555.6738257904
  0
LWPOLYLINE
  5
2C8
100
AcDbEntity
  8
0
100
AcDbPolyline
 62
7
  6
CONTINUOUS
 90
2
 70
0
 43
0.9999999955
 10
34.7956627664
 20
1082.58
 10
34.7956627664
 20
36.1
  0
LINE
  5
2C9
100
AcDbEntity
  8
DEFAULT_1
100
AcDbLine
 62
2
  6
CENTER
 10
237.6240016479
 20
199.7362862182
 11
237.6240016479
 21
281.0043248132
  0
LWPOLYLINE
  5
2CA
100
AcDbEntity
  8
0
100
AcDbPolyline
 62
7
  6
CONTINUOUS
 90
2
 70
0
 43
0.9999999955
 10
241.8056627664
 20
36.1
 10
241.8056627664
 20
23.4
  0
LWPOLYLINE
  5
2CB
100
AcDbEntity
  8
0
100
AcDbPolyline
 62
7
  6
CONTINUOUS
 90
2
 70
0
 43
0.9999999955
 10
241.8056627664
 20
1082.18
 10
241.8056627664
 20
1094.88
  0
LWPOLYLINE
  5
2CC
100
AcDbEntity
  8
0
100
AcDbPolyline
 62
7
  6
CONTINUOUS
 90
2
 70
0
 43
0.9999999955
 10
304.8717576153
 20
1026.1980480505
 10
304.8717576153
 20
1082.1737577842
  0
LWPOLYLINE
  5
2CD
100
AcDbEntity
  8
0
100
AcDbPolyline
 62
7
  6
CONTINUOUS
 90
2
 70
0
 43
0.9999999955
 10
866.5018369756
 20
29.75
 10
859.1694885572
 20
29.75
  0
LWPOLYLINE
  5
2CE
100
AcDbEntity
  8
0
100
AcDbPolyline
 62
7
  6
CONTINUOUS
 90
2
 70
0
 43
0.9999999955
 10
1690.8756627664
 20
36.5
 10
34.7956627664
 20
36.5
  0
LWPOLYLINE
  5
2CF
100
AcDbEntity
  8
0
100
AcDbPolyline
 62
7
  6
CONTINUOUS
 90
2
 70
0
 43
0.9999999955
 10
1455.3427222427
 20
48.7870856879
 10
1690.8871839835
 20
48.7870856879
  0
LWPOLYLINE
  5
2D0
100
AcDbEntity
  8
0
100
AcDbPolyline
 62
7
  6
CONTINUOUS
 90
2
 70
0
 43
0.9999999955
 10
1455.3427222427
 20
74.1870856879
 10
1690.8871839835
 20
74.1870856879
  0
LWPOLYLINE
  5
2D1
100
AcDbEntity
  8
0
100
AcDbPolyline
 62
7
  6
CONTINUOUS
 90
2
 70
0
 43
0.9999999955
 10
448.8156627664
 20
36.1
 10
448.8156627664
 20
23.4
  0
LWPOLYLINE
  5
2D2
100
AcDbEntity
  8
0
100
AcDbPolyline
 62
7
  6
CONTINUOUS
 90
2
 70
0
 43
0.9999999955
 10
448.8156627664
 20
1082.18
 10
448.8156627664
 20
1094.88
  0
LWPOLYLINE
  5
2D3
100
AcDbEntity
  8
0
100
AcDbPolyline
 62
7
  6
CONTINUOUS
 90
2
 70
0
 43
0.9999999955
 10
28.4456627664
 20
555.6738257904
 10
34.7956627664
 20
559.34
  0
LWPOLYLINE
  5
2D4
100
AcDbEntity
  8
0
100
AcDbPolyline
 62
7
  6
CONTINUOUS
 90
2
 70
0
 43
0.9999999955
 10
34.7956627664
 20
559.34
 10
28.4456627664
 20
563.0061742092
  0
LINE
  5
2D5
100
AcDbEntity
  8
DEFAULT_1
100
AcDbLine
 62
2
  6
CENTER
 10
454.1240016479
 20
195.9362862182
 11
454.1240016479
 21
294.7413693167
  0
LWPOLYLINE
  5
2D6
100
AcDbEntity
  8
0
100
AcDbPolyline
 62
7
  6
CONTINUOUS
 90
2
 70
0
 43
0.9999999955
 10
862.8356627664
 20
1082.18
 10
866.5018369756
 20
1088.53
  0
LWPOLYLINE
  5
2D7
100
AcDbEntity
  8
0
100
AcDbPolyline
 62
7
  6
CONTINUOUS
 90
2
 70
0
 43
0.9999999955
 10
34.7956627664
 20
297.72
 10
22.0956627664
 20
297.72
  0
LWPOLYLINE
  5
2D8
100
AcDbEntity
  8
0
100
AcDbPolyline
 62
7
  6
CONTINUOUS
 90
2
 70
0
 43
0.9999999955
 10
1690.8756627664
 20
297.72
 10
1703.5756627664
 20
297.72
  0
LWPOLYLINE
  5
2D9
100
AcDbEntity
  8
0
100
AcDbPolyline
 62
7
  6
CONTINUOUS
 90
2
 70
0
 43
0.9999999955
 10
862.8356627664
 20
36.1
 10
866.5018369756
 20
29.75
  0
LWPOLYLINE
  5
2DA
100
AcDbEntity
  8
0
100
AcDbPolyline
 62
7
  6
CONTINUOUS
 90
2
 70
0
 43
0.9999999955
 10
655.8256627664
 20
36.1
 10
655.8256627664
 20
23.4
  0
LWPOLYLINE
  5
2DB
100
AcDbEntity
  8
0
100
AcDbPolyline
 62
7
  6
CONTINUOUS
 90
2
 70
0
 43
0.9999999955
 10
655.8256627664
 20
1082.18
 10
655.8256627664
 20
1094.88
  0
LINE
  5
2DC
100
AcDbEntity
  8
DEFAULT_1
100
AcDbLine
 62
2
  6
CENTER
 10
670.6240016479
 20
199.7362862182
 11
670.6240016479
 21
281.0043248132
  0
LWPOLYLINE
  5
2DD
100
AcDbEntity
  8
0
100
AcDbPolyline
 62
7
  6
CONTINUOUS
 90
2
 70
0
 43
0.9999999955
 10
862.8356627664
 20
36.1
 10
862.8356627664
 20
23.4
  0
LWPOLYLINE
  5
2DE
100
AcDbEntity
  8
0
100
AcDbPolyline
 62
7
  6
CONTINUOUS
 90
2
 70
0
 43
0.9999999955
 10
862.8356627664
 20
1082.18
 10
862.8356627664
 20
1094.88
  0
LWPOLYLINE
  5
2DF
100
AcDbEntity
  8
0
100
AcDbPolyline
 62
7
  6
CONTINUOUS
 90
2
 70
0
 43
0.9999999955
 10
34.7956627664
 20
559.34
 10
22.0956627664
 20
559.34
  0
LWPOLYLINE
  5
2E0
100
AcDbEntity
  8
0
100
AcDbPolyline
 62
7
  6
CONTINUOUS
 90
2
 70
0
 43
0.9999999955
 10
1690.8756627664
 20
559.34
 10
1703.5756627664
 20
559.34
  0
LWPOLYLINE
  5
2E1
100
AcDbEntity
  8
0
100
AcDbPolyline
 62
7
  6
CONTINUOUS
 90
2
 70
0
 43
0.9999999955
 10
1069.8456627664
 20
36.1
 10
1069.8456627664
 20
23.4
  0
LWPOLYLINE
  5
2E2
100
AcDbEntity
  8
0
100
AcDbPolyline
 62
7
  6
CONTINUOUS
 90
2
 70
0
 43
0.9999999955
 10
1069.8456627664
 20
1082.18
 10
1069.8456627664
 20
1094.88
  0
LWPOLYLINE
  5
2E3
100
AcDbEntity
  8
0
100
AcDbPolyline
 62
7
  6
CONTINUOUS
 90
2
 70
0
 43
0.9999999955
 10
862.8356627664
 20
36.1
 10
859.1694885572
 20
29.75
  0
LWPOLYLINE
  5
2E4
100
AcDbEntity
  8
0
100
AcDbPolyline
 62
7
  6
CONTINUOUS
 90
2
 70
0
 43
0.9999999955
 10
34.7956627664
 20
820.96
 10
22.0956627664
 20
820.96
  0
LWPOLYLINE
  5
2E5
100
AcDbEntity
  8
0
100
AcDbPolyline
 62
7
  6
CONTINUOUS
 90
2
 70
0
 43
0.9999999955
 10
1690.8756627664
 20
820.96
 10
1703.5756627664
 20
820.96
  0
LWPOLYLINE
  5
2E6
100
AcDbEntity
  8
0
100
AcDbPolyline
 62
7
  6
CONTINUOUS
 90
2
 70
0
 43
0.9999999955
 10
862.8356627664
 20
1082.18
 10
859.1694885572
 20
1088.53
  0
LWPOLYLINE
  5
2E7
100
AcDbEntity
  8
0
100
AcDbPolyline
 62
7
  6
CONTINUOUS
 90
2
 70
0
 43
0.9999999955
 10
1276.8556627664
 20
36.1
 10
1276.8556627664
 20
23.4
  0
LWPOLYLINE
  5
2E8
100
AcDbEntity
  8
0
100
AcDbPolyline
 62
7
  6
CONTINUOUS
 90
2
 70
0
 43
0.9999999955
 10
1276.8556627664
 20
1082.18
 10
1276.8556627664
 20
1094.88
  0
LWPOLYLINE
  5
2E9
100
AcDbEntity
  8
0
100
AcDbPolyline
 62
7
  6
CONTINUOUS
 90
2
 70
0
 43
0.9999999955
 10
1690.8756627664
 20
559.34
 10
1697.2256627664
 20
563.0061742092
  0
LWPOLYLINE
  5
2EA
100
AcDbEntity
  8
0
100
AcDbPolyline
 62
2
  6
CONTINUOUS
 90
5
 70
0
 10
43.5360682931
 20
932.0016277893
 10
59.7505218247
 20
932.0016277893
 10
59.7505218247
 20
950.2896277893
 10
43.5360682931
 20
950.2896277893
 10
43.5360682931
 20
932.0016277893
  0
LWPOLYLINE
  5
2EB
100
AcDbEntity
  8
0
100
AcDbPolyline
 62
7
  6
CONTINUOUS
 90
2
 70
0
 43
0.9999999955
 10
1697.2256627664
 20
555.6738257904
 10
1690.8756627664
 20
559.34
  0
LWPOLYLINE
  5
2EC
100
AcDbEntity
  8
0
100
AcDbPolyline
 62
7
  6
CONTINUOUS
 90
2
 70
0
 43
0.9999999955
 10
35.1298349375
 20
1026.6160983602
 10
305.3886903961
 20
1026.6160983602
  0
LWPOLYLINE
  5
2ED
100
AcDbEntity
  8
0
100
AcDbPolyline
 62
7
  6
CONTINUOUS
 90
2
 70
0
 43
0.9999999955
 10
34.7956627664
 20
1082.18
 10
1690.8756627664
 20
1082.18
  0
LWPOLYLINE
  5
2EE
100
AcDbEntity
  8
0
100
AcDbPolyline
 62
7
  6
CONTINUOUS
 90
2
 70
0
 43
0.9999999955
 10
866.5018369756
 20
1088.53
 10
859.1694885572
 20
1088.53
  0
LWPOLYLINE
  5
2EF
100
AcDbEntity
  8
0
100
AcDbPolyline
 62
7
  6
CONTINUOUS
 90
2
 70
0
 43
0.9999999955
 10
1455.3312010256
 20
74.2
 10
1455.3312010256
 20
36.1
  0
LWPOLYLINE
  5
2F0
100
AcDbEntity
  8
0
100
AcDbPolyline
 62
7
  6
CONTINUOUS
 90
2
 70
0
 43
0.9999999955
 10
1473.7027445815
 20
74.1870856879
 10
1473.7027445815
 20
48.7870856879
  0
LWPOLYLINE
  5
2F1
100
AcDbEntity
  8
0
100
AcDbPolyline
 62
7
  6
CONTINUOUS
 90
2
 70
0
 43
0.9999999955
 10
1483.8656627664
 20
36.1
 10
1483.8656627664
 20
23.4
  0
LWPOLYLINE
  5
2F2
100
AcDbEntity
  8
0
100
AcDbPolyline
 62
7
  6
CONTINUOUS
 90
2
 70
0
 43
0.9999999955
 10
1483.8656627664
 20
1082.18
 10
1483.8656627664
 20
1094.88
  0
LWPOLYLINE
  5
2F3
100
AcDbEntity
  8
0
100
AcDbPolyline
 62
7
  6
CONTINUOUS
 90
2
 70
0
 43
0.9999999955
 10
1502.7175021079
 20
48.7870856879
 10
1502.7175021079
 20
36.0870856879
  0
LWPOLYLINE
  5
2F4
100
AcDbEntity
  8
0
100
AcDbPolyline
 62
7
  6
CONTINUOUS
 90
2
 70
0
 43
0.9999999955
 10
1522.6157795628
 20
74.1204836174
 10
1522.6157795628
 20
48.7204836174
  0
LWPOLYLINE
  5
2F5
100
AcDbEntity
  8
0
100
AcDbPolyline
 62
7
  6
CONTINUOUS
 90
2
 70
0
 43
0.9999999955
 10
1621.6619026339
 20
48.7870856879
 10
1621.6619026339
 20
36.0870856879
  0
LWPOLYLINE
  5
2F6
100
AcDbEntity
  8
0
100
AcDbPolyline
 62
7
  6
CONTINUOUS
 90
2
 70
0
 43
0.9999999955
 10
1648.6962126383
 20
74.1870856879
 10
1648.6962126383
 20
48.7870856879
  0
LWPOLYLINE
  5
2F7
100
AcDbEntity
  8
0
100
AcDbPolyline
 62
7
  6
CONTINUOUS
 90
2
 70
0
 43
0.9999999955
 10
1690.8756627664
 20
36.1
 10
1690.8756627664
 20
1082.58
  0
LWPOLYLINE
  5
2F8
100
AcDbEntity
  8
0
100
AcDbPolyline
 62
7
  6
CONTINUOUS
 90
2
 70
0
 43
0.9999999955
 10
1697.2256627664
 20
563.0061742092
 10
1697.2256627664
 20
555.6738257904
  0
LINE
  5
2F9
100
AcDbEntity
  8
0
100
AcDbLine
 62
7
  6
CONTINUOUS
 10
1053.5224945017
 20
961.6155880266
 11
1053.8640388533
 21
891.3798183525
  0
LINE
  5
2FA
100
AcDbEntity
  8
0
100
AcDbLine
 62
7
  6
CONTINUOUS
 10
1054.5529247724
 20
961.2718081131
 11
1054.8944691258
 21
891.0360380541
  0
LINE
  5
2FB
100
AcDbEntity
  8
0
100
AcDbLine
 62
7
  6
CONTINUOUS
 10
1058.1972981015
 20
961.5414947568
 11
1058.507541187
 21
897.7425714478
  0
LINE
  5
2FC
100
AcDbEntity
  8
0
100
AcDbLine
 62
7
  6
CONTINUOUS
 10
1065.1381815092
 20
973.2214152878
 11
1054.7230565422
 21
965.6982753223
  0
LINE
  5
2FD
100
AcDbEntity
  8
0
100
AcDbLine
 62
9
  6
CONTINUOUS
 10
1055.5464641093
 20
965.8372414548
 11
1067.3561673892
 21
973.6293608221
  0
LINE
  5
2FE
100
AcDbEntity
  8
06___PRT_ALL_SURFS
100
AcDbLine
 62
7
  6
CONTINUOUS
 10
1055.2824693942
 20
884.8845250021
 11
1060.5870584042
 21
868.3423208015
  0
LINE
  5
2FF
100
AcDbEntity
  8
0
100
AcDbLine
 62
7
  6
CONTINUOUS
 10
1062.4336111002
 20
953.6786185477
 11
1062.7002455954
 21
898.8474409681
  0
LINE
  5
300
100
AcDbEntity
  8
0
100
AcDbLine
 62
7
  6
CONTINUOUS
 10
1063.0708599417
 20
889.9931078163
 11
1063.0737432169
 21
889.4001861473
  0
LINE
  5
301
100
AcDbEntity
  8
06___PRT_ALL_SURFS
100
AcDbLine
 62
7
  6
CONTINUOUS
 10
1058.7995628293
 20
898.5587872138
 11
1055.3780816778
 21
888.995568416
  0
LINE
  5
302
100
AcDbEntity
  8
06___PRT_ALL_SURFS
100
AcDbLine
 62
7
  6
CONTINUOUS
 10
1065.1746000098
 20
881.5842342542
 11
1070.4791890198
 21
865.0420300536
  0
LINE
  5
303
100
AcDbEntity
  8
0
100
AcDbLine
 62
7
  6
CONTINUOUS
 10
1071.4346105465
 20
874.7363479617
 11
1071.3939349457
 21
883.1009486783
  0
LINE
  5
304
100
AcDbEntity
  8
0
100
AcDbLine
 62
7
  6
CONTINUOUS
 10
1075.0383082749
 20
883.370635322
 11
1074.9782374376
 21
895.7237059263
  0
LINE
  5
305
100
AcDbEntity
  8
0
100
AcDbLine
 62
7
  6
CONTINUOUS
 10
1077.3856547746
 20
891.4674259259
 11
1077.10693818
 21
948.7831872716
  0
LINE
  5
306
100
AcDbEntity
  8
06___PRT_ALL_SURFS
100
AcDbLine
 62
7
  6
CONTINUOUS
 10
1068.6916934448
 20
895.2584964659
 11
1065.2702122934
 21
885.6952776681
  0
LINE
  5
307
100
AcDbEntity
  8
0
100
AcDbLine
 62
9
  6
CONTINUOUS
 10
1325.2075508896
 20
823.3507185786
 11
1326.3596505761
 21
823.5785520274
  0
LINE
  5
308
100
AcDbEntity
  8
06___PRT_ALL_SURFS
100
AcDbLine
 62
7
  6
CONTINUOUS
 10
1248.9497122093
 20
805.499284477
 11
1310.2662934725
 21
810.0367622577
  0
LWPOLYLINE
  5
309
100
AcDbEntity
  8
0
100
AcDbPolyline
 62
7
  6
CONTINUOUS
 90
4
 70
0
 10
1267.9048597529
 20
813.0744926135
 10
1285.4997741667
 20
812.8389168281
 10
1303.8633595103
 20
812.8365708829
 10
1320.0826836939
 20
813.0409705203
  0
LINE
  5
30A
100
AcDbEntity
  8
0
100
AcDbLine
 62
7
  6
CONTINUOUS
 10
1253.5088314646
 20
823.8278897304
 11
1249.8644581354
 21
823.5582030867
  0
LINE
  5
30B
100
AcDbEntity
  8
0
100
AcDbLine
 62
9
  6
CONTINUOUS
 10
1257.4785479043
 20
823.4483375835
 11
1272.1254233384
 21
823.3575888069
  0
LINE
  5
30C
100
AcDbEntity
  8
0
100
AcDbLine
 62
7
  6
CONTINUOUS
 10
1251.8613041012
 20
818.3487004294
 11
1249.8894923985
 21
818.3650708099
  0
LINE
  5
30D
100
AcDbEntity
  8
06___PRT_ALL_SURFS
100
AcDbLine
 62
7
  6
CONTINUOUS
 10
1248.9497122093
 20
805.499284477
 11
1239.0575815938
 21
808.7995752249
  0
LINE
  5
30E
100
AcDbEntity
  8
06___PRT_ALL_SURFS
100
AcDbLine
 62
7
  6
CONTINUOUS
 10
1060.5870584042
 20
868.3423208015
 11
1070.4791890198
 21
865.0420300536
  0
LINE
  5
30F
100
AcDbEntity
  8
06___PRT_ALL_SURFS
100
AcDbLine
 62
7
  6
CONTINUOUS
 10
1253.4487606272
 20
836.1809603497
 11
1247.1622166344
 21
835.7157508893
  0
LINE
  5
310
100
AcDbEntity
  8
0
100
AcDbLine
 62
7
  6
CONTINUOUS
 10
1255.8271025515
 20
837.9037983734
 11
1249.6540360355
 21
837.4469863403
  0
LINE
  5
311
100
AcDbEntity
  8
06___PRT_ALL_SURFS
100
AcDbLine
 62
7
  6
CONTINUOUS
 10
1243.5566300116
 20
839.4812510976
 11
1237.2700860188
 21
839.0160416372
  0
LINE
  5
312
100
AcDbEntity
  8
0
100
AcDbLine
 62
7
  6
CONTINUOUS
 10
1255.442564632
 20
821.6971911387
 11
1255.6153849662
 21
821.6745745029
  0
LINE
  5
313
100
AcDbEntity
  8
0
100
AcDbLine
 62
7
  6
CONTINUOUS
 10
1267.3315413739
 20
813.187397805
 11
1267.9048292412
 21
813.0744932203
  0
LINE
  5
314
100
AcDbEntity
  8
0
100
AcDbLine
 62
7
  6
CONTINUOUS
 10
1230.1554718758
 20
845.0947075134
 11
1210.4104134482
 21
843.6335568418
  0
LINE
  5
315
100
AcDbEntity
  8
0
100
AcDbLine
 62
7
  6
CONTINUOUS
 10
1071.4160641224
 20
878.5502666164
 11
1234.094714263
 21
824.2761304587
  0
LINE
  5
316
100
AcDbEntity
  8
0
100
AcDbLine
 62
7
  6
CONTINUOUS
 10
1249.886587312
 20
819.0075210418
 11
1267.3315412785
 21
813.1873977022
  0
LINE
  5
317
100
AcDbEntity
  8
06___PRT_ALL_SURFS
100
AcDbLine
 62
9
  6
CONTINUOUS
 10
1243.6451231994
 20
822.0414886776
 11
1233.7529925838
 21
825.3417794255
  0
LINE
  5
318
100
AcDbEntity
  8
06___PRT_ALL_SURFS
100
AcDbLine
 62
9
  6
CONTINUOUS
 10
1055.2824693942
 20
884.8845250021
 11
1065.1746000098
 21
881.5842342542
  0
LINE
  5
319
100
AcDbEntity
  8
0
100
AcDbLine
 62
7
  6
CONTINUOUS
 10
1249.8764717819
 20
821.087696094
 11
1255.4545782822
 21
819.2266841829
  0
LINE
  5
31A
100
AcDbEntity
  8
0
100
AcDbLine
 62
7
  6
CONTINUOUS
 10
1071.4059485923
 20
880.6304416706
 11
1233.5125647765
 21
826.5471519977
  0
LINE
  5
31B
100
AcDbEntity
  8
0
100
AcDbLine
 62
7
  6
CONTINUOUS
 10
1071.3939349457
 20
883.1009486783
 11
1233.6831026954
 21
828.9567546966
  0
LINE
  5
31C
100
AcDbEntity
  8
0
100
AcDbLine
 62
7
  6
CONTINUOUS
 10
1249.8644581354
 20
823.5582030867
 11
1255.442564632
 21
821.6971911387
  0
LINE
  5
31D
100
AcDbEntity
  8
02___PRT_ALL_AXES
100
AcDbLine
 62
9
  6
CONTINUOUS
 10
1243.740735483
 20
826.1525320915
 11
1240.5858231665
 21
827.2050988573
  0
LINE
  5
31E
100
AcDbEntity
  8
02___PRT_ALL_AXES
100
AcDbLine
 62
9
  6
CONTINUOUS
 10
1237.0035171838
 20
828.4002560737
 11
1233.8486048674
 21
829.4528228394
  0
LINE
  5
31F
100
AcDbEntity
  8
02___PRT_ALL_AXES
100
AcDbLine
 62
9
  6
CONTINUOUS
 10
1055.3780816778
 20
888.995568416
 11
1058.5329939942
 21
887.9430016503
  0
LINE
  5
320
100
AcDbEntity
  8
02___PRT_ALL_AXES
100
AcDbLine
 62
9
  6
CONTINUOUS
 10
1062.1152999769
 20
886.7478444339
 11
1065.2702122934
 21
885.6952776681
  0
LINE
  5
321
100
AcDbEntity
  8
0
100
AcDbLine
 62
7
  6
CONTINUOUS
 10
1075.0383082749
 20
883.370635322
 11
1234.1472186316
 21
830.287463931
  0
LINE
  5
322
100
AcDbEntity
  8
0
100
AcDbLine
 62
7
  6
CONTINUOUS
 10
1253.5088314646
 20
823.8278897304
 11
1256.3640448816
 21
822.8753108784
  0
LINE
  5
323
100
AcDbEntity
  8
0
100
AcDbLine
 62
7
  6
CONTINUOUS
 10
1241.6659957482
 20
829.8168282662
 11
1241.5442664064
 21
829.8574405707
  0
LINE
  5
324
100
AcDbEntity
  8
0
100
AcDbLine
 62
7
  6
CONTINUOUS
 10
1063.0737432169
 20
889.4001861473
 11
1063.1954717639
 21
889.3595741079
  0
LINE
  5
325
100
AcDbEntity
  8
0
100
AcDbLine
 62
7
  6
CONTINUOUS
 10
1063.3539277694
 20
889.8986684919
 11
1063.0708599417
 21
889.9931078163
  0
LINE
  5
326
100
AcDbEntity
  8
0
100
AcDbLine
 62
7
  6
CONTINUOUS
 10
1241.5413831313
 20
830.4503622398
 11
1241.8244497339
 21
830.355923324
  0
LINE
  5
327
100
AcDbEntity
  8
02___PRT_ALL_AXES
100
AcDbLine
 62
7
  6
CONTINUOUS
 10
1190.5407904197
 20
856.8960331244
 11
1186.8964170906
 21
856.6263464807
  0
LINE
  5
328
100
AcDbEntity
  8
0
100
AcDbLine
 62
7
  6
CONTINUOUS
 10
1210.4104134482
 20
843.6335568418
 11
1230.1946746794
 21
837.032975346
  0
LINE
  5
329
100
AcDbEntity
  8
0
100
AcDbLine
 62
7
  6
CONTINUOUS
 10
1255.8561779642
 20
831.9246803493
 11
1253.4655797321
 21
832.7222506134
  0
LINE
  5
32A
100
AcDbEntity
  8
0
100
AcDbLine
 62
7
  6
CONTINUOUS
 10
1074.9950565425
 20
892.2649961899
 11
1077.3856547746
 21
891.4674259259
  0
LINE
  5
32B
100
AcDbEntity
  8
06___PRT_ALL_SURFS
100
AcDbLine
 62
7
  6
CONTINUOUS
 10
1247.1622166344
 20
835.7157508893
 11
1237.2700860188
 21
839.0160416372
  0
LINE
  5
32C
100
AcDbEntity
  8
06___PRT_ALL_SURFS
100
AcDbLine
 62
7
  6
CONTINUOUS
 10
1058.7995628293
 20
898.5587872138
 11
1068.6916934448
 21
895.2584964659
  0
LINE
  5
32D
100
AcDbEntity
  8
06___PRT_ALL_SURFS
100
AcDbLine
 62
7
  6
CONTINUOUS
 10
1253.4487606272
 20
836.1809603497
 11
1243.5566300116
 21
839.4812510976
  0
LINE
  5
32E
100
AcDbEntity
  8
06___PRT_ALL_SURFS
100
AcDbLine
 62
7
  6
CONTINUOUS
 10
1065.0861068221
 20
899.0239966742
 11
1074.9782374376
 21
895.7237059263
  0
LINE
  5
32F
100
AcDbEntity
  8
0
100
AcDbLine
 62
9
  6
CONTINUOUS
 10
1255.4545782679
 20
819.2266841526
 11
1267.3315412785
 21
813.1873977022
  0
LINE
  5
330
100
AcDbEntity
  8
02___PRT_ALL_AXES
100
AcDbLine
 62
7
  6
CONTINUOUS
 10
1189.7732804293
 20
867.2676737089
 11
1186.1289071001
 21
866.9979870652
  0
LINE
  5
331
100
AcDbEntity
  8
0
100
AcDbLine
 62
7
  6
CONTINUOUS
 10
1254.6177520119
 20
842.9426354803
 11
1252.9690635759
 21
843.4926839382
  0
LINE
  5
332
100
AcDbEntity
  8
02___PRT_ALL_AXES
100
AcDbLine
 62
7
  6
CONTINUOUS
 10
1068.0181261302
 20
907.1258842157
 11
1077.3246090118
 21
904.0209818905
  0
LINE
  5
333
100
AcDbEntity
  8
0
100
AcDbLine
 62
7
  6
CONTINUOUS
 10
1246.8051285565
 20
848.5317380766
 11
1252.954536173
 21
846.4801241371
  0
LINE
  5
334
100
AcDbEntity
  8
0
100
AcDbLine
 62
7
  6
CONTINUOUS
 10
1254.5912084137
 20
848.4011067909
 11
1252.9425199778
 21
848.9511552489
  0
LINE
  5
335
100
AcDbEntity
  8
06___PRT_ALL_SURFS
100
AcDbLine
 62
7
  6
CONTINUOUS
 10
1070.4791890198
 20
865.0420300536
 11
1104.3845625694
 21
867.5510557683
  0
LINE
  5
336
100
AcDbEntity
  8
02___PRT_ALL_AXES
100
AcDbLine
 62
7
  6
CONTINUOUS
 10
1128.7149740723
 20
877.5228502987
 11
1125.0706007431
 21
877.253163655
  0
LINE
  5
337
100
AcDbEntity
  8
0
100
AcDbLine
 62
7
  6
CONTINUOUS
 10
1073.3907809116
 20
877.891446006
 11
1071.4189692089
 21
877.9078163864
  0
LINE
  5
338
100
AcDbEntity
  8
0
100
AcDbLine
 62
7
  6
CONTINUOUS
 10
1248.5457643585
 20
853.7490349825
 11
1254.6847133705
 21
851.7009103253
  0
LINE
  5
339
100
AcDbEntity
  8
02___PRT_ALL_AXES
100
AcDbLine
 62
7
  6
CONTINUOUS
 10
1070.3917204056
 20
914.2403799966
 11
1077.2860991179
 21
911.9402229161
  0
LINE
  5
33A
100
AcDbEntity
  8
0
100
AcDbLine
 62
7
  6
CONTINUOUS
 10
1075.0383082749
 20
883.370635322
 11
1071.3939349457
 21
883.1009486783
  0
LINE
  5
33B
100
AcDbEntity
  8
02___PRT_ALL_AXES
100
AcDbLine
 62
7
  6
CONTINUOUS
 10
1127.9474640818
 20
887.8944908832
 11
1124.3030907527
 21
887.6248042395
  0
LINE
  5
33C
100
AcDbEntity
  8
0
100
AcDbLine
 62
9
  6
CONTINUOUS
 10
1257.1370035527
 20
893.6841072575
 11
1271.7838789868
 21
893.5933584809
  0
LINE
  5
33D
100
AcDbEntity
  8
02___PRT_ALL_AXES
100
AcDbLine
 62
7
  6
CONTINUOUS
 10
1190.3423249825
 20
897.7088080137
 11
1186.6979516534
 21
897.43912137
  0
LINE
  5
33E
100
AcDbEntity
  8
0
100
AcDbLine
 62
9
  6
CONTINUOUS
 10
1054.8944691257
 20
891.0360380663
 11
1056.1411166269
 21
891.1282910135
  0
LINE
  5
33F
100
AcDbEntity
  8
06___PRT_ALL_SURFS
100
AcDbLine
 62
7
  6
CONTINUOUS
 10
1074.9782374376
 20
895.7237059263
 11
1068.6916934448
 21
895.2584964659
  0
LINE
  5
340
100
AcDbEntity
  8
0
100
AcDbLine
 62
7
  6
CONTINUOUS
 10
1077.3565793619
 20
897.44654395
 11
1071.1835128459
 21
896.9897319168
  0
LINE
  5
341
100
AcDbEntity
  8
02___PRT_ALL_AXES
100
AcDbLine
 62
7
  6
CONTINUOUS
 10
1067.8739623743
 20
936.7719676704
 11
1077.180445256
 21
933.6670653452
  0
LINE
  5
342
100
AcDbEntity
  8
02___PRT_ALL_AXES
100
AcDbLine
 62
7
  6
CONTINUOUS
 10
1246.3444855639
 20
877.2292220939
 11
1255.6509684456
 21
874.1243197686
  0
LINE
  5
343
100
AcDbEntity
  8
02___PRT_ALL_AXES
100
AcDbLine
 62
7
  6
CONTINUOUS
 10
1070.2475566498
 20
943.8864634513
 11
1077.1419353621
 21
941.5863063708
  0
LINE
  5
344
100
AcDbEntity
  8
02___PRT_ALL_AXES
100
AcDbLine
 62
7
  6
CONTINUOUS
 10
1248.7180798394
 20
884.3437178747
 11
1255.6124585517
 21
882.0435607942
  0
LINE
  5
345
100
AcDbEntity
  8
0
100
AcDbLine
 62
7
  6
CONTINUOUS
 10
1210.0980586439
 20
907.8667376603
 11
1210.4104134482
 21
843.6335568418
  0
LINE
  5
346
100
AcDbEntity
  8
02___PRT_ALL_AXES
100
AcDbLine
 62
7
  6
CONTINUOUS
 10
1189.5748149921
 20
908.0804485982
 11
1185.9304416629
 21
907.8107619545
  0
LINE
  5
347
100
AcDbEntity
  8
06___PRT_ALL_SURFS
100
AcDbLine
 62
7
  6
CONTINUOUS
 10
1065.0861068221
 20
899.0239966742
 11
1058.7995628293
 21
898.5587872138
  0
LINE
  5
348
100
AcDbEntity
  8
0
100
AcDbLine
 62
7
  6
CONTINUOUS
 10
1077.10693818
 20
948.7831872716
 11
1062.4336111002
 21
953.6786185477
  0
LINE
  5
349
100
AcDbEntity
  8
0
100
AcDbLine
 62
7
  6
CONTINUOUS
 10
1240.9041342898
 20
894.1358729711
 11
1255.5774613696
 21
889.2404416951
  0
LINE
  5
34A
100
AcDbEntity
  8
0
100
AcDbLine
 62
7
  6
CONTINUOUS
 10
1229.8823198751
 20
901.2661561645
 11
1210.0980586439
 21
907.8667376603
  0
LINE
  5
34B
100
AcDbEntity
  8
0
100
AcDbLine
 62
7
  6
CONTINUOUS
 10
1255.8194498872
 20
839.4775054554
 11
1252.9690635759
 21
843.4926839382
  0
LINE
  5
34C
100
AcDbEntity
  8
06___PRT_ALL_SURFS
100
AcDbLine
 62
7
  6
CONTINUOUS
 10
1233.7529925838
 20
825.3417794255
 11
1239.0575815938
 21
808.7995752249
  0
LINE
  5
34D
100
AcDbEntity
  8
0
100
AcDbLine
 62
9
  6
CONTINUOUS
 10
1255.0653309091
 20
899.2721812285
 11
1266.8750341725
 21
907.0643005804
  0
LINE
  5
34E
100
AcDbEntity
  8
02___PRT_ALL_AXES
100
AcDbLine
 62
7
  6
CONTINUOUS
 10
1128.5165086351
 20
918.335625188
 11
1124.8721353059
 21
918.0659385443
  0
LINE
  5
34F
100
AcDbEntity
  8
0
100
AcDbLine
 62
7
  6
CONTINUOUS
 10
1255.077344574
 20
896.8016742343
 11
1055.558477774
 21
963.366734471
  0
LINE
  5
350
100
AcDbEntity
  8
0
100
AcDbLine
 62
7
  6
CONTINUOUS
 10
1255.0653309301
 20
899.2721811881
 11
1055.5464641238
 21
965.8372414269
  0
LINE
  5
351
100
AcDbEntity
  8
0
100
AcDbLine
 62
7
  6
CONTINUOUS
 10
1255.810771734
 20
841.262095864
 11
1254.6177520119
 21
842.9426354803
  0
LINE
  5
352
100
AcDbEntity
  8
06___PRT_ALL_SURFS
100
AcDbLine
 62
7
  6
CONTINUOUS
 10
1243.6451231994
 20
822.0414886776
 11
1248.9497122093
 21
805.499284477
  0
LINE
  5
353
100
AcDbEntity
  8
0
100
AcDbLine
 62
7
  6
CONTINUOUS
 10
1230.1946746794
 20
837.032975346
 11
1229.8823198751
 21
901.2661561645
  0
LINE
  5
354
100
AcDbEntity
  8
02___PRT_ALL_AXES
100
AcDbLine
 62
7
  6
CONTINUOUS
 10
1127.7489986446
 20
928.7072657726
 11
1124.1046253155
 21
928.4375791288
  0
LINE
  5
355
100
AcDbEntity
  8
0
100
AcDbLine
 62
7
  6
CONTINUOUS
 10
1266.8750341725
 20
907.0643005804
 11
1067.3561673892
 21
973.6293608221
  0
LINE
  5
356
100
AcDbEntity
  8
0
100
AcDbLine
 62
7
  6
CONTINUOUS
 10
1241.170768785
 20
839.3046953915
 11
1240.9041342898
 21
894.1358729711
  0
LINE
  5
357
100
AcDbEntity
  8
0
100
AcDbLine
 62
7
  6
CONTINUOUS
 10
1241.5442664064
 20
829.8574405707
 11
1241.5413831313
 21
830.4503622398
  0
LINE
  5
358
100
AcDbEntity
  8
0
100
AcDbLine
 62
7
  6
CONTINUOUS
 10
1055.558477774
 20
963.366734471
 11
1055.3856574394
 21
963.389351107
  0
LINE
  5
359
100
AcDbEntity
  8
0
100
AcDbLine
 62
7
  6
CONTINUOUS
 10
1249.9051337361
 20
815.1936023851
 11
1249.8644581354
 21
823.5582030867
  0
LINE
  5
35A
100
AcDbEntity
  8
0
100
AcDbLine
 62
7
  6
CONTINUOUS
 10
1252.9690635759
 20
843.4926839382
 11
1252.9425199778
 21
848.9511552489
  0
LINE
  5
35B
100
AcDbEntity
  8
0
100
AcDbLine
 62
7
  6
CONTINUOUS
 10
1253.5088314646
 20
823.8278897304
 11
1253.4487606272
 21
836.1809603497
  0
LINE
  5
35C
100
AcDbEntity
  8
0
100
AcDbLine
 62
7
  6
CONTINUOUS
 10
1254.6177520119
 20
842.9426354803
 11
1254.5912084137
 21
848.4011067909
  0
LINE
  5
35D
100
AcDbEntity
  8
0
100
AcDbLine
 62
7
  6
CONTINUOUS
 10
1255.8561779642
 20
831.9246803493
 11
1255.5774613696
 21
889.2404416951
  0
LINE
  5
35E
100
AcDbEntity
  8
0
100
AcDbLine
 62
7
  6
CONTINUOUS
 10
1256.4481176319
 20
823.7921178575
 11
1256.1065732802
 21
894.027887556
  0
LINE
  5
35F
100
AcDbEntity
  8
0
100
AcDbLine
 62
7
  6
CONTINUOUS
 10
1257.4785479043
 20
823.4483375835
 11
1257.1370035527
 21
893.6841072575
  0
LINE
  5
360
100
AcDbEntity
  8
06___PRT_ALL_SURFS
100
AcDbLine
 62
7
  6
CONTINUOUS
 10
1237.2700860188
 20
839.0160416372
 11
1233.8486048674
 21
829.4528228394
  0
LINE
  5
361
100
AcDbEntity
  8
0
100
AcDbLine
 62
9
  6
CONTINUOUS
 10
1324.8357568004
 20
899.8070977386
 11
1325.9859881748
 21
900.4191341005
  0
LINE
  5
362
100
AcDbEntity
  8
0
100
AcDbLine
 62
7
  6
CONTINUOUS
 10
1318.8844042593
 20
913.1932345802
 11
1115.4346507034
 21
981.0697482852
  0
LINE
  5
363
100
AcDbEntity
  8
06___PRT_ALL_SURFS
100
AcDbLine
 62
7
  6
CONTINUOUS
 10
1247.1622166344
 20
835.7157508893
 11
1243.740735483
 21
826.1525320915
  0
LINE
  5
364
100
AcDbEntity
  8
0
100
AcDbLine
 62
7
  6
CONTINUOUS
 10
1252.9425199778
 20
848.9511552489
 11
1255.7518194017
 21
853.3851551621
  0
LINE
  5
365
100
AcDbEntity
  8
0
100
AcDbLine
 62
9
  6
CONTINUOUS
 10
1054.5529247724
 20
961.2718081131
 11
1058.1972981015
 21
961.5414947568
  0
LINE
  5
366
100
AcDbEntity
  8
0
100
AcDbLine
 62
7
  6
CONTINUOUS
 10
1272.1254233384
 20
823.3575888069
 11
1271.7838789868
 21
893.5933584809
  0
LINE
  5
367
100
AcDbEntity
  8
0
100
AcDbLine
 62
7
  6
CONTINUOUS
 10
1254.5912084137
 20
848.4011067909
 11
1255.7670313556
 21
850.2569427256
  0
LINE
  5
368
100
AcDbEntity
  8
0
100
AcDbLine
 62
7
  6
CONTINUOUS
 10
1082.4649691669
 20
976.434815463
 11
1066.2276439597
 21
973.6963780223
  0
LWPOLYLINE
  5
369
100
AcDbEntity
  8
0
100
AcDbPolyline
 62
7
  6
CONTINUOUS
 90
3
 70
0
 10
1114.4761107028
 20
981.1659888675
 10
1099.4401664389
 20
979.0538492416
 10
1082.4649691669
 20
976.434815463
  0
LINE
  5
36A
100
AcDbEntity
  8
0
100
AcDbLine
 62
9
  6
CONTINUOUS
 10
1115.4346507061
 20
981.0697482888
 11
1114.507343752
 21
980.9410121789
  0
LINE
  5
36B
100
AcDbEntity
  8
0
100
AcDbLine
 62
9
  6
CONTINUOUS
 10
1115.4346507061
 20
981.0697482888
 11
1114.5071823196
 21
980.9451179825
  0
LINE
  5
36C
100
AcDbEntity
  8
0
100
AcDbLine
 62
7
  6
CONTINUOUS
 10
1321.7832260667
 20
910.9940219816
 11
1319.9796277932
 21
912.5309745146
  0
LINE
  5
36D
100
AcDbEntity
  8
0
100
AcDbLine
 62
7
  6
CONTINUOUS
 10
1310.2662934725
 20
810.0367622577
 11
1310.2522869602
 21
812.9170856096
  0
LINE
  5
36E
100
AcDbEntity
  8
0
100
AcDbLine
 62
9
  6
CONTINUOUS
 10
207.3220600243
 20
551.9702127522
 11
207.3220600233
 21
550.2159894302
  0
LINE
  5
36F
100
AcDbEntity
  8
0
100
AcDbLine
 62
9
  6
CONTINUOUS
 10
207.322060024
 20
450.7385371483
 11
207.322060024
 21
452.4927604486
  0
LINE
  5
370
100
AcDbEntity
  8
0
100
AcDbLine
 62
7
  6
CONTINUOUS
 10
225.6240016479
 20
445.1543749483
 11
225.6240016479
 21
450.7385371481
  0
LINE
  5
371
100
AcDbEntity
  8
0
100
AcDbLine
 62
7
  6
CONTINUOUS
 10
249.6240016479
 20
445.1543749483
 11
249.6240016479
 21
450.7385371479
  0
LINE
  5
372
100
AcDbEntity
  8
0
100
AcDbLine
 62
9
  6
CONTINUOUS
 10
713.018903367
 20
462.6698152105
 11
711.0265139708
 21
462.4754204352
  0
LINE
  5
373
100
AcDbEntity
  8
06___PRT_ALL_SURFS
100
AcDbLine
 62
7
  6
CONTINUOUS
 10
682.6240016479
 20
445.1543749483
 11
658.6240016479
 21
445.1543749483
  0
LINE
  5
374
100
AcDbEntity
  8
06___PRT_ALL_SURFS
100
AcDbLine
 62
7
  6
CONTINUOUS
 10
225.6240016479
 20
445.1543749483
 11
249.6240016479
 21
445.1543749483
  0
LINE
  5
375
100
AcDbEntity
  8
0
100
AcDbLine
 62
9
  6
CONTINUOUS
 10
195.2290999294
 20
462.6698151427
 11
197.2214893256
 21
462.4754203698
  0
LINE
  5
376
100
AcDbEntity
  8
0
100
AcDbLine
 62
7
  6
CONTINUOUS
 10
700.9259432715
 20
450.7385371443
 11
207.322060024
 21
450.7385371483
  0
LINE
  5
377
100
AcDbEntity
  8
0
100
AcDbLine
 62
7
  6
CONTINUOUS
 10
700.9259432725
 20
452.4927604663
 11
207.322060024
 21
452.4927604486
  0
LINE
  5
378
100
AcDbEntity
  8
0
100
AcDbLine
 62
7
  6
CONTINUOUS
 10
700.9259432882
 20
457.4927605294
 11
207.3220600243
 21
457.4927604926
  0
LINE
  5
379
100
AcDbEntity
  8
0
100
AcDbLine
 62
7
  6
CONTINUOUS
 10
470.1240016479
 20
458.3543749483
 11
438.1240016479
 21
458.3543749483
  0
LINE
  5
37A
100
AcDbEntity
  8
0
100
AcDbLine
 62
7
  6
CONTINUOUS
 10
470.1240016479
 20
464.3543749483
 11
438.1240016479
 21
464.3543749483
  0
LINE
  5
37B
100
AcDbEntity
  8
0
100
AcDbLine
 62
7
  6
CONTINUOUS
 10
700.9259432715
 20
545.215989404
 11
207.3220600077
 21
545.2159893671
  0
LINE
  5
37C
100
AcDbEntity
  8
0
100
AcDbLine
 62
7
  6
CONTINUOUS
 10
207.3220600233
 20
550.2159894302
 11
700.9259432718
 21
550.215989448
  0
LINE
  5
37D
100
AcDbEntity
  8
0
100
AcDbLine
 62
7
  6
CONTINUOUS
 10
207.3220600243
 20
551.9702127522
 11
700.9259432718
 21
551.9702127483
  0
LINE
  5
37E
100
AcDbEntity
  8
0
100
AcDbLine
 62
9
  6
CONTINUOUS
 10
195.2290999288
 20
540.0389346857
 11
197.221489325
 21
540.233329461
  0
LINE
  5
37F
100
AcDbEntity
  8
0
100
AcDbLine
 62
9
  6
CONTINUOUS
 10
713.0189033664
 20
540.0389347538
 11
711.0265139702
 21
540.2333295267
  0
LINE
  5
380
100
AcDbEntity
  8
0
100
AcDbLine
 62
7
  6
CONTINUOUS
 10
658.6240016479
 20
445.1543749483
 11
658.6240016479
 21
450.7385371446
  0
LINE
  5
381
100
AcDbEntity
  8
0
100
AcDbLine
 62
7
  6
CONTINUOUS
 10
682.6240016479
 20
445.1543749483
 11
682.6240016479
 21
450.7385371444
  0
LINE
  5
382
100
AcDbEntity
  8
0
100
AcDbLine
 62
9
  6
CONTINUOUS
 10
700.9259432718
 20
551.9702127483
 11
700.9259432718
 21
550.215989448
  0
LINE
  5
383
100
AcDbEntity
  8
0
100
AcDbLine
 62
9
  6
CONTINUOUS
 10
700.9259432715
 20
450.7385371443
 11
700.9259432725
 21
452.4927604663
  0
LINE
  5
384
100
AcDbEntity
  8
0
100
AcDbLine
 62
7
  6
CONTINUOUS
 10
871.077971093
 20
551.9702127483
 11
869.0163164968
 21
550.215989448
  0
LINE
  5
385
100
AcDbEntity
  8
0
100
AcDbLine
 62
7
  6
CONTINUOUS
 10
871.0779710978
 20
450.7385371443
 11
869.016316476
 21
452.4927604663
  0
LINE
  5
386
100
AcDbEntity
  8
06___PRT_ALL_SURFS
100
AcDbLine
 62
7
  6
CONTINUOUS
 10
940.1207782633
 20
445.1543749483
 11
872.8207782633
 21
445.1543749483
  0
LINE
  5
387
100
AcDbEntity
  8
0
100
AcDbLine
 62
7
  6
CONTINUOUS
 10
872.8207782633
 20
445.1543749483
 11
872.8207782633
 21
450.806378568
  0
LINE
  5
388
100
AcDbEntity
  8
0
100
AcDbLine
 62
9
  6
CONTINUOUS
 10
870.079570187
 20
462.6698152105
 11
867.9147284525
 21
462.4754204352
  0
LINE
  5
389
100
AcDbEntity
  8
0
100
AcDbLine
 62
9
  6
CONTINUOUS
 10
939.0207782633
 20
465.8172509222
 11
926.1074372659
 21
465.8172509222
  0
LINE
  5
38A
100
AcDbEntity
  8
06___PRT_ALL_SURFS
100
AcDbLine
 62
7
  6
CONTINUOUS
 10
939.0207782633
 20
475.8543749483
 11
941.9207782633
 21
475.8543749483
  0
LINE
  5
38B
100
AcDbEntity
  8
0
100
AcDbLine
 62
7
  6
CONTINUOUS
 10
926.1074372659
 20
536.8914990077
 11
926.1074372659
 21
465.8172509222
  0
LINE
  5
38C
100
AcDbEntity
  8
06___PRT_ALL_SURFS
100
AcDbLine
 62
7
  6
CONTINUOUS
 10
941.9207782633
 20
475.8543749483
 11
945.7258087517
 21
466.4365940095
  0
LINE
  5
38D
100
AcDbEntity
  8
0
100
AcDbLine
 62
7
  6
CONTINUOUS
 10
939.0207782633
 20
454.8893749483
 11
939.0207782633
 21
541.8549171925
  0
LINE
  5
38E
100
AcDbEntity
  8
0
100
AcDbLine
 62
9
  6
CONTINUOUS
 10
939.0207782633
 20
536.8914990077
 11
926.1074372659
 21
536.8914990077
  0
LINE
  5
38F
100
AcDbEntity
  8
0
100
AcDbLine
 62
9
  6
CONTINUOUS
 10
870.0795701934
 20
540.0389347538
 11
867.9147284588
 21
540.2333295267
  0
LINE
  5
390
100
AcDbEntity
  8
06___PRT_ALL_SURFS
100
AcDbLine
 62
7
  6
CONTINUOUS
 10
945.8526475556
 20
462.2851265105
 11
940.1207782633
 21
445.1543749483
  0
LINE
  5
391
100
AcDbEntity
  8
0
100
AcDbLine
 62
7
  6
CONTINUOUS
 10
939.0207782863
 20
460.8538326786
 11
926.0354369471
 21
453.8597438742
  0
LINE
  5
392
100
AcDbEntity
  8
0
100
AcDbLine
 62
7
  6
CONTINUOUS
 10
926.0353959271
 20
453.8597407577
 11
926.0217443125
 21
453.8555698694
  0
LINE
  5
393
100
AcDbEntity
  8
0
100
AcDbLine
 62
7
  6
CONTINUOUS
 10
926.0217442413
 20
548.853180067
 11
926.0353967266
 21
548.849008729
  0
LINE
  5
394
100
AcDbEntity
  8
0
100
AcDbLine
 62
7
  6
CONTINUOUS
 10
939.0207782791
 20
541.8549172218
 11
926.0217443432
 21
548.8531801645
  0
LINE
  5
395
100
AcDbEntity
  8
0
100
AcDbLine
 62
7
  6
CONTINUOUS
 10
1091.5893105244
 20
536.8914990077
 11
1091.5893105244
 21
465.8172509222
  0
LINE
  5
396
100
AcDbEntity
  8
0
100
AcDbLine
 62
7
  6
CONTINUOUS
 10
1098.5806049156
 20
536.8914990077
 11
1098.5806049156
 21
465.8172509222
  0
LINE
  5
397
100
AcDbEntity
  8
0
100
AcDbLine
 62
7
  6
CONTINUOUS
 10
1101.0806049156
 20
536.8914993848
 11
1101.0806049156
 21
465.8172509099
  0
LINE
  5
398
100
AcDbEntity
  8
0
100
AcDbLine
 62
9
  6
CONTINUOUS
 10
1103.5489690471
 20
460.8538326786
 11
1103.5489690432
 21
453.8555697484
  0
LINE
  5
399
100
AcDbEntity
  8
0
100
AcDbLine
 62
9
  6
CONTINUOUS
 10
1103.5489690473
 20
541.8549172218
 11
1103.5489690403
 21
548.8531801645
  0
LINE
  5
39A
100
AcDbEntity
  8
0
100
AcDbLine
 62
7
  6
CONTINUOUS
 10
1111.2824090325
 20
530.3543749483
 11
1111.2824090325
 21
472.3543749483
  0
LINE
  5
39B
100
AcDbEntity
  8
06___PRT_ALL_SURFS
100
AcDbLine
 62
7
  6
CONTINUOUS
 10
1117.0824090325
 20
475.8543749483
 11
1117.0824090325
 21
445.1543749483
  0
LINE
  5
39C
100
AcDbEntity
  8
0
100
AcDbLine
 62
7
  6
CONTINUOUS
 10
1127.5824090325
 20
468.6543749483
 11
1127.5824090325
 21
468.0543749483
  0
LINE
  5
39D
100
AcDbEntity
  8
0
100
AcDbLine
 62
7
  6
CONTINUOUS
 10
1128.7824090325
 20
469.8543749483
 11
1128.7824090325
 21
468.6543749483
  0
LINE
  5
39E
100
AcDbEntity
  8
0
100
AcDbLine
 62
7
  6
CONTINUOUS
 10
1128.7824090325
 20
468.0543749483
 11
1128.7824090325
 21
466.8543749483
  0
LINE
  5
39F
100
AcDbEntity
  8
0
100
AcDbLine
 62
7
  6
CONTINUOUS
 10
1129.3824090325
 20
466.8543749483
 11
1129.3824090325
 21
468.0543749483
  0
LINE
  5
3A0
100
AcDbEntity
  8
0
100
AcDbLine
 62
7
  6
CONTINUOUS
 10
1129.3824090325
 20
468.6543749483
 11
1129.3824090325
 21
469.8543749483
  0
LINE
  5
3A1
100
AcDbEntity
  8
0
100
AcDbLine
 62
7
  6
CONTINUOUS
 10
1130.5824090325
 20
468.0543749483
 11
1130.5824090325
 21
468.6543749483
  0
LINE
  5
3A2
100
AcDbEntity
  8
06___PRT_ALL_SURFS
100
AcDbLine
 62
7
  6
CONTINUOUS
 10
1141.0824090325
 20
475.8543749483
 11
1141.0824090325
 21
445.1543749483
  0
LINE
  5
3A3
100
AcDbEntity
  8
0
100
AcDbLine
 62
7
  6
CONTINUOUS
 10
1146.8824090325
 20
472.3543749483
 11
1146.8824090325
 21
530.3543749483
  0
LWPOLYLINE
  5
3A4
100
AcDbEntity
  8
0
100
AcDbPolyline
 62
2
  6
CONTINUOUS
 90
5
 70
0
 10
1183.1622822774
 20
400.5692286494
 10
1199.376735809
 20
400.5692286494
 10
1199.376735809
 20
418.8572286494
 10
1183.1622822774
 20
418.8572286494
 10
1183.1622822774
 20
400.5692286494
  0
LINE
  5
3A5
100
AcDbEntity
  8
06___PRT_ALL_SURFS
100
AcDbLine
 62
7
  6
CONTINUOUS
 10
1574.0824090325
 20
445.1543749483
 11
1550.0824090325
 21
445.1543749483
  0
LINE
  5
3A6
100
AcDbEntity
  8
06___PRT_ALL_SURFS
100
AcDbLine
 62
7
  6
CONTINUOUS
 10
1117.0824090325
 20
445.1543749483
 11
1141.0824090325
 21
445.1543749483
  0
LINE
  5
3A7
100
AcDbEntity
  8
0
100
AcDbLine
 62
7
  6
CONTINUOUS
 10
1098.7804674089
 20
450.7385371443
 11
1117.0824090325
 21
450.7385371444
  0
LINE
  5
3A8
100
AcDbEntity
  8
0
100
AcDbLine
 62
7
  6
CONTINUOUS
 10
1141.0824090325
 20
450.7385371446
 11
1550.0824090325
 21
450.7385371479
  0
LINE
  5
3A9
100
AcDbEntity
  8
0
100
AcDbLine
 62
7
  6
CONTINUOUS
 10
1574.0824090325
 20
450.7385371481
 11
1592.3843506564
 21
450.7385371483
  0
LINE
  5
3AA
100
AcDbEntity
  8
0
100
AcDbLine
 62
7
  6
CONTINUOUS
 10
1103.5489690432
 20
453.8555697484
 11
1117.0824090325
 21
453.8555697664
  0
LINE
  5
3AB
100
AcDbEntity
  8
0
100
AcDbLine
 62
7
  6
CONTINUOUS
 10
1141.0824090325
 20
453.8555697664
 11
1550.0824090325
 21
453.8555697664
  0
LINE
  5
3AC
100
AcDbEntity
  8
0
100
AcDbLine
 62
7
  6
CONTINUOUS
 10
1574.0824090325
 20
453.8555697664
 11
1587.6158490248
 21
453.855569732
  0
LINE
  5
3AD
100
AcDbEntity
  8
0
100
AcDbLine
 62
7
  6
CONTINUOUS
 10
1103.5489690471
 20
460.8538327213
 11
1117.0824090325
 21
460.8538326662
  0
LINE
  5
3AE
100
AcDbEntity
  8
0
100
AcDbLine
 62
7
  6
CONTINUOUS
 10
1141.0824090325
 20
460.8538326662
 11
1550.0824090325
 21
460.8538326662
  0
LINE
  5
3AF
100
AcDbEntity
  8
0
100
AcDbLine
 62
7
  6
CONTINUOUS
 10
1574.0824090325
 20
460.8538326662
 11
1587.6158490177
 21
460.8538327043
  0
LINE
  5
3B0
100
AcDbEntity
  8
06___PRT_ALL_SURFS
100
AcDbLine
 62
9
  6
CONTINUOUS
 10
1574.0824090325
 20
462.2851265105
 11
1550.0824090325
 21
462.2851265105
  0
LINE
  5
3B1
100
AcDbEntity
  8
06___PRT_ALL_SURFS
100
AcDbLine
 62
9
  6
CONTINUOUS
 10
1117.0824090325
 20
462.2851265105
 11
1141.0824090325
 21
462.2851265105
  0
LINE
  5
3B2
100
AcDbEntity
  8
0
100
AcDbLine
 62
7
  6
CONTINUOUS
 10
1103.5489690531
 20
463.3538327213
 11
1117.0824090325
 21
463.3538327208
  0
LINE
  5
3B3
100
AcDbEntity
  8
0
100
AcDbLine
 62
7
  6
CONTINUOUS
 10
1141.0824090325
 20
463.35383272
 11
1550.0824090325
 21
463.3538327056
  0
LINE
  5
3B4
100
AcDbEntity
  8
0
100
AcDbLine
 62
7
  6
CONTINUOUS
 10
1574.0824090325
 20
463.3538327048
 11
1587.6158490084
 21
463.3538327043
  0
LINE
  5
3B5
100
AcDbEntity
  8
0
100
AcDbLine
 62
7
  6
CONTINUOUS
 10
1498.9824090325
 20
511.3726923931
 11
1498.7574086034
 21
511.3152455915
  0
LINE
  5
3B6
100
AcDbEntity
  8
0
100
AcDbLine
 62
7
  6
CONTINUOUS
 10
1498.0824086034
 20
513.2684371296
 11
1498.3074090325
 21
513.3258839313
  0
LINE
  5
3B7
100
AcDbEntity
  8
0
100
AcDbLine
 62
7
  6
CONTINUOUS
 10
1498.7574086034
 20
510.9705647413
 11
1499.0386594617
 21
511.028011548
  0
LINE
  5
3B8
100
AcDbEntity
  8
0
100
AcDbLine
 62
7
  6
CONTINUOUS
 10
1498.3074090325
 20
513.6705647413
 11
1498.0261594617
 21
513.6131179396
  0
LINE
  5
3B9
100
AcDbEntity
  8
0
100
AcDbLine
 62
9
  6
CONTINUOUS
 10
1098.5806049156
 20
465.8172509222
 11
1091.5893105244
 21
465.8172509222
  0
LINE
  5
3BA
100
AcDbEntity
  8
0
100
AcDbLine
 62
9
  6
CONTINUOUS
 10
1592.5842131494
 20
465.8172508894
 11
1599.5755075406
 21
465.8172508894
  0
LINE
  5
3BB
100
AcDbEntity
  8
02___PRT_ALL_AXES
100
AcDbLine
 62
9
  6
CONTINUOUS
 10
1574.0824090325
 20
466.4365940095
 11
1566.4280523992
 21
466.4365940095
  0
LINE
  5
3BC
100
AcDbEntity
  8
02___PRT_ALL_AXES
100
AcDbLine
 62
9
  6
CONTINUOUS
 10
1557.7367656658
 20
466.4365940095
 11
1550.0824090325
 21
466.4365940095
  0
LINE
  5
3BD
100
AcDbEntity
  8
02___PRT_ALL_AXES
100
AcDbLine
 62
9
  6
CONTINUOUS
 10
1117.0824090325
 20
466.4365940095
 11
1124.7367656658
 21
466.4365940095
  0
LINE
  5
3BE
100
AcDbEntity
  8
02___PRT_ALL_AXES
100
AcDbLine
 62
9
  6
CONTINUOUS
 10
1133.4280523992
 20
466.4365940095
 11
1141.0824090325
 21
466.4365940095
  0
LINE
  5
3BF
100
AcDbEntity
  8
0
100
AcDbLine
 62
7
  6
CONTINUOUS
 10
1562.3824090325
 20
466.8543749483
 11
1561.7824090325
 21
466.8543749483
  0
LINE
  5
3C0
100
AcDbEntity
  8
0
100
AcDbLine
 62
7
  6
CONTINUOUS
 10
1128.7824090325
 20
466.8543749483
 11
1129.3824090325
 21
466.8543749483
  0
LINE
  5
3C1
100
AcDbEntity
  8
0
100
AcDbLine
 62
7
  6
CONTINUOUS
 10
1563.5824090325
 20
468.0543749483
 11
1562.3824090325
 21
468.0543749483
  0
LINE
  5
3C2
100
AcDbEntity
  8
0
100
AcDbLine
 62
7
  6
CONTINUOUS
 10
1561.7824090325
 20
468.0543749483
 11
1560.5824090325
 21
468.0543749483
  0
LINE
  5
3C3
100
AcDbEntity
  8
0
100
AcDbLine
 62
7
  6
CONTINUOUS
 10
1127.5824090325
 20
468.0543749483
 11
1128.7824090325
 21
468.0543749483
  0
LINE
  5
3C4
100
AcDbEntity
  8
0
100
AcDbLine
 62
7
  6
CONTINUOUS
 10
1129.3824090325
 20
468.0543749483
 11
1130.5824090325
 21
468.0543749483
  0
LINE
  5
3C5
100
AcDbEntity
  8
0
100
AcDbLine
 62
7
  6
CONTINUOUS
 10
1130.5824090325
 20
468.6543749483
 11
1129.3824090325
 21
468.6543749483
  0
LINE
  5
3C6
100
AcDbEntity
  8
0
100
AcDbLine
 62
7
  6
CONTINUOUS
 10
1128.7824090325
 20
468.6543749483
 11
1127.5824090325
 21
468.6543749483
  0
LINE
  5
3C7
100
AcDbEntity
  8
0
100
AcDbLine
 62
7
  6
CONTINUOUS
 10
1560.5824090325
 20
468.6543749483
 11
1561.7824090325
 21
468.6543749483
  0
LINE
  5
3C8
100
AcDbEntity
  8
0
100
AcDbLine
 62
7
  6
CONTINUOUS
 10
1562.3824090325
 20
468.6543749483
 11
1563.5824090325
 21
468.6543749483
  0
LINE
  5
3C9
100
AcDbEntity
  8
0
100
AcDbLine
 62
7
  6
CONTINUOUS
 10
1469.5824090325
 20
468.8543749483
 11
1517.5824090325
 21
468.8543749483
  0
LINE
  5
3CA
100
AcDbEntity
  8
0
100
AcDbLine
 62
7
  6
CONTINUOUS
 10
1129.3824090325
 20
469.8543749483
 11
1128.7824090325
 21
469.8543749483
  0
LINE
  5
3CB
100
AcDbEntity
  8
0
100
AcDbLine
 62
7
  6
CONTINUOUS
 10
1561.7824090325
 20
469.8543749483
 11
1562.3824090325
 21
469.8543749483
  0
LINE
  5
3CC
100
AcDbEntity
  8
0
100
AcDbLine
 62
7
  6
CONTINUOUS
 10
1579.8824090325
 20
472.3543749483
 11
1574.0824090325
 21
472.3543749483
  0
LINE
  5
3CD
100
AcDbEntity
  8
0
100
AcDbLine
 62
7
  6
CONTINUOUS
 10
1550.0824090325
 20
472.3543749483
 11
1544.2824090325
 21
472.3543749483
  0
LINE
  5
3CE
100
AcDbEntity
  8
0
100
AcDbLine
 62
7
  6
CONTINUOUS
 10
1111.2824090325
 20
472.3543749483
 11
1117.0824090325
 21
472.3543749483
  0
LINE
  5
3CF
100
AcDbEntity
  8
0
100
AcDbLine
 62
7
  6
CONTINUOUS
 10
1141.0824090325
 20
472.3543749483
 11
1146.8824090325
 21
472.3543749483
  0
LINE
  5
3D0
100
AcDbEntity
  8
06___PRT_ALL_SURFS
100
AcDbLine
 62
7
  6
CONTINUOUS
 10
1574.0824090325
 20
475.8543749483
 11
1550.0824090325
 21
475.8543749483
  0
LINE
  5
3D1
100
AcDbEntity
  8
06___PRT_ALL_SURFS
100
AcDbLine
 62
7
  6
CONTINUOUS
 10
1117.0824090325
 20
475.8543749483
 11
1141.0824090325
 21
475.8543749483
  0
LINE
  5
3D2
100
AcDbEntity
  8
0
100
AcDbLine
 62
7
  6
CONTINUOUS
 10
1579.8824090325
 20
477.4169460423
 11
1575.8824090325
 21
477.4169460423
  0
LINE
  5
3D3
100
AcDbEntity
  8
0
100
AcDbLine
 62
7
  6
CONTINUOUS
 10
1579.8824090325
 20
479.1238430773
 11
1575.8824090325
 21
479.1238430773
  0
LINE
  5
3D4
100
AcDbEntity
  8
02___PRT_ALL_AXES
100
AcDbLine
 62
7
  6
CONTINUOUS
 10
1111.2824090325
 20
482.6043749483
 11
1146.8824090325
 21
482.6043749483
  0
LINE
  5
3D5
100
AcDbEntity
  8
0
100
AcDbLine
 62
7
  6
CONTINUOUS
 10
1494.4449090325
 20
525.7565026001
 11
1494.2199090862
 21
525.6990557985
  0
LINE
  5
3D6
100
AcDbEntity
  8
0
100
AcDbLine
 62
7
  6
CONTINUOUS
 10
1494.2199090862
 20
525.3543749483
 11
1494.5011589789
 21
525.411821755
  0
LINE
  5
3D7
100
AcDbEntity
  8
0
100
AcDbLine
 62
7
  6
CONTINUOUS
 10
1544.2824090325
 20
483.6043749483
 11
1579.8824090325
 21
483.5925575303
  0
LINE
  5
3D8
100
AcDbEntity
  8
0
100
AcDbLine
 62
7
  6
CONTINUOUS
 10
1579.8824090325
 20
489.1161923663
 11
1544.2824090325
 21
489.1043749483
  0
LINE
  5
3D9
100
AcDbEntity
  8
02___PRT_ALL_AXES
100
AcDbLine
 62
7
  6
CONTINUOUS
 10
1111.2824090325
 20
490.1043749483
 11
1146.8824090325
 21
490.1043749483
  0
LINE
  5
3DA
100
AcDbEntity
  8
0
100
AcDbLine
 62
7
  6
CONTINUOUS
 10
1485.4324090325
 20
492.7543749483
 11
1501.7324090325
 21
492.7543749483
  0
LINE
  5
3DB
100
AcDbEntity
  8
0
100
AcDbLine
 62
7
  6
CONTINUOUS
 10
1579.8824090325
 20
493.5849068193
 11
1575.8824090325
 21
493.5849068193
  0
LINE
  5
3DC
100
AcDbEntity
  8
0
100
AcDbLine
 62
7
  6
CONTINUOUS
 10
1579.8824090325
 20
495.2918038543
 11
1575.8824090325
 21
495.2918038543
  0
LINE
  5
3DD
100
AcDbEntity
  8
0
100
AcDbLine
 62
7
  6
CONTINUOUS
 10
1487.5824090325
 20
497.7543749483
 11
1499.5824090325
 21
497.7543749483
  0
LINE
  5
3DE
100
AcDbEntity
  8
0
100
AcDbLine
 62
7
  6
CONTINUOUS
 10
1499.5824090325
 20
504.5543749483
 11
1496.7324090325
 21
504.5543749483
  0
LINE
  5
3DF
100
AcDbEntity
  8
0
100
AcDbLine
 62
7
  6
CONTINUOUS
 10
1490.4324090325
 20
504.5543749483
 11
1487.5824090325
 21
504.5543749483
  0
LINE
  5
3E0
100
AcDbEntity
  8
0
100
AcDbLine
 62
7
  6
CONTINUOUS
 10
1496.7324090325
 20
506.2543749483
 11
1495.5824090325
 21
506.2543749483
  0
LINE
  5
3E1
100
AcDbEntity
  8
0
100
AcDbLine
 62
7
  6
CONTINUOUS
 10
1491.5824090325
 20
506.2543749483
 11
1490.4324090325
 21
506.2543749483
  0
LINE
  5
3E2
100
AcDbEntity
  8
0
100
AcDbLine
 62
7
  6
CONTINUOUS
 10
1495.5824090325
 20
509.3543749483
 11
1491.5824090325
 21
509.3543749483
  0
LINE
  5
3E3
100
AcDbEntity
  8
0
100
AcDbLine
 62
7
  6
CONTINUOUS
 10
1501.7324090325
 20
509.9543749483
 11
1485.4324090325
 21
509.9543749483
  0
LINE
  5
3E4
100
AcDbEntity
  8
0
100
AcDbLine
 62
7
  6
CONTINUOUS
 10
1485.4824090325
 20
510.9705647413
 11
1487.5074090325
 21
510.9705647413
  0
LINE
  5
3E5
100
AcDbEntity
  8
0
100
AcDbLine
 62
7
  6
CONTINUOUS
 10
1487.9574090862
 20
510.9705647413
 11
1488.2949089252
 21
510.9705647413
  0
LINE
  5
3E6
100
AcDbEntity
  8
0
100
AcDbLine
 62
7
  6
CONTINUOUS
 10
1489.8699090325
 20
510.9705647413
 11
1490.2074090325
 21
510.9705647413
  0
LINE
  5
3E7
100
AcDbEntity
  8
0
100
AcDbLine
 62
7
  6
CONTINUOUS
 10
1490.6574089252
 20
510.9705647413
 11
1490.9949092471
 21
510.9705647413
  0
LINE
  5
3E8
100
AcDbEntity
  8
0
100
AcDbLine
 62
7
  6
CONTINUOUS
 10
1492.4011590325
 20
510.9705647413
 11
1492.9074090325
 21
510.9705647413
  0
LINE
  5
3E9
100
AcDbEntity
  8
02___PRT_ALL_AXES
100
AcDbLine
 62
7
  6
CONTINUOUS
 10
1494.7074090325
 20
510.9705647413
 11
1495.1074090325
 21
510.9705647413
  0
LINE
  5
3EA
100
AcDbEntity
  8
0
100
AcDbLine
 62
7
  6
CONTINUOUS
 10
1498.3074090325
 20
510.9705647413
 11
1498.7574086034
 21
510.9705647413
  0
LINE
  5
3EB
100
AcDbEntity
  8
0
100
AcDbLine
 62
7
  6
CONTINUOUS
 10
1500.1074086034
 20
510.9705647413
 11
1502.1324086034
 21
510.9705647413
  0
LINE
  5
3EC
100
AcDbEntity
  8
0
100
AcDbLine
 62
7
  6
CONTINUOUS
 10
1502.1324086034
 20
511.3152455915
 11
1500.4449086034
 21
511.3152455915
  0
LINE
  5
3ED
100
AcDbEntity
  8
0
100
AcDbLine
 62
7
  6
CONTINUOUS
 10
1498.7574086034
 20
511.3152455915
 11
1498.3074090325
 21
511.3152455915
  0
LINE
  5
3EE
100
AcDbEntity
  8
0
100
AcDbLine
 62
7
  6
CONTINUOUS
 10
1487.5074090325
 20
511.3152455915
 11
1485.8199090325
 21
511.3152455915
  0
LINE
  5
3EF
100
AcDbEntity
  8
0
100
AcDbLine
 62
7
  6
CONTINUOUS
 10
1488.5199090325
 20
511.6599264417
 11
1489.6449089252
 21
511.6599264417
  0
LINE
  5
3F0
100
AcDbEntity
  8
02___PRT_ALL_AXES
100
AcDbLine
 62
7
  6
CONTINUOUS
 10
1495.1074090325
 20
511.7705647413
 11
1495.9074090325
 21
511.7705647413
  0
LINE
  5
3F1
100
AcDbEntity
  8
0
100
AcDbLine
 62
7
  6
CONTINUOUS
 10
1489.5886591398
 20
511.8897136483
 11
1488.5761591398
 21
511.8897136483
  0
LINE
  5
3F2
100
AcDbEntity
  8
02___PRT_ALL_AXES
100
AcDbLine
 62
7
  6
CONTINUOUS
 10
1495.9074090325
 20
512.1705647413
 11
1495.1074090325
 21
512.1705647413
  0
LINE
  5
3F3
100
AcDbEntity
  8
0
100
AcDbLine
 62
7
  6
CONTINUOUS
 10
1500.4449086034
 20
512.2343945388
 11
1501.9074094617
 21
512.2343945388
  0
LINE
  5
3F4
100
AcDbEntity
  8
0
100
AcDbLine
 62
7
  6
CONTINUOUS
 10
1501.9074094617
 20
512.5790753488
 11
1500.4449086034
 21
512.5790753488
  0
LINE
  5
3F5
100
AcDbEntity
  8
02___PRT_ALL_AXES
100
AcDbLine
 62
7
  6
CONTINUOUS
 10
1111.2824090325
 20
512.6043749483
 11
1146.8824090325
 21
512.6043749483
  0
LINE
  5
3F6
100
AcDbEntity
  8
02___PRT_ALL_AXES
100
AcDbLine
 62
7
  6
CONTINUOUS
 10
1544.2824090325
 20
512.6043749483
 11
1579.8824090325
 21
512.6043749483
  0
LINE
  5
3F7
100
AcDbEntity
  8
0
100
AcDbLine
 62
7
  6
CONTINUOUS
 10
1498.3074090325
 20
513.3258839313
 11
1498.7574086034
 21
513.3258839313
  0
LINE
  5
3F8
100
AcDbEntity
  8
0
100
AcDbLine
 62
7
  6
CONTINUOUS
 10
1500.4449086034
 20
513.3258839313
 11
1502.1324086034
 21
513.3258839313
  0
LINE
  5
3F9
100
AcDbEntity
  8
02___PRT_ALL_AXES
100
AcDbLine
 62
7
  6
CONTINUOUS
 10
1495.1074090325
 20
513.3705647413
 11
1495.9074090325
 21
513.3705647413
  0
LINE
  5
3FA
100
AcDbEntity
  8
0
100
AcDbLine
 62
7
  6
CONTINUOUS
 10
1502.1324086034
 20
513.6705647413
 11
1500.1074086034
 21
513.6705647413
  0
LINE
  5
3FB
100
AcDbEntity
  8
0
100
AcDbLine
 62
7
  6
CONTINUOUS
 10
1498.7574086034
 20
513.6705647413
 11
1498.3074090325
 21
513.6705647413
  0
LINE
  5
3FC
100
AcDbEntity
  8
0
100
AcDbLine
 62
7
  6
CONTINUOUS
 10
1492.9074090325
 20
513.6705647413
 11
1492.5699090325
 21
513.6705647413
  0
LINE
  5
3FD
100
AcDbEntity
  8
0
100
AcDbLine
 62
7
  6
CONTINUOUS
 10
1491.1636592471
 20
513.6705647413
 11
1490.6574089252
 21
513.6705647413
  0
LINE
  5
3FE
100
AcDbEntity
  8
0
100
AcDbLine
 62
7
  6
CONTINUOUS
 10
1489.3074089252
 20
513.6705647413
 11
1488.8574090325
 21
513.6705647413
  0
LINE
  5
3FF
100
AcDbEntity
  8
0
100
AcDbLine
 62
7
  6
CONTINUOUS
 10
1485.8199090325
 20
513.6705647413
 11
1485.4824090325
 21
513.6705647413
  0
LINE
  5
400
100
AcDbEntity
  8
02___PRT_ALL_AXES
100
AcDbLine
 62
7
  6
CONTINUOUS
 10
1495.9074090325
 20
513.7705647413
 11
1494.7074090325
 21
513.7705647413
  0
LINE
  5
401
100
AcDbEntity
  8
02___PRT_ALL_AXES
100
AcDbLine
 62
7
  6
CONTINUOUS
 10
1111.2824090325
 20
520.1043749483
 11
1146.8824090325
 21
520.1043749483
  0
LINE
  5
402
100
AcDbEntity
  8
02___PRT_ALL_AXES
100
AcDbLine
 62
7
  6
CONTINUOUS
 10
1544.2824090325
 20
520.1043749483
 11
1579.8824090325
 21
520.1043749483
  0
LINE
  5
403
100
AcDbEntity
  8
0
100
AcDbLine
 62
7
  6
CONTINUOUS
 10
1492.0824090325
 20
525.3543749483
 11
1492.4199090325
 21
525.3543749483
  0
LINE
  5
404
100
AcDbEntity
  8
0
100
AcDbLine
 62
7
  6
CONTINUOUS
 10
1492.8699090057
 20
525.3543749483
 11
1494.2199090862
 21
525.3543749483
  0
LINE
  5
405
100
AcDbEntity
  8
0
100
AcDbLine
 62
7
  6
CONTINUOUS
 10
1494.2199090862
 20
525.6990557985
 11
1493.2074090057
 21
525.6990557985
  0
LINE
  5
406
100
AcDbEntity
  8
0
100
AcDbLine
 62
7
  6
CONTINUOUS
 10
1493.2074090057
 20
527.7096941383
 11
1494.2199090862
 21
527.7096941383
  0
LINE
  5
407
100
AcDbEntity
  8
0
100
AcDbLine
 62
7
  6
CONTINUOUS
 10
1494.2199090862
 20
528.0543749483
 11
1492.8699090057
 21
528.0543749483
  0
LINE
  5
408
100
AcDbEntity
  8
0
100
AcDbLine
 62
7
  6
CONTINUOUS
 10
1492.4199090325
 20
528.0543749483
 11
1492.0824090325
 21
528.0543749483
  0
LINE
  5
409
100
AcDbEntity
  8
0
100
AcDbLine
 62
7
  6
CONTINUOUS
 10
1146.8824090325
 20
530.3543749483
 11
1111.2824090325
 21
530.3543749483
  0
LINE
  5
40A
100
AcDbEntity
  8
0
100
AcDbLine
 62
7
  6
CONTINUOUS
 10
1544.2824090325
 20
530.3543749483
 11
1579.8824090325
 21
530.3543749483
  0
LINE
  5
40B
100
AcDbEntity
  8
0
100
AcDbLine
 62
7
  6
CONTINUOUS
 10
1517.5824090325
 20
533.8543749483
 11
1469.5824090325
 21
533.8543749483
  0
LINE
  5
40C
100
AcDbEntity
  8
0
100
AcDbLine
 62
7
  6
CONTINUOUS
 10
1494.5011589789
 20
525.411821755
 11
1494.7261590862
 21
525.5267153734
  0
LINE
  5
40D
100
AcDbEntity
  8
0
100
AcDbLine
 62
9
  6
CONTINUOUS
 10
1098.5806049156
 20
536.8914990077
 11
1091.5893105244
 21
536.8914990077
  0
LINE
  5
40E
100
AcDbEntity
  8
0
100
AcDbLine
 62
9
  6
CONTINUOUS
 10
1592.5842131494
 20
536.8914989749
 11
1599.5755075406
 21
536.8914989749
  0
LINE
  5
40F
100
AcDbEntity
  8
0
100
AcDbLine
 62
7
  6
CONTINUOUS
 10
1587.6158490119
 20
539.3549171755
 11
1103.5489690567
 21
539.3549171925
  0
LINE
  5
410
100
AcDbEntity
  8
0
100
AcDbLine
 62
7
  6
CONTINUOUS
 10
1587.6158490179
 20
541.8549171755
 11
1103.5489690473
 21
541.8549171925
  0
LINE
  5
411
100
AcDbEntity
  8
0
100
AcDbLine
 62
7
  6
CONTINUOUS
 10
1587.6158490218
 20
548.8531801482
 11
1103.5489690403
 21
548.8531801645
  0
LINE
  5
412
100
AcDbEntity
  8
0
100
AcDbLine
 62
7
  6
CONTINUOUS
 10
1592.3843506561
 20
551.9702127522
 11
1098.7804674086
 21
551.9702127483
  0
LINE
  5
413
100
AcDbEntity
  8
0
100
AcDbLine
 62
7
  6
CONTINUOUS
 10
1498.0261594617
 20
511.028011548
 11
1498.3074090325
 21
510.9705647413
  0
LINE
  5
414
100
AcDbEntity
  8
0
100
AcDbLine
 62
7
  6
CONTINUOUS
 10
1499.0386594617
 20
513.6131179396
 11
1498.7574086034
 21
513.6705647413
  0
LINE
  5
415
100
AcDbEntity
  8
0
100
AcDbLine
 62
7
  6
CONTINUOUS
 10
1498.3074090325
 20
511.3152455915
 11
1498.0824086034
 21
511.3726923931
  0
LINE
  5
416
100
AcDbEntity
  8
0
100
AcDbLine
 62
7
  6
CONTINUOUS
 10
1498.7574086034
 20
513.3258839313
 11
1498.9824090325
 21
513.2684371296
  0
LINE
  5
417
100
AcDbEntity
  8
0
100
AcDbLine
 62
7
  6
CONTINUOUS
 10
1494.6136590325
 20
525.8713962437
 11
1494.4449090325
 21
525.7565026001
  0
LINE
  5
418
100
AcDbEntity
  8
0
100
AcDbLine
 62
7
  6
CONTINUOUS
 10
1498.0261594617
 20
513.6131179396
 11
1497.8011590325
 21
513.4982243363
  0
LINE
  5
419
100
AcDbEntity
  8
0
100
AcDbLine
 62
7
  6
CONTINUOUS
 10
1499.0386594617
 20
511.028011548
 11
1499.2636586034
 21
511.1429051664
  0
LINE
  5
41A
100
AcDbEntity
  8
0
100
AcDbLine
 62
7
  6
CONTINUOUS
 10
1494.5011589789
 20
527.9969281466
 11
1494.2199090862
 21
528.0543749483
  0
LINE
  5
41B
100
AcDbEntity
  8
0
100
AcDbLine
 62
7
  6
CONTINUOUS
 10
1494.2199090862
 20
527.7096941383
 11
1494.4449090325
 21
527.6522473366
  0
LINE
  5
41C
100
AcDbEntity
  8
0
100
AcDbLine
 62
7
  6
CONTINUOUS
 10
1494.7261590862
 20
525.5267153734
 11
1494.9511590325
 21
525.7565026001
  0
LINE
  5
41D
100
AcDbEntity
  8
0
100
AcDbLine
 62
7
  6
CONTINUOUS
 10
1497.9136586034
 20
513.1535435263
 11
1498.0824086034
 21
513.2684371296
  0
LINE
  5
41E
100
AcDbEntity
  8
0
100
AcDbLine
 62
7
  6
CONTINUOUS
 10
1499.1511590325
 20
511.4875860367
 11
1498.9824090325
 21
511.3726923931
  0
LINE
  5
41F
100
AcDbEntity
  8
0
100
AcDbLine
 62
7
  6
CONTINUOUS
 10
1497.8011590325
 20
511.1429051664
 11
1498.0261594617
 21
511.028011548
  0
LINE
  5
420
100
AcDbEntity
  8
0
100
AcDbLine
 62
7
  6
CONTINUOUS
 10
1499.2636586034
 20
513.4982243363
 11
1499.0386594617
 21
513.6131179396
  0
LINE
  5
421
100
AcDbEntity
  8
0
100
AcDbLine
 62
7
  6
CONTINUOUS
 10
1497.8011590325
 20
513.4982243363
 11
1497.5761586034
 21
513.2684371296
  0
LINE
  5
422
100
AcDbEntity
  8
0
100
AcDbLine
 62
7
  6
CONTINUOUS
 10
1499.2636586034
 20
511.1429051664
 11
1499.4886590325
 21
511.3726923931
  0
LINE
  5
423
100
AcDbEntity
  8
0
100
AcDbLine
 62
7
  6
CONTINUOUS
 10
1494.7261590862
 20
527.8820345433
 11
1494.5011589789
 21
527.9969281466
  0
LINE
  5
424
100
AcDbEntity
  8
0
100
AcDbLine
 62
7
  6
CONTINUOUS
 10
1493.3574092471
 20
511.6599264417
 11
1493.5261592471
 21
511.5450328384
  0
LINE
  5
425
100
AcDbEntity
  8
0
100
AcDbLine
 62
7
  6
CONTINUOUS
 10
1494.2574090325
 20
512.9812029604
 11
1494.0886590325
 21
513.0960967246
  0
LINE
  5
426
100
AcDbEntity
  8
0
100
AcDbLine
 62
7
  6
CONTINUOUS
 10
1498.0824086034
 20
511.3726923931
 11
1497.9136586034
 21
511.4875860367
  0
LINE
  5
427
100
AcDbEntity
  8
0
100
AcDbLine
 62
7
  6
CONTINUOUS
 10
1498.9824090325
 20
513.2684371296
 11
1499.1511590325
 21
513.1535435263
  0
LINE
  5
428
100
AcDbEntity
  8
0
100
AcDbLine
 62
7
  6
CONTINUOUS
 10
1494.4449090325
 20
527.6522473366
 11
1494.6136590325
 21
527.5373537333
  0
LINE
  5
429
100
AcDbEntity
  8
0
100
AcDbLine
 62
7
  6
CONTINUOUS
 10
1469.5824090325
 20
533.8543749483
 11
1469.5824090325
 21
468.8543749483
  0
LINE
  5
42A
100
AcDbEntity
  8
0
100
AcDbLine
 62
7
  6
CONTINUOUS
 10
1494.9511590325
 20
525.7565026001
 11
1495.0636589252
 21
525.986289847
  0
LINE
  5
42B
100
AcDbEntity
  8
0
100
AcDbLine
 62
7
  6
CONTINUOUS
 10
1494.0886590325
 20
513.0960967246
 11
1493.3574092471
 21
511.6599264417
  0
LINE
  5
42C
100
AcDbEntity
  8
0
100
AcDbLine
 62
7
  6
CONTINUOUS
 10
1494.7261590862
 20
526.0437366487
 11
1494.6136590325
 21
525.8713962437
  0
LINE
  5
42D
100
AcDbEntity
  8
0
100
AcDbLine
 62
7
  6
CONTINUOUS
 10
1497.8011590325
 20
512.9812029604
 11
1497.9136586034
 21
513.1535435263
  0
LINE
  5
42E
100
AcDbEntity
  8
0
100
AcDbLine
 62
7
  6
CONTINUOUS
 10
1499.2636586034
 20
511.6599264417
 11
1499.1511590325
 21
511.4875860367
  0
LINE
  5
42F
100
AcDbEntity
  8
0
100
AcDbLine
 62
7
  6
CONTINUOUS
 10
1497.5761586034
 20
511.3726923931
 11
1497.8011590325
 21
511.1429051664
  0
LINE
  5
430
100
AcDbEntity
  8
0
100
AcDbLine
 62
7
  6
CONTINUOUS
 10
1499.4886590325
 20
513.2684371296
 11
1499.2636586034
 21
513.4982243363
  0
LINE
  5
431
100
AcDbEntity
  8
0
100
AcDbLine
 62
7
  6
CONTINUOUS
 10
1485.4324090325
 20
509.9543749483
 11
1485.4324090325
 21
492.7543749483
  0
LINE
  5
432
100
AcDbEntity
  8
0
100
AcDbLine
 62
7
  6
CONTINUOUS
 10
1485.4824090325
 20
513.6705647413
 11
1485.4824090325
 21
510.9705647413
  0
LINE
  5
433
100
AcDbEntity
  8
0
100
AcDbLine
 62
7
  6
CONTINUOUS
 10
1485.8199090325
 20
511.3152455915
 11
1485.8199090325
 21
513.6705647413
  0
LINE
  5
434
100
AcDbEntity
  8
0
100
AcDbLine
 62
7
  6
CONTINUOUS
 10
1487.5074090325
 20
510.9705647413
 11
1487.5074090325
 21
511.3152455915
  0
LINE
  5
435
100
AcDbEntity
  8
0
100
AcDbLine
 62
7
  6
CONTINUOUS
 10
1487.5824090325
 20
504.5543749483
 11
1487.5824090325
 21
497.7543749483
  0
LINE
  5
436
100
AcDbEntity
  8
0
100
AcDbLine
 62
7
  6
CONTINUOUS
 10
1495.0636589252
 20
525.986289847
 11
1495.1199090325
 21
526.2735238553
  0
LINE
  5
437
100
AcDbEntity
  8
0
100
AcDbLine
 62
7
  6
CONTINUOUS
 10
1494.7824090325
 20
526.2735238553
 11
1494.7261590862
 21
526.0437366487
  0
LINE
  5
438
100
AcDbEntity
  8
0
100
AcDbLine
 62
7
  6
CONTINUOUS
 10
1488.5761591398
 20
511.8897136483
 11
1489.0824091398
 21
513.4407775346
  0
LINE
  5
439
100
AcDbEntity
  8
0
100
AcDbLine
 62
7
  6
CONTINUOUS
 10
1488.2949089252
 20
510.9705647413
 11
1488.5199090325
 21
511.6599264417
  0
LINE
  5
43A
100
AcDbEntity
  8
0
100
AcDbLine
 62
7
  6
CONTINUOUS
 10
1488.8574090325
 20
513.6705647413
 11
1487.9574090862
 21
510.9705647413
  0
LINE
  5
43B
100
AcDbEntity
  8
0
100
AcDbLine
 62
7
  6
CONTINUOUS
 10
1497.5761586034
 20
513.2684371296
 11
1497.4636590325
 21
513.038649923
  0
LINE
  5
43C
100
AcDbEntity
  8
0
100
AcDbLine
 62
7
  6
CONTINUOUS
 10
1499.4886590325
 20
511.3726923931
 11
1499.6011586034
 21
511.60247964
  0
LINE
  5
43D
100
AcDbEntity
  8
0
100
AcDbLine
 62
7
  6
CONTINUOUS
 10
1493.5261592471
 20
511.5450328384
 11
1494.2574090325
 21
512.9812029604
  0
LINE
  5
43E
100
AcDbEntity
  8
0
100
AcDbLine
 62
7
  6
CONTINUOUS
 10
1494.9511590325
 20
527.6522473366
 11
1494.7261590862
 21
527.8820345433
  0
LINE
  5
43F
100
AcDbEntity
  8
0
100
AcDbLine
 62
7
  6
CONTINUOUS
 10
1497.9136586034
 20
511.4875860367
 11
1497.8011590325
 21
511.6599264417
  0
LINE
  5
440
100
AcDbEntity
  8
0
100
AcDbLine
 62
7
  6
CONTINUOUS
 10
1499.1511590325
 20
513.1535435263
 11
1499.2636586034
 21
512.9812029604
  0
LINE
  5
441
100
AcDbEntity
  8
0
100
AcDbLine
 62
7
  6
CONTINUOUS
 10
1494.6136590325
 20
527.5373537333
 11
1494.7261590862
 21
527.3650131674
  0
LINE
  5
442
100
AcDbEntity
  8
0
100
AcDbLine
 62
7
  6
CONTINUOUS
 10
1492.5699090325
 20
511.3726923931
 11
1491.1636592471
 21
513.6705647413
  0
LINE
  5
443
100
AcDbEntity
  8
0
100
AcDbLine
 62
7
  6
CONTINUOUS
 10
1490.9949092471
 20
513.3258839313
 11
1492.4011590325
 21
510.9705647413
  0
LINE
  5
444
100
AcDbEntity
  8
0
100
AcDbLine
 62
7
  6
CONTINUOUS
 10
1497.4636590325
 20
511.60247964
 11
1497.5761586034
 21
511.3726923931
  0
LINE
  5
445
100
AcDbEntity
  8
0
100
AcDbLine
 62
7
  6
CONTINUOUS
 10
1490.2074090325
 20
510.9705647413
 11
1489.3074089252
 21
513.6705647413
  0
LINE
  5
446
100
AcDbEntity
  8
0
100
AcDbLine
 62
7
  6
CONTINUOUS
 10
1489.6449089252
 20
511.6599264417
 11
1489.8699090325
 21
510.9705647413
  0
LINE
  5
447
100
AcDbEntity
  8
0
100
AcDbLine
 62
7
  6
CONTINUOUS
 10
1489.0824091398
 20
513.4407775346
 11
1489.5886591398
 21
511.8897136483
  0
LINE
  5
448
100
AcDbEntity
  8
0
100
AcDbLine
 62
7
  6
CONTINUOUS
 10
1490.4324090325
 20
506.2543749483
 11
1490.4324090325
 21
504.5543749483
  0
LINE
  5
449
100
AcDbEntity
  8
0
100
AcDbLine
 62
7
  6
CONTINUOUS
 10
1490.6574089252
 20
513.6705647413
 11
1490.6574089252
 21
510.9705647413
  0
LINE
  5
44A
100
AcDbEntity
  8
0
100
AcDbLine
 62
7
  6
CONTINUOUS
 10
1490.9949092471
 20
510.9705647413
 11
1490.9949092471
 21
513.3258839313
  0
LINE
  5
44B
100
AcDbEntity
  8
0
100
AcDbLine
 62
7
  6
CONTINUOUS
 10
1491.5824090325
 20
509.3543749483
 11
1491.5824090325
 21
506.2543749483
  0
LINE
  5
44C
100
AcDbEntity
  8
0
100
AcDbLine
 62
7
  6
CONTINUOUS
 10
1492.0824090325
 20
528.0543749483
 11
1492.0824090325
 21
525.3543749483
  0
LINE
  5
44D
100
AcDbEntity
  8
0
100
AcDbLine
 62
7
  6
CONTINUOUS
 10
1492.4199090325
 20
525.3543749483
 11
1492.4199090325
 21
528.0543749483
  0
LINE
  5
44E
100
AcDbEntity
  8
0
100
AcDbLine
 62
7
  6
CONTINUOUS
 10
1492.5699090325
 20
513.6705647413
 11
1492.5699090325
 21
511.3726923931
  0
LINE
  5
44F
100
AcDbEntity
  8
0
100
AcDbLine
 62
7
  6
CONTINUOUS
 10
1492.8699090057
 20
528.0543749483
 11
1492.8699090057
 21
525.3543749483
  0
LINE
  5
450
100
AcDbEntity
  8
0
100
AcDbLine
 62
7
  6
CONTINUOUS
 10
1492.9074090325
 20
510.9705647413
 11
1492.9074090325
 21
513.6705647413
  0
LINE
  5
451
100
AcDbEntity
  8
0
100
AcDbLine
 62
7
  6
CONTINUOUS
 10
1493.2074090057
 20
525.6990557985
 11
1493.2074090057
 21
527.7096941383
  0
LINE
  5
452
100
AcDbEntity
  8
02___PRT_ALL_AXES
100
AcDbLine
 62
7
  6
CONTINUOUS
 10
1494.7074090325
 20
513.7705647413
 11
1494.7074090325
 21
510.9705647413
  0
LINE
  5
453
100
AcDbEntity
  8
0
100
AcDbLine
 62
7
  6
CONTINUOUS
 10
1494.7824090325
 20
527.1352259607
 11
1494.7824090325
 21
526.2735238553
  0
LINE
  5
454
100
AcDbEntity
  8
02___PRT_ALL_AXES
100
AcDbLine
 62
7
  6
CONTINUOUS
 10
1495.1074090325
 20
510.9705647413
 11
1495.1074090325
 21
511.7705647413
  0
LINE
  5
455
100
AcDbEntity
  8
02___PRT_ALL_AXES
100
AcDbLine
 62
7
  6
CONTINUOUS
 10
1495.1074090325
 20
512.1705647413
 11
1495.1074090325
 21
513.3705647413
  0
LINE
  5
456
100
AcDbEntity
  8
0
100
AcDbLine
 62
7
  6
CONTINUOUS
 10
1495.1199090325
 20
526.2735238553
 11
1495.1199090325
 21
527.1352259607
  0
LINE
  5
457
100
AcDbEntity
  8
0
100
AcDbLine
 62
7
  6
CONTINUOUS
 10
1495.5824090325
 20
506.2543749483
 11
1495.5824090325
 21
509.3543749483
  0
LINE
  5
458
100
AcDbEntity
  8
0
100
AcDbLine
 62
7
  6
CONTINUOUS
 10
1496.7324090325
 20
504.5543749483
 11
1496.7324090325
 21
506.2543749483
  0
LINE
  5
459
100
AcDbEntity
  8
0
100
AcDbLine
 62
7
  6
CONTINUOUS
 10
1497.4074086034
 20
512.7514157537
 11
1497.4074086034
 21
511.8897136483
  0
LINE
  5
45A
100
AcDbEntity
  8
0
100
AcDbLine
 62
7
  6
CONTINUOUS
 10
1497.7449086034
 20
511.8897136483
 11
1497.7449086034
 21
512.7514157537
  0
LINE
  5
45B
100
AcDbEntity
  8
0
100
AcDbLine
 62
7
  6
CONTINUOUS
 10
1499.3199090325
 20
512.7514157537
 11
1499.3199090325
 21
511.8897136483
  0
LINE
  5
45C
100
AcDbEntity
  8
0
100
AcDbLine
 62
7
  6
CONTINUOUS
 10
1499.5824090325
 20
497.7543749483
 11
1499.5824090325
 21
504.5543749483
  0
LINE
  5
45D
100
AcDbEntity
  8
0
100
AcDbLine
 62
7
  6
CONTINUOUS
 10
1499.6574090325
 20
511.8897136483
 11
1499.6574090325
 21
512.7514157537
  0
LINE
  5
45E
100
AcDbEntity
  8
0
100
AcDbLine
 62
7
  6
CONTINUOUS
 10
1500.1074086034
 20
513.6705647413
 11
1500.1074086034
 21
510.9705647413
  0
LINE
  5
45F
100
AcDbEntity
  8
0
100
AcDbLine
 62
7
  6
CONTINUOUS
 10
1500.4449086034
 20
511.3152455915
 11
1500.4449086034
 21
512.2343945388
  0
LINE
  5
460
100
AcDbEntity
  8
0
100
AcDbLine
 62
7
  6
CONTINUOUS
 10
1500.4449086034
 20
512.5790753488
 11
1500.4449086034
 21
513.3258839313
  0
LINE
  5
461
100
AcDbEntity
  8
0
100
AcDbLine
 62
7
  6
CONTINUOUS
 10
1501.7324090325
 20
492.7543749483
 11
1501.7324090325
 21
509.9543749483
  0
LINE
  5
462
100
AcDbEntity
  8
0
100
AcDbLine
 62
7
  6
CONTINUOUS
 10
1501.9074094617
 20
512.2343945388
 11
1501.9074094617
 21
512.5790753488
  0
LINE
  5
463
100
AcDbEntity
  8
0
100
AcDbLine
 62
7
  6
CONTINUOUS
 10
1502.1324086034
 20
510.9705647413
 11
1502.1324086034
 21
511.3152455915
  0
LINE
  5
464
100
AcDbEntity
  8
0
100
AcDbLine
 62
7
  6
CONTINUOUS
 10
1502.1324086034
 20
513.3258839313
 11
1502.1324086034
 21
513.6705647413
  0
LINE
  5
465
100
AcDbEntity
  8
0
100
AcDbLine
 62
7
  6
CONTINUOUS
 10
1497.4636590325
 20
513.038649923
 11
1497.4074086034
 21
512.7514157537
  0
LINE
  5
466
100
AcDbEntity
  8
0
100
AcDbLine
 62
7
  6
CONTINUOUS
 10
1499.6011586034
 20
511.60247964
 11
1499.6574090325
 21
511.8897136483
  0
LINE
  5
467
100
AcDbEntity
  8
0
100
AcDbLine
 62
7
  6
CONTINUOUS
 10
1497.7449086034
 20
512.7514157537
 11
1497.8011590325
 21
512.9812029604
  0
LINE
  5
468
100
AcDbEntity
  8
0
100
AcDbLine
 62
7
  6
CONTINUOUS
 10
1499.3199090325
 20
511.8897136483
 11
1499.2636586034
 21
511.6599264417
  0
LINE
  5
469
100
AcDbEntity
  8
0
100
AcDbLine
 62
7
  6
CONTINUOUS
 10
1499.6011586034
 20
513.038649923
 11
1499.4886590325
 21
513.2684371296
  0
LINE
  5
46A
100
AcDbEntity
  8
0
100
AcDbLine
 62
7
  6
CONTINUOUS
 10
1495.0636589252
 20
527.42246013
 11
1494.9511590325
 21
527.6522473366
  0
LINE
  5
46B
100
AcDbEntity
  8
0
100
AcDbLine
 62
7
  6
CONTINUOUS
 10
1497.8011590325
 20
511.6599264417
 11
1497.7449086034
 21
511.8897136483
  0
LINE
  5
46C
100
AcDbEntity
  8
0
100
AcDbLine
 62
7
  6
CONTINUOUS
 10
1494.7261590862
 20
527.3650131674
 11
1494.7824090325
 21
527.1352259607
  0
LINE
  5
46D
100
AcDbEntity
  8
0
100
AcDbLine
 62
7
  6
CONTINUOUS
 10
1499.2636586034
 20
512.9812029604
 11
1499.3199090325
 21
512.7514157537
  0
LINE
  5
46E
100
AcDbEntity
  8
0
100
AcDbLine
 62
7
  6
CONTINUOUS
 10
1497.4074086034
 20
511.8897136483
 11
1497.4636590325
 21
511.60247964
  0
LINE
  5
46F
100
AcDbEntity
  8
0
100
AcDbLine
 62
7
  6
CONTINUOUS
 10
1495.1199090325
 20
527.1352259607
 11
1495.0636589252
 21
527.42246013
  0
LINE
  5
470
100
AcDbEntity
  8
0
100
AcDbLine
 62
7
  6
CONTINUOUS
 10
1499.6574090325
 20
512.7514157537
 11
1499.6011586034
 21
513.038649923
  0
LINE
  5
471
100
AcDbEntity
  8
0
100
AcDbLine
 62
7
  6
CONTINUOUS
 10
1517.5824090325
 20
468.8543749483
 11
1517.5824090325
 21
533.8543749483
  0
LINE
  5
472
100
AcDbEntity
  8
0
100
AcDbLine
 62
7
  6
CONTINUOUS
 10
1544.2824090325
 20
472.3543749483
 11
1544.2824090325
 21
530.3543749483
  0
LINE
  5
473
100
AcDbEntity
  8
06___PRT_ALL_SURFS
100
AcDbLine
 62
7
  6
CONTINUOUS
 10
1550.0824090325
 20
475.8543749483
 11
1550.0824090325
 21
445.1543749483
  0
LINE
  5
474
100
AcDbEntity
  8
0
100
AcDbLine
 62
7
  6
CONTINUOUS
 10
1560.5824090325
 20
468.0543749483
 11
1560.5824090325
 21
468.6543749483
  0
LINE
  5
475
100
AcDbEntity
  8
0
100
AcDbLine
 62
7
  6
CONTINUOUS
 10
1561.7824090325
 20
466.8543749483
 11
1561.7824090325
 21
468.0543749483
  0
LINE
  5
476
100
AcDbEntity
  8
0
100
AcDbLine
 62
7
  6
CONTINUOUS
 10
1561.7824090325
 20
468.6543749483
 11
1561.7824090325
 21
469.8543749483
  0
LINE
  5
477
100
AcDbEntity
  8
0
100
AcDbLine
 62
7
  6
CONTINUOUS
 10
1562.3824090325
 20
469.8543749483
 11
1562.3824090325
 21
468.6543749483
  0
LINE
  5
478
100
AcDbEntity
  8
0
100
AcDbLine
 62
7
  6
CONTINUOUS
 10
1562.3824090325
 20
468.0543749483
 11
1562.3824090325
 21
466.8543749483
  0
LINE
  5
479
100
AcDbEntity
  8
0
100
AcDbLine
 62
7
  6
CONTINUOUS
 10
1563.5824090325
 20
468.6543749483
 11
1563.5824090325
 21
468.0543749483
  0
LINE
  5
47A
100
AcDbEntity
  8
06___PRT_ALL_SURFS
100
AcDbLine
 62
7
  6
CONTINUOUS
 10
1574.0824090325
 20
475.8543749483
 11
1574.0824090325
 21
445.1543749483
  0
LINE
  5
47B
100
AcDbEntity
  8
0
100
AcDbLine
 62
7
  6
CONTINUOUS
 10
1575.8824090325
 20
477.4169460423
 11
1575.8824090325
 21
495.2918038543
  0
LINE
  5
47C
100
AcDbEntity
  8
0
100
AcDbLine
 62
7
  6
CONTINUOUS
 10
1579.8824090325
 20
472.3543749483
 11
1579.8824090325
 21
530.3543749483
  0
LINE
  5
47D
100
AcDbEntity
  8
0
100
AcDbLine
 62
9
  6
CONTINUOUS
 10
1587.6158490177
 20
460.8538326748
 11
1587.6158490248
 21
453.855569732
  0
LINE
  5
47E
100
AcDbEntity
  8
0
100
AcDbLine
 62
9
  6
CONTINUOUS
 10
1587.6158490179
 20
541.854917218
 11
1587.6158490218
 21
548.8531801482
  0
LINE
  5
47F
100
AcDbEntity
  8
0
100
AcDbLine
 62
7
  6
CONTINUOUS
 10
1590.0842131494
 20
465.8172508771
 11
1590.0842131494
 21
536.8914989872
  0
LINE
  5
480
100
AcDbEntity
  8
0
100
AcDbLine
 62
7
  6
CONTINUOUS
 10
1592.5842131494
 20
465.8172508894
 11
1592.5842131494
 21
536.8914989749
  0
LINE
  5
481
100
AcDbEntity
  8
0
100
AcDbLine
 62
7
  6
CONTINUOUS
 10
1599.5755075406
 20
465.8172508894
 11
1599.5755075406
 21
536.8914989749
  0
LINE
  5
482
100
AcDbEntity
  8
0
100
AcDbLine
 62
7
  6
CONTINUOUS
 10
200.1309031398
 20
226.7992408688
 11
195.0642149811
 21
284.7117515243
  0
LINE
  5
483
100
AcDbEntity
  8
0
100
AcDbLine
 62
7
  6
CONTINUOUS
 10
202.2213086507
 20
284.9960984622
 11
202.0566327158
 21
286.8858998714
  0
LINE
  5
484
100
AcDbEntity
  8
0
100
AcDbLine
 62
7
  6
CONTINUOUS
 10
197.2214893256
 20
284.9919496761
 11
197.0566043774
 21
286.8858998714
  0
LINE
  5
485
100
AcDbEntity
  8
0
100
AcDbLine
 62
9
  6
CONTINUOUS
 10
207.322060024
 20
281.8287070415
 11
207.322060024
 21
283.8903616378
  0
LINE
  5
486
100
AcDbEntity
  8
0
100
AcDbLine
 62
7
  6
CONTINUOUS
 10
200.1339843334
 20
226.7893892482
 11
200.1309031398
 21
226.7992408688
  0
LINE
  5
487
100
AcDbEntity
  8
0
100
AcDbLine
 62
9
  6
CONTINUOUS
 10
207.322060024
 20
281.8287070445
 11
212.0905616557
 21
226.8849338068
  0
LINE
  5
488
100
AcDbEntity
  8
0
100
AcDbLine
 62
9
  6
CONTINUOUS
 10
212.0905616627
 20
213.8858998555
 11
212.0905616556
 21
226.8849337915
  0
LINE
  5
489
100
AcDbEntity
  8
06___PRT_ALL_SURFS
100
AcDbLine
 62
7
  6
CONTINUOUS
 10
225.6240016479
 20
206.7443482311
 11
225.6240016479
 21
280.0858998714
  0
LINE
  5
48A
100
AcDbEntity
  8
06___PRT_ALL_SURFS
100
AcDbLine
 62
7
  6
CONTINUOUS
 10
227.4240016479
 20
217.6858998714
 11
227.4240016479
 21
221.0858998714
  0
LINE
  5
48B
100
AcDbEntity
  8
06___PRT_ALL_SURFS
100
AcDbLine
 62
7
  6
CONTINUOUS
 10
227.4240016479
 20
269.6858998714
 11
227.4240016479
 21
273.0858998714
  0
LINE
  5
48C
100
AcDbEntity
  8
0
100
AcDbLine
 62
7
  6
CONTINUOUS
 10
207.122197531
 20
213.8858998714
 11
200.1309031398
 21
226.7992408688
  0
LINE
  5
48D
100
AcDbEntity
  8
0
100
AcDbLine
 62
7
  6
CONTINUOUS
 10
197.0563014186
 20
286.8858998712
 11
195.0642017279
 21
284.7119030091
  0
LINE
  5
48E
100
AcDbEntity
  8
0
100
AcDbLine
 62
9
  6
CONTINUOUS
 10
195.2290999294
 20
282.8271079413
 11
197.2214893256
 21
284.9919496758
  0
LINE
  5
48F
100
AcDbEntity
  8
06___PRT_ALL_SURFS
100
AcDbLine
 62
7
  6
CONTINUOUS
 10
247.8240016479
 20
273.0858998714
 11
247.8240016479
 21
269.6858998714
  0
LINE
  5
490
100
AcDbEntity
  8
06___PRT_ALL_SURFS
100
AcDbLine
 62
7
  6
CONTINUOUS
 10
247.8240016479
 20
221.0858998714
 11
247.8240016479
 21
217.6858998714
  0
LINE
  5
491
100
AcDbEntity
  8
06___PRT_ALL_SURFS
100
AcDbLine
 62
7
  6
CONTINUOUS
 10
249.6240016479
 20
206.7443482311
 11
249.6240016479
 21
280.0858998714
  0
LINE
  5
492
100
AcDbEntity
  8
06___PRT_ALL_SURFS
100
AcDbLine
 62
7
  6
CONTINUOUS
 10
682.6240016479
 20
206.7439725103
 11
672.9069322347
 21
206.7439725103
  0
LINE
  5
493
100
AcDbEntity
  8
06___PRT_ALL_SURFS
100
AcDbLine
 62
7
  6
CONTINUOUS
 10
668.3410710611
 20
206.7439725103
 11
658.6240016479
 21
206.7439725103
  0
LINE
  5
494
100
AcDbEntity
  8
06___PRT_ALL_SURFS
100
AcDbLine
 62
7
  6
CONTINUOUS
 10
249.6240016479
 20
206.7439725103
 11
239.9069322347
 21
206.7439725103
  0
LINE
  5
495
100
AcDbEntity
  8
06___PRT_ALL_SURFS
100
AcDbLine
 62
7
  6
CONTINUOUS
 10
235.3410710611
 20
206.7439725103
 11
225.6240016479
 21
206.7439725103
  0
LINE
  5
496
100
AcDbEntity
  8
06___PRT_ALL_SURFS
100
AcDbLine
 62
9
  6
CONTINUOUS
 10
682.6240016479
 20
207.0540305791
 11
658.6240016479
 21
207.0540305791
  0
LINE
  5
497
100
AcDbEntity
  8
06___PRT_ALL_SURFS
100
AcDbLine
 62
9
  6
CONTINUOUS
 10
225.6240016479
 20
207.0540305791
 11
249.6240016479
 21
207.0540305791
  0
LINE
  5
498
100
AcDbEntity
  8
06___PRT_ALL_SURFS
100
AcDbLine
 62
7
  6
CONTINUOUS
 10
682.6240016479
 20
212.7858998714
 11
658.6240016479
 21
212.7858998714
  0
LINE
  5
499
100
AcDbEntity
  8
06___PRT_ALL_SURFS
100
AcDbLine
 62
7
  6
CONTINUOUS
 10
225.6240016479
 20
212.7858998714
 11
249.6240016479
 21
212.7858998714
  0
LINE
  5
49A
100
AcDbEntity
  8
0
100
AcDbLine
 62
7
  6
CONTINUOUS
 10
701.1258057648
 20
213.8858998714
 11
682.6240016479
 21
213.8858998714
  0
LINE
  5
49B
100
AcDbEntity
  8
0
100
AcDbLine
 62
7
  6
CONTINUOUS
 10
658.6240016479
 20
213.8858998714
 11
249.6240016479
 21
213.8858998714
  0
LINE
  5
49C
100
AcDbEntity
  8
0
100
AcDbLine
 62
7
  6
CONTINUOUS
 10
225.6240016479
 20
213.8858998714
 11
207.122197531
 21
213.8858998714
  0
LINE
  5
49D
100
AcDbEntity
  8
06___PRT_ALL_SURFS
100
AcDbLine
 62
7
  6
CONTINUOUS
 10
247.8240016479
 20
217.6858998714
 11
227.4240016479
 21
217.6858998714
  0
LINE
  5
49E
100
AcDbEntity
  8
06___PRT_ALL_SURFS
100
AcDbLine
 62
7
  6
CONTINUOUS
 10
660.4240016479
 20
217.6858998714
 11
680.8240016479
 21
217.6858998714
  0
LINE
  5
49F
100
AcDbEntity
  8
06___PRT_ALL_SURFS
100
AcDbLine
 62
7
  6
CONTINUOUS
 10
680.8240016479
 20
221.0858998714
 11
660.4240016479
 21
221.0858998714
  0
LINE
  5
4A0
100
AcDbEntity
  8
06___PRT_ALL_SURFS
100
AcDbLine
 62
7
  6
CONTINUOUS
 10
227.4240016479
 20
221.0858998714
 11
247.8240016479
 21
221.0858998714
  0
LINE
  5
4A1
100
AcDbEntity
  8
0
100
AcDbLine
 62
7
  6
CONTINUOUS
 10
225.6240016479
 20
226.8849337277
 11
212.0905616556
 21
226.8849337915
  0
LINE
  5
4A2
100
AcDbEntity
  8
0
100
AcDbLine
 62
7
  6
CONTINUOUS
 10
696.1574416372
 20
226.884933761
 11
682.6240016479
 21
226.8849337277
  0
LINE
  5
4A3
100
AcDbEntity
  8
0
100
AcDbLine
 62
7
  6
CONTINUOUS
 10
658.6240016479
 20
226.8849337277
 11
249.6240016479
 21
226.8849337277
  0
LINE
  5
4A4
100
AcDbEntity
  8
06___PRT_ALL_SURFS
100
AcDbLine
 62
7
  6
CONTINUOUS
 10
247.8240016479
 20
269.6858998714
 11
227.4240016479
 21
269.6858998714
  0
LINE
  5
4A5
100
AcDbEntity
  8
06___PRT_ALL_SURFS
100
AcDbLine
 62
7
  6
CONTINUOUS
 10
660.4240016479
 20
269.6858998714
 11
680.8240016479
 21
269.6858998714
  0
LINE
  5
4A6
100
AcDbEntity
  8
06___PRT_ALL_SURFS
100
AcDbLine
 62
7
  6
CONTINUOUS
 10
680.8240016479
 20
273.0858998714
 11
660.4240016479
 21
273.0858998714
  0
LINE
  5
4A7
100
AcDbEntity
  8
06___PRT_ALL_SURFS
100
AcDbLine
 62
7
  6
CONTINUOUS
 10
227.4240016479
 20
273.0858998714
 11
247.8240016479
 21
273.0858998714
  0
LINE
  5
4A8
100
AcDbEntity
  8
06___PRT_ALL_SURFS
100
AcDbLine
 62
7
  6
CONTINUOUS
 10
682.6240016479
 20
280.0858998714
 11
658.6240016479
 21
280.0858998714
  0
LINE
  5
4A9
100
AcDbEntity
  8
06___PRT_ALL_SURFS
100
AcDbLine
 62
7
  6
CONTINUOUS
 10
225.6240016479
 20
280.0858998714
 11
249.6240016479
 21
280.0858998714
  0
LINE
  5
4AA
100
AcDbEntity
  8
0
100
AcDbLine
 62
7
  6
CONTINUOUS
 10
700.9259432715
 20
281.8287070369
 11
207.322060024
 21
281.8287070415
  0
LINE
  5
4AB
100
AcDbEntity
  8
0
100
AcDbLine
 62
7
  6
CONTINUOUS
 10
700.9259432725
 20
283.8903616586
 11
207.322060024
 21
283.8903616378
  0
LINE
  5
4AC
100
AcDbEntity
  8
0
100
AcDbLine
 62
7
  6
CONTINUOUS
 10
700.9259432882
 20
284.4738257199
 11
207.3220600243
 21
284.4738257159
  0
LINE
  5
4AD
100
AcDbEntity
  8
02___PRT_ALL_AXES
100
AcDbLine
 62
7
  6
CONTINUOUS
 10
711.1917018756
 20
286.8858998714
 11
706.1913892488
 21
286.8858998714
  0
LINE
  5
4AE
100
AcDbEntity
  8
02___PRT_ALL_AXES
100
AcDbLine
 62
7
  6
CONTINUOUS
 10
202.056614047
 20
286.8858998714
 11
197.0563014188
 21
286.8858998714
  0
LINE
  5
4AF
100
AcDbEntity
  8
06___PRT_ALL_SURFS
100
AcDbLine
 62
7
  6
CONTINUOUS
 10
658.6240016479
 20
206.7443482311
 11
658.6240016479
 21
280.0858998714
  0
LINE
  5
4B0
100
AcDbEntity
  8
06___PRT_ALL_SURFS
100
AcDbLine
 62
7
  6
CONTINUOUS
 10
660.4240016479
 20
273.0858998714
 11
660.4240016479
 21
269.6858998714
  0
LINE
  5
4B1
100
AcDbEntity
  8
06___PRT_ALL_SURFS
100
AcDbLine
 62
7
  6
CONTINUOUS
 10
660.4240016479
 20
221.0858998714
 11
660.4240016479
 21
217.6858998714
  0
LINE
  5
4B2
100
AcDbEntity
  8
06___PRT_ALL_SURFS
100
AcDbLine
 62
7
  6
CONTINUOUS
 10
680.8240016479
 20
217.6858998714
 11
680.8240016479
 21
221.0858998714
  0
LINE
  5
4B3
100
AcDbEntity
  8
06___PRT_ALL_SURFS
100
AcDbLine
 62
7
  6
CONTINUOUS
 10
680.8240016479
 20
269.6858998714
 11
680.8240016479
 21
273.0858998714
  0
LINE
  5
4B4
100
AcDbEntity
  8
06___PRT_ALL_SURFS
100
AcDbLine
 62
7
  6
CONTINUOUS
 10
682.6240016479
 20
206.7443482311
 11
682.6240016479
 21
280.0858998714
  0
LINE
  5
4B5
100
AcDbEntity
  8
0
100
AcDbLine
 62
9
  6
CONTINUOUS
 10
713.018903367
 20
282.8271079477
 11
711.0265139708
 21
284.9919496822
  0
LINE
  5
4B6
100
AcDbEntity
  8
0
100
AcDbLine
 62
7
  6
CONTINUOUS
 10
713.1838015678
 20
284.7119030077
 11
711.1917018758
 21
286.8858998712
  0
LINE
  5
4B7
100
AcDbEntity
  8
0
100
AcDbLine
 62
9
  6
CONTINUOUS
 10
696.1574416333
 20
213.8858998484
 11
696.1574416372
 21
226.884933761
  0
LINE
  5
4B8
100
AcDbEntity
  8
0
100
AcDbLine
 62
9
  6
CONTINUOUS
 10
700.9259432715
 20
281.8287070369
 11
700.9259432725
 21
283.8903616586
  0
LINE
  5
4B9
100
AcDbEntity
  8
0
100
AcDbLine
 62
9
  6
CONTINUOUS
 10
696.1574416372
 20
226.884933769
 11
700.9259432715
 21
281.8287070362
  0
LINE
  5
4BA
100
AcDbEntity
  8
0
100
AcDbLine
 62
7
  6
CONTINUOUS
 10
706.1913862301
 20
286.8859178734
 11
706.0266946455
 21
284.9960984666
  0
LINE
  5
4BB
100
AcDbEntity
  8
0
100
AcDbLine
 62
7
  6
CONTINUOUS
 10
711.1913989184
 20
286.8858998712
 11
711.0265139706
 21
284.9919496804
  0
LINE
  5
4BC
100
AcDbEntity
  8
0
100
AcDbLine
 62
7
  6
CONTINUOUS
 10
713.1837883146
 20
284.7117515229
 11
708.117100156
 21
226.7992408688
  0
LINE
  5
4BD
100
AcDbEntity
  8
0
100
AcDbLine
 62
7
  6
CONTINUOUS
 10
708.117100156
 20
226.7992408688
 11
708.1140183566
 21
226.789388108
  0
LINE
  5
4BE
100
AcDbEntity
  8
0
100
AcDbLine
 62
7
  6
CONTINUOUS
 10
701.1258057648
 20
213.8858998714
 11
708.117100156
 21
226.7992408688
  0
ARC
  5
4BF
100
AcDbEntity
  8
0
100
AcDbCircle
 62
9
  6
CONTINUOUS
 10
1454.5707958739
 20
-461.9615545209
 40
1381.8326566032
100
AcDbArc
 50
95.6351289237
 51
97.8066774237
  0
ARC
  5
4C0
100
AcDbEntity
  8
0
100
AcDbCircle
 62
9
  6
CONTINUOUS
 10
1457.8187930078
 20
-465.1610086548
 40
1371.4307928019
100
AcDbArc
 50
95.5645226772
 51
97.7962216962
  0
ARC
  5
4C1
100
AcDbEntity
  8
0
100
AcDbCircle
 62
9
  6
CONTINUOUS
 10
1298.8406453361
 20
2168.970664621
 40
1345.8782459377
100
AcDbArc
 50
268.8626237121
 51
271.1225451217
  0
ARC
  5
4C2
100
AcDbEntity
  8
0
100
AcDbCircle
 62
7
  6
CONTINUOUS
 10
1271.1403691214
 20
2064.5663139939
 40
1249.5531632286
100
AcDbArc
 50
269.0262535662
 51
269.5695767107
  0
ARC
  5
4C3
100
AcDbEntity
  8
0
100
AcDbCircle
 62
7
  6
CONTINUOUS
 10
1092.6698459319
 20
2124.1090595706
 40
1249.5531632287
100
AcDbArc
 50
269.0262535662
 51
269.5695767107
  0
ARC
  5
4C4
100
AcDbEntity
  8
0
100
AcDbCircle
 62
9
  6
CONTINUOUS
 10
1274.355979397
 20
-204.9064690085
 40
1196.5766270056
100
AcDbArc
 50
97.6770037548
 51
99.9619051999
  0
ARC
  5
4C5
100
AcDbEntity
  8
0
100
AcDbCircle
 62
7
  6
CONTINUOUS
 10
1312.7254583869
 20
821.3421285765
 40
11.9202038539
100
AcDbArc
 50
334.0456752647
 51
334.2360393593
  0
ARC
  5
4C6
100
AcDbEntity
  8
0
100
AcDbCircle
 62
7
  6
CONTINUOUS
 10
1247.6491149095
 20
830.3536880214
 40
6.504418325
100
AcDbArc
 50
180.8942024314
 51
187.2383966276
  0
ARC
  5
4C7
100
AcDbEntity
  8
0
100
AcDbCircle
 62
7
  6
CONTINUOUS
 10
1069.1769744307
 20
889.8963347883
 40
6.5027995462
100
AcDbArc
 50
180.8944991696
 51
187.422965102
  0
ARC
  5
4C8
100
AcDbEntity
  8
0
100
AcDbCircle
 62
7
  6
CONTINUOUS
 10
1247.4700814586
 20
830.3504232143
 40
6.3253557438
100
AcDbArc
 50
180.279252105
 51
180.889941606
  0
ARC
  5
4C9
100
AcDbEntity
  8
0
100
AcDbCircle
 62
7
  6
CONTINUOUS
 10
1068.9970677695
 20
889.893157559
 40
6.3228652192
100
AcDbArc
 50
180.2792603427
 51
180.8911621031
  0
ARC
  5
4CA
100
AcDbEntity
  8
0
100
AcDbCircle
 62
7
  6
CONTINUOUS
 10
1068.9002633106
 20
889.8928187901
 40
6.2260602603
100
AcDbArc
 50
178.8446899228
 51
180.2804848081
  0
ARC
  5
4CB
100
AcDbEntity
  8
0
100
AcDbCircle
 62
7
  6
CONTINUOUS
 10
1247.3681162957
 20
830.3500607218
 40
6.2233900267
100
AcDbArc
 50
178.8376187616
 51
180.2804901258
  0
ARC
  5
4CC
100
AcDbEntity
  8
0
100
AcDbCircle
 62
7
  6
CONTINUOUS
 10
1068.7946375337
 20
889.894901122
 40
6.1204139706
100
AcDbArc
 50
177.822387311
 51
178.8442426191
  0
ARC
  5
4CD
100
AcDbEntity
  8
0
100
AcDbCircle
 62
7
  6
CONTINUOUS
 10
1247.263008976
 20
830.3521435747
 40
6.1182620837
100
AcDbArc
 50
177.8161497394
 51
178.8371525715
  0
ARC
  5
4CE
100
AcDbEntity
  8
0
100
AcDbCircle
 62
7
  6
CONTINUOUS
 10
1068.3504063567
 20
889.9178908576
 40
5.6756333216
100
AcDbArc
 50
172.8168755808
 51
177.8839016937
  0
ARC
  5
4CF
100
AcDbEntity
  8
0
100
AcDbCircle
 62
7
  6
CONTINUOUS
 10
1246.8049895969
 20
830.3761906064
 40
5.6596628462
100
AcDbArc
 50
172.6246527179
 51
177.8827242431
  0
ARC
  5
4D0
100
AcDbEntity
  8
0
100
AcDbCircle
 62
9
  6
CONTINUOUS
 10
1068.2541558168
 20
889.8280256059
 40
5.491055961
100
AcDbArc
 50
180.2947156216
 51
186.9122397895
  0
ARC
  5
4D1
100
AcDbEntity
  8
0
100
AcDbCircle
 62
9
  6
CONTINUOUS
 10
1246.7246786158
 20
830.2852797802
 40
5.4910555691
100
AcDbArc
 50
180.2947130433
 51
186.9152790009
  0
ARC
  5
4D2
100
AcDbEntity
  8
02___PRT_ALL_AXES
100
AcDbCircle
 62
7
  6
CONTINUOUS
 10
1246.6330150392
 20
831.7750864574
 40
4.9549471648
100
AcDbArc
 50
159.8034899642
 51
162.5406058385
  0
ARC
  5
4D3
100
AcDbEntity
  8
02___PRT_ALL_AXES
100
AcDbCircle
 62
7
  6
CONTINUOUS
 10
1068.1624143353
 20
891.3178578067
 40
4.9548654889
100
AcDbArc
 50
159.8028728729
 51
162.540621204
  0
ARC
  5
4D4
100
AcDbEntity
  8
0
100
AcDbCircle
 62
7
  6
CONTINUOUS
 10
4779.1312305714
 20
501.3543749483
 40
4582.0746883952
100
AcDbArc
 50
179.5138388419
 51
180.4861611586
  0
ARC
  5
4D5
100
AcDbEntity
  8
0
100
AcDbCircle
 62
7
  6
CONTINUOUS
 10
-3870.8831307064
 20
501.3543749482
 40
4582.0745918296
100
AcDbArc
 50
359.5138388317
 51
0.4861611689
  0
ARC
  5
4D6
100
AcDbEntity
  8
0
100
AcDbCircle
 62
7
  6
CONTINUOUS
 10
-3871.8116195857
 20
501.3543749482
 40
4578.0030472923
100
AcDbArc
 50
359.513938438
 51
0.4860615625
  0
ARC
  5
4D7
100
AcDbEntity
  8
0
100
AcDbCircle
 62
7
  6
CONTINUOUS
 10
4780.0596191645
 20
501.3543749483
 40
4578.0030435755
100
AcDbArc
 50
179.5139384377
 51
180.4860615629
  0
ARC
  5
4D8
100
AcDbEntity
  8
0
100
AcDbCircle
 62
7
  6
CONTINUOUS
 10
4731.4337657251
 20
501.3543749483
 40
4536.3696129343
100
AcDbArc
 50
179.5113958826
 51
180.488604118
  0
ARC
  5
4D9
100
AcDbEntity
  8
0
100
AcDbCircle
 62
7
  6
CONTINUOUS
 10
-3823.1856668283
 20
501.3543749482
 40
4536.3695173369
100
AcDbArc
 50
359.5113958723
 51
0.4886041283
  0
CIRCLE
  5
4DA
100
AcDbEntity
  8
02___PRT_ALL_AXES
100
AcDbCircle
 62
7
  6
CONTINUOUS
 10
510.1201950178
 20
501.3543748879
 40
15.0022500985
  0
CIRCLE
  5
4DB
100
AcDbEntity
  8
02___PRT_ALL_AXES
100
AcDbCircle
 62
7
  6
CONTINUOUS
 10
437.0256375493
 20
501.3543740862
 40
8.9998575935
  0
ARC
  5
4DC
100
AcDbEntity
  8
0
100
AcDbCircle
 62
7
  6
CONTINUOUS
 10
470.1240016479
 20
461.3543749483
 40
3.0
100
AcDbArc
 50
270.0
 51
90.0
  0
ARC
  5
4DD
100
AcDbEntity
  8
0
100
AcDbCircle
 62
7
  6
CONTINUOUS
 10
438.1240016479
 20
461.3543749483
 40
3.0
100
AcDbArc
 50
90.0
 51
270.0
  0
ARC
  5
4DE
100
AcDbEntity
  8
0
100
AcDbCircle
 62
7
  6
CONTINUOUS
 10
813.6037883721
 20
-946.9282889223
 40
1500.0
100
AcDbArc
 50
85.7019203918
 51
87.8041104024
  0
ARC
  5
4DF
100
AcDbEntity
  8
0
100
AcDbCircle
 62
7
  6
CONTINUOUS
 10
813.6037883721
 20
1949.637038819
 40
1500.0000000002
100
AcDbArc
 50
272.1958895979
 51
274.7961754691
  0
ARC
  5
4E0
100
AcDbEntity
  8
0
100
AcDbCircle
 62
9
  6
CONTINUOUS
 10
814.6421366748
 20
1949.7709587413
 40
1488.1341069225
100
AcDbArc
 50
272.1349326576
 51
274.295633168
  0
ARC
  5
4E1
100
AcDbEntity
  8
0
100
AcDbCircle
 62
9
  6
CONTINUOUS
 10
814.6421408606
 20
-947.0621289507
 40
1488.1340269726
100
AcDbArc
 50
85.7043667624
 51
87.8650673887
  0
ARC
  5
4E2
100
AcDbEntity
  8
0
100
AcDbCircle
 62
7
  6
CONTINUOUS
 10
1266.0207782633
 20
501.3543749483
 40
400.0
100
AcDbArc
 50
172.9835655203
 51
187.0164344744
  0
ARC
  5
4E3
100
AcDbEntity
  8
0
100
AcDbCircle
 62
7
  6
CONTINUOUS
 10
1266.244971269
 20
501.3543749483
 40
398.049645367
100
AcDbArc
 50
174.4228916676
 51
185.5771083259
  0
ARC
  5
4E4
100
AcDbEntity
  8
06___PRT_ALL_SURFS
100
AcDbCircle
 62
7
  6
CONTINUOUS
 10
940.1627056243
 20
464.188954449
 40
6.0
100
AcDbArc
 50
341.5
 51
22.0
  0
ARC
  5
4E5
100
AcDbEntity
  8
0
100
AcDbCircle
 62
7
  6
CONTINUOUS
 10
-2931.7273550438
 20
501.3543749483
 40
4536.3696129334
100
AcDbArc
 50
359.511395882
 51
0.4886041174
  0
ARC
  5
4E6
100
AcDbEntity
  8
0
100
AcDbCircle
 62
7
  6
CONTINUOUS
 10
1103.5981052431
 20
465.8642117733
 40
12.008838321
100
AcDbArc
 50
180.2240561954
 51
269.7655620505
  0
CIRCLE
  5
4E7
100
AcDbEntity
  8
02___PRT_ALL_AXES
100
AcDbCircle
 62
7
  6
CONTINUOUS
 10
1270.5824090325
 20
480.7043749483
 40
5.2
  0
CIRCLE
  5
4E8
100
AcDbEntity
  8
02___PRT_ALL_AXES
100
AcDbCircle
 62
7
  6
CONTINUOUS
 10
1129.0824090325
 20
468.3543749483
 40
4.75
  0
CIRCLE
  5
4E9
100
AcDbEntity
  8
0
100
AcDbCircle
 62
7
  6
CONTINUOUS
 10
1129.0824090325
 20
468.3543749483
 40
4.0
  0
CIRCLE
  5
4EA
100
AcDbEntity
  8
0
100
AcDbCircle
 62
7
  6
CONTINUOUS
 10
1129.0824090325
 20
468.3543749483
 40
3.25
  0
CIRCLE
  5
4EB
100
AcDbEntity
  8
0
100
AcDbCircle
 62
9
  6
CONTINUOUS
 10
1129.0824090325
 20
468.3543749483
 40
2.25
  0
CIRCLE
  5
4EC
100
AcDbEntity
  8
02___PRT_ALL_AXES
100
AcDbCircle
 62
7
  6
CONTINUOUS
 10
1270.5824090325
 20
480.7043749483
 40
1.75
  0
ARC
  5
4ED
100
AcDbEntity
  8
0
100
AcDbCircle
 62
7
  6
CONTINUOUS
 10
1103.5981109703
 20
536.8445339408
 40
12.0088441229
100
AcDbArc
 50
90.2344652215
 51
179.7759237979
  0
CIRCLE
  5
4EE
100
AcDbEntity
  8
02___PRT_ALL_AXES
100
AcDbCircle
 62
7
  6
CONTINUOUS
 10
1270.5824090325
 20
522.0043749483
 40
5.2
  0
CIRCLE
  5
4EF
100
AcDbEntity
  8
02___PRT_ALL_AXES
100
AcDbCircle
 62
7
  6
CONTINUOUS
 10
1270.5824090325
 20
522.0043749483
 40
1.75
  0
ARC
  5
4F0
100
AcDbEntity
  8
0
100
AcDbCircle
 62
7
  6
CONTINUOUS
 10
5622.8920775087
 20
501.3543749482
 40
4536.3695173369
100
AcDbArc
 50
179.5113958717
 51
180.4886041277
  0
ARC
  5
4F1
100
AcDbEntity
  8
0
100
AcDbCircle
 62
7
  6
CONTINUOUS
 10
1587.5667064422
 20
465.8642132813
 40
12.0088423008
100
AcDbArc
 50
270.2344683869
 51
359.7759365728
  0
CIRCLE
  5
4F2
100
AcDbEntity
  8
02___PRT_ALL_AXES
100
AcDbCircle
 62
7
  6
CONTINUOUS
 10
1420.5824090325
 20
480.7043749483
 40
5.2
  0
CIRCLE
  5
4F3
100
AcDbEntity
  8
02___PRT_ALL_AXES
100
AcDbCircle
 62
7
  6
CONTINUOUS
 10
1562.0824090325
 20
468.3543749483
 40
4.75
  0
CIRCLE
  5
4F4
100
AcDbEntity
  8
0
100
AcDbCircle
 62
7
  6
CONTINUOUS
 10
1562.0824090325
 20
468.3543749483
 40
4.0
  0
CIRCLE
  5
4F5
100
AcDbEntity
  8
0
100
AcDbCircle
 62
7
  6
CONTINUOUS
 10
1562.0824090325
 20
468.3543749483
 40
3.25
  0
CIRCLE
  5
4F6
100
AcDbEntity
  8
0
100
AcDbCircle
 62
9
  6
CONTINUOUS
 10
1562.0824090325
 20
468.3543749483
 40
2.25
  0
CIRCLE
  5
4F7
100
AcDbEntity
  8
02___PRT_ALL_AXES
100
AcDbCircle
 62
7
  6
CONTINUOUS
 10
1420.5824090325
 20
480.7043749483
 40
1.75
  0
CIRCLE
  5
4F8
100
AcDbEntity
  8
02___PRT_ALL_AXES
100
AcDbCircle
 62
7
  6
CONTINUOUS
 10
1493.5824090325
 20
481.3543749483
 40
1.1
  0
ARC
  5
4F9
100
AcDbEntity
  8
0
100
AcDbCircle
 62
7
  6
CONTINUOUS
 10
1587.5667127169
 20
536.8445382288
 40
12.0088383212
100
AcDbArc
 50
0.2240556923
 51
89.7655615469
  0
CIRCLE
  5
4FA
100
AcDbEntity
  8
02___PRT_ALL_AXES
100
AcDbCircle
 62
7
  6
CONTINUOUS
 10
1420.5824090325
 20
522.0043749483
 40
5.2
  0
CIRCLE
  5
4FB
100
AcDbEntity
  8
02___PRT_ALL_AXES
100
AcDbCircle
 62
7
  6
CONTINUOUS
 10
1493.5824090325
 20
521.3543749483
 40
2.75
  0
CIRCLE
  5
4FC
100
AcDbEntity
  8
02___PRT_ALL_AXES
100
AcDbCircle
 62
7
  6
CONTINUOUS
 10
1420.5824090325
 20
522.0043749483
 40
1.75
  0
ARC
  5
4FD
100
AcDbEntity
  8
02___PRT_ALL_AXES
100
AcDbCircle
 62
7
  6
CONTINUOUS
 10
1495.9074090325
 20
512.7705647413
 40
1.0
100
AcDbArc
 50
270.0
 51
90.0
  0
ARC
  5
4FE
100
AcDbEntity
  8
02___PRT_ALL_AXES
100
AcDbCircle
 62
7
  6
CONTINUOUS
 10
1495.9074090325
 20
512.7705647413
 40
0.6
100
AcDbArc
 50
270.0
 51
90.0
  0
SPLINE
  5
4FF
100
AcDbEntity
  8
0
100
AcDbSpline
 62
7
  6
CONTINUOUS
 70
0
 71
3
 72
9
 73
5
 74
0
 42
0.0000001
 43
0.0000001
 44
0.0000000001
 40
0.0
 40
0.0
 40
0.0
 40
0.0
 40
0.2717149947
 40
1.0
 40
1.0
 40
1.0
 40
1.0
 10
1241.1921520413
 20
831.1027152847
 30
0.0
 10
1241.2162873122
 20
831.2873811131
 30
0.0
 10
1241.3380159538
 20
831.9555969784
 30
0.0
 10
1241.6584357612
 20
832.6369246218
 30
0.0
 10
1242.050799241
 20
832.9455115427
 30
0.0
  0
SPLINE
  5
500
100
AcDbEntity
  8
0
100
AcDbSpline
 62
7
  6
CONTINUOUS
 70
0
 71
3
 72
8
 73
4
 74
0
 42
0.0000001
 43
0.0000001
 44
0.0000000001
 40
0.0
 40
0.0
 40
0.0
 40
0.0
 40
1.0
 40
1.0
 40
1.0
 40
1.0
 10
1241.3321558415
 20
828.8130970414
 30
0.0
 10
1241.2719691719
 20
829.050138998
 30
0.0
 10
1241.2273481682
 20
829.2915293889
 30
0.0
 10
1241.1965336323
 20
829.5341438748
 30
0.0
  0
SPLINE
  5
501
100
AcDbEntity
  8
0
100
AcDbSpline
 62
7
  6
CONTINUOUS
 70
0
 71
3
 72
9
 73
5
 74
0
 42
0.0000001
 43
0.0000001
 44
0.0000000001
 40
0.0
 40
0.0
 40
0.0
 40
0.0
 40
0.2510651851
 40
1.0
 40
1.0
 40
1.0
 40
1.0
 10
1326.3596505763
 20
823.5785520302
 30
0.0
 10
1326.9253564755
 20
829.9896235746
 30
0.0
 10
1328.5892970107
 20
855.5734299079
 30
0.0
 10
1327.8772369039
 20
881.3137912808
 30
0.0
 10
1325.9859881731
 20
900.4191341179
 30
0.0
  0
SPLINE
  5
502
100
AcDbEntity
  8
0
100
AcDbSpline
 62
7
  6
CONTINUOUS
 70
0
 71
3
 72
10
 73
6
 74
0
 42
0.0000001
 43
0.0000001
 44
0.0000000001
 40
0.0
 40
0.0
 40
0.0
 40
0.0
 40
0.5645149692
 40
0.8088885796
 40
1.0
 40
1.0
 40
1.0
 40
1.0
 10
1325.9859881731
 20
900.4191341179
 30
0.0
 10
1325.7716118542
 20
902.5847578152
 30
0.0
 10
1325.0575399997
 20
905.6799292903
 30
0.0
 10
1323.3813604643
 20
909.1574799111
 30
0.0
 10
1322.3441906898
 20
910.5164233019
 30
0.0
 10
1321.783227322
 20
910.9940209128
 30
0.0
  0
SPLINE
  5
503
100
AcDbEntity
  8
0
100
AcDbSpline
 62
7
  6
CONTINUOUS
 70
0
 71
3
 72
9
 73
5
 74
0
 42
0.0000001
 43
0.0000001
 44
0.0000000001
 40
0.0
 40
0.0
 40
0.0
 40
0.0
 40
0.2409370139
 40
1.0
 40
1.0
 40
1.0
 40
1.0
 10
1063.5798973868
 20
892.4879127607
 30
0.0
 10
1063.4483866544
 20
892.3844435527
 30
0.0
 10
1062.9722380534
 20
891.8639337592
 30
0.0
 10
1062.785835055
 20
891.150546692
 30
0.0
 10
1062.7193178275
 20
890.6275778156
 30
0.0
  0
SPLINE
  5
504
100
AcDbEntity
  8
0
100
AcDbSpline
 62
7
  6
CONTINUOUS
 70
0
 71
3
 72
8
 73
4
 74
0
 42
0.0000001
 43
0.0000001
 44
0.0000000001
 40
0.0
 40
0.0
 40
0.0
 40
0.0
 40
1.0
 40
1.0
 40
1.0
 40
1.0
 10
1062.7286718607
 20
889.0562181869
 30
0.0
 10
1062.759287075
 20
888.8212748843
 30
0.0
 10
1062.8028991984
 20
888.5875435227
 30
0.0
 10
1062.8611187943
 20
888.3578782762
 30
0.0
  0
SPLINE
  5
505
100
AcDbEntity
  8
0
100
AcDbSpline
 62
7
  6
CONTINUOUS
 70
0
 71
3
 72
9
 73
5
 74
0
 42
0.0000001
 43
0.0000001
 44
0.0000000001
 40
0.0
 40
0.0
 40
0.0
 40
0.0
 40
0.2232238954
 40
1.0
 40
1.0
 40
1.0
 40
1.0
 10
1063.5345899684
 20
892.9518300438
 30
0.0
 10
1063.4955497017
 20
892.8866376986
 30
0.0
 10
1063.3354876436
 20
892.5856991819
 30
0.0
 10
1063.2276779061
 20
892.2593141012
 30
0.0
 10
1063.1623253427
 20
892.0030935447
 30
0.0
  0
SPLINE
  5
506
100
AcDbEntity
  8
0
100
AcDbSpline
 62
7
  6
CONTINUOUS
 70
0
 71
3
 72
10
 73
6
 74
0
 42
0.0000001
 43
0.0000001
 44
0.0000000001
 40
0.0
 40
0.0
 40
0.0
 40
0.0
 40
0.6019734853
 40
0.8358288979
 40
1.0
 40
1.0
 40
1.0
 40
1.0
 10
1256.1065732802
 20
894.027887556
 30
0.0
 10
1256.103579562
 20
894.6435206638
 30
0.0
 10
1255.9780962978
 20
895.5158289344
 30
0.0
 10
1255.5477444932
 20
896.4427588558
 30
0.0
 10
1255.2366128635
 20
896.7485378893
 30
0.0
 10
1255.077344574
 20
896.8016742343
 30
0.0
  0
SPLINE
  5
507
100
AcDbEntity
  8
0
100
AcDbSpline
 62
7
  6
CONTINUOUS
 70
0
 71
3
 72
9
 73
5
 74
0
 42
0.0000001
 43
0.0000001
 44
0.0000000001
 40
0.0
 40
0.0
 40
0.0
 40
0.0
 40
0.5466463585
 40
1.0
 40
1.0
 40
1.0
 40
1.0
 10
1053.8640388533
 20
891.3798183525
 30
0.0
 10
1053.8684264863
 20
890.4775379329
 30
0.0
 10
1054.057672003
 20
888.830724858
 30
0.0
 10
1054.6078236504
 20
887.2332201642
 30
0.0
 10
1055.0201950272
 20
886.6087949965
 30
0.0
  0
SPLINE
  5
508
100
AcDbEntity
  8
0
100
AcDbSpline
 62
7
  6
CONTINUOUS
 70
0
 71
3
 72
9
 73
5
 74
0
 42
0.0000001
 43
0.0000001
 44
0.0000000001
 40
0.0
 40
0.0
 40
0.0
 40
0.0
 40
0.2621041432
 40
1.0
 40
1.0
 40
1.0
 40
1.0
 10
1115.4346507125
 20
981.0697481222
 30
0.0
 10
1115.3541194214
 20
981.0955018875
 30
0.0
 10
1115.0426473631
 20
981.1793598369
 30
0.0
 10
1114.7120333259
 20
981.1976174954
 30
0.0
 10
1114.4761154614
 20
981.1659851531
 30
0.0
  0
SPLINE
  5
509
100
AcDbEntity
  8
02___PRT_ALL_AXES
100
AcDbSpline
 62
7
  6
CONTINUOUS
 70
0
 71
3
 72
10
 73
6
 74
0
 42
0.0000001
 43
0.0000001
 44
0.0000000001
 40
0.0
 40
0.0
 40
0.0
 40
0.0
 40
0.3647495091
 40
0.6666868443
 40
1.0
 40
1.0
 40
1.0
 40
1.0
 10
1186.3835171466
 20
863.5573484603
 30
0.0
 10
1186.6578894272
 20
863.5776227267
 30
0.0
 10
1187.0090800729
 20
862.9940943468
 30
0.0
 10
1187.1821246014
 20
862.3147163188
 30
0.0
 10
1187.2327407433
 20
861.822926367
 30
0.0
 10
1187.2339632861
 20
861.5715205726
 30
0.0
  0
SPLINE
  5
50A
100
AcDbEntity
  8
02___PRT_ALL_AXES
100
AcDbSpline
 62
7
  6
CONTINUOUS
 70
0
 71
3
 72
10
 73
6
 74
0
 42
0.0000001
 43
0.0000001
 44
0.0000000001
 40
0.0
 40
0.0
 40
0.0
 40
0.0
 40
0.3646046293
 40
0.657033611
 40
1.0
 40
1.0
 40
1.0
 40
1.0
 10
1186.1289091072
 20
866.9979648984
 30
0.0
 10
1185.5189946939
 20
866.9526416275
 30
0.0
 10
1184.7801356882
 20
865.7518351136
 30
0.0
 10
1184.4462701597
 20
864.1900575219
 30
0.0
 10
1184.3665695795
 20
863.1025225906
 30
0.0
 10
1184.3693671286
 20
862.5272297683
 30
0.0
  0
SPLINE
  5
50B
100
AcDbEntity
  8
02___PRT_ALL_AXES
100
AcDbSpline
 62
7
  6
CONTINUOUS
 70
0
 71
3
 72
10
 73
6
 74
0
 42
0.0000001
 43
0.0000001
 44
0.0000000001
 40
0.0
 40
0.0
 40
0.0
 40
0.0
 40
0.3647495091
 40
0.6666868443
 40
1.0
 40
1.0
 40
1.0
 40
1.0
 10
1186.1850517094
 20
904.3701233497
 30
0.0
 10
1186.45942399
 20
904.390397616
 30
0.0
 10
1186.8106146357
 20
903.8068692361
 30
0.0
 10
1186.9836591642
 20
903.1274912082
 30
0.0
 10
1187.0342753061
 20
902.6357012564
 30
0.0
 10
1187.0354978489
 20
902.3842954619
 30
0.0
  0
SPLINE
  5
50C
100
AcDbEntity
  8
02___PRT_ALL_AXES
100
AcDbSpline
 62
7
  6
CONTINUOUS
 70
0
 71
3
 72
10
 73
6
 74
0
 42
0.0000001
 43
0.0000001
 44
0.0000000001
 40
0.0
 40
0.0
 40
0.0
 40
0.0
 40
0.3646046293
 40
0.657033611
 40
1.0
 40
1.0
 40
1.0
 40
1.0
 10
1185.93044367
 20
907.8107397877
 30
0.0
 10
1185.3205292567
 20
907.7654165168
 30
0.0
 10
1184.581670251
 20
906.564610003
 30
0.0
 10
1184.2478047225
 20
905.0028324112
 30
0.0
 10
1184.1681041423
 20
903.9152974799
 30
0.0
 10
1184.1709016914
 20
903.3400046576
 30
0.0
  0
SPLINE
  5
50D
100
AcDbEntity
  8
02___PRT_ALL_AXES
100
AcDbSpline
 62
7
  6
CONTINUOUS
 70
0
 71
3
 72
10
 73
6
 74
0
 42
0.0000001
 43
0.0000001
 44
0.0000000001
 40
0.0
 40
0.0
 40
0.0
 40
0.0
 40
0.3647495091
 40
0.6666868443
 40
1.0
 40
1.0
 40
1.0
 40
1.0
 10
1124.5577007992
 20
884.1841656347
 30
0.0
 10
1124.8320730798
 20
884.204439901
 30
0.0
 10
1125.1832637255
 20
883.6209115211
 30
0.0
 10
1125.356308254
 20
882.9415334932
 30
0.0
 10
1125.4069243959
 20
882.4497435414
 30
0.0
 10
1125.4081469386
 20
882.1983377469
 30
0.0
  0
SPLINE
  5
50E
100
AcDbEntity
  8
02___PRT_ALL_AXES
100
AcDbSpline
 62
7
  6
CONTINUOUS
 70
0
 71
3
 72
10
 73
6
 74
0
 42
0.0000001
 43
0.0000001
 44
0.0000000001
 40
0.0
 40
0.0
 40
0.0
 40
0.0
 40
0.3646046293
 40
0.657033611
 40
1.0
 40
1.0
 40
1.0
 40
1.0
 10
1124.3030927598
 20
887.6247820727
 30
0.0
 10
1123.6931783465
 20
887.5794588019
 30
0.0
 10
1122.9543193407
 20
886.378652288
 30
0.0
 10
1122.6204538123
 20
884.8168746962
 30
0.0
 10
1122.5407532321
 20
883.7293397649
 30
0.0
 10
1122.5435507812
 20
883.1540469426
 30
0.0
  0
SPLINE
  5
50F
100
AcDbEntity
  8
02___PRT_ALL_AXES
100
AcDbSpline
 62
7
  6
CONTINUOUS
 70
0
 71
3
 72
12
 73
8
 74
0
 42
0.0000001
 43
0.0000001
 44
0.0000000001
 40
0.0
 40
0.0
 40
0.0
 40
0.0
 40
0.3279023809
 40
0.6250007103
 40
0.7487814773
 40
0.8516847546
 40
1.0
 40
1.0
 40
1.0
 40
1.0
 10
1122.345085344
 20
923.966821832
 30
0.0
 10
1122.3487177279
 20
923.2198521371
 30
0.0
 10
1122.4829754759
 20
921.7949620661
 30
0.0
 10
1122.9286612171
 20
920.1357889342
 30
0.0
 10
1123.472480379
 20
919.0629471587
 30
0.0
 10
1123.9691877072
 20
918.3802667109
 30
0.0
 10
1124.5351925547
 20
918.0409223512
 30
0.0
 10
1124.8721332988
 20
918.0659607111
 30
0.0
  0
SPLINE
  5
510
100
AcDbEntity
  8
02___PRT_ALL_AXES
100
AcDbSpline
 62
7
  6
CONTINUOUS
 70
0
 71
3
 72
10
 73
6
 74
0
 42
0.0000001
 43
0.0000001
 44
0.0000000001
 40
0.0
 40
0.0
 40
0.0
 40
0.0
 40
0.3429810599
 40
0.6353901676
 40
1.0
 40
1.0
 40
1.0
 40
1.0
 10
1125.2096815014
 20
923.0111126362
 30
0.0
 10
1125.2106230038
 20
922.8175004603
 30
0.0
 10
1125.1838200715
 20
922.4515010388
 30
0.0
 10
1125.0714134064
 20
921.9259660567
 30
0.0
 10
1124.8227896401
 20
921.5217448064
 30
0.0
 10
1124.6175252595
 20
921.5065771492
 30
0.0
  0
SPLINE
  5
511
100
AcDbEntity
  8
02___PRT_ALL_AXES
100
AcDbSpline
 62
7
  6
CONTINUOUS
 70
0
 71
3
 72
12
 73
8
 74
0
 42
0.0000001
 43
0.0000001
 44
0.0000000001
 40
0.0
 40
0.0
 40
0.0
 40
0.0
 40
0.3279023809
 40
0.6250007103
 40
0.7487814773
 40
0.8516847546
 40
1.0
 40
1.0
 40
1.0
 40
1.0
 10
1122.5435507812
 20
883.1540469426
 30
0.0
 10
1122.5471831651
 20
882.4070772478
 30
0.0
 10
1122.6814409131
 20
880.9821871768
 30
0.0
 10
1123.1271266543
 20
879.3230140449
 30
0.0
 10
1123.6709458162
 20
878.2501722694
 30
0.0
 10
1124.1676531444
 20
877.5674918216
 30
0.0
 10
1124.7336579919
 20
877.2281474619
 30
0.0
 10
1125.070598736
 20
877.2531858218
 30
0.0
  0
SPLINE
  5
512
100
AcDbEntity
  8
02___PRT_ALL_AXES
100
AcDbSpline
 62
7
  6
CONTINUOUS
 70
0
 71
3
 72
10
 73
6
 74
0
 42
0.0000001
 43
0.0000001
 44
0.0000000001
 40
0.0
 40
0.0
 40
0.0
 40
0.0
 40
0.3429810599
 40
0.6353901676
 40
1.0
 40
1.0
 40
1.0
 40
1.0
 10
1125.4081469386
 20
882.1983377469
 30
0.0
 10
1125.409088441
 20
882.004725571
 30
0.0
 10
1125.3822855087
 20
881.6387261495
 30
0.0
 10
1125.2698788436
 20
881.1131911674
 30
0.0
 10
1125.0212550773
 20
880.7089699171
 30
0.0
 10
1124.8159906967
 20
880.6938022598
 30
0.0
  0
SPLINE
  5
513
100
AcDbEntity
  8
02___PRT_ALL_AXES
100
AcDbSpline
 62
7
  6
CONTINUOUS
 70
0
 71
3
 72
12
 73
8
 74
0
 42
0.0000001
 43
0.0000001
 44
0.0000000001
 40
0.0
 40
0.0
 40
0.0
 40
0.0
 40
0.3279023809
 40
0.6250007103
 40
0.7487814773
 40
0.8516847546
 40
1.0
 40
1.0
 40
1.0
 40
1.0
 10
1184.1709016914
 20
903.3400046576
 30
0.0
 10
1184.1745340753
 20
902.5930349628
 30
0.0
 10
1184.3087918233
 20
901.1681448918
 30
0.0
 10
1184.7544775645
 20
899.5089717599
 30
0.0
 10
1185.2982967264
 20
898.4361299844
 30
0.0
 10
1185.7950040546
 20
897.7534495366
 30
0.0
 10
1186.3610089021
 20
897.4141051769
 30
0.0
 10
1186.6979496463
 20
897.4391435368
 30
0.0
  0
SPLINE
  5
514
100
AcDbEntity
  8
02___PRT_ALL_AXES
100
AcDbSpline
 62
7
  6
CONTINUOUS
 70
0
 71
3
 72
10
 73
6
 74
0
 42
0.0000001
 43
0.0000001
 44
0.0000000001
 40
0.0
 40
0.0
 40
0.0
 40
0.0
 40
0.3429810599
 40
0.6353901676
 40
1.0
 40
1.0
 40
1.0
 40
1.0
 10
1187.0354978489
 20
902.3842954619
 30
0.0
 10
1187.0364393512
 20
902.190683286
 30
0.0
 10
1187.0096364189
 20
901.8246838645
 30
0.0
 10
1186.8972297538
 20
901.2991488824
 30
0.0
 10
1186.6486059875
 20
900.8949276321
 30
0.0
 10
1186.4433416069
 20
900.8797599748
 30
0.0
  0
SPLINE
  5
515
100
AcDbEntity
  8
02___PRT_ALL_AXES
100
AcDbSpline
 62
7
  6
CONTINUOUS
 70
0
 71
3
 72
12
 73
8
 74
0
 42
0.0000001
 43
0.0000001
 44
0.0000000001
 40
0.0
 40
0.0
 40
0.0
 40
0.0
 40
0.3279023809
 40
0.6250007103
 40
0.7487814773
 40
0.8516847546
 40
1.0
 40
1.0
 40
1.0
 40
1.0
 10
1184.3693671286
 20
862.5272297683
 30
0.0
 10
1184.3729995125
 20
861.7802600735
 30
0.0
 10
1184.5072572605
 20
860.3553700024
 30
0.0
 10
1184.9529430017
 20
858.6961968705
 30
0.0
 10
1185.4967621636
 20
857.6233550951
 30
0.0
 10
1185.9934694918
 20
856.9406746473
 30
0.0
 10
1186.5594743393
 20
856.6013302876
 30
0.0
 10
1186.8964150835
 20
856.6263686475
 30
0.0
  0
SPLINE
  5
516
100
AcDbEntity
  8
02___PRT_ALL_AXES
100
AcDbSpline
 62
7
  6
CONTINUOUS
 70
0
 71
3
 72
10
 73
6
 74
0
 42
0.0000001
 43
0.0000001
 44
0.0000000001
 40
0.0
 40
0.0
 40
0.0
 40
0.0
 40
0.3429810599
 40
0.6353901676
 40
1.0
 40
1.0
 40
1.0
 40
1.0
 10
1187.2339632861
 20
861.5715205726
 30
0.0
 10
1187.2349047884
 20
861.3779083967
 30
0.0
 10
1187.2081018561
 20
861.0119089752
 30
0.0
 10
1187.095695191
 20
860.4863739931
 30
0.0
 10
1186.8470714247
 20
860.0821527428
 30
0.0
 10
1186.6418070441
 20
860.0669850855
 30
0.0
  0
SPLINE
  5
517
100
AcDbEntity
  8
02___PRT_ALL_AXES
100
AcDbSpline
 62
7
  6
CONTINUOUS
 70
0
 71
3
 72
10
 73
6
 74
0
 42
0.0000001
 43
0.0000001
 44
0.0000000001
 40
0.0
 40
0.0
 40
0.0
 40
0.0
 40
0.3647495091
 40
0.6666868443
 40
1.0
 40
1.0
 40
1.0
 40
1.0
 10
1124.359235362
 20
924.996940524
 30
0.0
 10
1124.6336076426
 20
925.0172147903
 30
0.0
 10
1124.9847982883
 20
924.4336864104
 30
0.0
 10
1125.1578428168
 20
923.7543083825
 30
0.0
 10
1125.2084589587
 20
923.2625184307
 30
0.0
 10
1125.2096815014
 20
923.0111126362
 30
0.0
  0
SPLINE
  5
518
100
AcDbEntity
  8
02___PRT_ALL_AXES
100
AcDbSpline
 62
7
  6
CONTINUOUS
 70
0
 71
3
 72
10
 73
6
 74
0
 42
0.0000001
 43
0.0000001
 44
0.0000000001
 40
0.0
 40
0.0
 40
0.0
 40
0.0
 40
0.3646046293
 40
0.657033611
 40
1.0
 40
1.0
 40
1.0
 40
1.0
 10
1124.1046273226
 20
928.437556962
 30
0.0
 10
1123.4947129093
 20
928.3922336912
 30
0.0
 10
1122.7558539035
 20
927.1914271773
 30
0.0
 10
1122.4219883751
 20
925.6296495855
 30
0.0
 10
1122.3422877949
 20
924.5421146542
 30
0.0
 10
1122.345085344
 20
923.966821832
 30
0.0
  0
SPLINE
  5
519
100
AcDbEntity
  8
0
100
AcDbSpline
 62
7
  6
CONTINUOUS
 70
0
 71
3
 72
9
 73
5
 74
0
 42
0.0000001
 43
0.0000001
 44
0.0000000001
 40
0.0
 40
0.0
 40
0.0
 40
0.0
 40
0.7208918677
 40
1.0
 40
1.0
 40
1.0
 40
1.0
 10
1255.6153871471
 20
821.674545032
 30
0.0
 10
1255.7079177372
 20
821.6813923736
 30
0.0
 10
1255.8337753585
 20
821.7398362021
 30
0.0
 10
1255.9273867396
 20
821.8276082301
 30
0.0
 10
1255.9520871848
 20
821.8536918601
 30
0.0
  0
SPLINE
  5
51A
100
AcDbEntity
  8
0
100
AcDbSpline
 62
7
  6
CONTINUOUS
 70
0
 71
3
 72
9
 73
5
 74
0
 42
0.0000001
 43
0.0000001
 44
0.0000000001
 40
0.0
 40
0.0
 40
0.0
 40
0.0
 40
0.4177940552
 40
1.0
 40
1.0
 40
1.0
 40
1.0
 10
1255.9520871848
 20
821.8536918601
 30
0.0
 10
1256.1463560935
 20
822.0588395122
 30
0.0
 10
1256.390755346
 20
822.7278389094
 30
0.0
 10
1256.450032196
 20
823.3984034192
 30
0.0
 10
1256.4481176319
 20
823.7921178575
 30
0.0
  0
SPLINE
  5
51B
100
AcDbEntity
  8
0
100
AcDbSpline
 62
7
  6
CONTINUOUS
 70
0
 71
3
 72
10
 73
6
 74
0
 42
0.0000001
 43
0.0000001
 44
0.0000000001
 40
0.0
 40
0.0
 40
0.0
 40
0.0
 40
0.175292541
 40
0.405792525
 40
1.0
 40
1.0
 40
1.0
 40
1.0
 10
1054.723056548
 20
965.6982753265
 30
0.0
 10
1054.5163721525
 20
965.5491273568
 30
0.0
 10
1054.1463306289
 20
965.0633409357
 30
0.0
 10
1053.6290205861
 20
963.6989103991
 30
0.0
 10
1053.5182931098
 20
962.4795695097
 30
0.0
 10
1053.5224945017
 20
961.6155880266
 30
0.0
  0
SPLINE
  5
51C
100
AcDbEntity
  8
0
100
AcDbSpline
 62
7
  6
CONTINUOUS
 70
0
 71
3
 72
9
 73
5
 74
0
 42
0.0000001
 43
0.0000001
 44
0.0000000001
 40
0.0
 40
0.0
 40
0.0
 40
0.0
 40
0.2750983028
 40
1.0
 40
1.0
 40
1.0
 40
1.0
 10
1319.9796452907
 20
912.5309595929
 30
0.0
 10
1319.8900753961
 20
912.6073442422
 30
0.0
 10
1319.5554701242
 20
912.873380159
 30
0.0
 10
1319.1773314011
 20
913.091188806
 30
0.0
 10
1318.8844042573
 20
913.1932343391
 30
0.0
  0
SPLINE
  5
51D
100
AcDbEntity
  8
0
100
AcDbSpline
 62
7
  6
CONTINUOUS
 70
0
 71
3
 72
9
 73
5
 74
0
 42
0.0000001
 43
0.0000001
 44
0.0000000001
 40
0.0
 40
0.0
 40
0.0
 40
0.0
 40
0.4391427129
 40
1.0
 40
1.0
 40
1.0
 40
1.0
 10
1323.797354598
 20
816.0246613123
 30
0.0
 10
1324.5759792636
 20
816.911146804
 30
0.0
 10
1325.7316762943
 20
819.4285899699
 30
0.0
 10
1326.2271981811
 20
822.0774862235
 30
0.0
 10
1326.3596505763
 20
823.5785520302
 30
0.0
  0
SPLINE
  5
51E
100
AcDbEntity
  8
0
100
AcDbSpline
 62
7
  6
CONTINUOUS
 70
0
 71
3
 72
9
 73
5
 74
0
 42
0.0000001
 43
0.0000001
 44
0.0000000001
 40
0.0
 40
0.0
 40
0.0
 40
0.0
 40
0.4509928067
 40
1.0
 40
1.0
 40
1.0
 40
1.0
 10
1320.0826932037
 20
813.0409805716
 30
0.0
 10
1320.4630896042
 20
813.0480000585
 30
0.0
 10
1321.3040220579
 20
813.3215041384
 30
0.0
 10
1321.9369694606
 20
813.9040550909
 30
0.0
 10
1322.242280259
 20
814.2523227383
 30
0.0
  0
SPLINE
  5
51F
100
AcDbEntity
  8
0
100
AcDbSpline
 62
7
  6
CONTINUOUS
 70
0
 71
3
 72
9
 73
5
 74
0
 42
0.0000001
 43
0.0000001
 44
0.0000000001
 40
0.0
 40
0.0
 40
0.0
 40
0.0
 40
0.7384277501
 40
1.0
 40
1.0
 40
1.0
 40
1.0
 10
1066.2276593877
 20
973.6963890684
 30
0.0
 10
1065.9381411583
 20
973.6455186521
 30
0.0
 10
1065.5559391156
 20
973.4998560424
 30
0.0
 10
1065.2225207446
 20
973.2823468555
 30
0.0
 10
1065.138116832
 20
973.2213685671
 30
0.0
  0
SPLINE
  5
520
100
AcDbEntity
  8
0
100
AcDbSpline
 62
7
  6
CONTINUOUS
 70
0
 71
3
 72
9
 73
5
 74
0
 42
0.0000001
 43
0.0000001
 44
0.0000000001
 40
0.0
 40
0.0
 40
0.0
 40
0.0
 40
0.2765650913
 40
1.0
 40
1.0
 40
1.0
 40
1.0
 10
1241.6337333283
 20
832.4638119844
 30
0.0
 10
1241.6569767035
 20
832.554682229
 30
0.0
 10
1241.7498506026
 20
832.8805800902
 30
0.0
 10
1241.8790803873
 20
833.1986357249
 30
0.0
 10
1242.0051378258
 20
833.4091256584
 30
0.0
  0
SPLINE
  5
521
100
AcDbEntity
  8
02___PRT_ALL_AXES
100
AcDbSpline
 62
7
  6
CONTINUOUS
 70
0
 71
3
 72
10
 73
6
 74
0
 42
0.0000001
 43
0.0000001
 44
0.0000000001
 40
0.0
 40
0.0
 40
0.0
 40
0.0
 40
0.3508020859
 40
0.6353445945
 40
1.0
 40
1.0
 40
1.0
 40
1.0
 10
1240.5858231665
 20
827.2050988573
 30
0.0
 10
1240.413466798
 20
826.9032653763
 30
0.0
 10
1240.1056880577
 20
826.3450399102
 30
0.0
 10
1239.6317443994
 20
825.5123116992
 30
0.0
 10
1239.1185859097
 20
824.9595934916
 30
0.0
 10
1238.7582732886
 20
824.9328526467
 30
0.0
  0
SPLINE
  5
522
100
AcDbEntity
  8
06___PRT_ALL_SURFS
100
AcDbSpline
 62
7
  6
CONTINUOUS
 70
0
 71
3
 72
9
 73
5
 74
0
 42
0.0000001
 43
0.0000001
 44
0.0000000001
 40
0.0
 40
0.0
 40
0.0
 40
0.0
 40
0.2548178619
 40
1.0
 40
1.0
 40
1.0
 40
1.0
 10
1233.8486048674
 20
829.4528228394
 30
0.0
 10
1233.7297763598
 20
829.1206909448
 30
0.0
 10
1233.3656199562
 20
827.7833589782
 30
0.0
 10
1233.4379984251
 20
826.3240794087
 30
0.0
 10
1233.7529925838
 20
825.3417794255
 30
0.0
  0
SPLINE
  5
523
100
AcDbEntity
  8
02___PRT_ALL_AXES
100
AcDbSpline
 62
7
  6
CONTINUOUS
 70
0
 71
3
 72
10
 73
6
 74
0
 42
0.0000001
 43
0.0000001
 44
0.0000000001
 40
0.0
 40
0.0
 40
0.0
 40
0.0
 40
0.3507851281
 40
0.635336084
 40
1.0
 40
1.0
 40
1.0
 40
1.0
 10
1062.1152999769
 20
886.7478444339
 30
0.0
 10
1061.9429522068
 20
886.4460260104
 30
0.0
 10
1061.6351777059
 20
885.887808804
 30
0.0
 10
1061.161236904
 20
885.0550836659
 30
0.0
 10
1060.6480758729
 20
884.5023382425
 30
0.0
 10
1060.287755458
 20
884.4755960335
 30
0.0
  0
SPLINE
  5
524
100
AcDbEntity
  8
06___PRT_ALL_SURFS
100
AcDbSpline
 62
7
  6
CONTINUOUS
 70
0
 71
3
 72
9
 73
5
 74
0
 42
0.0000001
 43
0.0000001
 44
0.0000000001
 40
0.0
 40
0.0
 40
0.0
 40
0.0
 40
0.2548178619
 40
1.0
 40
1.0
 40
1.0
 40
1.0
 10
1055.3780816778
 20
888.995568416
 30
0.0
 10
1055.2592531702
 20
888.6634365214
 30
0.0
 10
1054.8950967666
 20
887.3261045547
 30
0.0
 10
1054.9674752355
 20
885.8668249853
 30
0.0
 10
1055.2824693942
 20
884.8845250021
 30
0.0
  0
SPLINE
  5
525
100
AcDbEntity
  8
0
100
AcDbSpline
 62
7
  6
CONTINUOUS
 70
0
 71
3
 72
13
 73
9
 74
0
 42
0.0000001
 43
0.0000001
 44
0.0000000001
 40
0.0
 40
0.0
 40
0.0
 40
0.0
 40
0.0679373034
 40
0.1470887257
 40
0.244587548
 40
0.3625758508
 40
0.6546700102
 40
1.0
 40
1.0
 40
1.0
 40
1.0
 10
1267.9047585747
 20
813.0745424477
 30
0.0
 10
1268.1724112096
 20
813.0691565153
 30
0.0
 10
1268.7599082781
 20
813.2149484856
 30
0.0
 10
1269.5266009195
 20
813.8287626698
 30
0.0
 10
1270.2136137544
 20
814.7751630415
 30
0.0
 10
1271.0814830444
 20
816.5854326425
 30
0.0
 10
1271.8252750066
 20
819.4917205995
 30
0.0
 10
1272.0754676505
 20
821.9977338934
 30
0.0
 10
1272.1254233384
 20
823.3575888069
 30
0.0
  0
SPLINE
  5
526
100
AcDbEntity
  8
0
100
AcDbSpline
 62
7
  6
CONTINUOUS
 70
0
 71
3
 72
11
 73
7
 74
0
 42
0.0000001
 43
0.0000001
 44
0.0000000001
 40
0.0
 40
0.0
 40
0.0
 40
0.0
 40
0.2361746331
 40
0.4824837693
 40
0.7398414717
 40
1.0
 40
1.0
 40
1.0
 40
1.0
 10
1248.5457542887
 20
853.7490053179
 30
0.0
 10
1248.1689076102
 20
853.8747752526
 30
0.0
 10
1247.3127867576
 20
853.9173002167
 30
0.0
 10
1246.1597560097
 20
853.332249942
 30
0.0
 10
1245.3611683053
 20
852.2746709303
 30
0.0
 10
1245.1678117268
 20
851.3925963141
 30
0.0
 10
1245.1699397937
 20
850.954976962
 30
0.0
  0
SPLINE
  5
527
100
AcDbEntity
  8
0
100
AcDbSpline
 62
7
  6
CONTINUOUS
 70
0
 71
3
 72
9
 73
5
 74
0
 42
0.0000001
 43
0.0000001
 44
0.0000000001
 40
0.0
 40
0.0
 40
0.0
 40
0.0
 40
0.2583766103
 40
1.0
 40
1.0
 40
1.0
 40
1.0
 10
1067.3561674797
 20
973.6293607336
 30
0.0
 10
1067.2620710421
 20
973.6561289104
 30
0.0
 10
1066.8930767275
 20
973.7415565851
 30
0.0
 10
1066.5042254726
 20
973.7449837007
 30
0.0
 10
1066.2276593877
 20
973.6963890684
 30
0.0
  0
SPLINE
  5
528
100
AcDbEntity
  8
0
100
AcDbSpline
 62
7
  6
CONTINUOUS
 70
0
 71
3
 72
11
 73
7
 74
0
 42
0.0000001
 43
0.0000001
 44
0.0000000001
 40
0.0
 40
0.0
 40
0.0
 40
0.0
 40
0.3158947597
 40
0.6091158869
 40
0.8434252386
 40
1.0
 40
1.0
 40
1.0
 40
1.0
 10
1271.7838789868
 20
893.5933584809
 30
0.0
 10
1271.7113944977
 20
895.1466518115
 30
0.0
 10
1271.3663496335
 20
898.1322854362
 30
0.0
 10
1270.3166494236
 20
902.1807218179
 30
0.0
 10
1268.9512730526
 20
905.2362398431
 30
0.0
 10
1267.5918387073
 20
906.781062026
 30
0.0
 10
1266.8750342305
 20
907.0643004649
 30
0.0
  0
SPLINE
  5
529
100
AcDbEntity
  8
0
100
AcDbSpline
 62
7
  6
CONTINUOUS
 70
0
 71
3
 72
9
 73
5
 74
0
 42
0.0000001
 43
0.0000001
 44
0.0000000001
 40
0.0
 40
0.0
 40
0.0
 40
0.0
 40
0.5355725431
 40
1.0
 40
1.0
 40
1.0
 40
1.0
 10
1324.8357567987
 20
899.8070977586
 30
0.0
 10
1324.6522569908
 20
901.8644011479
 30
0.0
 10
1323.9082620853
 20
905.6690566838
 30
0.0
 10
1322.4286390377
 20
909.2929449064
 30
0.0
 10
1321.4483213261
 20
910.7919441189
 30
0.0
  0
SPLINE
  5
52A
100
AcDbEntity
  8
0
100
AcDbSpline
 62
7
  6
CONTINUOUS
 70
0
 71
3
 72
9
 73
5
 74
0
 42
0.0000001
 43
0.0000001
 44
0.0000000001
 40
0.0
 40
0.0
 40
0.0
 40
0.0
 40
0.2777686468
 40
1.0
 40
1.0
 40
1.0
 40
1.0
 10
1321.4483213261
 20
910.7919441189
 30
0.0
 10
1321.3327714949
 20
910.9686308235
 30
0.0
 10
1320.9004103768
 20
911.5929840705
 30
0.0
 10
1320.3973176184
 20
912.1747712283
 30
0.0
 10
1319.9796452907
 20
912.5309595929
 30
0.0
  0
SPLINE
  5
52B
100
AcDbEntity
  8
02___PRT_ALL_AXES
100
AcDbSpline
 62
7
  6
CONTINUOUS
 70
0
 71
3
 72
11
 73
7
 74
0
 42
0.0000001
 43
0.0000001
 44
0.0000000001
 40
0.0
 40
0.0
 40
0.0
 40
0.0
 40
0.2361761365
 40
0.482487096
 40
0.7398478826
 40
1.0
 40
1.0
 40
1.0
 40
1.0
 10
1248.7180798312
 20
884.34371785
 30
0.0
 10
1248.2041719602
 20
884.5151663498
 30
0.0
 10
1247.0367476878
 20
884.5732495054
 30
0.0
 10
1245.4643975284
 20
883.7753865033
 30
0.0
 10
1244.3754592366
 20
882.3332053829
 30
0.0
 10
1244.1117808487
 20
881.1303816095
 30
0.0
 10
1244.1146827056
 20
880.5336387558
 30
0.0
  0
SPLINE
  5
52C
100
AcDbEntity
  8
02___PRT_ALL_AXES
100
AcDbSpline
 62
7
  6
CONTINUOUS
 70
0
 71
3
 72
11
 73
7
 74
0
 42
0.0000001
 43
0.0000001
 44
0.0000000001
 40
0.0
 40
0.0
 40
0.0
 40
0.0
 40
0.2361761365
 40
0.482487096
 40
0.7398478826
 40
1.0
 40
1.0
 40
1.0
 40
1.0
 10
1070.3917203975
 20
914.2403799719
 30
0.0
 10
1069.8778125264
 20
914.4118284717
 30
0.0
 10
1068.710388254
 20
914.4699116273
 30
0.0
 10
1067.1380380946
 20
913.6720486251
 30
0.0
 10
1066.0490998029
 20
912.2298675047
 30
0.0
 10
1065.7854214149
 20
911.0270437313
 30
0.0
 10
1065.7883232718
 20
910.4303008776
 30
0.0
  0
SPLINE
  5
52D
100
AcDbEntity
  8
0
100
AcDbSpline
 62
9
  6
CONTINUOUS
 70
0
 71
3
 72
10
 73
6
 74
0
 42
0.0000001
 43
0.0000001
 44
0.0000000001
 40
0.0
 40
0.0
 40
0.0
 40
0.0
 40
0.1659415873
 40
0.5054147251
 40
1.0
 40
1.0
 40
1.0
 40
1.0
 10
1242.0774082998
 20
832.1885112599
 30
0.0
 10
1241.985639783
 20
832.201833717
 30
0.0
 10
1241.6874122662
 20
832.117244561
 30
0.0
 10
1241.3977895708
 20
831.5899046759
 30
0.0
 10
1241.3007283526
 20
831.1394459598
 30
0.0
 10
1241.2675016117
 20
830.8650692241
 30
0.0
  0
SPLINE
  5
52E
100
AcDbEntity
  8
0
100
AcDbSpline
 62
9
  6
CONTINUOUS
 70
0
 71
3
 72
8
 73
4
 74
0
 42
0.0000001
 43
0.0000001
 44
0.0000000001
 40
0.0
 40
0.0
 40
0.0
 40
0.0
 40
1.0
 40
1.0
 40
1.0
 40
1.0
 10
1241.2675016117
 20
830.8650692241
 30
0.0
 10
1241.2430979068
 20
830.6635505473
 30
0.0
 10
1241.2327085892
 20
830.4600240216
 30
0.0
 10
1241.2336956871
 20
830.2570354911
 30
0.0
  0
SPLINE
  5
52F
100
AcDbEntity
  8
0
100
AcDbSpline
 62
9
  6
CONTINUOUS
 70
0
 71
3
 72
8
 73
4
 74
0
 42
0.0000001
 43
0.0000001
 44
0.0000000001
 40
0.0
 40
0.0
 40
0.0
 40
0.0
 40
1.0
 40
1.0
 40
1.0
 40
1.0
 10
1241.2735689941
 20
829.6241480575
 30
0.0
 10
1241.3002870054
 20
829.4035146234
 30
0.0
 10
1241.3403384318
 20
829.1838963677
 30
0.0
 10
1241.396211011
 20
828.9687889079
 30
0.0
  0
SPLINE
  5
530
100
AcDbEntity
  8
02___PRT_ALL_AXES
100
AcDbSpline
 62
7
  6
CONTINUOUS
 70
0
 71
3
 72
11
 73
7
 74
0
 42
0.0000001
 43
0.0000001
 44
0.0000000001
 40
0.0
 40
0.0
 40
0.0
 40
0.0
 40
0.2361761365
 40
0.482487096
 40
0.7398478826
 40
1.0
 40
1.0
 40
1.0
 40
1.0
 10
1070.2475566416
 20
943.8864634266
 30
0.0
 10
1069.7336487706
 20
944.0579119264
 30
0.0
 10
1068.5662244982
 20
944.115995082
 30
0.0
 10
1066.9938743388
 20
943.3181320799
 30
0.0
 10
1065.904936047
 20
941.8759509594
 30
0.0
 10
1065.6412576591
 20
940.673127186
 30
0.0
 10
1065.644159516
 20
940.0763843324
 30
0.0
  0
SPLINE
  5
531
100
AcDbEntity
  8
02___PRT_ALL_AXES
100
AcDbSpline
 62
7
  6
CONTINUOUS
 70
0
 71
3
 72
9
 73
5
 74
0
 42
0.0000001
 43
0.0000001
 44
0.0000000001
 40
0.0
 40
0.0
 40
0.0
 40
0.0
 40
0.5143178444
 40
1.0
 40
1.0
 40
1.0
 40
1.0
 10
1065.644159516
 20
940.0763843324
 30
0.0
 10
1065.6476514372
 20
939.3582996389
 30
0.0
 10
1066.0384181457
 20
937.9202579201
 30
0.0
 10
1067.2307037576
 20
936.9865698299
 30
0.0
 10
1067.8739623825
 20
936.7719676951
 30
0.0
  0
SPLINE
  5
532
100
AcDbEntity
  8
02___PRT_ALL_AXES
100
AcDbSpline
 62
7
  6
CONTINUOUS
 70
0
 71
3
 72
9
 73
5
 74
0
 42
0.0000001
 43
0.0000001
 44
0.0000000001
 40
0.0
 40
0.0
 40
0.0
 40
0.0
 40
0.5143178444
 40
1.0
 40
1.0
 40
1.0
 40
1.0
 10
1065.7883232718
 20
910.4303008776
 30
0.0
 10
1065.791815193
 20
909.7122161842
 30
0.0
 10
1066.1825819015
 20
908.2741744654
 30
0.0
 10
1067.3748675134
 20
907.3404863752
 30
0.0
 10
1068.0181261384
 20
907.1258842404
 30
0.0
  0
SPLINE
  5
533
100
AcDbEntity
  8
02___PRT_ALL_AXES
100
AcDbSpline
 62
7
  6
CONTINUOUS
 70
0
 71
3
 72
10
 73
6
 74
0
 42
0.0000001
 43
0.0000001
 44
0.0000000001
 40
0.0
 40
0.0
 40
0.0
 40
0.0
 40
0.3647495091
 40
0.6666868443
 40
1.0
 40
1.0
 40
1.0
 40
1.0
 10
1186.6418070441
 20
860.0669850855
 30
0.0
 10
1186.3674347634
 20
860.0467108192
 30
0.0
 10
1186.0162441178
 20
860.6302391991
 30
0.0
 10
1185.8431995892
 20
861.309617227
 30
0.0
 10
1185.7925834473
 20
861.8014071788
 30
0.0
 10
1185.7913609046
 20
862.0528129733
 30
0.0
  0
SPLINE
  5
534
100
AcDbEntity
  8
0
100
AcDbSpline
 62
9
  6
CONTINUOUS
 70
0
 71
3
 72
10
 73
6
 74
0
 42
0.0000001
 43
0.0000001
 44
0.0000000001
 40
0.0
 40
0.0
 40
0.0
 40
0.0
 40
0.1659491997
 40
0.5054212113
 40
1.0
 40
1.0
 40
1.0
 40
1.0
 10
1063.606879475
 20
891.7312576994
 30
0.0
 10
1063.5151212636
 20
891.7445773167
 30
0.0
 10
1063.2169384742
 20
891.6600144086
 30
0.0
 10
1062.9273184398
 20
891.1327862374
 30
0.0
 10
1062.8302485572
 20
890.6824068062
 30
0.0
 10
1062.7970105396
 20
890.4080796993
 30
0.0
  0
SPLINE
  5
535
100
AcDbEntity
  8
0
100
AcDbSpline
 62
9
  6
CONTINUOUS
 70
0
 71
3
 72
8
 73
4
 74
0
 42
0.0000001
 43
0.0000001
 44
0.0000000001
 40
0.0
 40
0.0
 40
0.0
 40
0.0
 40
1.0
 40
1.0
 40
1.0
 40
1.0
 10
1062.7970105396
 20
890.4080796993
 30
0.0
 10
1062.7725836438
 20
890.2064744251
 30
0.0
 10
1062.762184968
 20
890.0028583549
 30
0.0
 10
1062.7631724976
 20
889.7997810677
 30
0.0
  0
SPLINE
  5
536
100
AcDbEntity
  8
0
100
AcDbSpline
 62
9
  6
CONTINUOUS
 70
0
 71
3
 72
8
 73
4
 74
0
 42
0.0000001
 43
0.0000001
 44
0.0000000001
 40
0.0
 40
0.0
 40
0.0
 40
0.0
 40
1.0
 40
1.0
 40
1.0
 40
1.0
 10
1062.8030107445
 20
889.167182987
 30
0.0
 10
1062.8297283413
 20
888.9464545433
 30
0.0
 10
1062.8697899139
 20
888.7267411023
 30
0.0
 10
1062.9256858097
 20
888.5115422997
 30
0.0
  0
SPLINE
  5
537
100
AcDbEntity
  8
02___PRT_ALL_AXES
100
AcDbSpline
 62
7
  6
CONTINUOUS
 70
0
 71
3
 72
9
 73
5
 74
0
 42
0.0000001
 43
0.0000001
 44
0.0000000001
 40
0.0
 40
0.0
 40
0.0
 40
0.0
 40
0.5143178444
 40
1.0
 40
1.0
 40
1.0
 40
1.0
 10
1244.1146827056
 20
880.5336387558
 30
0.0
 10
1244.1181746267
 20
879.8155540624
 30
0.0
 10
1244.5089413353
 20
878.3775123435
 30
0.0
 10
1245.7012269471
 20
877.4438242534
 30
0.0
 10
1246.3444855721
 20
877.2292221185
 30
0.0
  0
SPLINE
  5
538
100
AcDbEntity
  8
0
100
AcDbSpline
 62
7
  6
CONTINUOUS
 70
0
 71
3
 72
9
 73
5
 74
0
 42
0.0000001
 43
0.0000001
 44
0.0000000001
 40
0.0
 40
0.0
 40
0.0
 40
0.0
 40
0.5143162815
 40
1.0
 40
1.0
 40
1.0
 40
1.0
 10
1245.1699397937
 20
850.954976962
 30
0.0
 10
1245.1725005175
 20
850.4283852936
 30
0.0
 10
1245.459046438
 20
849.3737886505
 30
0.0
 10
1246.3334338796
 20
848.6891958906
 30
0.0
 10
1246.8051386262
 20
848.5317677413
 30
0.0
  0
SPLINE
  5
539
100
AcDbEntity
  8
02___PRT_ALL_AXES
100
AcDbSpline
 62
7
  6
CONTINUOUS
 70
0
 71
3
 72
10
 73
6
 74
0
 42
0.0000001
 43
0.0000001
 44
0.0000000001
 40
0.0
 40
0.0
 40
0.0
 40
0.0
 40
0.3646046293
 40
0.657033611
 40
1.0
 40
1.0
 40
1.0
 40
1.0
 10
1186.8964150835
 20
856.6263686475
 30
0.0
 10
1187.5063294967
 20
856.6716919183
 30
0.0
 10
1188.2451885025
 20
857.8724984322
 30
0.0
 10
1188.579054031
 20
859.4342760239
 30
0.0
 10
1188.6587546111
 20
860.5218109553
 30
0.0
 10
1188.655957062
 20
861.0971037775
 30
0.0
  0
SPLINE
  5
53A
100
AcDbEntity
  8
02___PRT_ALL_AXES
100
AcDbSpline
 62
7
  6
CONTINUOUS
 70
0
 71
3
 72
12
 73
8
 74
0
 42
0.0000001
 43
0.0000001
 44
0.0000000001
 40
0.0
 40
0.0
 40
0.0
 40
0.0
 40
0.3278937266
 40
0.6249994718
 40
0.7487819248
 40
0.8516860235
 40
1.0
 40
1.0
 40
1.0
 40
1.0
 10
1130.2760486066
 20
922.8063824849
 30
0.0
 10
1130.2724163068
 20
923.5533348799
 30
0.0
 10
1130.1381532681
 20
924.9782182191
 30
0.0
 10
1129.6924990024
 20
926.6374273775
 30
0.0
 10
1129.1486625135
 20
927.710259889
 30
0.0
 10
1128.65195645
 20
928.3930296339
 30
0.0
 10
1128.0859521831
 20
928.7321062968
 30
0.0
 10
1127.7490000434
 20
928.7072461913
 30
0.0
  0
SPLINE
  5
53B
100
AcDbEntity
  8
02___PRT_ALL_AXES
100
AcDbSpline
 62
7
  6
CONTINUOUS
 70
0
 71
3
 72
10
 73
6
 74
0
 42
0.0000001
 43
0.0000001
 44
0.0000000001
 40
0.0
 40
0.0
 40
0.0
 40
0.0
 40
0.3646014218
 40
0.6570401702
 40
1.0
 40
1.0
 40
1.0
 40
1.0
 10
1190.540789021
 20
856.8960527057
 30
0.0
 10
1191.1507224456
 20
856.9410531895
 30
0.0
 10
1191.8895621283
 20
858.1423057099
 30
0.0
 10
1192.2234299163
 20
859.7039314163
 30
0.0
 10
1192.3031278891
 20
860.7915081271
 30
0.0
 10
1192.3003303912
 20
861.3667904213
 30
0.0
  0
SPLINE
  5
53C
100
AcDbEntity
  8
02___PRT_ALL_AXES
100
AcDbSpline
 62
7
  6
CONTINUOUS
 70
0
 71
3
 72
12
 73
8
 74
0
 42
0.0000001
 43
0.0000001
 44
0.0000000001
 40
0.0
 40
0.0
 40
0.0
 40
0.0
 40
0.3278937266
 40
0.6249994718
 40
0.7487819248
 40
0.8516860235
 40
1.0
 40
1.0
 40
1.0
 40
1.0
 10
1130.4745140438
 20
881.9936075956
 30
0.0
 10
1130.470881744
 20
882.7405599905
 30
0.0
 10
1130.3366187053
 20
884.1654433297
 30
0.0
 10
1129.8909644396
 20
885.8246524881
 30
0.0
 10
1129.3471279507
 20
886.8974849996
 30
0.0
 10
1128.8504218872
 20
887.5802547446
 30
0.0
 10
1128.2844176203
 20
887.9193314075
 30
0.0
 10
1127.9474654806
 20
887.894471302
 30
0.0
  0
SPLINE
  5
53D
100
AcDbEntity
  8
02___PRT_ALL_AXES
100
AcDbSpline
 62
7
  6
CONTINUOUS
 70
0
 71
3
 72
12
 73
8
 74
0
 42
0.0000001
 43
0.0000001
 44
0.0000000001
 40
0.0
 40
0.0
 40
0.0
 40
0.0
 40
0.3278937266
 40
0.6249994718
 40
0.7487819248
 40
0.8516860235
 40
1.0
 40
1.0
 40
1.0
 40
1.0
 10
1192.101864954
 20
902.1795653106
 30
0.0
 10
1192.0982326542
 20
902.9265177055
 30
0.0
 10
1191.9639696155
 20
904.3514010447
 30
0.0
 10
1191.5183153498
 20
906.0106102031
 30
0.0
 10
1190.9744788609
 20
907.0834427146
 30
0.0
 10
1190.4777727975
 20
907.7662124596
 30
0.0
 10
1189.9117685305
 20
908.1052891225
 30
0.0
 10
1189.5748163908
 20
908.080429017
 30
0.0
  0
SPLINE
  5
53E
100
AcDbEntity
  8
02___PRT_ALL_AXES
100
AcDbSpline
 62
7
  6
CONTINUOUS
 70
0
 71
3
 72
12
 73
8
 74
0
 42
0.0000001
 43
0.0000001
 44
0.0000000001
 40
0.0
 40
0.0
 40
0.0
 40
0.0
 40
0.3278937266
 40
0.6249994718
 40
0.7487819248
 40
0.8516860235
 40
1.0
 40
1.0
 40
1.0
 40
1.0
 10
1192.3003303912
 20
861.3667904213
 30
0.0
 10
1192.2966980914
 20
862.1137428162
 30
0.0
 10
1192.1624350527
 20
863.5386261554
 30
0.0
 10
1191.716780787
 20
865.1978353138
 30
0.0
 10
1191.1729442981
 20
866.2706678253
 30
0.0
 10
1190.6762382347
 20
866.9534375703
 30
0.0
 10
1190.1102339677
 20
867.2925142332
 30
0.0
 10
1189.773281828
 20
867.2676541276
 30
0.0
  0
SPLINE
  5
53F
100
AcDbEntity
  8
02___PRT_ALL_AXES
100
AcDbSpline
 62
7
  6
CONTINUOUS
 70
0
 71
3
 72
10
 73
6
 74
0
 42
0.0000001
 43
0.0000001
 44
0.0000000001
 40
0.0
 40
0.0
 40
0.0
 40
0.0
 40
0.3647495091
 40
0.6666868443
 40
1.0
 40
1.0
 40
1.0
 40
1.0
 10
1186.4433416069
 20
900.8797599748
 30
0.0
 10
1186.1689693262
 20
900.8594857085
 30
0.0
 10
1185.8177786806
 20
901.4430140884
 30
0.0
 10
1185.644734152
 20
902.1223921163
 30
0.0
 10
1185.5941180101
 20
902.6141820681
 30
0.0
 10
1185.5928954674
 20
902.8655878626
 30
0.0
  0
SPLINE
  5
540
100
AcDbEntity
  8
02___PRT_ALL_AXES
100
AcDbSpline
 62
7
  6
CONTINUOUS
 70
0
 71
3
 72
10
 73
6
 74
0
 42
0.0000001
 43
0.0000001
 44
0.0000000001
 40
0.0
 40
0.0
 40
0.0
 40
0.0
 40
0.3646046293
 40
0.657033611
 40
1.0
 40
1.0
 40
1.0
 40
1.0
 10
1186.6979496463
 20
897.4391435368
 30
0.0
 10
1187.3078640595
 20
897.4844668076
 30
0.0
 10
1188.0467230653
 20
898.6852733215
 30
0.0
 10
1188.3805885938
 20
900.2470509133
 30
0.0
 10
1188.4602891739
 20
901.3345858446
 30
0.0
 10
1188.4574916248
 20
901.9098786669
 30
0.0
  0
SPLINE
  5
541
100
AcDbEntity
  8
02___PRT_ALL_AXES
100
AcDbSpline
 62
7
  6
CONTINUOUS
 70
0
 71
3
 72
9
 73
5
 74
0
 42
0.0000001
 43
0.0000001
 44
0.0000000001
 40
0.0
 40
0.0
 40
0.0
 40
0.0
 40
0.3799948072
 40
1.0
 40
1.0
 40
1.0
 40
1.0
 10
1238.7582732886
 20
824.9328526467
 30
0.0
 10
1238.2315420843
 20
824.893760934
 30
0.0
 10
1237.0389411202
 20
826.1251849301
 30
0.0
 10
1236.8602661685
 20
827.5504594046
 30
0.0
 10
1237.0035171838
 20
828.4002560737
 30
0.0
  0
SPLINE
  5
542
100
AcDbEntity
  8
0
100
AcDbSpline
 62
7
  6
CONTINUOUS
 70
0
 71
3
 72
9
 73
5
 74
0
 42
0.0000001
 43
0.0000001
 44
0.0000000001
 40
0.0
 40
0.0
 40
0.0
 40
0.0
 40
0.2619909152
 40
1.0
 40
1.0
 40
1.0
 40
1.0
 10
1054.8944691258
 20
891.0360380541
 30
0.0
 10
1054.8952566707
 20
890.8740860305
 30
0.0
 10
1054.9240563614
 20
890.2568890493
 30
0.0
 10
1055.0417563444
 20
889.6395121509
 30
0.0
 10
1055.2006804489
 20
889.2118758672
 30
0.0
  0
SPLINE
  5
543
100
AcDbEntity
  8
0
100
AcDbSpline
 62
7
  6
CONTINUOUS
 70
0
 71
3
 72
8
 73
4
 74
0
 42
0.0000001
 43
0.0000001
 44
0.0000000001
 40
0.0
 40
0.0
 40
0.0
 40
0.0
 40
1.0
 40
1.0
 40
1.0
 40
1.0
 10
1055.2006804489
 20
889.2118758672
 30
0.0
 10
1055.2434146449
 20
889.0968858045
 30
0.0
 10
1055.2918834156
 20
888.9837143828
 30
0.0
 10
1055.3479787575
 20
888.8746170013
 30
0.0
  0
SPLINE
  5
544
100
AcDbEntity
  8
02___PRT_ALL_AXES
100
AcDbSpline
 62
7
  6
CONTINUOUS
 70
0
 71
3
 72
10
 73
6
 74
0
 42
0.0000001
 43
0.0000001
 44
0.0000000001
 40
0.0
 40
0.0
 40
0.0
 40
0.0
 40
0.3646014218
 40
0.6570401702
 40
1.0
 40
1.0
 40
1.0
 40
1.0
 10
1190.3423235838
 20
897.708827595
 30
0.0
 10
1190.9522570084
 20
897.7538280788
 30
0.0
 10
1191.6910966911
 20
898.9550805992
 30
0.0
 10
1192.0249644791
 20
900.5167063056
 30
0.0
 10
1192.1046624519
 20
901.6042830165
 30
0.0
 10
1192.101864954
 20
902.1795653106
 30
0.0
  0
SPLINE
  5
545
100
AcDbEntity
  8
02___PRT_ALL_AXES
100
AcDbSpline
 62
7
  6
CONTINUOUS
 70
0
 71
3
 72
9
 73
5
 74
0
 42
0.0000001
 43
0.0000001
 44
0.0000000001
 40
0.0
 40
0.0
 40
0.0
 40
0.0
 40
0.3799889329
 40
1.0
 40
1.0
 40
1.0
 40
1.0
 10
1060.287755458
 20
884.4755960335
 30
0.0
 10
1059.7610318167
 20
884.4365037336
 30
0.0
 10
1058.5684228337
 20
885.6679146732
 30
0.0
 10
1058.389741441
 20
887.0931958576
 30
0.0
 10
1058.5329939942
 20
887.9430016503
 30
0.0
  0
SPLINE
  5
546
100
AcDbEntity
  8
0
100
AcDbSpline
 62
7
  6
CONTINUOUS
 70
0
 71
3
 72
9
 73
5
 74
0
 42
0.0000001
 43
0.0000001
 44
0.0000000001
 40
0.0
 40
0.0
 40
0.0
 40
0.0
 40
0.4911313608
 40
1.0
 40
1.0
 40
1.0
 40
1.0
 10
1055.5464641238
 20
965.8372414269
 30
0.0
 10
1055.4126906835
 20
965.8818719777
 30
0.0
 10
1055.1126248769
 20
965.9120825881
 30
0.0
 10
1054.8415427685
 20
965.7837775685
 30
0.0
 10
1054.723056548
 20
965.6982753265
 30
0.0
  0
SPLINE
  5
547
100
AcDbEntity
  8
0
100
AcDbSpline
 62
7
  6
CONTINUOUS
 70
0
 71
3
 72
10
 73
6
 74
0
 42
0.0000001
 43
0.0000001
 44
0.0000000001
 40
0.0
 40
0.0
 40
0.0
 40
0.0
 40
0.6022456996
 40
0.8364768006
 40
1.0
 40
1.0
 40
1.0
 40
1.0
 10
1257.1370035527
 20
893.6841072575
 30
0.0
 10
1257.1309712322
 20
894.9246040523
 30
0.0
 10
1256.8767295906
 20
896.6826720573
 30
0.0
 10
1256.0105145074
 20
898.5495793294
 30
0.0
 10
1255.384844503
 20
899.1655825449
 30
0.0
 10
1255.0653309301
 20
899.2721811881
 30
0.0
  0
SPLINE
  5
548
100
AcDbEntity
  8
02___PRT_ALL_AXES
100
AcDbSpline
 62
7
  6
CONTINUOUS
 70
0
 71
3
 72
10
 73
6
 74
0
 42
0.0000001
 43
0.0000001
 44
0.0000000001
 40
0.0
 40
0.0
 40
0.0
 40
0.0
 40
0.3647495091
 40
0.6666868443
 40
1.0
 40
1.0
 40
1.0
 40
1.0
 10
1124.8159906967
 20
880.6938022598
 30
0.0
 10
1124.541618416
 20
880.6735279935
 30
0.0
 10
1124.1904277703
 20
881.2570563734
 30
0.0
 10
1124.0173832418
 20
881.9364344013
 30
0.0
 10
1123.9667670999
 20
882.4282243531
 30
0.0
 10
1123.9655445572
 20
882.6796301476
 30
0.0
  0
SPLINE
  5
549
100
AcDbEntity
  8
02___PRT_ALL_AXES
100
AcDbSpline
 62
7
  6
CONTINUOUS
 70
0
 71
3
 72
10
 73
6
 74
0
 42
0.0000001
 43
0.0000001
 44
0.0000000001
 40
0.0
 40
0.0
 40
0.0
 40
0.0
 40
0.3646046293
 40
0.657033611
 40
1.0
 40
1.0
 40
1.0
 40
1.0
 10
1125.070598736
 20
877.2531858218
 30
0.0
 10
1125.6805131493
 20
877.2985090926
 30
0.0
 10
1126.4193721551
 20
878.4993156065
 30
0.0
 10
1126.7532376835
 20
880.0610931983
 30
0.0
 10
1126.8329382637
 20
881.1486281296
 30
0.0
 10
1126.8301407146
 20
881.7239209519
 30
0.0
  0
SPLINE
  5
54A
100
AcDbEntity
  8
02___PRT_ALL_AXES
100
AcDbSpline
 62
7
  6
CONTINUOUS
 70
0
 71
3
 72
10
 73
6
 74
0
 42
0.0000001
 43
0.0000001
 44
0.0000000001
 40
0.0
 40
0.0
 40
0.0
 40
0.0
 40
0.3646014218
 40
0.6570401702
 40
1.0
 40
1.0
 40
1.0
 40
1.0
 10
1128.7149726735
 20
877.52286988
 30
0.0
 10
1129.3249060982
 20
877.5678703638
 30
0.0
 10
1130.0637457809
 20
878.7691228843
 30
0.0
 10
1130.3976135689
 20
880.3307485906
 30
0.0
 10
1130.4773115417
 20
881.4183253015
 30
0.0
 10
1130.4745140438
 20
881.9936075956
 30
0.0
  0
SPLINE
  5
54B
100
AcDbEntity
  8
0
100
AcDbSpline
 62
7
  6
CONTINUOUS
 70
0
 71
3
 72
13
 73
9
 74
0
 42
0.0000001
 43
0.0000001
 44
0.0000000001
 40
0.0
 40
0.0
 40
0.0
 40
0.0
 40
0.0768352555
 40
0.1555349236
 40
0.2483493952
 40
0.3614789143
 40
0.64957158
 40
1.0
 40
1.0
 40
1.0
 40
1.0
 10
1255.4545782822
 20
819.2266841829
 30
0.0
 10
1255.5816687065
 20
819.1842832726
 30
0.0
 10
1255.8637345057
 20
819.1522601504
 30
0.0
 10
1256.2762925442
 20
819.3276731674
 30
0.0
 10
1256.6300130372
 20
819.6874483446
 30
0.0
 10
1257.0638928009
 20
820.4381505961
 30
0.0
 10
1257.4027849967
 20
821.7229747319
 30
0.0
 10
1257.4815192445
 20
822.8373060659
 30
0.0
 10
1257.4785479043
 20
823.4483375835
 30
0.0
  0
SPLINE
  5
54C
100
AcDbEntity
  8
02___PRT_ALL_AXES
100
AcDbSpline
 62
7
  6
CONTINUOUS
 70
0
 71
3
 72
12
 73
8
 74
0
 42
0.0000001
 43
0.0000001
 44
0.0000000001
 40
0.0
 40
0.0
 40
0.0
 40
0.0
 40
0.3279023809
 40
0.6250007103
 40
0.7487814773
 40
0.8516847546
 40
1.0
 40
1.0
 40
1.0
 40
1.0
 10
1126.6316752774
 20
922.5366958412
 30
0.0
 10
1126.6280428935
 20
923.283665536
 30
0.0
 10
1126.4937851456
 20
924.7085556071
 30
0.0
 10
1126.0480994043
 20
926.3677287389
 30
0.0
 10
1125.5042802424
 20
927.4405705144
 30
0.0
 10
1125.0075729142
 20
928.1232509622
 30
0.0
 10
1124.4415680667
 20
928.4625953219
 30
0.0
 10
1124.1046273226
 20
928.437556962
 30
0.0
  0
SPLINE
  5
54D
100
AcDbEntity
  8
02___PRT_ALL_AXES
100
AcDbSpline
 62
7
  6
CONTINUOUS
 70
0
 71
3
 72
10
 73
6
 74
0
 42
0.0000001
 43
0.0000001
 44
0.0000000001
 40
0.0
 40
0.0
 40
0.0
 40
0.0
 40
0.3429810599
 40
0.6353901676
 40
1.0
 40
1.0
 40
1.0
 40
1.0
 10
1123.76707912
 20
923.4924050369
 30
0.0
 10
1123.7661376176
 20
923.6860172128
 30
0.0
 10
1123.7929405499
 20
924.0520166343
 30
0.0
 10
1123.905347215
 20
924.5775516164
 30
0.0
 10
1124.1539709813
 20
924.9817728667
 30
0.0
 10
1124.359235362
 20
924.996940524
 30
0.0
  0
SPLINE
  5
54E
100
AcDbEntity
  8
02___PRT_ALL_AXES
100
AcDbSpline
 62
7
  6
CONTINUOUS
 70
0
 71
3
 72
12
 73
8
 74
0
 42
0.0000001
 43
0.0000001
 44
0.0000000001
 40
0.0
 40
0.0
 40
0.0
 40
0.0
 40
0.3279023809
 40
0.6250007103
 40
0.7487814773
 40
0.8516847546
 40
1.0
 40
1.0
 40
1.0
 40
1.0
 10
1126.8301407146
 20
881.7239209519
 30
0.0
 10
1126.8265083307
 20
882.4708906467
 30
0.0
 10
1126.6922505828
 20
883.8957807177
 30
0.0
 10
1126.2465648415
 20
885.5549538496
 30
0.0
 10
1125.7027456796
 20
886.6277956251
 30
0.0
 10
1125.2060383514
 20
887.3104760729
 30
0.0
 10
1124.6400335039
 20
887.6498204326
 30
0.0
 10
1124.3030927598
 20
887.6247820727
 30
0.0
  0
SPLINE
  5
54F
100
AcDbEntity
  8
02___PRT_ALL_AXES
100
AcDbSpline
 62
7
  6
CONTINUOUS
 70
0
 71
3
 72
10
 73
6
 74
0
 42
0.0000001
 43
0.0000001
 44
0.0000000001
 40
0.0
 40
0.0
 40
0.0
 40
0.0
 40
0.3429810599
 40
0.6353901676
 40
1.0
 40
1.0
 40
1.0
 40
1.0
 10
1123.9655445572
 20
882.6796301476
 30
0.0
 10
1123.9646030548
 20
882.8732423235
 30
0.0
 10
1123.9914059871
 20
883.239241745
 30
0.0
 10
1124.1038126522
 20
883.7647767271
 30
0.0
 10
1124.3524364185
 20
884.1689979774
 30
0.0
 10
1124.5577007992
 20
884.1841656347
 30
0.0
  0
SPLINE
  5
550
100
AcDbEntity
  8
02___PRT_ALL_AXES
100
AcDbSpline
 62
7
  6
CONTINUOUS
 70
0
 71
3
 72
12
 73
8
 74
0
 42
0.0000001
 43
0.0000001
 44
0.0000000001
 40
0.0
 40
0.0
 40
0.0
 40
0.0
 40
0.3279023809
 40
0.6250007103
 40
0.7487814773
 40
0.8516847546
 40
1.0
 40
1.0
 40
1.0
 40
1.0
 10
1188.4574916248
 20
901.9098786669
 30
0.0
 10
1188.4538592409
 20
902.6568483617
 30
0.0
 10
1188.319601493
 20
904.0817384327
 30
0.0
 10
1187.8739157518
 20
905.7409115646
 30
0.0
 10
1187.3300965898
 20
906.8137533401
 30
0.0
 10
1186.8333892617
 20
907.4964337879
 30
0.0
 10
1186.2673844141
 20
907.8357781476
 30
0.0
 10
1185.93044367
 20
907.8107397877
 30
0.0
  0
SPLINE
  5
551
100
AcDbEntity
  8
02___PRT_ALL_AXES
100
AcDbSpline
 62
7
  6
CONTINUOUS
 70
0
 71
3
 72
10
 73
6
 74
0
 42
0.0000001
 43
0.0000001
 44
0.0000000001
 40
0.0
 40
0.0
 40
0.0
 40
0.0
 40
0.3429810599
 40
0.6353901676
 40
1.0
 40
1.0
 40
1.0
 40
1.0
 10
1185.5928954674
 20
902.8655878626
 30
0.0
 10
1185.591953965
 20
903.0592000385
 30
0.0
 10
1185.6187568974
 20
903.42519946
 30
0.0
 10
1185.7311635625
 20
903.9507344421
 30
0.0
 10
1185.9797873288
 20
904.3549556924
 30
0.0
 10
1186.1850517094
 20
904.3701233497
 30
0.0
  0
SPLINE
  5
552
100
AcDbEntity
  8
02___PRT_ALL_AXES
100
AcDbSpline
 62
7
  6
CONTINUOUS
 70
0
 71
3
 72
12
 73
8
 74
0
 42
0.0000001
 43
0.0000001
 44
0.0000000001
 40
0.0
 40
0.0
 40
0.0
 40
0.0
 40
0.3279023809
 40
0.6250007103
 40
0.7487814773
 40
0.8516847546
 40
1.0
 40
1.0
 40
1.0
 40
1.0
 10
1188.655957062
 20
861.0971037775
 30
0.0
 10
1188.6523246781
 20
861.8440734724
 30
0.0
 10
1188.5180669302
 20
863.2689635434
 30
0.0
 10
1188.072381189
 20
864.9281366753
 30
0.0
 10
1187.528562027
 20
866.0009784508
 30
0.0
 10
1187.0318546989
 20
866.6836588986
 30
0.0
 10
1186.4658498513
 20
867.0230032583
 30
0.0
 10
1186.1289091072
 20
866.9979648984
 30
0.0
  0
SPLINE
  5
553
100
AcDbEntity
  8
06___PRT_ALL_SURFS
100
AcDbSpline
 62
7
  6
CONTINUOUS
 70
0
 71
3
 72
9
 73
5
 74
0
 42
0.0000001
 43
0.0000001
 44
0.0000000001
 40
0.0
 40
0.0
 40
0.0
 40
0.0
 40
0.2548178619
 40
1.0
 40
1.0
 40
1.0
 40
1.0
 10
1243.740735483
 20
826.1525320915
 30
0.0
 10
1243.6219069754
 20
825.8204001969
 30
0.0
 10
1243.2577505717
 20
824.4830682303
 30
0.0
 10
1243.3301290407
 20
823.0237886608
 30
0.0
 10
1243.6451231994
 20
822.0414886776
 30
0.0
  0
SPLINE
  5
554
100
AcDbEntity
  8
02___PRT_ALL_AXES
100
AcDbSpline
 62
7
  6
CONTINUOUS
 70
0
 71
3
 72
10
 73
6
 74
0
 42
0.0000001
 43
0.0000001
 44
0.0000000001
 40
0.0
 40
0.0
 40
0.0
 40
0.0
 40
0.3429810599
 40
0.6353901676
 40
1.0
 40
1.0
 40
1.0
 40
1.0
 10
1185.7913609046
 20
862.0528129733
 30
0.0
 10
1185.7904194022
 20
862.2464251492
 30
0.0
 10
1185.8172223346
 20
862.6124245707
 30
0.0
 10
1185.9296289997
 20
863.1379595528
 30
0.0
 10
1186.178252766
 20
863.542180803
 30
0.0
 10
1186.3835171466
 20
863.5573484603
 30
0.0
  0
SPLINE
  5
555
100
AcDbEntity
  8
0
100
AcDbSpline
 62
7
  6
CONTINUOUS
 70
0
 71
3
 72
9
 73
5
 74
0
 42
0.0000001
 43
0.0000001
 44
0.0000000001
 40
0.0
 40
0.0
 40
0.0
 40
0.0
 40
0.2271656489
 40
1.0
 40
1.0
 40
1.0
 40
1.0
 10
1322.242280259
 20
814.2523227383
 30
0.0
 10
1322.3535343559
 20
814.3792301481
 30
0.0
 10
1322.8186919227
 20
814.9594616612
 30
0.0
 10
1323.1921417653
 20
815.6089422409
 30
0.0
 10
1323.4434288992
 20
816.1251976765
 30
0.0
  0
SPLINE
  5
556
100
AcDbEntity
  8
0
100
AcDbSpline
 62
7
  6
CONTINUOUS
 70
0
 71
3
 72
9
 73
5
 74
0
 42
0.0000001
 43
0.0000001
 44
0.0000000001
 40
0.0
 40
0.0
 40
0.0
 40
0.0
 40
0.4655958755
 40
1.0
 40
1.0
 40
1.0
 40
1.0
 10
1323.46070286
 20
816.1608366506
 30
0.0
 10
1323.9618345216
 20
817.1991361054
 30
0.0
 10
1324.7355633172
 20
819.5739450736
 30
0.0
 10
1325.1038006706
 20
822.031500193
 30
0.0
 10
1325.2075508899
 20
823.3507185813
 30
0.0
  0
SPLINE
  5
557
100
AcDbEntity
  8
06___PRT_ALL_SURFS
100
AcDbSpline
 62
7
  6
CONTINUOUS
 70
0
 71
3
 72
9
 73
5
 74
0
 42
0.0000001
 43
0.0000001
 44
0.0000000001
 40
0.0
 40
0.0
 40
0.0
 40
0.0
 40
0.2548178619
 40
1.0
 40
1.0
 40
1.0
 40
1.0
 10
1065.2702122934
 20
885.6952776681
 30
0.0
 10
1065.1513837858
 20
885.3631457735
 30
0.0
 10
1064.7872273822
 20
884.0258138068
 30
0.0
 10
1064.8596058511
 20
882.5665342374
 30
0.0
 10
1065.1746000098
 20
881.5842342542
 30
0.0
  0
SPLINE
  5
558
100
AcDbEntity
  8
02___PRT_ALL_AXES
100
AcDbSpline
 62
7
  6
CONTINUOUS
 70
0
 71
3
 72
10
 73
6
 74
0
 42
0.0000001
 43
0.0000001
 44
0.0000000001
 40
0.0
 40
0.0
 40
0.0
 40
0.0
 40
0.3647495091
 40
0.6666868443
 40
1.0
 40
1.0
 40
1.0
 40
1.0
 10
1124.6175252595
 20
921.5065771492
 30
0.0
 10
1124.3431529788
 20
921.4863028828
 30
0.0
 10
1123.9919623331
 20
922.0698312627
 30
0.0
 10
1123.8189178046
 20
922.7492092907
 30
0.0
 10
1123.7683016627
 20
923.2409992425
 30
0.0
 10
1123.76707912
 20
923.4924050369
 30
0.0
  0
SPLINE
  5
559
100
AcDbEntity
  8
02___PRT_ALL_AXES
100
AcDbSpline
 62
7
  6
CONTINUOUS
 70
0
 71
3
 72
10
 73
6
 74
0
 42
0.0000001
 43
0.0000001
 44
0.0000000001
 40
0.0
 40
0.0
 40
0.0
 40
0.0
 40
0.3646046293
 40
0.657033611
 40
1.0
 40
1.0
 40
1.0
 40
1.0
 10
1124.8721332988
 20
918.0659607111
 30
0.0
 10
1125.4820477121
 20
918.111283982
 30
0.0
 10
1126.2209067179
 20
919.3120904959
 30
0.0
 10
1126.5547722463
 20
920.8738680876
 30
0.0
 10
1126.6344728265
 20
921.9614030189
 30
0.0
 10
1126.6316752774
 20
922.5366958412
 30
0.0
  0
SPLINE
  5
55A
100
AcDbEntity
  8
02___PRT_ALL_AXES
100
AcDbSpline
 62
7
  6
CONTINUOUS
 70
0
 71
3
 72
10
 73
6
 74
0
 42
0.0000001
 43
0.0000001
 44
0.0000000001
 40
0.0
 40
0.0
 40
0.0
 40
0.0
 40
0.3646014218
 40
0.6570401702
 40
1.0
 40
1.0
 40
1.0
 40
1.0
 10
1128.5165072363
 20
918.3356447693
 30
0.0
 10
1129.126440661
 20
918.3806452531
 30
0.0
 10
1129.8652803437
 20
919.5818977736
 30
0.0
 10
1130.1991481317
 20
921.14352348
 30
0.0
 10
1130.2788461045
 20
922.2311001908
 30
0.0
 10
1130.2760486066
 20
922.8063824849
 30
0.0
  0
SPLINE
  5
55B
100
AcDbEntity
  8
0
100
AcDbSpline
 62
7
  6
CONTINUOUS
 70
0
 71
3
 72
10
 73
6
 74
0
 42
0.0000001
 43
0.0000001
 44
0.0000000001
 40
0.0
 40
0.0
 40
0.0
 40
0.0
 40
0.364292962
 40
0.6560269466
 40
1.0
 40
1.0
 40
1.0
 40
1.0
 10
1055.3856552585
 20
963.389380578
 30
0.0
 10
1055.0969832806
 20
963.3680186086
 30
0.0
 10
1054.746616066
 20
962.8007034595
 30
0.0
 10
1054.5891335568
 20
962.0605014248
 30
0.0
 10
1054.5515957202
 20
961.5451203113
 30
0.0
 10
1054.5529247724
 20
961.2718081131
 30
0.0
  0
SPLINE
  5
55C
100
AcDbEntity
  8
0
100
AcDbSpline
 62
7
  6
CONTINUOUS
 70
0
 71
3
 72
9
 73
5
 74
0
 42
0.0000001
 43
0.0000001
 44
0.0000000001
 40
0.0
 40
0.0
 40
0.0
 40
0.0
 40
0.2362970178
 40
1.0
 40
1.0
 40
1.0
 40
1.0
 10
1058.2734361562
 20
962.4690341908
 30
0.0
 10
1058.2602331371
 20
962.3968679115
 30
0.0
 10
1058.2127656473
 20
962.0899428741
 30
0.0
 10
1058.1961451057
 20
961.7786019458
 30
0.0
 10
1058.1972981015
 20
961.5414947568
 30
0.0
  0
SPLINE
  5
55D
100
AcDbEntity
  8
0
100
AcDbSpline
 62
7
  6
CONTINUOUS
 70
0
 71
3
 72
9
 73
5
 74
0
 42
0.0000001
 43
0.0000001
 44
0.0000000001
 40
0.0
 40
0.0
 40
0.0
 40
0.0
 40
0.2510642092
 40
1.0
 40
1.0
 40
1.0
 40
1.0
 10
1325.2075508899
 20
823.3507185813
 30
0.0
 10
1325.7705417206
 20
829.7297017704
 30
0.0
 10
1327.4265075272
 20
855.1855763051
 30
0.0
 10
1326.7178784696
 20
880.7972832297
 30
0.0
 10
1324.8357567987
 20
899.8070977586
 30
0.0
  0
SPLINE
  5
55E
100
AcDbEntity
  8
0
100
AcDbSpline
 62
7
  6
CONTINUOUS
 70
0
 71
3
 72
16
 73
12
 74
0
 42
0.0000001
 43
0.0000001
 44
0.0000000001
 40
0.0
 40
0.0
 40
0.0
 40
0.0
 40
0.110558449
 40
0.2213655113
 40
0.3324046906
 40
0.4436670602
 40
0.5550696998
 40
0.6665233746
 40
0.7778970984
 40
0.8890807733
 40
1.0
 40
1.0
 40
1.0
 40
1.0
 10
202.2213086503
 20
540.1908239938
 30
0.0
 10
202.2237558011
 20
540.4786765406
 30
0.0
 10
202.2795668142
 20
541.0623221882
 30
0.0
 10
202.5133053724
 20
541.9064639271
 30
0.0
 10
202.8926223719
 20
542.7047586297
 30
0.0
 10
203.4062406284
 20
543.4277856607
 30
0.0
 10
204.0398472937
 20
544.0541649153
 30
0.0
 10
204.7726381367
 20
544.5623703708
 30
0.0
 10
205.5828061434
 20
544.9367183306
 30
0.0
 10
206.4395756144
 20
545.1647995739
 30
0.0
 10
207.0307822633
 20
545.2159893671
 30
0.0
 10
207.3220600077
 20
545.2159893671
 30
0.0
  0
SPLINE
  5
55F
100
AcDbEntity
  8
0
100
AcDbSpline
 62
7
  6
CONTINUOUS
 70
0
 71
3
 72
16
 73
12
 74
0
 42
0.0000001
 43
0.0000001
 44
0.0000000001
 40
0.0
 40
0.0
 40
0.0
 40
0.0
 40
0.1110038151
 40
0.2222412831
 40
0.3336216133
 40
0.4450728074
 40
0.5564761469
 40
0.6677421179
 40
0.7787752979
 40
0.8895283191
 40
1.0
 40
1.0
 40
1.0
 40
1.0
 10
207.3220600243
 20
457.4927604926
 30
0.0
 10
207.0305623595
 20
457.4927604926
 30
0.0
 10
206.43897992
 20
457.5440218206
 30
0.0
 10
205.581874329
 20
457.7723532399
 30
0.0
 10
204.7716467705
 20
458.1469456991
 30
0.0
 10
204.0389602792
 20
458.6553221145
 30
0.0
 10
203.4054913975
 20
459.281844447
 30
0.0
 10
202.8920416457
 20
460.0049819914
 30
0.0
 10
202.5129709224
 20
460.8032227267
 30
0.0
 10
202.2794888657
 20
461.6470295073
 30
0.0
 10
202.2237539027
 20
462.2302966609
 30
0.0
 10
202.2213086507
 20
462.5179258576
 30
0.0
  0
SPLINE
  5
560
100
AcDbEntity
  8
0
100
AcDbSpline
 62
7
  6
CONTINUOUS
 70
0
 71
3
 72
16
 73
12
 74
0
 42
0.0000001
 43
0.0000001
 44
0.0000000001
 40
0.0
 40
0.0
 40
0.0
 40
0.0
 40
0.110558449
 40
0.2213655113
 40
0.3324046906
 40
0.4436670602
 40
0.5550696998
 40
0.6665233746
 40
0.7778970984
 40
0.8890807733
 40
1.0
 40
1.0
 40
1.0
 40
1.0
 10
706.0266946455
 20
462.5179259025
 30
0.0
 10
706.0242474947
 20
462.2300733556
 30
0.0
 10
705.9684364816
 20
461.6464277081
 30
0.0
 10
705.7346979234
 20
460.8022859692
 30
0.0
 10
705.3553809239
 20
460.0039912665
 30
0.0
 10
704.8417626674
 20
459.2809642356
 30
0.0
 10
704.2081560021
 20
458.6545849811
 30
0.0
 10
703.4753651591
 20
458.1463795256
 30
0.0
 10
702.6651971523
 20
457.7720315657
 30
0.0
 10
701.8084276816
 20
457.5439503226
 30
0.0
 10
701.2172210329
 20
457.4927605294
 30
0.0
 10
700.9259432882
 20
457.4927605294
 30
0.0
  0
SPLINE
  5
561
100
AcDbEntity
  8
0
100
AcDbSpline
 62
7
  6
CONTINUOUS
 70
0
 71
3
 72
16
 73
12
 74
0
 42
0.0000001
 43
0.0000001
 44
0.0000000001
 40
0.0
 40
0.0
 40
0.0
 40
0.0
 40
0.1110038151
 40
0.2222412831
 40
0.3336216133
 40
0.4450728074
 40
0.5564761469
 40
0.6677421179
 40
0.7787752979
 40
0.8895283191
 40
1.0
 40
1.0
 40
1.0
 40
1.0
 10
700.9259432715
 20
545.215989404
 30
0.0
 10
701.2174409363
 20
545.215989404
 30
0.0
 10
701.8090233758
 20
545.164728076
 30
0.0
 10
702.6661289667
 20
544.9363966567
 30
0.0
 10
703.4763565252
 20
544.5618041975
 30
0.0
 10
704.2090430165
 20
544.053427782
 30
0.0
 10
704.8425118982
 20
543.4269054495
 30
0.0
 10
705.3559616501
 20
542.7037679051
 30
0.0
 10
705.7350323734
 20
541.9055271698
 30
0.0
 10
705.96851443
 20
541.0617203891
 30
0.0
 10
706.0242493931
 20
540.4784532355
 30
0.0
 10
706.0266946451
 20
540.1908240388
 30
0.0
  0
SPLINE
  5
562
100
AcDbEntity
  8
0
100
AcDbSpline
 62
7
  6
CONTINUOUS
 70
0
 71
3
 72
11
 73
7
 74
0
 42
0.0000001
 43
0.0000001
 44
0.0000000001
 40
0.0
 40
0.0
 40
0.0
 40
0.0
 40
0.2504752631
 40
0.5013296766
 40
0.7514148741
 40
1.0
 40
1.0
 40
1.0
 40
1.0
 10
700.9259432718
 20
551.9702125827
 30
0.0
 10
702.4892015314
 20
551.9693511013
 30
0.0
 10
705.6509563689
 20
551.346720309
 30
0.0
 10
709.6582553107
 20
548.6941536796
 30
0.0
 10
712.3577620768
 20
544.7313737472
 30
0.0
 10
713.0070228281
 20
541.5903510927
 30
0.0
 10
713.0189033664
 20
540.0389347509
 30
0.0
  0
SPLINE
  5
563
100
AcDbEntity
  8
0
100
AcDbSpline
 62
7
  6
CONTINUOUS
 70
0
 71
3
 72
11
 73
7
 74
0
 42
0.0000001
 43
0.0000001
 44
0.0000000001
 40
0.0
 40
0.0
 40
0.0
 40
0.0
 40
0.2487292016
 40
0.4988113385
 40
0.7496668827
 40
1.0
 40
1.0
 40
1.0
 40
1.0
 10
195.229099929
 20
540.0389347061
 30
0.0
 10
195.2409873531
 20
541.591250178
 30
0.0
 10
195.8908169841
 20
544.7332069357
 30
0.0
 10
198.5917300732
 20
548.6961026642
 30
0.0
 10
202.5988714054
 20
551.3472682109
 30
0.0
 10
205.7596889665
 20
551.9693515178
 30
0.0
 10
207.3220600253
 20
551.9702125084
 30
0.0
  0
SPLINE
  5
564
100
AcDbEntity
  8
0
100
AcDbSpline
 62
7
  6
CONTINUOUS
 70
0
 71
3
 72
11
 73
7
 74
0
 42
0.0000001
 43
0.0000001
 44
0.0000000001
 40
0.0
 40
0.0
 40
0.0
 40
0.0
 40
0.2504752631
 40
0.5013296766
 40
0.7514148741
 40
1.0
 40
1.0
 40
1.0
 40
1.0
 10
207.322060024
 20
450.7385373139
 30
0.0
 10
205.7588017644
 20
450.7393987952
 30
0.0
 10
202.5970469269
 20
451.3620295875
 30
0.0
 10
198.5897479851
 20
454.0145962169
 30
0.0
 10
195.890241219
 20
457.9773761493
 30
0.0
 10
195.2409804677
 20
461.1183988037
 30
0.0
 10
195.2290999294
 20
462.6698151455
 30
0.0
  0
SPLINE
  5
565
100
AcDbEntity
  8
0
100
AcDbSpline
 62
7
  6
CONTINUOUS
 70
0
 71
3
 72
11
 73
7
 74
0
 42
0.0000001
 43
0.0000001
 44
0.0000000001
 40
0.0
 40
0.0
 40
0.0
 40
0.0
 40
0.2487292016
 40
0.4988113385
 40
0.7496668827
 40
1.0
 40
1.0
 40
1.0
 40
1.0
 10
713.0189033668
 20
462.6698151901
 30
0.0
 10
713.0070159427
 20
461.1174997183
 30
0.0
 10
712.3571863117
 20
457.9755429606
 30
0.0
 10
709.6562732226
 20
454.0126472321
 30
0.0
 10
705.6491318904
 20
451.3614816855
 30
0.0
 10
702.4883143293
 20
450.7393983786
 30
0.0
 10
700.9259432704
 20
450.738537388
 30
0.0
  0
SPLINE
  5
566
100
AcDbEntity
  8
0
100
AcDbSpline
 62
7
  6
CONTINUOUS
 70
0
 71
3
 72
11
 73
7
 74
0
 42
0.0000001
 43
0.0000001
 44
0.0000000001
 40
0.0
 40
0.0
 40
0.0
 40
0.0
 40
0.249095136
 40
0.4993458179
 40
0.7500619022
 40
1.0
 40
1.0
 40
1.0
 40
1.0
 10
711.0265139706
 20
462.4754204175
 30
0.0
 10
711.015466484
 20
461.1759307851
 30
0.0
 10
710.471312022
 20
458.5473074966
 30
0.0
 10
708.2154132016
 20
455.2312903443
 30
0.0
 10
704.8695648284
 20
453.0127588294
 30
0.0
 10
702.2298776199
 20
452.4927605274
 30
0.0
 10
700.9259432725
 20
452.4927605294
 30
0.0
  0
SPLINE
  5
567
100
AcDbEntity
  8
0
100
AcDbSpline
 62
7
  6
CONTINUOUS
 70
0
 71
3
 72
11
 73
7
 74
0
 42
0.0000001
 43
0.0000001
 44
0.0000000001
 40
0.0
 40
0.0
 40
0.0
 40
0.0
 40
0.2500800733
 40
0.5007952093
 40
0.7510491184
 40
1.0
 40
1.0
 40
1.0
 40
1.0
 10
207.322060024
 20
452.4927604926
 30
0.0
 10
206.0173849687
 20
452.4927604926
 30
0.0
 10
203.3769140958
 20
453.0132176955
 30
0.0
 10
200.0309350195
 20
455.2329213571
 30
0.0
 10
197.776210281
 20
458.5488404979
 30
0.0
 10
197.2325304145
 20
461.1766832747
 30
0.0
 10
197.2214893256
 20
462.4754203726
 30
0.0
  0
SPLINE
  5
568
100
AcDbEntity
  8
0
100
AcDbSpline
 62
7
  6
CONTINUOUS
 70
0
 71
3
 72
15
 73
11
 74
0
 42
0.0000001
 43
0.0000001
 44
0.0000000001
 40
0.0
 40
0.0
 40
0.0
 40
0.0
 40
0.1251820548
 40
0.250221869
 40
0.3751295617
 40
0.5000001131
 40
0.6248706596
 40
0.7497782981
 40
0.874817644
 40
1.0
 40
1.0
 40
1.0
 40
1.0
 10
510.1137081436
 20
464.1089973479
 30
0.0
 10
515.1446842558
 20
464.1080408719
 30
0.0
 10
525.2937129626
 20
465.9103278701
 30
0.0
 10
538.5259534263
 20
473.815278636
 30
0.0
 10
547.8445174628
 20
486.182243221
 30
0.0
 10
551.2623901718
 20
501.3487929473
 30
0.0
 10
547.8492520493
 20
516.5164454311
 30
0.0
 10
538.5342254082
 20
528.88610964
 30
0.0
 10
525.3040785136
 20
536.7946295305
 30
0.0
 10
515.1554881585
 20
538.5994069157
 30
0.0
 10
510.1244998624
 20
538.5997216794
 30
0.0
  0
SPLINE
  5
569
100
AcDbEntity
  8
0
100
AcDbSpline
 62
7
  6
CONTINUOUS
 70
0
 71
3
 72
13
 73
9
 74
0
 42
0.0000001
 43
0.0000001
 44
0.0000000001
 40
0.0
 40
0.0
 40
0.0
 40
0.0
 40
0.1252806811
 40
0.250526153
 40
0.3757382695
 40
0.5009365254
 40
0.7503264189
 40
1.0
 40
1.0
 40
1.0
 40
1.0
 10
470.1240016479
 20
501.3543749483
 30
0.0
 10
470.1240039957
 20
498.8305691433
 30
0.0
 10
470.6830622103
 20
493.7663539435
 30
0.0
 10
473.1383377196
 20
486.5477346036
 30
0.0
 10
477.0519593126
 20
480.0049143971
 30
0.0
 10
483.8896159801
 20
472.5351118575
 30
0.0
 10
494.9432816612
 20
465.9092548721
 30
0.0
 10
505.0839812864
 20
464.1104702373
 30
0.0
 10
510.1137081436
 20
464.1089973479
 30
0.0
  0
SPLINE
  5
56A
100
AcDbEntity
  8
0
100
AcDbSpline
 62
7
  6
CONTINUOUS
 70
0
 71
3
 72
15
 73
11
 74
0
 42
0.0000001
 43
0.0000001
 44
0.0000000001
 40
0.0
 40
0.0
 40
0.0
 40
0.0
 40
0.1250786794
 40
0.2500978669
 40
0.3750553623
 40
0.4999883168
 40
0.6249228808
 40
0.74988719
 40
0.8749162287
 40
1.0
 40
1.0
 40
1.0
 40
1.0
 10
437.0303467914
 20
482.0063337367
 30
0.0
 10
439.6373947529
 20
482.0073107944
 30
0.0
 10
444.9044496686
 20
483.0181618059
 30
0.0
 10
451.6224669637
 20
487.3829715363
 30
0.0
 10
456.1344261579
 20
494.0322713903
 30
0.0
 10
457.5766088406
 20
501.9488372615
 30
0.0
 10
455.649175502
 20
509.7602003008
 30
0.0
 10
450.7503859324
 20
516.1268391022
 30
0.0
 10
443.7953537542
 20
520.0998275662
 30
0.0
 10
438.4801952364
 20
520.8150081651
 30
0.0
 10
435.8770542626
 20
520.6704035406
 30
0.0
  0
SPLINE
  5
56B
100
AcDbEntity
  8
0
100
AcDbSpline
 62
7
  6
CONTINUOUS
 70
0
 71
3
 72
11
 73
7
 74
0
 42
0.0000001
 43
0.0000001
 44
0.0000000001
 40
0.0
 40
0.0
 40
0.0
 40
0.0
 40
0.2498742326
 40
0.4997996495
 40
0.7498430601
 40
1.0
 40
1.0
 40
1.0
 40
1.0
 10
417.0240016479
 20
501.3543749483
 30
0.0
 10
417.0240085689
 20
498.7963744639
 30
0.0
 10
418.1074147811
 20
493.6195441491
 30
0.0
 10
422.6566135146
 20
487.1895487952
 30
0.0
 10
429.2968670474
 20
482.9764036468
 30
0.0
 10
434.4694522566
 20
482.0057504924
 30
0.0
 10
437.0303467914
 20
482.0063337367
 30
0.0
  0
SPLINE
  5
56C
100
AcDbEntity
  8
0
100
AcDbSpline
 62
7
  6
CONTINUOUS
 70
0
 71
3
 72
11
 73
7
 74
0
 42
0.0000001
 43
0.0000001
 44
0.0000000001
 40
0.0
 40
0.0
 40
0.0
 40
0.0
 40
0.249095136
 40
0.4993458179
 40
0.7500619022
 40
1.0
 40
1.0
 40
1.0
 40
1.0
 10
197.2214893252
 20
540.2333294787
 30
0.0
 10
197.2325368117
 20
541.5328191111
 30
0.0
 10
197.7766912738
 20
544.1614423996
 30
0.0
 10
200.0325900942
 20
547.477459552
 30
0.0
 10
203.3784384674
 20
549.6959910669
 30
0.0
 10
206.0181256759
 20
550.2159893691
 30
0.0
 10
207.3220600233
 20
550.2159893671
 30
0.0
  0
SPLINE
  5
56D
100
AcDbEntity
  8
0
100
AcDbSpline
 62
7
  6
CONTINUOUS
 70
0
 71
3
 72
11
 73
7
 74
0
 42
0.0000001
 43
0.0000001
 44
0.0000000001
 40
0.0
 40
0.0
 40
0.0
 40
0.0
 40
0.2500800733
 40
0.5007952093
 40
0.7510491184
 40
1.0
 40
1.0
 40
1.0
 40
1.0
 10
700.9259432718
 20
550.215989404
 30
0.0
 10
702.2306183271
 20
550.215989404
 30
0.0
 10
704.8710892
 20
549.6955322011
 30
0.0
 10
708.2170682763
 20
547.4758285394
 30
0.0
 10
710.4717930148
 20
544.1599093985
 30
0.0
 10
711.0154728813
 20
541.5320666217
 30
0.0
 10
711.0265139702
 20
540.2333295238
 30
0.0
  0
SPLINE
  5
56E
100
AcDbEntity
  8
0
100
AcDbSpline
 62
7
  6
CONTINUOUS
 70
0
 71
3
 72
13
 73
9
 74
0
 42
0.0000001
 43
0.0000001
 44
0.0000000001
 40
0.0
 40
0.0
 40
0.0
 40
0.0
 40
0.2496743584
 40
0.4990635604
 40
0.6242618356
 40
0.7494741082
 40
0.8747221147
 40
1.0
 40
1.0
 40
1.0
 40
1.0
 10
510.1244998624
 20
538.5997216794
 30
0.0
 10
505.093540043
 20
538.6000364413
 30
0.0
 10
494.9496614392
 20
536.8039964403
 30
0.0
 10
483.8918242024
 20
530.179027957
 30
0.0
 10
477.0508512691
 20
522.7086744033
 30
0.0
 10
473.1363615543
 20
516.164569363
 30
0.0
 10
470.6760438849
 20
508.9450297447
 30
0.0
 10
470.1240016339
 20
503.8787351296
 30
0.0
 10
470.1240016479
 20
501.3543749483
 30
0.0
  0
SPLINE
  5
56F
100
AcDbEntity
  8
0
100
AcDbSpline
 62
7
  6
CONTINUOUS
 70
0
 71
3
 72
11
 73
7
 74
0
 42
0.0000001
 43
0.0000001
 44
0.0000000001
 40
0.0
 40
0.0
 40
0.0
 40
0.0
 40
0.2501470838
 40
0.5001818369
 40
0.7501152756
 40
1.0
 40
1.0
 40
1.0
 40
1.0
 10
435.8770542626
 20
520.6704035406
 30
0.0
 10
433.4143718824
 20
520.5336013986
 30
0.0
 10
428.4934224988
 20
519.3584180891
 30
0.0
 10
422.2576241738
 20
515.080561765
 30
0.0
 10
418.0231830701
 20
508.8013106556
 30
0.0
 10
417.0240015484
 20
503.818267191
 30
0.0
 10
417.0240016479
 20
501.3543749483
 30
0.0
  0
SPLINE
  5
570
100
AcDbEntity
  8
0
100
AcDbSpline
 62
7
  6
CONTINUOUS
 70
0
 71
3
 72
16
 73
12
 74
0
 42
0.0000001
 43
0.0000001
 44
0.0000000001
 40
0.0
 40
0.0
 40
0.0
 40
0.0
 40
0.3754512248
 40
0.5455208465
 40
0.6953791846
 40
0.8195527622
 40
0.9135407573
 40
0.9481315977
 40
0.9740619876
 40
0.9912267822
 40
1.0
 40
1.0
 40
1.0
 40
1.0
 10
926.1074372659
 20
465.8172509222
 30
0.0
 10
926.1726219156
 20
464.3185875733
 30
0.0
 10
926.2475450223
 20
462.1400419778
 30
0.0
 10
926.2960807889
 20
459.362205868
 30
0.0
 10
926.3032804375
 20
457.5875081808
 30
0.0
 10
926.2822043144
 20
456.1179270616
 30
0.0
 10
926.241857224
 20
455.1070176244
 30
0.0
 10
926.1899606217
 20
454.4939238376
 30
0.0
 10
926.1505416834
 20
454.1820104115
 30
0.0
 10
926.1063947762
 20
453.9870025204
 30
0.0
 10
926.0674068275
 20
453.8792054682
 30
0.0
 10
926.0374966318
 20
453.8609280776
 30
0.0
  0
SPLINE
  5
571
100
AcDbEntity
  8
0
100
AcDbSpline
 62
7
  6
CONTINUOUS
 70
0
 71
3
 72
18
 73
14
 74
0
 42
0.0000001
 43
0.0000001
 44
0.0000000001
 40
0.0
 40
0.0
 40
0.0
 40
0.0
 40
0.1947722419
 40
0.382274238
 40
0.555262498
 40
0.7070108422
 40
0.8315398895
 40
0.8820234621
 40
0.9239662829
 40
0.9569735951
 40
0.9807477515
 40
0.9950893802
 40
1.0
 40
1.0
 40
1.0
 40
1.0
 10
870.0795701887
 20
462.6698151901
 30
0.0
 10
870.1473672175
 20
461.8952558903
 30
0.0
 10
870.2814400044
 20
460.3751259324
 30
0.0
 10
870.4786771335
 20
458.1673877998
 30
0.0
 10
870.6619461843
 20
456.1306296793
 30
0.0
 10
870.8214029284
 20
454.344766114
 30
0.0
 10
870.9352608609
 20
453.0441571695
 30
0.0
 10
871.0050684419
 20
452.1827508912
 30
0.0
 10
871.0456977706
 20
451.6796679362
 30
0.0
 10
871.0668003352
 20
451.2965276656
 30
0.0
 10
871.0956442657
 20
450.9900280074
 30
0.0
 10
871.076209534
 20
450.8589759874
 30
0.0
 10
871.0975596474
 20
450.739288495
 30
0.0
 10
871.077971101
 20
450.738537388
 30
0.0
  0
SPLINE
  5
572
100
AcDbEntity
  8
0
100
AcDbSpline
 62
7
  6
CONTINUOUS
 70
0
 71
3
 72
18
 73
14
 74
0
 42
0.0000001
 43
0.0000001
 44
0.0000000001
 40
0.0
 40
0.0
 40
0.0
 40
0.0
 40
0.0049182206
 40
0.0192809149
 40
0.0430844223
 40
0.0761195023
 40
0.1180840515
 40
0.1685857596
 40
0.2931474971
 40
0.4449276015
 40
0.6179381237
 40
0.8053765411
 40
1.0
 40
1.0
 40
1.0
 40
1.0
 10
871.0779710839
 20
551.9702125827
 30
0.0
 10
871.0975899484
 20
551.9694603116
 30
0.0
 10
871.0761773063
 20
551.8495881726
 30
0.0
 10
871.0956483223
 20
551.7183660634
 30
0.0
 10
871.0667508482
 20
551.4115280032
 30
0.0
 10
871.0456265895
 20
551.0280815691
 30
0.0
 10
871.00496666
 20
550.5247289234
 30
0.0
 10
870.9351279489
 20
549.6630347527
 30
0.0
 10
870.8212358325
 20
548.3620980505
 30
0.0
 10
870.6617456007
 20
546.5758900232
 30
0.0
 10
870.4784804116
 20
544.5391700765
 30
0.0
 10
870.2813129136
 20
542.3321877479
 30
0.0
 10
870.1473154253
 20
540.8129023167
 30
0.0
 10
870.0795701931
 20
540.0389347509
 30
0.0
  0
SPLINE
  5
573
100
AcDbEntity
  8
0
100
AcDbSpline
 62
7
  6
CONTINUOUS
 70
0
 71
3
 72
16
 73
12
 74
0
 42
0.0000001
 43
0.0000001
 44
0.0000000001
 40
0.0
 40
0.0
 40
0.0
 40
0.0
 40
0.0087798067
 40
0.02596129
 40
0.0519148219
 40
0.0865264515
 40
0.1805407756
 40
0.3047331952
 40
0.4546088081
 40
0.6246932792
 40
1.0
 40
1.0
 40
1.0
 40
1.0
 10
926.0374961533
 20
548.8478223823
 30
0.0
 10
926.067429433
 20
548.829532285
 30
0.0
 10
926.1064300255
 20
548.7216228539
 30
0.0
 10
926.1505936886
 20
548.5264426826
 30
0.0
 10
926.1900174909
 20
548.2142793731
 30
0.0
 10
926.2419058268
 20
547.6009059104
 30
0.0
 10
926.2822314867
 20
546.5897307902
 30
0.0
 10
926.3032858603
 20
545.1199004641
 30
0.0
 10
926.2960640817
 20
543.3449992088
 30
0.0
 10
926.2475076988
 20
540.5676127529
 30
0.0
 10
926.1725968095
 20
538.3895854602
 30
0.0
 10
926.1074372659
 20
536.8914990077
 30
0.0
  0
SPLINE
  5
574
100
AcDbEntity
  8
0
100
AcDbSpline
 62
7
  6
CONTINUOUS
 70
0
 71
3
 72
16
 73
12
 74
0
 42
0.0000001
 43
0.0000001
 44
0.0000000001
 40
0.0
 40
0.0
 40
0.0
 40
0.0
 40
0.1111111119
 40
0.2222222233
 40
0.3333333347
 40
0.4444444461
 40
0.5555555575
 40
0.6666666689
 40
0.7777777804
 40
0.8888888918
 40
1.0
 40
1.0
 40
1.0
 40
1.0
 10
1587.6158490084
 20
463.3538327043
 30
0.0
 10
1587.7597825862
 20
463.3538327046
 30
0.0
 10
1588.0514969823
 20
463.3791935728
 30
0.0
 10
1588.4693365936
 20
463.4910973438
 30
0.0
 10
1588.861536919
 20
463.6734971824
 30
0.0
 10
1589.2143761323
 20
463.9202883686
 30
0.0
 10
1589.5186151156
 20
464.2243206432
 30
0.0
 10
1589.7652560771
 20
464.576426886
 30
0.0
 10
1589.9473955486
 20
464.9675912651
 30
0.0
 10
1590.0589194419
 20
465.383527933
 30
0.0
 10
1590.0842131487
 20
465.6739885693
 30
0.0
 10
1590.0842131494
 20
465.8172508771
 30
0.0
  0
SPLINE
  5
575
100
AcDbEntity
  8
0
100
AcDbSpline
 62
7
  6
CONTINUOUS
 70
0
 71
3
 72
16
 73
12
 74
0
 42
0.0000001
 43
0.0000001
 44
0.0000000001
 40
0.0
 40
0.0
 40
0.0
 40
0.0
 40
0.1111111082
 40
0.2222222196
 40
0.3333333311
 40
0.4444444425
 40
0.5555555539
 40
0.6666666653
 40
0.7777777767
 40
0.8888888881
 40
1.0
 40
1.0
 40
1.0
 40
1.0
 10
1590.0842131494
 20
536.8914989872
 30
0.0
 10
1590.0842131487
 20
537.0348484747
 30
0.0
 10
1590.0589156134
 20
537.3253446168
 30
0.0
 10
1589.9472242835
 20
537.7416470279
 30
0.0
 10
1589.7650904413
 20
538.1325970283
 30
0.0
 10
1589.5183378841
 20
538.4847693863
 30
0.0
 10
1589.2140634734
 20
538.7887173273
 30
0.0
 10
1588.8611829344
 20
539.0354662112
 30
0.0
 10
1588.4688421203
 20
539.2178234168
 30
0.0
 10
1588.0513181327
 20
539.3295702643
 30
0.0
 10
1587.7596957786
 20
539.3549171754
 30
0.0
 10
1587.6158490119
 20
539.3549171755
 30
0.0
  0
SPLINE
  5
576
100
AcDbEntity
  8
0
100
AcDbSpline
 62
7
  6
CONTINUOUS
 70
0
 71
3
 72
16
 73
12
 74
0
 42
0.0000001
 43
0.0000001
 44
0.0000000001
 40
0.0
 40
0.0
 40
0.0
 40
0.0
 40
0.1111111223
 40
0.2222222442
 40
0.3333333661
 40
0.444444488
 40
0.5555556099
 40
0.6666667318
 40
0.7777778537
 40
0.8888889756
 40
1.0
 40
1.0
 40
1.0
 40
1.0
 10
1103.5489690567
 20
539.3549171925
 30
0.0
 10
1103.4050354777
 20
539.3549171922
 30
0.0
 10
1103.113321082
 20
539.3295563242
 30
0.0
 10
1102.6954814719
 20
539.2176525534
 30
0.0
 10
1102.3032811458
 20
539.0352527147
 30
0.0
 10
1101.9504419328
 20
538.7884615285
 30
0.0
 10
1101.6462029494
 20
538.4844292539
 30
0.0
 10
1101.399561988
 20
538.1323230111
 30
0.0
 10
1101.2174225165
 20
537.741158632
 30
0.0
 10
1101.1058986547
 20
537.3252220818
 30
0.0
 10
1101.0806049378
 20
537.0347615744
 30
0.0
 10
1101.0806049156
 20
536.8914993848
 30
0.0
  0
SPLINE
  5
577
100
AcDbEntity
  8
0
100
AcDbSpline
 62
7
  6
CONTINUOUS
 70
0
 71
3
 72
16
 73
12
 74
0
 42
0.0000001
 43
0.0000001
 44
0.0000000001
 40
0.0
 40
0.0
 40
0.0
 40
0.0
 40
0.1111111082
 40
0.2222222196
 40
0.3333333311
 40
0.4444444425
 40
0.5555555539
 40
0.6666666653
 40
0.7777777767
 40
0.8888888881
 40
1.0
 40
1.0
 40
1.0
 40
1.0
 10
1101.0806049156
 20
465.8172509099
 30
0.0
 10
1101.0806049163
 20
465.6739014224
 30
0.0
 10
1101.1059024517
 20
465.3834052803
 30
0.0
 10
1101.2175937815
 20
464.9671028692
 30
0.0
 10
1101.3997276237
 20
464.5761528688
 30
0.0
 10
1101.6464801809
 20
464.2239805108
 30
0.0
 10
1101.9507545916
 20
463.9200325699
 30
0.0
 10
1102.3036351308
 20
463.6732836859
 30
0.0
 10
1102.6959759443
 20
463.4909264805
 30
0.0
 10
1103.1134999331
 20
463.3791796327
 30
0.0
 10
1103.4051222875
 20
463.3538327215
 30
0.0
 10
1103.5489690531
 20
463.3538327213
 30
0.0
  0
SPLINE
  5
578
100
AcDbEntity
  8
0
100
AcDbSpline
 62
7
  6
CONTINUOUS
 70
0
 71
3
 72
11
 73
7
 74
0
 42
0.0000001
 43
0.0000001
 44
0.0000000001
 40
0.0
 40
0.0
 40
0.0
 40
0.0
 40
0.2504752631
 40
0.5013296766
 40
0.7514148741
 40
1.0
 40
1.0
 40
1.0
 40
1.0
 10
1098.7804674086
 20
551.9702125827
 30
0.0
 10
1097.217209149
 20
551.9693511013
 30
0.0
 10
1094.0554543115
 20
551.346720309
 30
0.0
 10
1090.0481553697
 20
548.6941536796
 30
0.0
 10
1087.3486486036
 20
544.7313737472
 30
0.0
 10
1086.6993878523
 20
541.5903510927
 30
0.0
 10
1086.687507314
 20
540.0389347509
 30
0.0
  0
SPLINE
  5
579
100
AcDbEntity
  8
0
100
AcDbSpline
 62
7
  6
CONTINUOUS
 70
0
 71
3
 72
11
 73
7
 74
0
 42
0.0000001
 43
0.0000001
 44
0.0000000001
 40
0.0
 40
0.0
 40
0.0
 40
0.0
 40
0.2487292016
 40
0.4988113385
 40
0.7496668827
 40
1.0
 40
1.0
 40
1.0
 40
1.0
 10
1604.4773107514
 20
540.0389347061
 30
0.0
 10
1604.4654233273
 20
541.591250178
 30
0.0
 10
1603.8155936963
 20
544.7332069357
 30
0.0
 10
1601.1146806072
 20
548.6961026642
 30
0.0
 10
1597.107539275
 20
551.3472682109
 30
0.0
 10
1593.9467217139
 20
551.9693515178
 30
0.0
 10
1592.3843506551
 20
551.9702125084
 30
0.0
  0
SPLINE
  5
57A
100
AcDbEntity
  8
0
100
AcDbSpline
 62
7
  6
CONTINUOUS
 70
0
 71
3
 72
11
 73
7
 74
0
 42
0.0000001
 43
0.0000001
 44
0.0000000001
 40
0.0
 40
0.0
 40
0.0
 40
0.0
 40
0.2504752631
 40
0.5013296766
 40
0.7514148741
 40
1.0
 40
1.0
 40
1.0
 40
1.0
 10
1592.3843506564
 20
450.7385373139
 30
0.0
 10
1593.947608916
 20
450.7393987952
 30
0.0
 10
1597.1093637535
 20
451.3620295875
 30
0.0
 10
1601.1166626953
 20
454.0145962169
 30
0.0
 10
1603.8161694614
 20
457.9773761493
 30
0.0
 10
1604.4654302127
 20
461.1183988037
 30
0.0
 10
1604.477310751
 20
462.6698151455
 30
0.0
  0
SPLINE
  5
57B
100
AcDbEntity
  8
0
100
AcDbSpline
 62
7
  6
CONTINUOUS
 70
0
 71
3
 72
11
 73
7
 74
0
 42
0.0000001
 43
0.0000001
 44
0.0000000001
 40
0.0
 40
0.0
 40
0.0
 40
0.0
 40
0.2487292016
 40
0.4988113385
 40
0.7496668827
 40
1.0
 40
1.0
 40
1.0
 40
1.0
 10
1086.6875073136
 20
462.6698151901
 30
0.0
 10
1086.6993947377
 20
461.1174997183
 30
0.0
 10
1087.3492243687
 20
457.9755429606
 30
0.0
 10
1090.0501374579
 20
454.0126472321
 30
0.0
 10
1094.05727879
 20
451.3614816855
 30
0.0
 10
1097.2180963511
 20
450.7393983786
 30
0.0
 10
1098.78046741
 20
450.738537388
 30
0.0
  0
SPLINE
  5
57C
100
AcDbEntity
  8
0
100
AcDbSpline
 62
7
  6
CONTINUOUS
 70
0
 71
3
 72
11
 73
7
 74
0
 42
0.0000001
 43
0.0000001
 44
0.0000000001
 40
0.0
 40
0.0
 40
0.0
 40
0.0
 40
0.2501710864
 40
0.4998665797
 40
0.7496779213
 40
1.0
 40
1.0
 40
1.0
 40
1.0
 10
1098.5806049156
 20
465.8172509222
 30
0.0
 10
1098.5806049156
 20
465.1707564913
 30
0.0
 10
1098.8380553314
 20
463.8646967222
 30
0.0
 10
1099.9431503109
 20
462.2140531776
 30
0.0
 10
1101.5953801558
 20
461.1107376537
 30
0.0
 10
1102.9020844204
 20
460.8538327224
 30
0.0
 10
1103.5489690471
 20
460.8538327213
 30
0.0
  0
SPLINE
  5
57D
100
AcDbEntity
  8
0
100
AcDbSpline
 62
7
  6
CONTINUOUS
 70
0
 71
3
 72
11
 73
7
 74
0
 42
0.0000001
 43
0.0000001
 44
0.0000000001
 40
0.0
 40
0.0
 40
0.0
 40
0.0
 40
0.2504335103
 40
0.5002370255
 40
0.7499299274
 40
1.0
 40
1.0
 40
1.0
 40
1.0
 10
1103.5489690473
 20
541.8549171925
 30
0.0
 10
1102.9017965097
 20
541.8549171906
 30
0.0
 10
1101.5948048286
 20
541.597838933
 30
0.0
 10
1099.9425522558
 20
540.4940901787
 30
0.0
 10
1098.8378942365
 20
538.8435061282
 30
0.0
 10
1098.5806049156
 20
537.5377323463
 30
0.0
 10
1098.5806049156
 20
536.8914990077
 30
0.0
  0
SPLINE
  5
57E
100
AcDbEntity
  8
0
100
AcDbSpline
 62
7
  6
CONTINUOUS
 70
0
 71
3
 72
11
 73
7
 74
0
 42
0.0000001
 43
0.0000001
 44
0.0000000001
 40
0.0
 40
0.0
 40
0.0
 40
0.0
 40
0.2501710864
 40
0.4998665797
 40
0.7496779213
 40
1.0
 40
1.0
 40
1.0
 40
1.0
 10
1592.5842131494
 20
536.8914989749
 30
0.0
 10
1592.5842131494
 20
537.5379934058
 30
0.0
 10
1592.3267627336
 20
538.844053175
 30
0.0
 10
1591.2216677542
 20
540.4946967195
 30
0.0
 10
1589.5694379093
 20
541.5980122435
 30
0.0
 10
1588.2627336446
 20
541.8549171744
 30
0.0
 10
1587.6158490179
 20
541.8549171755
 30
0.0
  0
SPLINE
  5
57F
100
AcDbEntity
  8
0
100
AcDbSpline
 62
7
  6
CONTINUOUS
 70
0
 71
3
 72
11
 73
7
 74
0
 42
0.0000001
 43
0.0000001
 44
0.0000000001
 40
0.0
 40
0.0
 40
0.0
 40
0.0
 40
0.2504335103
 40
0.5002370255
 40
0.7499299274
 40
1.0
 40
1.0
 40
1.0
 40
1.0
 10
1587.6158490177
 20
460.8538327043
 30
0.0
 10
1588.2630215553
 20
460.8538327063
 30
0.0
 10
1589.5700132364
 20
461.1109109642
 30
0.0
 10
1591.2222658092
 20
462.2146597184
 30
0.0
 10
1592.3269238285
 20
463.8652437689
 30
0.0
 10
1592.5842131494
 20
465.1710175508
 30
0.0
 10
1592.5842131494
 20
465.8172508894
 30
0.0
  0
SPLINE
  5
580
100
AcDbEntity
  8
0
100
AcDbSpline
 62
9
  6
CONTINUOUS
 70
0
 71
3
 72
9
 73
5
 74
0
 42
0.0000001
 43
0.0000001
 44
0.0000000001
 40
0.0
 40
0.0
 40
0.0
 40
0.0
 40
0.2331336419
 40
1.0
 40
1.0
 40
1.0
 40
1.0
 10
1592.3843506564
 20
450.7385371448
 30
0.0
 10
1591.9785212559
 20
450.917837287
 30
0.0
 10
1590.2724941988
 20
451.7657499862
 30
0.0
 10
1588.7190902469
 20
452.9001934691
 30
0.0
 10
1587.6158490247
 20
453.8555697604
 30
0.0
  0
SPLINE
  5
581
100
AcDbEntity
  8
0
100
AcDbSpline
 62
9
  6
CONTINUOUS
 70
0
 71
3
 72
9
 73
5
 74
0
 42
0.0000001
 43
0.0000001
 44
0.0000000001
 40
0.0
 40
0.0
 40
0.0
 40
0.0
 40
0.2689189909
 40
1.0
 40
1.0
 40
1.0
 40
1.0
 10
1103.5489690432
 20
453.8555697633
 30
0.0
 10
1103.1621690398
 20
453.520611656
 30
0.0
 10
1101.6883923562
 20
452.3183639803
 30
0.0
 10
1100.052851605
 20
451.3006913868
 30
0.0
 10
1098.7804674089
 20
450.7385371451
 30
0.0
  0
SPLINE
  5
582
100
AcDbEntity
  8
0
100
AcDbSpline
 62
9
  6
CONTINUOUS
 70
0
 71
3
 72
9
 73
5
 74
0
 42
0.0000001
 43
0.0000001
 44
0.0000000001
 40
0.0
 40
0.0
 40
0.0
 40
0.0
 40
0.2691923132
 40
1.0
 40
1.0
 40
1.0
 40
1.0
 10
1599.5755075406
 20
536.8914989749
 30
0.0
 10
1599.9729272902
 20
537.2327129266
 30
0.0
 10
1601.4861912595
 20
538.4546086171
 30
0.0
 10
1603.1690831896
 20
539.4815248666
 30
0.0
 10
1604.4773107514
 20
540.0389347061
 30
0.0
  0
SPLINE
  5
583
100
AcDbEntity
  8
0
100
AcDbSpline
 62
9
  6
CONTINUOUS
 70
0
 71
3
 72
9
 73
5
 74
0
 42
0.0000001
 43
0.0000001
 44
0.0000000001
 40
0.0
 40
0.0
 40
0.0
 40
0.0
 40
0.2329870534
 40
1.0
 40
1.0
 40
1.0
 40
1.0
 10
1604.477310751
 20
462.6698151455
 30
0.0
 10
1604.060149323
 20
462.847559278
 30
0.0
 10
1602.3051726638
 20
463.6940792482
 30
0.0
 10
1600.7081208526
 20
464.8448196464
 30
0.0
 10
1599.5755075406
 20
465.8172508894
 30
0.0
  0
SPLINE
  5
584
100
AcDbEntity
  8
0
100
AcDbSpline
 62
9
  6
CONTINUOUS
 70
0
 71
3
 72
9
 73
5
 74
0
 42
0.0000001
 43
0.0000001
 44
0.0000000001
 40
0.0
 40
0.0
 40
0.0
 40
0.0
 40
0.2691923131
 40
1.0
 40
1.0
 40
1.0
 40
1.0
 10
1091.5893105244
 20
465.8172509222
 30
0.0
 10
1091.191890775
 20
465.4760369703
 30
0.0
 10
1089.6786268064
 20
464.2541412785
 30
0.0
 10
1087.9957348751
 20
463.227225031
 30
0.0
 10
1086.6875073136
 20
462.6698151901
 30
0.0
  0
SPLINE
  5
585
100
AcDbEntity
  8
0
100
AcDbSpline
 62
9
  6
CONTINUOUS
 70
0
 71
3
 72
9
 73
5
 74
0
 42
0.0000001
 43
0.0000001
 44
0.0000000001
 40
0.0
 40
0.0
 40
0.0
 40
0.0
 40
0.2331336417
 40
1.0
 40
1.0
 40
1.0
 40
1.0
 10
1098.7804674086
 20
551.9702127518
 30
0.0
 10
1099.1862968089
 20
551.7909126099
 30
0.0
 10
1100.8923238657
 20
550.9429999101
 30
0.0
 10
1102.4457278181
 20
549.8085564279
 30
0.0
 10
1103.5489690403
 20
548.8531801361
 30
0.0
  0
SPLINE
  5
586
100
AcDbEntity
  8
0
100
AcDbSpline
 62
9
  6
CONTINUOUS
 70
0
 71
3
 72
9
 73
5
 74
0
 42
0.0000001
 43
0.0000001
 44
0.0000000001
 40
0.0
 40
0.0
 40
0.0
 40
0.0
 40
0.2329870532
 40
1.0
 40
1.0
 40
1.0
 40
1.0
 10
1086.687507314
 20
540.0389347509
 30
0.0
 10
1087.1046687419
 20
539.8611906191
 30
0.0
 10
1088.8596454004
 20
539.0146706477
 30
0.0
 10
1090.4566972126
 20
537.8639302512
 30
0.0
 10
1091.5893105244
 20
536.8914990077
 30
0.0
  0
SPLINE
  5
587
100
AcDbEntity
  8
0
100
AcDbSpline
 62
9
  6
CONTINUOUS
 70
0
 71
3
 72
9
 73
5
 74
0
 42
0.0000001
 43
0.0000001
 44
0.0000000001
 40
0.0
 40
0.0
 40
0.0
 40
0.0
 40
0.268918991
 40
1.0
 40
1.0
 40
1.0
 40
1.0
 10
1587.6158490218
 20
548.8531801333
 30
0.0
 10
1588.0026490254
 20
549.1881382406
 30
0.0
 10
1589.476425709
 20
550.3903859164
 30
0.0
 10
1591.1119664598
 20
551.4080585106
 30
0.0
 10
1592.3843506561
 20
551.9702127515
 30
0.0
  0
SPLINE
  5
588
100
AcDbEntity
  8
02___PRT_ALL_AXES
100
AcDbSpline
 62
7
  6
CONTINUOUS
 70
0
 71
3
 72
9
 73
5
 74
0
 42
0.0000001
 43
0.0000001
 44
0.0000000001
 40
0.0
 40
0.0
 40
0.0
 40
0.0
 40
0.5000013272
 40
1.0
 40
1.0
 40
1.0
 40
1.0
 10
235.3410719201
 20
206.7439459201
 30
0.0
 10
236.1021096558
 20
206.743837615
 30
0.0
 10
237.6240033448
 20
206.8010350732
 30
0.0
 10
239.1458969718
 20
206.7438414109
 30
0.0
 10
239.9069306681
 20
206.7439436592
 30
0.0
  0
SPLINE
  5
589
100
AcDbEntity
  8
0
100
AcDbSpline
 62
7
  6
CONTINUOUS
 70
0
 71
3
 72
13
 73
9
 74
0
 42
0.0000001
 43
0.0000001
 44
0.0000000001
 40
0.0
 40
0.0
 40
0.0
 40
0.0
 40
0.375086625
 40
0.6944322118
 40
0.8182125484
 40
0.9117964668
 40
0.972173079
 40
1.0
 40
1.0
 40
1.0
 40
1.0
 10
207.3220600243
 20
284.4738257159
 30
0.0
 10
206.6754717395
 20
284.4738257159
 30
0.0
 10
205.4797212185
 20
284.4982678326
 30
0.0
 10
204.0668472966
 20
284.590713192
 30
0.0
 10
203.1547265653
 20
284.699441677
 30
0.0
 10
202.6706726529
 20
284.7876655077
 30
0.0
 10
202.3921758885
 20
284.8622916492
 30
0.0
 10
202.2254732472
 20
284.9483105037
 30
0.0
 10
202.2213086507
 20
284.9960984622
 30
0.0
  0
SPLINE
  5
58A
100
AcDbEntity
  8
0
100
AcDbSpline
 62
7
  6
CONTINUOUS
 70
0
 71
3
 72
13
 73
9
 74
0
 42
0.0000001
 43
0.0000001
 44
0.0000000001
 40
0.0
 40
0.0
 40
0.0
 40
0.0
 40
0.0278268572
 40
0.0882035471
 40
0.1817873854
 40
0.3055676812
 40
0.62491365
 40
1.0
 40
1.0
 40
1.0
 40
1.0
 10
706.0266946455
 20
284.9960984666
 30
0.0
 10
706.0225300585
 20
284.9483106175
 30
0.0
 10
705.855827625
 20
284.862291517
 30
0.0
 10
705.5773307693
 20
284.7876657713
 30
0.0
 10
705.0932770733
 20
284.6994416118
 30
0.0
 10
704.1811558196
 20
284.5907132611
 30
0.0
 10
702.7682818261
 20
284.4982677462
 30
0.0
 10
701.5725311006
 20
284.4738257199
 30
0.0
 10
700.9259432882
 20
284.4738257199
 30
0.0
  0
SPLINE
  5
58B
100
AcDbEntity
  8
02___PRT_ALL_AXES
100
AcDbSpline
 62
7
  6
CONTINUOUS
 70
0
 71
3
 72
9
 73
5
 74
0
 42
0.0000001
 43
0.0000001
 44
0.0000000001
 40
0.0
 40
0.0
 40
0.0
 40
0.0
 40
0.499998384
 40
1.0
 40
1.0
 40
1.0
 40
1.0
 10
668.341072638
 20
206.7439436385
 30
0.0
 10
669.1021058912
 20
206.7438414595
 30
0.0
 10
670.6239995115
 20
206.8010348419
 30
0.0
 10
672.1458931945
 20
206.7438377057
 30
0.0
 10
672.9069313663
 20
206.7439459052
 30
0.0
  0
SPLINE
  5
58C
100
AcDbEntity
  8
0
100
AcDbSpline
 62
7
  6
CONTINUOUS
 70
0
 71
3
 72
17
 73
13
 74
0
 42
0.0000001
 43
0.0000001
 44
0.0000000001
 40
0.0
 40
0.0
 40
0.0
 40
0.0
 40
0.1923824481
 40
0.3773717685
 40
0.548123843
 40
0.6983465577
 40
0.822502054
 40
0.9160385355
 40
0.9502266769
 40
0.9756254712
 40
0.9921071707
 40
1.0
 40
1.0
 40
1.0
 40
1.0
 10
212.0905616486
 20
226.8849338936
 30
0.0
 10
211.3232366881
 20
226.8461456837
 30
0.0
 10
209.8177610618
 20
226.7762840565
 30
0.0
 10
207.6302538457
 20
226.6935302695
 30
0.0
 10
205.6105115326
 20
226.6365598693
 30
0.0
 10
203.832640939
 20
226.6068155422
 30
0.0
 10
202.3642996781
 20
226.6058598214
 30
0.0
 10
201.3561557615
 20
226.6272668349
 30
0.0
 10
200.7487742137
 20
226.6647790706
 30
0.0
 10
200.4408822972
 20
226.6942445623
 30
0.0
 10
200.2557979814
 20
226.7309680658
 30
0.0
 10
200.1490366446
 20
226.7616382996
 30
0.0
 10
200.1339983609
 20
226.7893407722
 30
0.0
  0
SPLINE
  5
58D
100
AcDbEntity
  8
0
100
AcDbSpline
 62
7
  6
CONTINUOUS
 70
0
 71
3
 72
14
 73
10
 74
0
 42
0.0000001
 43
0.0000001
 44
0.0000000001
 40
0.0
 40
0.0
 40
0.0
 40
0.0
 40
0.3763502425
 40
0.5471274145
 40
0.6973698949
 40
0.8213271449
 40
0.9144385876
 40
0.9737662519
 40
1.0
 40
1.0
 40
1.0
 40
1.0
 10
207.322060024
 20
281.8287070506
 30
0.0
 10
205.7885925109
 20
281.8066681867
 30
0.0
 10
203.5572352299
 20
281.8192268161
 30
0.0
 10
200.7197423728
 20
281.9343666883
 30
0.0
 10
198.9052001274
 20
282.0585250461
 30
0.0
 10
197.4302465436
 20
282.2076928986
 30
0.0
 10
196.2812718748
 20
282.3878006254
 30
0.0
 10
195.6403924707
 20
282.5450923311
 30
0.0
 10
195.2384170899
 20
282.7206123089
 30
0.0
 10
195.2290999294
 20
282.8271079415
 30
0.0
  0
SPLINE
  5
58E
100
AcDbEntity
  8
0
100
AcDbSpline
 62
7
  6
CONTINUOUS
 70
0
 71
3
 72
14
 73
10
 74
0
 42
0.0000001
 43
0.0000001
 44
0.0000000001
 40
0.0
 40
0.0
 40
0.0
 40
0.0
 40
0.3746485934
 40
0.5448671018
 40
0.6948033346
 40
0.8187421768
 40
0.9121663329
 40
0.9722331048
 40
1.0
 40
1.0
 40
1.0
 40
1.0
 10
207.322060024
 20
283.8903616004
 30
0.0
 10
206.0417841242
 20
283.8903616004
 30
0.0
 10
204.1786833959
 20
283.9326293666
 30
0.0
 10
201.810148447
 20
284.07975253
 30
0.0
 10
200.2953411666
 20
284.221573808
 30
0.0
 10
199.0601912303
 20
284.3818739537
 30
0.0
 10
198.104372352
 20
284.5677493324
 30
0.0
 10
197.5544998824
 20
284.7235896758
 30
0.0
 10
197.2297182359
 20
284.8974201532
 30
0.0
 10
197.2214893256
 20
284.9919496761
 30
0.0
  0
SPLINE
  5
58F
100
AcDbEntity
  8
0
100
AcDbSpline
 62
7
  6
CONTINUOUS
 70
0
 71
3
 72
14
 73
10
 74
0
 42
0.0000001
 43
0.0000001
 44
0.0000000001
 40
0.0
 40
0.0
 40
0.0
 40
0.0
 40
0.0262651679
 40
0.0856495542
 40
0.1787990317
 40
0.3027863794
 40
0.4530575851
 40
0.6238546927
 40
1.0
 40
1.0
 40
1.0
 40
1.0
 10
713.0189033668
 20
282.8271079459
 30
0.0
 10
713.0095750584
 20
282.7204848933
 30
0.0
 10
712.6070381143
 20
282.5449455597
 30
0.0
 10
711.9657720558
 20
282.3875879926
 30
0.0
 10
710.8162321241
 20
282.2075128846
 30
0.0
 10
709.3408982297
 20
282.058361288
 30
0.0
 10
707.5260282073
 20
281.9342473108
 30
0.0
 10
704.6891734028
 20
281.8192132502
 30
0.0
 10
702.4585739163
 20
281.8066801967
 30
0.0
 10
700.9259432704
 20
281.8287070337
 30
0.0
  0
SPLINE
  5
590
100
AcDbEntity
  8
0
100
AcDbSpline
 62
7
  6
CONTINUOUS
 70
0
 71
3
 72
17
 73
13
 74
0
 42
0.0000001
 43
0.0000001
 44
0.0000000001
 40
0.0
 40
0.0
 40
0.0
 40
0.0
 40
0.0078983105
 40
0.0243951718
 40
0.04981581
 40
0.084022977
 40
0.1775869026
 40
0.3017683756
 40
0.4520198892
 40
0.6227896582
 40
0.8077169071
 40
1.0
 40
1.0
 40
1.0
 40
1.0
 10
708.1140046014
 20
226.7893396404
 30
0.0
 10
708.0989558738
 20
226.7616179364
 30
0.0
 10
707.9920919847
 20
226.7309424194
 30
0.0
 10
707.8068527572
 20
226.6942056931
 30
0.0
 10
707.4987288849
 20
226.6647405683
 30
0.0
 10
706.8910765015
 20
226.6272357736
 30
0.0
 10
705.882641549
 20
226.6058514989
 30
0.0
 10
704.4139727964
 20
226.606827466
 30
0.0
 10
702.6358132924
 20
226.6365978728
 30
0.0
 10
700.6161341048
 20
226.6935855355
 30
0.0
 10
698.4292013885
 20
226.7763304548
 30
0.0
 10
696.9243701893
 20
226.8461656495
 30
0.0
 10
696.1574416411
 20
226.8849338221
 30
0.0
  0
SPLINE
  5
591
100
AcDbEntity
  8
0
100
AcDbSpline
 62
7
  6
CONTINUOUS
 70
0
 71
3
 72
14
 73
10
 74
0
 42
0.0000001
 43
0.0000001
 44
0.0000000001
 40
0.0
 40
0.0
 40
0.0
 40
0.0
 40
0.027799042
 40
0.0879223265
 40
0.1813840946
 40
0.3053526913
 40
0.4553173476
 40
0.6255555347
 40
1.0
 40
1.0
 40
1.0
 40
1.0
 10
711.0265139706
 20
284.9919496804
 30
0.0
 10
711.0182755439
 20
284.8973108373
 30
0.0
 10
710.6930327172
 20
284.7234335802
 30
0.0
 10
710.1428261257
 20
284.5675421276
 30
0.0
 10
709.1865372799
 20
284.3816812255
 30
0.0
 10
707.9510705567
 20
284.2213945371
 30
0.0
 10
706.4359902599
 20
284.0796092871
 30
0.0
 10
704.0679872437
 20
283.9325949538
 30
0.0
 10
702.2055199858
 20
283.8903616047
 30
0.0
 10
700.9259432725
 20
283.8903616049
 30
0.0
  0
ELLIPSE
  5
592
100
AcDbEntity
  8
02___PRT_ALL_AXES
100
AcDbEllipse
 62
7
  6
CONTINUOUS
 10
1239.4914002624
 20
829.7500745055
 30
0.0
 11
1.7458878399
 21
4.8163200602
 31
0.0
 40
0.4027587071
 41
4.3071555571
 42
8.2799578907
  0
ELLIPSE
  5
593
100
AcDbEntity
  8
02___PRT_ALL_AXES
100
AcDbEllipse
 62
7
  6
CONTINUOUS
 10
1061.0208770728
 20
889.2928200821
 30
0.0
 11
1.7458878399
 21
4.8163200602
 31
0.0
 40
0.4027587071
 41
-1.9760297501
 42
1.9967725835
  0
ENDSEC
  0
SECTION
  2
OBJECTS
  0
DICTIONARY
  5
C
100
AcDbDictionary
280
0
281
1
  3
ACAD_GROUP
350
D
  3
ACAD_MLINESTYLE
350
17
  3
ACAD_LAYOUT
350
1A
  3
ACAD_PLOTSETTINGS
350
19
  3
ACAD_PLOTSTYLENAME
350
E
  0
DICTIONARY
  5
D
102
{ACAD_REACTORS
330
C
102
}
100
AcDbDictionary
280
0
281
1
  0
ACDBDICTIONARYWDFLT
  5
E
102
{ACAD_REACTORS
330
C
102
}
100
AcDbDictionary
281
1
  3
Normal
350
F
100
AcDbDictionaryWithDefault
340
F
  0
DICTIONARY
  5
17
102
{ACAD_REACTORS
330
C
102
}
100
AcDbDictionary
280
0
281
1
  3
Standard
350
18
  0
DICTIONARY
  5
19
102
{ACAD_REACTORS
330
C
102
}
100
AcDbDictionary
281
1
  0
DICTIONARY
  5
1A
102
{ACAD_REACTORS
330
C
102
}
100
AcDbDictionary
281
1
  3
Model
350
594
  3
Layout1
350
595
  0
ACDBPLACEHOLDER
  5
F
102
{ACAD_REACTORS
330
E
102
}
  0
MLINESTYLE
  5
18
102
{ACAD_REACTORS
330
17
102
}
100
AcDbMlineStyle
  2
STANDARD
 70
0
  3

 62
256
 51
90.0
 52
90.0
 71
2
 49
0.5
 62
256
  6
BYLAYER
 49
-0.5
 62
256
  6
BYLAYER
  0
LAYOUT
  5
594
102
{ACAD_REACTORS
330
1A
102
}
100
AcDbPlotSettings
  1

  2
none_device
  4

  6

 40
0.0
 41
0.0
 42
0.0
 43
0.0
 44
431.8
 45
279.4
 46
0.0
 47
0.0
 48
0.0
 49
0.0
140
0.0
141
0.0
142
1.0
143
1.0
 70
1024
 72
1
 73
0
 74
0
  7

 75
0
147
1.0
148
0.0
149
0.0
100
AcDbLayout
  1
Model
 70
0
 71
0
 10
0.0
 20
0.0
 11
431.8
 21
279.4
 12
0.0
 22
0.0
 32
0.0
 14
0.0
 24
0.0
 34
0.0
 15
0.0
 25
0.0
 35
0.0
146
0.0
 13
0.0
 23
0.0
 33
0.0
 16
1.0
 26
0.0
 36
0.0
 17
0.0
 27
1.0
 37
0.0
 76
0
330
209
345
0
346
0
  0
LAYOUT
  5
595
102
{ACAD_REACTORS
330
1A
102
}
100
AcDbPlotSettings
  1

  2
none_device
  4

  6

 40
0.0
 41
0.0
 42
0.0
 43
0.0
 44
431.8
 45
279.4
 46
0.0
 47
0.0
 48
0.0
 49
0.0
140
0.0
141
0.0
142
1.0
143
1.0
 70
0
 72
1
 73
0
 74
0
  7

 75
0
147
1.0
148
0.0
149
0.0
100
AcDbLayout
  1
Layout1
 70
0
 71
1
 10
0.0
 20
0.0
 11
431.8
 21
279.4
 12
0.0
 22
0.0
 32
0.0
 14
0.0
 24
0.0
 34
0.0
 15
0.0
 25
0.0
 35
0.0
146
0.0
 13
0.0
 23
0.0
 33
0.0
 16
1.0
 26
0.0
 36
0.0
 17
0.0
 27
1.0
 37
0.0
 76
0
330
20A
345
0
346
0
  0
ENDSEC
  0
EOF
