999
DXF file: Z:\L&T Project Work\H014-Q-SYS IO-8FLEX\io-8 flex marketing drawings\fg-112300-2d-e-A.dxf
999
Pro/ENGINEER 2016130 by Parametric Technology Corporation
  0
SECTION
  2
HEADER
  9
$ACADVER
  1
AC1015
  9
$DWGCODEPAGE
  3
ANSI_1252
  9
$EXTMAX
 10
48.5714285714
 20
31.4285714286
 30
0.0
  9
$EXTMIN
 10
0.0
 20
0.0
 30
0.0
  9
$LIMMIN
 10
0.0
 20
0.0
  9
$LIMMAX
 10
48.5714285714
 20
31.4285714286
  9
$VIEWCTR
 10
24.2857142857
 20
15.7142857143
  9
$VIEWSIZE
 40
31.4285714286
  9
$CLAYER
  8
0
  9
$LTSCALE
 40
2.6714285714
  9
$CELTYPE
  6
BYLAYER
  9
$DIMSCALE
 40
1.0
  9
$DIMASZ
 40
0.2678571429
  9
$DIMEXO
 40
0.0625
  9
$DIMDLI
 40
1.8457142857
  9
$DIMEXE
 40
0.125
  9
$DIMCEN
 40
0.4371428571
  9
$DIMLFAC
 40
1.0
  9
$DIMBLK
  1
_FILLED
  9
$DIMALT
 70
0
  9
$DIMALTF
 40
25.4
  9
$DIMTXT
 40
0.2232142857
  9
$DIMTOL
 70
1
  9
$DIMLIM
 70
0
  9
$DIMTFAC
 40
1.0
  9
$DIMTP
 40
0.01
  9
$DIMTM
 40
0.01
  9
$DIMGAP
 40
0.09
  9
$DIMDSEP
 70
46
  9
$AUNITS
 70
0
  9
$PDMODE
 70
3
  9
$PDSIZE
 40
0.3125
  9
$HANDSEED
  5
9A4
  9
$TILEMODE
 70
1
  9
$MEASUREMENT
 70
0
  9
$INSUNITS
 70
1
  0
ENDSEC
  0
SECTION
  2
CLASSES
  0
CLASS
  1
ACDBDICTIONARYWDFLT
  2
AcDbDictionaryWithDefault
  3
AutoCAD 2000
 90
0
280
0
281
0
  0
CLASS
  1
ACDBPLACEHOLDER
  2
AcDbPlaceHolder
  3
AutoCAD 2000
 90
0
280
0
281
0
  0
CLASS
  1
LAYOUT
  2
AcDbLayout
  3
AutoCAD 2000
 90
0
280
0
281
0
  0
ENDSEC
  0
SECTION
  2
TABLES
  0
TABLE
  2
VPORT
  5
8
100
AcDbSymbolTable
 70
2
  0
VPORT
  5
1F4
100
AcDbSymbolTableRecord
100
AcDbViewportTableRecord
  2
*ACTIVE
 70
0
 10
0.0
 20
0.0
 11
1.0
 21
1.0
 12
24.2857142857
 22
15.7142857143
 13
0.0
 23
0.0
 14
1.0
 24
1.0
 15
0.0
 25
0.0
 16
0.0
 26
0.0
 36
1.0
 17
0.0
 27
0.0
 37
0.0
 40
31.4285714286
 41
1.5454545455
 42
50.0
 43
0.0
 44
0.0
 50
0.0
 51
0.0
 71
0
 72
100
 73
1
 74
1
 75
0
 76
0
 77
0
 78
0
  0
ENDTAB
  0
TABLE
  2
LTYPE
  5
5
100
AcDbSymbolTable
 70
6
  0
LTYPE
  5
14
100
AcDbSymbolTableRecord
100
AcDbLinetypeTableRecord
  2
BYBLOCK
 70
0
  3

 72
65
 73
0
 40
0.0
  0
LTYPE
  5
15
100
AcDbSymbolTableRecord
100
AcDbLinetypeTableRecord
  2
BYLAYER
 70
0
  3

 72
65
 73
0
 40
0.0
  0
LTYPE
  5
16
100
AcDbSymbolTableRecord
100
AcDbLinetypeTableRecord
  2
CONTINUOUS
 70
64
  3
Solid line
 72
65
 73
0
 40
0.0
  0
LTYPE
  5
1F5
100
AcDbSymbolTableRecord
100
AcDbLinetypeTableRecord
  2
CENTER
 70
64
  3
____ _ ____ _ ____ _ ____ _ ____ _ ____ _ ____
 72
65
 73
4
 40
0.6
 49
0.375
 74
0
 49
-0.075
 74
0
 49
0.075
 74
0
 49
-0.075
 74
0
  0
LTYPE
  5
1F6
100
AcDbSymbolTableRecord
100
AcDbLinetypeTableRecord
  2
HIDDEN
 70
64
  3
- - - - - - - - - - - - - - - - - - - -
 72
65
 73
2
 40
0.2
 49
0.1
 74
0
 49
-0.1
 74
0
  0
LTYPE
  5
1F7
100
AcDbSymbolTableRecord
100
AcDbLinetypeTableRecord
  2
PHANTOM
 70
64
  3
_____ _ _ _____ _ _ _____ _ _ _____
 72
65
 73
6
 40
0.8
 49
0.45
 74
0
 49
-0.05
 74
0
 49
0.1
 74
0
 49
-0.05
 74
0
 49
0.1
 74
0
 49
-0.05
 74
0
  0
LTYPE
  5
1F8
100
AcDbSymbolTableRecord
100
AcDbLinetypeTableRecord
  2
DOT
 70
64
  3
. . . . . . . . . . . . . . . . . . . .
 72
65
 73
2
 40
0.2
 49
0.1
 74
0
 49
-0.1
 74
0
  0
LTYPE
  5
1F9
100
AcDbSymbolTableRecord
100
AcDbLinetypeTableRecord
  2
DASHED
 70
64
  3
- - - - - - - - - - - - - - - - - - - -
 72
65
 73
2
 40
0.2
 49
0.1
 74
0
 49
-0.1
 74
0
  0
ENDTAB
  0
TABLE
  2
LAYER
  5
2
100
AcDbSymbolTable
 70
36
  0
LAYER
  5
10
100
AcDbSymbolTableRecord
100
AcDbLayerTableRecord
  2
0
 70
0
 62
7
  6
CONTINUOUS
370
-3
390
F
  0
LAYER
  5
1FA
100
AcDbSymbolTableRecord
100
AcDbLayerTableRecord
  2
DEFAULT_1
 70
0
 62
7
  6
CENTER
370
-3
390
F
  0
LAYER
  5
1FB
100
AcDbSymbolTableRecord
100
AcDbLayerTableRecord
  2
DEFAULT_2
 70
0
 62
8
  6
HIDDEN
370
-3
390
F
  0
LAYER
  5
1FC
100
AcDbSymbolTableRecord
100
AcDbLayerTableRecord
  2
DEFAULT_3
 70
0
 62
7
  6
PHANTOM
370
-3
390
F
  0
LAYER
  5
1FD
100
AcDbSymbolTableRecord
100
AcDbLayerTableRecord
  2
1_ALL_PLANES
 70
0
 62
7
  6
CONTINUOUS
370
-3
390
F
  0
LAYER
  5
1FE
100
AcDbSymbolTableRecord
100
AcDbLayerTableRecord
  2
1__DEF_PLANES
 70
0
 62
7
  6
CONTINUOUS
370
-3
390
F
  0
LAYER
  5
1FF
100
AcDbSymbolTableRecord
100
AcDbLayerTableRecord
  2
2_ALL_CSYS
 70
0
 62
7
  6
CONTINUOUS
370
-3
390
F
  0
LAYER
  5
200
100
AcDbSymbolTableRecord
100
AcDbLayerTableRecord
  2
2__DEF_CSYS
 70
0
 62
7
  6
CONTINUOUS
370
-3
390
F
  0
LAYER
  5
201
100
AcDbSymbolTableRecord
100
AcDbLayerTableRecord
  2
3_ALL_AXES
 70
0
 62
7
  6
CONTINUOUS
370
-3
390
F
  0
LAYER
  5
202
100
AcDbSymbolTableRecord
100
AcDbLayerTableRecord
  2
3_AXES_OTHER
 70
0
 62
7
  6
CONTINUOUS
370
-3
390
F
  0
LAYER
  5
203
100
AcDbSymbolTableRecord
100
AcDbLayerTableRecord
  2
3_HOLES
 70
0
 62
7
  6
CONTINUOUS
370
-3
390
F
  0
LAYER
  5
204
100
AcDbSymbolTableRecord
100
AcDbLayerTableRecord
  2
4_ALL_POINTS
 70
0
 62
7
  6
CONTINUOUS
370
-3
390
F
  0
LAYER
  5
205
100
AcDbSymbolTableRecord
100
AcDbLayerTableRecord
  2
5_ALL_CURVES
 70
0
 62
7
  6
CONTINUOUS
370
-3
390
F
  0
LAYER
  5
206
100
AcDbSymbolTableRecord
100
AcDbLayerTableRecord
  2
6_ALL_SURFS
 70
0
 62
7
  6
CONTINUOUS
370
-3
390
F
  0
LAYER
  5
207
100
AcDbSymbolTableRecord
100
AcDbLayerTableRecord
  2
6_COPYGEOM
 70
0
 62
7
  6
CONTINUOUS
370
-3
390
F
  0
LAYER
  5
208
100
AcDbSymbolTableRecord
100
AcDbLayerTableRecord
  2
7_ALL_ROUNDS
 70
0
 62
7
  6
CONTINUOUS
370
-3
390
F
  0
LAYER
  5
209
100
AcDbSymbolTableRecord
100
AcDbLayerTableRecord
  2
7_MERGES
 70
0
 62
7
  6
CONTINUOUS
370
-3
390
F
  0
LAYER
  5
20A
100
AcDbSymbolTableRecord
100
AcDbLayerTableRecord
  2
8_GDT
 70
0
 62
7
  6
CONTINUOUS
370
-3
390
F
  0
LAYER
  5
20B
100
AcDbSymbolTableRecord
100
AcDbLayerTableRecord
  2
8_SET_DATUMS
 70
0
 62
7
  6
CONTINUOUS
370
-3
390
F
  0
LAYER
  5
20C
100
AcDbSymbolTableRecord
100
AcDbLayerTableRecord
  2
9_COSMETICS
 70
0
 62
7
  6
CONTINUOUS
370
-3
390
F
  0
LAYER
  5
20D
100
AcDbSymbolTableRecord
100
AcDbLayerTableRecord
  2
9_THREADS
 70
0
 62
7
  6
CONTINUOUS
370
-3
390
F
  0
ENDTAB
  0
TABLE
  2
STYLE
  5
3
100
AcDbSymbolTable
 70
1
  0
STYLE
  5
11
100
AcDbSymbolTableRecord
100
AcDbTextStyleTableRecord
  2
STANDARD
 70
0
 40
0.0
 41
0.8
 50
0.0
 71
0
 42
0.2
  3
txt
  4

  0
STYLE
  5
20E
100
AcDbSymbolTableRecord
100
AcDbTextStyleTableRecord
  2
TEXTSTYLE_1
 70
0
 40
0.0
 41
0.8
 50
0.0
 71
0
 42
0.2
  3
gdt
  4

  0
STYLE
  5
20F
100
AcDbSymbolTableRecord
100
AcDbTextStyleTableRecord
  2
TEXTSTYLE_2
 70
0
 40
0.0
 41
0.8
 50
0.0
 71
0
 42
0.2
  3
txt
  4

  0
ENDTAB
  0
TABLE
  2
VIEW
  5
6
100
AcDbSymbolTable
 70
0
  0
ENDTAB
  0
TABLE
  2
UCS
  5
7
100
AcDbSymbolTable
 70
0
  0
ENDTAB
  0
TABLE
  2
APPID
  5
9
100
AcDbSymbolTable
 70
1
  0
APPID
  5
210
100
AcDbSymbolTableRecord
100
AcDbRegAppTableRecord
  2
ACAD
 70
0
  0
ENDTAB
  0
TABLE
  2
BLOCK_RECORD
  5
1
100
AcDbSymbolTable
 70
0
  0
BLOCK_RECORD
  5
211
100
AcDbSymbolTableRecord
100
AcDbBlockTableRecord
  2
*Model_Space
  0
BLOCK_RECORD
  5
212
100
AcDbSymbolTableRecord
100
AcDbBlockTableRecord
  2
*Paper_Space
  0
BLOCK_RECORD
  5
213
100
AcDbSymbolTableRecord
100
AcDbBlockTableRecord
  2
_FILLED
  0
BLOCK_RECORD
  5
214
100
AcDbSymbolTableRecord
100
AcDbBlockTableRecord
  2
*D0
  0
BLOCK_RECORD
  5
215
100
AcDbSymbolTableRecord
100
AcDbBlockTableRecord
  2
*D1
  0
BLOCK_RECORD
  5
216
100
AcDbSymbolTableRecord
100
AcDbBlockTableRecord
  2
*D2
  0
BLOCK_RECORD
  5
217
100
AcDbSymbolTableRecord
100
AcDbBlockTableRecord
  2
*D3
  0
BLOCK_RECORD
  5
218
100
AcDbSymbolTableRecord
100
AcDbBlockTableRecord
  2
*D4
  0
BLOCK_RECORD
  5
219
100
AcDbSymbolTableRecord
100
AcDbBlockTableRecord
  2
*D5
  0
BLOCK_RECORD
  5
21A
100
AcDbSymbolTableRecord
100
AcDbBlockTableRecord
  2
*D6
  0
BLOCK_RECORD
  5
21B
100
AcDbSymbolTableRecord
100
AcDbBlockTableRecord
  2
RD010411_BL0
  0
ENDTAB
  0
TABLE
  2
DIMSTYLE
  5
A
100
AcDbSymbolTable
 70
1
100
AcDbDimStyleTable
 71
0
  0
DIMSTYLE
105
21C
100
AcDbSymbolTableRecord
100
AcDbDimStyleTableRecord
  2
STANDARD
 70
0
  3

  4

 40
1.0
 41
0.2678571429
 42
0.0625
 43
0.38
 44
0.125
 45
0.0
 46
0.0
 47
0.01
 48
0.01
140
0.2232142857
141
0.09
142
0.0
143
25.4
144
1.0
145
0.0
146
1.0
147
0.09
 71
1.0
 72
0.0
 73
1
 74
1
 75
0
 76
0
 77
0
 78
0
170
0
171
2
172
0
173
0
174
0
175
0
176
0
177
0
178
0
270
2
271
3
272
3
273
2
274
2
275
0
280
0
281
0
282
0
283
1
284
0
285
0
286
0
287
3
288
0
340
11
278
46
341
213
342
213
343
213
344
213
  0
DIMSTYLE
105
21D
100
AcDbSymbolTableRecord
100
AcDbDimStyleTableRecord
  2
DIMSTYLE_1
 70
0
  3

  4

 40
1.0
 41
0.2678571429
 42
0.0625
 43
0.38
 44
0.125
 45
0.0
 46
0.0
 47
0.1
 48
0.1
140
0.2232142857
141
0.09
142
0.0
143
25.4
144
1.0
145
0.0
146
1.0
147
0.078125
 71
0.0
 72
0.0
 73
1
 74
1
 75
0
 76
0
 77
0
 78
0
170
0
171
2
172
0
173
0
174
0
175
0
176
0
177
0
178
0
270
2
271
0
272
0
273
2
274
2
275
0
280
0
281
0
282
0
283
1
284
0
285
0
286
0
287
3
288
0
340
11
278
46
341
213
342
213
343
213
344
213
  0
DIMSTYLE
105
21E
100
AcDbSymbolTableRecord
100
AcDbDimStyleTableRecord
  2
DIMSTYLE_2
 70
0
  3

  4

 40
1.0
 41
0.2678571429
 42
0.0625
 43
0.38
 44
0.125
 45
0.0
 46
0.0
 47
0.01
 48
0.01
140
0.2232142857
141
0.09
142
0.0
143
25.4
144
1.0
145
0.0
146
1.0
147
0.078125
 71
0.0
 72
0.0
 73
1
 74
1
 75
0
 76
0
 77
0
 78
0
170
0
171
2
172
0
173
0
174
0
175
0
176
0
177
0
178
0
270
2
271
0
272
0
273
2
274
2
275
0
280
0
281
0
282
0
283
1
284
0
285
0
286
0
287
3
288
0
340
11
278
46
341
213
342
213
343
213
344
213
  0
ENDTAB
  0
ENDSEC
  0
SECTION
  2
BLOCKS
  0
BLOCK
  5
20
100
AcDbEntity
  8
0
100
AcDbBlockBegin
  2
*Model_Space
 70
0
 10
0.0
 20
0.0
 30
0.0
  3
*Model_Space
  1

  0
ENDBLK
  5
21
100
AcDbEntity
  8
0
100
AcDbBlockEnd
  0
BLOCK
  5
1C
100
AcDbEntity
  8
0
100
AcDbBlockBegin
  2
*Paper_Space
 70
0
 10
0.0
 20
0.0
 30
0.0
  3
*Paper_Space
  1

  0
ENDBLK
  5
1D
100
AcDbEntity
  8
0
100
AcDbBlockEnd
  0
BLOCK
  5
21F
100
AcDbEntity
  8
0
100
AcDbBlockBegin
 62
7
  6
CONTINUOUS
  2
RD010411_BL0
 70
64
 10
41.269743284
 20
3.8587295217
  3
RD010411_BL0
  1

  0
ARC
  5
220
100
AcDbEntity
  8
0
100
AcDbCircle
 62
7
  6
CONTINUOUS
 10
42.2014026692
 20
4.0021251753
 40
0.0176735904
100
AcDbArc
 50
270.0
 51
360.0
  0
LINE
  5
221
100
AcDbEntity
  8
0
100
AcDbLine
 62
7
  6
CONTINUOUS
 10
42.2190762596
 20
4.0021251753
 11
42.2190762596
 21
4.0374845027
  0
ARC
  5
222
100
AcDbEntity
  8
0
100
AcDbCircle
 62
7
  6
CONTINUOUS
 10
42.2014026692
 20
4.0374845027
 40
0.0176735904
100
AcDbArc
 50
0.0
 51
90.0
  0
LINE
  5
223
100
AcDbEntity
  8
0
100
AcDbLine
 62
7
  6
CONTINUOUS
 10
42.2014026692
 20
4.0551580931
 11
41.7262693375
 21
4.0551580931
  0
SPLINE
  5
224
100
AcDbEntity
  8
0
100
AcDbSpline
 62
7
  6
CONTINUOUS
 70
0
 71
3
 72
13
 73
9
 74
0
 42
0.0000001
 43
0.0000001
 44
0.0000000001
 40
0.0
 40
0.0
 40
0.0
 40
0.0
 40
0.1310616762
 40
0.2699656353
 40
0.4157607805
 40
0.5899807757
 40
0.76586761
 40
0.9948829976
 40
0.9948829976
 40
0.9948829976
 40
0.9948829976
 10
41.7262693375
 20
4.0551580931
 30
0.0
 10
41.7162816025
 20
4.0544142
 30
0.0
 10
41.6957085008
 20
4.0528819019
 30
0.0
 10
41.667827851
 20
4.0356054621
 30
0.0
 10
41.6478128715
 20
4.0066014313
 30
0.0
 10
41.6347980978
 20
3.9711358862
 30
0.0
 10
41.6274673826
 20
3.9277822465
 30
0.0
 10
41.6267924219
 20
3.8971478034
 30
0.0
 10
41.6264426055
 20
3.8798184828
 30
0.0
  0
LINE
  5
225
100
AcDbEntity
  8
0
100
AcDbLine
 62
7
  6
CONTINUOUS
 10
41.6264426055
 20
3.8798184828
 11
41.6264736246
 21
3.8771292987
  0
SPLINE
  5
226
100
AcDbEntity
  8
0
100
AcDbSpline
 62
7
  6
CONTINUOUS
 70
0
 71
3
 72
13
 73
9
 74
0
 42
0.0000001
 43
0.0000001
 44
0.0000000001
 40
0.0
 40
0.0
 40
0.0
 40
0.0
 40
0.2222860645
 40
0.3981728988
 40
0.572392894
 40
0.7181880393
 40
0.8570919984
 40
0.9881536746
 40
0.9881536746
 40
0.9881536746
 40
0.9881536746
 10
41.6264736246
 20
3.8771292987
 30
0.0
 10
41.6268165466
 20
3.8603094006
 30
0.0
 10
41.6275524138
 20
3.8301896864
 30
0.0
 10
41.6347980918
 20
3.7873385939
 30
0.0
 10
41.6478130213
 20
3.7518770152
 30
0.0
 10
41.6678273765
 20
3.7228606752
 30
0.0
 10
41.6957101542
 20
3.7056255335
 30
0.0
 10
41.7162782401
 20
3.7039959917
 30
0.0
 10
41.7262693375
 20
3.7032518485
 30
0.0
  0
LINE
  5
227
100
AcDbEntity
  8
0
100
AcDbLine
 62
7
  6
CONTINUOUS
 10
41.7262693375
 20
3.7032518485
 11
42.2014412436
 21
3.7042889595
  0
ARC
  5
228
100
AcDbEntity
  8
0
100
AcDbCircle
 62
7
  6
CONTINUOUS
 10
42.2014026692
 20
3.7219625077
 40
0.0176735903
100
AcDbArc
 50
270.125053868
 51
360.0
  0
LINE
  5
229
100
AcDbEntity
  8
0
100
AcDbLine
 62
7
  6
CONTINUOUS
 10
42.2190762596
 20
3.7219625077
 11
42.2190762596
 21
3.7559413352
  0
ARC
  5
22A
100
AcDbEntity
  8
0
100
AcDbCircle
 62
7
  6
CONTINUOUS
 10
42.2014026692
 20
3.7559413352
 40
0.0176735904
100
AcDbArc
 50
0.0
 51
90.0
  0
LINE
  5
22B
100
AcDbEntity
  8
0
100
AcDbLine
 62
7
  6
CONTINUOUS
 10
42.2014026692
 20
3.7736149256
 11
41.7941484646
 21
3.7736149256
  0
LINE
  5
22C
100
AcDbEntity
  8
0
100
AcDbLine
 62
7
  6
CONTINUOUS
 10
41.7764748743
 20
3.791288516
 11
41.7764748743
 21
3.9667779945
  0
ARC
  5
22D
100
AcDbEntity
  8
0
100
AcDbCircle
 62
7
  6
CONTINUOUS
 10
41.7941484648
 20
3.9667779945
 40
0.0176735904
100
AcDbArc
 50
90.0
 51
180.0
  0
LINE
  5
22E
100
AcDbEntity
  8
0
100
AcDbLine
 62
7
  6
CONTINUOUS
 10
41.7941484646
 20
3.9844515849
 11
42.2014026692
 21
3.9844515849
  0
LINE
  5
22F
100
AcDbEntity
  8
0
100
AcDbLine
 62
7
  6
CONTINUOUS
 10
41.0679780472
 20
3.8435187151
 11
41.4074236675
 21
3.8435187151
  0
ARC
  5
230
100
AcDbEntity
  8
0
100
AcDbCircle
 62
7
  6
CONTINUOUS
 10
41.4074236674
 20
3.8258451248
 40
0.0176735904
100
AcDbArc
 50
0.0
 51
90.0
  0
LINE
  5
231
100
AcDbEntity
  8
0
100
AcDbLine
 62
7
  6
CONTINUOUS
 10
41.4250972579
 20
3.8258451247
 11
41.4250972579
 21
3.7897574787
  0
LINE
  5
232
100
AcDbEntity
  8
0
100
AcDbLine
 62
7
  6
CONTINUOUS
 10
41.4074236675
 20
3.7720838883
 11
41.0117377534
 21
3.7720838883
  0
ARC
  5
233
100
AcDbEntity
  8
0
100
AcDbCircle
 62
7
  6
CONTINUOUS
 10
41.0117377534
 20
3.7544102979
 40
0.0176735904
100
AcDbArc
 50
90.0
 51
180.0
  0
LINE
  5
234
100
AcDbEntity
  8
0
100
AcDbLine
 62
7
  6
CONTINUOUS
 10
40.994064163
 20
3.7544102979
 11
40.994064163
 21
3.7209252605
  0
ARC
  5
235
100
AcDbEntity
  8
0
100
AcDbCircle
 62
7
  6
CONTINUOUS
 10
41.0117377534
 20
3.7209252605
 40
0.0176735904
100
AcDbArc
 50
180.0
 51
270.0
  0
LINE
  5
236
100
AcDbEntity
  8
0
100
AcDbLine
 62
7
  6
CONTINUOUS
 10
41.0117377534
 20
3.7032516701
 11
41.5029616349
 21
3.7032516701
  0
SPLINE
  5
237
100
AcDbEntity
  8
0
100
AcDbSpline
 62
7
  6
CONTINUOUS
 70
0
 71
3
 72
13
 73
9
 74
0
 42
0.0000001
 43
0.0000001
 44
0.0000000001
 40
0.0
 40
0.0
 40
0.0
 40
0.0
 40
0.1604571392
 40
0.3334692485
 40
0.4767982758
 40
0.6242014838
 40
0.7505998515
 40
1.0
 40
1.0
 40
1.0
 40
1.0
 10
41.5029616349
 20
3.7032516701
 30
0.0
 10
41.5112437308
 20
3.7036504382
 30
0.0
 10
41.5284559551
 20
3.7044791757
 30
0.0
 10
41.5516015213
 20
3.7145279192
 30
0.0
 10
41.569042468
 20
3.7314190181
 30
0.0
 10
41.5788711273
 20
3.7507840105
 30
0.0
 10
41.5864066139
 20
3.7767623463
 30
0.0
 10
41.5867124043
 20
3.7962033003
 30
0.0
 10
41.586915343
 20
3.809105365
 30
0.0
  0
SPLINE
  5
238
100
AcDbEntity
  8
0
100
AcDbSpline
 62
7
  6
CONTINUOUS
 70
0
 71
3
 72
13
 73
9
 74
0
 42
0.0000001
 43
0.0000001
 44
0.0000000001
 40
0.0
 40
0.0
 40
0.0
 40
0.0
 40
0.2494001485
 40
0.3757985162
 40
0.5232017242
 40
0.6665307515
 40
0.8395428608
 40
1.0
 40
1.0
 40
1.0
 40
1.0
 10
41.586915343
 20
3.809105365
 30
0.0
 10
41.5867124043
 20
3.8220074299
 30
0.0
 10
41.5864066139
 20
3.8414483837
 30
0.0
 10
41.5788711273
 20
3.8674267197
 30
0.0
 10
41.569042468
 20
3.8867917121
 30
0.0
 10
41.5516015213
 20
3.9036828108
 30
0.0
 10
41.5284559551
 20
3.9137315542
 30
0.0
 10
41.5112437308
 20
3.914560292
 30
0.0
 10
41.5029616349
 20
3.9149590599
 30
0.0
  0
LINE
  5
239
100
AcDbEntity
  8
0
100
AcDbLine
 62
7
  6
CONTINUOUS
 10
41.5029616349
 20
3.9149590599
 11
41.1680406
 21
3.9149590599
  0
LINE
  5
23A
100
AcDbEntity
  8
0
100
AcDbLine
 62
7
  6
CONTINUOUS
 10
41.1503670096
 20
3.9326326503
 11
41.1503670096
 21
3.9660728563
  0
ARC
  5
23B
100
AcDbEntity
  8
0
100
AcDbCircle
 62
7
  6
CONTINUOUS
 10
41.1680405998
 20
3.9660728563
 40
0.0176735904
100
AcDbArc
 50
90.0
 51
180.0
  0
LINE
  5
23C
100
AcDbEntity
  8
0
100
AcDbLine
 62
7
  6
CONTINUOUS
 10
41.1680406
 20
3.9837464467
 11
41.5642635995
 21
3.9837464467
  0
ARC
  5
23D
100
AcDbEntity
  8
0
100
AcDbCircle
 62
7
  6
CONTINUOUS
 10
41.5642635995
 20
4.0014200371
 40
0.0176735904
100
AcDbArc
 50
270.0
 51
360.0
  0
LINE
  5
23E
100
AcDbEntity
  8
0
100
AcDbLine
 62
7
  6
CONTINUOUS
 10
41.5819371899
 20
4.0014200371
 11
41.5819371899
 21
4.0374845027
  0
ARC
  5
23F
100
AcDbEntity
  8
0
100
AcDbCircle
 62
7
  6
CONTINUOUS
 10
41.5642635995
 20
4.0374845027
 40
0.0176735904
100
AcDbArc
 50
0.0
 51
90.0
  0
LINE
  5
240
100
AcDbEntity
  8
0
100
AcDbLine
 62
7
  6
CONTINUOUS
 10
41.5642635995
 20
4.0551580931
 11
41.0679780472
 21
4.0551580931
  0
SPLINE
  5
241
100
AcDbEntity
  8
0
100
AcDbSpline
 62
7
  6
CONTINUOUS
 70
0
 71
3
 72
13
 73
9
 74
0
 42
0.0000001
 43
0.0000001
 44
0.0000000001
 40
0.0
 40
0.0
 40
0.0
 40
0.0
 40
0.1133740464
 40
0.2392044088
 40
0.3655787964
 40
0.4912154373
 40
0.7445390876
 40
1.0
 40
1.0
 40
1.0
 40
1.0
 10
41.0679780472
 20
4.0551580931
 30
0.0
 10
41.0623085812
 20
4.0548788455
 30
0.0
 10
41.0503467499
 20
4.0542896692
 30
0.0
 10
41.0325786328
 20
4.0489810865
 30
0.0
 10
41.0166833204
 20
4.0382614049
 30
0.0
 10
41.0004461171
 20
4.0185153424
 30
0.0
 10
40.9902286388
 20
3.9875166515
 30
0.0
 10
40.9891205517
 20
3.962100076
 30
0.0
 10
40.9885641811
 20
3.9493384041
 30
0.0
  0
SPLINE
  5
242
100
AcDbEntity
  8
0
100
AcDbSpline
 62
7
  6
CONTINUOUS
 70
0
 71
3
 72
13
 73
9
 74
0
 42
0.0000001
 43
0.0000001
 44
0.0000000001
 40
0.0
 40
0.0
 40
0.0
 40
0.0
 40
0.2554609124
 40
0.5087845627
 40
0.6344212036
 40
0.7607955912
 40
0.8866259536
 40
1.0
 40
1.0
 40
1.0
 40
1.0
 10
40.9885641811
 20
3.9493384041
 30
0.0
 10
40.9891205517
 20
3.9365767322
 30
0.0
 10
40.9902286388
 20
3.9111601564
 30
0.0
 10
41.0004461171
 20
3.8801614658
 30
0.0
 10
41.0166833204
 20
3.8604154033
 30
0.0
 10
41.0325786328
 20
3.8496957217
 30
0.0
 10
41.0503467499
 20
3.8443871391
 30
0.0
 10
41.0623085812
 20
3.8437979627
 30
0.0
 10
41.0679780472
 20
3.8435187151
 30
0.0
  0
LINE
  5
243
100
AcDbEntity
  8
0
100
AcDbLine
 62
7
  6
CONTINUOUS
 10
40.414958294
 20
3.7032516701
 11
40.6895690038
 21
3.7032516701
  0
LINE
  5
244
100
AcDbEntity
  8
0
100
AcDbLine
 62
7
  6
CONTINUOUS
 10
40.6895690038
 20
3.7032516701
 11
40.6895690038
 21
3.669098485
  0
ARC
  5
245
100
AcDbEntity
  8
0
100
AcDbCircle
 62
7
  6
CONTINUOUS
 10
40.6963665386
 20
3.669098485
 40
0.0067975348
100
AcDbArc
 50
180.0
 51
270.0
  0
LINE
  5
246
100
AcDbEntity
  8
0
100
AcDbLine
 62
7
  6
CONTINUOUS
 10
40.6963665386
 20
3.6623009502
 11
40.8022110685
 21
3.6623009502
  0
ARC
  5
247
100
AcDbEntity
  8
0
100
AcDbCircle
 62
7
  6
CONTINUOUS
 10
40.8022110685
 20
3.669098485
 40
0.0067975348
100
AcDbArc
 50
270.0
 51
360.0
  0
LINE
  5
248
100
AcDbEntity
  8
0
100
AcDbLine
 62
7
  6
CONTINUOUS
 10
40.8090086032
 20
3.669098485
 11
40.8090086032
 21
3.7032516701
  0
LINE
  5
249
100
AcDbEntity
  8
0
100
AcDbLine
 62
7
  6
CONTINUOUS
 10
40.8090086032
 20
3.7032516701
 11
40.8630073466
 21
3.7032516701
  0
SPLINE
  5
24A
100
AcDbEntity
  8
0
100
AcDbSpline
 62
7
  6
CONTINUOUS
 70
0
 71
3
 72
12
 73
8
 74
0
 42
0.0000001
 43
0.0000001
 44
0.0000000001
 40
0.0
 40
0.0
 40
0.0
 40
0.0
 40
0.2415790084
 40
0.4893269843
 40
0.7378634303
 40
0.8656387112
 40
1.0
 40
1.0
 40
1.0
 40
1.0
 10
40.8630073466
 20
3.7032516701
 30
0.0
 10
40.8726898533
 20
3.7035526883
 30
0.0
 10
40.8923021196
 20
3.7041624117
 30
0.0
 10
40.9210026249
 20
3.7143977752
 30
0.0
 10
40.9384330069
 20
3.7337194328
 30
0.0
 10
40.9461122545
 20
3.7530253429
 30
0.0
 10
40.9462506458
 20
3.7636010796
 30
0.0
 10
40.9463215799
 20
3.769021802
 30
0.0
  0
LINE
  5
24B
100
AcDbEntity
  8
0
100
AcDbLine
 62
7
  6
CONTINUOUS
 10
40.9463215799
 20
3.769021802
 11
40.9463215799
 21
3.988975217
  0
SPLINE
  5
24C
100
AcDbEntity
  8
0
100
AcDbSpline
 62
7
  6
CONTINUOUS
 70
0
 71
3
 72
12
 73
8
 74
0
 42
0.0000001
 43
0.0000001
 44
0.0000000001
 40
0.0
 40
0.0
 40
0.0
 40
0.0
 40
0.1343612888
 40
0.2621365697
 40
0.5106730157
 40
0.7584209916
 40
1.0
 40
1.0
 40
1.0
 40
1.0
 10
40.9463215799
 20
3.988975217
 30
0.0
 10
40.9462506458
 20
3.9943959397
 30
0.0
 10
40.9461122545
 20
4.0049716764
 30
0.0
 10
40.9384330069
 20
4.0242775866
 30
0.0
 10
40.9210026249
 20
4.0435992441
 30
0.0
 10
40.8923021196
 20
4.0538346074
 30
0.0
 10
40.8726898533
 20
4.0544443307
 30
0.0
 10
40.8630073466
 20
4.054745349
 30
0.0
  0
LINE
  5
24D
100
AcDbEntity
  8
0
100
AcDbLine
 62
7
  6
CONTINUOUS
 10
40.8630073466
 20
4.054745349
 11
40.414958294
 21
4.054745349
  0
SPLINE
  5
24E
100
AcDbEntity
  8
0
100
AcDbSpline
 62
7
  6
CONTINUOUS
 70
0
 71
3
 72
12
 73
8
 74
0
 42
0.0000001
 43
0.0000001
 44
0.0000000001
 40
0.0
 40
0.0
 40
0.0
 40
0.0
 40
0.1341799809
 40
0.290831959
 40
0.5815217441
 40
0.760783857
 40
1.0
 40
1.0
 40
1.0
 40
1.0
 10
40.414958294
 20
4.054745349
 30
0.0
 10
40.4051855487
 20
4.0530750941
 30
0.0
 10
40.3840033528
 20
4.0494548554
 30
0.0
 10
40.3483465256
 20
4.0228157226
 30
0.0
 10
40.3314576426
 20
3.9779980568
 30
0.0
 10
40.3215761082
 20
3.927193102
 30
0.0
 10
40.3208343324
 20
3.8964639496
 30
0.0
 10
40.3204103084
 20
3.8788981401
 30
0.0
  0
SPLINE
  5
24F
100
AcDbEntity
  8
0
100
AcDbSpline
 62
7
  6
CONTINUOUS
 70
0
 71
3
 72
12
 73
8
 74
0
 42
0.0000001
 43
0.0000001
 44
0.0000000001
 40
0.0
 40
0.0
 40
0.0
 40
0.0
 40
0.2392679579
 40
0.4185688994
 40
0.7093216488
 40
0.8660075581
 40
1.0
 40
1.0
 40
1.0
 40
1.0
 10
40.3204103084
 20
3.8788981401
 30
0.0
 10
40.3208345018
 20
3.8613330153
 30
0.0
 10
40.3215765737
 20
3.8306050607
 30
0.0
 10
40.3314559759
 20
3.7797914844
 30
0.0
 10
40.3483551775
 20
3.7350155432
 30
0.0
 10
40.3839748809
 20
3.7082899077
 30
0.0
 10
40.4051823846
 20
3.7048413386
 30
0.0
 10
40.414958294
 20
3.7032516701
 30
0.0
  0
LINE
  5
250
100
AcDbEntity
  8
0
100
AcDbLine
 62
7
  6
CONTINUOUS
 10
40.8558159309
 20
3.7937463692
 11
40.8558159309
 21
3.9699792239
  0
ARC
  5
251
100
AcDbEntity
  8
0
100
AcDbCircle
 62
7
  6
CONTINUOUS
 10
40.4850303067
 20
3.7937463692
 40
0.0176735904
100
AcDbArc
 50
180.0
 51
270.0
  0
LINE
  5
252
100
AcDbEntity
  8
0
100
AcDbLine
 62
7
  6
CONTINUOUS
 10
40.4850303067
 20
3.7760727788
 11
40.6880230111
 21
3.7760727788
  0
LINE
  5
253
100
AcDbEntity
  8
0
100
AcDbLine
 62
7
  6
CONTINUOUS
 10
40.6880230111
 20
3.7760727788
 11
40.6880230111
 21
3.8101201423
  0
ARC
  5
254
100
AcDbEntity
  8
0
100
AcDbCircle
 62
7
  6
CONTINUOUS
 10
40.694820546
 20
3.8101201423
 40
0.0067975348
100
AcDbArc
 50
90.0
 51
180.0
  0
LINE
  5
255
100
AcDbEntity
  8
0
100
AcDbLine
 62
7
  6
CONTINUOUS
 10
40.6948205459
 20
3.8169176771
 11
40.8001256683
 21
3.8169176771
  0
ARC
  5
256
100
AcDbEntity
  8
0
100
AcDbCircle
 62
7
  6
CONTINUOUS
 10
40.800125668
 20
3.8101201426
 40
0.0067975348
100
AcDbArc
 50
0.0
 51
90.0
  0
LINE
  5
257
100
AcDbEntity
  8
0
100
AcDbLine
 62
7
  6
CONTINUOUS
 10
40.8069232031
 20
3.7760727788
 11
40.8381423405
 21
3.7760727788
  0
ARC
  5
258
100
AcDbEntity
  8
0
100
AcDbCircle
 62
7
  6
CONTINUOUS
 10
40.8381423405
 20
3.7937463692
 40
0.0176735904
100
AcDbArc
 50
270.0
 51
360.0
  0
LINE
  5
259
100
AcDbEntity
  8
0
100
AcDbLine
 62
7
  6
CONTINUOUS
 10
40.8069232031
 20
3.7760727788
 11
40.8069232031
 21
3.8101201423
  0
LINE
  5
25A
100
AcDbEntity
  8
0
100
AcDbLine
 62
7
  6
CONTINUOUS
 10
40.4673567163
 20
3.7937463692
 11
40.4673567163
 21
3.9699792239
  0
ARC
  5
25B
100
AcDbEntity
  8
0
100
AcDbCircle
 62
7
  6
CONTINUOUS
 10
40.4850303069
 20
3.9699792239
 40
0.0176735904
100
AcDbArc
 50
90.0
 51
180.0
  0
LINE
  5
25C
100
AcDbEntity
  8
0
100
AcDbLine
 62
7
  6
CONTINUOUS
 10
40.4850303067
 20
3.9876528143
 11
40.8381423405
 21
3.9876528143
  0
ARC
  5
25D
100
AcDbEntity
  8
0
100
AcDbCircle
 62
7
  6
CONTINUOUS
 10
40.8381423406
 20
3.9699792238
 40
0.0176735904
100
AcDbArc
 50
0.0000000277
 51
90.0000000277
  0
ARC
  5
25E
100
AcDbEntity
  8
0
100
AcDbCircle
 62
7
  6
CONTINUOUS
 10
41.1680406
 20
3.9326326503
 40
0.0176735904
100
AcDbArc
 50
180.0
 51
270.0
  0
ARC
  5
25F
100
AcDbEntity
  8
0
100
AcDbCircle
 62
7
  6
CONTINUOUS
 10
41.4074236675
 20
3.7897574787
 40
0.0176735904
100
AcDbArc
 50
270.0
 51
360.0
  0
ARC
  5
260
100
AcDbEntity
  8
0
100
AcDbCircle
 62
7
  6
CONTINUOUS
 10
41.7941484646
 20
3.791288516
 40
0.0176735904
100
AcDbArc
 50
180.0
 51
270.0
  0
ENDBLK
  5
261
100
AcDbEntity
  8
0
  6
BYBLOCK
 62
0
100
AcDbBlockEnd
  0
BLOCK
  5
262
100
AcDbEntity
  8
0
100
AcDbBlockBegin
  2
_FILLED
 70
64
 10
0.0
 20
0.0
  3
_FILLED
  1

  0
SOLID
  5
263
100
AcDbEntity
  8
0
  6
BYBLOCK
 62
0
100
AcDbTrace
 10
0.0
 20
0.0
 11
-1.0
 21
0.1666666667
 12
-1.0
 22
-0.1666666667
 13
-1.0
 23
-0.1666666667
  0
ENDBLK
  5
264
100
AcDbEntity
  8
0
  6
BYBLOCK
 62
0
100
AcDbBlockEnd
  0
BLOCK
  5
265
100
AcDbEntity
  8
0
100
AcDbBlockBegin
 62
2
  6
CONTINUOUS
  2
*D0
 70
65
 10
0.0
 20
0.0
  3
*D0
  1

  0
MTEXT
  5
266
100
AcDbEntity
  8
0
100
AcDbMText
 62
2
  6
CONTINUOUS
  7
STANDARD
 71
2
 72
1
 10
37.8016530107
 20
19.7724384281
 30
0.0
 11
1.0
 21
0.0
 31
0.0
 44
0.9
  1
(45{\Ftxt.shx;\W1.285714;\H0.223214; })\P[1.8]
 40
0.2232142857
 41
1.2197066327
  0
LINE
  5
267
100
AcDbEntity
  8
0
100
AcDbLine
 62
2
  6
CONTINUOUS
 10
35.8720671435
 20
18.6396844243
 11
37.9802244393
 21
18.6396844243
  0
LINE
  5
268
100
AcDbEntity
  8
0
100
AcDbLine
 62
2
  6
CONTINUOUS
 10
36.8008649582
 20
20.4074009597
 11
37.9802244393
 21
20.4074009597
  0
LINE
  5
269
100
AcDbEntity
  8
0
100
AcDbLine
 62
2
  6
CONTINUOUS
 10
37.8016530107
 20
18.6396844243
 11
37.8016530107
 21
19.1027955709
  0
LINE
  5
26A
100
AcDbEntity
  8
0
100
AcDbLine
 62
2
  6
CONTINUOUS
 10
37.8016530107
 20
20.4074009597
 11
37.8016530107
 21
19.8840455709
  0
INSERT
  5
26B
100
AcDbEntity
  8
0
100
AcDbBlockReference
 62
2
  6
CONTINUOUS
  2
_FILLED
 10
37.8016530107
 20
18.6396844243
 41
0.2678571429
 42
0.2678571429
 43
0.2678571429
 50
270.0
  0
INSERT
  5
26C
100
AcDbEntity
  8
0
100
AcDbBlockReference
 62
2
  6
CONTINUOUS
  2
_FILLED
 10
37.8016530107
 20
20.4074009597
 41
0.2678571429
 42
0.2678571429
 43
0.2678571429
 50
90.0
  0
ENDBLK
  5
26D
100
AcDbEntity
  8
0
  6
BYBLOCK
 62
0
100
AcDbBlockEnd
  0
BLOCK
  5
26E
100
AcDbEntity
  8
0
100
AcDbBlockBegin
 62
2
  6
CONTINUOUS
  2
*D1
 70
65
 10
0.0
 20
0.0
  3
*D1
  1

  0
MTEXT
  5
26F
100
AcDbEntity
  8
0
100
AcDbMText
 62
2
  6
CONTINUOUS
  7
STANDARD
 71
2
 72
1
 10
20.2037327422
 20
21.2692583863
 30
0.0
 11
1.0
 21
0.0
 31
0.0
 44
0.9
  1
220\P[8.7]
 40
0.2232142857
 41
1.0044642857
  0
LINE
  5
270
100
AcDbEntity
  8
0
100
AcDbLine
 62
2
  6
CONTINUOUS
 10
24.7299660555
 20
20.496686674
 11
24.7299660555
 21
21.336222672
  0
LINE
  5
271
100
AcDbEntity
  8
0
100
AcDbLine
 62
2
  6
CONTINUOUS
 10
16.0670526697
 20
20.496686674
 11
16.0670526697
 21
21.336222672
  0
LINE
  5
272
100
AcDbEntity
  8
0
100
AcDbLine
 62
2
  6
CONTINUOUS
 10
24.7299660555
 20
21.1576512434
 11
20.7219087626
 21
21.1576512434
  0
LINE
  5
273
100
AcDbEntity
  8
0
100
AcDbLine
 62
2
  6
CONTINUOUS
 10
16.0670526697
 20
21.1576512434
 11
19.8290516197
 21
21.1576512434
  0
INSERT
  5
274
100
AcDbEntity
  8
0
100
AcDbBlockReference
 62
2
  6
CONTINUOUS
  2
_FILLED
 10
24.7299660555
 20
21.1576512434
 41
0.2678571429
 42
0.2678571429
 43
0.2678571429
  0
INSERT
  5
275
100
AcDbEntity
  8
0
100
AcDbBlockReference
 62
2
  6
CONTINUOUS
  2
_FILLED
 10
16.0670526697
 20
21.1576512434
 41
0.2678571429
 42
0.2678571429
 43
0.2678571429
 50
180.0
  0
ENDBLK
  5
276
100
AcDbEntity
  8
0
  6
BYBLOCK
 62
0
100
AcDbBlockEnd
  0
BLOCK
  5
277
100
AcDbEntity
  8
0
100
AcDbBlockBegin
 62
2
  6
CONTINUOUS
  2
*D2
 70
65
 10
0.0
 20
0.0
  3
*D2
  1

  0
MTEXT
  5
278
100
AcDbEntity
  8
0
100
AcDbMText
 62
2
  6
CONTINUOUS
  7
STANDARD
 71
2
 72
1
 10
7.6514933614
 20
21.9432350213
 30
0.0
 11
1.0
 21
0.0
 31
0.0
 44
0.9
  1
2X 202\P[8.0]
 40
0.2232142857
 41
1.6023596939
  0
LINE
  5
279
100
AcDbEntity
  8
0
100
AcDbLine
 62
2
  6
CONTINUOUS
 10
11.6996187631
 20
20.3161838058
 11
11.6996187631
 21
22.010199307
  0
LINE
  5
27A
100
AcDbEntity
  8
0
100
AcDbLine
 62
2
  6
CONTINUOUS
 10
3.7468628576
 20
19.8071468747
 11
3.7468628576
 21
22.010199307
  0
LINE
  5
27B
100
AcDbEntity
  8
0
100
AcDbLine
 62
2
  6
CONTINUOUS
 10
11.6996187631
 20
21.8316278785
 11
8.4407153001
 21
21.8316278785
  0
LINE
  5
27C
100
AcDbEntity
  8
0
100
AcDbLine
 62
2
  6
CONTINUOUS
 10
3.7468628576
 20
21.8316278785
 11
7.0057663205
 21
21.8316278785
  0
INSERT
  5
27D
100
AcDbEntity
  8
0
100
AcDbBlockReference
 62
2
  6
CONTINUOUS
  2
_FILLED
 10
11.6996187631
 20
21.8316278785
 41
0.2678571429
 42
0.2678571429
 43
0.2678571429
  0
INSERT
  5
27E
100
AcDbEntity
  8
0
100
AcDbBlockReference
 62
2
  6
CONTINUOUS
  2
_FILLED
 10
3.7468628576
 20
21.8316278785
 41
0.2678571429
 42
0.2678571429
 43
0.2678571429
 50
180.0
  0
ENDBLK
  5
27F
100
AcDbEntity
  8
0
  6
BYBLOCK
 62
0
100
AcDbBlockEnd
  0
BLOCK
  5
280
100
AcDbEntity
  8
0
100
AcDbBlockBegin
 62
2
  6
CONTINUOUS
  2
*D3
 70
65
 10
0.0
 20
0.0
  3
*D3
  1

  0
MTEXT
  5
281
100
AcDbEntity
  8
0
100
AcDbMText
 62
2
  6
CONTINUOUS
  7
STANDARD
 71
2
 72
1
 10
14.8300857173
 20
11.4586345788
 30
0.0
 11
1.0
 21
0.0
 31
0.0
 44
0.9
  1
241\P[9.5]
 40
0.2232142857
 41
0.9805484694
  0
LINE
  5
282
100
AcDbEntity
  8
0
100
AcDbLine
 62
2
  6
CONTINUOUS
 10
15.9777669554
 20
16.0949408218
 11
14.7392056153
 21
16.0949408218
  0
LINE
  5
283
100
AcDbEntity
  8
0
100
AcDbLine
 62
2
  6
CONTINUOUS
 10
15.9777669554
 20
6.5991140501
 11
14.7392056153
 21
6.5991140501
  0
LINE
  5
284
100
AcDbEntity
  8
0
100
AcDbLine
 62
2
  6
CONTINUOUS
 10
14.9177770439
 20
16.0949408218
 11
14.9177770439
 21
11.5702417217
  0
LINE
  5
285
100
AcDbEntity
  8
0
100
AcDbLine
 62
2
  6
CONTINUOUS
 10
14.9177770439
 20
6.5991140501
 11
14.9177770439
 21
10.7889917217
  0
INSERT
  5
286
100
AcDbEntity
  8
0
100
AcDbBlockReference
 62
2
  6
CONTINUOUS
  2
_FILLED
 10
14.9177770439
 20
16.0949408218
 41
0.2678571429
 42
0.2678571429
 43
0.2678571429
 50
90.0
  0
INSERT
  5
287
100
AcDbEntity
  8
0
100
AcDbBlockReference
 62
2
  6
CONTINUOUS
  2
_FILLED
 10
14.9177770439
 20
6.5991140501
 41
0.2678571429
 42
0.2678571429
 43
0.2678571429
 50
270.0
  0
ENDBLK
  5
288
100
AcDbEntity
  8
0
  6
BYBLOCK
 62
0
100
AcDbBlockEnd
  0
BLOCK
  5
289
100
AcDbEntity
  8
0
100
AcDbBlockBegin
 62
2
  6
CONTINUOUS
  2
*D4
 70
65
 10
0.0
 20
0.0
  3
*D4
  1

  0
MTEXT
  5
28A
100
AcDbEntity
  8
0
100
AcDbMText
 62
2
  6
CONTINUOUS
  7
STANDARD
 71
1
 72
1
 10
13.3996040909
 20
20.7817329703
 30
0.0
 11
1.0
 21
0.0
 31
0.0
 44
0.9
  1
2X 13\P[0.5]
 40
0.2232142857
 41
1.243622449
  0
LINE
  5
28B
100
AcDbEntity
  8
0
100
AcDbLine
 62
2
  6
CONTINUOUS
 10
12.271525942
 20
20.0412592274
 11
13.2210326623
 21
20.0412592274
  0
LINE
  5
28C
100
AcDbEntity
  8
0
100
AcDbLine
 62
2
  6
CONTINUOUS
 10
12.3140985417
 20
19.5491332432
 11
13.2210326623
 21
19.5491332432
  0
LINE
  5
28D
100
AcDbEntity
  8
0
100
AcDbLine
 62
2
  6
CONTINUOUS
 10
13.0424612337
 20
20.0412592274
 11
13.0424612337
 21
20.6701258275
  0
LINE
  5
28E
100
AcDbEntity
  8
0
100
AcDbLine
 62
2
  6
CONTINUOUS
 10
13.0424612337
 20
20.6701258275
 11
13.287996948
 21
20.6701258275
  0
LINE
  5
28F
100
AcDbEntity
  8
0
100
AcDbLine
 62
2
  6
CONTINUOUS
 10
13.0424612337
 20
19.5491332432
 11
13.0424612337
 21
18.8348475289
  0
INSERT
  5
290
100
AcDbEntity
  8
0
100
AcDbBlockReference
 62
2
  6
CONTINUOUS
  2
_FILLED
 10
13.0424612337
 20
20.0412592274
 41
0.2678571429
 42
0.2678571429
 43
0.2678571429
 50
270.0
  0
INSERT
  5
291
100
AcDbEntity
  8
0
100
AcDbBlockReference
 62
2
  6
CONTINUOUS
  2
_FILLED
 10
13.0424612337
 20
19.5491332432
 41
0.2678571429
 42
0.2678571429
 43
0.2678571429
 50
90.0
  0
ENDBLK
  5
292
100
AcDbEntity
  8
0
  6
BYBLOCK
 62
0
100
AcDbBlockEnd
  0
BLOCK
  5
293
100
AcDbEntity
  8
0
100
AcDbBlockBegin
 62
2
  6
CONTINUOUS
  2
*D5
 70
65
 10
0.0
 20
0.0
  3
*D5
  1

  0
MTEXT
  5
294
100
AcDbEntity
  8
0
100
AcDbMText
 62
2
  6
CONTINUOUS
  7
STANDARD
 71
1
 72
1
 10
12.9510428589
 20
21.546480358
 30
0.0
 11
1.0
 21
0.0
 31
0.0
 44
0.9
  1
2X 25\P[1.0]
 40
0.2232142857
 41
1.315369898
  0
LINE
  5
295
100
AcDbEntity
  8
0
100
AcDbLine
 62
2
  6
CONTINUOUS
 10
12.000659258
 20
19.0570072589
 11
12.7724714304
 21
19.0570072589
  0
LINE
  5
296
100
AcDbEntity
  8
0
100
AcDbLine
 62
2
  6
CONTINUOUS
 10
12.3192086095
 20
20.0412592274
 11
12.7724714304
 21
20.0412592274
  0
LINE
  5
297
100
AcDbEntity
  8
0
100
AcDbLine
 62
2
  6
CONTINUOUS
 10
12.5939000018
 20
19.0570072589
 11
12.5939000018
 21
18.3427215446
  0
LINE
  5
298
100
AcDbEntity
  8
0
100
AcDbLine
 62
2
  6
CONTINUOUS
 10
12.5939000018
 20
20.0412592274
 11
12.5939000018
 21
21.4348732151
  0
LINE
  5
299
100
AcDbEntity
  8
0
100
AcDbLine
 62
2
  6
CONTINUOUS
 10
12.5939000018
 20
21.4348732151
 11
12.8394357161
 21
21.4348732151
  0
INSERT
  5
29A
100
AcDbEntity
  8
0
100
AcDbBlockReference
 62
2
  6
CONTINUOUS
  2
_FILLED
 10
12.5939000018
 20
19.0570072589
 41
0.2678571429
 42
0.2678571429
 43
0.2678571429
 50
90.0
  0
INSERT
  5
29B
100
AcDbEntity
  8
0
100
AcDbBlockReference
 62
2
  6
CONTINUOUS
  2
_FILLED
 10
12.5939000018
 20
20.0412592274
 41
0.2678571429
 42
0.2678571429
 43
0.2678571429
 50
270.0
  0
ENDBLK
  5
29C
100
AcDbEntity
  8
0
  6
BYBLOCK
 62
0
100
AcDbBlockEnd
  0
BLOCK
  5
29D
100
AcDbEntity
  8
0
100
AcDbBlockBegin
 62
2
  6
CONTINUOUS
  2
*D6
 70
65
 10
0.0
 20
0.0
  3
*D6
  1

  0
MTEXT
  5
29E
100
AcDbEntity
  8
0
100
AcDbMText
 62
2
  6
CONTINUOUS
  7
STANDARD
 71
2
 72
1
 10
1.7497623902
 20
19.7649702734
 30
0.0
 11
1.0
 21
0.0
 31
0.0
 44
0.9
  1
44\P[1.7]
 40
0.2232142857
 41
0.9327168367
  0
LINE
  5
29F
100
AcDbEntity
  8
0
100
AcDbLine
 62
2
  6
CONTINUOUS
 10
2.6072228126
 20
20.4074009597
 11
1.7067139208
 21
20.4074009597
  0
LINE
  5
2A0
100
AcDbEntity
  8
0
100
AcDbLine
 62
2
  6
CONTINUOUS
 10
2.6072228126
 20
18.6908655266
 11
1.7067139208
 21
18.6908655266
  0
LINE
  5
2A1
100
AcDbEntity
  8
0
100
AcDbLine
 62
2
  6
CONTINUOUS
 10
1.8852853494
 20
20.4074009597
 11
1.8852853494
 21
19.8765774163
  0
LINE
  5
2A2
100
AcDbEntity
  8
0
100
AcDbLine
 62
2
  6
CONTINUOUS
 10
1.8852853494
 20
18.6908655266
 11
1.8852853494
 21
19.0953274163
  0
INSERT
  5
2A3
100
AcDbEntity
  8
0
100
AcDbBlockReference
 62
2
  6
CONTINUOUS
  2
_FILLED
 10
1.8852853494
 20
20.4074009597
 41
0.2678571429
 42
0.2678571429
 43
0.2678571429
 50
90.0
  0
INSERT
  5
2A4
100
AcDbEntity
  8
0
100
AcDbBlockReference
 62
2
  6
CONTINUOUS
  2
_FILLED
 10
1.8852853494
 20
18.6908655266
 41
0.2678571429
 42
0.2678571429
 43
0.2678571429
 50
270.0
  0
ENDBLK
  5
2A5
100
AcDbEntity
  8
0
  6
BYBLOCK
 62
0
100
AcDbBlockEnd
  0
ENDSEC
  0
SECTION
  2
ENTITIES
  0
MTEXT
  5
2A6
100
AcDbEntity
  8
0
100
AcDbMText
 62
2
  6
CONTINUOUS
  7
STANDARD
 71
1
 72
1
 10
3.5184396353
 20
0.5213095479
 30
0.0
 11
1.0
 21
0.0
 31
0.0
 44
0.9
  1
8
 40
0.2232142857
 41
0.2630739796
  0
MTEXT
  5
2A7
100
AcDbEntity
  8
0
100
AcDbMText
 62
2
  6
CONTINUOUS
  7
STANDARD
 71
1
 72
1
 10
9.3220110639
 20
0.5213095479
 30
0.0
 11
1.0
 21
0.0
 31
0.0
 44
0.9
  1
7
 40
0.2232142857
 41
0.2630739796
  0
MTEXT
  5
2A8
100
AcDbEntity
  8
0
100
AcDbMText
 62
2
  6
CONTINUOUS
  7
STANDARD
 71
1
 72
1
 10
15.1255824925
 20
0.5213095479
 30
0.0
 11
1.0
 21
0.0
 31
0.0
 44
0.9
  1
6
 40
0.2232142857
 41
0.2630739796
  0
MTEXT
  5
2A9
100
AcDbEntity
  8
0
100
AcDbMText
 62
2
  6
CONTINUOUS
  7
STANDARD
 71
1
 72
1
 10
20.929153921
 20
0.5213095479
 30
0.0
 11
1.0
 21
0.0
 31
0.0
 44
0.9
  1
5
 40
0.2232142857
 41
0.2391581633
  0
MTEXT
  5
2AA
100
AcDbEntity
  8
0
100
AcDbMText
 62
2
  6
CONTINUOUS
  7
STANDARD
 71
1
 72
1
 10
26.7327253496
 20
0.5213095479
 30
0.0
 11
1.0
 21
0.0
 31
0.0
 44
0.9
  1
4
 40
0.2232142857
 41
0.2630739796
  0
MTEXT
  5
2AB
100
AcDbEntity
  8
0
100
AcDbMText
 62
2
  6
CONTINUOUS
  7
STANDARD
 71
1
 72
1
 10
32.5362967782
 20
0.5213095479
 30
0.0
 11
1.0
 21
0.0
 31
0.0
 44
0.9
  1
3
 40
0.2232142857
 41
0.2391581633
  0
MTEXT
  5
2AC
100
AcDbEntity
  8
0
100
AcDbMText
 62
2
  6
CONTINUOUS
  7
STANDARD
 71
1
 72
1
 10
38.3398682068
 20
0.5213095479
 30
0.0
 11
1.0
 21
0.0
 31
0.0
 44
0.9
  1
2
 40
0.2232142857
 41
0.2630739796
  0
MTEXT
  5
2AD
100
AcDbEntity
  8
0
100
AcDbMText
 62
2
  6
CONTINUOUS
  7
STANDARD
 71
1
 72
1
 10
44.1434396353
 20
0.5213095479
 30
0.0
 11
1.0
 21
0.0
 31
0.0
 44
0.9
  1
1
 40
0.2232142857
 41
0.1913265306
  0
MTEXT
  5
2AE
100
AcDbEntity
  8
0
100
AcDbMText
 62
2
  6
CONTINUOUS
  7
STANDARD
 71
1
 72
1
 10
3.5184396353
 20
31.2355952622
 30
0.0
 11
1.0
 21
0.0
 31
0.0
 44
0.9
  1
8
 40
0.2232142857
 41
0.3268494898
  0
MTEXT
  5
2AF
100
AcDbEntity
  8
0
100
AcDbMText
 62
2
  6
CONTINUOUS
  7
STANDARD
 71
1
 72
1
 10
9.3220110639
 20
31.2355952622
 30
0.0
 11
1.0
 21
0.0
 31
0.0
 44
0.9
  1
7
 40
0.2232142857
 41
0.2630739796
  0
MTEXT
  5
2B0
100
AcDbEntity
  8
0
100
AcDbMText
 62
2
  6
CONTINUOUS
  7
STANDARD
 71
1
 72
1
 10
15.1255824925
 20
31.2355952622
 30
0.0
 11
1.0
 21
0.0
 31
0.0
 44
0.9
  1
6
 40
0.2232142857
 41
0.2630739796
  0
MTEXT
  5
2B1
100
AcDbEntity
  8
0
100
AcDbMText
 62
2
  6
CONTINUOUS
  7
STANDARD
 71
1
 72
1
 10
20.929153921
 20
31.2355952622
 30
0.0
 11
1.0
 21
0.0
 31
0.0
 44
0.9
  1
5
 40
0.2232142857
 41
0.2391581633
  0
MTEXT
  5
2B2
100
AcDbEntity
  8
0
100
AcDbMText
 62
2
  6
CONTINUOUS
  7
STANDARD
 71
1
 72
1
 10
26.7327253496
 20
31.2355952622
 30
0.0
 11
1.0
 21
0.0
 31
0.0
 44
0.9
  1
4
 40
0.2232142857
 41
0.2630739796
  0
MTEXT
  5
2B3
100
AcDbEntity
  8
0
100
AcDbMText
 62
2
  6
CONTINUOUS
  7
STANDARD
 71
1
 72
1
 10
32.5362967782
 20
31.2355952622
 30
0.0
 11
1.0
 21
0.0
 31
0.0
 44
0.9
  1
3
 40
0.2232142857
 41
0.2391581633
  0
MTEXT
  5
2B4
100
AcDbEntity
  8
0
100
AcDbMText
 62
2
  6
CONTINUOUS
  7
STANDARD
 71
1
 72
1
 10
38.3398682068
 20
31.2355952622
 30
0.0
 11
1.0
 21
0.0
 31
0.0
 44
0.9
  1
2
 40
0.2232142857
 41
0.2630739796
  0
MTEXT
  5
2B5
100
AcDbEntity
  8
0
100
AcDbMText
 62
2
  6
CONTINUOUS
  7
STANDARD
 71
1
 72
1
 10
44.1434396353
 20
31.2355952622
 30
0.0
 11
1.0
 21
0.0
 31
0.0
 44
0.9
  1
1
 40
0.2232142857
 41
0.1913265306
  0
MTEXT
  5
2B6
100
AcDbEntity
  8
0
100
AcDbMText
 62
2
  6
CONTINUOUS
  7
STANDARD
 71
1
 72
1
 10
0.2831704418
 20
4.5992713561
 30
0.0
 11
1.0
 21
0.0
 31
0.0
 44
0.9
  1
A
 40
0.2232142857
 41
0.2869897959
  0
MTEXT
  5
2B7
100
AcDbEntity
  8
0
100
AcDbMText
 62
2
  6
CONTINUOUS
  7
STANDARD
 71
1
 72
1
 10
0.2831704418
 20
12.0992713561
 30
0.0
 11
1.0
 21
0.0
 31
0.0
 44
0.9
  1
B
 40
0.2232142857
 41
0.2630739796
  0
MTEXT
  5
2B8
100
AcDbEntity
  8
0
100
AcDbMText
 62
2
  6
CONTINUOUS
  7
STANDARD
 71
1
 72
1
 10
0.2831704418
 20
19.5992713561
 30
0.0
 11
1.0
 21
0.0
 31
0.0
 44
0.9
  1
C
 40
0.2232142857
 41
0.2790178571
  0
MTEXT
  5
2B9
100
AcDbEntity
  8
0
100
AcDbMText
 62
2
  6
CONTINUOUS
  7
STANDARD
 71
1
 72
1
 10
0.2831704418
 20
27.0992713561
 30
0.0
 11
1.0
 21
0.0
 31
0.0
 44
0.9
  1
D
 40
0.2232142857
 41
0.3029336735
  0
MTEXT
  5
2BA
100
AcDbEntity
  8
0
100
AcDbMText
 62
2
  6
CONTINUOUS
  7
STANDARD
 71
1
 72
1
 10
47.4260275847
 20
4.5992713561
 30
0.0
 11
1.0
 21
0.0
 31
0.0
 44
0.9
  1
A
 40
0.2232142857
 41
0.2869897959
  0
MTEXT
  5
2BB
100
AcDbEntity
  8
0
100
AcDbMText
 62
2
  6
CONTINUOUS
  7
STANDARD
 71
1
 72
1
 10
47.4260275847
 20
12.0992713561
 30
0.0
 11
1.0
 21
0.0
 31
0.0
 44
0.9
  1
B
 40
0.2232142857
 41
0.2630739796
  0
MTEXT
  5
2BC
100
AcDbEntity
  8
0
100
AcDbMText
 62
2
  6
CONTINUOUS
  7
STANDARD
 71
1
 72
1
 10
47.4260275847
 20
19.5992713561
 30
0.0
 11
1.0
 21
0.0
 31
0.0
 44
0.9
  1
C
 40
0.2232142857
 41
0.2790178571
  0
MTEXT
  5
2BD
100
AcDbEntity
  8
0
100
AcDbMText
 62
2
  6
CONTINUOUS
  7
STANDARD
 71
1
 72
1
 10
47.4260275847
 20
27.0992713561
 30
0.0
 11
1.0
 21
0.0
 31
0.0
 44
0.9
  1
D
 40
0.2232142857
 41
0.3029336735
  0
MTEXT
  5
2BE
100
AcDbEntity
  8
0
100
AcDbMText
 62
5
  6
CONTINUOUS
  7
STANDARD
 71
1
 72
1
 10
0.808985158
 20
30.6516887363
 30
0.0
 11
1.0
 21
0.0
 31
0.0
 44
0.9
  1
THIS DOCUMENT CONTAINS PROPRIETARY INFORMATION\PWHICH IS THE PROPERTY OF QSC, LLC, THAT MAY NOT BE\PDISCLOSED, REPRODUCED OR USED WITHOUT EXPRESS\PWRITTEN CONSENT FROM QSC, LLC.
 40
0.1071428571
 41
6.3482142857
  0
MTEXT
  5
2BF
100
AcDbEntity
  8
0
100
AcDbMText
 62
2
  6
CONTINUOUS
  7
STANDARD
 71
2
 72
1
 10
34.6418772934
 20
4.2546535219
 30
0.0
 11
1.0
 21
0.0
 31
0.0
 44
0.9
  1
UNLESS OTHERWISE SPECIFIED\PDIMENSIONS IN MILLIMETERS [IN]
 40
0.1428571429
 41
4.693877551
  0
MTEXT
  5
2C0
100
AcDbEntity
  8
0
100
AcDbMText
 62
2
  6
CONTINUOUS
  7
STANDARD
 71
2
 72
1
 10
34.621353256
 20
3.7028364266
 30
0.0
 11
1.0
 21
0.0
 31
0.0
 44
0.9
  1
TOLERANCES ARE:
 40
0.1285714286
 41
2.2086734694
  0
MTEXT
  5
2C1
100
AcDbEntity
  8
0
100
AcDbMText
 62
2
  6
CONTINUOUS
  7
STANDARD
 71
2
 72
1
 10
33.5703952012
 20
3.3767222468
 30
0.0
 11
1.0
 21
0.0
 31
0.0
 44
0.9
  1
DECIMALS\P.X\Fgdt;{\Fgdt;`}\Ftxt;.5[.02]
 40
0.1285714286
 41
1.3270408163
  0
MTEXT
  5
2C2
100
AcDbEntity
  8
0
100
AcDbMText
 62
2
  6
CONTINUOUS
  7
STANDARD
 71
2
 72
1
 10
34.8214285714
 20
3.3678571429
 30
0.0
 11
1.0
 21
0.0
 31
0.0
 44
0.9
  1
DECIMALS\P.XX\Fgdt;{\Fgdt;`}\Ftxt;.25[.010]
 40
0.1285714286
 41
1.7540816327
  0
MTEXT
  5
2C3
100
AcDbEntity
  8
0
100
AcDbMText
 62
2
  6
CONTINUOUS
  7
STANDARD
 71
2
 72
1
 10
35.8989957063
 20
3.3750009923
 30
0.0
 11
1.0
 21
0.0
 31
0.0
 44
0.9
  1
ANGLES\P\Fgdt;{\Fgdt;`}\Ftxt; 1/2
 40
0.1285714286
 41
0.9183673469
  0
MTEXT
  5
2C4
100
AcDbEntity
  8
0
100
AcDbMText
 62
2
  6
CONTINUOUS
  7
STANDARD
 71
2
 72
1
 10
34.6428571429
 20
2.8321428571
 30
0.0
 11
1.0
 21
0.0
 31
0.0
 44
0.9
  1
DEBURR EDGES .25 [.010] R MAX
 40
0.1285714286
 41
4.2015306122
  0
MTEXT
  5
2C5
100
AcDbEntity
  8
0
100
AcDbMText
 62
2
  6
CONTINUOUS
  7
STANDARD
 71
2
 72
1
 10
33.5127492583
 20
2.4088855965
 30
0.0
 11
1.0
 21
0.0
 31
0.0
 44
0.9
  1
MATERIAL
 40
0.1285714286
 41
1.2352040816
  0
MTEXT
  5
2C6
100
AcDbEntity
  8
0
100
AcDbMText
 62
2
  6
CONTINUOUS
  7
STANDARD
 71
2
 72
1
 10
33.37591388
 20
1.5387808956
 30
0.0
 11
1.0
 21
0.0
 31
0.0
 44
0.9
  1
FINISH
 40
0.1285714286
 41
0.8770408163
  0
MTEXT
  5
2C7
100
AcDbEntity
  8
0
100
AcDbMText
 62
2
  6
CONTINUOUS
  7
STANDARD
 71
2
 72
1
 10
43.2425604497
 20
0.9727179453
 30
0.0
 11
1.0
 21
0.0
 31
0.0
 44
0.9
  1
DO NOT SCALE DRAWING
 40
0.1785714286
 41
4.4515306122
  0
MTEXT
  5
2C8
100
AcDbEntity
  8
0
100
AcDbMText
 62
2
  6
CONTINUOUS
  7
STANDARD
 71
2
 72
1
 10
36.7443380632
 20
4.2984801688
 30
0.0
 11
1.0
 21
0.0
 31
0.0
 44
0.9
  1
DESIGNER
 40
0.1285714286
 41
1.2168367347
  0
MTEXT
  5
2C9
100
AcDbEntity
  8
0
100
AcDbMText
 62
2
  6
CONTINUOUS
  7
STANDARD
 71
2
 72
1
 10
36.6940589987
 20
3.5665714077
 30
0.0
 11
1.0
 21
0.0
 31
0.0
 44
0.9
  1
ENGINEER
 40
0.1285714286
 41
1.1801020408
  0
MTEXT
  5
2CA
100
AcDbEntity
  8
0
100
AcDbMText
 62
2
  6
CONTINUOUS
  7
STANDARD
 71
2
 72
1
 10
37.2426325387
 20
2.8208930419
 30
0.0
 11
1.0
 21
0.0
 31
0.0
 44
0.9
  1
TECHNICAL DIRECTOR
 40
0.1285714286
 41
2.7459183673
  0
MTEXT
  5
2CB
100
AcDbEntity
  8
0
100
AcDbMText
 62
2
  6
CONTINUOUS
  7
STANDARD
 71
2
 72
1
 10
37.4330875414
 20
2.0747313254
 30
0.0
 11
1.0
 21
0.0
 31
0.0
 44
0.9
  1
MANUFACTURING ENGINEER
 40
0.1285714286
 41
3.3244897959
  0
MTEXT
  5
2CC
100
AcDbEntity
  8
0
100
AcDbMText
 62
2
  6
CONTINUOUS
  7
STANDARD
 71
2
 72
1
 10
37.0807478577
 20
0.9657178127
 30
0.0
 11
1.0
 21
0.0
 31
0.0
 44
0.9
  1
MODEL INFO:
 40
0.1285714286
 41
1.575
  0
MTEXT
  5
2CD
100
AcDbEntity
  8
0
100
AcDbMText
 62
2
  6
CONTINUOUS
  7
STANDARD
 71
2
 72
1
 10
36.948358419
 20
1.311944345
 30
0.0
 11
1.0
 21
0.0
 31
0.0
 44
0.9
  1
DRAWING INFO:
 40
0.1285714286
 41
2.0020408163
  0
MTEXT
  5
2CE
100
AcDbEntity
  8
0
100
AcDbMText
 62
2
  6
CONTINUOUS
  7
STANDARD
 71
2
 72
1
 10
40.341949402
 20
0.952886186
 30
0.0
 11
1.0
 21
0.0
 31
0.0
 44
0.9
  1
SCALE:
 40
0.1285714286
 41
0.8448979592
  0
MTEXT
  5
2CF
100
AcDbEntity
  8
0
100
AcDbMText
 62
2
  6
CONTINUOUS
  7
STANDARD
 71
2
 72
1
 10
45.166061049
 20
0.9552584093
 30
0.0
 11
1.0
 21
0.0
 31
0.0
 44
0.9
  1
SHEET
 40
0.1285714286
 41
0.7806122449
  0
MTEXT
  5
2D0
100
AcDbEntity
  8
0
100
AcDbMText
 62
2
  6
CONTINUOUS
  7
STANDARD
 71
2
 72
1
 10
40.3456849297
 20
1.7290423819
 30
0.0
 11
1.0
 21
0.0
 31
0.0
 44
0.9
  1
SIZE
 40
0.1285714286
 41
0.6015306122
  0
MTEXT
  5
2D1
100
AcDbEntity
  8
0
100
AcDbMText
 62
2
  6
CONTINUOUS
  7
STANDARD
 71
2
 72
1
 10
41.4052822981
 20
1.7305949187
 30
0.0
 11
1.0
 21
0.0
 31
0.0
 44
0.9
  1
CAGE CODE
 40
0.1285714286
 41
1.4280612245
  0
MTEXT
  5
2D2
100
AcDbEntity
  8
0
100
AcDbMText
 62
2
  6
CONTINUOUS
  7
STANDARD
 71
2
 72
1
 10
42.7727853543
 20
1.7276185225
 30
0.0
 11
1.0
 21
0.0
 31
0.0
 44
0.9
  1
DRAWING NO.
 40
0.1285714286
 41
1.7816326531
  0
MTEXT
  5
2D3
100
AcDbEntity
  8
0
100
AcDbMText
 62
2
  6
CONTINUOUS
  7
STANDARD
 71
2
 72
1
 10
46.8030466563
 20
1.7295341524
 30
0.0
 11
1.0
 21
0.0
 31
0.0
 44
0.9
  1
REV
 40
0.1285714286
 41
0.4867346939
  0
MTEXT
  5
2D4
100
AcDbEntity
  8
0
100
AcDbMText
 62
2
  6
CONTINUOUS
  7
STANDARD
 71
2
 72
1
 10
43.4530592864
 20
4.2764540038
 30
0.0
 11
1.0
 21
0.0
 31
0.0
 44
0.9
  1
QSC, LLC
 40
0.2232142857
 41
2.0567602041
  0
MTEXT
  5
2D5
100
AcDbEntity
  8
0
100
AcDbMText
 62
2
  6
CONTINUOUS
  7
STANDARD
 71
1
 72
1
 10
42.731617734
 20
3.9347002341
 30
0.0
 11
1.0
 21
0.0
 31
0.0
 44
0.9
  1
1675 MACARTHUR BOULEVARD\PCOSTA MESA, CA  92626
 40
0.1785714286
 41
5.1211734694
  0
MTEXT
  5
2D6
100
AcDbEntity
  8
0
100
AcDbMText
 62
2
  6
CONTINUOUS
  7
STANDARD
 71
1
 72
1
 10
40.9001549842
 20
1.4232521311
 30
0.0
 11
1.0
 21
0.0
 31
0.0
 44
0.9
  1
00PW4
 40
0.2232142857
 41
1.5704719388
  0
INSERT
  5
2D7
100
AcDbEntity
  8
0
100
AcDbBlockReference
 62
7
  6
CONTINUOUS
  2
RD010411_BL0
 10
41.269743284
 20
3.8587295217
  0
MTEXT
  5
2D8
100
AcDbEntity
  8
0
100
AcDbMText
 62
7
  6
CONTINUOUS
  7
STANDARD
 71
1
 72
1
 10
35.3683943241
 20
18.2686179898
 30
0.0
 11
1.0
 21
0.0
 31
0.0
 44
0.9
  1
A
 40
0.3571428571
 41
0.4591836735
  0
LEADER
  5
2D9
100
AcDbEntity
  8
0
100
AcDbLeader
 62
7
  6
CONTINUOUS
  3
STANDARD
 71
1
 72
0
 73
3
 75
0
 76
2
 10
35.8148228955
 20
18.0900465613
 30
0.0
 10
36.7337661731
 20
18.0900465613
 30
0.0
1001
ACAD
1000
DSTYLE
1002
{
1070
77
1070
0
1002
}
  0
MTEXT
  5
2DA
100
AcDbEntity
  8
0
100
AcDbMText
 62
7
  6
CONTINUOUS
  7
STANDARD
 71
1
 72
1
 10
35.4047535517
 20
21.1559033653
 30
0.0
 11
1.0
 21
0.0
 31
0.0
 44
0.9
  1
A
 40
0.3571428571
 41
0.4591836735
  0
LEADER
  5
2DB
100
AcDbEntity
  8
0
100
AcDbLeader
 62
7
  6
CONTINUOUS
  3
STANDARD
 71
1
 72
0
 73
3
 75
0
 76
2
 10
35.8511821231
 20
20.9773319368
 30
0.0
 10
36.7337661731
 20
20.9773319368
 30
0.0
1001
ACAD
1000
DSTYLE
1002
{
1070
77
1070
0
1002
}
  0
DIMENSION
  5
2DC
100
AcDbEntity
  8
0
100
AcDbDimension
 62
2
  6
CONTINUOUS
  2
*D0
 10
37.8016530107
 20
20.4074009597
 11
37.8016530107
 21
19.4934205709
 70
160
 71
2
 42
44.9
  1
(<>)
  3
DIMSTYLE_1
100
AcDbAlignedDimension
 13
35.8095671435
 23
18.6396844243
 14
36.7383649582
 24
20.4074009597
 50
90.0
100
AcDbRotatedDimension
  0
DIMENSION
  5
2DD
100
AcDbEntity
  8
0
100
AcDbDimension
 62
2
  6
CONTINUOUS
  2
*D1
 10
16.0670526697
 20
21.1576512434
 11
20.2754801911
 21
20.9902405292
 70
160
 71
2
 42
220.038
  3
DIMSTYLE_1
100
AcDbAlignedDimension
 13
24.7299660555
 23
20.434186674
 14
16.0670526697
 24
20.434186674
 50
180.0
100
AcDbRotatedDimension
  0
DIMENSION
  5
2DE
100
AcDbEntity
  8
0
100
AcDbDimension
 62
2
  6
CONTINUOUS
  2
*D2
 10
3.7468628576
 20
21.8316278785
 11
7.7232408103
 21
21.6642171642
 70
160
 71
2
 42
202.0
  1
2X <>
  3
DIMSTYLE_2
100
AcDbAlignedDimension
 13
11.6996187631
 23
20.2536838058
 14
3.7468628576
 24
19.7446468747
 50
180.0
100
AcDbRotatedDimension
  0
DIMENSION
  5
2DF
100
AcDbEntity
  8
0
100
AcDbDimension
 62
2
  6
CONTINUOUS
  2
*D3
 10
14.9177770439
 20
6.5991140501
 11
14.9177770439
 21
11.1796167217
 70
160
 71
2
 42
241.194
  3
DIMSTYLE_2
100
AcDbAlignedDimension
 13
16.0402669554
 23
16.0949408218
 14
16.0402669554
 24
6.5991140501
 50
270.0
100
AcDbRotatedDimension
  0
DIMENSION
  5
2E0
100
AcDbEntity
  8
0
100
AcDbDimension
 62
2
  6
CONTINUOUS
  2
*D4
 10
13.0424612337
 20
19.5491332432
 11
13.997499499
 21
20.5027151132
 70
160
 71
1
 42
12.5
  1
2X <>
  3
DIMSTYLE_2
100
AcDbAlignedDimension
 13
12.209025942
 23
20.0412592274
 14
12.2515985417
 24
19.5491332432
 50
270.0
100
AcDbRotatedDimension
  0
DIMENSION
  5
2E1
100
AcDbEntity
  8
0
100
AcDbDimension
 62
2
  6
CONTINUOUS
  2
*D5
 10
12.5939000018
 20
20.0412592274
 11
13.5329943896
 21
21.2674625008
 70
160
 71
1
 42
25.0
  1
2X <>
  3
DIMSTYLE_2
100
AcDbAlignedDimension
 13
11.938159258
 23
19.0570072589
 14
12.2567086095
 24
20.0412592274
 50
90.0
100
AcDbRotatedDimension
  0
DIMENSION
  5
2E2
100
AcDbEntity
  8
0
100
AcDbDimension
 62
2
  6
CONTINUOUS
  2
*D6
 10
1.8852853494
 20
18.6908655266
 11
1.8852853494
 21
19.4859524163
 70
160
 71
2
 42
43.6
  3
DIMSTYLE_2
100
AcDbAlignedDimension
 13
2.6697228126
 23
20.4074009597
 14
2.6697228126
 24
18.6908655266
 50
270.0
100
AcDbRotatedDimension
  0
LINE
  5
2E3
100
AcDbEntity
  8
0
100
AcDbLine
 62
2
  6
CONTINUOUS
 10
33.0357142857
 20
2.5
 11
36.25
 21
2.5
  0
LINE
  5
2E4
100
AcDbEntity
  8
0
100
AcDbLine
 62
2
  6
CONTINUOUS
 10
33.0357142857
 20
2.5
 11
33.0357142857
 21
1.6071428571
  0
LINE
  5
2E5
100
AcDbEntity
  8
0
100
AcDbLine
 62
2
  6
CONTINUOUS
 10
33.0357142857
 20
1.6071428571
 11
36.25
 21
1.6071428571
  0
LINE
  5
2E6
100
AcDbEntity
  8
0
100
AcDbLine
 62
2
  6
CONTINUOUS
 10
36.25
 20
2.5
 11
36.25
 21
1.6071428571
  0
LINE
  5
2E7
100
AcDbEntity
  8
0
100
AcDbLine
 62
2
  6
CONTINUOUS
 10
33.0357142857
 20
1.6071428571
 11
36.25
 21
1.6071428571
  0
LINE
  5
2E8
100
AcDbEntity
  8
0
100
AcDbLine
 62
2
  6
CONTINUOUS
 10
33.0357142857
 20
1.6071428571
 11
33.0357142857
 21
0.7142857143
  0
LINE
  5
2E9
100
AcDbEntity
  8
0
100
AcDbLine
 62
2
  6
CONTINUOUS
 10
33.0357142857
 20
0.7142857143
 11
36.25
 21
0.7142857143
  0
LINE
  5
2EA
100
AcDbEntity
  8
0
100
AcDbLine
 62
2
  6
CONTINUOUS
 10
36.25
 20
1.6071428571
 11
36.25
 21
0.7142857143
  0
LINE
  5
2EB
100
AcDbEntity
  8
0
100
AcDbLine
 62
2
  6
CONTINUOUS
 10
36.2495871223
 20
4.3739234492
 11
39.9995871223
 21
4.3739234492
  0
LINE
  5
2EC
100
AcDbEntity
  8
0
100
AcDbLine
 62
2
  6
CONTINUOUS
 10
36.2495871223
 20
4.3739234492
 11
36.2495871223
 21
3.6453520207
  0
LINE
  5
2ED
100
AcDbEntity
  8
0
100
AcDbLine
 62
2
  6
CONTINUOUS
 10
36.2495871223
 20
3.6453520207
 11
39.9995871223
 21
3.6453520207
  0
LINE
  5
2EE
100
AcDbEntity
  8
0
100
AcDbLine
 62
2
  6
CONTINUOUS
 10
39.9995871223
 20
4.3739234492
 11
39.9995871223
 21
3.6453520207
  0
MTEXT
  5
2EF
100
AcDbEntity
  8
0
100
AcDbMText
 62
2
  6
CONTINUOUS
  7
STANDARD
 71
1
 72
1
 10
36.3388728366
 20
3.9801734492
 30
0.0
 11
1.0
 21
0.0
 31
0.0
 44
0.9
  1
ENG. SERVICES
 40
0.2232142857
 41
3.3242984694
  0
LINE
  5
2F0
100
AcDbEntity
  8
0
100
AcDbLine
 62
2
  6
CONTINUOUS
 10
36.25
 20
3.637337912
 11
40.0
 21
3.637337912
  0
LINE
  5
2F1
100
AcDbEntity
  8
0
100
AcDbLine
 62
2
  6
CONTINUOUS
 10
36.25
 20
3.637337912
 11
36.25
 21
2.9087664835
  0
LINE
  5
2F2
100
AcDbEntity
  8
0
100
AcDbLine
 62
2
  6
CONTINUOUS
 10
36.25
 20
2.9087664835
 11
40.0
 21
2.9087664835
  0
LINE
  5
2F3
100
AcDbEntity
  8
0
100
AcDbLine
 62
2
  6
CONTINUOUS
 10
40.0
 20
3.637337912
 11
40.0
 21
2.9087664835
  0
LINE
  5
2F4
100
AcDbEntity
  8
0
100
AcDbLine
 62
2
  6
CONTINUOUS
 10
36.25
 20
2.8911421594
 11
40.0
 21
2.8911421594
  0
LINE
  5
2F5
100
AcDbEntity
  8
0
100
AcDbLine
 62
2
  6
CONTINUOUS
 10
36.25
 20
2.8911421594
 11
36.25
 21
2.1625707308
  0
LINE
  5
2F6
100
AcDbEntity
  8
0
100
AcDbLine
 62
2
  6
CONTINUOUS
 10
36.25
 20
2.1625707308
 11
40.0
 21
2.1625707308
  0
LINE
  5
2F7
100
AcDbEntity
  8
0
100
AcDbLine
 62
2
  6
CONTINUOUS
 10
40.0
 20
2.8911421594
 11
40.0
 21
2.1625707308
  0
LINE
  5
2F8
100
AcDbEntity
  8
0
100
AcDbLine
 62
2
  6
CONTINUOUS
 10
36.25
 20
2.142808003
 11
40.0
 21
2.142808003
  0
LINE
  5
2F9
100
AcDbEntity
  8
0
100
AcDbLine
 62
2
  6
CONTINUOUS
 10
36.25
 20
2.142808003
 11
36.25
 21
1.4142365744
  0
LINE
  5
2FA
100
AcDbEntity
  8
0
100
AcDbLine
 62
2
  6
CONTINUOUS
 10
36.25
 20
1.4142365744
 11
40.0
 21
1.4142365744
  0
LINE
  5
2FB
100
AcDbEntity
  8
0
100
AcDbLine
 62
2
  6
CONTINUOUS
 10
40.0
 20
2.142808003
 11
40.0
 21
1.4142365744
  0
LINE
  5
2FC
100
AcDbEntity
  8
0
100
AcDbLine
 62
2
  6
CONTINUOUS
 10
36.25
 20
1.4285714286
 11
40.0
 21
1.4285714286
  0
LINE
  5
2FD
100
AcDbEntity
  8
0
100
AcDbLine
 62
2
  6
CONTINUOUS
 10
36.25
 20
1.4285714286
 11
36.25
 21
1.0714285714
  0
LINE
  5
2FE
100
AcDbEntity
  8
0
100
AcDbLine
 62
2
  6
CONTINUOUS
 10
36.25
 20
1.0714285714
 11
40.0
 21
1.0714285714
  0
LINE
  5
2FF
100
AcDbEntity
  8
0
100
AcDbLine
 62
2
  6
CONTINUOUS
 10
40.0
 20
1.4285714286
 11
40.0
 21
1.0714285714
  0
MTEXT
  5
300
100
AcDbEntity
  8
0
100
AcDbMText
 62
2
  6
CONTINUOUS
  7
STANDARD
 71
3
 72
1
 10
39.9107142857
 20
1.3401785714
 30
0.0
 11
1.0
 21
0.0
 31
0.0
 44
0.9
  1
FG-112300-2D-E.A.0
 40
0.1571428571
 41
3.1204081633
  0
LINE
  5
301
100
AcDbEntity
  8
0
100
AcDbLine
 62
2
  6
CONTINUOUS
 10
36.25
 20
1.0714285714
 11
40.0
 21
1.0714285714
  0
LINE
  5
302
100
AcDbEntity
  8
0
100
AcDbLine
 62
2
  6
CONTINUOUS
 10
36.25
 20
1.0714285714
 11
36.25
 21
0.7142857143
  0
LINE
  5
303
100
AcDbEntity
  8
0
100
AcDbLine
 62
2
  6
CONTINUOUS
 10
36.25
 20
0.7142857143
 11
40.0
 21
0.7142857143
  0
LINE
  5
304
100
AcDbEntity
  8
0
100
AcDbLine
 62
2
  6
CONTINUOUS
 10
40.0
 20
1.0714285714
 11
40.0
 21
0.7142857143
  0
MTEXT
  5
305
100
AcDbEntity
  8
0
100
AcDbMText
 62
2
  6
CONTINUOUS
  7
STANDARD
 71
3
 72
1
 10
39.9107142857
 20
0.9830357143
 30
0.0
 11
1.0
 21
0.0
 31
0.0
 44
0.9
  1
FG-112300-3D-E.A.0
 40
0.1571428571
 41
3.1035714286
  0
LINE
  5
306
100
AcDbEntity
  8
0
100
AcDbLine
 62
2
  6
CONTINUOUS
 10
40.0
 20
3.3928571429
 11
47.1428571429
 21
3.3928571429
  0
LINE
  5
307
100
AcDbEntity
  8
0
100
AcDbLine
 62
2
  6
CONTINUOUS
 10
40.0
 20
3.3928571429
 11
40.0
 21
1.7857142857
  0
LINE
  5
308
100
AcDbEntity
  8
0
100
AcDbLine
 62
2
  6
CONTINUOUS
 10
40.0
 20
1.7857142857
 11
47.1428571429
 21
1.7857142857
  0
LINE
  5
309
100
AcDbEntity
  8
0
100
AcDbLine
 62
2
  6
CONTINUOUS
 10
47.1428571429
 20
3.3928571429
 11
47.1428571429
 21
1.7857142857
  0
MTEXT
  5
30A
100
AcDbEntity
  8
0
100
AcDbMText
 62
2
  6
CONTINUOUS
  7
STANDARD
 71
2
 72
1
 10
43.5714285714
 20
3.025
 30
0.0
 11
1.0
 21
0.0
 31
0.0
 44
1.02
  1
Q-SYS IO-8FLEX,\PFREE-STANDING
 40
0.2857142857
 41
4.887755102
  0
LINE
  5
30B
100
AcDbEntity
  8
0
100
AcDbLine
 62
2
  6
CONTINUOUS
 10
40.0015604328
 20
1.7827720964
 11
40.7158461471
 21
1.7827720964
  0
LINE
  5
30C
100
AcDbEntity
  8
0
100
AcDbLine
 62
2
  6
CONTINUOUS
 10
40.0015604328
 20
1.7827720964
 11
40.0015604328
 21
1.0684863821
  0
LINE
  5
30D
100
AcDbEntity
  8
0
100
AcDbLine
 62
2
  6
CONTINUOUS
 10
40.0015604328
 20
1.0684863821
 11
40.7158461471
 21
1.0684863821
  0
LINE
  5
30E
100
AcDbEntity
  8
0
100
AcDbLine
 62
2
  6
CONTINUOUS
 10
40.7158461471
 20
1.7827720964
 11
40.7158461471
 21
1.0684863821
  0
MTEXT
  5
30F
100
AcDbEntity
  8
0
100
AcDbMText
 62
2
  6
CONTINUOUS
  7
STANDARD
 71
2
 72
1
 10
40.3587032899
 20
1.4658078107
 30
0.0
 11
1.0
 21
0.0
 31
0.0
 44
0.9
  1
D
 40
0.2857142857
 41
0.4693877551
  0
LINE
  5
310
100
AcDbEntity
  8
0
100
AcDbLine
 62
2
  6
CONTINUOUS
 10
42.1435964251
 20
1.7785351273
 11
46.4293107108
 21
1.7785351273
  0
LINE
  5
311
100
AcDbEntity
  8
0
100
AcDbLine
 62
2
  6
CONTINUOUS
 10
42.1435964251
 20
1.7785351273
 11
42.1435964251
 21
1.064249413
  0
LINE
  5
312
100
AcDbEntity
  8
0
100
AcDbLine
 62
2
  6
CONTINUOUS
 10
42.1435964251
 20
1.064249413
 11
46.4293107108
 21
1.064249413
  0
LINE
  5
313
100
AcDbEntity
  8
0
100
AcDbLine
 62
2
  6
CONTINUOUS
 10
46.4293107108
 20
1.7785351273
 11
46.4293107108
 21
1.064249413
  0
MTEXT
  5
314
100
AcDbEntity
  8
0
100
AcDbMText
 62
2
  6
CONTINUOUS
  7
STANDARD
 71
2
 72
1
 10
44.286453568
 20
1.5044279845
 30
0.0
 11
1.0
 21
0.0
 31
0.0
 44
0.9
  1
FG-112300-2D-E
 40
0.3285714286
 41
5.1515306122
  0
LINE
  5
315
100
AcDbEntity
  8
0
100
AcDbLine
 62
2
  6
CONTINUOUS
 10
46.4267141375
 20
1.783268318
 11
47.1409998518
 21
1.783268318
  0
LINE
  5
316
100
AcDbEntity
  8
0
100
AcDbLine
 62
2
  6
CONTINUOUS
 10
46.4267141375
 20
1.783268318
 11
46.4267141375
 21
1.0689826037
  0
LINE
  5
317
100
AcDbEntity
  8
0
100
AcDbLine
 62
2
  6
CONTINUOUS
 10
46.4267141375
 20
1.0689826037
 11
47.1409998518
 21
1.0689826037
  0
LINE
  5
318
100
AcDbEntity
  8
0
100
AcDbLine
 62
2
  6
CONTINUOUS
 10
47.1409998518
 20
1.783268318
 11
47.1409998518
 21
1.0689826037
  0
MTEXT
  5
319
100
AcDbEntity
  8
0
100
AcDbMText
 62
2
  6
CONTINUOUS
  7
STANDARD
 71
2
 72
1
 10
46.7838569947
 20
1.4377326037
 30
0.0
 11
1.0
 21
0.0
 31
0.0
 44
0.9
  1
A
 40
0.2571428571
 41
0.4040816327
  0
LINE
  5
31A
100
AcDbEntity
  8
0
100
AcDbLine
 62
2
  6
CONTINUOUS
 10
44.8223151705
 20
1.0613269766
 11
47.143743742
 21
1.0613269766
  0
LINE
  5
31B
100
AcDbEntity
  8
0
100
AcDbLine
 62
2
  6
CONTINUOUS
 10
44.8223151705
 20
1.0613269766
 11
44.8223151705
 21
0.7041841195
  0
LINE
  5
31C
100
AcDbEntity
  8
0
100
AcDbLine
 62
2
  6
CONTINUOUS
 10
44.8223151705
 20
0.7041841195
 11
47.143743742
 21
0.7041841195
  0
LINE
  5
31D
100
AcDbEntity
  8
0
100
AcDbLine
 62
2
  6
CONTINUOUS
 10
47.143743742
 20
1.0613269766
 11
47.143743742
 21
0.7041841195
  0
MTEXT
  5
31E
100
AcDbEntity
  8
0
100
AcDbMText
 62
2
  6
CONTINUOUS
  7
STANDARD
 71
3
 72
1
 10
47.0544580277
 20
1.0157912623
 30
0.0
 11
1.0
 21
0.0
 31
0.0
 44
0.9
  1
1 OF 1
 40
0.2
 41
1.3214285714
  0
LINE
  5
31F
100
AcDbEntity
  8
0
100
AcDbLine
 62
2
  6
CONTINUOUS
 10
39.9975140173
 20
1.0697474527
 11
41.6946568744
 21
1.0697474527
  0
LINE
  5
320
100
AcDbEntity
  8
0
100
AcDbLine
 62
2
  6
CONTINUOUS
 10
39.9975140173
 20
1.0697474527
 11
39.9975140173
 21
0.7070242384
  0
LINE
  5
321
100
AcDbEntity
  8
0
100
AcDbLine
 62
2
  6
CONTINUOUS
 10
39.9975140173
 20
0.7070242384
 11
41.6946568744
 21
0.7070242384
  0
LINE
  5
322
100
AcDbEntity
  8
0
100
AcDbLine
 62
2
  6
CONTINUOUS
 10
41.6946568744
 20
1.0697474527
 11
41.6946568744
 21
0.7070242384
  0
MTEXT
  5
323
100
AcDbEntity
  8
0
100
AcDbMText
 62
2
  6
CONTINUOUS
  7
STANDARD
 71
3
 72
1
 10
41.6053711601
 20
0.9900599527
 30
0.0
 11
1.0
 21
0.0
 31
0.0
 44
0.9
  1
0.700
 40
0.1714285714
 41
1.0040816327
  0
LWPOLYLINE
  5
324
100
AcDbEntity
  8
0
100
AcDbPolyline
 62
2
  6
CONTINUOUS
 90
2
 70
0
 43
0.0285714286
 10
47.1554258242
 20
30.704008073
 10
32.7518543956
 20
30.704008073
  0
LWPOLYLINE
  5
325
100
AcDbEntity
  8
0
100
AcDbPolyline
 62
2
  6
CONTINUOUS
 90
2
 70
0
 43
0.0285714286
 10
47.1411401099
 20
30.704008073
 10
47.1411401099
 20
28.4718652159
  0
LWPOLYLINE
  5
326
100
AcDbEntity
  8
0
100
AcDbPolyline
 62
2
  6
CONTINUOUS
 90
2
 70
0
 43
0.0285714286
 10
47.1411401099
 20
30.2575795016
 10
32.7661401099
 20
30.2575795016
  0
LWPOLYLINE
  5
327
100
AcDbEntity
  8
0
100
AcDbPolyline
 62
2
  6
CONTINUOUS
 90
2
 70
0
 43
0.0285714286
 10
47.1411401099
 20
29.8111509302
 10
32.7661401099
 20
29.8111509302
  0
LWPOLYLINE
  5
328
100
AcDbEntity
  8
0
100
AcDbPolyline
 62
2
  6
CONTINUOUS
 90
2
 70
0
 43
0.0285714286
 10
47.1411401099
 20
29.3647223587
 10
32.7661401099
 20
29.3647223587
  0
LWPOLYLINE
  5
329
100
AcDbEntity
  8
0
100
AcDbPolyline
 62
2
  6
CONTINUOUS
 90
2
 70
0
 43
0.0285714286
 10
47.1411401099
 20
28.9182937873
 10
32.7661401099
 20
28.9182937873
  0
LWPOLYLINE
  5
32A
100
AcDbEntity
  8
0
100
AcDbPolyline
 62
2
  6
CONTINUOUS
 90
2
 70
0
 43
0.0285714286
 10
47.1554258242
 20
28.4718652159
 10
32.7518543956
 20
28.4718652159
  0
LWPOLYLINE
  5
32B
100
AcDbEntity
  8
0
100
AcDbPolyline
 62
2
  6
CONTINUOUS
 90
2
 70
0
 43
0.0285714286
 10
45.3554258242
 20
30.2575795016
 10
45.3554258242
 20
28.4718652159
  0
LWPOLYLINE
  5
32C
100
AcDbEntity
  8
0
100
AcDbPolyline
 62
2
  6
CONTINUOUS
 90
2
 70
0
 43
0.0285714286
 10
44.6411401099
 20
30.2575795016
 10
44.6411401099
 20
28.4718652159
  0
LWPOLYLINE
  5
32D
100
AcDbEntity
  8
0
100
AcDbPolyline
 62
2
  6
CONTINUOUS
 90
2
 70
0
 43
0.0285714286
 10
33.4804258242
 20
30.2575795016
 10
33.4804258242
 20
28.4718652159
  0
LWPOLYLINE
  5
32E
100
AcDbEntity
  8
0
100
AcDbPolyline
 62
2
  6
CONTINUOUS
 90
2
 70
0
 43
0.0285714286
 10
32.7661401099
 20
30.704008073
 10
32.7661401099
 20
28.4718652159
  0
MTEXT
  5
32F
100
AcDbEntity
  8
0
100
AcDbMText
 62
2
  6
CONTINUOUS
  7
STANDARD
 71
2
 72
1
 10
39.9536401099
 20
30.5924009302
 30
0.0
 11
1.0
 21
0.0
 31
0.0
 44
0.9
  1
REVISIONS
 40
0.2232142857
 41
2.2640306122
  0
MTEXT
  5
330
100
AcDbEntity
  8
0
100
AcDbMText
 62
2
  6
CONTINUOUS
  7
STANDARD
 71
2
 72
1
 10
46.248282967
 20
30.1459723587
 30
0.0
 11
1.0
 21
0.0
 31
0.0
 44
0.9
  1
 DATE 
 40
0.2232142857
 41
1.705994898
  0
MTEXT
  5
331
100
AcDbEntity
  8
0
100
AcDbMText
 62
2
  6
CONTINUOUS
  7
STANDARD
 71
2
 72
1
 10
44.998282967
 20
30.1459723587
 30
0.0
 11
1.0
 21
0.0
 31
0.0
 44
0.9
  1
BY
 40
0.2232142857
 41
0.5500637755
  0
MTEXT
  5
332
100
AcDbEntity
  8
0
100
AcDbMText
 62
2
  6
CONTINUOUS
  7
STANDARD
 71
2
 72
1
 10
39.060782967
 20
30.1459723587
 30
0.0
 11
1.0
 21
0.0
 31
0.0
 44
0.9
  1
DESCRIPTION
 40
0.2232142857
 41
2.8539540816
  0
MTEXT
  5
333
100
AcDbEntity
  8
0
100
AcDbMText
 62
2
  6
CONTINUOUS
  7
STANDARD
 71
2
 72
1
 10
33.123282967
 20
30.1459723587
 30
0.0
 11
1.0
 21
0.0
 31
0.0
 44
0.9
  1
REV
 40
0.2232142857
 41
0.78125
  0
MTEXT
  5
334
100
AcDbEntity
  8
0
100
AcDbMText
 62
2
  6
CONTINUOUS
  7
STANDARD
 71
2
 72
1
 10
46.248282967
 20
29.6995437873
 30
0.0
 11
1.0
 21
0.0
 31
0.0
 44
0.9
  1
31-MAY-17
 40
0.2232142857
 41
2.2879464286
  0
MTEXT
  5
335
100
AcDbEntity
  8
0
100
AcDbMText
 62
2
  6
CONTINUOUS
  7
STANDARD
 71
2
 72
1
 10
44.998282967
 20
29.6995437873
 30
0.0
 11
1.0
 21
0.0
 31
0.0
 44
0.9
  1
ES
 40
0.2232142857
 41
0.5660076531
  0
MTEXT
  5
336
100
AcDbEntity
  8
0
100
AcDbMText
 62
2
  6
CONTINUOUS
  7
STANDARD
 71
1
 72
1
 10
33.5697115385
 20
29.6995437873
 30
0.0
 11
1.0
 21
0.0
 31
0.0
 44
0.9
  1
RELEASE FOR SALES AND MARKETING
 40
0.2232142857
 41
8.1154336735
  0
MTEXT
  5
337
100
AcDbEntity
  8
0
100
AcDbMText
 62
2
  6
CONTINUOUS
  7
STANDARD
 71
2
 72
1
 10
33.123282967
 20
29.6995437873
 30
0.0
 11
1.0
 21
0.0
 31
0.0
 44
0.9
  1
A
 40
0.2232142857
 41
0.3507653061
  0
MTEXT
  5
338
100
AcDbEntity
  8
0
100
AcDbMText
 62
2
  6
CONTINUOUS
  7
STANDARD
 71
1
 72
1
 10
0.8939976444
 20
3.7863170788
 30
0.0
 11
1.0
 21
0.0
 31
0.0
 44
1.2
  3
 \P4. CHASSIS DESIGNED TO MEET 1/2 U RACK MOUNT SPECIFICATION IEC60297-3-100.\P3. DIMENSIONS ARE IN MILLIMETERS [INCH].\P2. TOLERANCES (MM): X \Fgdt;{\Fgdt;`}\Ftxt; 3, ANGLES: \Fgdt;{\Fgdt;`}\Ftxt; 1\Fgdt;{\Fgdt;~}\Ftxt;.\P1. NET WEIGHT OF Q-SYS I0-8
  1
 FLEX APPROXIMATLY 2.9 LBS [1.3 KG.]. MOUNTING {\Ftxt.shx;\W0.190476;\H0.223214; }HARDWARE IS ADDITIONAL WEIGHT.\P \PNOTES: UNLESS OTHERWISE SPECIFIED.
 40
0.2232142857
 41
26.9451530612
  0
MTEXT
  5
339
100
AcDbEntity
  8
0
100
AcDbMText
 62
2
  6
CONTINUOUS
  7
TEXTSTYLE_2
 71
1
 72
1
 10
12.9655230497
 20
25.2969513161
 30
0.0
 11
1.0
 21
0.0
 31
0.0
 44
0.9
  1
VIEW A-A\PREAR VIEW
 40
0.2232142857
 41
2.2098214286
  0
MTEXT
  5
33A
100
AcDbEntity
  8
0
100
AcDbMText
 62
2
  6
CONTINUOUS
  7
TEXTSTYLE_2
 71
1
 72
1
 10
19.406887418
 20
18.099889053
 30
0.0
 11
1.0
 21
0.0
 31
0.0
 44
0.9
  1
FRONT VIEW
 40
0.2232142857
 41
2.4776785714
  0
LEADER
  5
33B
100
AcDbEntity
  8
0
100
AcDbLeader
 62
2
  6
CONTINUOUS
  3
STANDARD
 71
1
 72
0
 73
0
 75
0
 40
0.2232142857
 41
2.4128401361
 76
3
 10
11.6509007762
 20
19.008289272
 30
0.0
 10
11.1609390429
 20
17.9701871841
 30
0.0
 10
10.8037961858
 20
17.9701871841
 30
0.0
340
33C
1001
ACAD
1000
DSTYLE
1002
{
1070
77
1070
0
1002
}
  0
MTEXT
  5
33C
102
{ACAD_REACTORS
330
33B
102
}
100
AcDbEntity
  8
0
100
AcDbMText
 62
2
  6
CONTINUOUS
  7
STANDARD
 71
3
 72
1
 10
10.8037961858
 20
18.081794327
 30
0.0
 11
1.0
 21
0.0
 31
0.0
 44
0.9
  1
M4 THREAD TYP
 40
0.2232142857
 41
3.6192602041
  0
MTEXT
  5
33D
100
AcDbEntity
  8
0
100
AcDbMText
 62
2
  6
CONTINUOUS
  7
TEXTSTYLE_2
 71
3
 72
1
 10
21.3212401601
 20
5.9588254646
 30
0.0
 11
1.0
 21
0.0
 31
0.0
 44
0.9
  1
BOTTOM VIEW
 40
0.2232142857
 41
2.7901785714
  0
LINE
  5
33E
100
AcDbEntity
  8
DEFAULT_3
100
AcDbLine
 62
7
  6
PHANTOM
 10
0.0
 20
-0.0
 11
0.0
 21
31.4285714286
  0
LWPOLYLINE
  5
33F
100
AcDbEntity
  8
0
100
AcDbPolyline
 62
7
  6
CONTINUOUS
 90
2
 70
0
 43
0.0285714298
 10
0.3749467459
 20
15.4733501581
 10
0.3749467459
 20
15.9552212705
  0
LWPOLYLINE
  5
340
100
AcDbEntity
  8
0
100
AcDbPolyline
 62
7
  6
CONTINUOUS
 90
2
 70
0
 43
0.0428571432
 10
0.7142857143
 20
30.7142857143
 10
0.7142857143
 20
0.7142857143
  0
LWPOLYLINE
  5
341
100
AcDbEntity
  8
0
100
AcDbPolyline
 62
7
  6
CONTINUOUS
 90
2
 70
0
 43
0.0428571432
 10
5.0892857143
 20
30.7142857143
 10
5.0892857143
 20
30.0
  0
LWPOLYLINE
  5
342
100
AcDbEntity
  8
0
100
AcDbPolyline
 62
7
  6
CONTINUOUS
 90
2
 70
0
 43
0.0285714298
 10
6.5178571429
 20
0.7142857143
 10
6.5178571429
 20
-0.0
  0
LWPOLYLINE
  5
343
100
AcDbEntity
  8
0
100
AcDbPolyline
 62
7
  6
CONTINUOUS
 90
2
 70
0
 43
0.0285714298
 10
6.5178571429
 20
30.7142857143
 10
6.5178571429
 20
31.4285714286
  0
LINE
  5
344
100
AcDbEntity
  8
0
100
AcDbLine
 62
7
  6
CONTINUOUS
 10
33.0408666587
 20
0.7335080397
 11
36.2361081366
 21
1.5929724429
  0
LINE
  5
345
100
AcDbEntity
  8
0
100
AcDbLine
 62
7
  6
CONTINUOUS
 10
36.2491168169
 20
2.4874737315
 11
33.0317380954
 21
1.6155515014
  0
LINE
  5
346
100
AcDbEntity
  8
DEFAULT_3
100
AcDbLine
 62
7
  6
PHANTOM
 10
0.0
 20
-0.0
 11
48.5714285714
 21
-0.0
  0
LWPOLYLINE
  5
347
100
AcDbEntity
  8
0
100
AcDbPolyline
 62
7
  6
CONTINUOUS
 90
2
 70
0
 43
0.0285714298
 10
23.6876358724
 20
0.3749467459
 10
24.1695069848
 20
0.3749467459
  0
LWPOLYLINE
  5
348
100
AcDbEntity
  8
0
100
AcDbPolyline
 62
7
  6
CONTINUOUS
 90
2
 70
0
 43
0.0285714298
 10
0.7142857143
 20
15.7142857143
 10
0.3749467459
 20
15.4733501581
  0
LWPOLYLINE
  5
349
100
AcDbEntity
  8
0
100
AcDbPolyline
 62
7
  6
CONTINUOUS
 90
2
 70
0
 43
0.0428571432
 10
0.7142857143
 20
0.7142857143
 10
47.1428571429
 20
0.7142857143
  0
LWPOLYLINE
  5
34A
100
AcDbEntity
  8
0
100
AcDbPolyline
 62
7
  6
CONTINUOUS
 90
2
 70
0
 43
0.0285714298
 10
36.25
 20
1.0714285714
 10
47.1428571429
 20
1.0714285714
  0
LWPOLYLINE
  5
34B
100
AcDbEntity
  8
0
100
AcDbPolyline
 62
7
  6
CONTINUOUS
 90
2
 70
0
 43
0.0285714298
 10
36.25
 20
1.4285714286
 10
40.0
 20
1.4285714286
  0
LWPOLYLINE
  5
34C
100
AcDbEntity
  8
0
100
AcDbPolyline
 62
7
  6
CONTINUOUS
 90
2
 70
0
 43
0.0285714298
 10
36.25
 20
1.6071428571
 10
33.0357142857
 20
1.6071428571
  0
LWPOLYLINE
  5
34D
100
AcDbEntity
  8
0
100
AcDbPolyline
 62
7
  6
CONTINUOUS
 90
2
 70
0
 43
0.0285714298
 10
40.0
 20
1.7857142857
 10
47.1428571429
 20
1.7857142857
  0
LWPOLYLINE
  5
34E
100
AcDbEntity
  8
0
100
AcDbPolyline
 62
7
  6
CONTINUOUS
 90
2
 70
0
 43
0.0285714298
 10
36.259384881
 20
2.1596219214
 10
40.009384881
 20
2.1596219214
  0
LWPOLYLINE
  5
34F
100
AcDbEntity
  8
0
100
AcDbPolyline
 62
7
  6
CONTINUOUS
 90
2
 70
0
 43
0.0285714298
 10
0.7142857143
 20
15.7142857143
 10
0.3749467459
 20
15.9552212705
  0
LWPOLYLINE
  5
350
100
AcDbEntity
  8
0
100
AcDbPolyline
 62
7
  6
CONTINUOUS
 90
2
 70
0
 43
0.0285714298
 10
12.3214285714
 20
0.7142857143
 10
12.3214285714
 20
-0.0
  0
LWPOLYLINE
  5
351
100
AcDbEntity
  8
0
100
AcDbPolyline
 62
7
  6
CONTINUOUS
 90
2
 70
0
 43
0.0285714298
 10
12.3214285714
 20
30.7142857143
 10
12.3214285714
 20
31.4285714286
  0
LWPOLYLINE
  5
352
100
AcDbEntity
  8
0
100
AcDbPolyline
 62
7
  6
CONTINUOUS
 90
2
 70
0
 43
0.0285714298
 10
33.0357142857
 20
2.5
 10
36.25
 20
2.5
  0
LWPOLYLINE
  5
353
100
AcDbEntity
  8
0
100
AcDbPolyline
 62
7
  6
CONTINUOUS
 90
2
 70
0
 43
0.0285714298
 10
36.2613472959
 20
2.8941700506
 10
40.0113472959
 20
2.8941700506
  0
LWPOLYLINE
  5
354
100
AcDbEntity
  8
0
100
AcDbPolyline
 62
7
  6
CONTINUOUS
 90
2
 70
0
 43
0.0285714298
 10
40.0
 20
3.3928571429
 10
47.1428571429
 20
3.3928571429
  0
LWPOLYLINE
  5
355
100
AcDbEntity
  8
0
100
AcDbPolyline
 62
7
  6
CONTINUOUS
 90
2
 70
0
 43
0.0285714298
 10
36.25
 20
3.6536140407
 10
40.0
 20
3.6536140407
  0
LWPOLYLINE
  5
356
100
AcDbEntity
  8
0
100
AcDbPolyline
 62
7
  6
CONTINUOUS
 90
2
 70
0
 43
0.0285714298
 10
33.0357142857
 20
4.375
 10
47.1428571429
 20
4.375
  0
LWPOLYLINE
  5
357
100
AcDbEntity
  8
0
100
AcDbPolyline
 62
7
  6
CONTINUOUS
 90
2
 70
0
 43
0.0285714298
 10
23.9285714286
 20
30.7142857143
 10
24.1695069848
 20
31.0536246827
  0
LWPOLYLINE
  5
358
100
AcDbEntity
  8
0
100
AcDbPolyline
 62
7
  6
CONTINUOUS
 90
2
 70
0
 43
0.0285714298
 10
23.9285714286
 20
0.7142857143
 10
24.1695069848
 20
0.3749467459
  0
LWPOLYLINE
  5
359
100
AcDbEntity
  8
0
100
AcDbPolyline
 62
7
  6
CONTINUOUS
 90
2
 70
0
 43
0.0285714298
 10
0.7142857143
 20
8.2142857143
 10
0.0
 20
8.2142857143
  0
LWPOLYLINE
  5
35A
100
AcDbEntity
  8
0
100
AcDbPolyline
 62
7
  6
CONTINUOUS
 90
2
 70
0
 43
0.0285714298
 10
47.1522769298
 20
8.2154872013
 10
47.8665626441
 20
8.2154872013
  0
LWPOLYLINE
  5
35B
100
AcDbEntity
  8
0
100
AcDbPolyline
 62
7
  6
CONTINUOUS
 90
2
 70
0
 43
0.0285714298
 10
18.125
 20
0.7142857143
 10
18.125
 20
-0.0
  0
LWPOLYLINE
  5
35C
100
AcDbEntity
  8
0
100
AcDbPolyline
 62
7
  6
CONTINUOUS
 90
2
 70
0
 43
0.0285714298
 10
18.125
 20
30.7142857143
 10
18.125
 20
31.4285714286
  0
LINE
  5
35D
100
AcDbEntity
  8
0
100
AcDbLine
 62
7
  6
CONTINUOUS
 10
33.0328874601
 20
4.3702962041
 11
36.2474470425
 21
2.5086548707
  0
LWPOLYLINE
  5
35E
100
AcDbEntity
  8
0
100
AcDbPolyline
 62
7
  6
CONTINUOUS
 90
2
 70
0
 43
0.0285714298
 10
23.9285714286
 20
0.7142857143
 10
23.9285714286
 20
-0.0
  0
LWPOLYLINE
  5
35F
100
AcDbEntity
  8
0
100
AcDbPolyline
 62
7
  6
CONTINUOUS
 90
2
 70
0
 43
0.0285714298
 10
23.9285714286
 20
30.7142857143
 10
23.9285714286
 20
31.4285714286
  0
LWPOLYLINE
  5
360
100
AcDbEntity
  8
0
100
AcDbPolyline
 62
7
  6
CONTINUOUS
 90
2
 70
0
 43
0.0285714298
 10
0.7142857143
 20
15.7142857143
 10
-0.0
 20
15.7142857143
  0
LWPOLYLINE
  5
361
100
AcDbEntity
  8
0
100
AcDbPolyline
 62
7
  6
CONTINUOUS
 90
2
 70
0
 43
0.0285714298
 10
47.1443990656
 20
15.7162282831
 10
47.8586847799
 20
15.7162282831
  0
LWPOLYLINE
  5
362
100
AcDbEntity
  8
0
100
AcDbPolyline
 62
7
  6
CONTINUOUS
 90
2
 70
0
 43
0.0285714298
 10
29.7321428571
 20
0.7142857143
 10
29.7321428571
 20
-0.0
  0
LWPOLYLINE
  5
363
100
AcDbEntity
  8
0
100
AcDbPolyline
 62
7
  6
CONTINUOUS
 90
2
 70
0
 43
0.0285714298
 10
29.7321428571
 20
30.7142857143
 10
29.7321428571
 20
31.4285714286
  0
LWPOLYLINE
  5
364
100
AcDbEntity
  8
0
100
AcDbPolyline
 62
7
  6
CONTINUOUS
 90
2
 70
0
 43
0.0285714298
 10
23.9285714286
 20
0.7142857143
 10
23.6876358724
 20
0.3749467459
  0
LWPOLYLINE
  5
365
100
AcDbEntity
  8
0
100
AcDbPolyline
 62
7
  6
CONTINUOUS
 90
2
 70
0
 43
0.0285714298
 10
0.7142857143
 20
23.2142857143
 10
0.0
 20
23.2142857143
  0
LWPOLYLINE
  5
366
100
AcDbEntity
  8
0
100
AcDbPolyline
 62
7
  6
CONTINUOUS
 90
2
 70
0
 43
0.0285714298
 10
47.1428571429
 20
23.2142857143
 10
47.8571428571
 20
23.2142857143
  0
LWPOLYLINE
  5
367
100
AcDbEntity
  8
0
100
AcDbPolyline
 62
7
  6
CONTINUOUS
 90
2
 70
0
 43
0.0285714298
 10
23.9285714286
 20
30.7142857143
 10
23.6876358724
 20
31.0536246827
  0
LWPOLYLINE
  5
368
100
AcDbEntity
  8
0
100
AcDbPolyline
 62
7
  6
CONTINUOUS
 90
2
 70
0
 43
0.0285714298
 10
33.0357142857
 20
0.7142857143
 10
33.0357142857
 20
4.375
  0
LWPOLYLINE
  5
369
100
AcDbEntity
  8
0
100
AcDbPolyline
 62
7
  6
CONTINUOUS
 90
2
 70
0
 43
0.0285714298
 10
35.5357142857
 20
0.7142857143
 10
35.5357142857
 20
-0.0
  0
LWPOLYLINE
  5
36A
100
AcDbEntity
  8
0
100
AcDbPolyline
 62
7
  6
CONTINUOUS
 90
2
 70
0
 43
0.0285714298
 10
35.5357142857
 20
30.7142857143
 10
35.5357142857
 20
31.4285714286
  0
LWPOLYLINE
  5
36B
100
AcDbEntity
  8
0
100
AcDbPolyline
 62
7
  6
CONTINUOUS
 90
2
 70
0
 43
0.0285714298
 10
36.25
 20
0.7142857143
 10
36.25
 20
4.375
  0
LWPOLYLINE
  5
36C
100
AcDbEntity
  8
0
100
AcDbPolyline
 62
7
  6
CONTINUOUS
 90
2
 70
0
 43
0.0285714298
 10
47.1443990656
 20
15.7162282831
 10
47.483738034
 20
15.9571638393
  0
LWPOLYLINE
  5
36D
100
AcDbEntity
  8
0
100
AcDbPolyline
 62
7
  6
CONTINUOUS
 90
2
 70
0
 43
0.0285714298
 10
47.1443990656
 20
15.7162282831
 10
47.483738034
 20
15.4752927269
  0
LWPOLYLINE
  5
36E
100
AcDbEntity
  8
0
100
AcDbPolyline
 62
7
  6
CONTINUOUS
 90
2
 70
0
 43
0.0428571432
 10
5.0892857143
 20
30.0
 10
0.7142857143
 20
30.0
  0
LWPOLYLINE
  5
36F
100
AcDbEntity
  8
0
100
AcDbPolyline
 62
7
  6
CONTINUOUS
 90
2
 70
0
 43
0.0428571432
 10
47.1428571429
 20
30.7142857143
 10
0.7142857143
 20
30.7142857143
  0
LWPOLYLINE
  5
370
100
AcDbEntity
  8
0
100
AcDbPolyline
 62
7
  6
CONTINUOUS
 90
2
 70
0
 43
0.0285714298
 10
23.6876358724
 20
31.0536246827
 10
24.1695069848
 20
31.0536246827
  0
LWPOLYLINE
  5
371
100
AcDbEntity
  8
0
100
AcDbPolyline
 62
7
  6
CONTINUOUS
 90
2
 70
0
 43
0.0285714298
 10
40.0
 20
0.7142857143
 10
40.0
 20
4.375
  0
LWPOLYLINE
  5
372
100
AcDbEntity
  8
0
100
AcDbPolyline
 62
7
  6
CONTINUOUS
 90
2
 70
0
 43
0.0285714298
 10
40.7142857143
 20
1.0714285714
 10
40.7142857143
 20
1.7857142857
  0
LWPOLYLINE
  5
373
100
AcDbEntity
  8
0
100
AcDbPolyline
 62
7
  6
CONTINUOUS
 90
2
 70
0
 43
0.0285714298
 10
41.3392857143
 20
0.7142857143
 10
41.3392857143
 20
-0.0
  0
LWPOLYLINE
  5
374
100
AcDbEntity
  8
0
100
AcDbPolyline
 62
7
  6
CONTINUOUS
 90
2
 70
0
 43
0.0285714298
 10
41.3392857143
 20
30.7142857143
 10
41.3392857143
 20
31.4285714286
  0
LINE
  5
375
100
AcDbEntity
  8
0
100
AcDbLine
 62
7
  6
CONTINUOUS
 10
33.0330485843
 20
2.5049855617
 11
36.2534175546
 21
4.3711058268
  0
LINE
  5
376
100
AcDbEntity
  8
DEFAULT_3
100
AcDbLine
 62
7
  6
PHANTOM
 10
0.0
 20
31.4285714286
 11
48.5714285714
 21
31.4285714286
  0
LWPOLYLINE
  5
377
100
AcDbEntity
  8
0
100
AcDbPolyline
 62
7
  6
CONTINUOUS
 90
2
 70
0
 43
0.0285714298
 10
41.6908985236
 20
0.7210716508
 10
41.6908985236
 20
1.0782145079
  0
LWPOLYLINE
  5
378
100
AcDbEntity
  8
0
100
AcDbPolyline
 62
7
  6
CONTINUOUS
 90
2
 70
0
 43
0.0285714298
 10
42.1428571429
 20
1.0714285714
 10
42.1428571429
 20
1.7857142857
  0
LWPOLYLINE
  5
379
100
AcDbEntity
  8
0
100
AcDbPolyline
 62
7
  6
CONTINUOUS
 90
2
 70
0
 43
0.0285714298
 10
44.8214285714
 20
0.7142857143
 10
44.8214285714
 20
1.0714285714
  0
LWPOLYLINE
  5
37A
100
AcDbEntity
  8
0
100
AcDbPolyline
 62
7
  6
CONTINUOUS
 90
2
 70
0
 43
0.0285714298
 10
46.4285714286
 20
1.0714285714
 10
46.4285714286
 20
1.7857142857
  0
LWPOLYLINE
  5
37B
100
AcDbEntity
  8
0
100
AcDbPolyline
 62
7
  6
CONTINUOUS
 90
2
 70
0
 43
0.0428571432
 10
47.1428571429
 20
30.7142857143
 10
47.1428571429
 20
0.7142857143
  0
LWPOLYLINE
  5
37C
100
AcDbEntity
  8
0
100
AcDbPolyline
 62
7
  6
CONTINUOUS
 90
2
 70
0
 43
0.0285714298
 10
47.483738034
 20
15.4752927269
 10
47.483738034
 20
15.9571638393
  0
LINE
  5
37D
100
AcDbEntity
  8
DEFAULT_3
100
AcDbLine
 62
7
  6
PHANTOM
 10
48.5714285714
 20
-0.0
 11
48.5714285714
 21
31.4285714286
  0
LINE
  5
37E
100
AcDbEntity
  8
0
100
AcDbLine
 62
7
  6
CONTINUOUS
 10
16.0670526697
 20
18.6908655266
 11
16.0670526697
 21
20.4074009597
  0
LINE
  5
37F
100
AcDbEntity
  8
7_ALL_ROUNDS
100
AcDbLine
 62
7
  6
CONTINUOUS
 10
16.4221314098
 20
18.6396844243
 11
16.4221314098
 21
18.6908655266
  0
LINE
  5
380
100
AcDbEntity
  8
7_ALL_ROUNDS
100
AcDbLine
 62
9
  6
CONTINUOUS
 10
16.5205566067
 20
18.6396844243
 11
16.5205566067
 21
18.6908655266
  0
LINE
  5
381
100
AcDbEntity
  8
7_ALL_ROUNDS
100
AcDbLine
 62
7
  6
CONTINUOUS
 10
17.639477585
 20
19.9040311625
 11
17.639477585
 21
19.1942353238
  0
LINE
  5
382
100
AcDbEntity
  8
7_ALL_ROUNDS
100
AcDbLine
 62
9
  6
CONTINUOUS
 10
17.7410290476
 20
18.6396844243
 11
17.7410290476
 21
18.6908655266
  0
LINE
  5
383
100
AcDbEntity
  8
7_ALL_ROUNDS
100
AcDbLine
 62
7
  6
CONTINUOUS
 10
17.8394542445
 20
18.6396844243
 11
17.8394542445
 21
18.6908655266
  0
LINE
  5
384
100
AcDbEntity
  8
7_ALL_ROUNDS
100
AcDbLine
 62
7
  6
CONTINUOUS
 10
24.3748873153
 20
18.6396844243
 11
22.9575644807
 21
18.6396844243
  0
LINE
  5
385
100
AcDbEntity
  8
7_ALL_ROUNDS
100
AcDbLine
 62
7
  6
CONTINUOUS
 10
17.8394542445
 20
18.6396844243
 11
16.4221314098
 21
18.6396844243
  0
LINE
  5
386
100
AcDbEntity
  8
0
100
AcDbLine
 62
7
  6
CONTINUOUS
 10
16.0670526697
 20
18.6908655266
 11
24.7299660555
 21
18.6908655266
  0
LINE
  5
387
100
AcDbEntity
  8
7_ALL_ROUNDS
100
AcDbLine
 62
7
  6
CONTINUOUS
 10
17.7575878212
 20
19.0761250876
 11
24.2785103761
 21
19.0761250876
  0
LINE
  5
388
100
AcDbEntity
  8
0
100
AcDbLine
 62
7
  6
CONTINUOUS
 10
23.9300783006
 20
19.1577217854
 11
23.3382002671
 21
19.1577217854
  0
LINE
  5
389
100
AcDbEntity
  8
0
100
AcDbLine
 62
7
  6
CONTINUOUS
 10
23.9300783006
 20
19.2098871398
 11
23.3382002671
 21
19.2098871398
  0
LINE
  5
38A
100
AcDbEntity
  8
7_ALL_ROUNDS
100
AcDbLine
 62
7
  6
CONTINUOUS
 10
21.0424250825
 20
19.273542692
 11
21.4721526979
 21
19.273542692
  0
LINE
  5
38B
100
AcDbEntity
  8
7_ALL_ROUNDS
100
AcDbLine
 62
7
  6
CONTINUOUS
 10
21.8593542163
 20
19.273542692
 11
22.2890818317
 21
19.273542692
  0
LINE
  5
38C
100
AcDbEntity
  8
0
100
AcDbLine
 62
9
  6
CONTINUOUS
 10
24.0609838124
 20
19.2886272972
 11
24.0088184581
 21
19.2886272972
  0
LINE
  5
38D
100
AcDbEntity
  8
0
100
AcDbLine
 62
9
  6
CONTINUOUS
 10
23.2072947552
 20
19.2886272972
 11
23.2594601096
 21
19.2886272972
  0
LINE
  5
38E
100
AcDbEntity
  8
0
100
AcDbLine
 62
7
  6
CONTINUOUS
 10
23.3624463704
 20
19.303070251
 11
23.568745583
 21
19.303070251
  0
LINE
  5
38F
100
AcDbEntity
  8
0
100
AcDbLine
 62
7
  6
CONTINUOUS
 10
23.6994542445
 20
19.303070251
 11
23.9057534571
 21
19.303070251
  0
LINE
  5
390
100
AcDbEntity
  8
7_ALL_ROUNDS
100
AcDbLine
 62
7
  6
CONTINUOUS
 10
21.0612743092
 20
19.3227552904
 11
21.4533034712
 21
19.3227552904
  0
LINE
  5
391
100
AcDbEntity
  8
7_ALL_ROUNDS
100
AcDbLine
 62
7
  6
CONTINUOUS
 10
21.878203443
 20
19.3227552904
 11
22.2702326051
 21
19.3227552904
  0
LINE
  5
392
100
AcDbEntity
  8
0
100
AcDbLine
 62
7
  6
CONTINUOUS
 10
23.3994542445
 20
19.3306293061
 11
23.4703203862
 21
19.3306293061
  0
LINE
  5
393
100
AcDbEntity
  8
0
100
AcDbLine
 62
7
  6
CONTINUOUS
 10
23.7364621185
 20
19.3306293061
 11
23.8073282602
 21
19.3306293061
  0
LINE
  5
394
100
AcDbEntity
  8
0
100
AcDbLine
 62
7
  6
CONTINUOUS
 10
23.4191392838
 20
19.3503143455
 11
23.4506353468
 21
19.3503143455
  0
LINE
  5
395
100
AcDbEntity
  8
0
100
AcDbLine
 62
7
  6
CONTINUOUS
 10
23.7561471578
 20
19.3503143455
 11
23.7876432208
 21
19.3503143455
  0
LINE
  5
396
100
AcDbEntity
  8
7_ALL_ROUNDS
100
AcDbLine
 62
9
  6
CONTINUOUS
 10
21.4836668429
 20
19.7451478242
 11
21.5328794414
 21
19.7639970509
  0
LINE
  5
397
100
AcDbEntity
  8
0
100
AcDbLine
 62
7
  6
CONTINUOUS
 10
23.7876432208
 20
19.7479521408
 11
23.7561471578
 21
19.7479521408
  0
LINE
  5
398
100
AcDbEntity
  8
0
100
AcDbLine
 62
7
  6
CONTINUOUS
 10
23.4506353468
 20
19.7479521408
 11
23.4191392838
 21
19.7479521408
  0
LINE
  5
399
100
AcDbEntity
  8
0
100
AcDbLine
 62
7
  6
CONTINUOUS
 10
23.8073282602
 20
19.7676371802
 11
23.7364621185
 21
19.7676371802
  0
LINE
  5
39A
100
AcDbEntity
  8
0
100
AcDbLine
 62
7
  6
CONTINUOUS
 10
23.4703203862
 20
19.7676371802
 11
23.3994542445
 21
19.7676371802
  0
LINE
  5
39B
100
AcDbEntity
  8
7_ALL_ROUNDS
100
AcDbLine
 62
7
  6
CONTINUOUS
 10
22.2702326051
 20
19.775511196
 11
21.878203443
 21
19.775511196
  0
LINE
  5
39C
100
AcDbEntity
  8
7_ALL_ROUNDS
100
AcDbLine
 62
7
  6
CONTINUOUS
 10
21.4533034712
 20
19.775511196
 11
21.0612743092
 21
19.775511196
  0
LINE
  5
39D
100
AcDbEntity
  8
0
100
AcDbLine
 62
7
  6
CONTINUOUS
 10
23.9057534571
 20
19.7951962353
 11
23.6994542445
 21
19.7951962353
  0
LINE
  5
39E
100
AcDbEntity
  8
0
100
AcDbLine
 62
7
  6
CONTINUOUS
 10
23.568745583
 20
19.7951962353
 11
23.3624463704
 21
19.7951962353
  0
LINE
  5
39F
100
AcDbEntity
  8
0
100
AcDbLine
 62
9
  6
CONTINUOUS
 10
24.0609838124
 20
19.811607693
 11
24.0088184581
 21
19.811607693
  0
LINE
  5
3A0
100
AcDbEntity
  8
0
100
AcDbLine
 62
9
  6
CONTINUOUS
 10
23.2072947552
 20
19.811607693
 11
23.2594601096
 21
19.811607693
  0
LINE
  5
3A1
100
AcDbEntity
  8
7_ALL_ROUNDS
100
AcDbLine
 62
7
  6
CONTINUOUS
 10
22.2890818317
 20
19.8247237944
 11
21.8593542163
 21
19.8247237944
  0
LINE
  5
3A2
100
AcDbEntity
  8
7_ALL_ROUNDS
100
AcDbLine
 62
7
  6
CONTINUOUS
 10
21.4721526979
 20
19.8247237944
 11
21.0424250825
 21
19.8247237944
  0
LINE
  5
3A3
100
AcDbEntity
  8
7_ALL_ROUNDS
100
AcDbLine
 62
9
  6
CONTINUOUS
 10
21.4836668429
 20
19.3531186622
 11
21.5328794414
 21
19.3342694355
  0
LINE
  5
3A4
100
AcDbEntity
  8
7_ALL_ROUNDS
100
AcDbLine
 62
7
  6
CONTINUOUS
 10
20.981698339
 20
19.7639970509
 11
20.981698339
 21
19.3342694355
  0
LINE
  5
3A5
100
AcDbEntity
  8
7_ALL_ROUNDS
100
AcDbLine
 62
9
  6
CONTINUOUS
 10
21.0309109374
 20
19.3531186622
 11
20.981698339
 21
19.3342694355
  0
LINE
  5
3A6
100
AcDbEntity
  8
7_ALL_ROUNDS
100
AcDbLine
 62
9
  6
CONTINUOUS
 10
22.3005959768
 20
19.7451478242
 11
22.3498085752
 21
19.7639970509
  0
LINE
  5
3A7
100
AcDbEntity
  8
0
100
AcDbLine
 62
7
  6
CONTINUOUS
 10
23.3382002671
 20
19.8903478505
 11
23.9300783006
 21
19.8903478505
  0
LINE
  5
3A8
100
AcDbEntity
  8
0
100
AcDbLine
 62
7
  6
CONTINUOUS
 10
23.3382002671
 20
19.9425132048
 11
23.9300783006
 21
19.9425132048
  0
LINE
  5
3A9
100
AcDbEntity
  8
7_ALL_ROUNDS
100
AcDbLine
 62
7
  6
CONTINUOUS
 10
24.2785103761
 20
20.0221413987
 11
17.7575878212
 21
20.0221413987
  0
LINE
  5
3AA
100
AcDbEntity
  8
7_ALL_ROUNDS
100
AcDbLine
 62
9
  6
CONTINUOUS
 10
21.0309109374
 20
19.7451478242
 11
20.981698339
 21
19.7639970509
  0
LINE
  5
3AB
100
AcDbEntity
  8
7_ALL_ROUNDS
100
AcDbLine
 62
9
  6
CONTINUOUS
 10
22.3005959768
 20
19.3531186622
 11
22.3498085752
 21
19.3342694355
  0
LINE
  5
3AC
100
AcDbEntity
  8
7_ALL_ROUNDS
100
AcDbLine
 62
7
  6
CONTINUOUS
 10
21.0309109374
 20
19.7451478242
 11
21.0309109374
 21
19.3531186622
  0
LINE
  5
3AD
100
AcDbEntity
  8
7_ALL_ROUNDS
100
AcDbLine
 62
9
  6
CONTINUOUS
 10
21.0612743092
 20
19.3227552904
 11
21.0424250825
 21
19.273542692
  0
LINE
  5
3AE
100
AcDbEntity
  8
7_ALL_ROUNDS
100
AcDbLine
 62
9
  6
CONTINUOUS
 10
21.4533034712
 20
19.775511196
 11
21.4721526979
 21
19.8247237944
  0
LINE
  5
3AF
100
AcDbEntity
  8
7_ALL_ROUNDS
100
AcDbLine
 62
9
  6
CONTINUOUS
 10
21.8478400713
 20
19.3531186622
 11
21.7986274729
 21
19.3342694355
  0
LINE
  5
3B0
100
AcDbEntity
  8
0
100
AcDbLine
 62
7
  6
CONTINUOUS
 10
16.0670526697
 20
20.4074009597
 11
24.7299660555
 21
20.4074009597
  0
LINE
  5
3B1
100
AcDbEntity
  8
7_ALL_ROUNDS
100
AcDbLine
 62
9
  6
CONTINUOUS
 10
21.8478400713
 20
19.7451478242
 11
21.7986274729
 21
19.7639970509
  0
LINE
  5
3B2
100
AcDbEntity
  8
7_ALL_ROUNDS
100
AcDbLine
 62
9
  6
CONTINUOUS
 10
21.0612743092
 20
19.775511196
 11
21.0424250825
 21
19.8247237944
  0
LINE
  5
3B3
100
AcDbEntity
  8
7_ALL_ROUNDS
100
AcDbLine
 62
9
  6
CONTINUOUS
 10
21.4533034712
 20
19.3227552904
 11
21.4721526979
 21
19.273542692
  0
LINE
  5
3B4
100
AcDbEntity
  8
7_ALL_ROUNDS
100
AcDbLine
 62
7
  6
CONTINUOUS
 10
21.4836668429
 20
19.3531186622
 11
21.4836668429
 21
19.7451478242
  0
LINE
  5
3B5
100
AcDbEntity
  8
7_ALL_ROUNDS
100
AcDbLine
 62
7
  6
CONTINUOUS
 10
21.5328794414
 20
19.3342694355
 11
21.5328794414
 21
19.7639970509
  0
LINE
  5
3B6
100
AcDbEntity
  8
7_ALL_ROUNDS
100
AcDbLine
 62
7
  6
CONTINUOUS
 10
21.7986274729
 20
19.7639970509
 11
21.7986274729
 21
19.3342694355
  0
LINE
  5
3B7
100
AcDbEntity
  8
7_ALL_ROUNDS
100
AcDbLine
 62
7
  6
CONTINUOUS
 10
21.8478400713
 20
19.7451478242
 11
21.8478400713
 21
19.3531186622
  0
LINE
  5
3B8
100
AcDbEntity
  8
7_ALL_ROUNDS
100
AcDbLine
 62
9
  6
CONTINUOUS
 10
21.878203443
 20
19.3227552904
 11
21.8593542163
 21
19.273542692
  0
LINE
  5
3B9
100
AcDbEntity
  8
7_ALL_ROUNDS
100
AcDbLine
 62
9
  6
CONTINUOUS
 10
21.878203443
 20
19.775511196
 11
21.8593542163
 21
19.8247237944
  0
LINE
  5
3BA
100
AcDbEntity
  8
7_ALL_ROUNDS
100
AcDbLine
 62
9
  6
CONTINUOUS
 10
22.2702326051
 20
19.775511196
 11
22.2890818317
 21
19.8247237944
  0
LINE
  5
3BB
100
AcDbEntity
  8
7_ALL_ROUNDS
100
AcDbLine
 62
9
  6
CONTINUOUS
 10
22.2702326051
 20
19.3227552904
 11
22.2890818317
 21
19.273542692
  0
LINE
  5
3BC
100
AcDbEntity
  8
7_ALL_ROUNDS
100
AcDbLine
 62
7
  6
CONTINUOUS
 10
22.3005959768
 20
19.3531186622
 11
22.3005959768
 21
19.7451478242
  0
LINE
  5
3BD
100
AcDbEntity
  8
7_ALL_ROUNDS
100
AcDbLine
 62
7
  6
CONTINUOUS
 10
22.3498085752
 20
19.3342694355
 11
22.3498085752
 21
19.7639970509
  0
LINE
  5
3BE
100
AcDbEntity
  8
0
100
AcDbLine
 62
7
  6
CONTINUOUS
 10
23.4703203862
 20
19.7676371802
 11
23.4506353468
 21
19.7479521408
  0
LINE
  5
3BF
100
AcDbEntity
  8
0
100
AcDbLine
 62
7
  6
CONTINUOUS
 10
23.4703203862
 20
19.3306293061
 11
23.4506353468
 21
19.3503143455
  0
LINE
  5
3C0
100
AcDbEntity
  8
0
100
AcDbLine
 62
7
  6
CONTINUOUS
 10
23.8073282602
 20
19.7676371802
 11
23.7876432208
 21
19.7479521408
  0
LINE
  5
3C1
100
AcDbEntity
  8
0
100
AcDbLine
 62
7
  6
CONTINUOUS
 10
23.3994542445
 20
19.3306293061
 11
23.4191392838
 21
19.3503143455
  0
LINE
  5
3C2
100
AcDbEntity
  8
0
100
AcDbLine
 62
7
  6
CONTINUOUS
 10
23.8073282602
 20
19.3306293061
 11
23.7876432208
 21
19.3503143455
  0
LINE
  5
3C3
100
AcDbEntity
  8
0
100
AcDbLine
 62
7
  6
CONTINUOUS
 10
23.3994542445
 20
19.7676371802
 11
23.4191392838
 21
19.7479521408
  0
LINE
  5
3C4
100
AcDbEntity
  8
7_ALL_ROUNDS
100
AcDbLine
 62
7
  6
CONTINUOUS
 10
22.9575644807
 20
18.6396844243
 11
22.9575644807
 21
18.6908655266
  0
LINE
  5
3C5
100
AcDbEntity
  8
7_ALL_ROUNDS
100
AcDbLine
 62
9
  6
CONTINUOUS
 10
23.0559896775
 20
18.6396844243
 11
23.0559896775
 21
18.6908655266
  0
LINE
  5
3C6
100
AcDbEntity
  8
0
100
AcDbLine
 62
7
  6
CONTINUOUS
 10
23.7364621185
 20
19.3306293061
 11
23.7561471578
 21
19.3503143455
  0
LINE
  5
3C7
100
AcDbEntity
  8
0
100
AcDbLine
 62
7
  6
CONTINUOUS
 10
23.7364621185
 20
19.7676371802
 11
23.7561471578
 21
19.7479521408
  0
LINE
  5
3C8
100
AcDbEntity
  8
0
100
AcDbLine
 62
7
  6
CONTINUOUS
 10
23.2072947552
 20
19.2886272972
 11
23.2072947552
 21
19.811607693
  0
LINE
  5
3C9
100
AcDbEntity
  8
0
100
AcDbLine
 62
7
  6
CONTINUOUS
 10
23.2594601096
 20
19.2886272972
 11
23.2594601096
 21
19.811607693
  0
LINE
  5
3CA
100
AcDbEntity
  8
0
100
AcDbLine
 62
9
  6
CONTINUOUS
 10
23.3382002671
 20
19.9425132048
 11
23.3382002671
 21
19.8903478505
  0
LINE
  5
3CB
100
AcDbEntity
  8
0
100
AcDbLine
 62
9
  6
CONTINUOUS
 10
23.3382002671
 20
19.1577217854
 11
23.3382002671
 21
19.2098871398
  0
LINE
  5
3CC
100
AcDbEntity
  8
0
100
AcDbLine
 62
7
  6
CONTINUOUS
 10
23.3624463704
 20
19.7951962353
 11
23.3624463704
 21
19.303070251
  0
LINE
  5
3CD
100
AcDbEntity
  8
0
100
AcDbLine
 62
7
  6
CONTINUOUS
 10
23.3994542445
 20
19.7676371802
 11
23.3994542445
 21
19.3306293061
  0
LINE
  5
3CE
100
AcDbEntity
  8
0
100
AcDbLine
 62
7
  6
CONTINUOUS
 10
23.4191392838
 20
19.7479521408
 11
23.4191392838
 21
19.3503143455
  0
LINE
  5
3CF
100
AcDbEntity
  8
0
100
AcDbLine
 62
7
  6
CONTINUOUS
 10
23.4506353468
 20
19.3503143455
 11
23.4506353468
 21
19.7479521408
  0
LINE
  5
3D0
100
AcDbEntity
  8
0
100
AcDbLine
 62
7
  6
CONTINUOUS
 10
23.4703203862
 20
19.3306293061
 11
23.4703203862
 21
19.7676371802
  0
LINE
  5
3D1
100
AcDbEntity
  8
0
100
AcDbLine
 62
7
  6
CONTINUOUS
 10
23.568745583
 20
19.303070251
 11
23.568745583
 21
19.7951962353
  0
LINE
  5
3D2
100
AcDbEntity
  8
0
100
AcDbLine
 62
7
  6
CONTINUOUS
 10
23.6994542445
 20
19.7951962353
 11
23.6994542445
 21
19.303070251
  0
LINE
  5
3D3
100
AcDbEntity
  8
0
100
AcDbLine
 62
7
  6
CONTINUOUS
 10
23.7364621185
 20
19.7676371802
 11
23.7364621185
 21
19.3306293061
  0
LINE
  5
3D4
100
AcDbEntity
  8
0
100
AcDbLine
 62
7
  6
CONTINUOUS
 10
23.7561471578
 20
19.7479521408
 11
23.7561471578
 21
19.3503143455
  0
LINE
  5
3D5
100
AcDbEntity
  8
0
100
AcDbLine
 62
7
  6
CONTINUOUS
 10
23.7876432208
 20
19.3503143455
 11
23.7876432208
 21
19.7479521408
  0
LINE
  5
3D6
100
AcDbEntity
  8
0
100
AcDbLine
 62
7
  6
CONTINUOUS
 10
23.8073282602
 20
19.3306293061
 11
23.8073282602
 21
19.7676371802
  0
LINE
  5
3D7
100
AcDbEntity
  8
0
100
AcDbLine
 62
7
  6
CONTINUOUS
 10
23.9057534571
 20
19.303070251
 11
23.9057534571
 21
19.7951962353
  0
LINE
  5
3D8
100
AcDbEntity
  8
0
100
AcDbLine
 62
9
  6
CONTINUOUS
 10
23.9300783006
 20
19.9425132048
 11
23.9300783006
 21
19.8903478505
  0
LINE
  5
3D9
100
AcDbEntity
  8
0
100
AcDbLine
 62
9
  6
CONTINUOUS
 10
23.9300783006
 20
19.1577217854
 11
23.9300783006
 21
19.2098871398
  0
LINE
  5
3DA
100
AcDbEntity
  8
0
100
AcDbLine
 62
7
  6
CONTINUOUS
 10
24.0088184581
 20
19.811607693
 11
24.0088184581
 21
19.2886272972
  0
LINE
  5
3DB
100
AcDbEntity
  8
0
100
AcDbLine
 62
7
  6
CONTINUOUS
 10
24.0609838124
 20
19.811607693
 11
24.0609838124
 21
19.2886272972
  0
LINE
  5
3DC
100
AcDbEntity
  8
7_ALL_ROUNDS
100
AcDbLine
 62
9
  6
CONTINUOUS
 10
24.2764621185
 20
18.6396844243
 11
24.2764621185
 21
18.6908655266
  0
LINE
  5
3DD
100
AcDbEntity
  8
7_ALL_ROUNDS
100
AcDbLine
 62
7
  6
CONTINUOUS
 10
24.3748873153
 20
18.6396844243
 11
24.3748873153
 21
18.6908655266
  0
LINE
  5
3DE
100
AcDbEntity
  8
7_ALL_ROUNDS
100
AcDbLine
 62
7
  6
CONTINUOUS
 10
24.3966206123
 20
19.1942353238
 11
24.3966206123
 21
19.9040311625
  0
LINE
  5
3DF
100
AcDbEntity
  8
0
100
AcDbLine
 62
7
  6
CONTINUOUS
 10
24.7299660555
 20
18.6908655266
 11
24.7299660555
 21
20.4074009597
  0
LINE
  5
3E0
100
AcDbEntity
  8
0
100
AcDbLine
 62
7
  6
CONTINUOUS
 10
2.6753667946
 20
18.9891332432
 11
2.6753667946
 21
19.4201332432
  0
LINE
  5
3E1
100
AcDbEntity
  8
0
100
AcDbLine
 62
7
  6
CONTINUOUS
 10
2.6866660072
 20
18.9949600148
 11
2.6866660072
 21
20.0973222195
  0
LINE
  5
3E2
100
AcDbEntity
  8
0
100
AcDbLine
 62
7
  6
CONTINUOUS
 10
2.6965085269
 20
18.6908655266
 11
2.6965085269
 21
20.4074009597
  0
LINE
  5
3E3
100
AcDbEntity
  8
7_ALL_ROUNDS
100
AcDbLine
 62
7
  6
CONTINUOUS
 10
3.5861541962
 20
18.6396844243
 11
3.5861541962
 21
18.6908655266
  0
LINE
  5
3E4
100
AcDbEntity
  8
7_ALL_ROUNDS
100
AcDbLine
 62
9
  6
CONTINUOUS
 10
3.684579393
 20
18.6396844243
 11
3.684579393
 21
18.6908655266
  0
LINE
  5
3E5
100
AcDbEntity
  8
3_AXES_OTHER
100
AcDbLine
 62
7
  6
CENTER
 10
3.7468628576
 20
19.5491332432
 11
3.7468628576
 21
19.3373784625
  0
LINE
  5
3E6
100
AcDbEntity
  8
3_AXES_OTHER
100
AcDbLine
 62
7
  6
CENTER
 10
3.7468628576
 20
19.5491332432
 11
3.7468628576
 21
19.7608880238
  0
LINE
  5
3E7
100
AcDbEntity
  8
7_ALL_ROUNDS
100
AcDbLine
 62
9
  6
CONTINUOUS
 10
4.1176502592
 20
18.6396844243
 11
4.1176502592
 21
18.6908655266
  0
LINE
  5
3E8
100
AcDbEntity
  8
7_ALL_ROUNDS
100
AcDbLine
 62
7
  6
CONTINUOUS
 10
4.216075456
 20
18.6396844243
 11
4.216075456
 21
18.6908655266
  0
LINE
  5
3E9
100
AcDbEntity
  8
0
100
AcDbLine
 62
7
  6
CONTINUOUS
 10
5.279067582
 20
18.6908655266
 11
5.279067582
 21
18.7814167077
  0
LINE
  5
3EA
100
AcDbEntity
  8
7_ALL_ROUNDS
100
AcDbLine
 62
7
  6
CONTINUOUS
 10
11.3026896292
 20
18.6396844243
 11
10.6727683694
 21
18.6396844243
  0
LINE
  5
3EB
100
AcDbEntity
  8
7_ALL_ROUNDS
100
AcDbLine
 62
7
  6
CONTINUOUS
 10
4.216075456
 20
18.6396844243
 11
3.5861541962
 21
18.6396844243
  0
LINE
  5
3EC
100
AcDbEntity
  8
0
100
AcDbLine
 62
7
  6
CONTINUOUS
 10
2.6965085269
 20
18.6908655266
 11
12.1923352985
 21
18.6908655266
  0
LINE
  5
3ED
100
AcDbEntity
  8
0
100
AcDbLine
 62
7
  6
CONTINUOUS
 10
5.279067582
 20
18.7814167077
 11
8.4286738812
 21
18.7814167077
  0
LINE
  5
3EE
100
AcDbEntity
  8
0
100
AcDbLine
 62
7
  6
CONTINUOUS
 10
2.6965085269
 20
18.9891332432
 11
2.6753667946
 21
18.9891332432
  0
LINE
  5
3EF
100
AcDbEntity
  8
0
100
AcDbLine
 62
7
  6
CONTINUOUS
 10
2.6965085269
 20
18.9949600148
 11
2.6866660072
 21
18.9949600148
  0
LINE
  5
3F0
100
AcDbEntity
  8
3_AXES_OTHER
100
AcDbLine
 62
7
  6
CENTER
 10
11.6996187631
 20
19.0570072589
 11
11.4981477183
 21
19.0570072589
  0
LINE
  5
3F1
100
AcDbEntity
  8
3_AXES_OTHER
100
AcDbLine
 62
7
  6
CENTER
 10
11.6996187631
 20
19.0570072589
 11
11.9113735437
 21
19.0570072589
  0
LINE
  5
3F2
100
AcDbEntity
  8
7_ALL_ROUNDS
100
AcDbLine
 62
7
  6
CONTINUOUS
 10
12.2139888418
 20
19.0761250876
 11
12.1923352985
 21
19.0761250876
  0
LINE
  5
3F3
100
AcDbEntity
  8
7_ALL_ROUNDS
100
AcDbLine
 62
9
  6
CONTINUOUS
 10
12.2139888418
 20
19.1942353238
 11
12.1923352985
 21
19.1942353238
  0
LINE
  5
3F4
100
AcDbEntity
  8
0
100
AcDbLine
 62
7
  6
CONTINUOUS
 10
2.6965085269
 20
19.333542692
 11
2.6866660072
 21
19.333542692
  0
LINE
  5
3F5
100
AcDbEntity
  8
0
100
AcDbLine
 62
7
  6
CONTINUOUS
 10
2.6866266371
 20
19.4201332432
 11
2.6753667946
 21
19.4201332432
  0
LINE
  5
3F6
100
AcDbEntity
  8
3_AXES_OTHER
100
AcDbLine
 62
7
  6
CENTER
 10
3.7468628576
 20
19.5491332432
 11
3.5545252265
 21
19.5491332432
  0
LINE
  5
3F7
100
AcDbEntity
  8
3_AXES_OTHER
100
AcDbLine
 62
7
  6
CENTER
 10
3.7468628576
 20
19.5491332432
 11
12.2845332307
 21
19.5491332432
  0
LINE
  5
3F8
100
AcDbEntity
  8
0
100
AcDbLine
 62
7
  6
CONTINUOUS
 10
2.6965085269
 20
19.8807867865
 11
2.6866266371
 21
19.8807867865
  0
LINE
  5
3F9
100
AcDbEntity
  8
7_ALL_ROUNDS
100
AcDbLine
 62
9
  6
CONTINUOUS
 10
12.2139888418
 20
19.9040311625
 11
12.1923352985
 21
19.9040311625
  0
LINE
  5
3FA
100
AcDbEntity
  8
7_ALL_ROUNDS
100
AcDbLine
 62
7
  6
CONTINUOUS
 10
12.2139888418
 20
20.0221413987
 11
12.1923352985
 21
20.0221413987
  0
LINE
  5
3FB
100
AcDbEntity
  8
3_AXES_OTHER
100
AcDbLine
 62
7
  6
CENTER
 10
11.6996187631
 20
20.0412592274
 11
11.4878639824
 21
20.0412592274
  0
LINE
  5
3FC
100
AcDbEntity
  8
3_AXES_OTHER
100
AcDbLine
 62
7
  6
CENTER
 10
11.6996187631
 20
20.0412592274
 11
12.2299228952
 21
20.0412592274
  0
LINE
  5
3FD
100
AcDbEntity
  8
0
100
AcDbLine
 62
7
  6
CONTINUOUS
 10
2.6965085269
 20
20.0973222195
 11
2.6866660072
 21
20.0973222195
  0
LINE
  5
3FE
100
AcDbEntity
  8
0
100
AcDbLine
 62
7
  6
CONTINUOUS
 10
8.4286738812
 20
18.6908655266
 11
8.4286738812
 21
18.7814167077
  0
LINE
  5
3FF
100
AcDbEntity
  8
0
100
AcDbLine
 62
7
  6
CONTINUOUS
 10
2.6965085269
 20
20.4074009597
 11
12.1923352985
 21
20.4074009597
  0
LINE
  5
400
100
AcDbEntity
  8
7_ALL_ROUNDS
100
AcDbLine
 62
7
  6
CONTINUOUS
 10
10.6727683694
 20
18.6396844243
 11
10.6727683694
 21
18.6908655266
  0
LINE
  5
401
100
AcDbEntity
  8
7_ALL_ROUNDS
100
AcDbLine
 62
9
  6
CONTINUOUS
 10
10.7711935662
 20
18.6396844243
 11
10.7711935662
 21
18.6908655266
  0
LINE
  5
402
100
AcDbEntity
  8
7_ALL_ROUNDS
100
AcDbLine
 62
9
  6
CONTINUOUS
 10
11.2042644324
 20
18.6396844243
 11
11.2042644324
 21
18.6908655266
  0
LINE
  5
403
100
AcDbEntity
  8
7_ALL_ROUNDS
100
AcDbLine
 62
7
  6
CONTINUOUS
 10
11.3026896292
 20
18.6396844243
 11
11.3026896292
 21
18.6908655266
  0
LINE
  5
404
100
AcDbEntity
  8
3_AXES_OTHER
100
AcDbLine
 62
7
  6
CENTER
 10
11.6996187631
 20
20.0412592274
 11
11.6996187631
 21
19.2271662158
  0
LINE
  5
405
100
AcDbEntity
  8
3_AXES_OTHER
100
AcDbLine
 62
7
  6
CENTER
 10
11.6996187631
 20
19.0570072589
 11
11.6996187631
 21
18.8452524782
  0
LINE
  5
406
100
AcDbEntity
  8
3_AXES_OTHER
100
AcDbLine
 62
7
  6
CENTER
 10
11.6996187631
 20
19.0570072589
 11
11.6996187631
 21
19.2271662158
  0
LINE
  5
407
100
AcDbEntity
  8
3_AXES_OTHER
100
AcDbLine
 62
7
  6
CENTER
 10
11.6996187631
 20
20.0412592274
 11
11.6996187631
 21
20.2530140081
  0
LINE
  5
408
100
AcDbEntity
  8
0
100
AcDbLine
 62
7
  6
CONTINUOUS
 10
12.1923352985
 20
18.6908655266
 11
12.1923352985
 21
20.4074009597
  0
LINE
  5
409
100
AcDbEntity
  8
7_ALL_ROUNDS
100
AcDbLine
 62
7
  6
CONTINUOUS
 10
12.2139888418
 20
20.0221413987
 11
12.2139888418
 21
19.0761250876
  0
LINE
  5
40A
100
AcDbEntity
  8
7_ALL_ROUNDS
100
AcDbLine
 62
7
  6
CONTINUOUS
 10
27.194098929
 20
19.0761250876
 11
27.194098929
 21
20.0221413987
  0
LINE
  5
40B
100
AcDbEntity
  8
0
100
AcDbLine
 62
7
  6
CONTINUOUS
 10
27.2157524723
 20
18.6908655266
 11
27.2157524723
 21
20.4074009597
  0
LINE
  5
40C
100
AcDbEntity
  8
3_AXES_OTHER
100
AcDbLine
 62
7
  6
CENTER
 10
27.7084690077
 20
20.0412592274
 11
27.7084690077
 21
19.2394056467
  0
LINE
  5
40D
100
AcDbEntity
  8
3_AXES_OTHER
100
AcDbLine
 62
7
  6
CENTER
 10
27.7084690077
 20
19.0570072589
 11
27.7084690077
 21
18.8452524782
  0
LINE
  5
40E
100
AcDbEntity
  8
3_AXES_OTHER
100
AcDbLine
 62
7
  6
CENTER
 10
27.7084690077
 20
19.0570072589
 11
27.7084690077
 21
19.2394056467
  0
LINE
  5
40F
100
AcDbEntity
  8
3_AXES_OTHER
100
AcDbLine
 62
7
  6
CENTER
 10
27.7084690077
 20
20.0412592274
 11
27.7084690077
 21
20.2530140081
  0
LINE
  5
410
100
AcDbEntity
  8
7_ALL_ROUNDS
100
AcDbLine
 62
7
  6
CONTINUOUS
 10
28.1053981416
 20
18.6396844243
 11
28.1053981416
 21
18.6908655266
  0
LINE
  5
411
100
AcDbEntity
  8
7_ALL_ROUNDS
100
AcDbLine
 62
9
  6
CONTINUOUS
 10
28.2038233384
 20
18.6396844243
 11
28.2038233384
 21
18.6908655266
  0
LINE
  5
412
100
AcDbEntity
  8
7_ALL_ROUNDS
100
AcDbLine
 62
9
  6
CONTINUOUS
 10
28.6368942046
 20
18.6396844243
 11
28.6368942046
 21
18.6908655266
  0
LINE
  5
413
100
AcDbEntity
  8
7_ALL_ROUNDS
100
AcDbLine
 62
7
  6
CONTINUOUS
 10
28.7353194014
 20
18.6396844243
 11
28.7353194014
 21
18.6908655266
  0
LINE
  5
414
100
AcDbEntity
  8
0
100
AcDbLine
 62
7
  6
CONTINUOUS
 10
30.9794138896
 20
18.6908655266
 11
30.9794138896
 21
18.7814167077
  0
LINE
  5
415
100
AcDbEntity
  8
7_ALL_ROUNDS
100
AcDbLine
 62
7
  6
CONTINUOUS
 10
35.8219335746
 20
18.6396844243
 11
35.1920123148
 21
18.6396844243
  0
LINE
  5
416
100
AcDbEntity
  8
7_ALL_ROUNDS
100
AcDbLine
 62
7
  6
CONTINUOUS
 10
28.7353194014
 20
18.6396844243
 11
28.1053981416
 21
18.6396844243
  0
LINE
  5
417
100
AcDbEntity
  8
0
100
AcDbLine
 62
7
  6
CONTINUOUS
 10
27.2157524723
 20
18.6908655266
 11
36.7115792439
 21
18.6908655266
  0
LINE
  5
418
100
AcDbEntity
  8
0
100
AcDbLine
 62
7
  6
CONTINUOUS
 10
34.1290201888
 20
18.7814167077
 11
30.9794138896
 21
18.7814167077
  0
LINE
  5
419
100
AcDbEntity
  8
0
100
AcDbLine
 62
7
  6
CONTINUOUS
 10
36.7115792439
 20
18.9891335392
 11
36.7337661731
 21
18.9891335392
  0
LINE
  5
41A
100
AcDbEntity
  8
0
100
AcDbLine
 62
7
  6
CONTINUOUS
 10
36.7115792439
 20
18.9949600148
 11
36.7214217636
 21
18.9949600148
  0
LINE
  5
41B
100
AcDbEntity
  8
3_AXES_OTHER
100
AcDbLine
 62
7
  6
CENTER
 10
27.7084690077
 20
19.0570072589
 11
27.4967142271
 21
19.0570072589
  0
LINE
  5
41C
100
AcDbEntity
  8
3_AXES_OTHER
100
AcDbLine
 62
7
  6
CENTER
 10
27.7084690077
 20
19.0570072589
 11
27.9202237884
 21
19.0570072589
  0
LINE
  5
41D
100
AcDbEntity
  8
0
100
AcDbLine
 62
7
  6
CONTINUOUS
 10
36.7214217636
 20
19.0591335392
 11
36.7337661731
 21
19.0591335392
  0
LINE
  5
41E
100
AcDbEntity
  8
7_ALL_ROUNDS
100
AcDbLine
 62
7
  6
CONTINUOUS
 10
27.194098929
 20
19.0761250876
 11
27.2157524723
 21
19.0761250876
  0
LINE
  5
41F
100
AcDbEntity
  8
0
100
AcDbLine
 62
7
  6
CONTINUOUS
 10
36.7214217636
 20
19.1249412432
 11
36.7257661731
 21
19.1249412432
  0
LINE
  5
420
100
AcDbEntity
  8
0
100
AcDbLine
 62
7
  6
CONTINUOUS
 10
36.7214217636
 20
19.1669412432
 11
36.7257661731
 21
19.1669412432
  0
LINE
  5
421
100
AcDbEntity
  8
7_ALL_ROUNDS
100
AcDbLine
 62
9
  6
CONTINUOUS
 10
27.194098929
 20
19.1942353238
 11
27.2157524723
 21
19.1942353238
  0
LINE
  5
422
100
AcDbEntity
  8
0
100
AcDbLine
 62
7
  6
CONTINUOUS
 10
36.7214217636
 20
19.2571335392
 11
36.7337661731
 21
19.2571335392
  0
LINE
  5
423
100
AcDbEntity
  8
0
100
AcDbLine
 62
7
  6
CONTINUOUS
 10
36.7115792439
 20
19.270550566
 11
36.7214217636
 21
19.270550566
  0
LINE
  5
424
100
AcDbEntity
  8
0
100
AcDbLine
 62
7
  6
CONTINUOUS
 10
36.7115792439
 20
19.3241335392
 11
36.7337661731
 21
19.3241335392
  0
LINE
  5
425
100
AcDbEntity
  8
0
100
AcDbLine
 62
7
  6
CONTINUOUS
 10
36.7115792439
 20
19.4201332432
 11
36.7327209762
 21
19.4201332432
  0
LINE
  5
426
100
AcDbEntity
  8
3_AXES_OTHER
100
AcDbLine
 62
7
  6
CENTER
 10
35.6612249132
 20
19.5491332432
 11
35.4494701326
 21
19.5491332432
  0
LINE
  5
427
100
AcDbEntity
  8
3_AXES_OTHER
100
AcDbLine
 62
7
  6
CENTER
 10
35.6612249132
 20
19.5491332432
 11
35.8729796939
 21
19.5491332432
  0
LINE
  5
428
100
AcDbEntity
  8
0
100
AcDbLine
 62
7
  6
CONTINUOUS
 10
36.7115792439
 20
19.7981096211
 11
36.7214217636
 21
19.7981096211
  0
LINE
  5
429
100
AcDbEntity
  8
7_ALL_ROUNDS
100
AcDbLine
 62
9
  6
CONTINUOUS
 10
27.194098929
 20
19.9040311625
 11
27.2157524723
 21
19.9040311625
  0
LINE
  5
42A
100
AcDbEntity
  8
7_ALL_ROUNDS
100
AcDbLine
 62
7
  6
CONTINUOUS
 10
27.194098929
 20
20.0221413987
 11
27.2157524723
 21
20.0221413987
  0
LINE
  5
42B
100
AcDbEntity
  8
3_AXES_OTHER
100
AcDbLine
 62
7
  6
CENTER
 10
27.7084690077
 20
20.0412592274
 11
27.4967142271
 21
20.0412592274
  0
LINE
  5
42C
100
AcDbEntity
  8
3_AXES_OTHER
100
AcDbLine
 62
7
  6
CENTER
 10
27.7084690077
 20
20.0412592274
 11
27.9202237884
 21
20.0412592274
  0
LINE
  5
42D
100
AcDbEntity
  8
0
100
AcDbLine
 62
7
  6
CONTINUOUS
 10
36.7115792439
 20
20.0973222195
 11
36.7214217636
 21
20.0973222195
  0
LINE
  5
42E
100
AcDbEntity
  8
0
100
AcDbLine
 62
7
  6
CONTINUOUS
 10
27.2157524723
 20
20.4074009597
 11
36.7115792439
 21
20.4074009597
  0
LINE
  5
42F
100
AcDbEntity
  8
0
100
AcDbLine
 62
7
  6
CONTINUOUS
 10
34.1290201888
 20
18.6908655266
 11
34.1290201888
 21
18.7814167077
  0
LINE
  5
430
100
AcDbEntity
  8
7_ALL_ROUNDS
100
AcDbLine
 62
7
  6
CONTINUOUS
 10
35.1920123148
 20
18.6396844243
 11
35.1920123148
 21
18.6908655266
  0
LINE
  5
431
100
AcDbEntity
  8
7_ALL_ROUNDS
100
AcDbLine
 62
9
  6
CONTINUOUS
 10
35.2904375117
 20
18.6396844243
 11
35.2904375117
 21
18.6908655266
  0
LINE
  5
432
100
AcDbEntity
  8
3_AXES_OTHER
100
AcDbLine
 62
7
  6
CENTER
 10
35.6612249132
 20
19.5491332432
 11
35.6612249132
 21
19.3373784625
  0
LINE
  5
433
100
AcDbEntity
  8
3_AXES_OTHER
100
AcDbLine
 62
7
  6
CENTER
 10
35.6612249132
 20
19.5491332432
 11
35.6612249132
 21
19.7608880238
  0
LINE
  5
434
100
AcDbEntity
  8
7_ALL_ROUNDS
100
AcDbLine
 62
9
  6
CONTINUOUS
 10
35.7235083778
 20
18.6396844243
 11
35.7235083778
 21
18.6908655266
  0
LINE
  5
435
100
AcDbEntity
  8
7_ALL_ROUNDS
100
AcDbLine
 62
7
  6
CONTINUOUS
 10
35.8219335746
 20
18.6396844243
 11
35.8219335746
 21
18.6908655266
  0
LINE
  5
436
100
AcDbEntity
  8
0
100
AcDbLine
 62
7
  6
CONTINUOUS
 10
36.7115792439
 20
18.6908655266
 11
36.7115792439
 21
20.4074009597
  0
LINE
  5
437
100
AcDbEntity
  8
0
100
AcDbLine
 62
7
  6
CONTINUOUS
 10
36.7214217636
 20
19.270550566
 11
36.7214217636
 21
18.9949600148
  0
LINE
  5
438
100
AcDbEntity
  8
0
100
AcDbLine
 62
7
  6
CONTINUOUS
 10
36.7214217636
 20
20.0973222195
 11
36.7214611337
 21
19.4201332432
  0
LINE
  5
439
100
AcDbEntity
  8
0
100
AcDbLine
 62
7
  6
CONTINUOUS
 10
36.7257661731
 20
19.1669412432
 11
36.7257661731
 21
19.1249412432
  0
LINE
  5
43A
100
AcDbEntity
  8
0
100
AcDbLine
 62
7
  6
CONTINUOUS
 10
36.7327209762
 20
19.4201332432
 11
36.7327209762
 21
19.3241335392
  0
LINE
  5
43B
100
AcDbEntity
  8
0
100
AcDbLine
 62
7
  6
CONTINUOUS
 10
36.7327209762
 20
19.2571335392
 11
36.7327209762
 21
19.0591335392
  0
LINE
  5
43C
100
AcDbEntity
  8
0
100
AcDbLine
 62
7
  6
CONTINUOUS
 10
36.7337661731
 20
19.3241335392
 11
36.7337661731
 21
19.2571335392
  0
LINE
  5
43D
100
AcDbEntity
  8
0
100
AcDbLine
 62
7
  6
CONTINUOUS
 10
36.7337661731
 20
19.0591335392
 11
36.7337661731
 21
18.9891335392
  0
LINE
  5
43E
100
AcDbEntity
  8
DEFAULT_3
100
AcDbLine
 62
7
  6
PHANTOM
 10
36.7337661731
 20
18.0900465613
 11
36.7337661731
 21
18.9891335392
  0
LINE
  5
43F
100
AcDbEntity
  8
DEFAULT_3
100
AcDbLine
 62
7
  6
PHANTOM
 10
36.7337661731
 20
19.3241335392
 11
36.7337661731
 21
20.9773319368
  0
LINE
  5
440
100
AcDbEntity
  8
DEFAULT_3
100
AcDbLine
 62
7
  6
PHANTOM
 10
36.7337661731
 20
19.0591335392
 11
36.7337661731
 21
19.2571335392
  0
LINE
  5
441
100
AcDbEntity
  8
0
100
AcDbLine
 62
7
  6
CONTINUOUS
 10
32.93077551
 20
10.8607360337
 11
32.93077551
 21
9.4591839812
  0
LINE
  5
442
100
AcDbEntity
  8
7_ALL_ROUNDS
100
AcDbLine
 62
7
  6
CONTINUOUS
 10
33.851697632
 20
10.6842914939
 11
33.851697632
 21
10.6425020978
  0
LINE
  5
443
100
AcDbEntity
  8
7_ALL_ROUNDS
100
AcDbLine
 62
9
  6
CONTINUOUS
 10
33.8805257048
 20
10.644109962
 11
33.8805257048
 21
10.6023205659
  0
LINE
  5
444
100
AcDbEntity
  8
7_ALL_ROUNDS
100
AcDbLine
 62
9
  6
CONTINUOUS
 10
34.1867530509
 20
10.4673112218
 11
34.1867530509
 21
10.4255218257
  0
LINE
  5
445
100
AcDbEntity
  8
7_ALL_ROUNDS
100
AcDbLine
 62
9
  6
CONTINUOUS
 10
34.3259472992
 20
10.4673112218
 11
34.3259472992
 21
10.4255218257
  0
LINE
  5
446
100
AcDbEntity
  8
0
100
AcDbLine
 62
7
  6
CONTINUOUS
 10
34.7569205307
 20
9.8064208554
 11
34.7569205307
 21
9.73248577
  0
LINE
  5
447
100
AcDbEntity
  8
0
100
AcDbLine
 62
7
  6
CONTINUOUS
 10
35.1624858829
 20
10.0405718685
 11
35.1624858829
 21
9.9666367831
  0
LINE
  5
448
100
AcDbEntity
  8
7_ALL_ROUNDS
100
AcDbLine
 62
9
  6
CONTINUOUS
 10
35.1889516384
 20
10.9655622169
 11
35.1889516384
 21
10.9237728209
  0
LINE
  5
449
100
AcDbEntity
  8
7_ALL_ROUNDS
100
AcDbLine
 62
7
  6
CONTINUOUS
 10
35.2177797112
 20
11.0057437488
 11
35.2177797112
 21
10.9639543527
  0
LINE
  5
44A
100
AcDbEntity
  8
0
100
AcDbLine
 62
7
  6
CONTINUOUS
 10
32.93077551
 20
10.8607360337
 11
39.0563803099
 21
14.3973215971
  0
LINE
  5
44B
100
AcDbEntity
  8
0
100
AcDbLine
 62
7
  6
CONTINUOUS
 10
39.6453390132
 20
5.5825662225
 11
32.93077551
 21
9.4591839812
  0
LINE
  5
44C
100
AcDbEntity
  8
7_ALL_ROUNDS
100
AcDbLine
 62
7
  6
CONTINUOUS
 10
39.3647790864
 20
13.8907777367
 11
38.5017747472
 21
13.3925267416
  0
LINE
  5
44D
100
AcDbEntity
  8
7_ALL_ROUNDS
100
AcDbLine
 62
7
  6
CONTINUOUS
 10
34.743530044
 20
11.2227240209
 11
33.8805257048
 21
10.7244730257
  0
LINE
  5
44E
100
AcDbEntity
  8
0
100
AcDbLine
 62
9
  6
CONTINUOUS
 10
40.7373415824
 20
6.6818137664
 11
40.664834251
 21
6.6810830673
  0
LINE
  5
44F
100
AcDbEntity
  8
7_ALL_ROUNDS
100
AcDbLine
 62
7
  6
CONTINUOUS
 10
39.9208230607
 20
6.0667455061
 11
39.9055116934
 21
6.0755854431
  0
LINE
  5
450
100
AcDbEntity
  8
7_ALL_ROUNDS
100
AcDbLine
 62
9
  6
CONTINUOUS
 10
39.8963612039
 20
6.1208143788
 11
39.8810498366
 21
6.1296543158
  0
LINE
  5
451
100
AcDbEntity
  8
7_ALL_ROUNDS
100
AcDbLine
 62
7
  6
CONTINUOUS
 10
34.3259472992
 20
10.4673112218
 11
35.1889516384
 21
10.9655622169
  0
LINE
  5
452
100
AcDbEntity
  8
7_ALL_ROUNDS
100
AcDbLine
 62
7
  6
CONTINUOUS
 10
38.9471963416
 20
13.1353649376
 11
39.8102006808
 21
13.6336159328
  0
LINE
  5
453
100
AcDbEntity
  8
7_ALL_ROUNDS
100
AcDbLine
 62
7
  6
CONTINUOUS
 10
34.3259472992
 20
10.4255218257
 11
35.1889516384
 21
10.9237728209
  0
LINE
  5
454
100
AcDbEntity
  8
7_ALL_ROUNDS
100
AcDbLine
 62
7
  6
CONTINUOUS
 10
38.9471963416
 20
13.0935755416
 11
39.8102006808
 21
13.5918265367
  0
LINE
  5
455
100
AcDbEntity
  8
0
100
AcDbLine
 62
9
  6
CONTINUOUS
 10
40.7373415824
 20
7.108827525
 11
40.664834251
 21
7.1080968259
  0
LINE
  5
456
100
AcDbEntity
  8
0
100
AcDbLine
 62
9
  6
CONTINUOUS
 10
40.1906355806
 20
6.343015592
 11
40.1496995996
 21
6.3666497643
  0
LINE
  5
457
100
AcDbEntity
  8
7_ALL_ROUNDS
100
AcDbLine
 62
9
  6
CONTINUOUS
 10
39.8963612039
 20
6.7003630414
 11
39.8810498366
 21
6.7092029784
  0
LINE
  5
458
100
AcDbEntity
  8
0
100
AcDbLine
 62
7
  6
CONTINUOUS
 10
36.9840285029
 20
8.5206118357
 11
36.9840285029
 21
8.4466767503
  0
LINE
  5
459
100
AcDbEntity
  8
0
100
AcDbLine
 62
7
  6
CONTINUOUS
 10
40.8825253306
 20
13.3430064188
 11
40.4769599784
 21
13.1088554057
  0
LINE
  5
45A
100
AcDbEntity
  8
0
100
AcDbLine
 62
7
  6
CONTINUOUS
 10
34.7569205307
 20
9.8064208554
 11
35.1624858829
 21
10.0405718685
  0
LINE
  5
45B
100
AcDbEntity
  8
0
100
AcDbLine
 62
7
  6
CONTINUOUS
 10
40.8825253306
 20
13.2690713335
 11
40.5269441406
 21
13.0637784123
  0
LINE
  5
45C
100
AcDbEntity
  8
0
100
AcDbLine
 62
7
  6
CONTINUOUS
 10
35.1624858829
 20
9.9666367831
 11
34.7569205307
 21
9.73248577
  0
LINE
  5
45D
100
AcDbEntity
  8
7_ALL_ROUNDS
100
AcDbLine
 62
9
  6
CONTINUOUS
 10
41.6485669802
 20
7.6472352813
 11
41.7334197702
 21
7.6466411744
  0
LINE
  5
45E
100
AcDbEntity
  8
0
100
AcDbLine
 62
7
  6
CONTINUOUS
 10
34.7569205307
 20
9.73248577
 11
36.9840285029
 21
8.4466767503
  0
LINE
  5
45F
100
AcDbEntity
  8
0
100
AcDbLine
 62
7
  6
CONTINUOUS
 10
40.3127754336
 20
6.5384920774
 11
40.2136691289
 21
6.5957105788
  0
LINE
  5
460
100
AcDbEntity
  8
0
100
AcDbLine
 62
7
  6
CONTINUOUS
 10
39.6453390132
 20
6.984118275
 11
36.9840285029
 21
8.5206118357
  0
LINE
  5
461
100
AcDbEntity
  8
0
100
AcDbLine
 62
7
  6
CONTINUOUS
 10
34.7569205307
 20
9.8064208554
 11
32.93077551
 21
10.8607360337
  0
LINE
  5
462
100
AcDbEntity
  8
7_ALL_ROUNDS
100
AcDbLine
 62
9
  6
CONTINUOUS
 10
39.9798777528
 20
6.8450179474
 11
39.9645663855
 21
6.8538578845
  0
LINE
  5
463
100
AcDbEntity
  8
0
100
AcDbLine
 62
9
  6
CONTINUOUS
 10
40.6091565517
 20
6.5846464632
 11
40.5682205708
 21
6.6082806355
  0
LINE
  5
464
100
AcDbEntity
  8
0
100
AcDbLine
 62
7
  6
CONTINUOUS
 10
40.5510759867
 20
6.6760736426
 11
40.4519696819
 21
6.7332921439
  0
LINE
  5
465
100
AcDbEntity
  8
0
100
AcDbLine
 62
9
  6
CONTINUOUS
 10
40.664834251
 20
6.6810830673
 11
40.6238982701
 21
6.7047172395
  0
LINE
  5
466
100
AcDbEntity
  8
7_ALL_ROUNDS
100
AcDbLine
 62
7
  6
CONTINUOUS
 10
33.8805257048
 20
10.6023205659
 11
34.1867530509
 21
10.4255218257
  0
LINE
  5
467
100
AcDbEntity
  8
7_ALL_ROUNDS
100
AcDbLine
 62
7
  6
CONTINUOUS
 10
38.8915186423
 20
7.7092502716
 11
39.1977459885
 21
7.5324515314
  0
LINE
  5
468
100
AcDbEntity
  8
7_ALL_ROUNDS
100
AcDbLine
 62
7
  6
CONTINUOUS
 10
33.8805257048
 20
10.644109962
 11
34.1867530509
 21
10.4673112218
  0
LINE
  5
469
100
AcDbEntity
  8
7_ALL_ROUNDS
100
AcDbLine
 62
7
  6
CONTINUOUS
 10
38.8915186423
 20
7.7510396677
 11
39.1977459885
 21
7.5742409275
  0
LINE
  5
46A
100
AcDbEntity
  8
7_ALL_ROUNDS
100
AcDbLine
 62
9
  6
CONTINUOUS
 10
42.2262231105
 20
7.9807419958
 11
42.3110759005
 21
7.9801478889
  0
LINE
  5
46B
100
AcDbEntity
  8
7_ALL_ROUNDS
100
AcDbLine
 62
9
  6
CONTINUOUS
 10
41.6359837965
 20
7.3272313741
 11
41.7334197702
 21
7.2957683582
  0
LINE
  5
46C
100
AcDbEntity
  8
0
100
AcDbLine
 62
9
  6
CONTINUOUS
 10
40.664834251
 20
7.1080968259
 11
40.6238982701
 21
7.1317309981
  0
LINE
  5
46D
100
AcDbEntity
  8
7_ALL_ROUNDS
100
AcDbLine
 62
9
  6
CONTINUOUS
 10
42.2136399268
 20
7.6607380886
 11
42.3110759005
 21
7.6292750727
  0
LINE
  5
46E
100
AcDbEntity
  8
7_ALL_ROUNDS
100
AcDbLine
 62
7
  6
CONTINUOUS
 10
40.199944576
 20
8.1528549863
 11
39.8937172298
 21
8.3296537265
  0
LINE
  5
46F
100
AcDbEntity
  8
7_ALL_ROUNDS
100
AcDbLine
 62
7
  6
CONTINUOUS
 10
35.1889516384
 20
11.0459252806
 11
34.8827242923
 21
11.2227240209
  0
LINE
  5
470
100
AcDbEntity
  8
0
100
AcDbLine
 62
9
  6
CONTINUOUS
 10
40.2262564362
 20
6.2798570409
 11
40.1906355806
 21
6.343015592
  0
LINE
  5
471
100
AcDbEntity
  8
7_ALL_ROUNDS
100
AcDbLine
 62
7
  6
CONTINUOUS
 10
38.4729466744
 20
13.3523452097
 11
38.4729466744
 21
13.3105558137
  0
LINE
  5
472
100
AcDbEntity
  8
7_ALL_ROUNDS
100
AcDbLine
 62
9
  6
CONTINUOUS
 10
38.5017747472
 20
13.3121636779
 11
38.5017747472
 21
13.2703742818
  0
LINE
  5
473
100
AcDbEntity
  8
7_ALL_ROUNDS
100
AcDbLine
 62
9
  6
CONTINUOUS
 10
38.8080020933
 20
13.1353649376
 11
38.8080020933
 21
13.0935755416
  0
LINE
  5
474
100
AcDbEntity
  8
7_ALL_ROUNDS
100
AcDbLine
 62
7
  6
CONTINUOUS
 10
38.8626905696
 20
7.7912211995
 11
38.8626905696
 21
7.7494318035
  0
LINE
  5
475
100
AcDbEntity
  8
7_ALL_ROUNDS
100
AcDbLine
 62
9
  6
CONTINUOUS
 10
38.8915186423
 20
7.7510396677
 11
38.8915186423
 21
7.7092502716
  0
LINE
  5
476
100
AcDbEntity
  8
7_ALL_ROUNDS
100
AcDbLine
 62
9
  6
CONTINUOUS
 10
41.6145136504
 20
7.2900439903
 11
41.6904794781
 21
7.2213935906
  0
LINE
  5
477
100
AcDbEntity
  8
0
100
AcDbLine
 62
9
  6
CONTINUOUS
 10
40.6447774073
 20
6.5214879122
 11
40.6091565517
 21
6.5846464632
  0
LINE
  5
478
100
AcDbEntity
  8
7_ALL_ROUNDS
100
AcDbLine
 62
9
  6
CONTINUOUS
 10
38.9471963416
 20
13.1353649376
 11
38.9471963416
 21
13.0935755416
  0
LINE
  5
479
100
AcDbEntity
  8
7_ALL_ROUNDS
100
AcDbLine
 62
9
  6
CONTINUOUS
 10
39.1977459885
 20
7.5742409275
 11
39.1977459885
 21
7.5324515314
  0
LINE
  5
47A
100
AcDbEntity
  8
7_ALL_ROUNDS
100
AcDbLine
 62
9
  6
CONTINUOUS
 10
39.3369402367
 20
7.5742409275
 11
39.3369402367
 21
7.5324515314
  0
LINE
  5
47B
100
AcDbEntity
  8
0
100
AcDbLine
 62
7
  6
CONTINUOUS
 10
39.6453390132
 20
6.984118275
 11
39.6453390132
 21
5.5825662225
  0
LINE
  5
47C
100
AcDbEntity
  8
7_ALL_ROUNDS
100
AcDbLine
 62
9
  6
CONTINUOUS
 10
39.8102006808
 20
13.6336159328
 11
39.8102006808
 21
13.5918265367
  0
LINE
  5
47D
100
AcDbEntity
  8
7_ALL_ROUNDS
100
AcDbLine
 62
7
  6
CONTINUOUS
 10
39.8390287536
 20
13.6737974646
 11
39.8390287536
 21
13.6320080686
  0
LINE
  5
47E
100
AcDbEntity
  8
7_ALL_ROUNDS
100
AcDbLine
 62
7
  6
CONTINUOUS
 10
39.8810498366
 20
6.7092029784
 11
39.8810498366
 21
6.1296543158
  0
LINE
  5
47F
100
AcDbEntity
  8
7_ALL_ROUNDS
100
AcDbLine
 62
7
  6
CONTINUOUS
 10
39.8963612039
 20
6.7003630414
 11
39.8963612039
 21
6.1208143788
  0
LINE
  5
480
100
AcDbEntity
  8
0
100
AcDbLine
 62
7
  6
CONTINUOUS
 10
43.1096333029
 20
12.0571973991
 11
42.7040679506
 21
11.823046386
  0
LINE
  5
481
100
AcDbEntity
  8
0
100
AcDbLine
 62
7
  6
CONTINUOUS
 10
36.9840285029
 20
8.5206118357
 11
37.3895938552
 21
8.7547628488
  0
LINE
  5
482
100
AcDbEntity
  8
7_ALL_ROUNDS
100
AcDbLine
 62
9
  6
CONTINUOUS
 10
42.1921697807
 20
7.6235507048
 11
42.2681356084
 21
7.5549003051
  0
LINE
  5
483
100
AcDbEntity
  8
7_ALL_ROUNDS
100
AcDbLine
 62
9
  6
CONTINUOUS
 10
41.3436758751
 20
7.119145692
 11
41.3866161672
 21
7.0459597137
  0
LINE
  5
484
100
AcDbEntity
  8
0
100
AcDbLine
 62
7
  6
CONTINUOUS
 10
40.1336922611
 20
6.3333000204
 11
40.1336922611
 21
6.760313779
  0
LINE
  5
485
100
AcDbEntity
  8
0
100
AcDbLine
 62
7
  6
CONTINUOUS
 10
40.1349578813
 20
6.375161745
 11
40.1349578813
 21
6.772745988
  0
LINE
  5
486
100
AcDbEntity
  8
0
100
AcDbLine
 62
7
  6
CONTINUOUS
 10
40.1668998615
 20
6.8560927026
 11
40.1668998615
 21
6.4542715867
  0
LINE
  5
487
100
AcDbEntity
  8
0
100
AcDbLine
 62
7
  6
CONTINUOUS
 10
40.1913980491
 20
6.8702366018
 11
40.1913980491
 21
6.575138191
  0
LINE
  5
488
100
AcDbEntity
  8
7_ALL_ROUNDS
100
AcDbLine
 62
9
  6
CONTINUOUS
 10
40.199944576
 20
8.0724919226
 11
40.199944576
 21
8.0307025265
  0
LINE
  5
489
100
AcDbEntity
  8
0
100
AcDbLine
 62
7
  6
CONTINUOUS
 10
40.2136691289
 20
6.5879962812
 11
40.2136691289
 21
6.883094692
  0
LINE
  5
48A
100
AcDbEntity
  8
7_ALL_ROUNDS
100
AcDbLine
 62
7
  6
CONTINUOUS
 10
40.2287726487
 20
8.1126734545
 11
40.2287726487
 21
8.0708840584
  0
LINE
  5
48B
100
AcDbEntity
  8
0
100
AcDbLine
 62
7
  6
CONTINUOUS
 10
40.3127754336
 20
6.5384920774
 11
40.3127754336
 21
6.9403131934
  0
LINE
  5
48C
100
AcDbEntity
  8
0
100
AcDbLine
 62
7
  6
CONTINUOUS
 10
40.4052004145
 20
6.9936742677
 11
40.4052004145
 21
6.5918531518
  0
LINE
  5
48D
100
AcDbEntity
  8
0
100
AcDbLine
 62
7
  6
CONTINUOUS
 10
40.4296986022
 20
7.0078181669
 11
40.4296986022
 21
6.7127197562
  0
LINE
  5
48E
100
AcDbEntity
  8
0
100
AcDbLine
 62
7
  6
CONTINUOUS
 10
40.4519696819
 20
6.7255778464
 11
40.4519696819
 21
7.0206762571
  0
LINE
  5
48F
100
AcDbEntity
  8
0
100
AcDbLine
 62
7
  6
CONTINUOUS
 10
40.1336922611
 20
6.760313779
 11
40.1337746752
 21
6.7643308213
  0
LINE
  5
490
100
AcDbEntity
  8
0
100
AcDbLine
 62
9
  6
CONTINUOUS
 10
40.1336922611
 20
6.760313779
 11
40.1338136741
 21
6.7643296422
  0
LINE
  5
491
100
AcDbEntity
  8
7_ALL_ROUNDS
100
AcDbLine
 62
9
  6
CONTINUOUS
 10
41.9213320054
 20
7.4526524065
 11
41.9642722975
 21
7.3794664282
  0
LINE
  5
492
100
AcDbEntity
  8
0
100
AcDbLine
 62
7
  6
CONTINUOUS
 10
40.5510759867
 20
6.6760736426
 11
40.5510759867
 21
7.0778947585
  0
LINE
  5
493
100
AcDbEntity
  8
7_ALL_ROUNDS
100
AcDbLine
 62
7
  6
CONTINUOUS
 10
40.6238982701
 20
6.7047172395
 11
40.6238982701
 21
7.1317309981
  0
LINE
  5
494
100
AcDbEntity
  8
0
100
AcDbLine
 62
7
  6
CONTINUOUS
 10
40.664834251
 20
7.1080968259
 11
40.664834251
 21
6.6810830673
  0
LINE
  5
495
100
AcDbEntity
  8
0
100
AcDbLine
 62
7
  6
CONTINUOUS
 10
40.7373415824
 20
7.108827525
 11
40.7373415824
 21
6.6818137664
  0
LINE
  5
496
100
AcDbEntity
  8
0
100
AcDbLine
 62
7
  6
CONTINUOUS
 10
40.8825253306
 20
13.3430064188
 11
40.8825253306
 21
13.2690713335
  0
LINE
  5
497
100
AcDbEntity
  8
7_ALL_ROUNDS
100
AcDbLine
 62
7
  6
CONTINUOUS
 10
41.3461404936
 20
7.055447093
 11
41.3436758751
 21
7.0707517798
  0
LINE
  5
498
100
AcDbEntity
  8
7_ALL_ROUNDS
100
AcDbLine
 62
7
  6
CONTINUOUS
 10
41.3436758751
 20
7.4216245959
 11
41.3436758751
 21
7.0707517798
  0
LINE
  5
499
100
AcDbEntity
  8
7_ALL_ROUNDS
100
AcDbLine
 62
7
  6
CONTINUOUS
 10
44.3757720239
 20
10.9977074424
 11
43.5127676847
 21
10.4994564473
  0
LINE
  5
49A
100
AcDbEntity
  8
7_ALL_ROUNDS
100
AcDbLine
 62
7
  6
CONTINUOUS
 10
39.7545229815
 20
8.3296537265
 11
38.8915186423
 21
7.8314027314
  0
LINE
  5
49B
100
AcDbEntity
  8
7_ALL_ROUNDS
100
AcDbLine
 62
7
  6
CONTINUOUS
 10
39.3369402367
 20
7.5742409275
 11
40.199944576
 21
8.0724919226
  0
LINE
  5
49C
100
AcDbEntity
  8
7_ALL_ROUNDS
100
AcDbLine
 62
7
  6
CONTINUOUS
 10
43.9581892791
 20
10.2422946433
 11
44.8211936184
 21
10.7405456385
  0
LINE
  5
49D
100
AcDbEntity
  8
7_ALL_ROUNDS
100
AcDbLine
 62
7
  6
CONTINUOUS
 10
39.3369402367
 20
7.5324515314
 11
40.199944576
 21
8.0307025265
  0
LINE
  5
49E
100
AcDbEntity
  8
7_ALL_ROUNDS
100
AcDbLine
 62
7
  6
CONTINUOUS
 10
43.9581892791
 20
10.2005052473
 11
44.8211936184
 21
10.6987562424
  0
LINE
  5
49F
100
AcDbEntity
  8
7_ALL_ROUNDS
100
AcDbLine
 62
7
  6
CONTINUOUS
 10
41.9237966239
 20
7.3889538074
 11
41.9213320054
 21
7.4042584943
  0
LINE
  5
4A0
100
AcDbEntity
  8
7_ALL_ROUNDS
100
AcDbLine
 62
7
  6
CONTINUOUS
 10
41.6359837965
 20
7.3272313741
 11
41.6359837965
 21
7.6399704466
  0
LINE
  5
4A1
100
AcDbEntity
  8
7_ALL_ROUNDS
100
AcDbLine
 62
7
  6
CONTINUOUS
 10
41.7334197702
 20
7.2957683582
 11
41.7334197702
 21
7.6466411744
  0
LINE
  5
4A2
100
AcDbEntity
  8
7_ALL_ROUNDS
100
AcDbLine
 62
7
  6
CONTINUOUS
 10
41.9213320054
 20
7.7551313104
 11
41.9213320054
 21
7.4042584943
  0
LINE
  5
4A3
100
AcDbEntity
  8
7_ALL_ROUNDS
100
AcDbLine
 62
9
  6
CONTINUOUS
 10
44.590866311
 20
9.5071478269
 11
44.5755549437
 21
9.5159877639
  0
LINE
  5
4A4
100
AcDbEntity
  8
7_ALL_ROUNDS
100
AcDbLine
 62
7
  6
CONTINUOUS
 10
44.6499210031
 20
9.5129974701
 11
44.6346096358
 21
9.5218374071
  0
LINE
  5
4A5
100
AcDbEntity
  8
7_ALL_ROUNDS
100
AcDbLine
 62
7
  6
CONTINUOUS
 10
38.5017747472
 20
13.2703742818
 11
38.8080020933
 21
13.0935755416
  0
LINE
  5
4A6
100
AcDbEntity
  8
7_ALL_ROUNDS
100
AcDbLine
 62
7
  6
CONTINUOUS
 10
43.5127676847
 20
10.3773039875
 11
43.8189950309
 21
10.2005052473
  0
LINE
  5
4A7
100
AcDbEntity
  8
7_ALL_ROUNDS
100
AcDbLine
 62
7
  6
CONTINUOUS
 10
38.5017747472
 20
13.3121636779
 11
38.8080020933
 21
13.1353649376
  0
LINE
  5
4A8
100
AcDbEntity
  8
7_ALL_ROUNDS
100
AcDbLine
 62
7
  6
CONTINUOUS
 10
43.5127676847
 20
10.4190933835
 11
43.8189950309
 21
10.2422946433
  0
LINE
  5
4A9
100
AcDbEntity
  8
7_ALL_ROUNDS
100
AcDbLine
 62
7
  6
CONTINUOUS
 10
42.2136399268
 20
7.6607380886
 11
42.2136399268
 21
7.9734771611
  0
LINE
  5
4AA
100
AcDbEntity
  8
7_ALL_ROUNDS
100
AcDbLine
 62
7
  6
CONTINUOUS
 10
42.3110759005
 20
7.6292750727
 11
42.3110759005
 21
7.9801478889
  0
LINE
  5
4AB
100
AcDbEntity
  8
0
100
AcDbLine
 62
9
  6
CONTINUOUS
 10
40.2262564362
 20
6.9206396332
 11
40.2228377464
 21
6.918525555
  0
LINE
  5
4AC
100
AcDbEntity
  8
0
100
AcDbLine
 62
9
  6
CONTINUOUS
 10
40.6447774073
 20
7.1622705044
 11
40.6091565517
 21
7.1402429789
  0
LINE
  5
4AD
100
AcDbEntity
  8
0
100
AcDbLine
 62
7
  6
CONTINUOUS
 10
40.22281726
 20
6.9185586837
 11
40.2262564362
 21
6.9206396332
  0
LINE
  5
4AE
100
AcDbEntity
  8
0
100
AcDbLine
 62
7
  6
CONTINUOUS
 10
45.7709438132
 20
10.5207038384
 11
39.6453390132
 21
6.984118275
  0
LINE
  5
4AF
100
AcDbEntity
  8
7_ALL_ROUNDS
100
AcDbLine
 62
7
  6
CONTINUOUS
 10
44.5755549437
 20
9.5159877639
 11
39.9645663855
 21
6.8538578845
  0
LINE
  5
4B0
100
AcDbEntity
  8
7_ALL_ROUNDS
100
AcDbLine
 62
7
  6
CONTINUOUS
 10
44.590866311
 20
9.5071478269
 11
39.9798777528
 21
6.8450179474
  0
LINE
  5
4B1
100
AcDbEntity
  8
0
100
AcDbLine
 62
7
  6
CONTINUOUS
 10
40.2262564362
 20
6.9206396332
 11
40.6447774073
 21
7.1622705044
  0
LINE
  5
4B2
100
AcDbEntity
  8
0
100
AcDbLine
 62
7
  6
CONTINUOUS
 10
40.2161204156
 20
6.9133256425
 11
40.6091565517
 21
7.1402429789
  0
LINE
  5
4B3
100
AcDbEntity
  8
0
100
AcDbLine
 62
7
  6
CONTINUOUS
 10
40.5510759867
 20
7.0778947585
 11
40.4052004145
 21
6.9936742677
  0
LINE
  5
4B4
100
AcDbEntity
  8
0
100
AcDbLine
 62
7
  6
CONTINUOUS
 10
40.3127754336
 20
6.9403131934
 11
40.1668998615
 21
6.8560927026
  0
LINE
  5
4B5
100
AcDbEntity
  8
7_ALL_ROUNDS
100
AcDbLine
 62
7
  6
CONTINUOUS
 10
42.2681356084
 20
8.004939955
 11
41.9642722975
 21
7.829506078
  0
LINE
  5
4B6
100
AcDbEntity
  8
7_ALL_ROUNDS
100
AcDbLine
 62
7
  6
CONTINUOUS
 10
41.6904794781
 20
7.6714332405
 11
41.3866161672
 21
7.4959993635
  0
LINE
  5
4B7
100
AcDbEntity
  8
7_ALL_ROUNDS
100
AcDbLine
 62
7
  6
CONTINUOUS
 10
42.2681356084
 20
8.004939955
 11
42.2826215886
 21
8.0104576423
  0
LINE
  5
4B8
100
AcDbEntity
  8
7_ALL_ROUNDS
100
AcDbLine
 62
7
  6
CONTINUOUS
 10
41.6904794781
 20
7.6714332405
 11
41.7049654583
 21
7.6769509278
  0
LINE
  5
4B9
100
AcDbEntity
  8
0
100
AcDbLine
 62
7
  6
CONTINUOUS
 10
40.1668998615
 20
6.5609940878
 11
40.2136691289
 21
6.5879962812
  0
LINE
  5
4BA
100
AcDbEntity
  8
0
100
AcDbLine
 62
7
  6
CONTINUOUS
 10
40.4052004145
 20
6.6985756529
 11
40.4519696819
 21
6.7255778464
  0
LINE
  5
4BB
100
AcDbEntity
  8
7_ALL_ROUNDS
100
AcDbLine
 62
7
  6
CONTINUOUS
 10
41.3436758751
 20
7.1336772319
 11
41.6145136504
 21
7.2900439903
  0
LINE
  5
4BC
100
AcDbEntity
  8
7_ALL_ROUNDS
100
AcDbLine
 62
7
  6
CONTINUOUS
 10
41.9213320054
 20
7.4671839464
 11
42.1921697807
 21
7.6235507048
  0
LINE
  5
4BD
100
AcDbEntity
  8
0
100
AcDbLine
 62
7
  6
CONTINUOUS
 10
40.1668998615
 20
6.4542715867
 11
40.3127754336
 21
6.5384920774
  0
LINE
  5
4BE
100
AcDbEntity
  8
0
100
AcDbLine
 62
7
  6
CONTINUOUS
 10
40.4052004145
 20
6.5918531518
 11
40.5510759867
 21
6.6760736426
  0
LINE
  5
4BF
100
AcDbEntity
  8
7_ALL_ROUNDS
100
AcDbLine
 62
7
  6
CONTINUOUS
 10
40.1496995996
 20
6.3666497643
 11
40.5682205708
 21
6.6082806355
  0
LINE
  5
4C0
100
AcDbEntity
  8
7_ALL_ROUNDS
100
AcDbLine
 62
7
  6
CONTINUOUS
 10
41.3866161672
 20
7.0459597137
 11
41.6904794781
 21
7.2213935906
  0
LINE
  5
4C1
100
AcDbEntity
  8
7_ALL_ROUNDS
100
AcDbLine
 62
7
  6
CONTINUOUS
 10
41.9642722975
 20
7.3794664282
 11
42.2681356084
 21
7.5549003051
  0
LINE
  5
4C2
100
AcDbEntity
  8
0
100
AcDbLine
 62
7
  6
CONTINUOUS
 10
40.6091565517
 20
6.5846464632
 11
40.1906355806
 21
6.343015592
  0
LINE
  5
4C3
100
AcDbEntity
  8
0
100
AcDbLine
 62
7
  6
CONTINUOUS
 10
40.6447774073
 20
6.5214879122
 11
40.2262564362
 21
6.2798570409
  0
LINE
  5
4C4
100
AcDbEntity
  8
7_ALL_ROUNDS
100
AcDbLine
 62
7
  6
CONTINUOUS
 10
44.8211936184
 20
10.8209087022
 11
44.5149662722
 21
10.9977074424
  0
LINE
  5
4C5
100
AcDbEntity
  8
7_ALL_ROUNDS
100
AcDbLine
 62
7
  6
CONTINUOUS
 10
39.8102006808
 20
13.7139789965
 11
39.5039733347
 21
13.8907777367
  0
LINE
  5
4C6
100
AcDbEntity
  8
0
100
AcDbLine
 62
7
  6
CONTINUOUS
 10
40.8825253306
 20
13.2690713335
 11
43.0456030249
 21
12.0202298564
  0
LINE
  5
4C7
100
AcDbEntity
  8
0
100
AcDbLine
 62
7
  6
CONTINUOUS
 10
39.0563803099
 20
14.3973215971
 11
40.8825253306
 21
13.3430064188
  0
LINE
  5
4C8
100
AcDbEntity
  8
0
100
AcDbLine
 62
7
  6
CONTINUOUS
 10
43.1096333029
 20
12.0571973991
 11
45.7709438132
 21
10.5207038384
  0
LINE
  5
4C9
100
AcDbEntity
  8
7_ALL_ROUNDS
100
AcDbLine
 62
7
  6
CONTINUOUS
 10
43.483939612
 20
10.4592749154
 11
43.483939612
 21
10.4174855193
  0
LINE
  5
4CA
100
AcDbEntity
  8
7_ALL_ROUNDS
100
AcDbLine
 62
9
  6
CONTINUOUS
 10
43.5127676847
 20
10.4190933835
 11
43.5127676847
 21
10.3773039875
  0
LINE
  5
4CB
100
AcDbEntity
  8
7_ALL_ROUNDS
100
AcDbLine
 62
7
  6
CONTINUOUS
 10
39.9798777528
 20
6.0725951492
 11
44.590866311
 21
8.7347250287
  0
LINE
  5
4CC
100
AcDbEntity
  8
0
100
AcDbLine
 62
7
  6
CONTINUOUS
 10
45.7709438132
 20
9.119151786
 11
39.6453390132
 21
5.5825662225
  0
LINE
  5
4CD
100
AcDbEntity
  8
7_ALL_ROUNDS
100
AcDbLine
 62
9
  6
CONTINUOUS
 10
43.8189950309
 20
10.2422946433
 11
43.8189950309
 21
10.2005052473
  0
LINE
  5
4CE
100
AcDbEntity
  8
7_ALL_ROUNDS
100
AcDbLine
 62
9
  6
CONTINUOUS
 10
43.9581892791
 20
10.2422946433
 11
43.9581892791
 21
10.2005052473
  0
LINE
  5
4CF
100
AcDbEntity
  8
7_ALL_ROUNDS
100
AcDbLine
 62
7
  6
CONTINUOUS
 10
44.6743828599
 20
8.8793799348
 11
44.6743828599
 21
9.4589285973
  0
LINE
  5
4D0
100
AcDbEntity
  8
7_ALL_ROUNDS
100
AcDbLine
 62
9
  6
CONTINUOUS
 10
44.8211936184
 20
10.7405456385
 11
44.8211936184
 21
10.6987562424
  0
LINE
  5
4D1
100
AcDbEntity
  8
7_ALL_ROUNDS
100
AcDbLine
 62
7
  6
CONTINUOUS
 10
44.8500216911
 20
10.7807271703
 11
44.8500216911
 21
10.7389377743
  0
LINE
  5
4D2
100
AcDbEntity
  8
0
100
AcDbLine
 62
7
  6
CONTINUOUS
 10
45.7709438132
 20
10.5207038384
 11
45.7709438132
 21
9.119151786
  0
LINE
  5
4D3
100
AcDbEntity
  8
0
100
AcDbLine
 62
7
  6
CONTINUOUS
 10
20.6918951893
 20
6.576927121
 11
20.0918951893
 21
6.576927121
  0
LINE
  5
4D4
100
AcDbEntity
  8
0
100
AcDbLine
 62
7
  6
CONTINUOUS
 10
19.5166904649
 20
6.5779723178
 11
19.0426904649
 21
6.5779723178
  0
LINE
  5
4D5
100
AcDbEntity
  8
0
100
AcDbLine
 62
7
  6
CONTINUOUS
 10
18.8111865279
 20
6.5892321604
 11
18.0749660555
 21
6.5892321604
  0
LINE
  5
4D6
100
AcDbEntity
  8
0
100
AcDbLine
 62
7
  6
CONTINUOUS
 10
17.8761471578
 20
6.5892321604
 11
17.1399266854
 21
6.5892321604
  0
LINE
  5
4D7
100
AcDbEntity
  8
0
100
AcDbLine
 62
7
  6
CONTINUOUS
 10
24.3761471578
 20
6.5892715304
 11
22.6674857405
 21
6.5892715304
  0
LINE
  5
4D8
100
AcDbEntity
  8
0
100
AcDbLine
 62
7
  6
CONTINUOUS
 10
22.4470132996
 20
6.5892715304
 11
21.0139424334
 21
6.5892715304
  0
LINE
  5
4D9
100
AcDbEntity
  8
0
100
AcDbLine
 62
7
  6
CONTINUOUS
 10
16.9698479452
 20
6.5892715304
 11
16.4911077878
 21
6.5892715304
  0
LINE
  5
4DA
100
AcDbEntity
  8
0
100
AcDbLine
 62
7
  6
CONTINUOUS
 10
24.7299660555
 20
6.5991140501
 11
16.0670526697
 21
6.5991140501
  0
LINE
  5
4DB
100
AcDbEntity
  8
0
100
AcDbLine
 62
7
  6
CONTINUOUS
 10
16.0670526697
 20
6.5991140501
 11
16.0670526697
 21
16.0949408218
  0
LINE
  5
4DC
100
AcDbEntity
  8
7_ALL_ROUNDS
100
AcDbLine
 62
7
  6
CONTINUOUS
 10
16.4221314098
 20
15.1068699556
 11
16.4221314098
 21
14.6737990895
  0
LINE
  5
4DD
100
AcDbEntity
  8
7_ALL_ROUNDS
100
AcDbLine
 62
7
  6
CONTINUOUS
 10
16.4221314098
 20
8.0202557824
 11
16.4221314098
 21
7.5871849163
  0
LINE
  5
4DE
100
AcDbEntity
  8
0
100
AcDbLine
 62
7
  6
CONTINUOUS
 10
16.4911077878
 20
6.5991140501
 11
16.4911077878
 21
6.5892715304
  0
LINE
  5
4DF
100
AcDbEntity
  8
7_ALL_ROUNDS
100
AcDbLine
 62
7
  6
CONTINUOUS
 10
16.5205566067
 20
7.4887597194
 11
17.7410290476
 21
7.4887597194
  0
LINE
  5
4E0
100
AcDbEntity
  8
7_ALL_ROUNDS
100
AcDbLine
 62
7
  6
CONTINUOUS
 10
23.0559896775
 20
7.4887597194
 11
24.2764621185
 21
7.4887597194
  0
LINE
  5
4E1
100
AcDbEntity
  8
0
100
AcDbLine
 62
7
  6
CONTINUOUS
 10
16.9698479452
 20
6.5991140501
 11
16.9698479452
 21
6.5892715304
  0
LINE
  5
4E2
100
AcDbEntity
  8
0
100
AcDbLine
 62
7
  6
CONTINUOUS
 10
17.1399266854
 20
6.5991140501
 11
17.1399266854
 21
6.5892321604
  0
LINE
  5
4E3
100
AcDbEntity
  8
7_ALL_ROUNDS
100
AcDbLine
 62
7
  6
CONTINUOUS
 10
24.2764621185
 20
8.1186809793
 11
23.0559896775
 21
8.1186809793
  0
LINE
  5
4E4
100
AcDbEntity
  8
7_ALL_ROUNDS
100
AcDbLine
 62
7
  6
CONTINUOUS
 10
17.7410290476
 20
8.1186809793
 11
16.5205566067
 21
8.1186809793
  0
LINE
  5
4E5
100
AcDbEntity
  8
7_ALL_ROUNDS
100
AcDbLine
 62
7
  6
CONTINUOUS
 10
17.639477585
 20
16.1165943651
 11
17.639477585
 21
16.0949408218
  0
LINE
  5
4E6
100
AcDbEntity
  8
7_ALL_ROUNDS
100
AcDbLine
 62
9
  6
CONTINUOUS
 10
17.7575878212
 20
16.1165943651
 11
17.7575878212
 21
16.0949408218
  0
LINE
  5
4E7
100
AcDbEntity
  8
7_ALL_ROUNDS
100
AcDbLine
 62
7
  6
CONTINUOUS
 10
17.8394542445
 20
7.5871849163
 11
17.8394542445
 21
8.0202557824
  0
LINE
  5
4E8
100
AcDbEntity
  8
7_ALL_ROUNDS
100
AcDbLine
 62
7
  6
CONTINUOUS
 10
17.8394542445
 20
14.6737990895
 11
17.8394542445
 21
15.1068699556
  0
LINE
  5
4E9
100
AcDbEntity
  8
0
100
AcDbLine
 62
7
  6
CONTINUOUS
 10
17.8761471578
 20
6.5991140501
 11
17.8761471578
 21
6.5892321604
  0
LINE
  5
4EA
100
AcDbEntity
  8
0
100
AcDbLine
 62
7
  6
CONTINUOUS
 10
18.0749660555
 20
6.5991140501
 11
18.0749660555
 21
6.5892321604
  0
LINE
  5
4EB
100
AcDbEntity
  8
0
100
AcDbLine
 62
7
  6
CONTINUOUS
 10
24.7299660555
 20
9.1816731052
 11
24.1564100339
 21
9.1816731052
  0
LINE
  5
4EC
100
AcDbEntity
  8
0
100
AcDbLine
 62
7
  6
CONTINUOUS
 10
16.0670526697
 20
9.1816731052
 11
16.6406086912
 21
9.1816731052
  0
LINE
  5
4ED
100
AcDbEntity
  8
0
100
AcDbLine
 62
7
  6
CONTINUOUS
 10
18.8111865279
 20
6.5991140501
 11
18.8111865279
 21
6.5892321604
  0
LINE
  5
4EE
100
AcDbEntity
  8
0
100
AcDbLine
 62
7
  6
CONTINUOUS
 10
19.0426904649
 20
6.5991140501
 11
19.0426904649
 21
6.5779723178
  0
LINE
  5
4EF
100
AcDbEntity
  8
0
100
AcDbLine
 62
7
  6
CONTINUOUS
 10
19.5166904649
 20
6.5991140501
 11
19.5166904649
 21
6.5779723178
  0
LINE
  5
4F0
100
AcDbEntity
  8
0
100
AcDbLine
 62
7
  6
CONTINUOUS
 10
20.0918951893
 20
6.5991140501
 11
20.0918951893
 21
6.576927121
  0
LINE
  5
4F1
100
AcDbEntity
  8
0
100
AcDbLine
 62
7
  6
CONTINUOUS
 10
20.6918951893
 20
6.5991140501
 11
20.6918951893
 21
6.576927121
  0
LINE
  5
4F2
100
AcDbEntity
  8
0
100
AcDbLine
 62
7
  6
CONTINUOUS
 10
21.0139424334
 20
6.5991140501
 11
21.0139424334
 21
6.5892715304
  0
LINE
  5
4F3
100
AcDbEntity
  8
0
100
AcDbLine
 62
7
  6
CONTINUOUS
 10
24.7299660555
 20
12.3312794045
 11
24.1564100339
 21
12.3312794045
  0
LINE
  5
4F4
100
AcDbEntity
  8
0
100
AcDbLine
 62
7
  6
CONTINUOUS
 10
16.0670526697
 20
12.3312794045
 11
16.6406086912
 21
12.3312794045
  0
LINE
  5
4F5
100
AcDbEntity
  8
0
100
AcDbLine
 62
7
  6
CONTINUOUS
 10
22.4470132996
 20
6.5991140501
 11
22.4470132996
 21
6.5892715304
  0
LINE
  5
4F6
100
AcDbEntity
  8
0
100
AcDbLine
 62
7
  6
CONTINUOUS
 10
22.6674857405
 20
6.5991140501
 11
22.6674857405
 21
6.5892715304
  0
LINE
  5
4F7
100
AcDbEntity
  8
7_ALL_ROUNDS
100
AcDbLine
 62
7
  6
CONTINUOUS
 10
22.9575644807
 20
15.1068699556
 11
22.9575644807
 21
14.6737990895
  0
LINE
  5
4F8
100
AcDbEntity
  8
7_ALL_ROUNDS
100
AcDbLine
 62
7
  6
CONTINUOUS
 10
22.9575644807
 20
8.0202557824
 11
22.9575644807
 21
7.5871849163
  0
LINE
  5
4F9
100
AcDbEntity
  8
7_ALL_ROUNDS
100
AcDbLine
 62
7
  6
CONTINUOUS
 10
16.5205566067
 20
14.5753738926
 11
17.7410290476
 21
14.5753738926
  0
LINE
  5
4FA
100
AcDbEntity
  8
7_ALL_ROUNDS
100
AcDbLine
 62
7
  6
CONTINUOUS
 10
23.0559896775
 20
14.5753738926
 11
24.2764621185
 21
14.5753738926
  0
LINE
  5
4FB
100
AcDbEntity
  8
7_ALL_ROUNDS
100
AcDbLine
 62
9
  6
CONTINUOUS
 10
24.2785103761
 20
16.1165943651
 11
24.2785103761
 21
16.0949408218
  0
LINE
  5
4FC
100
AcDbEntity
  8
7_ALL_ROUNDS
100
AcDbLine
 62
7
  6
CONTINUOUS
 10
24.2764621185
 20
15.2052951525
 11
23.0559896775
 21
15.2052951525
  0
LINE
  5
4FD
100
AcDbEntity
  8
7_ALL_ROUNDS
100
AcDbLine
 62
7
  6
CONTINUOUS
 10
17.7410290476
 20
15.2052951525
 11
16.5205566067
 21
15.2052951525
  0
LINE
  5
4FE
100
AcDbEntity
  8
7_ALL_ROUNDS
100
AcDbLine
 62
7
  6
CONTINUOUS
 10
24.3748873153
 20
7.5871849163
 11
24.3748873153
 21
8.0202557824
  0
LINE
  5
4FF
100
AcDbEntity
  8
7_ALL_ROUNDS
100
AcDbLine
 62
7
  6
CONTINUOUS
 10
24.3748873153
 20
14.6737990895
 11
24.3748873153
 21
15.1068699556
  0
LINE
  5
500
100
AcDbEntity
  8
0
100
AcDbLine
 62
7
  6
CONTINUOUS
 10
24.3761471578
 20
6.5991140501
 11
24.3761471578
 21
6.5892715304
  0
LINE
  5
501
100
AcDbEntity
  8
7_ALL_ROUNDS
100
AcDbLine
 62
7
  6
CONTINUOUS
 10
24.3966206123
 20
16.1165943651
 11
24.3966206123
 21
16.0949408218
  0
LINE
  5
502
100
AcDbEntity
  8
0
100
AcDbLine
 62
7
  6
CONTINUOUS
 10
24.7299660555
 20
6.5991140501
 11
24.7299660555
 21
16.0949408218
  0
LINE
  5
503
100
AcDbEntity
  8
0
100
AcDbLine
 62
7
  6
CONTINUOUS
 10
16.0670526697
 20
16.0949408218
 11
24.7299660555
 21
16.0949408218
  0
LINE
  5
504
100
AcDbEntity
  8
7_ALL_ROUNDS
100
AcDbLine
 62
7
  6
CONTINUOUS
 10
17.639477585
 20
16.1165943651
 11
24.3966206123
 21
16.1165943651
  0
LINE
  5
505
100
AcDbEntity
  8
0
100
AcDbLine
 62
7
  6
CONTINUOUS
 10
9.424587206
 20
25.7785522271
 11
9.424587206
 21
27.4950876602
  0
LINE
  5
506
100
AcDbEntity
  8
0
100
AcDbLine
 62
7
  6
CONTINUOUS
 10
9.7784061037
 20
27.18500892
 11
9.7784061037
 21
26.8857963216
  0
LINE
  5
507
100
AcDbEntity
  8
0
100
AcDbLine
 62
7
  6
CONTINUOUS
 10
9.7784061037
 20
26.3582372665
 11
9.7784061037
 21
26.0826467153
  0
LINE
  5
508
100
AcDbEntity
  8
7_ALL_ROUNDS
100
AcDbLine
 62
7
  6
CONTINUOUS
 10
9.7796659462
 20
25.7273711248
 11
9.7796659462
 21
25.7785522271
  0
LINE
  5
509
100
AcDbEntity
  8
0
100
AcDbLine
 62
7
  6
CONTINUOUS
 10
9.8138391745
 20
27.0787097074
 11
9.8138391745
 21
26.905481361
  0
LINE
  5
50A
100
AcDbEntity
  8
0
100
AcDbLine
 62
7
  6
CONTINUOUS
 10
9.8138391745
 20
26.1062687625
 11
9.8138391745
 21
26.279497109
  0
LINE
  5
50B
100
AcDbEntity
  8
0
100
AcDbLine
 62
7
  6
CONTINUOUS
 10
9.8473037414
 20
27.1023317547
 11
9.8473037414
 21
27.0787097074
  0
LINE
  5
50C
100
AcDbEntity
  8
0
100
AcDbLine
 62
7
  6
CONTINUOUS
 10
9.8473037414
 20
26.3031191562
 11
9.8473037414
 21
26.279497109
  0
LINE
  5
50D
100
AcDbEntity
  8
0
100
AcDbLine
 62
7
  6
CONTINUOUS
 10
9.8591147651
 20
27.0078435657
 11
9.8591147651
 21
26.9763475027
  0
LINE
  5
50E
100
AcDbEntity
  8
0
100
AcDbLine
 62
7
  6
CONTINUOUS
 10
9.8591147651
 20
26.2086309673
 11
9.8591147651
 21
26.1771349043
  0
LINE
  5
50F
100
AcDbEntity
  8
7_ALL_ROUNDS
100
AcDbLine
 62
7
  6
CONTINUOUS
 10
9.878091143
 20
25.7273711248
 11
9.878091143
 21
25.7785522271
  0
LINE
  5
510
100
AcDbEntity
  8
0
100
AcDbLine
 62
7
  6
CONTINUOUS
 10
9.8906108281
 20
26.1771349043
 11
9.8906108281
 21
26.2086309673
  0
LINE
  5
511
100
AcDbEntity
  8
0
100
AcDbLine
 62
7
  6
CONTINUOUS
 10
9.8906108281
 20
26.9763475027
 11
9.8906108281
 21
27.0078435657
  0
LINE
  5
512
100
AcDbEntity
  8
0
100
AcDbLine
 62
7
  6
CONTINUOUS
 10
9.9024218517
 20
26.279497109
 11
9.9024218517
 21
26.3031191562
  0
LINE
  5
513
100
AcDbEntity
  8
0
100
AcDbLine
 62
7
  6
CONTINUOUS
 10
9.9024218517
 20
27.0787097074
 11
9.9024218517
 21
27.1023317547
  0
LINE
  5
514
100
AcDbEntity
  8
0
100
AcDbLine
 62
7
  6
CONTINUOUS
 10
9.9358864186
 20
26.1062687625
 11
9.9358864186
 21
26.279497109
  0
LINE
  5
515
100
AcDbEntity
  8
0
100
AcDbLine
 62
7
  6
CONTINUOUS
 10
9.9358864186
 20
26.905481361
 11
9.9358864186
 21
27.0787097074
  0
LINE
  5
516
100
AcDbEntity
  8
0
100
AcDbLine
 62
7
  6
CONTINUOUS
 10
9.9516344501
 20
27.0787097074
 11
9.9516344501
 21
26.905481361
  0
LINE
  5
517
100
AcDbEntity
  8
0
100
AcDbLine
 62
7
  6
CONTINUOUS
 10
9.9516344501
 20
26.1062687625
 11
9.9516344501
 21
26.279497109
  0
LINE
  5
518
100
AcDbEntity
  8
0
100
AcDbLine
 62
7
  6
CONTINUOUS
 10
9.985099017
 20
27.1023317547
 11
9.985099017
 21
27.0787097074
  0
LINE
  5
519
100
AcDbEntity
  8
0
100
AcDbLine
 62
7
  6
CONTINUOUS
 10
9.985099017
 20
26.3031191562
 11
9.985099017
 21
26.279497109
  0
LINE
  5
51A
100
AcDbEntity
  8
0
100
AcDbLine
 62
7
  6
CONTINUOUS
 10
9.9969100407
 20
27.0078435657
 11
9.9969100407
 21
26.9763475027
  0
LINE
  5
51B
100
AcDbEntity
  8
0
100
AcDbLine
 62
7
  6
CONTINUOUS
 10
9.9969100407
 20
26.2086309673
 11
9.9969100407
 21
26.1771349043
  0
LINE
  5
51C
100
AcDbEntity
  8
0
100
AcDbLine
 62
7
  6
CONTINUOUS
 10
10.0284061037
 20
26.1771349043
 11
10.0284061037
 21
26.2086309673
  0
LINE
  5
51D
100
AcDbEntity
  8
0
100
AcDbLine
 62
7
  6
CONTINUOUS
 10
10.0284061037
 20
26.9763475027
 11
10.0284061037
 21
27.0078435657
  0
LINE
  5
51E
100
AcDbEntity
  8
0
100
AcDbLine
 62
7
  6
CONTINUOUS
 10
10.0402171273
 20
26.279497109
 11
10.0402171273
 21
26.3031191562
  0
LINE
  5
51F
100
AcDbEntity
  8
0
100
AcDbLine
 62
7
  6
CONTINUOUS
 10
10.0402171273
 20
27.0787097074
 11
10.0402171273
 21
27.1023317547
  0
LINE
  5
520
100
AcDbEntity
  8
0
100
AcDbLine
 62
7
  6
CONTINUOUS
 10
10.0736816942
 20
26.1062687625
 11
10.0736816942
 21
26.279497109
  0
LINE
  5
521
100
AcDbEntity
  8
0
100
AcDbLine
 62
7
  6
CONTINUOUS
 10
10.0736816942
 20
26.905481361
 11
10.0736816942
 21
27.0787097074
  0
LINE
  5
522
100
AcDbEntity
  8
0
100
AcDbLine
 62
7
  6
CONTINUOUS
 10
10.0894297257
 20
27.0787097074
 11
10.0894297257
 21
26.905481361
  0
LINE
  5
523
100
AcDbEntity
  8
0
100
AcDbLine
 62
7
  6
CONTINUOUS
 10
10.0894297257
 20
26.1062687625
 11
10.0894297257
 21
26.279497109
  0
LINE
  5
524
100
AcDbEntity
  8
0
100
AcDbLine
 62
7
  6
CONTINUOUS
 10
10.1228942926
 20
27.1023317547
 11
10.1228942926
 21
27.0787097074
  0
LINE
  5
525
100
AcDbEntity
  8
0
100
AcDbLine
 62
7
  6
CONTINUOUS
 10
10.1228942926
 20
26.3031191562
 11
10.1228942926
 21
26.279497109
  0
LINE
  5
526
100
AcDbEntity
  8
0
100
AcDbLine
 62
7
  6
CONTINUOUS
 10
10.1347053162
 20
27.0078435657
 11
10.1347053162
 21
26.9763475027
  0
LINE
  5
527
100
AcDbEntity
  8
0
100
AcDbLine
 62
7
  6
CONTINUOUS
 10
10.1347053162
 20
26.2086309673
 11
10.1347053162
 21
26.1771349043
  0
LINE
  5
528
100
AcDbEntity
  8
0
100
AcDbLine
 62
7
  6
CONTINUOUS
 10
10.1662013792
 20
26.1771349043
 11
10.1662013792
 21
26.2086309673
  0
LINE
  5
529
100
AcDbEntity
  8
0
100
AcDbLine
 62
7
  6
CONTINUOUS
 10
10.1662013792
 20
26.9763475027
 11
10.1662013792
 21
27.0078435657
  0
LINE
  5
52A
100
AcDbEntity
  8
0
100
AcDbLine
 62
7
  6
CONTINUOUS
 10
10.1780124029
 20
26.279497109
 11
10.1780124029
 21
26.3031191562
  0
LINE
  5
52B
100
AcDbEntity
  8
0
100
AcDbLine
 62
7
  6
CONTINUOUS
 10
10.1780124029
 20
27.0787097074
 11
10.1780124029
 21
27.1023317547
  0
LINE
  5
52C
100
AcDbEntity
  8
0
100
AcDbLine
 62
7
  6
CONTINUOUS
 10
10.2114769698
 20
26.1062687625
 11
10.2114769698
 21
26.279497109
  0
LINE
  5
52D
100
AcDbEntity
  8
0
100
AcDbLine
 62
7
  6
CONTINUOUS
 10
10.2114769698
 20
26.905481361
 11
10.2114769698
 21
27.0787097074
  0
LINE
  5
52E
100
AcDbEntity
  8
0
100
AcDbLine
 62
7
  6
CONTINUOUS
 10
10.2272250013
 20
27.0787097074
 11
10.2272250013
 21
26.905481361
  0
LINE
  5
52F
100
AcDbEntity
  8
0
100
AcDbLine
 62
7
  6
CONTINUOUS
 10
10.2272250013
 20
26.1062687625
 11
10.2272250013
 21
26.279497109
  0
LINE
  5
530
100
AcDbEntity
  8
0
100
AcDbLine
 62
7
  6
CONTINUOUS
 10
9.9134606312
 20
27.1023317547
 11
9.9339179147
 21
27.1377648255
  0
LINE
  5
531
100
AcDbEntity
  8
0
100
AcDbLine
 62
7
  6
CONTINUOUS
 10
9.8158076785
 20
26.3385522271
 11
9.8362649619
 21
26.3031191562
  0
LINE
  5
532
100
AcDbEntity
  8
0
100
AcDbLine
 62
7
  6
CONTINUOUS
 10
10.2606895682
 20
27.1023317547
 11
10.2606895682
 21
27.0787097074
  0
LINE
  5
533
100
AcDbEntity
  8
0
100
AcDbLine
 62
7
  6
CONTINUOUS
 10
10.2606895682
 20
26.3031191562
 11
10.2606895682
 21
26.279497109
  0
LINE
  5
534
100
AcDbEntity
  8
0
100
AcDbLine
 62
7
  6
CONTINUOUS
 10
10.2725005918
 20
27.0078435657
 11
10.2725005918
 21
26.9763475027
  0
LINE
  5
535
100
AcDbEntity
  8
0
100
AcDbLine
 62
7
  6
CONTINUOUS
 10
10.2725005918
 20
26.2086309673
 11
10.2725005918
 21
26.1771349043
  0
LINE
  5
536
100
AcDbEntity
  8
0
100
AcDbLine
 62
7
  6
CONTINUOUS
 10
10.3039966548
 20
26.1771349043
 11
10.3039966548
 21
26.2086309673
  0
LINE
  5
537
100
AcDbEntity
  8
0
100
AcDbLine
 62
7
  6
CONTINUOUS
 10
10.3039966548
 20
26.9763475027
 11
10.3039966548
 21
27.0078435657
  0
LINE
  5
538
100
AcDbEntity
  8
0
100
AcDbLine
 62
7
  6
CONTINUOUS
 10
10.3158076785
 20
26.279497109
 11
10.3158076785
 21
26.3031191562
  0
LINE
  5
539
100
AcDbEntity
  8
0
100
AcDbLine
 62
7
  6
CONTINUOUS
 10
10.3158076785
 20
27.0787097074
 11
10.3158076785
 21
27.1023317547
  0
LINE
  5
53A
100
AcDbEntity
  8
0
100
AcDbLine
 62
7
  6
CONTINUOUS
 10
10.3492722454
 20
26.1062687625
 11
10.3492722454
 21
26.279497109
  0
LINE
  5
53B
100
AcDbEntity
  8
0
100
AcDbLine
 62
7
  6
CONTINUOUS
 10
10.3492722454
 20
26.905481361
 11
10.3492722454
 21
27.0787097074
  0
LINE
  5
53C
100
AcDbEntity
  8
0
100
AcDbLine
 62
7
  6
CONTINUOUS
 10
10.3650202769
 20
27.0787097074
 11
10.3650202769
 21
26.905481361
  0
LINE
  5
53D
100
AcDbEntity
  8
0
100
AcDbLine
 62
7
  6
CONTINUOUS
 10
10.3650202769
 20
26.1062687625
 11
10.3650202769
 21
26.279497109
  0
LINE
  5
53E
100
AcDbEntity
  8
0
100
AcDbLine
 62
7
  6
CONTINUOUS
 10
10.3984848438
 20
27.1023317547
 11
10.3984848438
 21
27.0787097074
  0
LINE
  5
53F
100
AcDbEntity
  8
0
100
AcDbLine
 62
7
  6
CONTINUOUS
 10
10.3984848438
 20
26.3031191562
 11
10.3984848438
 21
26.279497109
  0
LINE
  5
540
100
AcDbEntity
  8
0
100
AcDbLine
 62
7
  6
CONTINUOUS
 10
10.4102958674
 20
27.0078435657
 11
10.4102958674
 21
26.9763475027
  0
LINE
  5
541
100
AcDbEntity
  8
0
100
AcDbLine
 62
7
  6
CONTINUOUS
 10
10.4102958674
 20
26.2086309673
 11
10.4102958674
 21
26.1771349043
  0
LINE
  5
542
100
AcDbEntity
  8
0
100
AcDbLine
 62
7
  6
CONTINUOUS
 10
10.4417919304
 20
26.1771349043
 11
10.4417919304
 21
26.2086309673
  0
LINE
  5
543
100
AcDbEntity
  8
0
100
AcDbLine
 62
7
  6
CONTINUOUS
 10
10.4417919304
 20
26.9763475027
 11
10.4417919304
 21
27.0078435657
  0
LINE
  5
544
100
AcDbEntity
  8
0
100
AcDbLine
 62
7
  6
CONTINUOUS
 10
10.453602954
 20
26.279497109
 11
10.453602954
 21
26.3031191562
  0
LINE
  5
545
100
AcDbEntity
  8
0
100
AcDbLine
 62
7
  6
CONTINUOUS
 10
10.453602954
 20
27.0787097074
 11
10.453602954
 21
27.1023317547
  0
LINE
  5
546
100
AcDbEntity
  8
0
100
AcDbLine
 62
7
  6
CONTINUOUS
 10
10.487067521
 20
26.1062687625
 11
10.487067521
 21
26.279497109
  0
LINE
  5
547
100
AcDbEntity
  8
0
100
AcDbLine
 62
7
  6
CONTINUOUS
 10
10.487067521
 20
26.905481361
 11
10.487067521
 21
27.0787097074
  0
LINE
  5
548
100
AcDbEntity
  8
0
100
AcDbLine
 62
7
  6
CONTINUOUS
 10
10.5028155525
 20
27.0787097074
 11
10.5028155525
 21
26.905481361
  0
LINE
  5
549
100
AcDbEntity
  8
0
100
AcDbLine
 62
7
  6
CONTINUOUS
 10
10.5028155525
 20
26.1062687625
 11
10.5028155525
 21
26.279497109
  0
LINE
  5
54A
100
AcDbEntity
  8
0
100
AcDbLine
 62
7
  6
CONTINUOUS
 10
10.5362801194
 20
27.1023317547
 11
10.5362801194
 21
27.0787097074
  0
LINE
  5
54B
100
AcDbEntity
  8
0
100
AcDbLine
 62
7
  6
CONTINUOUS
 10
10.5362801194
 20
26.3031191562
 11
10.5362801194
 21
26.279497109
  0
LINE
  5
54C
100
AcDbEntity
  8
0
100
AcDbLine
 62
7
  6
CONTINUOUS
 10
10.548091143
 20
27.0078435657
 11
10.548091143
 21
26.9763475027
  0
LINE
  5
54D
100
AcDbEntity
  8
0
100
AcDbLine
 62
7
  6
CONTINUOUS
 10
10.548091143
 20
26.2086309673
 11
10.548091143
 21
26.1771349043
  0
LINE
  5
54E
100
AcDbEntity
  8
0
100
AcDbLine
 62
7
  6
CONTINUOUS
 10
10.0512559068
 20
27.1023317547
 11
10.0717131903
 21
27.1377648255
  0
LINE
  5
54F
100
AcDbEntity
  8
0
100
AcDbLine
 62
7
  6
CONTINUOUS
 10
10.1890511824
 20
27.1023317547
 11
10.2095084659
 21
27.1377648255
  0
LINE
  5
550
100
AcDbEntity
  8
0
100
AcDbLine
 62
7
  6
CONTINUOUS
 10
10.326846458
 20
27.1023317547
 11
10.3473037414
 21
27.1377648255
  0
LINE
  5
551
100
AcDbEntity
  8
0
100
AcDbLine
 62
7
  6
CONTINUOUS
 10
9.953602954
 20
26.3385522271
 11
9.9740602375
 21
26.3031191562
  0
LINE
  5
552
100
AcDbEntity
  8
0
100
AcDbLine
 62
7
  6
CONTINUOUS
 10
10.0913982296
 20
26.3385522271
 11
10.1118555131
 21
26.3031191562
  0
LINE
  5
553
100
AcDbEntity
  8
0
100
AcDbLine
 62
7
  6
CONTINUOUS
 10
10.579587206
 20
26.1771349043
 11
10.579587206
 21
26.2086309673
  0
LINE
  5
554
100
AcDbEntity
  8
0
100
AcDbLine
 62
7
  6
CONTINUOUS
 10
10.579587206
 20
26.9763475027
 11
10.579587206
 21
27.0078435657
  0
LINE
  5
555
100
AcDbEntity
  8
0
100
AcDbLine
 62
7
  6
CONTINUOUS
 10
10.5913982296
 20
26.279497109
 11
10.5913982296
 21
26.3031191562
  0
LINE
  5
556
100
AcDbEntity
  8
0
100
AcDbLine
 62
7
  6
CONTINUOUS
 10
10.5913982296
 20
27.0787097074
 11
10.5913982296
 21
27.1023317547
  0
LINE
  5
557
100
AcDbEntity
  8
0
100
AcDbLine
 62
7
  6
CONTINUOUS
 10
10.6248627966
 20
26.1062687625
 11
10.6248627966
 21
26.279497109
  0
LINE
  5
558
100
AcDbEntity
  8
0
100
AcDbLine
 62
7
  6
CONTINUOUS
 10
10.6248627966
 20
26.905481361
 11
10.6248627966
 21
27.0787097074
  0
LINE
  5
559
100
AcDbEntity
  8
0
100
AcDbLine
 62
7
  6
CONTINUOUS
 10
10.6406108281
 20
27.0787097074
 11
10.6406108281
 21
26.905481361
  0
LINE
  5
55A
100
AcDbEntity
  8
0
100
AcDbLine
 62
7
  6
CONTINUOUS
 10
10.6406108281
 20
26.1062687625
 11
10.6406108281
 21
26.279497109
  0
LINE
  5
55B
100
AcDbEntity
  8
0
100
AcDbLine
 62
7
  6
CONTINUOUS
 10
10.674075395
 20
27.1023317547
 11
10.674075395
 21
27.0787097074
  0
LINE
  5
55C
100
AcDbEntity
  8
0
100
AcDbLine
 62
7
  6
CONTINUOUS
 10
10.674075395
 20
26.3031191562
 11
10.674075395
 21
26.279497109
  0
LINE
  5
55D
100
AcDbEntity
  8
0
100
AcDbLine
 62
7
  6
CONTINUOUS
 10
10.6858864186
 20
27.0078435657
 11
10.6858864186
 21
26.9763475027
  0
LINE
  5
55E
100
AcDbEntity
  8
0
100
AcDbLine
 62
7
  6
CONTINUOUS
 10
10.6858864186
 20
26.2086309673
 11
10.6858864186
 21
26.1771349043
  0
LINE
  5
55F
100
AcDbEntity
  8
0
100
AcDbLine
 62
7
  6
CONTINUOUS
 10
10.7173824816
 20
26.1771349043
 11
10.7173824816
 21
26.2086309673
  0
LINE
  5
560
100
AcDbEntity
  8
0
100
AcDbLine
 62
7
  6
CONTINUOUS
 10
10.7173824816
 20
26.9763475027
 11
10.7173824816
 21
27.0078435657
  0
LINE
  5
561
100
AcDbEntity
  8
0
100
AcDbLine
 62
7
  6
CONTINUOUS
 10
10.7291935052
 20
26.279497109
 11
10.7291935052
 21
26.3031191562
  0
LINE
  5
562
100
AcDbEntity
  8
0
100
AcDbLine
 62
7
  6
CONTINUOUS
 10
10.7291935052
 20
27.0787097074
 11
10.7291935052
 21
27.1023317547
  0
LINE
  5
563
100
AcDbEntity
  8
0
100
AcDbLine
 62
7
  6
CONTINUOUS
 10
10.7626580722
 20
26.1062687625
 11
10.7626580722
 21
26.279497109
  0
LINE
  5
564
100
AcDbEntity
  8
0
100
AcDbLine
 62
7
  6
CONTINUOUS
 10
10.7626580722
 20
26.905481361
 11
10.7626580722
 21
27.0787097074
  0
LINE
  5
565
100
AcDbEntity
  8
0
100
AcDbLine
 62
7
  6
CONTINUOUS
 10
10.7784061037
 20
27.0787097074
 11
10.7784061037
 21
26.905481361
  0
LINE
  5
566
100
AcDbEntity
  8
0
100
AcDbLine
 62
7
  6
CONTINUOUS
 10
10.7784061037
 20
26.1062687625
 11
10.7784061037
 21
26.279497109
  0
LINE
  5
567
100
AcDbEntity
  8
0
100
AcDbLine
 62
7
  6
CONTINUOUS
 10
10.8118706706
 20
27.1023317547
 11
10.8118706706
 21
27.0787097074
  0
LINE
  5
568
100
AcDbEntity
  8
0
100
AcDbLine
 62
7
  6
CONTINUOUS
 10
10.8118706706
 20
26.3031191562
 11
10.8118706706
 21
26.279497109
  0
LINE
  5
569
100
AcDbEntity
  8
0
100
AcDbLine
 62
7
  6
CONTINUOUS
 10
10.8236816942
 20
27.0078435657
 11
10.8236816942
 21
26.9763475027
  0
LINE
  5
56A
100
AcDbEntity
  8
0
100
AcDbLine
 62
7
  6
CONTINUOUS
 10
10.8236816942
 20
26.2086309673
 11
10.8236816942
 21
26.1771349043
  0
LINE
  5
56B
100
AcDbEntity
  8
0
100
AcDbLine
 62
7
  6
CONTINUOUS
 10
9.9134606312
 20
26.3031191562
 11
9.9339179147
 21
26.3385522271
  0
LINE
  5
56C
100
AcDbEntity
  8
0
100
AcDbLine
 62
7
  6
CONTINUOUS
 10
10.4646417336
 20
27.1023317547
 11
10.485099017
 21
27.1377648255
  0
LINE
  5
56D
100
AcDbEntity
  8
0
100
AcDbLine
 62
7
  6
CONTINUOUS
 10
10.0512559068
 20
26.3031191562
 11
10.0717131903
 21
26.3385522271
  0
LINE
  5
56E
100
AcDbEntity
  8
0
100
AcDbLine
 62
7
  6
CONTINUOUS
 10
10.6024370092
 20
27.1023317547
 11
10.6228942926
 21
27.1377648255
  0
LINE
  5
56F
100
AcDbEntity
  8
0
100
AcDbLine
 62
7
  6
CONTINUOUS
 10
10.1890511824
 20
26.3031191562
 11
10.2095084659
 21
26.3385522271
  0
LINE
  5
570
100
AcDbEntity
  8
0
100
AcDbLine
 62
7
  6
CONTINUOUS
 10
10.2291935052
 20
26.3385522271
 11
10.2496507887
 21
26.3031191562
  0
LINE
  5
571
100
AcDbEntity
  8
0
100
AcDbLine
 62
7
  6
CONTINUOUS
 10
9.8158076785
 20
27.1377648255
 11
9.8362649619
 21
27.1023317547
  0
LINE
  5
572
100
AcDbEntity
  8
0
100
AcDbLine
 62
7
  6
CONTINUOUS
 10
10.3669887808
 20
26.3385522271
 11
10.3874460643
 21
26.3031191562
  0
LINE
  5
573
100
AcDbEntity
  8
0
100
AcDbLine
 62
7
  6
CONTINUOUS
 10
9.953602954
 20
27.1377648255
 11
9.9740602375
 21
27.1023317547
  0
LINE
  5
574
100
AcDbEntity
  8
0
100
AcDbLine
 62
7
  6
CONTINUOUS
 10
10.5047840564
 20
26.3385522271
 11
10.5252413399
 21
26.3031191562
  0
LINE
  5
575
100
AcDbEntity
  8
0
100
AcDbLine
 62
7
  6
CONTINUOUS
 10
10.0913982296
 20
27.1377648255
 11
10.1118555131
 21
27.1023317547
  0
LINE
  5
576
100
AcDbEntity
  8
0
100
AcDbLine
 62
7
  6
CONTINUOUS
 10
10.8551777572
 20
26.1771349043
 11
10.8551777572
 21
26.2086309673
  0
LINE
  5
577
100
AcDbEntity
  8
0
100
AcDbLine
 62
7
  6
CONTINUOUS
 10
10.8551777572
 20
26.9763475027
 11
10.8551777572
 21
27.0078435657
  0
LINE
  5
578
100
AcDbEntity
  8
0
100
AcDbLine
 62
7
  6
CONTINUOUS
 10
10.8669887808
 20
26.279497109
 11
10.8669887808
 21
26.3031191562
  0
LINE
  5
579
100
AcDbEntity
  8
0
100
AcDbLine
 62
7
  6
CONTINUOUS
 10
10.8669887808
 20
27.0787097074
 11
10.8669887808
 21
27.1023317547
  0
LINE
  5
57A
100
AcDbEntity
  8
0
100
AcDbLine
 62
7
  6
CONTINUOUS
 10
10.9004533477
 20
26.1062687625
 11
10.9004533477
 21
26.279497109
  0
LINE
  5
57B
100
AcDbEntity
  8
0
100
AcDbLine
 62
7
  6
CONTINUOUS
 10
10.9004533477
 20
26.905481361
 11
10.9004533477
 21
27.0787097074
  0
LINE
  5
57C
100
AcDbEntity
  8
0
100
AcDbLine
 62
7
  6
CONTINUOUS
 10
10.9162013792
 20
27.0787097074
 11
10.9162013792
 21
26.905481361
  0
LINE
  5
57D
100
AcDbEntity
  8
0
100
AcDbLine
 62
7
  6
CONTINUOUS
 10
10.9162013792
 20
26.1062687625
 11
10.9162013792
 21
26.279497109
  0
LINE
  5
57E
100
AcDbEntity
  8
0
100
AcDbLine
 62
7
  6
CONTINUOUS
 10
10.9496659462
 20
27.1023317547
 11
10.9496659462
 21
27.0787097074
  0
LINE
  5
57F
100
AcDbEntity
  8
0
100
AcDbLine
 62
7
  6
CONTINUOUS
 10
10.9496659462
 20
26.3031191562
 11
10.9496659462
 21
26.279497109
  0
LINE
  5
580
100
AcDbEntity
  8
0
100
AcDbLine
 62
7
  6
CONTINUOUS
 10
10.9614769698
 20
27.0078435657
 11
10.9614769698
 21
26.9763475027
  0
LINE
  5
581
100
AcDbEntity
  8
0
100
AcDbLine
 62
7
  6
CONTINUOUS
 10
10.9614769698
 20
26.2086309673
 11
10.9614769698
 21
26.1771349043
  0
LINE
  5
582
100
AcDbEntity
  8
0
100
AcDbLine
 62
7
  6
CONTINUOUS
 10
10.9929730328
 20
26.1771349043
 11
10.9929730328
 21
26.2086309673
  0
LINE
  5
583
100
AcDbEntity
  8
0
100
AcDbLine
 62
7
  6
CONTINUOUS
 10
10.9929730328
 20
26.9763475027
 11
10.9929730328
 21
27.0078435657
  0
LINE
  5
584
100
AcDbEntity
  8
0
100
AcDbLine
 62
7
  6
CONTINUOUS
 10
11.0047840564
 20
26.279497109
 11
11.0047840564
 21
26.3031191562
  0
LINE
  5
585
100
AcDbEntity
  8
0
100
AcDbLine
 62
7
  6
CONTINUOUS
 10
11.0047840564
 20
27.0787097074
 11
11.0047840564
 21
27.1023317547
  0
LINE
  5
586
100
AcDbEntity
  8
0
100
AcDbLine
 62
7
  6
CONTINUOUS
 10
11.0382486233
 20
26.1062687625
 11
11.0382486233
 21
26.279497109
  0
LINE
  5
587
100
AcDbEntity
  8
0
100
AcDbLine
 62
7
  6
CONTINUOUS
 10
11.0382486233
 20
26.905481361
 11
11.0382486233
 21
27.0787097074
  0
LINE
  5
588
100
AcDbEntity
  8
0
100
AcDbLine
 62
7
  6
CONTINUOUS
 10
11.0539966548
 20
27.0787097074
 11
11.0539966548
 21
26.905481361
  0
LINE
  5
589
100
AcDbEntity
  8
0
100
AcDbLine
 62
7
  6
CONTINUOUS
 10
11.0539966548
 20
26.1062687625
 11
11.0539966548
 21
26.279497109
  0
LINE
  5
58A
100
AcDbEntity
  8
0
100
AcDbLine
 62
7
  6
CONTINUOUS
 10
11.0874612218
 20
27.1023317547
 11
11.0874612218
 21
27.0787097074
  0
LINE
  5
58B
100
AcDbEntity
  8
0
100
AcDbLine
 62
7
  6
CONTINUOUS
 10
11.0874612218
 20
26.3031191562
 11
11.0874612218
 21
26.279497109
  0
LINE
  5
58C
100
AcDbEntity
  8
7_ALL_ROUNDS
100
AcDbLine
 62
7
  6
CONTINUOUS
 10
11.098563584
 20
25.7273711248
 11
11.098563584
 21
25.7785522271
  0
LINE
  5
58D
100
AcDbEntity
  8
0
100
AcDbLine
 62
7
  6
CONTINUOUS
 10
11.0992722454
 20
27.0078435657
 11
11.0992722454
 21
26.9763475027
  0
LINE
  5
58E
100
AcDbEntity
  8
0
100
AcDbLine
 62
7
  6
CONTINUOUS
 10
11.0992722454
 20
26.2086309673
 11
11.0992722454
 21
26.1771349043
  0
LINE
  5
58F
100
AcDbEntity
  8
0
100
AcDbLine
 62
7
  6
CONTINUOUS
 10
11.1307683084
 20
26.1771349043
 11
11.1307683084
 21
26.2086309673
  0
LINE
  5
590
100
AcDbEntity
  8
0
100
AcDbLine
 62
7
  6
CONTINUOUS
 10
11.1307683084
 20
26.9763475027
 11
11.1307683084
 21
27.0078435657
  0
LINE
  5
591
100
AcDbEntity
  8
0
100
AcDbLine
 62
7
  6
CONTINUOUS
 10
11.142579332
 20
26.279497109
 11
11.142579332
 21
26.3031191562
  0
LINE
  5
592
100
AcDbEntity
  8
0
100
AcDbLine
 62
7
  6
CONTINUOUS
 10
11.142579332
 20
27.0787097074
 11
11.142579332
 21
27.1023317547
  0
LINE
  5
593
100
AcDbEntity
  8
0
100
AcDbLine
 62
7
  6
CONTINUOUS
 10
10.7402322848
 20
27.1023317547
 11
10.7606895682
 21
27.1377648255
  0
LINE
  5
594
100
AcDbEntity
  8
0
100
AcDbLine
 62
7
  6
CONTINUOUS
 10
10.326846458
 20
26.3031191562
 11
10.3473037414
 21
26.3385522271
  0
LINE
  5
595
100
AcDbEntity
  8
0
100
AcDbLine
 62
7
  6
CONTINUOUS
 10
10.8780275603
 20
27.1023317547
 11
10.8984848438
 21
27.1377648255
  0
LINE
  5
596
100
AcDbEntity
  8
0
100
AcDbLine
 62
7
  6
CONTINUOUS
 10
10.4646417336
 20
26.3031191562
 11
10.485099017
 21
26.3385522271
  0
LINE
  5
597
100
AcDbEntity
  8
0
100
AcDbLine
 62
7
  6
CONTINUOUS
 10
11.0158228359
 20
27.1023317547
 11
11.0362801194
 21
27.1377648255
  0
LINE
  5
598
100
AcDbEntity
  8
0
100
AcDbLine
 62
7
  6
CONTINUOUS
 10
10.642579332
 20
26.3385522271
 11
10.6630366155
 21
26.3031191562
  0
LINE
  5
599
100
AcDbEntity
  8
0
100
AcDbLine
 62
7
  6
CONTINUOUS
 10
10.2291935052
 20
27.1377648255
 11
10.2496507887
 21
27.1023317547
  0
LINE
  5
59A
100
AcDbEntity
  8
0
100
AcDbLine
 62
7
  6
CONTINUOUS
 10
10.7803746076
 20
26.3385522271
 11
10.8008318911
 21
26.3031191562
  0
LINE
  5
59B
100
AcDbEntity
  8
0
100
AcDbLine
 62
7
  6
CONTINUOUS
 10
10.3669887808
 20
27.1377648255
 11
10.3874460643
 21
27.1023317547
  0
LINE
  5
59C
100
AcDbEntity
  8
0
100
AcDbLine
 62
7
  6
CONTINUOUS
 10
11.1760438989
 20
26.1062687625
 11
11.1760438989
 21
26.279497109
  0
LINE
  5
59D
100
AcDbEntity
  8
0
100
AcDbLine
 62
7
  6
CONTINUOUS
 10
11.1760438989
 20
26.905481361
 11
11.1760438989
 21
27.0787097074
  0
LINE
  5
59E
100
AcDbEntity
  8
0
100
AcDbLine
 62
7
  6
CONTINUOUS
 10
11.1917919304
 20
27.0787097074
 11
11.1917919304
 21
26.905481361
  0
LINE
  5
59F
100
AcDbEntity
  8
0
100
AcDbLine
 62
7
  6
CONTINUOUS
 10
11.1917919304
 20
26.1062687625
 11
11.1917919304
 21
26.279497109
  0
LINE
  5
5A0
100
AcDbEntity
  8
7_ALL_ROUNDS
100
AcDbLine
 62
7
  6
CONTINUOUS
 10
11.1969887808
 20
25.7273711248
 11
11.1969887808
 21
25.7785522271
  0
LINE
  5
5A1
100
AcDbEntity
  8
0
100
AcDbLine
 62
7
  6
CONTINUOUS
 10
11.2252564974
 20
27.1023317547
 11
11.2252564974
 21
27.0787097074
  0
LINE
  5
5A2
100
AcDbEntity
  8
0
100
AcDbLine
 62
7
  6
CONTINUOUS
 10
11.2252564974
 20
26.3031191562
 11
11.2252564974
 21
26.279497109
  0
LINE
  5
5A3
100
AcDbEntity
  8
0
100
AcDbLine
 62
7
  6
CONTINUOUS
 10
11.237067521
 20
27.0078435657
 11
11.237067521
 21
26.9763475027
  0
LINE
  5
5A4
100
AcDbEntity
  8
0
100
AcDbLine
 62
7
  6
CONTINUOUS
 10
11.237067521
 20
26.2086309673
 11
11.237067521
 21
26.1771349043
  0
LINE
  5
5A5
100
AcDbEntity
  8
0
100
AcDbLine
 62
7
  6
CONTINUOUS
 10
11.268563584
 20
26.1771349043
 11
11.268563584
 21
26.2086309673
  0
LINE
  5
5A6
100
AcDbEntity
  8
0
100
AcDbLine
 62
7
  6
CONTINUOUS
 10
11.268563584
 20
26.9763475027
 11
11.268563584
 21
27.0078435657
  0
LINE
  5
5A7
100
AcDbEntity
  8
0
100
AcDbLine
 62
7
  6
CONTINUOUS
 10
11.2803746076
 20
26.279497109
 11
11.2803746076
 21
26.3031191562
  0
LINE
  5
5A8
100
AcDbEntity
  8
0
100
AcDbLine
 62
7
  6
CONTINUOUS
 10
11.2803746076
 20
27.0787097074
 11
11.2803746076
 21
27.1023317547
  0
LINE
  5
5A9
100
AcDbEntity
  8
0
100
AcDbLine
 62
7
  6
CONTINUOUS
 10
11.3138391745
 20
26.1062687625
 11
11.3138391745
 21
26.279497109
  0
LINE
  5
5AA
100
AcDbEntity
  8
0
100
AcDbLine
 62
7
  6
CONTINUOUS
 10
11.3138391745
 20
26.905481361
 11
11.3138391745
 21
27.0787097074
  0
LINE
  5
5AB
100
AcDbEntity
  8
0
100
AcDbLine
 62
7
  6
CONTINUOUS
 10
11.329587206
 20
27.0787097074
 11
11.329587206
 21
26.905481361
  0
LINE
  5
5AC
100
AcDbEntity
  8
0
100
AcDbLine
 62
7
  6
CONTINUOUS
 10
11.329587206
 20
26.1062687625
 11
11.329587206
 21
26.279497109
  0
LINE
  5
5AD
100
AcDbEntity
  8
0
100
AcDbLine
 62
7
  6
CONTINUOUS
 10
11.3630517729
 20
27.1023317547
 11
11.3630517729
 21
27.0787097074
  0
LINE
  5
5AE
100
AcDbEntity
  8
0
100
AcDbLine
 62
7
  6
CONTINUOUS
 10
11.3630517729
 20
26.3031191562
 11
11.3630517729
 21
26.279497109
  0
LINE
  5
5AF
100
AcDbEntity
  8
0
100
AcDbLine
 62
7
  6
CONTINUOUS
 10
11.3748627966
 20
27.0078435657
 11
11.3748627966
 21
26.9763475027
  0
LINE
  5
5B0
100
AcDbEntity
  8
0
100
AcDbLine
 62
7
  6
CONTINUOUS
 10
11.3748627966
 20
26.2086309673
 11
11.3748627966
 21
26.1771349043
  0
LINE
  5
5B1
100
AcDbEntity
  8
0
100
AcDbLine
 62
7
  6
CONTINUOUS
 10
11.4063588596
 20
26.1771349043
 11
11.4063588596
 21
26.2086309673
  0
LINE
  5
5B2
100
AcDbEntity
  8
0
100
AcDbLine
 62
7
  6
CONTINUOUS
 10
11.4063588596
 20
26.9763475027
 11
11.4063588596
 21
27.0078435657
  0
LINE
  5
5B3
100
AcDbEntity
  8
0
100
AcDbLine
 62
7
  6
CONTINUOUS
 10
11.4181698832
 20
26.279497109
 11
11.4181698832
 21
26.3031191562
  0
LINE
  5
5B4
100
AcDbEntity
  8
0
100
AcDbLine
 62
7
  6
CONTINUOUS
 10
11.4181698832
 20
27.0787097074
 11
11.4181698832
 21
27.1023317547
  0
LINE
  5
5B5
100
AcDbEntity
  8
0
100
AcDbLine
 62
7
  6
CONTINUOUS
 10
10.6024370092
 20
26.3031191562
 11
10.6228942926
 21
26.3385522271
  0
LINE
  5
5B6
100
AcDbEntity
  8
0
100
AcDbLine
 62
7
  6
CONTINUOUS
 10
11.1536181115
 20
27.1023317547
 11
11.174075395
 21
27.1377648255
  0
LINE
  5
5B7
100
AcDbEntity
  8
0
100
AcDbLine
 62
7
  6
CONTINUOUS
 10
10.7402322848
 20
26.3031191562
 11
10.7606895682
 21
26.3385522271
  0
LINE
  5
5B8
100
AcDbEntity
  8
0
100
AcDbLine
 62
7
  6
CONTINUOUS
 10
11.2914133871
 20
27.1023317547
 11
11.3118706706
 21
27.1377648255
  0
LINE
  5
5B9
100
AcDbEntity
  8
0
100
AcDbLine
 62
7
  6
CONTINUOUS
 10
10.8780275603
 20
26.3031191562
 11
10.8984848438
 21
26.3385522271
  0
LINE
  5
5BA
100
AcDbEntity
  8
0
100
AcDbLine
 62
7
  6
CONTINUOUS
 10
10.9181698832
 20
26.3385522271
 11
10.9386271666
 21
26.3031191562
  0
LINE
  5
5BB
100
AcDbEntity
  8
0
100
AcDbLine
 62
7
  6
CONTINUOUS
 10
10.5047840564
 20
27.1377648255
 11
10.5252413399
 21
27.1023317547
  0
LINE
  5
5BC
100
AcDbEntity
  8
0
100
AcDbLine
 62
7
  6
CONTINUOUS
 10
11.0559651588
 20
26.3385522271
 11
11.0764224422
 21
26.3031191562
  0
LINE
  5
5BD
100
AcDbEntity
  8
0
100
AcDbLine
 62
7
  6
CONTINUOUS
 10
10.642579332
 20
27.1377648255
 11
10.6630366155
 21
27.1023317547
  0
LINE
  5
5BE
100
AcDbEntity
  8
0
100
AcDbLine
 62
7
  6
CONTINUOUS
 10
11.1937604344
 20
26.3385522271
 11
11.2142177178
 21
26.3031191562
  0
LINE
  5
5BF
100
AcDbEntity
  8
0
100
AcDbLine
 62
7
  6
CONTINUOUS
 10
11.4516344501
 20
26.1062687625
 11
11.4516344501
 21
26.279497109
  0
LINE
  5
5C0
100
AcDbEntity
  8
0
100
AcDbLine
 62
7
  6
CONTINUOUS
 10
11.4516344501
 20
26.905481361
 11
11.4516344501
 21
27.0787097074
  0
LINE
  5
5C1
100
AcDbEntity
  8
0
100
AcDbLine
 62
7
  6
CONTINUOUS
 10
11.487067521
 20
26.0826467153
 11
11.487067521
 21
26.3582372665
  0
LINE
  5
5C2
100
AcDbEntity
  8
0
100
AcDbLine
 62
7
  6
CONTINUOUS
 10
11.487067521
 20
26.8857963216
 11
11.487067521
 21
27.18500892
  0
LINE
  5
5C3
100
AcDbEntity
  8
0
100
AcDbLine
 62
7
  6
CONTINUOUS
 10
11.7075399619
 20
27.18500892
 11
11.7075399619
 21
26.8857963216
  0
LINE
  5
5C4
100
AcDbEntity
  8
0
100
AcDbLine
 62
7
  6
CONTINUOUS
 10
11.7075399619
 20
26.3582372665
 11
11.7075399619
 21
26.0826467153
  0
LINE
  5
5C5
100
AcDbEntity
  8
0
100
AcDbLine
 62
7
  6
CONTINUOUS
 10
11.4292086627
 20
27.1023317547
 11
11.4496659462
 21
27.1377648255
  0
LINE
  5
5C6
100
AcDbEntity
  8
0
100
AcDbLine
 62
7
  6
CONTINUOUS
 10
11.0158228359
 20
26.3031191562
 11
11.0362801194
 21
26.3385522271
  0
LINE
  5
5C7
100
AcDbEntity
  8
0
100
AcDbLine
 62
7
  6
CONTINUOUS
 10
11.1536181115
 20
26.3031191562
 11
11.174075395
 21
26.3385522271
  0
LINE
  5
5C8
100
AcDbEntity
  8
0
100
AcDbLine
 62
7
  6
CONTINUOUS
 10
10.7803746076
 20
27.1377648255
 11
10.8008318911
 21
27.1023317547
  0
LINE
  5
5C9
100
AcDbEntity
  8
0
100
AcDbLine
 62
7
  6
CONTINUOUS
 10
11.33155571
 20
26.3385522271
 11
11.3520129934
 21
26.3031191562
  0
LINE
  5
5CA
100
AcDbEntity
  8
0
100
AcDbLine
 62
7
  6
CONTINUOUS
 10
10.9181698832
 20
27.1377648255
 11
10.9386271666
 21
27.1023317547
  0
LINE
  5
5CB
100
AcDbEntity
  8
0
100
AcDbLine
 62
7
  6
CONTINUOUS
 10
11.0559651588
 20
27.1377648255
 11
11.0764224422
 21
27.1023317547
  0
LINE
  5
5CC
100
AcDbEntity
  8
0
100
AcDbLine
 62
7
  6
CONTINUOUS
 10
11.7429730328
 20
27.0787097074
 11
11.7429730328
 21
26.905481361
  0
LINE
  5
5CD
100
AcDbEntity
  8
0
100
AcDbLine
 62
7
  6
CONTINUOUS
 10
11.7429730328
 20
26.279497109
 11
11.7429730328
 21
26.1062687625
  0
LINE
  5
5CE
100
AcDbEntity
  8
0
100
AcDbLine
 62
7
  6
CONTINUOUS
 10
11.7764375997
 20
27.1023317547
 11
11.7764375997
 21
27.0787097074
  0
LINE
  5
5CF
100
AcDbEntity
  8
0
100
AcDbLine
 62
7
  6
CONTINUOUS
 10
11.7764375997
 20
26.3031191562
 11
11.7764375997
 21
26.279497109
  0
LINE
  5
5D0
100
AcDbEntity
  8
0
100
AcDbLine
 62
7
  6
CONTINUOUS
 10
11.7882486233
 20
27.0078435657
 11
11.7882486233
 21
26.9763475027
  0
LINE
  5
5D1
100
AcDbEntity
  8
0
100
AcDbLine
 62
7
  6
CONTINUOUS
 10
11.7882486233
 20
26.2086309673
 11
11.7882486233
 21
26.1771349043
  0
LINE
  5
5D2
100
AcDbEntity
  8
0
100
AcDbLine
 62
7
  6
CONTINUOUS
 10
11.8197446863
 20
26.1771349043
 11
11.8197446863
 21
26.2086309673
  0
LINE
  5
5D3
100
AcDbEntity
  8
0
100
AcDbLine
 62
7
  6
CONTINUOUS
 10
11.8197446863
 20
26.9763475027
 11
11.8197446863
 21
27.0078435657
  0
LINE
  5
5D4
100
AcDbEntity
  8
0
100
AcDbLine
 62
7
  6
CONTINUOUS
 10
11.83155571
 20
26.279497109
 11
11.83155571
 21
26.3031191562
  0
LINE
  5
5D5
100
AcDbEntity
  8
0
100
AcDbLine
 62
7
  6
CONTINUOUS
 10
11.83155571
 20
27.0787097074
 11
11.83155571
 21
27.1023317547
  0
LINE
  5
5D6
100
AcDbEntity
  8
0
100
AcDbLine
 62
7
  6
CONTINUOUS
 10
11.8650202769
 20
26.1062687625
 11
11.8650202769
 21
26.279497109
  0
LINE
  5
5D7
100
AcDbEntity
  8
0
100
AcDbLine
 62
7
  6
CONTINUOUS
 10
11.8650202769
 20
26.905481361
 11
11.8650202769
 21
27.0787097074
  0
LINE
  5
5D8
100
AcDbEntity
  8
0
100
AcDbLine
 62
7
  6
CONTINUOUS
 10
11.8807683084
 20
27.0787097074
 11
11.8807683084
 21
26.905481361
  0
LINE
  5
5D9
100
AcDbEntity
  8
0
100
AcDbLine
 62
7
  6
CONTINUOUS
 10
11.8807683084
 20
26.279497109
 11
11.8807683084
 21
26.1062687625
  0
LINE
  5
5DA
100
AcDbEntity
  8
0
100
AcDbLine
 62
7
  6
CONTINUOUS
 10
11.9142328753
 20
27.1023317547
 11
11.9142328753
 21
27.0787097074
  0
LINE
  5
5DB
100
AcDbEntity
  8
0
100
AcDbLine
 62
7
  6
CONTINUOUS
 10
11.9142328753
 20
26.3031191562
 11
11.9142328753
 21
26.279497109
  0
LINE
  5
5DC
100
AcDbEntity
  8
0
100
AcDbLine
 62
7
  6
CONTINUOUS
 10
11.9260438989
 20
27.0078435657
 11
11.9260438989
 21
26.9763475027
  0
LINE
  5
5DD
100
AcDbEntity
  8
0
100
AcDbLine
 62
7
  6
CONTINUOUS
 10
11.9260438989
 20
26.2086309673
 11
11.9260438989
 21
26.1771349043
  0
LINE
  5
5DE
100
AcDbEntity
  8
0
100
AcDbLine
 62
7
  6
CONTINUOUS
 10
11.9575399619
 20
26.1771349043
 11
11.9575399619
 21
26.2086309673
  0
LINE
  5
5DF
100
AcDbEntity
  8
0
100
AcDbLine
 62
7
  6
CONTINUOUS
 10
11.9575399619
 20
26.9763475027
 11
11.9575399619
 21
27.0078435657
  0
LINE
  5
5E0
100
AcDbEntity
  8
0
100
AcDbLine
 62
7
  6
CONTINUOUS
 10
11.9693509855
 20
26.279497109
 11
11.9693509855
 21
26.3031191562
  0
LINE
  5
5E1
100
AcDbEntity
  8
0
100
AcDbLine
 62
7
  6
CONTINUOUS
 10
11.9693509855
 20
27.0787097074
 11
11.9693509855
 21
27.1023317547
  0
LINE
  5
5E2
100
AcDbEntity
  8
0
100
AcDbLine
 62
7
  6
CONTINUOUS
 10
12.0028155525
 20
26.1062687625
 11
12.0028155525
 21
26.279497109
  0
LINE
  5
5E3
100
AcDbEntity
  8
0
100
AcDbLine
 62
7
  6
CONTINUOUS
 10
12.0028155525
 20
26.905481361
 11
12.0028155525
 21
27.0787097074
  0
LINE
  5
5E4
100
AcDbEntity
  8
0
100
AcDbLine
 62
7
  6
CONTINUOUS
 10
12.018563584
 20
27.0787097074
 11
12.018563584
 21
26.905481361
  0
LINE
  5
5E5
100
AcDbEntity
  8
0
100
AcDbLine
 62
7
  6
CONTINUOUS
 10
12.018563584
 20
26.279497109
 11
12.018563584
 21
26.1062687625
  0
LINE
  5
5E6
100
AcDbEntity
  8
0
100
AcDbLine
 62
7
  6
CONTINUOUS
 10
11.2914133871
 20
26.3031191562
 11
11.3118706706
 21
26.3385522271
  0
LINE
  5
5E7
100
AcDbEntity
  8
0
100
AcDbLine
 62
7
  6
CONTINUOUS
 10
11.8425944895
 20
27.1023317547
 11
11.8630517729
 21
27.1377648255
  0
LINE
  5
5E8
100
AcDbEntity
  8
0
100
AcDbLine
 62
7
  6
CONTINUOUS
 10
11.4292086627
 20
26.3031191562
 11
11.4496659462
 21
26.3385522271
  0
LINE
  5
5E9
100
AcDbEntity
  8
0
100
AcDbLine
 62
7
  6
CONTINUOUS
 10
11.9803897651
 20
27.1023317547
 11
12.0008470485
 21
27.1377648255
  0
LINE
  5
5EA
100
AcDbEntity
  8
0
100
AcDbLine
 62
7
  6
CONTINUOUS
 10
11.1937604344
 20
27.1377648255
 11
11.2142177178
 21
27.1023317547
  0
LINE
  5
5EB
100
AcDbEntity
  8
0
100
AcDbLine
 62
7
  6
CONTINUOUS
 10
11.7449415367
 20
26.3385522271
 11
11.7653988202
 21
26.3031191562
  0
LINE
  5
5EC
100
AcDbEntity
  8
0
100
AcDbLine
 62
7
  6
CONTINUOUS
 10
11.33155571
 20
27.1377648255
 11
11.3520129934
 21
27.1023317547
  0
LINE
  5
5ED
100
AcDbEntity
  8
0
100
AcDbLine
 62
7
  6
CONTINUOUS
 10
11.8827368123
 20
26.3385522271
 11
11.9031940958
 21
26.3031191562
  0
LINE
  5
5EE
100
AcDbEntity
  8
0
100
AcDbLine
 62
7
  6
CONTINUOUS
 10
12.0520281509
 20
27.1023317547
 11
12.0520281509
 21
27.0787097074
  0
LINE
  5
5EF
100
AcDbEntity
  8
0
100
AcDbLine
 62
7
  6
CONTINUOUS
 10
12.0520281509
 20
26.3031191562
 11
12.0520281509
 21
26.279497109
  0
LINE
  5
5F0
100
AcDbEntity
  8
0
100
AcDbLine
 62
7
  6
CONTINUOUS
 10
12.0638391745
 20
27.0078435657
 11
12.0638391745
 21
26.9763475027
  0
LINE
  5
5F1
100
AcDbEntity
  8
0
100
AcDbLine
 62
7
  6
CONTINUOUS
 10
12.0638391745
 20
26.2086309673
 11
12.0638391745
 21
26.1771349043
  0
LINE
  5
5F2
100
AcDbEntity
  8
0
100
AcDbLine
 62
7
  6
CONTINUOUS
 10
12.0953352375
 20
26.1771349043
 11
12.0953352375
 21
26.2086309673
  0
LINE
  5
5F3
100
AcDbEntity
  8
0
100
AcDbLine
 62
7
  6
CONTINUOUS
 10
12.0953352375
 20
26.9763475027
 11
12.0953352375
 21
27.0078435657
  0
LINE
  5
5F4
100
AcDbEntity
  8
0
100
AcDbLine
 62
7
  6
CONTINUOUS
 10
12.1071462611
 20
26.279497109
 11
12.1071462611
 21
26.3031191562
  0
LINE
  5
5F5
100
AcDbEntity
  8
0
100
AcDbLine
 62
7
  6
CONTINUOUS
 10
12.1071462611
 20
27.0787097074
 11
12.1071462611
 21
27.1023317547
  0
LINE
  5
5F6
100
AcDbEntity
  8
0
100
AcDbLine
 62
7
  6
CONTINUOUS
 10
12.1406108281
 20
26.1062687625
 11
12.1406108281
 21
26.279497109
  0
LINE
  5
5F7
100
AcDbEntity
  8
0
100
AcDbLine
 62
7
  6
CONTINUOUS
 10
12.1406108281
 20
26.905481361
 11
12.1406108281
 21
27.0787097074
  0
LINE
  5
5F8
100
AcDbEntity
  8
0
100
AcDbLine
 62
7
  6
CONTINUOUS
 10
12.1563588596
 20
27.0787097074
 11
12.1563588596
 21
26.905481361
  0
LINE
  5
5F9
100
AcDbEntity
  8
0
100
AcDbLine
 62
7
  6
CONTINUOUS
 10
12.1563588596
 20
26.279497109
 11
12.1563588596
 21
26.1062687625
  0
LINE
  5
5FA
100
AcDbEntity
  8
0
100
AcDbLine
 62
7
  6
CONTINUOUS
 10
12.1898234265
 20
27.1023317547
 11
12.1898234265
 21
27.0787097074
  0
LINE
  5
5FB
100
AcDbEntity
  8
0
100
AcDbLine
 62
7
  6
CONTINUOUS
 10
12.1898234265
 20
26.3031191562
 11
12.1898234265
 21
26.279497109
  0
LINE
  5
5FC
100
AcDbEntity
  8
0
100
AcDbLine
 62
7
  6
CONTINUOUS
 10
12.2016344501
 20
27.0078435657
 11
12.2016344501
 21
26.9763475027
  0
LINE
  5
5FD
100
AcDbEntity
  8
0
100
AcDbLine
 62
7
  6
CONTINUOUS
 10
12.2016344501
 20
26.2086309673
 11
12.2016344501
 21
26.1771349043
  0
LINE
  5
5FE
100
AcDbEntity
  8
0
100
AcDbLine
 62
7
  6
CONTINUOUS
 10
12.2331305131
 20
26.1771349043
 11
12.2331305131
 21
26.2086309673
  0
LINE
  5
5FF
100
AcDbEntity
  8
0
100
AcDbLine
 62
7
  6
CONTINUOUS
 10
12.2331305131
 20
26.9763475027
 11
12.2331305131
 21
27.0078435657
  0
LINE
  5
600
100
AcDbEntity
  8
0
100
AcDbLine
 62
7
  6
CONTINUOUS
 10
12.2449415367
 20
26.279497109
 11
12.2449415367
 21
26.3031191562
  0
LINE
  5
601
100
AcDbEntity
  8
0
100
AcDbLine
 62
7
  6
CONTINUOUS
 10
12.2449415367
 20
27.0787097074
 11
12.2449415367
 21
27.1023317547
  0
LINE
  5
602
100
AcDbEntity
  8
0
100
AcDbLine
 62
7
  6
CONTINUOUS
 10
12.2784061037
 20
26.1062687625
 11
12.2784061037
 21
26.279497109
  0
LINE
  5
603
100
AcDbEntity
  8
0
100
AcDbLine
 62
7
  6
CONTINUOUS
 10
12.2784061037
 20
26.905481361
 11
12.2784061037
 21
27.0787097074
  0
LINE
  5
604
100
AcDbEntity
  8
0
100
AcDbLine
 62
7
  6
CONTINUOUS
 10
12.2941541351
 20
27.0787097074
 11
12.2941541351
 21
26.905481361
  0
LINE
  5
605
100
AcDbEntity
  8
0
100
AcDbLine
 62
7
  6
CONTINUOUS
 10
12.2941541351
 20
26.279497109
 11
12.2941541351
 21
26.1062687625
  0
LINE
  5
606
100
AcDbEntity
  8
0
100
AcDbLine
 62
7
  6
CONTINUOUS
 10
12.1181850407
 20
27.1023317547
 11
12.1386423241
 21
27.1377648255
  0
LINE
  5
607
100
AcDbEntity
  8
0
100
AcDbLine
 62
7
  6
CONTINUOUS
 10
12.2559803162
 20
27.1023317547
 11
12.2764375997
 21
27.1377648255
  0
LINE
  5
608
100
AcDbEntity
  8
0
100
AcDbLine
 62
7
  6
CONTINUOUS
 10
11.8425944895
 20
26.3031191562
 11
11.8630517729
 21
26.3385522271
  0
LINE
  5
609
100
AcDbEntity
  8
0
100
AcDbLine
 62
7
  6
CONTINUOUS
 10
12.0205320879
 20
26.3385522271
 11
12.0409893714
 21
26.3031191562
  0
LINE
  5
60A
100
AcDbEntity
  8
0
100
AcDbLine
 62
7
  6
CONTINUOUS
 10
12.1583273635
 20
26.3385522271
 11
12.178784647
 21
26.3031191562
  0
LINE
  5
60B
100
AcDbEntity
  8
0
100
AcDbLine
 62
7
  6
CONTINUOUS
 10
11.7449415367
 20
27.1377648255
 11
11.7653988202
 21
27.1023317547
  0
LINE
  5
60C
100
AcDbEntity
  8
0
100
AcDbLine
 62
7
  6
CONTINUOUS
 10
12.3276187021
 20
27.1023317547
 11
12.3276187021
 21
27.0787097074
  0
LINE
  5
60D
100
AcDbEntity
  8
0
100
AcDbLine
 62
7
  6
CONTINUOUS
 10
12.3276187021
 20
26.3031191562
 11
12.3276187021
 21
26.279497109
  0
LINE
  5
60E
100
AcDbEntity
  8
0
100
AcDbLine
 62
7
  6
CONTINUOUS
 10
12.3394297257
 20
27.0078435657
 11
12.3394297257
 21
26.9763475027
  0
LINE
  5
60F
100
AcDbEntity
  8
0
100
AcDbLine
 62
7
  6
CONTINUOUS
 10
12.3394297257
 20
26.2086309673
 11
12.3394297257
 21
26.1771349043
  0
LINE
  5
610
100
AcDbEntity
  8
0
100
AcDbLine
 62
7
  6
CONTINUOUS
 10
12.3709257887
 20
26.1771349043
 11
12.3709257887
 21
26.2086309673
  0
LINE
  5
611
100
AcDbEntity
  8
0
100
AcDbLine
 62
7
  6
CONTINUOUS
 10
12.3709257887
 20
26.9763475027
 11
12.3709257887
 21
27.0078435657
  0
LINE
  5
612
100
AcDbEntity
  8
0
100
AcDbLine
 62
7
  6
CONTINUOUS
 10
12.3827368123
 20
26.279497109
 11
12.3827368123
 21
26.3031191562
  0
LINE
  5
613
100
AcDbEntity
  8
0
100
AcDbLine
 62
7
  6
CONTINUOUS
 10
12.3827368123
 20
27.0787097074
 11
12.3827368123
 21
27.1023317547
  0
LINE
  5
614
100
AcDbEntity
  8
0
100
AcDbLine
 62
7
  6
CONTINUOUS
 10
12.4162013792
 20
26.1062687625
 11
12.4162013792
 21
26.279497109
  0
LINE
  5
615
100
AcDbEntity
  8
0
100
AcDbLine
 62
7
  6
CONTINUOUS
 10
12.4162013792
 20
26.905481361
 11
12.4162013792
 21
27.0787097074
  0
LINE
  5
616
100
AcDbEntity
  8
0
100
AcDbLine
 62
7
  6
CONTINUOUS
 10
12.4319494107
 20
27.0787097074
 11
12.4319494107
 21
26.905481361
  0
LINE
  5
617
100
AcDbEntity
  8
0
100
AcDbLine
 62
7
  6
CONTINUOUS
 10
12.4319494107
 20
26.279497109
 11
12.4319494107
 21
26.1062687625
  0
LINE
  5
618
100
AcDbEntity
  8
0
100
AcDbLine
 62
7
  6
CONTINUOUS
 10
12.4654139777
 20
27.1023317547
 11
12.4654139777
 21
27.0787097074
  0
LINE
  5
619
100
AcDbEntity
  8
0
100
AcDbLine
 62
7
  6
CONTINUOUS
 10
12.4654139777
 20
26.3031191562
 11
12.4654139777
 21
26.279497109
  0
LINE
  5
61A
100
AcDbEntity
  8
0
100
AcDbLine
 62
7
  6
CONTINUOUS
 10
12.4772250013
 20
27.0078435657
 11
12.4772250013
 21
26.9763475027
  0
LINE
  5
61B
100
AcDbEntity
  8
0
100
AcDbLine
 62
7
  6
CONTINUOUS
 10
12.4772250013
 20
26.2086309673
 11
12.4772250013
 21
26.1771349043
  0
LINE
  5
61C
100
AcDbEntity
  8
0
100
AcDbLine
 62
7
  6
CONTINUOUS
 10
12.5087210643
 20
26.1771349043
 11
12.5087210643
 21
26.2086309673
  0
LINE
  5
61D
100
AcDbEntity
  8
0
100
AcDbLine
 62
7
  6
CONTINUOUS
 10
12.5087210643
 20
26.9763475027
 11
12.5087210643
 21
27.0078435657
  0
LINE
  5
61E
100
AcDbEntity
  8
0
100
AcDbLine
 62
7
  6
CONTINUOUS
 10
12.5205320879
 20
26.279497109
 11
12.5205320879
 21
26.3031191562
  0
LINE
  5
61F
100
AcDbEntity
  8
0
100
AcDbLine
 62
7
  6
CONTINUOUS
 10
12.5205320879
 20
27.0787097074
 11
12.5205320879
 21
27.1023317547
  0
LINE
  5
620
100
AcDbEntity
  8
0
100
AcDbLine
 62
7
  6
CONTINUOUS
 10
12.5539966548
 20
26.1062687625
 11
12.5539966548
 21
26.279497109
  0
LINE
  5
621
100
AcDbEntity
  8
0
100
AcDbLine
 62
7
  6
CONTINUOUS
 10
12.5539966548
 20
26.905481361
 11
12.5539966548
 21
27.0787097074
  0
LINE
  5
622
100
AcDbEntity
  8
0
100
AcDbLine
 62
7
  6
CONTINUOUS
 10
12.5697446863
 20
27.0787097074
 11
12.5697446863
 21
26.905481361
  0
LINE
  5
623
100
AcDbEntity
  8
0
100
AcDbLine
 62
7
  6
CONTINUOUS
 10
12.5697446863
 20
26.279497109
 11
12.5697446863
 21
26.1062687625
  0
LINE
  5
624
100
AcDbEntity
  8
0
100
AcDbLine
 62
7
  6
CONTINUOUS
 10
12.6032092533
 20
27.1023317547
 11
12.6032092533
 21
27.0787097074
  0
LINE
  5
625
100
AcDbEntity
  8
0
100
AcDbLine
 62
7
  6
CONTINUOUS
 10
12.6032092533
 20
26.3031191562
 11
12.6032092533
 21
26.279497109
  0
LINE
  5
626
100
AcDbEntity
  8
0
100
AcDbLine
 62
7
  6
CONTINUOUS
 10
12.6150202769
 20
27.0078435657
 11
12.6150202769
 21
26.9763475027
  0
LINE
  5
627
100
AcDbEntity
  8
0
100
AcDbLine
 62
7
  6
CONTINUOUS
 10
12.6150202769
 20
26.2086309673
 11
12.6150202769
 21
26.1771349043
  0
LINE
  5
628
100
AcDbEntity
  8
0
100
AcDbLine
 62
7
  6
CONTINUOUS
 10
12.3937755918
 20
27.1023317547
 11
12.4142328753
 21
27.1377648255
  0
LINE
  5
629
100
AcDbEntity
  8
0
100
AcDbLine
 62
7
  6
CONTINUOUS
 10
11.9803897651
 20
26.3031191562
 11
12.0008470485
 21
26.3385522271
  0
LINE
  5
62A
100
AcDbEntity
  8
0
100
AcDbLine
 62
7
  6
CONTINUOUS
 10
12.5315708674
 20
27.1023317547
 11
12.5520281509
 21
27.1377648255
  0
LINE
  5
62B
100
AcDbEntity
  8
0
100
AcDbLine
 62
7
  6
CONTINUOUS
 10
12.1181850407
 20
26.3031191562
 11
12.1386423241
 21
26.3385522271
  0
LINE
  5
62C
100
AcDbEntity
  8
0
100
AcDbLine
 62
7
  6
CONTINUOUS
 10
12.669366143
 20
27.1023317547
 11
12.6898234265
 21
27.1377648255
  0
LINE
  5
62D
100
AcDbEntity
  8
0
100
AcDbLine
 62
7
  6
CONTINUOUS
 10
12.2559803162
 20
26.3031191562
 11
12.2764375997
 21
26.3385522271
  0
LINE
  5
62E
100
AcDbEntity
  8
0
100
AcDbLine
 62
7
  6
CONTINUOUS
 10
12.2961226391
 20
26.3385522271
 11
12.3165799225
 21
26.3031191562
  0
LINE
  5
62F
100
AcDbEntity
  8
0
100
AcDbLine
 62
7
  6
CONTINUOUS
 10
11.8827368123
 20
27.1377648255
 11
11.9031940958
 21
27.1023317547
  0
LINE
  5
630
100
AcDbEntity
  8
0
100
AcDbLine
 62
7
  6
CONTINUOUS
 10
12.4339179147
 20
26.3385522271
 11
12.4543751981
 21
26.3031191562
  0
LINE
  5
631
100
AcDbEntity
  8
0
100
AcDbLine
 62
7
  6
CONTINUOUS
 10
12.0205320879
 20
27.1377648255
 11
12.0409893714
 21
27.1023317547
  0
LINE
  5
632
100
AcDbEntity
  8
0
100
AcDbLine
 62
7
  6
CONTINUOUS
 10
12.5717131903
 20
26.3385522271
 11
12.5921704737
 21
26.3031191562
  0
LINE
  5
633
100
AcDbEntity
  8
0
100
AcDbLine
 62
7
  6
CONTINUOUS
 10
12.6465163399
 20
26.1771349043
 11
12.6465163399
 21
26.2086309673
  0
LINE
  5
634
100
AcDbEntity
  8
0
100
AcDbLine
 62
7
  6
CONTINUOUS
 10
12.6465163399
 20
26.9763475027
 11
12.6465163399
 21
27.0078435657
  0
LINE
  5
635
100
AcDbEntity
  8
0
100
AcDbLine
 62
7
  6
CONTINUOUS
 10
12.6583273635
 20
26.279497109
 11
12.6583273635
 21
26.3031191562
  0
LINE
  5
636
100
AcDbEntity
  8
0
100
AcDbLine
 62
7
  6
CONTINUOUS
 10
12.6583273635
 20
27.0787097074
 11
12.6583273635
 21
27.1023317547
  0
LINE
  5
637
100
AcDbEntity
  8
0
100
AcDbLine
 62
7
  6
CONTINUOUS
 10
12.6917919304
 20
26.1062687625
 11
12.6917919304
 21
26.279497109
  0
LINE
  5
638
100
AcDbEntity
  8
0
100
AcDbLine
 62
7
  6
CONTINUOUS
 10
12.6917919304
 20
26.905481361
 11
12.6917919304
 21
27.0787097074
  0
LINE
  5
639
100
AcDbEntity
  8
0
100
AcDbLine
 62
7
  6
CONTINUOUS
 10
12.7075399619
 20
27.0787097074
 11
12.7075399619
 21
26.905481361
  0
LINE
  5
63A
100
AcDbEntity
  8
0
100
AcDbLine
 62
7
  6
CONTINUOUS
 10
12.7075399619
 20
26.279497109
 11
12.7075399619
 21
26.1062687625
  0
LINE
  5
63B
100
AcDbEntity
  8
0
100
AcDbLine
 62
7
  6
CONTINUOUS
 10
12.7410045288
 20
27.1023317547
 11
12.7410045288
 21
27.0787097074
  0
LINE
  5
63C
100
AcDbEntity
  8
0
100
AcDbLine
 62
7
  6
CONTINUOUS
 10
12.7410045288
 20
26.3031191562
 11
12.7410045288
 21
26.279497109
  0
LINE
  5
63D
100
AcDbEntity
  8
0
100
AcDbLine
 62
7
  6
CONTINUOUS
 10
12.7528155525
 20
27.0078435657
 11
12.7528155525
 21
26.9763475027
  0
LINE
  5
63E
100
AcDbEntity
  8
0
100
AcDbLine
 62
7
  6
CONTINUOUS
 10
12.7528155525
 20
26.2086309673
 11
12.7528155525
 21
26.1771349043
  0
LINE
  5
63F
100
AcDbEntity
  8
0
100
AcDbLine
 62
7
  6
CONTINUOUS
 10
12.7843116155
 20
26.1771349043
 11
12.7843116155
 21
26.2086309673
  0
LINE
  5
640
100
AcDbEntity
  8
0
100
AcDbLine
 62
7
  6
CONTINUOUS
 10
12.7843116155
 20
26.9763475027
 11
12.7843116155
 21
27.0078435657
  0
LINE
  5
641
100
AcDbEntity
  8
0
100
AcDbLine
 62
7
  6
CONTINUOUS
 10
12.7961226391
 20
26.279497109
 11
12.7961226391
 21
26.3031191562
  0
LINE
  5
642
100
AcDbEntity
  8
0
100
AcDbLine
 62
7
  6
CONTINUOUS
 10
12.7961226391
 20
27.0787097074
 11
12.7961226391
 21
27.1023317547
  0
LINE
  5
643
100
AcDbEntity
  8
0
100
AcDbLine
 62
7
  6
CONTINUOUS
 10
12.829587206
 20
26.1062687625
 11
12.829587206
 21
26.279497109
  0
LINE
  5
644
100
AcDbEntity
  8
0
100
AcDbLine
 62
7
  6
CONTINUOUS
 10
12.829587206
 20
26.905481361
 11
12.829587206
 21
27.0787097074
  0
LINE
  5
645
100
AcDbEntity
  8
0
100
AcDbLine
 62
7
  6
CONTINUOUS
 10
12.8453352375
 20
27.0787097074
 11
12.8453352375
 21
26.905481361
  0
LINE
  5
646
100
AcDbEntity
  8
0
100
AcDbLine
 62
7
  6
CONTINUOUS
 10
12.8453352375
 20
26.279497109
 11
12.8453352375
 21
26.1062687625
  0
LINE
  5
647
100
AcDbEntity
  8
0
100
AcDbLine
 62
7
  6
CONTINUOUS
 10
12.8787998044
 20
27.1023317547
 11
12.8787998044
 21
27.0787097074
  0
LINE
  5
648
100
AcDbEntity
  8
0
100
AcDbLine
 62
7
  6
CONTINUOUS
 10
12.8787998044
 20
26.3031191562
 11
12.8787998044
 21
26.279497109
  0
LINE
  5
649
100
AcDbEntity
  8
0
100
AcDbLine
 62
7
  6
CONTINUOUS
 10
12.8906108281
 20
27.0078435657
 11
12.8906108281
 21
26.9763475027
  0
LINE
  5
64A
100
AcDbEntity
  8
0
100
AcDbLine
 62
7
  6
CONTINUOUS
 10
12.8906108281
 20
26.2086309673
 11
12.8906108281
 21
26.1771349043
  0
LINE
  5
64B
100
AcDbEntity
  8
0
100
AcDbLine
 62
7
  6
CONTINUOUS
 10
12.8071614186
 20
27.1023317547
 11
12.8276187021
 21
27.1377648255
  0
LINE
  5
64C
100
AcDbEntity
  8
0
100
AcDbLine
 62
7
  6
CONTINUOUS
 10
12.3937755918
 20
26.3031191562
 11
12.4142328753
 21
26.3385522271
  0
LINE
  5
64D
100
AcDbEntity
  8
0
100
AcDbLine
 62
7
  6
CONTINUOUS
 10
12.9449566942
 20
27.1023317547
 11
12.9654139777
 21
27.1377648255
  0
LINE
  5
64E
100
AcDbEntity
  8
0
100
AcDbLine
 62
7
  6
CONTINUOUS
 10
12.5315708674
 20
26.3031191562
 11
12.5520281509
 21
26.3385522271
  0
LINE
  5
64F
100
AcDbEntity
  8
7_ALL_ROUNDS
100
AcDbLine
 62
7
  6
CONTINUOUS
 10
17.7324218517
 20
25.7273711248
 11
16.315099017
 21
25.7273711248
  0
LINE
  5
650
100
AcDbEntity
  8
7_ALL_ROUNDS
100
AcDbLine
 62
7
  6
CONTINUOUS
 10
11.1969887808
 20
25.7273711248
 11
9.7796659462
 21
25.7273711248
  0
LINE
  5
651
100
AcDbEntity
  8
0
100
AcDbLine
 62
7
  6
CONTINUOUS
 10
12.1583273635
 20
27.1377648255
 11
12.178784647
 21
27.1023317547
  0
LINE
  5
652
100
AcDbEntity
  8
0
100
AcDbLine
 62
7
  6
CONTINUOUS
 10
12.7095084659
 20
26.3385522271
 11
12.7299657493
 21
26.3031191562
  0
LINE
  5
653
100
AcDbEntity
  8
0
100
AcDbLine
 62
7
  6
CONTINUOUS
 10
12.2961226391
 20
27.1377648255
 11
12.3165799225
 21
27.1023317547
  0
LINE
  5
654
100
AcDbEntity
  8
0
100
AcDbLine
 62
7
  6
CONTINUOUS
 10
12.8473037414
 20
26.3385522271
 11
12.8677610249
 21
26.3031191562
  0
LINE
  5
655
100
AcDbEntity
  8
0
100
AcDbLine
 62
7
  6
CONTINUOUS
 10
12.4339179147
 20
27.1377648255
 11
12.4543751981
 21
27.1023317547
  0
LINE
  5
656
100
AcDbEntity
  8
0
100
AcDbLine
 62
7
  6
CONTINUOUS
 10
12.9221068911
 20
26.1771349043
 11
12.9221068911
 21
26.2086309673
  0
LINE
  5
657
100
AcDbEntity
  8
0
100
AcDbLine
 62
7
  6
CONTINUOUS
 10
12.9221068911
 20
26.9763475027
 11
12.9221068911
 21
27.0078435657
  0
LINE
  5
658
100
AcDbEntity
  8
0
100
AcDbLine
 62
7
  6
CONTINUOUS
 10
12.9339179147
 20
26.279497109
 11
12.9339179147
 21
26.3031191562
  0
LINE
  5
659
100
AcDbEntity
  8
0
100
AcDbLine
 62
7
  6
CONTINUOUS
 10
12.9339179147
 20
27.0787097074
 11
12.9339179147
 21
27.1023317547
  0
LINE
  5
65A
100
AcDbEntity
  8
0
100
AcDbLine
 62
7
  6
CONTINUOUS
 10
12.9673824816
 20
26.1062687625
 11
12.9673824816
 21
26.279497109
  0
LINE
  5
65B
100
AcDbEntity
  8
0
100
AcDbLine
 62
7
  6
CONTINUOUS
 10
12.9673824816
 20
26.905481361
 11
12.9673824816
 21
27.0787097074
  0
LINE
  5
65C
100
AcDbEntity
  8
0
100
AcDbLine
 62
7
  6
CONTINUOUS
 10
12.9831305131
 20
27.0787097074
 11
12.9831305131
 21
26.905481361
  0
LINE
  5
65D
100
AcDbEntity
  8
0
100
AcDbLine
 62
7
  6
CONTINUOUS
 10
12.9831305131
 20
26.279497109
 11
12.9831305131
 21
26.1062687625
  0
LINE
  5
65E
100
AcDbEntity
  8
0
100
AcDbLine
 62
7
  6
CONTINUOUS
 10
13.01659508
 20
27.1023317547
 11
13.01659508
 21
27.0787097074
  0
LINE
  5
65F
100
AcDbEntity
  8
0
100
AcDbLine
 62
7
  6
CONTINUOUS
 10
13.01659508
 20
26.3031191562
 11
13.01659508
 21
26.279497109
  0
LINE
  5
660
100
AcDbEntity
  8
0
100
AcDbLine
 62
7
  6
CONTINUOUS
 10
13.0284061037
 20
27.0078435657
 11
13.0284061037
 21
26.9763475027
  0
LINE
  5
661
100
AcDbEntity
  8
0
100
AcDbLine
 62
7
  6
CONTINUOUS
 10
13.0284061037
 20
26.2086309673
 11
13.0284061037
 21
26.1771349043
  0
LINE
  5
662
100
AcDbEntity
  8
0
100
AcDbLine
 62
7
  6
CONTINUOUS
 10
13.0599021666
 20
26.1771349043
 11
13.0599021666
 21
26.2086309673
  0
LINE
  5
663
100
AcDbEntity
  8
0
100
AcDbLine
 62
7
  6
CONTINUOUS
 10
13.0599021666
 20
26.9763475027
 11
13.0599021666
 21
27.0078435657
  0
LINE
  5
664
100
AcDbEntity
  8
0
100
AcDbLine
 62
7
  6
CONTINUOUS
 10
13.0717131903
 20
26.279497109
 11
13.0717131903
 21
26.3031191562
  0
LINE
  5
665
100
AcDbEntity
  8
0
100
AcDbLine
 62
7
  6
CONTINUOUS
 10
13.0717131903
 20
27.0787097074
 11
13.0717131903
 21
27.1023317547
  0
LINE
  5
666
100
AcDbEntity
  8
0
100
AcDbLine
 62
7
  6
CONTINUOUS
 10
13.1051777572
 20
26.1062687625
 11
13.1051777572
 21
26.279497109
  0
LINE
  5
667
100
AcDbEntity
  8
0
100
AcDbLine
 62
7
  6
CONTINUOUS
 10
13.1051777572
 20
26.905481361
 11
13.1051777572
 21
27.0787097074
  0
LINE
  5
668
100
AcDbEntity
  8
0
100
AcDbLine
 62
7
  6
CONTINUOUS
 10
13.1406108281
 20
26.0826467153
 11
13.1406108281
 21
26.3582372665
  0
LINE
  5
669
100
AcDbEntity
  8
0
100
AcDbLine
 62
7
  6
CONTINUOUS
 10
13.1406108281
 20
26.8857963216
 11
13.1406108281
 21
27.18500892
  0
LINE
  5
66A
100
AcDbEntity
  8
0
100
AcDbLine
 62
7
  6
CONTINUOUS
 10
13.0827519698
 20
27.1023317547
 11
13.1032092533
 21
27.1377648255
  0
LINE
  5
66B
100
AcDbEntity
  8
0
100
AcDbLine
 62
7
  6
CONTINUOUS
 10
12.669366143
 20
26.3031191562
 11
12.6898234265
 21
26.3385522271
  0
LINE
  5
66C
100
AcDbEntity
  8
0
100
AcDbLine
 62
7
  6
CONTINUOUS
 10
12.8071614186
 20
26.3031191562
 11
12.8276187021
 21
26.3385522271
  0
LINE
  5
66D
100
AcDbEntity
  8
0
100
AcDbLine
 62
7
  6
CONTINUOUS
 10
9.424587206
 20
25.7785522271
 11
18.0875005918
 21
25.7785522271
  0
LINE
  5
66E
100
AcDbEntity
  8
0
100
AcDbLine
 62
7
  6
CONTINUOUS
 10
12.985099017
 20
26.3385522271
 11
13.0055563005
 21
26.3031191562
  0
LINE
  5
66F
100
AcDbEntity
  8
0
100
AcDbLine
 62
7
  6
CONTINUOUS
 10
12.5717131903
 20
27.1377648255
 11
12.5921704737
 21
27.1023317547
  0
LINE
  5
670
100
AcDbEntity
  8
0
100
AcDbLine
 62
7
  6
CONTINUOUS
 10
12.7095084659
 20
27.1377648255
 11
12.7299657493
 21
27.1023317547
  0
LINE
  5
671
100
AcDbEntity
  8
0
100
AcDbLine
 62
7
  6
CONTINUOUS
 10
13.4626580722
 20
26.4118202397
 11
13.4626580722
 21
26.0768202397
  0
LINE
  5
672
100
AcDbEntity
  8
0
100
AcDbLine
 62
7
  6
CONTINUOUS
 10
12.9449566942
 20
26.3031191562
 11
12.9654139777
 21
26.3385522271
  0
LINE
  5
673
100
AcDbEntity
  8
0
100
AcDbLine
 62
7
  6
CONTINUOUS
 10
13.0827519698
 20
26.3031191562
 11
13.1032092533
 21
26.3385522271
  0
LINE
  5
674
100
AcDbEntity
  8
0
100
AcDbLine
 62
7
  6
CONTINUOUS
 10
14.6378627966
 20
26.0768199437
 11
15.1118627966
 21
26.0768199437
  0
LINE
  5
675
100
AcDbEntity
  8
0
100
AcDbLine
 62
7
  6
CONTINUOUS
 10
13.4626580722
 20
26.0768202397
 11
14.0626580722
 21
26.0768202397
  0
LINE
  5
676
100
AcDbEntity
  8
0
100
AcDbLine
 62
7
  6
CONTINUOUS
 10
9.7784061037
 20
26.0826467153
 11
11.487067521
 21
26.0826467153
  0
LINE
  5
677
100
AcDbEntity
  8
0
100
AcDbLine
 62
7
  6
CONTINUOUS
 10
11.7075399619
 20
26.0826467153
 11
13.1406108281
 21
26.0826467153
  0
LINE
  5
678
100
AcDbEntity
  8
0
100
AcDbLine
 62
7
  6
CONTINUOUS
 10
17.1847053162
 20
26.0826467153
 11
17.6634454737
 21
26.0826467153
  0
LINE
  5
679
100
AcDbEntity
  8
0
100
AcDbLine
 62
7
  6
CONTINUOUS
 10
15.3433667336
 20
26.0905207311
 11
16.079587206
 21
26.0905207311
  0
LINE
  5
67A
100
AcDbEntity
  8
0
100
AcDbLine
 62
7
  6
CONTINUOUS
 10
16.2784061037
 20
26.0905207311
 11
17.0146265761
 21
26.0905207311
  0
LINE
  5
67B
100
AcDbEntity
  8
0
100
AcDbLine
 62
7
  6
CONTINUOUS
 10
9.8138391745
 20
26.1062687625
 11
9.8354927178
 21
26.1062687625
  0
LINE
  5
67C
100
AcDbEntity
  8
0
100
AcDbLine
 62
7
  6
CONTINUOUS
 10
9.9142328753
 20
26.1062687625
 11
9.9358864186
 21
26.1062687625
  0
LINE
  5
67D
100
AcDbEntity
  8
0
100
AcDbLine
 62
7
  6
CONTINUOUS
 10
9.9516344501
 20
26.1062687625
 11
9.9732879934
 21
26.1062687625
  0
LINE
  5
67E
100
AcDbEntity
  8
0
100
AcDbLine
 62
7
  6
CONTINUOUS
 10
10.0520281509
 20
26.1062687625
 11
10.0736816942
 21
26.1062687625
  0
LINE
  5
67F
100
AcDbEntity
  8
0
100
AcDbLine
 62
7
  6
CONTINUOUS
 10
10.0894297257
 20
26.1062687625
 11
10.111083269
 21
26.1062687625
  0
LINE
  5
680
100
AcDbEntity
  8
0
100
AcDbLine
 62
7
  6
CONTINUOUS
 10
10.1898234265
 20
26.1062687625
 11
10.2114769698
 21
26.1062687625
  0
LINE
  5
681
100
AcDbEntity
  8
0
100
AcDbLine
 62
7
  6
CONTINUOUS
 10
10.2272250013
 20
26.1062687625
 11
10.2488785446
 21
26.1062687625
  0
LINE
  5
682
100
AcDbEntity
  8
0
100
AcDbLine
 62
7
  6
CONTINUOUS
 10
10.3276187021
 20
26.1062687625
 11
10.3492722454
 21
26.1062687625
  0
LINE
  5
683
100
AcDbEntity
  8
0
100
AcDbLine
 62
7
  6
CONTINUOUS
 10
10.3650202769
 20
26.1062687625
 11
10.3866738202
 21
26.1062687625
  0
LINE
  5
684
100
AcDbEntity
  8
0
100
AcDbLine
 62
7
  6
CONTINUOUS
 10
10.4654139777
 20
26.1062687625
 11
10.487067521
 21
26.1062687625
  0
LINE
  5
685
100
AcDbEntity
  8
0
100
AcDbLine
 62
7
  6
CONTINUOUS
 10
10.5028155525
 20
26.1062687625
 11
10.5244690958
 21
26.1062687625
  0
LINE
  5
686
100
AcDbEntity
  8
0
100
AcDbLine
 62
7
  6
CONTINUOUS
 10
10.6032092533
 20
26.1062687625
 11
10.6248627966
 21
26.1062687625
  0
LINE
  5
687
100
AcDbEntity
  8
0
100
AcDbLine
 62
7
  6
CONTINUOUS
 10
10.6406108281
 20
26.1062687625
 11
10.6622643714
 21
26.1062687625
  0
LINE
  5
688
100
AcDbEntity
  8
0
100
AcDbLine
 62
7
  6
CONTINUOUS
 10
10.7410045288
 20
26.1062687625
 11
10.7626580722
 21
26.1062687625
  0
LINE
  5
689
100
AcDbEntity
  8
0
100
AcDbLine
 62
7
  6
CONTINUOUS
 10
10.7784061037
 20
26.1062687625
 11
10.800059647
 21
26.1062687625
  0
LINE
  5
68A
100
AcDbEntity
  8
0
100
AcDbLine
 62
7
  6
CONTINUOUS
 10
10.8787998044
 20
26.1062687625
 11
10.9004533477
 21
26.1062687625
  0
LINE
  5
68B
100
AcDbEntity
  8
0
100
AcDbLine
 62
7
  6
CONTINUOUS
 10
10.9162013792
 20
26.1062687625
 11
10.9378549225
 21
26.1062687625
  0
LINE
  5
68C
100
AcDbEntity
  8
0
100
AcDbLine
 62
7
  6
CONTINUOUS
 10
11.01659508
 20
26.1062687625
 11
11.0382486233
 21
26.1062687625
  0
LINE
  5
68D
100
AcDbEntity
  8
0
100
AcDbLine
 62
7
  6
CONTINUOUS
 10
11.0539966548
 20
26.1062687625
 11
11.0756501981
 21
26.1062687625
  0
LINE
  5
68E
100
AcDbEntity
  8
0
100
AcDbLine
 62
7
  6
CONTINUOUS
 10
11.1543903556
 20
26.1062687625
 11
11.1760438989
 21
26.1062687625
  0
LINE
  5
68F
100
AcDbEntity
  8
0
100
AcDbLine
 62
7
  6
CONTINUOUS
 10
11.1917919304
 20
26.1062687625
 11
11.2134454737
 21
26.1062687625
  0
LINE
  5
690
100
AcDbEntity
  8
0
100
AcDbLine
 62
7
  6
CONTINUOUS
 10
11.2921856312
 20
26.1062687625
 11
11.3138391745
 21
26.1062687625
  0
LINE
  5
691
100
AcDbEntity
  8
0
100
AcDbLine
 62
7
  6
CONTINUOUS
 10
11.329587206
 20
26.1062687625
 11
11.3512407493
 21
26.1062687625
  0
LINE
  5
692
100
AcDbEntity
  8
0
100
AcDbLine
 62
7
  6
CONTINUOUS
 10
11.4299809068
 20
26.1062687625
 11
11.4516344501
 21
26.1062687625
  0
LINE
  5
693
100
AcDbEntity
  8
0
100
AcDbLine
 62
7
  6
CONTINUOUS
 10
11.7429730328
 20
26.1062687625
 11
11.7646265761
 21
26.1062687625
  0
LINE
  5
694
100
AcDbEntity
  8
0
100
AcDbLine
 62
7
  6
CONTINUOUS
 10
11.8433667336
 20
26.1062687625
 11
11.8650202769
 21
26.1062687625
  0
LINE
  5
695
100
AcDbEntity
  8
0
100
AcDbLine
 62
7
  6
CONTINUOUS
 10
11.8807683084
 20
26.1062687625
 11
11.9024218517
 21
26.1062687625
  0
LINE
  5
696
100
AcDbEntity
  8
0
100
AcDbLine
 62
7
  6
CONTINUOUS
 10
11.9811620092
 20
26.1062687625
 11
12.0028155525
 21
26.1062687625
  0
LINE
  5
697
100
AcDbEntity
  8
0
100
AcDbLine
 62
7
  6
CONTINUOUS
 10
12.018563584
 20
26.1062687625
 11
12.0402171273
 21
26.1062687625
  0
LINE
  5
698
100
AcDbEntity
  8
0
100
AcDbLine
 62
7
  6
CONTINUOUS
 10
12.1189572848
 20
26.1062687625
 11
12.1406108281
 21
26.1062687625
  0
LINE
  5
699
100
AcDbEntity
  8
0
100
AcDbLine
 62
7
  6
CONTINUOUS
 10
12.1563588596
 20
26.1062687625
 11
12.1780124029
 21
26.1062687625
  0
LINE
  5
69A
100
AcDbEntity
  8
0
100
AcDbLine
 62
7
  6
CONTINUOUS
 10
12.2567525603
 20
26.1062687625
 11
12.2784061037
 21
26.1062687625
  0
LINE
  5
69B
100
AcDbEntity
  8
0
100
AcDbLine
 62
7
  6
CONTINUOUS
 10
12.2941541351
 20
26.1062687625
 11
12.3158076785
 21
26.1062687625
  0
LINE
  5
69C
100
AcDbEntity
  8
0
100
AcDbLine
 62
7
  6
CONTINUOUS
 10
12.4319494107
 20
26.1062687625
 11
12.453602954
 21
26.1062687625
  0
LINE
  5
69D
100
AcDbEntity
  8
0
100
AcDbLine
 62
7
  6
CONTINUOUS
 10
12.3945478359
 20
26.1062687625
 11
12.4162013792
 21
26.1062687625
  0
LINE
  5
69E
100
AcDbEntity
  8
0
100
AcDbLine
 62
7
  6
CONTINUOUS
 10
12.5697446863
 20
26.1062687625
 11
12.5913982296
 21
26.1062687625
  0
LINE
  5
69F
100
AcDbEntity
  8
0
100
AcDbLine
 62
7
  6
CONTINUOUS
 10
12.5323431115
 20
26.1062687625
 11
12.5539966548
 21
26.1062687625
  0
LINE
  5
6A0
100
AcDbEntity
  8
0
100
AcDbLine
 62
7
  6
CONTINUOUS
 10
12.6701383871
 20
26.1062687625
 11
12.6917919304
 21
26.1062687625
  0
LINE
  5
6A1
100
AcDbEntity
  8
0
100
AcDbLine
 62
7
  6
CONTINUOUS
 10
12.7075399619
 20
26.1062687625
 11
12.7291935052
 21
26.1062687625
  0
LINE
  5
6A2
100
AcDbEntity
  8
0
100
AcDbLine
 62
7
  6
CONTINUOUS
 10
12.8079336627
 20
26.1062687625
 11
12.829587206
 21
26.1062687625
  0
LINE
  5
6A3
100
AcDbEntity
  8
0
100
AcDbLine
 62
7
  6
CONTINUOUS
 10
12.8453352375
 20
26.1062687625
 11
12.8669887808
 21
26.1062687625
  0
LINE
  5
6A4
100
AcDbEntity
  8
0
100
AcDbLine
 62
7
  6
CONTINUOUS
 10
12.9457289383
 20
26.1062687625
 11
12.9673824816
 21
26.1062687625
  0
LINE
  5
6A5
100
AcDbEntity
  8
0
100
AcDbLine
 62
7
  6
CONTINUOUS
 10
12.9831305131
 20
26.1062687625
 11
13.0047840564
 21
26.1062687625
  0
LINE
  5
6A6
100
AcDbEntity
  8
0
100
AcDbLine
 62
7
  6
CONTINUOUS
 10
13.0835242139
 20
26.1062687625
 11
13.1051777572
 21
26.1062687625
  0
LINE
  5
6A7
100
AcDbEntity
  8
0
100
AcDbLine
 62
7
  6
CONTINUOUS
 10
14.7048627966
 20
26.1238199437
 11
15.0448627966
 21
26.1238199437
  0
LINE
  5
6A8
100
AcDbEntity
  8
0
100
AcDbLine
 62
7
  6
CONTINUOUS
 10
14.0626580722
 20
26.1468202397
 11
14.049526508
 21
26.1468202397
  0
LINE
  5
6A9
100
AcDbEntity
  8
0
100
AcDbLine
 62
7
  6
CONTINUOUS
 10
13.8757896363
 20
26.1468202397
 11
13.849526508
 21
26.1468202397
  0
LINE
  5
6AA
100
AcDbEntity
  8
0
100
AcDbLine
 62
7
  6
CONTINUOUS
 10
13.6757896363
 20
26.1468202397
 11
13.649526508
 21
26.1468202397
  0
LINE
  5
6AB
100
AcDbEntity
  8
0
100
AcDbLine
 62
7
  6
CONTINUOUS
 10
13.4626580722
 20
26.1468202397
 11
13.4757896363
 21
26.1468202397
  0
LINE
  5
6AC
100
AcDbEntity
  8
0
100
AcDbLine
 62
7
  6
CONTINUOUS
 10
17.224075395
 20
26.1483950287
 11
17.2437758744
 21
26.1483950287
  0
LINE
  5
6AD
100
AcDbEntity
  8
0
100
AcDbLine
 62
7
  6
CONTINUOUS
 10
17.4043749156
 20
26.1483950287
 11
17.4437758744
 21
26.1483950287
  0
LINE
  5
6AE
100
AcDbEntity
  8
0
100
AcDbLine
 62
7
  6
CONTINUOUS
 10
17.6043749156
 20
26.1483950287
 11
17.624075395
 21
26.1483950287
  0
LINE
  5
6AF
100
AcDbEntity
  8
0
100
AcDbLine
 62
7
  6
CONTINUOUS
 10
15.4673824816
 20
26.1503632507
 11
15.955571458
 21
26.1503632507
  0
LINE
  5
6B0
100
AcDbEntity
  8
0
100
AcDbLine
 62
7
  6
CONTINUOUS
 10
16.4024218517
 20
26.1503632507
 11
16.8906108281
 21
26.1503632507
  0
LINE
  5
6B1
100
AcDbEntity
  8
0
100
AcDbLine
 62
7
  6
CONTINUOUS
 10
9.8591147651
 20
26.1771349043
 11
9.8906108281
 21
26.1771349043
  0
LINE
  5
6B2
100
AcDbEntity
  8
0
100
AcDbLine
 62
7
  6
CONTINUOUS
 10
9.9969100407
 20
26.1771349043
 11
10.0284061037
 21
26.1771349043
  0
LINE
  5
6B3
100
AcDbEntity
  8
0
100
AcDbLine
 62
7
  6
CONTINUOUS
 10
10.1347053162
 20
26.1771349043
 11
10.1662013792
 21
26.1771349043
  0
LINE
  5
6B4
100
AcDbEntity
  8
0
100
AcDbLine
 62
7
  6
CONTINUOUS
 10
10.2725005918
 20
26.1771349043
 11
10.3039966548
 21
26.1771349043
  0
LINE
  5
6B5
100
AcDbEntity
  8
0
100
AcDbLine
 62
7
  6
CONTINUOUS
 10
10.4102958674
 20
26.1771349043
 11
10.4417919304
 21
26.1771349043
  0
LINE
  5
6B6
100
AcDbEntity
  8
0
100
AcDbLine
 62
7
  6
CONTINUOUS
 10
10.548091143
 20
26.1771349043
 11
10.579587206
 21
26.1771349043
  0
LINE
  5
6B7
100
AcDbEntity
  8
0
100
AcDbLine
 62
7
  6
CONTINUOUS
 10
10.6858864186
 20
26.1771349043
 11
10.7173824816
 21
26.1771349043
  0
LINE
  5
6B8
100
AcDbEntity
  8
0
100
AcDbLine
 62
7
  6
CONTINUOUS
 10
10.8236816942
 20
26.1771349043
 11
10.8551777572
 21
26.1771349043
  0
LINE
  5
6B9
100
AcDbEntity
  8
0
100
AcDbLine
 62
7
  6
CONTINUOUS
 10
10.9614769698
 20
26.1771349043
 11
10.9929730328
 21
26.1771349043
  0
LINE
  5
6BA
100
AcDbEntity
  8
0
100
AcDbLine
 62
7
  6
CONTINUOUS
 10
11.0992722454
 20
26.1771349043
 11
11.1307683084
 21
26.1771349043
  0
LINE
  5
6BB
100
AcDbEntity
  8
0
100
AcDbLine
 62
7
  6
CONTINUOUS
 10
11.237067521
 20
26.1771349043
 11
11.268563584
 21
26.1771349043
  0
LINE
  5
6BC
100
AcDbEntity
  8
0
100
AcDbLine
 62
7
  6
CONTINUOUS
 10
11.3748627966
 20
26.1771349043
 11
11.4063588596
 21
26.1771349043
  0
LINE
  5
6BD
100
AcDbEntity
  8
0
100
AcDbLine
 62
7
  6
CONTINUOUS
 10
11.7882486233
 20
26.1771349043
 11
11.8197446863
 21
26.1771349043
  0
LINE
  5
6BE
100
AcDbEntity
  8
0
100
AcDbLine
 62
7
  6
CONTINUOUS
 10
11.9260438989
 20
26.1771349043
 11
11.9575399619
 21
26.1771349043
  0
LINE
  5
6BF
100
AcDbEntity
  8
0
100
AcDbLine
 62
7
  6
CONTINUOUS
 10
12.0638391745
 20
26.1771349043
 11
12.0953352375
 21
26.1771349043
  0
LINE
  5
6C0
100
AcDbEntity
  8
0
100
AcDbLine
 62
7
  6
CONTINUOUS
 10
12.2016344501
 20
26.1771349043
 11
12.2331305131
 21
26.1771349043
  0
LINE
  5
6C1
100
AcDbEntity
  8
0
100
AcDbLine
 62
7
  6
CONTINUOUS
 10
12.3394297257
 20
26.1771349043
 11
12.3709257887
 21
26.1771349043
  0
LINE
  5
6C2
100
AcDbEntity
  8
0
100
AcDbLine
 62
7
  6
CONTINUOUS
 10
12.4772250013
 20
26.1771349043
 11
12.5087210643
 21
26.1771349043
  0
LINE
  5
6C3
100
AcDbEntity
  8
0
100
AcDbLine
 62
7
  6
CONTINUOUS
 10
12.6150202769
 20
26.1771349043
 11
12.6465163399
 21
26.1771349043
  0
LINE
  5
6C4
100
AcDbEntity
  8
0
100
AcDbLine
 62
7
  6
CONTINUOUS
 10
12.7528155525
 20
26.1771349043
 11
12.7843116155
 21
26.1771349043
  0
LINE
  5
6C5
100
AcDbEntity
  8
0
100
AcDbLine
 62
7
  6
CONTINUOUS
 10
12.8906108281
 20
26.1771349043
 11
12.9221068911
 21
26.1771349043
  0
LINE
  5
6C6
100
AcDbEntity
  8
0
100
AcDbLine
 62
7
  6
CONTINUOUS
 10
13.0284061037
 20
26.1771349043
 11
13.0599021666
 21
26.1771349043
  0
LINE
  5
6C7
100
AcDbEntity
  8
0
100
AcDbLine
 62
7
  6
CONTINUOUS
 10
13.0599021666
 20
26.2086309673
 11
13.0284061037
 21
26.2086309673
  0
LINE
  5
6C8
100
AcDbEntity
  8
0
100
AcDbLine
 62
7
  6
CONTINUOUS
 10
12.9221068911
 20
26.2086309673
 11
12.8906108281
 21
26.2086309673
  0
LINE
  5
6C9
100
AcDbEntity
  8
0
100
AcDbLine
 62
7
  6
CONTINUOUS
 10
12.7843116155
 20
26.2086309673
 11
12.7528155525
 21
26.2086309673
  0
LINE
  5
6CA
100
AcDbEntity
  8
0
100
AcDbLine
 62
7
  6
CONTINUOUS
 10
12.6465163399
 20
26.2086309673
 11
12.6150202769
 21
26.2086309673
  0
LINE
  5
6CB
100
AcDbEntity
  8
0
100
AcDbLine
 62
7
  6
CONTINUOUS
 10
12.5087210643
 20
26.2086309673
 11
12.4772250013
 21
26.2086309673
  0
LINE
  5
6CC
100
AcDbEntity
  8
0
100
AcDbLine
 62
7
  6
CONTINUOUS
 10
12.3709257887
 20
26.2086309673
 11
12.3394297257
 21
26.2086309673
  0
LINE
  5
6CD
100
AcDbEntity
  8
0
100
AcDbLine
 62
7
  6
CONTINUOUS
 10
12.2331305131
 20
26.2086309673
 11
12.2016344501
 21
26.2086309673
  0
LINE
  5
6CE
100
AcDbEntity
  8
0
100
AcDbLine
 62
7
  6
CONTINUOUS
 10
12.0953352375
 20
26.2086309673
 11
12.0638391745
 21
26.2086309673
  0
LINE
  5
6CF
100
AcDbEntity
  8
0
100
AcDbLine
 62
7
  6
CONTINUOUS
 10
11.9575399619
 20
26.2086309673
 11
11.9260438989
 21
26.2086309673
  0
LINE
  5
6D0
100
AcDbEntity
  8
0
100
AcDbLine
 62
7
  6
CONTINUOUS
 10
11.8197446863
 20
26.2086309673
 11
11.7882486233
 21
26.2086309673
  0
LINE
  5
6D1
100
AcDbEntity
  8
0
100
AcDbLine
 62
7
  6
CONTINUOUS
 10
11.4063588596
 20
26.2086309673
 11
11.3748627966
 21
26.2086309673
  0
LINE
  5
6D2
100
AcDbEntity
  8
0
100
AcDbLine
 62
7
  6
CONTINUOUS
 10
11.268563584
 20
26.2086309673
 11
11.237067521
 21
26.2086309673
  0
LINE
  5
6D3
100
AcDbEntity
  8
0
100
AcDbLine
 62
7
  6
CONTINUOUS
 10
11.1307683084
 20
26.2086309673
 11
11.0992722454
 21
26.2086309673
  0
LINE
  5
6D4
100
AcDbEntity
  8
0
100
AcDbLine
 62
7
  6
CONTINUOUS
 10
10.9929730328
 20
26.2086309673
 11
10.9614769698
 21
26.2086309673
  0
LINE
  5
6D5
100
AcDbEntity
  8
0
100
AcDbLine
 62
7
  6
CONTINUOUS
 10
10.8551777572
 20
26.2086309673
 11
10.8236816942
 21
26.2086309673
  0
LINE
  5
6D6
100
AcDbEntity
  8
0
100
AcDbLine
 62
7
  6
CONTINUOUS
 10
10.7173824816
 20
26.2086309673
 11
10.6858864186
 21
26.2086309673
  0
LINE
  5
6D7
100
AcDbEntity
  8
0
100
AcDbLine
 62
7
  6
CONTINUOUS
 10
10.579587206
 20
26.2086309673
 11
10.548091143
 21
26.2086309673
  0
LINE
  5
6D8
100
AcDbEntity
  8
0
100
AcDbLine
 62
7
  6
CONTINUOUS
 10
10.4417919304
 20
26.2086309673
 11
10.4102958674
 21
26.2086309673
  0
LINE
  5
6D9
100
AcDbEntity
  8
0
100
AcDbLine
 62
7
  6
CONTINUOUS
 10
10.3039966548
 20
26.2086309673
 11
10.2725005918
 21
26.2086309673
  0
LINE
  5
6DA
100
AcDbEntity
  8
0
100
AcDbLine
 62
7
  6
CONTINUOUS
 10
10.1662013792
 20
26.2086309673
 11
10.1347053162
 21
26.2086309673
  0
LINE
  5
6DB
100
AcDbEntity
  8
0
100
AcDbLine
 62
7
  6
CONTINUOUS
 10
10.0284061037
 20
26.2086309673
 11
9.9969100407
 21
26.2086309673
  0
LINE
  5
6DC
100
AcDbEntity
  8
0
100
AcDbLine
 62
7
  6
CONTINUOUS
 10
9.8906108281
 20
26.2086309673
 11
9.8591147651
 21
26.2086309673
  0
LINE
  5
6DD
100
AcDbEntity
  8
0
100
AcDbLine
 62
7
  6
CONTINUOUS
 10
13.5416580722
 20
26.2126279437
 11
13.5836580722
 21
26.2126279437
  0
LINE
  5
6DE
100
AcDbEntity
  8
0
100
AcDbLine
 62
7
  6
CONTINUOUS
 10
13.7416580722
 20
26.2126279437
 11
13.7836580722
 21
26.2126279437
  0
LINE
  5
6DF
100
AcDbEntity
  8
0
100
AcDbLine
 62
7
  6
CONTINUOUS
 10
13.9416580722
 20
26.2126279437
 11
13.9836580722
 21
26.2126279437
  0
LINE
  5
6E0
100
AcDbEntity
  8
0
100
AcDbLine
 62
7
  6
CONTINUOUS
 10
17.3043903556
 20
26.215324162
 11
17.3437604344
 21
26.215324162
  0
LINE
  5
6E1
100
AcDbEntity
  8
0
100
AcDbLine
 62
7
  6
CONTINUOUS
 10
17.5043903556
 20
26.215324162
 11
17.5437604344
 21
26.215324162
  0
LINE
  5
6E2
100
AcDbEntity
  8
0
100
AcDbLine
 62
7
  6
CONTINUOUS
 10
14.7703627966
 20
26.2178199437
 11
14.9793627966
 21
26.2178199437
  0
LINE
  5
6E3
100
AcDbEntity
  8
0
100
AcDbLine
 62
7
  6
CONTINUOUS
 10
14.7863627966
 20
26.2338199437
 11
14.9633627966
 21
26.2338199437
  0
LINE
  5
6E4
100
AcDbEntity
  8
0
100
AcDbLine
 62
7
  6
CONTINUOUS
 10
15.493563584
 20
26.2511506523
 11
15.9293903556
 21
26.2511506523
  0
LINE
  5
6E5
100
AcDbEntity
  8
0
100
AcDbLine
 62
7
  6
CONTINUOUS
 10
16.428602954
 20
26.2511506523
 11
16.8644297257
 21
26.2511506523
  0
LINE
  5
6E6
100
AcDbEntity
  8
0
100
AcDbLine
 62
7
  6
CONTINUOUS
 10
13.9836580722
 20
26.2546279437
 11
13.9416580722
 21
26.2546279437
  0
LINE
  5
6E7
100
AcDbEntity
  8
0
100
AcDbLine
 62
7
  6
CONTINUOUS
 10
13.7836580722
 20
26.2546279437
 11
13.7416580722
 21
26.2546279437
  0
LINE
  5
6E8
100
AcDbEntity
  8
0
100
AcDbLine
 62
7
  6
CONTINUOUS
 10
13.5836580722
 20
26.2546279437
 11
13.5416580722
 21
26.2546279437
  0
LINE
  5
6E9
100
AcDbEntity
  8
0
100
AcDbLine
 62
7
  6
CONTINUOUS
 10
17.5437604344
 20
26.2546942407
 11
17.5043903556
 21
26.2546942407
  0
LINE
  5
6EA
100
AcDbEntity
  8
0
100
AcDbLine
 62
7
  6
CONTINUOUS
 10
17.3437604344
 20
26.2546942407
 11
17.3043903556
 21
26.2546942407
  0
LINE
  5
6EB
100
AcDbEntity
  8
0
100
AcDbLine
 62
7
  6
CONTINUOUS
 10
15.5211226391
 20
26.2787097074
 11
15.9018313005
 21
26.2787097074
  0
LINE
  5
6EC
100
AcDbEntity
  8
0
100
AcDbLine
 62
7
  6
CONTINUOUS
 10
16.4561620092
 20
26.2787097074
 11
16.8368706706
 21
26.2787097074
  0
LINE
  5
6ED
100
AcDbEntity
  8
0
100
AcDbLine
 62
7
  6
CONTINUOUS
 10
13.1051777572
 20
26.279497109
 11
13.0717131903
 21
26.279497109
  0
LINE
  5
6EE
100
AcDbEntity
  8
0
100
AcDbLine
 62
7
  6
CONTINUOUS
 10
13.01659508
 20
26.279497109
 11
12.9831305131
 21
26.279497109
  0
LINE
  5
6EF
100
AcDbEntity
  8
0
100
AcDbLine
 62
7
  6
CONTINUOUS
 10
12.9673824816
 20
26.279497109
 11
12.9339179147
 21
26.279497109
  0
LINE
  5
6F0
100
AcDbEntity
  8
0
100
AcDbLine
 62
7
  6
CONTINUOUS
 10
12.8787998044
 20
26.279497109
 11
12.8453352375
 21
26.279497109
  0
LINE
  5
6F1
100
AcDbEntity
  8
0
100
AcDbLine
 62
7
  6
CONTINUOUS
 10
12.829587206
 20
26.279497109
 11
12.7961226391
 21
26.279497109
  0
LINE
  5
6F2
100
AcDbEntity
  8
0
100
AcDbLine
 62
7
  6
CONTINUOUS
 10
12.7410045288
 20
26.279497109
 11
12.7075399619
 21
26.279497109
  0
LINE
  5
6F3
100
AcDbEntity
  8
0
100
AcDbLine
 62
7
  6
CONTINUOUS
 10
12.6917919304
 20
26.279497109
 11
12.6583273635
 21
26.279497109
  0
LINE
  5
6F4
100
AcDbEntity
  8
0
100
AcDbLine
 62
7
  6
CONTINUOUS
 10
12.6032092533
 20
26.279497109
 11
12.5697446863
 21
26.279497109
  0
LINE
  5
6F5
100
AcDbEntity
  8
0
100
AcDbLine
 62
7
  6
CONTINUOUS
 10
12.5539966548
 20
26.279497109
 11
12.5205320879
 21
26.279497109
  0
LINE
  5
6F6
100
AcDbEntity
  8
0
100
AcDbLine
 62
7
  6
CONTINUOUS
 10
12.4654139777
 20
26.279497109
 11
12.4319494107
 21
26.279497109
  0
LINE
  5
6F7
100
AcDbEntity
  8
0
100
AcDbLine
 62
7
  6
CONTINUOUS
 10
12.4162013792
 20
26.279497109
 11
12.3827368123
 21
26.279497109
  0
LINE
  5
6F8
100
AcDbEntity
  8
0
100
AcDbLine
 62
7
  6
CONTINUOUS
 10
12.3276187021
 20
26.279497109
 11
12.2941541351
 21
26.279497109
  0
LINE
  5
6F9
100
AcDbEntity
  8
0
100
AcDbLine
 62
7
  6
CONTINUOUS
 10
12.2784061037
 20
26.279497109
 11
12.2449415367
 21
26.279497109
  0
LINE
  5
6FA
100
AcDbEntity
  8
0
100
AcDbLine
 62
7
  6
CONTINUOUS
 10
12.1898234265
 20
26.279497109
 11
12.1563588596
 21
26.279497109
  0
LINE
  5
6FB
100
AcDbEntity
  8
0
100
AcDbLine
 62
7
  6
CONTINUOUS
 10
12.1406108281
 20
26.279497109
 11
12.1071462611
 21
26.279497109
  0
LINE
  5
6FC
100
AcDbEntity
  8
0
100
AcDbLine
 62
7
  6
CONTINUOUS
 10
12.0520281509
 20
26.279497109
 11
12.018563584
 21
26.279497109
  0
LINE
  5
6FD
100
AcDbEntity
  8
0
100
AcDbLine
 62
7
  6
CONTINUOUS
 10
12.0028155525
 20
26.279497109
 11
11.9693509855
 21
26.279497109
  0
LINE
  5
6FE
100
AcDbEntity
  8
0
100
AcDbLine
 62
7
  6
CONTINUOUS
 10
11.9142328753
 20
26.279497109
 11
11.8807683084
 21
26.279497109
  0
LINE
  5
6FF
100
AcDbEntity
  8
0
100
AcDbLine
 62
7
  6
CONTINUOUS
 10
11.8650202769
 20
26.279497109
 11
11.83155571
 21
26.279497109
  0
LINE
  5
700
100
AcDbEntity
  8
0
100
AcDbLine
 62
7
  6
CONTINUOUS
 10
11.7764375997
 20
26.279497109
 11
11.7429730328
 21
26.279497109
  0
LINE
  5
701
100
AcDbEntity
  8
0
100
AcDbLine
 62
7
  6
CONTINUOUS
 10
11.4516344501
 20
26.279497109
 11
11.4181698832
 21
26.279497109
  0
LINE
  5
702
100
AcDbEntity
  8
0
100
AcDbLine
 62
7
  6
CONTINUOUS
 10
11.3630517729
 20
26.279497109
 11
11.329587206
 21
26.279497109
  0
LINE
  5
703
100
AcDbEntity
  8
0
100
AcDbLine
 62
7
  6
CONTINUOUS
 10
11.3138391745
 20
26.279497109
 11
11.2803746076
 21
26.279497109
  0
LINE
  5
704
100
AcDbEntity
  8
0
100
AcDbLine
 62
7
  6
CONTINUOUS
 10
11.2252564974
 20
26.279497109
 11
11.1917919304
 21
26.279497109
  0
LINE
  5
705
100
AcDbEntity
  8
0
100
AcDbLine
 62
7
  6
CONTINUOUS
 10
11.1760438989
 20
26.279497109
 11
11.142579332
 21
26.279497109
  0
LINE
  5
706
100
AcDbEntity
  8
0
100
AcDbLine
 62
7
  6
CONTINUOUS
 10
11.0874612218
 20
26.279497109
 11
11.0539966548
 21
26.279497109
  0
LINE
  5
707
100
AcDbEntity
  8
0
100
AcDbLine
 62
7
  6
CONTINUOUS
 10
11.0382486233
 20
26.279497109
 11
11.0047840564
 21
26.279497109
  0
LINE
  5
708
100
AcDbEntity
  8
0
100
AcDbLine
 62
7
  6
CONTINUOUS
 10
10.9496659462
 20
26.279497109
 11
10.9162013792
 21
26.279497109
  0
LINE
  5
709
100
AcDbEntity
  8
0
100
AcDbLine
 62
7
  6
CONTINUOUS
 10
10.9004533477
 20
26.279497109
 11
10.8669887808
 21
26.279497109
  0
LINE
  5
70A
100
AcDbEntity
  8
0
100
AcDbLine
 62
7
  6
CONTINUOUS
 10
10.8118706706
 20
26.279497109
 11
10.7784061037
 21
26.279497109
  0
LINE
  5
70B
100
AcDbEntity
  8
0
100
AcDbLine
 62
7
  6
CONTINUOUS
 10
10.7626580722
 20
26.279497109
 11
10.7291935052
 21
26.279497109
  0
LINE
  5
70C
100
AcDbEntity
  8
0
100
AcDbLine
 62
7
  6
CONTINUOUS
 10
10.674075395
 20
26.279497109
 11
10.6406108281
 21
26.279497109
  0
LINE
  5
70D
100
AcDbEntity
  8
0
100
AcDbLine
 62
7
  6
CONTINUOUS
 10
10.6248627966
 20
26.279497109
 11
10.5913982296
 21
26.279497109
  0
LINE
  5
70E
100
AcDbEntity
  8
0
100
AcDbLine
 62
7
  6
CONTINUOUS
 10
10.5362801194
 20
26.279497109
 11
10.5028155525
 21
26.279497109
  0
LINE
  5
70F
100
AcDbEntity
  8
0
100
AcDbLine
 62
7
  6
CONTINUOUS
 10
10.487067521
 20
26.279497109
 11
10.453602954
 21
26.279497109
  0
LINE
  5
710
100
AcDbEntity
  8
0
100
AcDbLine
 62
7
  6
CONTINUOUS
 10
10.3984848438
 20
26.279497109
 11
10.3650202769
 21
26.279497109
  0
LINE
  5
711
100
AcDbEntity
  8
0
100
AcDbLine
 62
7
  6
CONTINUOUS
 10
10.3492722454
 20
26.279497109
 11
10.3158076785
 21
26.279497109
  0
LINE
  5
712
100
AcDbEntity
  8
0
100
AcDbLine
 62
7
  6
CONTINUOUS
 10
10.2606895682
 20
26.279497109
 11
10.2272250013
 21
26.279497109
  0
LINE
  5
713
100
AcDbEntity
  8
0
100
AcDbLine
 62
7
  6
CONTINUOUS
 10
10.2114769698
 20
26.279497109
 11
10.1780124029
 21
26.279497109
  0
LINE
  5
714
100
AcDbEntity
  8
0
100
AcDbLine
 62
7
  6
CONTINUOUS
 10
10.1228942926
 20
26.279497109
 11
10.0894297257
 21
26.279497109
  0
LINE
  5
715
100
AcDbEntity
  8
0
100
AcDbLine
 62
7
  6
CONTINUOUS
 10
10.0736816942
 20
26.279497109
 11
10.0402171273
 21
26.279497109
  0
LINE
  5
716
100
AcDbEntity
  8
0
100
AcDbLine
 62
7
  6
CONTINUOUS
 10
9.985099017
 20
26.279497109
 11
9.9516344501
 21
26.279497109
  0
LINE
  5
717
100
AcDbEntity
  8
0
100
AcDbLine
 62
7
  6
CONTINUOUS
 10
9.9358864186
 20
26.279497109
 11
9.9024218517
 21
26.279497109
  0
LINE
  5
718
100
AcDbEntity
  8
0
100
AcDbLine
 62
7
  6
CONTINUOUS
 10
9.8473037414
 20
26.279497109
 11
9.8138391745
 21
26.279497109
  0
LINE
  5
719
100
AcDbEntity
  8
0
100
AcDbLine
 62
7
  6
CONTINUOUS
 10
9.8362649619
 20
26.3031191562
 11
9.8473037414
 21
26.3031191562
  0
LINE
  5
71A
100
AcDbEntity
  8
0
100
AcDbLine
 62
7
  6
CONTINUOUS
 10
9.9024218517
 20
26.3031191562
 11
9.9134606312
 21
26.3031191562
  0
LINE
  5
71B
100
AcDbEntity
  8
0
100
AcDbLine
 62
7
  6
CONTINUOUS
 10
9.9740602375
 20
26.3031191562
 11
9.985099017
 21
26.3031191562
  0
LINE
  5
71C
100
AcDbEntity
  8
0
100
AcDbLine
 62
7
  6
CONTINUOUS
 10
10.0402171273
 20
26.3031191562
 11
10.0512559068
 21
26.3031191562
  0
LINE
  5
71D
100
AcDbEntity
  8
0
100
AcDbLine
 62
7
  6
CONTINUOUS
 10
10.1118555131
 20
26.3031191562
 11
10.1228942926
 21
26.3031191562
  0
LINE
  5
71E
100
AcDbEntity
  8
0
100
AcDbLine
 62
7
  6
CONTINUOUS
 10
10.1780124029
 20
26.3031191562
 11
10.1890511824
 21
26.3031191562
  0
LINE
  5
71F
100
AcDbEntity
  8
0
100
AcDbLine
 62
7
  6
CONTINUOUS
 10
10.2496507887
 20
26.3031191562
 11
10.2606895682
 21
26.3031191562
  0
LINE
  5
720
100
AcDbEntity
  8
0
100
AcDbLine
 62
7
  6
CONTINUOUS
 10
10.3158076785
 20
26.3031191562
 11
10.326846458
 21
26.3031191562
  0
LINE
  5
721
100
AcDbEntity
  8
0
100
AcDbLine
 62
7
  6
CONTINUOUS
 10
10.3874460643
 20
26.3031191562
 11
10.3984848438
 21
26.3031191562
  0
LINE
  5
722
100
AcDbEntity
  8
0
100
AcDbLine
 62
7
  6
CONTINUOUS
 10
10.453602954
 20
26.3031191562
 11
10.4646417336
 21
26.3031191562
  0
LINE
  5
723
100
AcDbEntity
  8
0
100
AcDbLine
 62
7
  6
CONTINUOUS
 10
10.5252413399
 20
26.3031191562
 11
10.5362801194
 21
26.3031191562
  0
LINE
  5
724
100
AcDbEntity
  8
0
100
AcDbLine
 62
7
  6
CONTINUOUS
 10
10.5913982296
 20
26.3031191562
 11
10.6024370092
 21
26.3031191562
  0
LINE
  5
725
100
AcDbEntity
  8
0
100
AcDbLine
 62
7
  6
CONTINUOUS
 10
10.6630366155
 20
26.3031191562
 11
10.674075395
 21
26.3031191562
  0
LINE
  5
726
100
AcDbEntity
  8
0
100
AcDbLine
 62
7
  6
CONTINUOUS
 10
10.7291935052
 20
26.3031191562
 11
10.7402322848
 21
26.3031191562
  0
LINE
  5
727
100
AcDbEntity
  8
0
100
AcDbLine
 62
7
  6
CONTINUOUS
 10
10.8008318911
 20
26.3031191562
 11
10.8118706706
 21
26.3031191562
  0
LINE
  5
728
100
AcDbEntity
  8
0
100
AcDbLine
 62
7
  6
CONTINUOUS
 10
10.8669887808
 20
26.3031191562
 11
10.8780275603
 21
26.3031191562
  0
LINE
  5
729
100
AcDbEntity
  8
0
100
AcDbLine
 62
7
  6
CONTINUOUS
 10
10.9386271666
 20
26.3031191562
 11
10.9496659462
 21
26.3031191562
  0
LINE
  5
72A
100
AcDbEntity
  8
0
100
AcDbLine
 62
7
  6
CONTINUOUS
 10
11.0047840564
 20
26.3031191562
 11
11.0158228359
 21
26.3031191562
  0
LINE
  5
72B
100
AcDbEntity
  8
0
100
AcDbLine
 62
7
  6
CONTINUOUS
 10
11.0764224422
 20
26.3031191562
 11
11.0874612218
 21
26.3031191562
  0
LINE
  5
72C
100
AcDbEntity
  8
0
100
AcDbLine
 62
7
  6
CONTINUOUS
 10
11.142579332
 20
26.3031191562
 11
11.1536181115
 21
26.3031191562
  0
LINE
  5
72D
100
AcDbEntity
  8
0
100
AcDbLine
 62
7
  6
CONTINUOUS
 10
11.2142177178
 20
26.3031191562
 11
11.2252564974
 21
26.3031191562
  0
LINE
  5
72E
100
AcDbEntity
  8
0
100
AcDbLine
 62
7
  6
CONTINUOUS
 10
11.2803746076
 20
26.3031191562
 11
11.2914133871
 21
26.3031191562
  0
LINE
  5
72F
100
AcDbEntity
  8
0
100
AcDbLine
 62
7
  6
CONTINUOUS
 10
11.3520129934
 20
26.3031191562
 11
11.3630517729
 21
26.3031191562
  0
LINE
  5
730
100
AcDbEntity
  8
0
100
AcDbLine
 62
7
  6
CONTINUOUS
 10
11.4181698832
 20
26.3031191562
 11
11.4292086627
 21
26.3031191562
  0
LINE
  5
731
100
AcDbEntity
  8
0
100
AcDbLine
 62
7
  6
CONTINUOUS
 10
11.7653988202
 20
26.3031191562
 11
11.7764375997
 21
26.3031191562
  0
LINE
  5
732
100
AcDbEntity
  8
0
100
AcDbLine
 62
7
  6
CONTINUOUS
 10
11.83155571
 20
26.3031191562
 11
11.8425944895
 21
26.3031191562
  0
LINE
  5
733
100
AcDbEntity
  8
0
100
AcDbLine
 62
7
  6
CONTINUOUS
 10
11.9031940958
 20
26.3031191562
 11
11.9142328753
 21
26.3031191562
  0
LINE
  5
734
100
AcDbEntity
  8
0
100
AcDbLine
 62
7
  6
CONTINUOUS
 10
11.9693509855
 20
26.3031191562
 11
11.9803897651
 21
26.3031191562
  0
LINE
  5
735
100
AcDbEntity
  8
0
100
AcDbLine
 62
7
  6
CONTINUOUS
 10
12.0409893714
 20
26.3031191562
 11
12.0520281509
 21
26.3031191562
  0
LINE
  5
736
100
AcDbEntity
  8
0
100
AcDbLine
 62
7
  6
CONTINUOUS
 10
12.1071462611
 20
26.3031191562
 11
12.1181850407
 21
26.3031191562
  0
LINE
  5
737
100
AcDbEntity
  8
0
100
AcDbLine
 62
7
  6
CONTINUOUS
 10
12.178784647
 20
26.3031191562
 11
12.1898234265
 21
26.3031191562
  0
LINE
  5
738
100
AcDbEntity
  8
0
100
AcDbLine
 62
7
  6
CONTINUOUS
 10
12.2449415367
 20
26.3031191562
 11
12.2559803162
 21
26.3031191562
  0
LINE
  5
739
100
AcDbEntity
  8
0
100
AcDbLine
 62
7
  6
CONTINUOUS
 10
12.3165799225
 20
26.3031191562
 11
12.3276187021
 21
26.3031191562
  0
LINE
  5
73A
100
AcDbEntity
  8
0
100
AcDbLine
 62
7
  6
CONTINUOUS
 10
12.3827368123
 20
26.3031191562
 11
12.3937755918
 21
26.3031191562
  0
LINE
  5
73B
100
AcDbEntity
  8
0
100
AcDbLine
 62
7
  6
CONTINUOUS
 10
12.4543751981
 20
26.3031191562
 11
12.4654139777
 21
26.3031191562
  0
LINE
  5
73C
100
AcDbEntity
  8
0
100
AcDbLine
 62
7
  6
CONTINUOUS
 10
12.5205320879
 20
26.3031191562
 11
12.5315708674
 21
26.3031191562
  0
LINE
  5
73D
100
AcDbEntity
  8
0
100
AcDbLine
 62
7
  6
CONTINUOUS
 10
12.5921704737
 20
26.3031191562
 11
12.6032092533
 21
26.3031191562
  0
LINE
  5
73E
100
AcDbEntity
  8
0
100
AcDbLine
 62
7
  6
CONTINUOUS
 10
12.6583273635
 20
26.3031191562
 11
12.669366143
 21
26.3031191562
  0
LINE
  5
73F
100
AcDbEntity
  8
0
100
AcDbLine
 62
7
  6
CONTINUOUS
 10
12.7299657493
 20
26.3031191562
 11
12.7410045288
 21
26.3031191562
  0
LINE
  5
740
100
AcDbEntity
  8
0
100
AcDbLine
 62
7
  6
CONTINUOUS
 10
12.7961226391
 20
26.3031191562
 11
12.8071614186
 21
26.3031191562
  0
LINE
  5
741
100
AcDbEntity
  8
0
100
AcDbLine
 62
7
  6
CONTINUOUS
 10
12.8677610249
 20
26.3031191562
 11
12.8787998044
 21
26.3031191562
  0
LINE
  5
742
100
AcDbEntity
  8
0
100
AcDbLine
 62
7
  6
CONTINUOUS
 10
12.9339179147
 20
26.3031191562
 11
12.9449566942
 21
26.3031191562
  0
LINE
  5
743
100
AcDbEntity
  8
0
100
AcDbLine
 62
7
  6
CONTINUOUS
 10
13.0055563005
 20
26.3031191562
 11
13.01659508
 21
26.3031191562
  0
LINE
  5
744
100
AcDbEntity
  8
0
100
AcDbLine
 62
7
  6
CONTINUOUS
 10
13.0717131903
 20
26.3031191562
 11
13.0827519698
 21
26.3031191562
  0
LINE
  5
745
100
AcDbEntity
  8
0
100
AcDbLine
 62
7
  6
CONTINUOUS
 10
16.8368706706
 20
26.3062687625
 11
16.4561620092
 21
26.3062687625
  0
LINE
  5
746
100
AcDbEntity
  8
0
100
AcDbLine
 62
7
  6
CONTINUOUS
 10
15.9018313005
 20
26.3062687625
 11
15.5211226391
 21
26.3062687625
  0
LINE
  5
747
100
AcDbEntity
  8
0
100
AcDbLine
 62
7
  6
CONTINUOUS
 10
14.9633627966
 20
26.3218199437
 11
14.7863627966
 21
26.3218199437
  0
LINE
  5
748
100
AcDbEntity
  8
0
100
AcDbLine
 62
7
  6
CONTINUOUS
 10
16.8644297257
 20
26.3338278177
 11
16.428602954
 21
26.3338278177
  0
LINE
  5
749
100
AcDbEntity
  8
0
100
AcDbLine
 62
7
  6
CONTINUOUS
 10
15.9293903556
 20
26.3338278177
 11
15.493563584
 21
26.3338278177
  0
LINE
  5
74A
100
AcDbEntity
  8
0
100
AcDbLine
 62
7
  6
CONTINUOUS
 10
14.9793627966
 20
26.3378199437
 11
14.7703627966
 21
26.3378199437
  0
LINE
  5
74B
100
AcDbEntity
  8
0
100
AcDbLine
 62
7
  6
CONTINUOUS
 10
13.1032092533
 20
26.3385522271
 11
12.985099017
 21
26.3385522271
  0
LINE
  5
74C
100
AcDbEntity
  8
0
100
AcDbLine
 62
7
  6
CONTINUOUS
 10
12.9654139777
 20
26.3385522271
 11
12.8473037414
 21
26.3385522271
  0
LINE
  5
74D
100
AcDbEntity
  8
0
100
AcDbLine
 62
7
  6
CONTINUOUS
 10
12.8276187021
 20
26.3385522271
 11
12.7095084659
 21
26.3385522271
  0
LINE
  5
74E
100
AcDbEntity
  8
0
100
AcDbLine
 62
7
  6
CONTINUOUS
 10
12.6898234265
 20
26.3385522271
 11
12.5717131903
 21
26.3385522271
  0
LINE
  5
74F
100
AcDbEntity
  8
0
100
AcDbLine
 62
7
  6
CONTINUOUS
 10
12.5520281509
 20
26.3385522271
 11
12.4339179147
 21
26.3385522271
  0
LINE
  5
750
100
AcDbEntity
  8
0
100
AcDbLine
 62
7
  6
CONTINUOUS
 10
12.4142328753
 20
26.3385522271
 11
12.2961226391
 21
26.3385522271
  0
LINE
  5
751
100
AcDbEntity
  8
0
100
AcDbLine
 62
7
  6
CONTINUOUS
 10
12.2764375997
 20
26.3385522271
 11
12.1583273635
 21
26.3385522271
  0
LINE
  5
752
100
AcDbEntity
  8
0
100
AcDbLine
 62
7
  6
CONTINUOUS
 10
12.1386423241
 20
26.3385522271
 11
12.0205320879
 21
26.3385522271
  0
LINE
  5
753
100
AcDbEntity
  8
0
100
AcDbLine
 62
7
  6
CONTINUOUS
 10
12.0008470485
 20
26.3385522271
 11
11.8827368123
 21
26.3385522271
  0
LINE
  5
754
100
AcDbEntity
  8
0
100
AcDbLine
 62
7
  6
CONTINUOUS
 10
11.8630517729
 20
26.3385522271
 11
11.7449415367
 21
26.3385522271
  0
LINE
  5
755
100
AcDbEntity
  8
0
100
AcDbLine
 62
7
  6
CONTINUOUS
 10
11.4496659462
 20
26.3385522271
 11
11.33155571
 21
26.3385522271
  0
LINE
  5
756
100
AcDbEntity
  8
0
100
AcDbLine
 62
7
  6
CONTINUOUS
 10
11.3118706706
 20
26.3385522271
 11
11.1937604344
 21
26.3385522271
  0
LINE
  5
757
100
AcDbEntity
  8
0
100
AcDbLine
 62
7
  6
CONTINUOUS
 10
11.174075395
 20
26.3385522271
 11
11.0559651588
 21
26.3385522271
  0
LINE
  5
758
100
AcDbEntity
  8
0
100
AcDbLine
 62
7
  6
CONTINUOUS
 10
11.0362801194
 20
26.3385522271
 11
10.9181698832
 21
26.3385522271
  0
LINE
  5
759
100
AcDbEntity
  8
0
100
AcDbLine
 62
7
  6
CONTINUOUS
 10
10.8984848438
 20
26.3385522271
 11
10.7803746076
 21
26.3385522271
  0
LINE
  5
75A
100
AcDbEntity
  8
0
100
AcDbLine
 62
7
  6
CONTINUOUS
 10
10.7606895682
 20
26.3385522271
 11
10.642579332
 21
26.3385522271
  0
LINE
  5
75B
100
AcDbEntity
  8
0
100
AcDbLine
 62
7
  6
CONTINUOUS
 10
10.6228942926
 20
26.3385522271
 11
10.5047840564
 21
26.3385522271
  0
LINE
  5
75C
100
AcDbEntity
  8
0
100
AcDbLine
 62
7
  6
CONTINUOUS
 10
10.485099017
 20
26.3385522271
 11
10.3669887808
 21
26.3385522271
  0
LINE
  5
75D
100
AcDbEntity
  8
0
100
AcDbLine
 62
7
  6
CONTINUOUS
 10
10.3473037414
 20
26.3385522271
 11
10.2291935052
 21
26.3385522271
  0
LINE
  5
75E
100
AcDbEntity
  8
0
100
AcDbLine
 62
7
  6
CONTINUOUS
 10
10.2095084659
 20
26.3385522271
 11
10.0913982296
 21
26.3385522271
  0
LINE
  5
75F
100
AcDbEntity
  8
0
100
AcDbLine
 62
7
  6
CONTINUOUS
 10
10.0717131903
 20
26.3385522271
 11
9.953602954
 21
26.3385522271
  0
LINE
  5
760
100
AcDbEntity
  8
0
100
AcDbLine
 62
7
  6
CONTINUOUS
 10
9.9339179147
 20
26.3385522271
 11
9.8158076785
 21
26.3385522271
  0
LINE
  5
761
100
AcDbEntity
  8
0
100
AcDbLine
 62
7
  6
CONTINUOUS
 10
14.0626580722
 20
26.3448202397
 11
14.0196580722
 21
26.3448202397
  0
LINE
  5
762
100
AcDbEntity
  8
0
100
AcDbLine
 62
7
  6
CONTINUOUS
 10
13.4626580722
 20
26.3448202397
 11
13.5056580722
 21
26.3448202397
  0
LINE
  5
763
100
AcDbEntity
  8
0
100
AcDbLine
 62
7
  6
CONTINUOUS
 10
13.6196580722
 20
26.3448202397
 11
13.7056580722
 21
26.3448202397
  0
LINE
  5
764
100
AcDbEntity
  8
0
100
AcDbLine
 62
7
  6
CONTINUOUS
 10
13.8196580722
 20
26.3448202397
 11
13.9056580722
 21
26.3448202397
  0
LINE
  5
765
100
AcDbEntity
  8
0
100
AcDbLine
 62
7
  6
CONTINUOUS
 10
16.8906108281
 20
26.3519380539
 11
16.4024218517
 21
26.3519380539
  0
LINE
  5
766
100
AcDbEntity
  8
0
100
AcDbLine
 62
7
  6
CONTINUOUS
 10
15.955571458
 20
26.3519380539
 11
15.4673824816
 21
26.3519380539
  0
LINE
  5
767
100
AcDbEntity
  8
0
100
AcDbLine
 62
7
  6
CONTINUOUS
 10
12.8473037414
 20
27.1377648255
 11
12.8677610249
 21
27.1023317547
  0
LINE
  5
768
100
AcDbEntity
  8
0
100
AcDbLine
 62
7
  6
CONTINUOUS
 10
12.985099017
 20
27.1377648255
 11
13.0055563005
 21
27.1023317547
  0
LINE
  5
769
100
AcDbEntity
  8
0
100
AcDbLine
 62
7
  6
CONTINUOUS
 10
13.5056580722
 20
26.3668202397
 11
13.5056580722
 21
26.3448202397
  0
LINE
  5
76A
100
AcDbEntity
  8
0
100
AcDbLine
 62
7
  6
CONTINUOUS
 10
13.5416580722
 20
26.2546279437
 11
13.5416580722
 21
26.2126279437
  0
LINE
  5
76B
100
AcDbEntity
  8
0
100
AcDbLine
 62
7
  6
CONTINUOUS
 10
13.5836580722
 20
26.2126279437
 11
13.5836580722
 21
26.2546279437
  0
LINE
  5
76C
100
AcDbEntity
  8
0
100
AcDbLine
 62
7
  6
CONTINUOUS
 10
13.6196580722
 20
26.3448202397
 11
13.6196580722
 21
26.3668202397
  0
LINE
  5
76D
100
AcDbEntity
  8
0
100
AcDbLine
 62
7
  6
CONTINUOUS
 10
13.7056580722
 20
26.3668202397
 11
13.7056580722
 21
26.3448202397
  0
LINE
  5
76E
100
AcDbEntity
  8
0
100
AcDbLine
 62
7
  6
CONTINUOUS
 10
13.7416580722
 20
26.2546279437
 11
13.7416580722
 21
26.2126279437
  0
LINE
  5
76F
100
AcDbEntity
  8
0
100
AcDbLine
 62
7
  6
CONTINUOUS
 10
13.7836580722
 20
26.2126279437
 11
13.7836580722
 21
26.2546279437
  0
LINE
  5
770
100
AcDbEntity
  8
0
100
AcDbLine
 62
7
  6
CONTINUOUS
 10
17.624075395
 20
26.3567963216
 11
17.224075395
 21
26.3567963216
  0
LINE
  5
771
100
AcDbEntity
  8
0
100
AcDbLine
 62
7
  6
CONTINUOUS
 10
13.1406108281
 20
26.3582372665
 11
11.7075399619
 21
26.3582372665
  0
LINE
  5
772
100
AcDbEntity
  8
0
100
AcDbLine
 62
7
  6
CONTINUOUS
 10
11.487067521
 20
26.3582372665
 11
9.7784061037
 21
26.3582372665
  0
LINE
  5
773
100
AcDbEntity
  8
0
100
AcDbLine
 62
7
  6
CONTINUOUS
 10
14.0196580722
 20
26.3668202397
 11
13.9056580722
 21
26.3668202397
  0
LINE
  5
774
100
AcDbEntity
  8
0
100
AcDbLine
 62
7
  6
CONTINUOUS
 10
13.8196580722
 20
26.3668202397
 11
13.7056580722
 21
26.3668202397
  0
LINE
  5
775
100
AcDbEntity
  8
0
100
AcDbLine
 62
7
  6
CONTINUOUS
 10
13.6196580722
 20
26.3668202397
 11
13.5056580722
 21
26.3668202397
  0
LINE
  5
776
100
AcDbEntity
  8
0
100
AcDbLine
 62
7
  6
CONTINUOUS
 10
14.0626580722
 20
26.4118202397
 11
13.4626580722
 21
26.4118202397
  0
LINE
  5
777
100
AcDbEntity
  8
0
100
AcDbLine
 62
7
  6
CONTINUOUS
 10
17.6634454737
 20
26.4212293925
 11
17.1847053162
 21
26.4212293925
  0
LINE
  5
778
100
AcDbEntity
  8
0
100
AcDbLine
 62
7
  6
CONTINUOUS
 10
14.9848627966
 20
26.4518199437
 11
14.7648627966
 21
26.4518199437
  0
LINE
  5
779
100
AcDbEntity
  8
0
100
AcDbLine
 62
7
  6
CONTINUOUS
 10
15.1118627966
 20
26.5078199437
 11
14.6378627966
 21
26.5078199437
  0
LINE
  5
77A
100
AcDbEntity
  8
0
100
AcDbLine
 62
7
  6
CONTINUOUS
 10
15.4770281509
 20
26.5157175814
 11
15.9459257887
 21
26.5157175814
  0
LINE
  5
77B
100
AcDbEntity
  8
0
100
AcDbLine
 62
7
  6
CONTINUOUS
 10
16.412067521
 20
26.5157175814
 11
16.8809651588
 21
26.5157175814
  0
LINE
  5
77C
100
AcDbEntity
  8
0
100
AcDbLine
 62
7
  6
CONTINUOUS
 10
13.8196580722
 20
26.3448202397
 11
13.8196580722
 21
26.3668202397
  0
LINE
  5
77D
100
AcDbEntity
  8
0
100
AcDbLine
 62
7
  6
CONTINUOUS
 10
13.9056580722
 20
26.3668202397
 11
13.9056580722
 21
26.3448202397
  0
LINE
  5
77E
100
AcDbEntity
  8
0
100
AcDbLine
 62
7
  6
CONTINUOUS
 10
13.9416580722
 20
26.2546279437
 11
13.9416580722
 21
26.2126279437
  0
LINE
  5
77F
100
AcDbEntity
  8
0
100
AcDbLine
 62
7
  6
CONTINUOUS
 10
13.9836580722
 20
26.2126279437
 11
13.9836580722
 21
26.2546279437
  0
LINE
  5
780
100
AcDbEntity
  8
0
100
AcDbLine
 62
7
  6
CONTINUOUS
 10
14.0196580722
 20
26.3448202397
 11
14.0196580722
 21
26.3668202397
  0
LINE
  5
781
100
AcDbEntity
  8
0
100
AcDbLine
 62
7
  6
CONTINUOUS
 10
14.0626580722
 20
26.0768202397
 11
14.0626580722
 21
26.4118202397
  0
LINE
  5
782
100
AcDbEntity
  8
0
100
AcDbLine
 62
7
  6
CONTINUOUS
 10
16.8809651588
 20
26.7846152192
 11
16.7744690958
 21
26.7846152192
  0
LINE
  5
783
100
AcDbEntity
  8
0
100
AcDbLine
 62
7
  6
CONTINUOUS
 10
16.518563584
 20
26.7846152192
 11
16.412067521
 21
26.7846152192
  0
LINE
  5
784
100
AcDbEntity
  8
0
100
AcDbLine
 62
7
  6
CONTINUOUS
 10
15.9459257887
 20
26.7846152192
 11
15.8394297257
 21
26.7846152192
  0
LINE
  5
785
100
AcDbEntity
  8
0
100
AcDbLine
 62
7
  6
CONTINUOUS
 10
15.5835242139
 20
26.7846152192
 11
15.4770281509
 21
26.7846152192
  0
LINE
  5
786
100
AcDbEntity
  8
0
100
AcDbLine
 62
7
  6
CONTINUOUS
 10
16.7744690958
 20
26.8503632507
 11
16.7252564974
 21
26.8503632507
  0
LINE
  5
787
100
AcDbEntity
  8
0
100
AcDbLine
 62
7
  6
CONTINUOUS
 10
16.5677761824
 20
26.8503632507
 11
16.518563584
 21
26.8503632507
  0
LINE
  5
788
100
AcDbEntity
  8
0
100
AcDbLine
 62
7
  6
CONTINUOUS
 10
15.8394297257
 20
26.8503632507
 11
15.7902171273
 21
26.8503632507
  0
LINE
  5
789
100
AcDbEntity
  8
0
100
AcDbLine
 62
7
  6
CONTINUOUS
 10
15.6327368123
 20
26.8503632507
 11
15.5835242139
 21
26.8503632507
  0
LINE
  5
78A
100
AcDbEntity
  8
0
100
AcDbLine
 62
7
  6
CONTINUOUS
 10
9.7784061037
 20
26.8857963216
 11
11.487067521
 21
26.8857963216
  0
LINE
  5
78B
100
AcDbEntity
  8
0
100
AcDbLine
 62
7
  6
CONTINUOUS
 10
11.7075399619
 20
26.8857963216
 11
13.1406108281
 21
26.8857963216
  0
LINE
  5
78C
100
AcDbEntity
  8
0
100
AcDbLine
 62
7
  6
CONTINUOUS
 10
16.7252564974
 20
26.8956388413
 11
16.5677761824
 21
26.8956388413
  0
LINE
  5
78D
100
AcDbEntity
  8
0
100
AcDbLine
 62
7
  6
CONTINUOUS
 10
15.7902171273
 20
26.8956388413
 11
15.6327368123
 21
26.8956388413
  0
LINE
  5
78E
100
AcDbEntity
  8
0
100
AcDbLine
 62
7
  6
CONTINUOUS
 10
9.8138391745
 20
26.905481361
 11
9.8354927178
 21
26.905481361
  0
LINE
  5
78F
100
AcDbEntity
  8
0
100
AcDbLine
 62
7
  6
CONTINUOUS
 10
9.9142328753
 20
26.905481361
 11
9.9358864186
 21
26.905481361
  0
LINE
  5
790
100
AcDbEntity
  8
0
100
AcDbLine
 62
7
  6
CONTINUOUS
 10
9.9516344501
 20
26.905481361
 11
9.9732879934
 21
26.905481361
  0
LINE
  5
791
100
AcDbEntity
  8
0
100
AcDbLine
 62
7
  6
CONTINUOUS
 10
10.0520281509
 20
26.905481361
 11
10.0736816942
 21
26.905481361
  0
LINE
  5
792
100
AcDbEntity
  8
0
100
AcDbLine
 62
7
  6
CONTINUOUS
 10
10.0894297257
 20
26.905481361
 11
10.111083269
 21
26.905481361
  0
LINE
  5
793
100
AcDbEntity
  8
0
100
AcDbLine
 62
7
  6
CONTINUOUS
 10
10.1898234265
 20
26.905481361
 11
10.2114769698
 21
26.905481361
  0
LINE
  5
794
100
AcDbEntity
  8
0
100
AcDbLine
 62
7
  6
CONTINUOUS
 10
10.2272250013
 20
26.905481361
 11
10.2488785446
 21
26.905481361
  0
LINE
  5
795
100
AcDbEntity
  8
0
100
AcDbLine
 62
7
  6
CONTINUOUS
 10
10.3276187021
 20
26.905481361
 11
10.3492722454
 21
26.905481361
  0
LINE
  5
796
100
AcDbEntity
  8
0
100
AcDbLine
 62
7
  6
CONTINUOUS
 10
10.3650202769
 20
26.905481361
 11
10.3866738202
 21
26.905481361
  0
LINE
  5
797
100
AcDbEntity
  8
0
100
AcDbLine
 62
7
  6
CONTINUOUS
 10
10.4654139777
 20
26.905481361
 11
10.487067521
 21
26.905481361
  0
LINE
  5
798
100
AcDbEntity
  8
0
100
AcDbLine
 62
7
  6
CONTINUOUS
 10
10.5028155525
 20
26.905481361
 11
10.5244690958
 21
26.905481361
  0
LINE
  5
799
100
AcDbEntity
  8
0
100
AcDbLine
 62
7
  6
CONTINUOUS
 10
10.6032092533
 20
26.905481361
 11
10.6248627966
 21
26.905481361
  0
LINE
  5
79A
100
AcDbEntity
  8
0
100
AcDbLine
 62
7
  6
CONTINUOUS
 10
10.6406108281
 20
26.905481361
 11
10.6622643714
 21
26.905481361
  0
LINE
  5
79B
100
AcDbEntity
  8
0
100
AcDbLine
 62
7
  6
CONTINUOUS
 10
10.7410045288
 20
26.905481361
 11
10.7626580722
 21
26.905481361
  0
LINE
  5
79C
100
AcDbEntity
  8
0
100
AcDbLine
 62
7
  6
CONTINUOUS
 10
10.7784061037
 20
26.905481361
 11
10.800059647
 21
26.905481361
  0
LINE
  5
79D
100
AcDbEntity
  8
0
100
AcDbLine
 62
7
  6
CONTINUOUS
 10
10.8787998044
 20
26.905481361
 11
10.9004533477
 21
26.905481361
  0
LINE
  5
79E
100
AcDbEntity
  8
0
100
AcDbLine
 62
7
  6
CONTINUOUS
 10
10.9162013792
 20
26.905481361
 11
10.9378549225
 21
26.905481361
  0
LINE
  5
79F
100
AcDbEntity
  8
0
100
AcDbLine
 62
7
  6
CONTINUOUS
 10
11.01659508
 20
26.905481361
 11
11.0382486233
 21
26.905481361
  0
LINE
  5
7A0
100
AcDbEntity
  8
0
100
AcDbLine
 62
7
  6
CONTINUOUS
 10
11.0539966548
 20
26.905481361
 11
11.0756501981
 21
26.905481361
  0
LINE
  5
7A1
100
AcDbEntity
  8
0
100
AcDbLine
 62
7
  6
CONTINUOUS
 10
11.1543903556
 20
26.905481361
 11
11.1760438989
 21
26.905481361
  0
LINE
  5
7A2
100
AcDbEntity
  8
0
100
AcDbLine
 62
7
  6
CONTINUOUS
 10
11.1917919304
 20
26.905481361
 11
11.2134454737
 21
26.905481361
  0
LINE
  5
7A3
100
AcDbEntity
  8
0
100
AcDbLine
 62
7
  6
CONTINUOUS
 10
11.2921856312
 20
26.905481361
 11
11.3138391745
 21
26.905481361
  0
LINE
  5
7A4
100
AcDbEntity
  8
0
100
AcDbLine
 62
7
  6
CONTINUOUS
 10
11.329587206
 20
26.905481361
 11
11.3512407493
 21
26.905481361
  0
LINE
  5
7A5
100
AcDbEntity
  8
0
100
AcDbLine
 62
7
  6
CONTINUOUS
 10
11.4299809068
 20
26.905481361
 11
11.4516344501
 21
26.905481361
  0
LINE
  5
7A6
100
AcDbEntity
  8
0
100
AcDbLine
 62
7
  6
CONTINUOUS
 10
11.7429730328
 20
26.905481361
 11
11.7646265761
 21
26.905481361
  0
LINE
  5
7A7
100
AcDbEntity
  8
0
100
AcDbLine
 62
7
  6
CONTINUOUS
 10
11.8433667336
 20
26.905481361
 11
11.8650202769
 21
26.905481361
  0
LINE
  5
7A8
100
AcDbEntity
  8
0
100
AcDbLine
 62
7
  6
CONTINUOUS
 10
11.8807683084
 20
26.905481361
 11
11.9024218517
 21
26.905481361
  0
LINE
  5
7A9
100
AcDbEntity
  8
0
100
AcDbLine
 62
7
  6
CONTINUOUS
 10
11.9811620092
 20
26.905481361
 11
12.0028155525
 21
26.905481361
  0
LINE
  5
7AA
100
AcDbEntity
  8
0
100
AcDbLine
 62
7
  6
CONTINUOUS
 10
12.018563584
 20
26.905481361
 11
12.0402171273
 21
26.905481361
  0
LINE
  5
7AB
100
AcDbEntity
  8
0
100
AcDbLine
 62
7
  6
CONTINUOUS
 10
12.1189572848
 20
26.905481361
 11
12.1406108281
 21
26.905481361
  0
LINE
  5
7AC
100
AcDbEntity
  8
0
100
AcDbLine
 62
7
  6
CONTINUOUS
 10
12.1563588596
 20
26.905481361
 11
12.1780124029
 21
26.905481361
  0
LINE
  5
7AD
100
AcDbEntity
  8
0
100
AcDbLine
 62
7
  6
CONTINUOUS
 10
12.2567525603
 20
26.905481361
 11
12.2784061037
 21
26.905481361
  0
LINE
  5
7AE
100
AcDbEntity
  8
0
100
AcDbLine
 62
7
  6
CONTINUOUS
 10
12.2941541351
 20
26.905481361
 11
12.3158076785
 21
26.905481361
  0
LINE
  5
7AF
100
AcDbEntity
  8
0
100
AcDbLine
 62
7
  6
CONTINUOUS
 10
12.4319494107
 20
26.905481361
 11
12.453602954
 21
26.905481361
  0
LINE
  5
7B0
100
AcDbEntity
  8
0
100
AcDbLine
 62
7
  6
CONTINUOUS
 10
12.3945478359
 20
26.905481361
 11
12.4162013792
 21
26.905481361
  0
LINE
  5
7B1
100
AcDbEntity
  8
0
100
AcDbLine
 62
7
  6
CONTINUOUS
 10
12.5697446863
 20
26.905481361
 11
12.5913982296
 21
26.905481361
  0
LINE
  5
7B2
100
AcDbEntity
  8
0
100
AcDbLine
 62
7
  6
CONTINUOUS
 10
12.5323431115
 20
26.905481361
 11
12.5539966548
 21
26.905481361
  0
LINE
  5
7B3
100
AcDbEntity
  8
0
100
AcDbLine
 62
7
  6
CONTINUOUS
 10
12.6701383871
 20
26.905481361
 11
12.6917919304
 21
26.905481361
  0
LINE
  5
7B4
100
AcDbEntity
  8
0
100
AcDbLine
 62
7
  6
CONTINUOUS
 10
12.7075399619
 20
26.905481361
 11
12.7291935052
 21
26.905481361
  0
LINE
  5
7B5
100
AcDbEntity
  8
0
100
AcDbLine
 62
7
  6
CONTINUOUS
 10
12.8079336627
 20
26.905481361
 11
12.829587206
 21
26.905481361
  0
LINE
  5
7B6
100
AcDbEntity
  8
0
100
AcDbLine
 62
7
  6
CONTINUOUS
 10
12.8453352375
 20
26.905481361
 11
12.8669887808
 21
26.905481361
  0
LINE
  5
7B7
100
AcDbEntity
  8
0
100
AcDbLine
 62
7
  6
CONTINUOUS
 10
12.9457289383
 20
26.905481361
 11
12.9673824816
 21
26.905481361
  0
LINE
  5
7B8
100
AcDbEntity
  8
0
100
AcDbLine
 62
7
  6
CONTINUOUS
 10
12.9831305131
 20
26.905481361
 11
13.0047840564
 21
26.905481361
  0
LINE
  5
7B9
100
AcDbEntity
  8
0
100
AcDbLine
 62
7
  6
CONTINUOUS
 10
13.0835242139
 20
26.905481361
 11
13.1051777572
 21
26.905481361
  0
LINE
  5
7BA
100
AcDbEntity
  8
0
100
AcDbLine
 62
7
  6
CONTINUOUS
 10
17.0146265761
 20
26.968473487
 11
16.2784061037
 21
26.968473487
  0
LINE
  5
7BB
100
AcDbEntity
  8
0
100
AcDbLine
 62
7
  6
CONTINUOUS
 10
16.079587206
 20
26.968473487
 11
15.3433667336
 21
26.968473487
  0
LINE
  5
7BC
100
AcDbEntity
  8
0
100
AcDbLine
 62
7
  6
CONTINUOUS
 10
9.8591147651
 20
26.9763475027
 11
9.8906108281
 21
26.9763475027
  0
LINE
  5
7BD
100
AcDbEntity
  8
0
100
AcDbLine
 62
7
  6
CONTINUOUS
 10
9.9969100407
 20
26.9763475027
 11
10.0284061037
 21
26.9763475027
  0
LINE
  5
7BE
100
AcDbEntity
  8
0
100
AcDbLine
 62
7
  6
CONTINUOUS
 10
10.1347053162
 20
26.9763475027
 11
10.1662013792
 21
26.9763475027
  0
LINE
  5
7BF
100
AcDbEntity
  8
0
100
AcDbLine
 62
7
  6
CONTINUOUS
 10
10.2725005918
 20
26.9763475027
 11
10.3039966548
 21
26.9763475027
  0
LINE
  5
7C0
100
AcDbEntity
  8
0
100
AcDbLine
 62
7
  6
CONTINUOUS
 10
10.4102958674
 20
26.9763475027
 11
10.4417919304
 21
26.9763475027
  0
LINE
  5
7C1
100
AcDbEntity
  8
0
100
AcDbLine
 62
7
  6
CONTINUOUS
 10
10.548091143
 20
26.9763475027
 11
10.579587206
 21
26.9763475027
  0
LINE
  5
7C2
100
AcDbEntity
  8
0
100
AcDbLine
 62
7
  6
CONTINUOUS
 10
10.6858864186
 20
26.9763475027
 11
10.7173824816
 21
26.9763475027
  0
LINE
  5
7C3
100
AcDbEntity
  8
0
100
AcDbLine
 62
7
  6
CONTINUOUS
 10
10.8236816942
 20
26.9763475027
 11
10.8551777572
 21
26.9763475027
  0
LINE
  5
7C4
100
AcDbEntity
  8
0
100
AcDbLine
 62
7
  6
CONTINUOUS
 10
10.9614769698
 20
26.9763475027
 11
10.9929730328
 21
26.9763475027
  0
LINE
  5
7C5
100
AcDbEntity
  8
0
100
AcDbLine
 62
7
  6
CONTINUOUS
 10
11.0992722454
 20
26.9763475027
 11
11.1307683084
 21
26.9763475027
  0
LINE
  5
7C6
100
AcDbEntity
  8
0
100
AcDbLine
 62
7
  6
CONTINUOUS
 10
11.237067521
 20
26.9763475027
 11
11.268563584
 21
26.9763475027
  0
LINE
  5
7C7
100
AcDbEntity
  8
0
100
AcDbLine
 62
7
  6
CONTINUOUS
 10
11.3748627966
 20
26.9763475027
 11
11.4063588596
 21
26.9763475027
  0
LINE
  5
7C8
100
AcDbEntity
  8
0
100
AcDbLine
 62
7
  6
CONTINUOUS
 10
11.7882486233
 20
26.9763475027
 11
11.8197446863
 21
26.9763475027
  0
LINE
  5
7C9
100
AcDbEntity
  8
0
100
AcDbLine
 62
7
  6
CONTINUOUS
 10
11.9260438989
 20
26.9763475027
 11
11.9575399619
 21
26.9763475027
  0
LINE
  5
7CA
100
AcDbEntity
  8
0
100
AcDbLine
 62
7
  6
CONTINUOUS
 10
12.0638391745
 20
26.9763475027
 11
12.0953352375
 21
26.9763475027
  0
LINE
  5
7CB
100
AcDbEntity
  8
0
100
AcDbLine
 62
7
  6
CONTINUOUS
 10
12.2016344501
 20
26.9763475027
 11
12.2331305131
 21
26.9763475027
  0
LINE
  5
7CC
100
AcDbEntity
  8
0
100
AcDbLine
 62
7
  6
CONTINUOUS
 10
12.3394297257
 20
26.9763475027
 11
12.3709257887
 21
26.9763475027
  0
LINE
  5
7CD
100
AcDbEntity
  8
0
100
AcDbLine
 62
7
  6
CONTINUOUS
 10
12.4772250013
 20
26.9763475027
 11
12.5087210643
 21
26.9763475027
  0
LINE
  5
7CE
100
AcDbEntity
  8
0
100
AcDbLine
 62
7
  6
CONTINUOUS
 10
12.6150202769
 20
26.9763475027
 11
12.6465163399
 21
26.9763475027
  0
LINE
  5
7CF
100
AcDbEntity
  8
0
100
AcDbLine
 62
7
  6
CONTINUOUS
 10
12.7528155525
 20
26.9763475027
 11
12.7843116155
 21
26.9763475027
  0
LINE
  5
7D0
100
AcDbEntity
  8
0
100
AcDbLine
 62
7
  6
CONTINUOUS
 10
12.8906108281
 20
26.9763475027
 11
12.9221068911
 21
26.9763475027
  0
LINE
  5
7D1
100
AcDbEntity
  8
0
100
AcDbLine
 62
7
  6
CONTINUOUS
 10
13.0284061037
 20
26.9763475027
 11
13.0599021666
 21
26.9763475027
  0
LINE
  5
7D2
100
AcDbEntity
  8
0
100
AcDbLine
 62
7
  6
CONTINUOUS
 10
13.0599021666
 20
27.0078435657
 11
13.0284061037
 21
27.0078435657
  0
LINE
  5
7D3
100
AcDbEntity
  8
0
100
AcDbLine
 62
7
  6
CONTINUOUS
 10
12.9221068911
 20
27.0078435657
 11
12.8906108281
 21
27.0078435657
  0
LINE
  5
7D4
100
AcDbEntity
  8
0
100
AcDbLine
 62
7
  6
CONTINUOUS
 10
12.7843116155
 20
27.0078435657
 11
12.7528155525
 21
27.0078435657
  0
LINE
  5
7D5
100
AcDbEntity
  8
0
100
AcDbLine
 62
7
  6
CONTINUOUS
 10
12.6465163399
 20
27.0078435657
 11
12.6150202769
 21
27.0078435657
  0
LINE
  5
7D6
100
AcDbEntity
  8
0
100
AcDbLine
 62
7
  6
CONTINUOUS
 10
12.5087210643
 20
27.0078435657
 11
12.4772250013
 21
27.0078435657
  0
LINE
  5
7D7
100
AcDbEntity
  8
0
100
AcDbLine
 62
7
  6
CONTINUOUS
 10
12.3709257887
 20
27.0078435657
 11
12.3394297257
 21
27.0078435657
  0
LINE
  5
7D8
100
AcDbEntity
  8
0
100
AcDbLine
 62
7
  6
CONTINUOUS
 10
12.2331305131
 20
27.0078435657
 11
12.2016344501
 21
27.0078435657
  0
LINE
  5
7D9
100
AcDbEntity
  8
0
100
AcDbLine
 62
7
  6
CONTINUOUS
 10
12.0953352375
 20
27.0078435657
 11
12.0638391745
 21
27.0078435657
  0
LINE
  5
7DA
100
AcDbEntity
  8
0
100
AcDbLine
 62
7
  6
CONTINUOUS
 10
11.9575399619
 20
27.0078435657
 11
11.9260438989
 21
27.0078435657
  0
LINE
  5
7DB
100
AcDbEntity
  8
0
100
AcDbLine
 62
7
  6
CONTINUOUS
 10
11.8197446863
 20
27.0078435657
 11
11.7882486233
 21
27.0078435657
  0
LINE
  5
7DC
100
AcDbEntity
  8
0
100
AcDbLine
 62
7
  6
CONTINUOUS
 10
11.4063588596
 20
27.0078435657
 11
11.3748627966
 21
27.0078435657
  0
LINE
  5
7DD
100
AcDbEntity
  8
0
100
AcDbLine
 62
7
  6
CONTINUOUS
 10
11.268563584
 20
27.0078435657
 11
11.237067521
 21
27.0078435657
  0
LINE
  5
7DE
100
AcDbEntity
  8
0
100
AcDbLine
 62
7
  6
CONTINUOUS
 10
11.1307683084
 20
27.0078435657
 11
11.0992722454
 21
27.0078435657
  0
LINE
  5
7DF
100
AcDbEntity
  8
0
100
AcDbLine
 62
7
  6
CONTINUOUS
 10
10.9929730328
 20
27.0078435657
 11
10.9614769698
 21
27.0078435657
  0
LINE
  5
7E0
100
AcDbEntity
  8
0
100
AcDbLine
 62
7
  6
CONTINUOUS
 10
10.8551777572
 20
27.0078435657
 11
10.8236816942
 21
27.0078435657
  0
LINE
  5
7E1
100
AcDbEntity
  8
0
100
AcDbLine
 62
7
  6
CONTINUOUS
 10
10.7173824816
 20
27.0078435657
 11
10.6858864186
 21
27.0078435657
  0
LINE
  5
7E2
100
AcDbEntity
  8
0
100
AcDbLine
 62
7
  6
CONTINUOUS
 10
10.579587206
 20
27.0078435657
 11
10.548091143
 21
27.0078435657
  0
LINE
  5
7E3
100
AcDbEntity
  8
0
100
AcDbLine
 62
7
  6
CONTINUOUS
 10
10.4417919304
 20
27.0078435657
 11
10.4102958674
 21
27.0078435657
  0
LINE
  5
7E4
100
AcDbEntity
  8
0
100
AcDbLine
 62
7
  6
CONTINUOUS
 10
10.3039966548
 20
27.0078435657
 11
10.2725005918
 21
27.0078435657
  0
LINE
  5
7E5
100
AcDbEntity
  8
0
100
AcDbLine
 62
7
  6
CONTINUOUS
 10
10.1662013792
 20
27.0078435657
 11
10.1347053162
 21
27.0078435657
  0
LINE
  5
7E6
100
AcDbEntity
  8
0
100
AcDbLine
 62
7
  6
CONTINUOUS
 10
10.0284061037
 20
27.0078435657
 11
9.9969100407
 21
27.0078435657
  0
LINE
  5
7E7
100
AcDbEntity
  8
0
100
AcDbLine
 62
7
  6
CONTINUOUS
 10
9.8906108281
 20
27.0078435657
 11
9.8591147651
 21
27.0078435657
  0
LINE
  5
7E8
100
AcDbEntity
  8
0
100
AcDbLine
 62
7
  6
CONTINUOUS
 10
13.1051777572
 20
27.0787097074
 11
13.0717131903
 21
27.0787097074
  0
LINE
  5
7E9
100
AcDbEntity
  8
0
100
AcDbLine
 62
7
  6
CONTINUOUS
 10
13.01659508
 20
27.0787097074
 11
12.9831305131
 21
27.0787097074
  0
LINE
  5
7EA
100
AcDbEntity
  8
0
100
AcDbLine
 62
7
  6
CONTINUOUS
 10
12.9673824816
 20
27.0787097074
 11
12.9339179147
 21
27.0787097074
  0
LINE
  5
7EB
100
AcDbEntity
  8
0
100
AcDbLine
 62
7
  6
CONTINUOUS
 10
12.8787998044
 20
27.0787097074
 11
12.8453352375
 21
27.0787097074
  0
LINE
  5
7EC
100
AcDbEntity
  8
0
100
AcDbLine
 62
7
  6
CONTINUOUS
 10
12.829587206
 20
27.0787097074
 11
12.7961226391
 21
27.0787097074
  0
LINE
  5
7ED
100
AcDbEntity
  8
0
100
AcDbLine
 62
7
  6
CONTINUOUS
 10
12.7410045288
 20
27.0787097074
 11
12.7075399619
 21
27.0787097074
  0
LINE
  5
7EE
100
AcDbEntity
  8
0
100
AcDbLine
 62
7
  6
CONTINUOUS
 10
12.6917919304
 20
27.0787097074
 11
12.6583273635
 21
27.0787097074
  0
LINE
  5
7EF
100
AcDbEntity
  8
0
100
AcDbLine
 62
7
  6
CONTINUOUS
 10
12.6032092533
 20
27.0787097074
 11
12.5697446863
 21
27.0787097074
  0
LINE
  5
7F0
100
AcDbEntity
  8
0
100
AcDbLine
 62
7
  6
CONTINUOUS
 10
12.5539966548
 20
27.0787097074
 11
12.5205320879
 21
27.0787097074
  0
LINE
  5
7F1
100
AcDbEntity
  8
0
100
AcDbLine
 62
7
  6
CONTINUOUS
 10
12.4654139777
 20
27.0787097074
 11
12.4319494107
 21
27.0787097074
  0
LINE
  5
7F2
100
AcDbEntity
  8
0
100
AcDbLine
 62
7
  6
CONTINUOUS
 10
12.4162013792
 20
27.0787097074
 11
12.3827368123
 21
27.0787097074
  0
LINE
  5
7F3
100
AcDbEntity
  8
0
100
AcDbLine
 62
7
  6
CONTINUOUS
 10
12.3276187021
 20
27.0787097074
 11
12.2941541351
 21
27.0787097074
  0
LINE
  5
7F4
100
AcDbEntity
  8
0
100
AcDbLine
 62
7
  6
CONTINUOUS
 10
12.2784061037
 20
27.0787097074
 11
12.2449415367
 21
27.0787097074
  0
LINE
  5
7F5
100
AcDbEntity
  8
0
100
AcDbLine
 62
7
  6
CONTINUOUS
 10
12.1898234265
 20
27.0787097074
 11
12.1563588596
 21
27.0787097074
  0
LINE
  5
7F6
100
AcDbEntity
  8
0
100
AcDbLine
 62
7
  6
CONTINUOUS
 10
12.1406108281
 20
27.0787097074
 11
12.1071462611
 21
27.0787097074
  0
LINE
  5
7F7
100
AcDbEntity
  8
0
100
AcDbLine
 62
7
  6
CONTINUOUS
 10
12.0520281509
 20
27.0787097074
 11
12.018563584
 21
27.0787097074
  0
LINE
  5
7F8
100
AcDbEntity
  8
0
100
AcDbLine
 62
7
  6
CONTINUOUS
 10
12.0028155525
 20
27.0787097074
 11
11.9693509855
 21
27.0787097074
  0
LINE
  5
7F9
100
AcDbEntity
  8
0
100
AcDbLine
 62
7
  6
CONTINUOUS
 10
11.9142328753
 20
27.0787097074
 11
11.8807683084
 21
27.0787097074
  0
LINE
  5
7FA
100
AcDbEntity
  8
0
100
AcDbLine
 62
7
  6
CONTINUOUS
 10
11.8650202769
 20
27.0787097074
 11
11.83155571
 21
27.0787097074
  0
LINE
  5
7FB
100
AcDbEntity
  8
0
100
AcDbLine
 62
7
  6
CONTINUOUS
 10
11.7764375997
 20
27.0787097074
 11
11.7429730328
 21
27.0787097074
  0
LINE
  5
7FC
100
AcDbEntity
  8
0
100
AcDbLine
 62
7
  6
CONTINUOUS
 10
11.4516344501
 20
27.0787097074
 11
11.4181698832
 21
27.0787097074
  0
LINE
  5
7FD
100
AcDbEntity
  8
0
100
AcDbLine
 62
7
  6
CONTINUOUS
 10
11.3630517729
 20
27.0787097074
 11
11.329587206
 21
27.0787097074
  0
LINE
  5
7FE
100
AcDbEntity
  8
0
100
AcDbLine
 62
7
  6
CONTINUOUS
 10
11.3138391745
 20
27.0787097074
 11
11.2803746076
 21
27.0787097074
  0
LINE
  5
7FF
100
AcDbEntity
  8
0
100
AcDbLine
 62
7
  6
CONTINUOUS
 10
11.2252564974
 20
27.0787097074
 11
11.1917919304
 21
27.0787097074
  0
LINE
  5
800
100
AcDbEntity
  8
0
100
AcDbLine
 62
7
  6
CONTINUOUS
 10
11.1760438989
 20
27.0787097074
 11
11.142579332
 21
27.0787097074
  0
LINE
  5
801
100
AcDbEntity
  8
0
100
AcDbLine
 62
7
  6
CONTINUOUS
 10
11.0874612218
 20
27.0787097074
 11
11.0539966548
 21
27.0787097074
  0
LINE
  5
802
100
AcDbEntity
  8
0
100
AcDbLine
 62
7
  6
CONTINUOUS
 10
11.0382486233
 20
27.0787097074
 11
11.0047840564
 21
27.0787097074
  0
LINE
  5
803
100
AcDbEntity
  8
0
100
AcDbLine
 62
7
  6
CONTINUOUS
 10
10.9496659462
 20
27.0787097074
 11
10.9162013792
 21
27.0787097074
  0
LINE
  5
804
100
AcDbEntity
  8
0
100
AcDbLine
 62
7
  6
CONTINUOUS
 10
10.9004533477
 20
27.0787097074
 11
10.8669887808
 21
27.0787097074
  0
LINE
  5
805
100
AcDbEntity
  8
0
100
AcDbLine
 62
7
  6
CONTINUOUS
 10
10.8118706706
 20
27.0787097074
 11
10.7784061037
 21
27.0787097074
  0
LINE
  5
806
100
AcDbEntity
  8
0
100
AcDbLine
 62
7
  6
CONTINUOUS
 10
10.7626580722
 20
27.0787097074
 11
10.7291935052
 21
27.0787097074
  0
LINE
  5
807
100
AcDbEntity
  8
0
100
AcDbLine
 62
7
  6
CONTINUOUS
 10
10.674075395
 20
27.0787097074
 11
10.6406108281
 21
27.0787097074
  0
LINE
  5
808
100
AcDbEntity
  8
0
100
AcDbLine
 62
7
  6
CONTINUOUS
 10
10.6248627966
 20
27.0787097074
 11
10.5913982296
 21
27.0787097074
  0
LINE
  5
809
100
AcDbEntity
  8
0
100
AcDbLine
 62
7
  6
CONTINUOUS
 10
10.5362801194
 20
27.0787097074
 11
10.5028155525
 21
27.0787097074
  0
LINE
  5
80A
100
AcDbEntity
  8
0
100
AcDbLine
 62
7
  6
CONTINUOUS
 10
10.487067521
 20
27.0787097074
 11
10.453602954
 21
27.0787097074
  0
LINE
  5
80B
100
AcDbEntity
  8
0
100
AcDbLine
 62
7
  6
CONTINUOUS
 10
10.3984848438
 20
27.0787097074
 11
10.3650202769
 21
27.0787097074
  0
LINE
  5
80C
100
AcDbEntity
  8
0
100
AcDbLine
 62
7
  6
CONTINUOUS
 10
10.3492722454
 20
27.0787097074
 11
10.3158076785
 21
27.0787097074
  0
LINE
  5
80D
100
AcDbEntity
  8
0
100
AcDbLine
 62
7
  6
CONTINUOUS
 10
10.2606895682
 20
27.0787097074
 11
10.2272250013
 21
27.0787097074
  0
LINE
  5
80E
100
AcDbEntity
  8
0
100
AcDbLine
 62
7
  6
CONTINUOUS
 10
10.2114769698
 20
27.0787097074
 11
10.1780124029
 21
27.0787097074
  0
LINE
  5
80F
100
AcDbEntity
  8
0
100
AcDbLine
 62
7
  6
CONTINUOUS
 10
10.1228942926
 20
27.0787097074
 11
10.0894297257
 21
27.0787097074
  0
LINE
  5
810
100
AcDbEntity
  8
0
100
AcDbLine
 62
7
  6
CONTINUOUS
 10
10.0736816942
 20
27.0787097074
 11
10.0402171273
 21
27.0787097074
  0
LINE
  5
811
100
AcDbEntity
  8
0
100
AcDbLine
 62
7
  6
CONTINUOUS
 10
9.985099017
 20
27.0787097074
 11
9.9516344501
 21
27.0787097074
  0
LINE
  5
812
100
AcDbEntity
  8
0
100
AcDbLine
 62
7
  6
CONTINUOUS
 10
9.9358864186
 20
27.0787097074
 11
9.9024218517
 21
27.0787097074
  0
LINE
  5
813
100
AcDbEntity
  8
0
100
AcDbLine
 62
7
  6
CONTINUOUS
 10
9.8473037414
 20
27.0787097074
 11
9.8138391745
 21
27.0787097074
  0
LINE
  5
814
100
AcDbEntity
  8
0
100
AcDbLine
 62
7
  6
CONTINUOUS
 10
9.8362649619
 20
27.1023317547
 11
9.8473037414
 21
27.1023317547
  0
LINE
  5
815
100
AcDbEntity
  8
0
100
AcDbLine
 62
7
  6
CONTINUOUS
 10
9.9024218517
 20
27.1023317547
 11
9.9134606312
 21
27.1023317547
  0
LINE
  5
816
100
AcDbEntity
  8
0
100
AcDbLine
 62
7
  6
CONTINUOUS
 10
9.9740602375
 20
27.1023317547
 11
9.985099017
 21
27.1023317547
  0
LINE
  5
817
100
AcDbEntity
  8
0
100
AcDbLine
 62
7
  6
CONTINUOUS
 10
10.0402171273
 20
27.1023317547
 11
10.0512559068
 21
27.1023317547
  0
LINE
  5
818
100
AcDbEntity
  8
0
100
AcDbLine
 62
7
  6
CONTINUOUS
 10
10.1118555131
 20
27.1023317547
 11
10.1228942926
 21
27.1023317547
  0
LINE
  5
819
100
AcDbEntity
  8
0
100
AcDbLine
 62
7
  6
CONTINUOUS
 10
10.1780124029
 20
27.1023317547
 11
10.1890511824
 21
27.1023317547
  0
LINE
  5
81A
100
AcDbEntity
  8
0
100
AcDbLine
 62
7
  6
CONTINUOUS
 10
10.2496507887
 20
27.1023317547
 11
10.2606895682
 21
27.1023317547
  0
LINE
  5
81B
100
AcDbEntity
  8
0
100
AcDbLine
 62
7
  6
CONTINUOUS
 10
10.3158076785
 20
27.1023317547
 11
10.326846458
 21
27.1023317547
  0
LINE
  5
81C
100
AcDbEntity
  8
0
100
AcDbLine
 62
7
  6
CONTINUOUS
 10
10.3874460643
 20
27.1023317547
 11
10.3984848438
 21
27.1023317547
  0
LINE
  5
81D
100
AcDbEntity
  8
0
100
AcDbLine
 62
7
  6
CONTINUOUS
 10
10.453602954
 20
27.1023317547
 11
10.4646417336
 21
27.1023317547
  0
LINE
  5
81E
100
AcDbEntity
  8
0
100
AcDbLine
 62
7
  6
CONTINUOUS
 10
10.5252413399
 20
27.1023317547
 11
10.5362801194
 21
27.1023317547
  0
LINE
  5
81F
100
AcDbEntity
  8
0
100
AcDbLine
 62
7
  6
CONTINUOUS
 10
10.5913982296
 20
27.1023317547
 11
10.6024370092
 21
27.1023317547
  0
LINE
  5
820
100
AcDbEntity
  8
0
100
AcDbLine
 62
7
  6
CONTINUOUS
 10
10.6630366155
 20
27.1023317547
 11
10.674075395
 21
27.1023317547
  0
LINE
  5
821
100
AcDbEntity
  8
0
100
AcDbLine
 62
7
  6
CONTINUOUS
 10
10.7291935052
 20
27.1023317547
 11
10.7402322848
 21
27.1023317547
  0
LINE
  5
822
100
AcDbEntity
  8
0
100
AcDbLine
 62
7
  6
CONTINUOUS
 10
10.8008318911
 20
27.1023317547
 11
10.8118706706
 21
27.1023317547
  0
LINE
  5
823
100
AcDbEntity
  8
0
100
AcDbLine
 62
7
  6
CONTINUOUS
 10
10.8669887808
 20
27.1023317547
 11
10.8780275603
 21
27.1023317547
  0
LINE
  5
824
100
AcDbEntity
  8
0
100
AcDbLine
 62
7
  6
CONTINUOUS
 10
10.9386271666
 20
27.1023317547
 11
10.9496659462
 21
27.1023317547
  0
LINE
  5
825
100
AcDbEntity
  8
0
100
AcDbLine
 62
7
  6
CONTINUOUS
 10
11.0047840564
 20
27.1023317547
 11
11.0158228359
 21
27.1023317547
  0
LINE
  5
826
100
AcDbEntity
  8
0
100
AcDbLine
 62
7
  6
CONTINUOUS
 10
11.0764224422
 20
27.1023317547
 11
11.0874612218
 21
27.1023317547
  0
LINE
  5
827
100
AcDbEntity
  8
0
100
AcDbLine
 62
7
  6
CONTINUOUS
 10
11.142579332
 20
27.1023317547
 11
11.1536181115
 21
27.1023317547
  0
LINE
  5
828
100
AcDbEntity
  8
0
100
AcDbLine
 62
7
  6
CONTINUOUS
 10
11.2142177178
 20
27.1023317547
 11
11.2252564974
 21
27.1023317547
  0
LINE
  5
829
100
AcDbEntity
  8
0
100
AcDbLine
 62
7
  6
CONTINUOUS
 10
11.2803746076
 20
27.1023317547
 11
11.2914133871
 21
27.1023317547
  0
LINE
  5
82A
100
AcDbEntity
  8
0
100
AcDbLine
 62
7
  6
CONTINUOUS
 10
11.3520129934
 20
27.1023317547
 11
11.3630517729
 21
27.1023317547
  0
LINE
  5
82B
100
AcDbEntity
  8
0
100
AcDbLine
 62
7
  6
CONTINUOUS
 10
11.4181698832
 20
27.1023317547
 11
11.4292086627
 21
27.1023317547
  0
LINE
  5
82C
100
AcDbEntity
  8
0
100
AcDbLine
 62
7
  6
CONTINUOUS
 10
11.7653988202
 20
27.1023317547
 11
11.7764375997
 21
27.1023317547
  0
LINE
  5
82D
100
AcDbEntity
  8
0
100
AcDbLine
 62
7
  6
CONTINUOUS
 10
11.83155571
 20
27.1023317547
 11
11.8425944895
 21
27.1023317547
  0
LINE
  5
82E
100
AcDbEntity
  8
0
100
AcDbLine
 62
7
  6
CONTINUOUS
 10
11.9031940958
 20
27.1023317547
 11
11.9142328753
 21
27.1023317547
  0
LINE
  5
82F
100
AcDbEntity
  8
0
100
AcDbLine
 62
7
  6
CONTINUOUS
 10
11.9693509855
 20
27.1023317547
 11
11.9803897651
 21
27.1023317547
  0
LINE
  5
830
100
AcDbEntity
  8
0
100
AcDbLine
 62
7
  6
CONTINUOUS
 10
12.0409893714
 20
27.1023317547
 11
12.0520281509
 21
27.1023317547
  0
LINE
  5
831
100
AcDbEntity
  8
0
100
AcDbLine
 62
7
  6
CONTINUOUS
 10
12.1071462611
 20
27.1023317547
 11
12.1181850407
 21
27.1023317547
  0
LINE
  5
832
100
AcDbEntity
  8
0
100
AcDbLine
 62
7
  6
CONTINUOUS
 10
12.178784647
 20
27.1023317547
 11
12.1898234265
 21
27.1023317547
  0
LINE
  5
833
100
AcDbEntity
  8
0
100
AcDbLine
 62
7
  6
CONTINUOUS
 10
12.2449415367
 20
27.1023317547
 11
12.2559803162
 21
27.1023317547
  0
LINE
  5
834
100
AcDbEntity
  8
0
100
AcDbLine
 62
7
  6
CONTINUOUS
 10
12.3165799225
 20
27.1023317547
 11
12.3276187021
 21
27.1023317547
  0
LINE
  5
835
100
AcDbEntity
  8
0
100
AcDbLine
 62
7
  6
CONTINUOUS
 10
12.3827368123
 20
27.1023317547
 11
12.3937755918
 21
27.1023317547
  0
LINE
  5
836
100
AcDbEntity
  8
0
100
AcDbLine
 62
7
  6
CONTINUOUS
 10
12.4543751981
 20
27.1023317547
 11
12.4654139777
 21
27.1023317547
  0
LINE
  5
837
100
AcDbEntity
  8
0
100
AcDbLine
 62
7
  6
CONTINUOUS
 10
12.5205320879
 20
27.1023317547
 11
12.5315708674
 21
27.1023317547
  0
LINE
  5
838
100
AcDbEntity
  8
0
100
AcDbLine
 62
7
  6
CONTINUOUS
 10
12.5921704737
 20
27.1023317547
 11
12.6032092533
 21
27.1023317547
  0
LINE
  5
839
100
AcDbEntity
  8
0
100
AcDbLine
 62
7
  6
CONTINUOUS
 10
12.6583273635
 20
27.1023317547
 11
12.669366143
 21
27.1023317547
  0
LINE
  5
83A
100
AcDbEntity
  8
0
100
AcDbLine
 62
7
  6
CONTINUOUS
 10
12.7299657493
 20
27.1023317547
 11
12.7410045288
 21
27.1023317547
  0
LINE
  5
83B
100
AcDbEntity
  8
0
100
AcDbLine
 62
7
  6
CONTINUOUS
 10
12.7961226391
 20
27.1023317547
 11
12.8071614186
 21
27.1023317547
  0
LINE
  5
83C
100
AcDbEntity
  8
0
100
AcDbLine
 62
7
  6
CONTINUOUS
 10
12.8677610249
 20
27.1023317547
 11
12.8787998044
 21
27.1023317547
  0
LINE
  5
83D
100
AcDbEntity
  8
0
100
AcDbLine
 62
7
  6
CONTINUOUS
 10
12.9339179147
 20
27.1023317547
 11
12.9449566942
 21
27.1023317547
  0
LINE
  5
83E
100
AcDbEntity
  8
0
100
AcDbLine
 62
7
  6
CONTINUOUS
 10
13.0055563005
 20
27.1023317547
 11
13.01659508
 21
27.1023317547
  0
LINE
  5
83F
100
AcDbEntity
  8
0
100
AcDbLine
 62
7
  6
CONTINUOUS
 10
13.0717131903
 20
27.1023317547
 11
13.0827519698
 21
27.1023317547
  0
LINE
  5
840
100
AcDbEntity
  8
0
100
AcDbLine
 62
7
  6
CONTINUOUS
 10
13.1032092533
 20
27.1377648255
 11
12.985099017
 21
27.1377648255
  0
LINE
  5
841
100
AcDbEntity
  8
0
100
AcDbLine
 62
7
  6
CONTINUOUS
 10
12.9654139777
 20
27.1377648255
 11
12.8473037414
 21
27.1377648255
  0
LINE
  5
842
100
AcDbEntity
  8
0
100
AcDbLine
 62
7
  6
CONTINUOUS
 10
12.8276187021
 20
27.1377648255
 11
12.7095084659
 21
27.1377648255
  0
LINE
  5
843
100
AcDbEntity
  8
0
100
AcDbLine
 62
7
  6
CONTINUOUS
 10
12.6898234265
 20
27.1377648255
 11
12.5717131903
 21
27.1377648255
  0
LINE
  5
844
100
AcDbEntity
  8
0
100
AcDbLine
 62
7
  6
CONTINUOUS
 10
12.5520281509
 20
27.1377648255
 11
12.4339179147
 21
27.1377648255
  0
LINE
  5
845
100
AcDbEntity
  8
0
100
AcDbLine
 62
7
  6
CONTINUOUS
 10
12.4142328753
 20
27.1377648255
 11
12.2961226391
 21
27.1377648255
  0
LINE
  5
846
100
AcDbEntity
  8
0
100
AcDbLine
 62
7
  6
CONTINUOUS
 10
12.2764375997
 20
27.1377648255
 11
12.1583273635
 21
27.1377648255
  0
LINE
  5
847
100
AcDbEntity
  8
0
100
AcDbLine
 62
7
  6
CONTINUOUS
 10
12.1386423241
 20
27.1377648255
 11
12.0205320879
 21
27.1377648255
  0
LINE
  5
848
100
AcDbEntity
  8
0
100
AcDbLine
 62
7
  6
CONTINUOUS
 10
12.0008470485
 20
27.1377648255
 11
11.8827368123
 21
27.1377648255
  0
LINE
  5
849
100
AcDbEntity
  8
0
100
AcDbLine
 62
7
  6
CONTINUOUS
 10
11.8630517729
 20
27.1377648255
 11
11.7449415367
 21
27.1377648255
  0
LINE
  5
84A
100
AcDbEntity
  8
0
100
AcDbLine
 62
7
  6
CONTINUOUS
 10
11.4496659462
 20
27.1377648255
 11
11.33155571
 21
27.1377648255
  0
LINE
  5
84B
100
AcDbEntity
  8
0
100
AcDbLine
 62
7
  6
CONTINUOUS
 10
11.3118706706
 20
27.1377648255
 11
11.1937604344
 21
27.1377648255
  0
LINE
  5
84C
100
AcDbEntity
  8
0
100
AcDbLine
 62
7
  6
CONTINUOUS
 10
11.174075395
 20
27.1377648255
 11
11.0559651588
 21
27.1377648255
  0
LINE
  5
84D
100
AcDbEntity
  8
0
100
AcDbLine
 62
7
  6
CONTINUOUS
 10
11.0362801194
 20
27.1377648255
 11
10.9181698832
 21
27.1377648255
  0
LINE
  5
84E
100
AcDbEntity
  8
0
100
AcDbLine
 62
7
  6
CONTINUOUS
 10
10.8984848438
 20
27.1377648255
 11
10.7803746076
 21
27.1377648255
  0
LINE
  5
84F
100
AcDbEntity
  8
0
100
AcDbLine
 62
7
  6
CONTINUOUS
 10
10.7606895682
 20
27.1377648255
 11
10.642579332
 21
27.1377648255
  0
LINE
  5
850
100
AcDbEntity
  8
0
100
AcDbLine
 62
7
  6
CONTINUOUS
 10
10.6228942926
 20
27.1377648255
 11
10.5047840564
 21
27.1377648255
  0
LINE
  5
851
100
AcDbEntity
  8
0
100
AcDbLine
 62
7
  6
CONTINUOUS
 10
10.485099017
 20
27.1377648255
 11
10.3669887808
 21
27.1377648255
  0
LINE
  5
852
100
AcDbEntity
  8
0
100
AcDbLine
 62
7
  6
CONTINUOUS
 10
10.3473037414
 20
27.1377648255
 11
10.2291935052
 21
27.1377648255
  0
LINE
  5
853
100
AcDbEntity
  8
0
100
AcDbLine
 62
7
  6
CONTINUOUS
 10
10.2095084659
 20
27.1377648255
 11
10.0913982296
 21
27.1377648255
  0
LINE
  5
854
100
AcDbEntity
  8
0
100
AcDbLine
 62
7
  6
CONTINUOUS
 10
10.0717131903
 20
27.1377648255
 11
9.953602954
 21
27.1377648255
  0
LINE
  5
855
100
AcDbEntity
  8
0
100
AcDbLine
 62
7
  6
CONTINUOUS
 10
9.9339179147
 20
27.1377648255
 11
9.8158076785
 21
27.1377648255
  0
LINE
  5
856
100
AcDbEntity
  8
0
100
AcDbLine
 62
7
  6
CONTINUOUS
 10
13.1406108281
 20
27.18500892
 11
11.7075399619
 21
27.18500892
  0
LINE
  5
857
100
AcDbEntity
  8
0
100
AcDbLine
 62
7
  6
CONTINUOUS
 10
11.487067521
 20
27.18500892
 11
9.7784061037
 21
27.18500892
  0
LINE
  5
858
100
AcDbEntity
  8
0
100
AcDbLine
 62
7
  6
CONTINUOUS
 10
14.7703627966
 20
26.3378199437
 11
14.7863627966
 21
26.3218199437
  0
LINE
  5
859
100
AcDbEntity
  8
0
100
AcDbLine
 62
7
  6
CONTINUOUS
 10
14.9793627966
 20
26.2178199437
 11
14.9633627966
 21
26.2338199437
  0
LINE
  5
85A
100
AcDbEntity
  8
0
100
AcDbLine
 62
7
  6
CONTINUOUS
 10
14.6378627966
 20
26.5078199437
 11
14.6378627966
 21
26.0768199437
  0
LINE
  5
85B
100
AcDbEntity
  8
0
100
AcDbLine
 62
7
  6
CONTINUOUS
 10
14.7648627966
 20
26.4518199437
 11
14.7048627966
 21
26.3918199437
  0
LINE
  5
85C
100
AcDbEntity
  8
0
100
AcDbLine
 62
7
  6
CONTINUOUS
 10
9.424587206
 20
27.4950876602
 11
18.0875005918
 21
27.4950876602
  0
LINE
  5
85D
100
AcDbEntity
  8
0
100
AcDbLine
 62
7
  6
CONTINUOUS
 10
15.0448627966
 20
26.3918199437
 11
14.9848627966
 21
26.4518199437
  0
LINE
  5
85E
100
AcDbEntity
  8
0
100
AcDbLine
 62
7
  6
CONTINUOUS
 10
14.7048627966
 20
26.3918199437
 11
14.7048627966
 21
26.1238199437
  0
LINE
  5
85F
100
AcDbEntity
  8
0
100
AcDbLine
 62
7
  6
CONTINUOUS
 10
14.7703627966
 20
26.3378199437
 11
14.7703627966
 21
26.2178199437
  0
LINE
  5
860
100
AcDbEntity
  8
0
100
AcDbLine
 62
7
  6
CONTINUOUS
 10
14.7863627966
 20
26.3218199437
 11
14.7863627966
 21
26.2338199437
  0
LINE
  5
861
100
AcDbEntity
  8
0
100
AcDbLine
 62
7
  6
CONTINUOUS
 10
14.9633627966
 20
26.2338199437
 11
14.9633627966
 21
26.3218199437
  0
LINE
  5
862
100
AcDbEntity
  8
0
100
AcDbLine
 62
7
  6
CONTINUOUS
 10
14.7703627966
 20
26.2178199437
 11
14.7863627966
 21
26.2338199437
  0
LINE
  5
863
100
AcDbEntity
  8
0
100
AcDbLine
 62
7
  6
CONTINUOUS
 10
14.9793627966
 20
26.3378199437
 11
14.9633627966
 21
26.3218199437
  0
LINE
  5
864
100
AcDbEntity
  8
0
100
AcDbLine
 62
7
  6
CONTINUOUS
 10
15.493563584
 20
26.3338278177
 11
15.5211226391
 21
26.3062687625
  0
LINE
  5
865
100
AcDbEntity
  8
0
100
AcDbLine
 62
7
  6
CONTINUOUS
 10
14.9793627966
 20
26.2178199437
 11
14.9793627966
 21
26.3378199437
  0
LINE
  5
866
100
AcDbEntity
  8
0
100
AcDbLine
 62
7
  6
CONTINUOUS
 10
15.0448627966
 20
26.1238199437
 11
15.0448627966
 21
26.3918199437
  0
LINE
  5
867
100
AcDbEntity
  8
0
100
AcDbLine
 62
7
  6
CONTINUOUS
 10
15.1118627966
 20
26.0768199437
 11
15.1118627966
 21
26.5078199437
  0
LINE
  5
868
100
AcDbEntity
  8
0
100
AcDbLine
 62
7
  6
CONTINUOUS
 10
15.493563584
 20
26.2511506523
 11
15.5211226391
 21
26.2787097074
  0
LINE
  5
869
100
AcDbEntity
  8
0
100
AcDbLine
 62
7
  6
CONTINUOUS
 10
15.9293903556
 20
26.2511506523
 11
15.9018313005
 21
26.2787097074
  0
LINE
  5
86A
100
AcDbEntity
  8
0
100
AcDbLine
 62
7
  6
CONTINUOUS
 10
15.3433667336
 20
26.968473487
 11
15.3433667336
 21
26.0905207311
  0
LINE
  5
86B
100
AcDbEntity
  8
0
100
AcDbLine
 62
7
  6
CONTINUOUS
 10
15.4673824816
 20
26.3519380539
 11
15.4673824816
 21
26.1503632507
  0
LINE
  5
86C
100
AcDbEntity
  8
0
100
AcDbLine
 62
7
  6
CONTINUOUS
 10
15.4770281509
 20
26.7846152192
 11
15.4770281509
 21
26.5157175814
  0
LINE
  5
86D
100
AcDbEntity
  8
0
100
AcDbLine
 62
7
  6
CONTINUOUS
 10
15.493563584
 20
26.3338278177
 11
15.493563584
 21
26.2511506523
  0
LINE
  5
86E
100
AcDbEntity
  8
0
100
AcDbLine
 62
7
  6
CONTINUOUS
 10
15.5211226391
 20
26.3062687625
 11
15.5211226391
 21
26.2787097074
  0
LINE
  5
86F
100
AcDbEntity
  8
0
100
AcDbLine
 62
7
  6
CONTINUOUS
 10
15.9293903556
 20
26.3338278177
 11
15.9018313005
 21
26.3062687625
  0
LINE
  5
870
100
AcDbEntity
  8
0
100
AcDbLine
 62
7
  6
CONTINUOUS
 10
16.4561620092
 20
26.3062687625
 11
16.428602954
 21
26.3338278177
  0
LINE
  5
871
100
AcDbEntity
  8
0
100
AcDbLine
 62
7
  6
CONTINUOUS
 10
15.5835242139
 20
26.8503632507
 11
15.5835242139
 21
26.7846152192
  0
LINE
  5
872
100
AcDbEntity
  8
0
100
AcDbLine
 62
7
  6
CONTINUOUS
 10
15.6327368123
 20
26.8956388413
 11
15.6327368123
 21
26.8503632507
  0
LINE
  5
873
100
AcDbEntity
  8
0
100
AcDbLine
 62
7
  6
CONTINUOUS
 10
15.7902171273
 20
26.8503632507
 11
15.7902171273
 21
26.8956388413
  0
LINE
  5
874
100
AcDbEntity
  8
0
100
AcDbLine
 62
7
  6
CONTINUOUS
 10
15.8394297257
 20
26.7846152192
 11
15.8394297257
 21
26.8503632507
  0
LINE
  5
875
100
AcDbEntity
  8
0
100
AcDbLine
 62
7
  6
CONTINUOUS
 10
16.8644297257
 20
26.2511506523
 11
16.8368706706
 21
26.2787097074
  0
LINE
  5
876
100
AcDbEntity
  8
0
100
AcDbLine
 62
7
  6
CONTINUOUS
 10
15.9018313005
 20
26.2787097074
 11
15.9018313005
 21
26.3062687625
  0
LINE
  5
877
100
AcDbEntity
  8
0
100
AcDbLine
 62
7
  6
CONTINUOUS
 10
15.9293903556
 20
26.2511506523
 11
15.9293903556
 21
26.3338278177
  0
LINE
  5
878
100
AcDbEntity
  8
0
100
AcDbLine
 62
7
  6
CONTINUOUS
 10
15.9459257887
 20
26.5157175814
 11
15.9459257887
 21
26.7846152192
  0
LINE
  5
879
100
AcDbEntity
  8
0
100
AcDbLine
 62
7
  6
CONTINUOUS
 10
15.955571458
 20
26.1503632507
 11
15.955571458
 21
26.3519380539
  0
LINE
  5
87A
100
AcDbEntity
  8
0
100
AcDbLine
 62
7
  6
CONTINUOUS
 10
16.079587206
 20
26.0905207311
 11
16.079587206
 21
26.968473487
  0
LINE
  5
87B
100
AcDbEntity
  8
0
100
AcDbLine
 62
7
  6
CONTINUOUS
 10
16.428602954
 20
26.2511506523
 11
16.4561620092
 21
26.2787097074
  0
LINE
  5
87C
100
AcDbEntity
  8
0
100
AcDbLine
 62
7
  6
CONTINUOUS
 10
16.8368706706
 20
26.3062687625
 11
16.8644297257
 21
26.3338278177
  0
LINE
  5
87D
100
AcDbEntity
  8
0
100
AcDbLine
 62
7
  6
CONTINUOUS
 10
16.2784061037
 20
26.968473487
 11
16.2784061037
 21
26.0905207311
  0
LINE
  5
87E
100
AcDbEntity
  8
7_ALL_ROUNDS
100
AcDbLine
 62
7
  6
CONTINUOUS
 10
16.315099017
 20
25.7273711248
 11
16.315099017
 21
25.7785522271
  0
LINE
  5
87F
100
AcDbEntity
  8
0
100
AcDbLine
 62
7
  6
CONTINUOUS
 10
16.4024218517
 20
26.3519380539
 11
16.4024218517
 21
26.1503632507
  0
LINE
  5
880
100
AcDbEntity
  8
0
100
AcDbLine
 62
7
  6
CONTINUOUS
 10
16.412067521
 20
26.7846152192
 11
16.412067521
 21
26.5157175814
  0
LINE
  5
881
100
AcDbEntity
  8
7_ALL_ROUNDS
100
AcDbLine
 62
7
  6
CONTINUOUS
 10
16.4135242139
 20
25.7273711248
 11
16.4135242139
 21
25.7785522271
  0
LINE
  5
882
100
AcDbEntity
  8
0
100
AcDbLine
 62
7
  6
CONTINUOUS
 10
16.428602954
 20
26.3338278177
 11
16.428602954
 21
26.2511506523
  0
LINE
  5
883
100
AcDbEntity
  8
0
100
AcDbLine
 62
7
  6
CONTINUOUS
 10
16.4561620092
 20
26.3062687625
 11
16.4561620092
 21
26.2787097074
  0
LINE
  5
884
100
AcDbEntity
  8
0
100
AcDbLine
 62
7
  6
CONTINUOUS
 10
16.518563584
 20
26.8503632507
 11
16.518563584
 21
26.7846152192
  0
LINE
  5
885
100
AcDbEntity
  8
0
100
AcDbLine
 62
7
  6
CONTINUOUS
 10
16.5677761824
 20
26.8956388413
 11
16.5677761824
 21
26.8503632507
  0
LINE
  5
886
100
AcDbEntity
  8
0
100
AcDbLine
 62
7
  6
CONTINUOUS
 10
16.7252564974
 20
26.8503632507
 11
16.7252564974
 21
26.8956388413
  0
LINE
  5
887
100
AcDbEntity
  8
0
100
AcDbLine
 62
7
  6
CONTINUOUS
 10
16.7744690958
 20
26.7846152192
 11
16.7744690958
 21
26.8503632507
  0
LINE
  5
888
100
AcDbEntity
  8
0
100
AcDbLine
 62
7
  6
CONTINUOUS
 10
16.8368706706
 20
26.2787097074
 11
16.8368706706
 21
26.3062687625
  0
LINE
  5
889
100
AcDbEntity
  8
0
100
AcDbLine
 62
7
  6
CONTINUOUS
 10
16.8644297257
 20
26.2511506523
 11
16.8644297257
 21
26.3338278177
  0
LINE
  5
88A
100
AcDbEntity
  8
0
100
AcDbLine
 62
7
  6
CONTINUOUS
 10
16.8809651588
 20
26.5157175814
 11
16.8809651588
 21
26.7846152192
  0
LINE
  5
88B
100
AcDbEntity
  8
0
100
AcDbLine
 62
7
  6
CONTINUOUS
 10
16.8906108281
 20
26.1503632507
 11
16.8906108281
 21
26.3519380539
  0
LINE
  5
88C
100
AcDbEntity
  8
0
100
AcDbLine
 62
7
  6
CONTINUOUS
 10
17.0146265761
 20
26.0905207311
 11
17.0146265761
 21
26.968473487
  0
LINE
  5
88D
100
AcDbEntity
  8
0
100
AcDbLine
 62
7
  6
CONTINUOUS
 10
17.1847053162
 20
26.4212293925
 11
17.1847053162
 21
26.0826467153
  0
LINE
  5
88E
100
AcDbEntity
  8
0
100
AcDbLine
 62
7
  6
CONTINUOUS
 10
17.224075395
 20
26.3567963216
 11
17.224075395
 21
26.1483950287
  0
LINE
  5
88F
100
AcDbEntity
  8
0
100
AcDbLine
 62
7
  6
CONTINUOUS
 10
17.2965163399
 20
26.282742885
 11
17.2965163399
 21
26.1872755177
  0
LINE
  5
890
100
AcDbEntity
  8
0
100
AcDbLine
 62
7
  6
CONTINUOUS
 10
17.3043903556
 20
26.2546942407
 11
17.3043903556
 21
26.215324162
  0
LINE
  5
891
100
AcDbEntity
  8
0
100
AcDbLine
 62
7
  6
CONTINUOUS
 10
17.3437604344
 20
26.215324162
 11
17.3437604344
 21
26.2546942407
  0
LINE
  5
892
100
AcDbEntity
  8
0
100
AcDbLine
 62
7
  6
CONTINUOUS
 10
17.5043903556
 20
26.2546942407
 11
17.5043903556
 21
26.215324162
  0
LINE
  5
893
100
AcDbEntity
  8
0
100
AcDbLine
 62
7
  6
CONTINUOUS
 10
17.5437604344
 20
26.215324162
 11
17.5437604344
 21
26.2546942407
  0
LINE
  5
894
100
AcDbEntity
  8
0
100
AcDbLine
 62
7
  6
CONTINUOUS
 10
17.624075395
 20
26.1483950287
 11
17.624075395
 21
26.3567963216
  0
LINE
  5
895
100
AcDbEntity
  8
7_ALL_ROUNDS
100
AcDbLine
 62
7
  6
CONTINUOUS
 10
17.6339966548
 20
25.7273711248
 11
17.6339966548
 21
25.7785522271
  0
LINE
  5
896
100
AcDbEntity
  8
0
100
AcDbLine
 62
7
  6
CONTINUOUS
 10
17.6634454737
 20
26.0826467153
 11
17.6634454737
 21
26.4212293925
  0
LINE
  5
897
100
AcDbEntity
  8
7_ALL_ROUNDS
100
AcDbLine
 62
7
  6
CONTINUOUS
 10
17.7324218517
 20
25.7273711248
 11
17.7324218517
 21
25.7785522271
  0
LINE
  5
898
100
AcDbEntity
  8
0
100
AcDbLine
 62
7
  6
CONTINUOUS
 10
18.0875005918
 20
25.7785522271
 11
18.0875005918
 21
27.4950876602
  0
ARC
  5
899
100
AcDbEntity
  8
0
100
AcDbCircle
 62
7
  6
CONTINUOUS
 10
23.3382002671
 20
19.811607693
 40
0.1309055118
100
AcDbArc
 50
90.0
 51
180.0
  0
ARC
  5
89A
100
AcDbEntity
  8
0
100
AcDbCircle
 62
7
  6
CONTINUOUS
 10
23.3382002671
 20
19.2886272972
 40
0.1309055118
100
AcDbArc
 50
180.0
 51
270.0
  0
ARC
  5
89B
100
AcDbEntity
  8
0
100
AcDbCircle
 62
7
  6
CONTINUOUS
 10
23.9300783006
 20
19.2886272972
 40
0.1309055118
100
AcDbArc
 50
270.0
 51
360.0
  0
ARC
  5
89C
100
AcDbEntity
  8
0
100
AcDbCircle
 62
7
  6
CONTINUOUS
 10
23.9300783006
 20
19.811607693
 40
0.1309055118
100
AcDbArc
 50
0.0
 51
90.0
  0
ARC
  5
89D
100
AcDbEntity
  8
7_ALL_ROUNDS
100
AcDbCircle
 62
7
  6
CONTINUOUS
 10
17.7575878212
 20
19.1942353238
 40
0.1181102362
100
AcDbArc
 50
180.0
 51
270.0
  0
ARC
  5
89E
100
AcDbEntity
  8
7_ALL_ROUNDS
100
AcDbCircle
 62
7
  6
CONTINUOUS
 10
17.7575878212
 20
19.9040311625
 40
0.1181102362
100
AcDbArc
 50
90.0
 51
180.0
  0
ARC
  5
89F
100
AcDbEntity
  8
7_ALL_ROUNDS
100
AcDbCircle
 62
7
  6
CONTINUOUS
 10
24.2785103761
 20
19.9040311625
 40
0.1181102362
100
AcDbArc
 50
0.0
 51
90.0
  0
ARC
  5
8A0
100
AcDbEntity
  8
7_ALL_ROUNDS
100
AcDbCircle
 62
7
  6
CONTINUOUS
 10
24.2785103761
 20
19.1942353238
 40
0.1181102362
100
AcDbArc
 50
270.0
 51
360.0
  0
ARC
  5
8A1
100
AcDbEntity
  8
0
100
AcDbCircle
 62
7
  6
CONTINUOUS
 10
23.9300783006
 20
19.811607693
 40
0.0787401575
100
AcDbArc
 50
0.0
 51
90.0
  0
ARC
  5
8A2
100
AcDbEntity
  8
0
100
AcDbCircle
 62
7
  6
CONTINUOUS
 10
23.9300783006
 20
19.2886272972
 40
0.0787401575
100
AcDbArc
 50
270.0
 51
360.0
  0
ARC
  5
8A3
100
AcDbEntity
  8
0
100
AcDbCircle
 62
7
  6
CONTINUOUS
 10
23.3382002671
 20
19.2886272972
 40
0.0787401575
100
AcDbArc
 50
180.0
 51
270.0
  0
ARC
  5
8A4
100
AcDbEntity
  8
0
100
AcDbCircle
 62
7
  6
CONTINUOUS
 10
23.3382002671
 20
19.811607693
 40
0.0787401575
100
AcDbArc
 50
90.0
 51
180.0
  0
CIRCLE
  5
8A5
100
AcDbEntity
  8
0
100
AcDbCircle
 62
7
  6
CONTINUOUS
 10
11.6996187631
 20
20.0412592274
 40
0.0688976378
  0
CIRCLE
  5
8A6
100
AcDbEntity
  8
0
100
AcDbCircle
 62
7
  6
CONTINUOUS
 10
11.6996187631
 20
19.0570072589
 40
0.0688976378
  0
CIRCLE
  5
8A7
100
AcDbEntity
  8
0
100
AcDbCircle
 62
7
  6
CONTINUOUS
 10
3.7468628576
 20
19.5491332432
 40
0.0688976378
  0
CIRCLE
  5
8A8
100
AcDbEntity
  8
0
100
AcDbCircle
 62
7
  6
CONTINUOUS
 10
27.7084690077
 20
20.0412592274
 40
0.0688976378
  0
CIRCLE
  5
8A9
100
AcDbEntity
  8
0
100
AcDbCircle
 62
7
  6
CONTINUOUS
 10
27.7084690077
 20
19.0570072589
 40
0.0688976378
  0
CIRCLE
  5
8AA
100
AcDbEntity
  8
0
100
AcDbCircle
 62
7
  6
CONTINUOUS
 10
35.6612249132
 20
19.5491332432
 40
0.0688976378
  0
ARC
  5
8AB
100
AcDbEntity
  8
0
100
AcDbCircle
 62
7
  6
CONTINUOUS
 10
44.4329464579
 20
17.5829688626
 40
6.0040326789
100
AcDbArc
 50
242.4427597596
 51
242.6088493225
  0
ARC
  5
8AC
100
AcDbEntity
  8
7_ALL_ROUNDS
100
AcDbCircle
 62
7
  6
CONTINUOUS
 10
40.1212772279
 20
6.4121074327
 40
0.0534565719
100
AcDbArc
 50
286.9395839063
 51
290.1921428241
  0
ARC
  5
8AD
100
AcDbEntity
  8
0
100
AcDbCircle
 62
7
  6
CONTINUOUS
 10
29.8480762917
 20
10.7564762549
 40
5.905511811
100
AcDbArc
 50
164.5339900466
 51
195.4660099534
  0
ARC
  5
8AE
100
AcDbEntity
  8
0
100
AcDbCircle
 62
7
  6
CONTINUOUS
 10
10.9489424334
 20
10.7564762549
 40
5.905511811
100
AcDbArc
 50
344.5339900466
 51
15.4660099534
  0
ARC
  5
8AF
100
AcDbEntity
  8
7_ALL_ROUNDS
100
AcDbCircle
 62
7
  6
CONTINUOUS
 10
16.5205566067
 20
15.1068699556
 40
0.0984251969
100
AcDbArc
 50
90.0
 51
180.0
  0
ARC
  5
8B0
100
AcDbEntity
  8
7_ALL_ROUNDS
100
AcDbCircle
 62
7
  6
CONTINUOUS
 10
16.5205566067
 20
14.6737990895
 40
0.0984251969
100
AcDbArc
 50
180.0
 51
270.0
  0
ARC
  5
8B1
100
AcDbEntity
  8
7_ALL_ROUNDS
100
AcDbCircle
 62
7
  6
CONTINUOUS
 10
17.7410290476
 20
14.6737990895
 40
0.0984251969
100
AcDbArc
 50
270.0
 51
360.0
  0
ARC
  5
8B2
100
AcDbEntity
  8
7_ALL_ROUNDS
100
AcDbCircle
 62
7
  6
CONTINUOUS
 10
17.7410290476
 20
15.1068699556
 40
0.0984251969
100
AcDbArc
 50
0.0
 51
90.0
  0
ARC
  5
8B3
100
AcDbEntity
  8
7_ALL_ROUNDS
100
AcDbCircle
 62
7
  6
CONTINUOUS
 10
24.2764621185
 20
15.1068699556
 40
0.0984251969
100
AcDbArc
 50
0.0
 51
90.0
  0
ARC
  5
8B4
100
AcDbEntity
  8
7_ALL_ROUNDS
100
AcDbCircle
 62
7
  6
CONTINUOUS
 10
23.0559896775
 20
15.1068699556
 40
0.0984251969
100
AcDbArc
 50
90.0
 51
180.0
  0
ARC
  5
8B5
100
AcDbEntity
  8
7_ALL_ROUNDS
100
AcDbCircle
 62
7
  6
CONTINUOUS
 10
23.0559896775
 20
14.6737990895
 40
0.0984251969
100
AcDbArc
 50
180.0
 51
270.0
  0
ARC
  5
8B6
100
AcDbEntity
  8
7_ALL_ROUNDS
100
AcDbCircle
 62
7
  6
CONTINUOUS
 10
24.2764621185
 20
14.6737990895
 40
0.0984251969
100
AcDbArc
 50
270.0
 51
360.0
  0
ARC
  5
8B7
100
AcDbEntity
  8
7_ALL_ROUNDS
100
AcDbCircle
 62
7
  6
CONTINUOUS
 10
16.5205566067
 20
7.5871849163
 40
0.0984251969
100
AcDbArc
 50
180.0
 51
270.0
  0
ARC
  5
8B8
100
AcDbEntity
  8
7_ALL_ROUNDS
100
AcDbCircle
 62
7
  6
CONTINUOUS
 10
17.7410290476
 20
7.5871849163
 40
0.0984251969
100
AcDbArc
 50
270.0
 51
360.0
  0
ARC
  5
8B9
100
AcDbEntity
  8
7_ALL_ROUNDS
100
AcDbCircle
 62
7
  6
CONTINUOUS
 10
17.7410290476
 20
8.0202557824
 40
0.0984251969
100
AcDbArc
 50
0.0
 51
90.0
  0
ARC
  5
8BA
100
AcDbEntity
  8
7_ALL_ROUNDS
100
AcDbCircle
 62
7
  6
CONTINUOUS
 10
16.5205566067
 20
8.0202557824
 40
0.0984251969
100
AcDbArc
 50
90.0
 51
180.0
  0
ARC
  5
8BB
100
AcDbEntity
  8
7_ALL_ROUNDS
100
AcDbCircle
 62
7
  6
CONTINUOUS
 10
24.2764621185
 20
7.5871849163
 40
0.0984251969
100
AcDbArc
 50
270.0
 51
360.0
  0
ARC
  5
8BC
100
AcDbEntity
  8
7_ALL_ROUNDS
100
AcDbCircle
 62
7
  6
CONTINUOUS
 10
24.2764621185
 20
8.0202557824
 40
0.0984251969
100
AcDbArc
 50
0.0
 51
90.0
  0
ARC
  5
8BD
100
AcDbEntity
  8
7_ALL_ROUNDS
100
AcDbCircle
 62
7
  6
CONTINUOUS
 10
23.0559896775
 20
8.0202557824
 40
0.0984251969
100
AcDbArc
 50
90.0
 51
180.0
  0
ARC
  5
8BE
100
AcDbEntity
  8
7_ALL_ROUNDS
100
AcDbCircle
 62
7
  6
CONTINUOUS
 10
23.0559896775
 20
7.5871849163
 40
0.0984251969
100
AcDbArc
 50
180.0
 51
270.0
  0
CIRCLE
  5
8BF
100
AcDbEntity
  8
0
100
AcDbCircle
 62
7
  6
CONTINUOUS
 10
16.4843361342
 20
11.9375786171
 40
0.0492125984
  0
CIRCLE
  5
8C0
100
AcDbEntity
  8
0
100
AcDbCircle
 62
7
  6
CONTINUOUS
 10
16.4843361342
 20
10.7564762549
 40
0.0492125984
  0
CIRCLE
  5
8C1
100
AcDbEntity
  8
0
100
AcDbCircle
 62
7
  6
CONTINUOUS
 10
16.4843361342
 20
9.5753738926
 40
0.0492125984
  0
CIRCLE
  5
8C2
100
AcDbEntity
  8
0
100
AcDbCircle
 62
7
  6
CONTINUOUS
 10
24.3126825909
 20
11.9375786171
 40
0.0492125984
  0
CIRCLE
  5
8C3
100
AcDbEntity
  8
0
100
AcDbCircle
 62
7
  6
CONTINUOUS
 10
24.3126825909
 20
10.7564762549
 40
0.0492125984
  0
CIRCLE
  5
8C4
100
AcDbEntity
  8
0
100
AcDbCircle
 62
7
  6
CONTINUOUS
 10
24.3126825909
 20
9.5753738926
 40
0.0492125984
  0
ARC
  5
8C5
100
AcDbEntity
  8
0
100
AcDbCircle
 62
7
  6
CONTINUOUS
 10
9.8748627966
 20
26.0117805736
 40
0.1023622047
100
AcDbArc
 50
67.380135052
 51
112.619864948
  0
ARC
  5
8C6
100
AcDbEntity
  8
0
100
AcDbCircle
 62
7
  6
CONTINUOUS
 10
10.0126580722
 20
26.0117805736
 40
0.1023622047
100
AcDbArc
 50
67.380135052
 51
112.619864948
  0
ARC
  5
8C7
100
AcDbEntity
  8
0
100
AcDbCircle
 62
7
  6
CONTINUOUS
 10
10.1504533477
 20
26.0117805736
 40
0.1023622047
100
AcDbArc
 50
67.380135052
 51
112.619864948
  0
ARC
  5
8C8
100
AcDbEntity
  8
0
100
AcDbCircle
 62
7
  6
CONTINUOUS
 10
10.2882486233
 20
26.0117805736
 40
0.1023622047
100
AcDbArc
 50
67.380135052
 51
112.619864948
  0
ARC
  5
8C9
100
AcDbEntity
  8
0
100
AcDbCircle
 62
7
  6
CONTINUOUS
 10
10.4260438989
 20
26.0117805736
 40
0.1023622047
100
AcDbArc
 50
67.380135052
 51
112.619864948
  0
ARC
  5
8CA
100
AcDbEntity
  8
0
100
AcDbCircle
 62
7
  6
CONTINUOUS
 10
10.5638391745
 20
26.0117805736
 40
0.1023622047
100
AcDbArc
 50
67.380135052
 51
112.619864948
  0
ARC
  5
8CB
100
AcDbEntity
  8
0
100
AcDbCircle
 62
7
  6
CONTINUOUS
 10
10.7016344501
 20
26.0117805736
 40
0.1023622047
100
AcDbArc
 50
67.380135052
 51
112.619864948
  0
ARC
  5
8CC
100
AcDbEntity
  8
0
100
AcDbCircle
 62
7
  6
CONTINUOUS
 10
10.8394297257
 20
26.0117805736
 40
0.1023622047
100
AcDbArc
 50
67.380135052
 51
112.619864948
  0
ARC
  5
8CD
100
AcDbEntity
  8
0
100
AcDbCircle
 62
7
  6
CONTINUOUS
 10
10.9772250013
 20
26.0117805736
 40
0.1023622047
100
AcDbArc
 50
67.380135052
 51
112.619864948
  0
ARC
  5
8CE
100
AcDbEntity
  8
0
100
AcDbCircle
 62
7
  6
CONTINUOUS
 10
11.1150202769
 20
26.0117805736
 40
0.1023622047
100
AcDbArc
 50
67.380135052
 51
112.619864948
  0
ARC
  5
8CF
100
AcDbEntity
  8
0
100
AcDbCircle
 62
7
  6
CONTINUOUS
 10
11.2528155525
 20
26.0117805736
 40
0.1023622047
100
AcDbArc
 50
67.380135052
 51
112.619864948
  0
ARC
  5
8D0
100
AcDbEntity
  8
0
100
AcDbCircle
 62
7
  6
CONTINUOUS
 10
11.3906108281
 20
26.0117805736
 40
0.1023622047
100
AcDbArc
 50
67.380135052
 51
112.619864948
  0
CIRCLE
  5
8D1
100
AcDbEntity
  8
0
100
AcDbCircle
 62
7
  6
CONTINUOUS
 10
11.3906108281
 20
26.1928829358
 40
0.0393700787
  0
CIRCLE
  5
8D2
100
AcDbEntity
  8
0
100
AcDbCircle
 62
7
  6
CONTINUOUS
 10
11.2528155525
 20
26.1928829358
 40
0.0393700787
  0
CIRCLE
  5
8D3
100
AcDbEntity
  8
0
100
AcDbCircle
 62
7
  6
CONTINUOUS
 10
11.1150202769
 20
26.1928829358
 40
0.0393700787
  0
CIRCLE
  5
8D4
100
AcDbEntity
  8
0
100
AcDbCircle
 62
7
  6
CONTINUOUS
 10
10.9772250013
 20
26.1928829358
 40
0.0393700787
  0
CIRCLE
  5
8D5
100
AcDbEntity
  8
0
100
AcDbCircle
 62
7
  6
CONTINUOUS
 10
10.8394297257
 20
26.1928829358
 40
0.0393700787
  0
CIRCLE
  5
8D6
100
AcDbEntity
  8
0
100
AcDbCircle
 62
7
  6
CONTINUOUS
 10
10.7016344501
 20
26.1928829358
 40
0.0393700787
  0
CIRCLE
  5
8D7
100
AcDbEntity
  8
0
100
AcDbCircle
 62
7
  6
CONTINUOUS
 10
10.5638391745
 20
26.1928829358
 40
0.0393700787
  0
CIRCLE
  5
8D8
100
AcDbEntity
  8
0
100
AcDbCircle
 62
7
  6
CONTINUOUS
 10
10.4260438989
 20
26.1928829358
 40
0.0393700787
  0
CIRCLE
  5
8D9
100
AcDbEntity
  8
0
100
AcDbCircle
 62
7
  6
CONTINUOUS
 10
10.2882486233
 20
26.1928829358
 40
0.0393700787
  0
CIRCLE
  5
8DA
100
AcDbEntity
  8
0
100
AcDbCircle
 62
7
  6
CONTINUOUS
 10
10.1504533477
 20
26.1928829358
 40
0.0393700787
  0
CIRCLE
  5
8DB
100
AcDbEntity
  8
0
100
AcDbCircle
 62
7
  6
CONTINUOUS
 10
10.0126580722
 20
26.1928829358
 40
0.0393700787
  0
CIRCLE
  5
8DC
100
AcDbEntity
  8
0
100
AcDbCircle
 62
7
  6
CONTINUOUS
 10
9.8748627966
 20
26.1928829358
 40
0.0393700787
  0
ARC
  5
8DD
100
AcDbEntity
  8
0
100
AcDbCircle
 62
7
  6
CONTINUOUS
 10
13.0441541351
 20
26.0117805736
 40
0.1023622047
100
AcDbArc
 50
67.380135052
 51
112.619864948
  0
ARC
  5
8DE
100
AcDbEntity
  8
0
100
AcDbCircle
 62
7
  6
CONTINUOUS
 10
12.9063588596
 20
26.0117805736
 40
0.1023622047
100
AcDbArc
 50
67.380135052
 51
112.619864948
  0
ARC
  5
8DF
100
AcDbEntity
  8
0
100
AcDbCircle
 62
7
  6
CONTINUOUS
 10
12.768563584
 20
26.0117805736
 40
0.1023622047
100
AcDbArc
 50
67.380135052
 51
112.619864948
  0
ARC
  5
8E0
100
AcDbEntity
  8
0
100
AcDbCircle
 62
7
  6
CONTINUOUS
 10
12.6307683084
 20
26.0117805736
 40
0.1023622047
100
AcDbArc
 50
67.380135052
 51
112.619864948
  0
ARC
  5
8E1
100
AcDbEntity
  8
0
100
AcDbCircle
 62
7
  6
CONTINUOUS
 10
12.4929730328
 20
26.0117805736
 40
0.1023622047
100
AcDbArc
 50
67.380135052
 51
112.619864948
  0
ARC
  5
8E2
100
AcDbEntity
  8
0
100
AcDbCircle
 62
7
  6
CONTINUOUS
 10
12.3551777572
 20
26.0117805736
 40
0.1023622047
100
AcDbArc
 50
67.380135052
 51
112.619864948
  0
ARC
  5
8E3
100
AcDbEntity
  8
0
100
AcDbCircle
 62
7
  6
CONTINUOUS
 10
12.2173824816
 20
26.0117805736
 40
0.1023622047
100
AcDbArc
 50
67.380135052
 51
112.619864948
  0
ARC
  5
8E4
100
AcDbEntity
  8
0
100
AcDbCircle
 62
7
  6
CONTINUOUS
 10
12.079587206
 20
26.0117805736
 40
0.1023622047
100
AcDbArc
 50
67.380135052
 51
112.619864948
  0
ARC
  5
8E5
100
AcDbEntity
  8
0
100
AcDbCircle
 62
7
  6
CONTINUOUS
 10
11.9417919304
 20
26.0117805736
 40
0.1023622047
100
AcDbArc
 50
67.380135052
 51
112.619864948
  0
ARC
  5
8E6
100
AcDbEntity
  8
0
100
AcDbCircle
 62
7
  6
CONTINUOUS
 10
11.8039966548
 20
26.0117805736
 40
0.1023622047
100
AcDbArc
 50
67.380135052
 51
112.619864948
  0
ARC
  5
8E7
100
AcDbEntity
  8
0
100
AcDbCircle
 62
7
  6
CONTINUOUS
 10
13.5626580722
 20
26.2336281137
 40
0.1228077039
100
AcDbArc
 50
224.9800206574
 51
315.0199793426
  0
CIRCLE
  5
8E8
100
AcDbEntity
  8
0
100
AcDbCircle
 62
7
  6
CONTINUOUS
 10
13.0441541351
 20
26.1928829358
 40
0.0393700787
  0
CIRCLE
  5
8E9
100
AcDbEntity
  8
0
100
AcDbCircle
 62
7
  6
CONTINUOUS
 10
12.9063588596
 20
26.1928829358
 40
0.0393700787
  0
CIRCLE
  5
8EA
100
AcDbEntity
  8
0
100
AcDbCircle
 62
7
  6
CONTINUOUS
 10
12.768563584
 20
26.1928829358
 40
0.0393700787
  0
CIRCLE
  5
8EB
100
AcDbEntity
  8
0
100
AcDbCircle
 62
7
  6
CONTINUOUS
 10
12.6307683084
 20
26.1928829358
 40
0.0393700787
  0
CIRCLE
  5
8EC
100
AcDbEntity
  8
0
100
AcDbCircle
 62
7
  6
CONTINUOUS
 10
12.4929730328
 20
26.1928829358
 40
0.0393700787
  0
CIRCLE
  5
8ED
100
AcDbEntity
  8
0
100
AcDbCircle
 62
7
  6
CONTINUOUS
 10
12.3551777572
 20
26.1928829358
 40
0.0393700787
  0
CIRCLE
  5
8EE
100
AcDbEntity
  8
0
100
AcDbCircle
 62
7
  6
CONTINUOUS
 10
12.2173824816
 20
26.1928829358
 40
0.0393700787
  0
CIRCLE
  5
8EF
100
AcDbEntity
  8
0
100
AcDbCircle
 62
7
  6
CONTINUOUS
 10
12.079587206
 20
26.1928829358
 40
0.0393700787
  0
CIRCLE
  5
8F0
100
AcDbEntity
  8
0
100
AcDbCircle
 62
7
  6
CONTINUOUS
 10
11.9417919304
 20
26.1928829358
 40
0.0393700787
  0
CIRCLE
  5
8F1
100
AcDbEntity
  8
0
100
AcDbCircle
 62
7
  6
CONTINUOUS
 10
11.8039966548
 20
26.1928829358
 40
0.0393700787
  0
ARC
  5
8F2
100
AcDbEntity
  8
0
100
AcDbCircle
 62
7
  6
CONTINUOUS
 10
9.8748627966
 20
26.810993172
 40
0.1023622047
100
AcDbArc
 50
67.380135052
 51
112.619864948
  0
ARC
  5
8F3
100
AcDbEntity
  8
0
100
AcDbCircle
 62
7
  6
CONTINUOUS
 10
10.0126580722
 20
26.810993172
 40
0.1023622047
100
AcDbArc
 50
67.380135052
 51
112.619864948
  0
ARC
  5
8F4
100
AcDbEntity
  8
0
100
AcDbCircle
 62
7
  6
CONTINUOUS
 10
10.1504533477
 20
26.810993172
 40
0.1023622047
100
AcDbArc
 50
67.380135052
 51
112.619864948
  0
ARC
  5
8F5
100
AcDbEntity
  8
0
100
AcDbCircle
 62
7
  6
CONTINUOUS
 10
10.2882486233
 20
26.810993172
 40
0.1023622047
100
AcDbArc
 50
67.380135052
 51
112.619864948
  0
ARC
  5
8F6
100
AcDbEntity
  8
0
100
AcDbCircle
 62
7
  6
CONTINUOUS
 10
10.4260438989
 20
26.810993172
 40
0.1023622047
100
AcDbArc
 50
67.380135052
 51
112.619864948
  0
ARC
  5
8F7
100
AcDbEntity
  8
0
100
AcDbCircle
 62
7
  6
CONTINUOUS
 10
10.5638391745
 20
26.810993172
 40
0.1023622047
100
AcDbArc
 50
67.380135052
 51
112.619864948
  0
ARC
  5
8F8
100
AcDbEntity
  8
0
100
AcDbCircle
 62
7
  6
CONTINUOUS
 10
10.7016344501
 20
26.810993172
 40
0.1023622047
100
AcDbArc
 50
67.380135052
 51
112.619864948
  0
ARC
  5
8F9
100
AcDbEntity
  8
0
100
AcDbCircle
 62
7
  6
CONTINUOUS
 10
10.8394297257
 20
26.810993172
 40
0.1023622047
100
AcDbArc
 50
67.380135052
 51
112.619864948
  0
ARC
  5
8FA
100
AcDbEntity
  8
0
100
AcDbCircle
 62
7
  6
CONTINUOUS
 10
10.9772250013
 20
26.810993172
 40
0.1023622047
100
AcDbArc
 50
67.380135052
 51
112.619864948
  0
ARC
  5
8FB
100
AcDbEntity
  8
0
100
AcDbCircle
 62
7
  6
CONTINUOUS
 10
11.1150202769
 20
26.810993172
 40
0.1023622047
100
AcDbArc
 50
67.380135052
 51
112.619864948
  0
ARC
  5
8FC
100
AcDbEntity
  8
0
100
AcDbCircle
 62
7
  6
CONTINUOUS
 10
11.2528155525
 20
26.810993172
 40
0.1023622047
100
AcDbArc
 50
67.380135052
 51
112.619864948
  0
ARC
  5
8FD
100
AcDbEntity
  8
0
100
AcDbCircle
 62
7
  6
CONTINUOUS
 10
11.3906108281
 20
26.810993172
 40
0.1023622047
100
AcDbArc
 50
67.380135052
 51
112.619864948
  0
CIRCLE
  5
8FE
100
AcDbEntity
  8
0
100
AcDbCircle
 62
7
  6
CONTINUOUS
 10
9.8748627966
 20
26.9920955342
 40
0.0393700787
  0
CIRCLE
  5
8FF
100
AcDbEntity
  8
0
100
AcDbCircle
 62
7
  6
CONTINUOUS
 10
10.0126580722
 20
26.9920955342
 40
0.0393700787
  0
CIRCLE
  5
900
100
AcDbEntity
  8
0
100
AcDbCircle
 62
7
  6
CONTINUOUS
 10
10.1504533477
 20
26.9920955342
 40
0.0393700787
  0
CIRCLE
  5
901
100
AcDbEntity
  8
0
100
AcDbCircle
 62
7
  6
CONTINUOUS
 10
10.2882486233
 20
26.9920955342
 40
0.0393700787
  0
CIRCLE
  5
902
100
AcDbEntity
  8
0
100
AcDbCircle
 62
7
  6
CONTINUOUS
 10
10.4260438989
 20
26.9920955342
 40
0.0393700787
  0
CIRCLE
  5
903
100
AcDbEntity
  8
0
100
AcDbCircle
 62
7
  6
CONTINUOUS
 10
10.5638391745
 20
26.9920955342
 40
0.0393700787
  0
CIRCLE
  5
904
100
AcDbEntity
  8
0
100
AcDbCircle
 62
7
  6
CONTINUOUS
 10
10.7016344501
 20
26.9920955342
 40
0.0393700787
  0
CIRCLE
  5
905
100
AcDbEntity
  8
0
100
AcDbCircle
 62
7
  6
CONTINUOUS
 10
10.8394297257
 20
26.9920955342
 40
0.0393700787
  0
CIRCLE
  5
906
100
AcDbEntity
  8
0
100
AcDbCircle
 62
7
  6
CONTINUOUS
 10
10.9772250013
 20
26.9920955342
 40
0.0393700787
  0
CIRCLE
  5
907
100
AcDbEntity
  8
0
100
AcDbCircle
 62
7
  6
CONTINUOUS
 10
11.1150202769
 20
26.9920955342
 40
0.0393700787
  0
CIRCLE
  5
908
100
AcDbEntity
  8
0
100
AcDbCircle
 62
7
  6
CONTINUOUS
 10
11.2528155525
 20
26.9920955342
 40
0.0393700787
  0
CIRCLE
  5
909
100
AcDbEntity
  8
0
100
AcDbCircle
 62
7
  6
CONTINUOUS
 10
11.3906108281
 20
26.9920955342
 40
0.0393700787
  0
ARC
  5
90A
100
AcDbEntity
  8
0
100
AcDbCircle
 62
7
  6
CONTINUOUS
 10
13.0441541351
 20
26.810993172
 40
0.1023622047
100
AcDbArc
 50
67.380135052
 51
112.619864948
  0
ARC
  5
90B
100
AcDbEntity
  8
0
100
AcDbCircle
 62
7
  6
CONTINUOUS
 10
12.9063588596
 20
26.810993172
 40
0.1023622047
100
AcDbArc
 50
67.380135052
 51
112.619864948
  0
ARC
  5
90C
100
AcDbEntity
  8
0
100
AcDbCircle
 62
7
  6
CONTINUOUS
 10
12.768563584
 20
26.810993172
 40
0.1023622047
100
AcDbArc
 50
67.380135052
 51
112.619864948
  0
ARC
  5
90D
100
AcDbEntity
  8
0
100
AcDbCircle
 62
7
  6
CONTINUOUS
 10
12.6307683084
 20
26.810993172
 40
0.1023622047
100
AcDbArc
 50
67.380135052
 51
112.619864948
  0
ARC
  5
90E
100
AcDbEntity
  8
0
100
AcDbCircle
 62
7
  6
CONTINUOUS
 10
12.4929730328
 20
26.810993172
 40
0.1023622047
100
AcDbArc
 50
67.380135052
 51
112.619864948
  0
ARC
  5
90F
100
AcDbEntity
  8
0
100
AcDbCircle
 62
7
  6
CONTINUOUS
 10
12.3551777572
 20
26.810993172
 40
0.1023622047
100
AcDbArc
 50
67.380135052
 51
112.619864948
  0
ARC
  5
910
100
AcDbEntity
  8
0
100
AcDbCircle
 62
7
  6
CONTINUOUS
 10
12.2173824816
 20
26.810993172
 40
0.1023622047
100
AcDbArc
 50
67.380135052
 51
112.619864948
  0
ARC
  5
911
100
AcDbEntity
  8
0
100
AcDbCircle
 62
7
  6
CONTINUOUS
 10
12.079587206
 20
26.810993172
 40
0.1023622047
100
AcDbArc
 50
67.380135052
 51
112.619864948
  0
ARC
  5
912
100
AcDbEntity
  8
0
100
AcDbCircle
 62
7
  6
CONTINUOUS
 10
11.9417919304
 20
26.810993172
 40
0.1023622047
100
AcDbArc
 50
67.380135052
 51
112.619864948
  0
ARC
  5
913
100
AcDbEntity
  8
0
100
AcDbCircle
 62
7
  6
CONTINUOUS
 10
11.8039966548
 20
26.810993172
 40
0.1023622047
100
AcDbArc
 50
67.380135052
 51
112.619864948
  0
CIRCLE
  5
914
100
AcDbEntity
  8
0
100
AcDbCircle
 62
7
  6
CONTINUOUS
 10
13.0441541351
 20
26.9920955342
 40
0.0393700787
  0
CIRCLE
  5
915
100
AcDbEntity
  8
0
100
AcDbCircle
 62
7
  6
CONTINUOUS
 10
12.9063588596
 20
26.9920955342
 40
0.0393700787
  0
CIRCLE
  5
916
100
AcDbEntity
  8
0
100
AcDbCircle
 62
7
  6
CONTINUOUS
 10
12.768563584
 20
26.9920955342
 40
0.0393700787
  0
CIRCLE
  5
917
100
AcDbEntity
  8
0
100
AcDbCircle
 62
7
  6
CONTINUOUS
 10
12.6307683084
 20
26.9920955342
 40
0.0393700787
  0
CIRCLE
  5
918
100
AcDbEntity
  8
0
100
AcDbCircle
 62
7
  6
CONTINUOUS
 10
12.4929730328
 20
26.9920955342
 40
0.0393700787
  0
CIRCLE
  5
919
100
AcDbEntity
  8
0
100
AcDbCircle
 62
7
  6
CONTINUOUS
 10
12.3551777572
 20
26.9920955342
 40
0.0393700787
  0
CIRCLE
  5
91A
100
AcDbEntity
  8
0
100
AcDbCircle
 62
7
  6
CONTINUOUS
 10
12.2173824816
 20
26.9920955342
 40
0.0393700787
  0
CIRCLE
  5
91B
100
AcDbEntity
  8
0
100
AcDbCircle
 62
7
  6
CONTINUOUS
 10
12.079587206
 20
26.9920955342
 40
0.0393700787
  0
CIRCLE
  5
91C
100
AcDbEntity
  8
0
100
AcDbCircle
 62
7
  6
CONTINUOUS
 10
11.9417919304
 20
26.9920955342
 40
0.0393700787
  0
CIRCLE
  5
91D
100
AcDbEntity
  8
0
100
AcDbCircle
 62
7
  6
CONTINUOUS
 10
11.8039966548
 20
26.9920955342
 40
0.0393700787
  0
ARC
  5
91E
100
AcDbEntity
  8
0
100
AcDbCircle
 62
7
  6
CONTINUOUS
 10
13.7626580722
 20
26.2336281137
 40
0.1228077039
100
AcDbArc
 50
224.9800206574
 51
315.0199793426
  0
ARC
  5
91F
100
AcDbEntity
  8
0
100
AcDbCircle
 62
7
  6
CONTINUOUS
 10
13.9626580722
 20
26.2336281137
 40
0.1228077039
100
AcDbArc
 50
224.9800206574
 51
315.0199793426
  0
ARC
  5
920
100
AcDbEntity
  8
0
100
AcDbCircle
 62
7
  6
CONTINUOUS
 10
17.524075395
 20
26.2350092014
 40
0.1181102362
100
AcDbArc
 50
227.1665714904
 51
312.8334285096
  0
ARC
  5
921
100
AcDbEntity
  8
0
100
AcDbCircle
 62
7
  6
CONTINUOUS
 10
17.324075395
 20
26.2350092014
 40
0.1181102362
100
AcDbArc
 50
227.1665714904
 51
312.8334285096
  0
CIRCLE
  5
922
100
AcDbEntity
  8
0
100
AcDbCircle
 62
7
  6
CONTINUOUS
 10
17.524075395
 20
26.2350092014
 40
0.0551181102
  0
ARC
  5
923
100
AcDbEntity
  8
0
100
AcDbCircle
 62
7
  6
CONTINUOUS
 10
17.324075395
 20
26.2350092014
 40
0.0551181102
100
AcDbArc
 50
240.0
 51
120.0
  0
SPLINE
  5
924
100
AcDbEntity
  8
0
100
AcDbSpline
 62
7
  6
CONTINUOUS
 70
0
 71
3
 72
9
 73
5
 74
0
 42
0.0000001
 43
0.0000001
 44
0.0000000001
 40
0.0
 40
0.0
 40
0.0
 40
0.0
 40
0.4781599687
 40
1.0
 40
1.0
 40
1.0
 40
1.0
 10
40.4769599784
 20
13.1088554057
 30
0.0
 10
40.6395676102
 20
12.943151348
 30
0.0
 10
41.0136453113
 20
12.6293260711
 30
0.0
 10
41.4306489741
 20
12.3773170343
 30
0.0
 10
41.6552735994
 20
12.2600991573
 30
0.0
  0
SPLINE
  5
925
100
AcDbEntity
  8
0
100
AcDbSpline
 62
7
  6
CONTINUOUS
 70
0
 71
3
 72
9
 73
5
 74
0
 42
0.0000001
 43
0.0000001
 44
0.0000000001
 40
0.0
 40
0.0
 40
0.0
 40
0.0
 40
0.2416642018
 40
1.0
 40
1.0
 40
1.0
 40
1.0
 10
41.6707152347
 20
12.2520695877
 30
0.0
 10
41.7507909436
 20
12.2105778547
 30
0.0
 10
42.0859845846
 20
12.0463429941
 30
0.0
 10
42.4350877125
 20
11.9110293414
 30
0.0
 10
42.7040679506
 20
11.823046386
 30
0.0
  0
SPLINE
  5
926
100
AcDbEntity
  8
0
100
AcDbSpline
 62
7
  6
CONTINUOUS
 70
0
 71
3
 72
9
 73
5
 74
0
 42
0.0000001
 43
0.0000001
 44
0.0000000001
 40
0.0
 40
0.0
 40
0.0
 40
0.0
 40
0.2391412679
 40
1.0
 40
1.0
 40
1.0
 40
1.0
 10
40.1337569858
 20
6.7643213764
 30
0.0
 10
40.1338384058
 20
6.7668687144
 30
0.0
 10
40.1344934878
 20
6.7775098414
 30
0.0
 10
40.1363148007
 20
6.7880666364
 30
0.0
 10
40.1382202341
 20
6.7959484084
 30
0.0
  0
SPLINE
  5
927
100
AcDbEntity
  8
0
100
AcDbSpline
 62
7
  6
CONTINUOUS
 70
0
 71
3
 72
9
 73
5
 74
0
 42
0.0000001
 43
0.0000001
 44
0.0000000001
 40
0.0
 40
0.0
 40
0.0
 40
0.0
 40
0.2465901516
 40
1.0
 40
1.0
 40
1.0
 40
1.0
 10
40.1382202341
 20
6.7959484084
 30
0.0
 10
40.1405328197
 20
6.8055143538
 30
0.0
 10
40.1530438648
 20
6.8434624882
 30
0.0
 10
40.1758775258
 20
6.8781633216
 30
0.0
 10
40.1976552441
 20
6.8988966075
 30
0.0
  0
SPLINE
  5
928
100
AcDbEntity
  8
0
100
AcDbSpline
 62
7
  6
CONTINUOUS
 70
0
 71
3
 72
9
 73
5
 74
0
 42
0.0000001
 43
0.0000001
 44
0.0000000001
 40
0.0
 40
0.0
 40
0.0
 40
0.0
 40
0.2604426542
 40
1.0
 40
1.0
 40
1.0
 40
1.0
 10
40.1976552441
 20
6.8988966075
 30
0.0
 10
40.1996657316
 20
6.9008106745
 30
0.0
 10
40.2075534629
 20
6.9079783977
 30
0.0
 10
40.2161195488
 20
6.9144214412
 30
0.0
 10
40.2228165904
 20
6.9185788511
 30
0.0
  0
SPLINE
  5
929
100
AcDbEntity
  8
7_ALL_ROUNDS
100
AcDbSpline
 62
7
  6
CONTINUOUS
 70
0
 71
3
 72
9
 73
5
 74
0
 42
0.0000001
 43
0.0000001
 44
0.0000000001
 40
0.0
 40
0.0
 40
0.0
 40
0.0
 40
0.4491735612
 40
1.0
 40
1.0
 40
1.0
 40
1.0
 10
35.2177751385
 20
11.0057437488
 30
0.0
 10
35.2177751385
 20
11.0134091501
 30
0.0
 10
35.2110812309
 20
11.030518742
 30
0.0
 10
35.1970924399
 20
11.0412252319
 30
0.0
 10
35.1889516384
 20
11.0459252806
 30
0.0
  0
SPLINE
  5
92A
100
AcDbEntity
  8
7_ALL_ROUNDS
100
AcDbSpline
 62
7
  6
CONTINUOUS
 70
0
 71
3
 72
9
 73
5
 74
0
 42
0.0000001
 43
0.0000001
 44
0.0000000001
 40
0.0
 40
0.0
 40
0.0
 40
0.0
 40
0.4491735612
 40
1.0
 40
1.0
 40
1.0
 40
1.0
 10
39.8390241809
 20
13.6737974646
 30
0.0
 10
39.8390241809
 20
13.6814628659
 30
0.0
 10
39.8323302733
 20
13.6985724579
 30
0.0
 10
39.8183414823
 20
13.7092789478
 30
0.0
 10
39.8102006808
 20
13.7139789965
 30
0.0
  0
SPLINE
  5
92B
100
AcDbEntity
  8
7_ALL_ROUNDS
100
AcDbSpline
 62
7
  6
CONTINUOUS
 70
0
 71
3
 72
9
 73
5
 74
0
 42
0.0000001
 43
0.0000001
 44
0.0000000001
 40
0.0
 40
0.0
 40
0.0
 40
0.0
 40
0.4491735612
 40
1.0
 40
1.0
 40
1.0
 40
1.0
 10
40.2287680761
 20
8.1126734545
 30
0.0
 10
40.2287680761
 20
8.1203388558
 30
0.0
 10
40.2220741685
 20
8.1374484477
 30
0.0
 10
40.2080853775
 20
8.1481549376
 30
0.0
 10
40.199944576
 20
8.1528549863
 30
0.0
  0
SPLINE
  5
92C
100
AcDbEntity
  8
7_ALL_ROUNDS
100
AcDbSpline
 62
7
  6
CONTINUOUS
 70
0
 71
3
 72
9
 73
5
 74
0
 42
0.0000001
 43
0.0000001
 44
0.0000000001
 40
0.0
 40
0.0
 40
0.0
 40
0.0
 40
0.4491735612
 40
1.0
 40
1.0
 40
1.0
 40
1.0
 10
44.8500171185
 20
10.7807271703
 30
0.0
 10
44.8500171185
 20
10.7883925716
 30
0.0
 10
44.8433232109
 20
10.8055021636
 30
0.0
 10
44.8293344199
 20
10.8162086535
 30
0.0
 10
44.8211936184
 20
10.8209087022
 30
0.0
  0
SPLINE
  5
92D
100
AcDbEntity
  8
7_ALL_ROUNDS
100
AcDbSpline
 62
7
  6
CONTINUOUS
 70
0
 71
3
 72
9
 73
5
 74
0
 42
0.0000001
 43
0.0000001
 44
0.0000000001
 40
0.0
 40
0.0
 40
0.0
 40
0.0
 40
0.4491758343
 40
1.0
 40
1.0
 40
1.0
 40
1.0
 10
39.9208258078
 20
6.0667502561
 30
0.0
 10
39.9287919708
 20
6.0621510343
 30
0.0
 10
39.9505890074
 20
6.0588416765
 30
0.0
 10
39.9701088502
 20
6.0669551249
 30
0.0
 10
39.9798777528
 20
6.0725951492
 30
0.0
  0
SPLINE
  5
92E
100
AcDbEntity
  8
0
100
AcDbSpline
 62
7
  6
CONTINUOUS
 70
0
 71
3
 72
8
 73
4
 74
0
 42
0.0000001
 43
0.0000001
 44
0.0000000001
 40
0.0
 40
0.0
 40
0.0
 40
0.0
 40
1.0
 40
1.0
 40
1.0
 40
1.0
 10
40.1512676681
 20
6.3391189676
 30
0.0
 10
40.1491958831
 20
6.3403150946
 30
0.0
 10
40.1472738976
 20
6.3418101179
 30
0.0
 10
40.1455917092
 20
6.3435110751
 30
0.0
  0
SPLINE
  5
92F
100
AcDbEntity
  8
0
100
AcDbSpline
 62
7
  6
CONTINUOUS
 70
0
 71
3
 72
9
 73
5
 74
0
 42
0.0000001
 43
0.0000001
 44
0.0000000001
 40
0.0
 40
0.0
 40
0.0
 40
0.0
 40
0.2215120068
 40
1.0
 40
1.0
 40
1.0
 40
1.0
 10
40.1455917092
 20
6.3435110751
 30
0.0
 10
40.1438313978
 20
6.345291027
 30
0.0
 10
40.1369644295
 20
6.3544251678
 30
0.0
 10
40.1349578811
 20
6.3663637866
 30
0.0
 10
40.1349578813
 20
6.375161745
 30
0.0
  0
SPLINE
  5
930
100
AcDbEntity
  8
0
100
AcDbSpline
 62
7
  6
CONTINUOUS
 70
0
 71
3
 72
13
 73
9
 74
0
 42
0.0000001
 43
0.0000001
 44
0.0000000001
 40
0.0
 40
0.0
 40
0.0
 40
0.0
 40
0.0871511272
 40
0.1868648538
 40
0.304532182
 40
0.4386735157
 40
0.7300874438
 40
1.0
 40
1.0
 40
1.0
 40
1.0
 10
33.6390396032
 20
9.7908260163
 30
0.0
 10
33.6424823732
 20
9.7928111605
 30
0.0
 10
33.6511287251
 20
9.7950315596
 30
0.0
 10
33.6650447462
 20
9.7922433233
 30
0.0
 10
33.6792659004
 20
9.7844808029
 30
0.0
 10
33.6979191095
 20
9.7679367696
 30
0.0
 10
33.71543862
 20
9.7408526395
 30
0.0
 10
33.7222061668
 20
9.7153397358
 30
0.0
 10
33.7222061668
 20
9.7030316997
 30
0.0
  0
SPLINE
  5
931
100
AcDbEntity
  8
0
100
AcDbSpline
 62
7
  6
CONTINUOUS
 70
0
 71
3
 72
13
 73
9
 74
0
 42
0.0000001
 43
0.0000001
 44
0.0000000001
 40
0.0
 40
0.0
 40
0.0
 40
0.0
 40
0.0871511272
 40
0.1868648538
 40
0.304532182
 40
0.4386735157
 40
0.7300874438
 40
1.0
 40
1.0
 40
1.0
 40
1.0
 10
39.2624872331
 20
6.9459793575
 30
0.0
 10
39.2659300031
 20
6.9479645018
 30
0.0
 10
39.274576355
 20
6.9501849008
 30
0.0
 10
39.2884923761
 20
6.9473966646
 30
0.0
 10
39.3027135303
 20
6.9396341441
 30
0.0
 10
39.3213667394
 20
6.9230901109
 30
0.0
 10
39.3388862499
 20
6.8960059807
 30
0.0
 10
39.3456537967
 20
6.870493077
 30
0.0
 10
39.3456537967
 20
6.8581850409
 30
0.0
  0
SPLINE
  5
932
100
AcDbEntity
  8
0
100
AcDbSpline
 62
7
  6
CONTINUOUS
 70
0
 71
3
 72
13
 73
9
 74
0
 42
0.0000001
 43
0.0000001
 44
0.0000000001
 40
0.0
 40
0.0
 40
0.0
 40
0.0
 40
0.0871511272
 40
0.1868648538
 40
0.304532182
 40
0.4386735157
 40
0.7300874438
 40
1.0
 40
1.0
 40
1.0
 40
1.0
 10
39.2624872331
 20
6.1423371256
 30
0.0
 10
39.2659300031
 20
6.1443222699
 30
0.0
 10
39.274576355
 20
6.1465426689
 30
0.0
 10
39.2884923761
 20
6.1437544327
 30
0.0
 10
39.3027135303
 20
6.1359919122
 30
0.0
 10
39.3213667394
 20
6.119447879
 30
0.0
 10
39.3388862499
 20
6.0923637488
 30
0.0
 10
39.3456537967
 20
6.0668508451
 30
0.0
 10
39.3456537967
 20
6.054542809
 30
0.0
  0
SPLINE
  5
933
100
AcDbEntity
  8
0
100
AcDbSpline
 62
7
  6
CONTINUOUS
 70
0
 71
3
 72
9
 73
5
 74
0
 42
0.0000001
 43
0.0000001
 44
0.0000000001
 40
0.0
 40
0.0
 40
0.0
 40
0.0
 40
0.4492485186
 40
1.0
 40
1.0
 40
1.0
 40
1.0
 10
42.4869682404
 20
11.9736348187
 30
0.0
 10
42.4869661339
 20
11.9698013954
 30
0.0
 10
42.4903208515
 20
11.9612478033
 30
0.0
 10
42.4973123411
 20
11.9558938086
 30
0.0
 10
42.5013822768
 20
11.9535440528
 30
0.0
  0
SPLINE
  5
934
100
AcDbEntity
  8
0
100
AcDbSpline
 62
7
  6
CONTINUOUS
 70
0
 71
3
 72
9
 73
5
 74
0
 42
0.0000001
 43
0.0000001
 44
0.0000000001
 40
0.0
 40
0.0
 40
0.0
 40
0.0
 40
0.4492485186
 40
1.0
 40
1.0
 40
1.0
 40
1.0
 10
41.6518027509
 20
12.4558132011
 30
0.0
 10
41.6518006443
 20
12.4519797778
 30
0.0
 10
41.6551553619
 20
12.4434261857
 30
0.0
 10
41.6621468516
 20
12.438072191
 30
0.0
 10
41.6662167872
 20
12.4357224352
 30
0.0
  0
SPLINE
  5
935
100
AcDbEntity
  8
0
100
AcDbSpline
 62
7
  6
CONTINUOUS
 70
0
 71
3
 72
9
 73
5
 74
0
 42
0.0000001
 43
0.0000001
 44
0.0000000001
 40
0.0
 40
0.0
 40
0.0
 40
0.0
 40
0.4492485186
 40
1.0
 40
1.0
 40
1.0
 40
1.0
 10
40.8166372613
 20
12.9379915835
 30
0.0
 10
40.8166351547
 20
12.9341581602
 30
0.0
 10
40.8199898723
 20
12.9256045681
 30
0.0
 10
40.826981362
 20
12.9202505734
 30
0.0
 10
40.8310512976
 20
12.9179008176
 30
0.0
  0
SPLINE
  5
936
100
AcDbEntity
  8
0
100
AcDbSpline
 62
7
  6
CONTINUOUS
 70
0
 71
3
 72
9
 73
5
 74
0
 42
0.0000001
 43
0.0000001
 44
0.0000000001
 40
0.0
 40
0.0
 40
0.0
 40
0.0
 40
0.5507504268
 40
1.0
 40
1.0
 40
1.0
 40
1.0
 10
39.3456537967
 20
6.054542809
 30
0.0
 10
39.3456537967
 20
6.0479633258
 30
0.0
 10
39.3440563546
 20
6.035738559
 30
0.0
 10
39.3360337546
 20
6.0256835209
 30
0.0
 10
39.3313843864
 20
6.023002637
 30
0.0
  0
SPLINE
  5
937
100
AcDbEntity
  8
0
100
AcDbSpline
 62
7
  6
CONTINUOUS
 70
0
 71
3
 72
9
 73
5
 74
0
 42
0.0000001
 43
0.0000001
 44
0.0000000001
 40
0.0
 40
0.0
 40
0.0
 40
0.0
 40
0.5507504268
 40
1.0
 40
1.0
 40
1.0
 40
1.0
 10
39.3456537967
 20
6.8581850409
 30
0.0
 10
39.3456537967
 20
6.8516055577
 30
0.0
 10
39.3440563546
 20
6.8393807909
 30
0.0
 10
39.3360337546
 20
6.8293257528
 30
0.0
 10
39.3313843864
 20
6.8266448689
 30
0.0
  0
SPLINE
  5
938
100
AcDbEntity
  8
0
100
AcDbSpline
 62
7
  6
CONTINUOUS
 70
0
 71
3
 72
9
 73
5
 74
0
 42
0.0000001
 43
0.0000001
 44
0.0000000001
 40
0.0
 40
0.0
 40
0.0
 40
0.0
 40
0.5507504268
 40
1.0
 40
1.0
 40
1.0
 40
1.0
 10
33.7222061668
 20
9.7030316997
 30
0.0
 10
33.7222061668
 20
9.6964522165
 30
0.0
 10
33.7206087247
 20
9.6842274497
 30
0.0
 10
33.7125861247
 20
9.6741724116
 30
0.0
 10
33.7079367565
 20
9.6714915277
 30
0.0
  0
SPLINE
  5
939
100
AcDbEntity
  8
7_ALL_ROUNDS
100
AcDbSpline
 62
7
  6
CONTINUOUS
 70
0
 71
3
 72
9
 73
5
 74
0
 42
0.0000001
 43
0.0000001
 44
0.0000000001
 40
0.0
 40
0.0
 40
0.0
 40
0.0
 40
0.5508253809
 40
1.0
 40
1.0
 40
1.0
 40
1.0
 10
44.6743828599
 20
9.4589285973
 30
0.0
 10
44.6743828599
 20
9.4702090031
 30
0.0
 10
44.671649432
 20
9.491170893
 30
0.0
 10
44.6578845745
 20
9.5083934084
 30
0.0
 10
44.649918256
 20
9.5129927201
 30
0.0
  0
SPLINE
  5
93A
100
AcDbEntity
  8
7_ALL_ROUNDS
100
AcDbSpline
 62
7
  6
CONTINUOUS
 70
0
 71
3
 72
9
 73
5
 74
0
 42
0.0000001
 43
0.0000001
 44
0.0000000001
 40
0.0
 40
0.0
 40
0.0
 40
0.0
 40
0.499999058
 40
1.0
 40
1.0
 40
1.0
 40
1.0
 10
44.590866311
 20
8.7347250287
 30
0.0
 10
44.6156550965
 20
8.7490367031
 30
0.0
 10
44.6548185034
 20
8.794238777
 30
0.0
 10
44.6743828599
 20
8.8507562718
 30
0.0
 10
44.6743828599
 20
8.8793799348
 30
0.0
  0
SPLINE
  5
93B
100
AcDbEntity
  8
0
100
AcDbSpline
 62
7
  6
CONTINUOUS
 70
0
 71
3
 72
9
 73
5
 74
0
 42
0.0000001
 43
0.0000001
 44
0.0000000001
 40
0.0
 40
0.0
 40
0.0
 40
0.0
 40
0.4492485186
 40
1.0
 40
1.0
 40
1.0
 40
1.0
 10
36.9514913754
 20
8.7777565003
 30
0.0
 10
36.9514892689
 20
8.773923077
 30
0.0
 10
36.9548439865
 20
8.7653694849
 30
0.0
 10
36.9618354761
 20
8.7600154902
 30
0.0
 10
36.9659054118
 20
8.7576657344
 30
0.0
  0
SPLINE
  5
93C
100
AcDbEntity
  8
0
100
AcDbSpline
 62
7
  6
CONTINUOUS
 70
0
 71
3
 72
9
 73
5
 74
0
 42
0.0000001
 43
0.0000001
 44
0.0000000001
 40
0.0
 40
0.0
 40
0.0
 40
0.0
 40
0.4492485186
 40
1.0
 40
1.0
 40
1.0
 40
1.0
 10
36.1163258858
 20
9.2599348827
 30
0.0
 10
36.1163237793
 20
9.2561014593
 30
0.0
 10
36.1196784969
 20
9.2475478673
 30
0.0
 10
36.1266699865
 20
9.2421938726
 30
0.0
 10
36.1307399222
 20
9.2398441167
 30
0.0
  0
SPLINE
  5
93D
100
AcDbEntity
  8
0
100
AcDbSpline
 62
7
  6
CONTINUOUS
 70
0
 71
3
 72
9
 73
5
 74
0
 42
0.0000001
 43
0.0000001
 44
0.0000000001
 40
0.0
 40
0.0
 40
0.0
 40
0.0
 40
0.4492485186
 40
1.0
 40
1.0
 40
1.0
 40
1.0
 10
35.2811603963
 20
9.7421132651
 30
0.0
 10
35.2811582897
 20
9.7382798417
 30
0.0
 10
35.2845130073
 20
9.7297262497
 30
0.0
 10
35.291504497
 20
9.724372255
 30
0.0
 10
35.2955744326
 20
9.7220224991
 30
0.0
  0
SPLINE
  5
93E
100
AcDbEntity
  8
0
100
AcDbSpline
 62
7
  6
CONTINUOUS
 70
0
 71
3
 72
9
 73
5
 74
0
 42
0.0000001
 43
0.0000001
 44
0.0000000001
 40
0.0
 40
0.0
 40
0.0
 40
0.0
 40
0.5508234391
 40
1.0
 40
1.0
 40
1.0
 40
1.0
 10
40.6091565517
 20
7.1402429789
 30
0.0
 10
40.6156691357
 20
7.1440029848
 30
0.0
 10
40.6286823411
 20
7.1494119407
 30
0.0
 10
40.6432136799
 20
7.1472057381
 30
0.0
 10
40.6485244642
 20
7.1441396033
 30
0.0
  0
SPLINE
  5
93F
100
AcDbEntity
  8
7_ALL_ROUNDS
100
AcDbSpline
 62
7
  6
CONTINUOUS
 70
0
 71
3
 72
9
 73
5
 74
0
 42
0.0000001
 43
0.0000001
 44
0.0000000001
 40
0.0
 40
0.0
 40
0.0
 40
0.0
 40
0.5
 40
1.0
 40
1.0
 40
1.0
 40
1.0
 10
44.5149662722
 20
10.9977074424
 30
0.0
 10
44.4943089281
 20
11.0096338509
 30
0.0
 10
44.4453691481
 20
11.0190632249
 30
0.0
 10
44.396429368
 20
11.0096338509
 30
0.0
 10
44.3757720239
 20
10.9977074424
 30
0.0
  0
SPLINE
  5
940
100
AcDbEntity
  8
7_ALL_ROUNDS
100
AcDbSpline
 62
7
  6
CONTINUOUS
 70
0
 71
3
 72
9
 73
5
 74
0
 42
0.0000001
 43
0.0000001
 44
0.0000000001
 40
0.0
 40
0.0
 40
0.0
 40
0.0
 40
0.5508264388
 40
1.0
 40
1.0
 40
1.0
 40
1.0
 10
43.5127676847
 20
10.4994564473
 30
0.0
 10
43.5046268832
 20
10.4947563986
 30
0.0
 10
43.4906380922
 20
10.4840499086
 30
0.0
 10
43.4839441846
 20
10.4669403167
 30
0.0
 10
43.4839441846
 20
10.4592749154
 30
0.0
  0
SPLINE
  5
941
100
AcDbEntity
  8
7_ALL_ROUNDS
100
AcDbSpline
 62
7
  6
CONTINUOUS
 70
0
 71
3
 72
9
 73
5
 74
0
 42
0.0000001
 43
0.0000001
 44
0.0000000001
 40
0.0
 40
0.0
 40
0.0
 40
0.0
 40
0.5
 40
1.0
 40
1.0
 40
1.0
 40
1.0
 10
39.8937172298
 20
8.3296537265
 30
0.0
 10
39.8730598857
 20
8.341580135
 30
0.0
 10
39.8241201057
 20
8.351009509
 30
0.0
 10
39.7751803256
 20
8.341580135
 30
0.0
 10
39.7545229815
 20
8.3296537265
 30
0.0
  0
SPLINE
  5
942
100
AcDbEntity
  8
7_ALL_ROUNDS
100
AcDbSpline
 62
7
  6
CONTINUOUS
 70
0
 71
3
 72
9
 73
5
 74
0
 42
0.0000001
 43
0.0000001
 44
0.0000000001
 40
0.0
 40
0.0
 40
0.0
 40
0.0
 40
0.5508264388
 40
1.0
 40
1.0
 40
1.0
 40
1.0
 10
38.8915186423
 20
7.8314027314
 30
0.0
 10
38.8833778408
 20
7.8267026827
 30
0.0
 10
38.8693890498
 20
7.8159961928
 30
0.0
 10
38.8626951422
 20
7.7988866009
 30
0.0
 10
38.8626951422
 20
7.7912211995
 30
0.0
  0
SPLINE
  5
943
100
AcDbEntity
  8
7_ALL_ROUNDS
100
AcDbSpline
 62
7
  6
CONTINUOUS
 70
0
 71
3
 72
9
 73
5
 74
0
 42
0.0000001
 43
0.0000001
 44
0.0000000001
 40
0.0
 40
0.0
 40
0.0
 40
0.0
 40
0.5
 40
1.0
 40
1.0
 40
1.0
 40
1.0
 10
39.5039733347
 20
13.8907777367
 30
0.0
 10
39.4833159906
 20
13.9027041452
 30
0.0
 10
39.4343762105
 20
13.9121335192
 30
0.0
 10
39.3854364305
 20
13.9027041452
 30
0.0
 10
39.3647790864
 20
13.8907777367
 30
0.0
  0
SPLINE
  5
944
100
AcDbEntity
  8
7_ALL_ROUNDS
100
AcDbSpline
 62
7
  6
CONTINUOUS
 70
0
 71
3
 72
9
 73
5
 74
0
 42
0.0000001
 43
0.0000001
 44
0.0000000001
 40
0.0
 40
0.0
 40
0.0
 40
0.0
 40
0.5508264388
 40
1.0
 40
1.0
 40
1.0
 40
1.0
 10
38.5017747472
 20
13.3925267416
 30
0.0
 10
38.4936339457
 20
13.3878266929
 30
0.0
 10
38.4796451547
 20
13.3771202029
 30
0.0
 10
38.4729512471
 20
13.360010611
 30
0.0
 10
38.4729512471
 20
13.3523452097
 30
0.0
  0
SPLINE
  5
945
100
AcDbEntity
  8
7_ALL_ROUNDS
100
AcDbSpline
 62
7
  6
CONTINUOUS
 70
0
 71
3
 72
9
 73
5
 74
0
 42
0.0000001
 43
0.0000001
 44
0.0000000001
 40
0.0
 40
0.0
 40
0.0
 40
0.0
 40
0.5508264388
 40
1.0
 40
1.0
 40
1.0
 40
1.0
 10
33.8805257048
 20
10.7244730257
 30
0.0
 10
33.8723849033
 20
10.719772977
 30
0.0
 10
33.8583961123
 20
10.7090664871
 30
0.0
 10
33.8517022047
 20
10.6919568952
 30
0.0
 10
33.8517022047
 20
10.6842914939
 30
0.0
  0
SPLINE
  5
946
100
AcDbEntity
  8
7_ALL_ROUNDS
100
AcDbSpline
 62
7
  6
CONTINUOUS
 70
0
 71
3
 72
9
 73
5
 74
0
 42
0.0000001
 43
0.0000001
 44
0.0000000001
 40
0.0
 40
0.0
 40
0.0
 40
0.0
 40
0.5
 40
1.0
 40
1.0
 40
1.0
 40
1.0
 10
34.8827242923
 20
11.2227240209
 30
0.0
 10
34.8620669482
 20
11.2346504293
 30
0.0
 10
34.8131271681
 20
11.2440798033
 30
0.0
 10
34.7641873881
 20
11.2346504293
 30
0.0
 10
34.743530044
 20
11.2227240209
 30
0.0
  0
SPLINE
  5
947
100
AcDbEntity
  8
0
100
AcDbSpline
 62
7
  6
CONTINUOUS
 70
0
 71
3
 72
12
 73
8
 74
0
 42
0.0000001
 43
0.0000001
 44
0.0000000001
 40
0.0
 40
0.0
 40
0.0
 40
0.0
 40
0.2710985227
 40
0.563793937
 40
0.698525078
 40
0.8167094781
 40
1.0
 40
1.0
 40
1.0
 40
1.0
 10
42.5013822768
 20
11.9535440528
 30
0.0
 10
42.5089959147
 20
11.9491483592
 30
0.0
 10
42.5271979549
 20
11.9442366481
 30
0.0
 10
42.5501971797
 20
11.9453478294
 30
0.0
 10
42.5671148854
 20
11.9510771388
 30
0.0
 10
42.5792562495
 20
11.9582196558
 30
0.0
 10
42.585390171
 20
11.9676908935
 30
0.0
 10
42.5853934373
 20
11.9736348187
 30
0.0
  0
SPLINE
  5
948
100
AcDbEntity
  8
0
100
AcDbSpline
 62
7
  6
CONTINUOUS
 70
0
 71
3
 72
12
 73
8
 74
0
 42
0.0000001
 43
0.0000001
 44
0.0000000001
 40
0.0
 40
0.0
 40
0.0
 40
0.0
 40
0.2710985227
 40
0.563793937
 40
0.698525078
 40
0.8167094781
 40
1.0
 40
1.0
 40
1.0
 40
1.0
 10
41.6662167872
 20
12.4357224352
 30
0.0
 10
41.6738304251
 20
12.4313267416
 30
0.0
 10
41.6920324653
 20
12.4264150305
 30
0.0
 10
41.7150316901
 20
12.4275262117
 30
0.0
 10
41.7319493958
 20
12.4332555212
 30
0.0
 10
41.74409076
 20
12.4403980382
 30
0.0
 10
41.7502246814
 20
12.4498692759
 30
0.0
 10
41.7502279477
 20
12.4558132011
 30
0.0
  0
SPLINE
  5
949
100
AcDbEntity
  8
0
100
AcDbSpline
 62
7
  6
CONTINUOUS
 70
0
 71
3
 72
12
 73
8
 74
0
 42
0.0000001
 43
0.0000001
 44
0.0000000001
 40
0.0
 40
0.0
 40
0.0
 40
0.0
 40
0.2710985227
 40
0.563793937
 40
0.698525078
 40
0.8167094781
 40
1.0
 40
1.0
 40
1.0
 40
1.0
 10
40.8310512976
 20
12.9179008176
 30
0.0
 10
40.8386649356
 20
12.9135051239
 30
0.0
 10
40.8568669757
 20
12.9085934129
 30
0.0
 10
40.8798662005
 20
12.9097045941
 30
0.0
 10
40.8967839062
 20
12.9154339036
 30
0.0
 10
40.9089252704
 20
12.9225764206
 30
0.0
 10
40.9150591918
 20
12.9320476583
 30
0.0
 10
40.9150624581
 20
12.9379915835
 30
0.0
  0
SPLINE
  5
94A
100
AcDbEntity
  8
0
100
AcDbSpline
 62
7
  6
CONTINUOUS
 70
0
 71
3
 72
12
 73
8
 74
0
 42
0.0000001
 43
0.0000001
 44
0.0000000001
 40
0.0
 40
0.0
 40
0.0
 40
0.0
 40
0.2710985227
 40
0.563793937
 40
0.698525078
 40
0.8167094781
 40
1.0
 40
1.0
 40
1.0
 40
1.0
 10
36.9659054118
 20
8.7576657344
 30
0.0
 10
36.9735190497
 20
8.7532700407
 30
0.0
 10
36.9917210899
 20
8.7483583297
 30
0.0
 10
37.0147203147
 20
8.7494695109
 30
0.0
 10
37.0316380204
 20
8.7551988204
 30
0.0
 10
37.0437793845
 20
8.7623413374
 30
0.0
 10
37.049913306
 20
8.7718125751
 30
0.0
 10
37.0499165723
 20
8.7777565003
 30
0.0
  0
SPLINE
  5
94B
100
AcDbEntity
  8
0
100
AcDbSpline
 62
7
  6
CONTINUOUS
 70
0
 71
3
 72
12
 73
8
 74
0
 42
0.0000001
 43
0.0000001
 44
0.0000000001
 40
0.0
 40
0.0
 40
0.0
 40
0.0
 40
0.2710985227
 40
0.563793937
 40
0.698525078
 40
0.8167094781
 40
1.0
 40
1.0
 40
1.0
 40
1.0
 10
36.1307399222
 20
9.2398441167
 30
0.0
 10
36.1383535601
 20
9.2354484231
 30
0.0
 10
36.1565556003
 20
9.230536712
 30
0.0
 10
36.1795548251
 20
9.2316478933
 30
0.0
 10
36.1964725308
 20
9.2373772027
 30
0.0
 10
36.208613895
 20
9.2445197198
 30
0.0
 10
36.2147478164
 20
9.2539909575
 30
0.0
 10
36.2147510827
 20
9.2599348827
 30
0.0
  0
SPLINE
  5
94C
100
AcDbEntity
  8
0
100
AcDbSpline
 62
7
  6
CONTINUOUS
 70
0
 71
3
 72
12
 73
8
 74
0
 42
0.0000001
 43
0.0000001
 44
0.0000000001
 40
0.0
 40
0.0
 40
0.0
 40
0.0
 40
0.2710985227
 40
0.563793937
 40
0.698525078
 40
0.8167094781
 40
1.0
 40
1.0
 40
1.0
 40
1.0
 10
35.2955744326
 20
9.7220224991
 30
0.0
 10
35.3031880705
 20
9.7176268055
 30
0.0
 10
35.3213901107
 20
9.7127150944
 30
0.0
 10
35.3443893355
 20
9.7138262757
 30
0.0
 10
35.3613070412
 20
9.7195555851
 30
0.0
 10
35.3734484054
 20
9.7266981021
 30
0.0
 10
35.3795823268
 20
9.7361693399
 30
0.0
 10
35.3795855931
 20
9.7421132651
 30
0.0
  0
SPLINE
  5
94D
100
AcDbEntity
  8
0
100
AcDbSpline
 62
7
  6
CONTINUOUS
 70
0
 71
3
 72
9
 73
5
 74
0
 42
0.0000001
 43
0.0000001
 44
0.0000000001
 40
0.0
 40
0.0
 40
0.0
 40
0.0
 40
0.4492485186
 40
1.0
 40
1.0
 40
1.0
 40
1.0
 10
35.3795855931
 20
9.7421132651
 30
0.0
 10
35.3795876996
 20
9.7459466884
 30
0.0
 10
35.3762329821
 20
9.7545002804
 30
0.0
 10
35.3692414924
 20
9.7598542751
 30
0.0
 10
35.3651715568
 20
9.762204031
 30
0.0
  0
SPLINE
  5
94E
100
AcDbEntity
  8
0
100
AcDbSpline
 62
7
  6
CONTINUOUS
 70
0
 71
3
 72
12
 73
8
 74
0
 42
0.0000001
 43
0.0000001
 44
0.0000000001
 40
0.0
 40
0.0
 40
0.0
 40
0.0
 40
0.2710985227
 40
0.563793937
 40
0.698525078
 40
0.8167094781
 40
1.0
 40
1.0
 40
1.0
 40
1.0
 10
42.5709794009
 20
11.9937255847
 30
0.0
 10
42.563365763
 20
11.9981212783
 30
0.0
 10
42.5451637229
 20
12.0030329894
 30
0.0
 10
42.5221644981
 20
12.0019218081
 30
0.0
 10
42.5052467923
 20
11.9961924987
 30
0.0
 10
42.4931054282
 20
11.9890499816
 30
0.0
 10
42.4869715067
 20
11.9795787439
 30
0.0
 10
42.4869682404
 20
11.9736348187
 30
0.0
  0
SPLINE
  5
94F
100
AcDbEntity
  8
0
100
AcDbSpline
 62
7
  6
CONTINUOUS
 70
0
 71
3
 72
12
 73
8
 74
0
 42
0.0000001
 43
0.0000001
 44
0.0000000001
 40
0.0
 40
0.0
 40
0.0
 40
0.0
 40
0.2710985227
 40
0.563793937
 40
0.698525078
 40
0.8167094781
 40
1.0
 40
1.0
 40
1.0
 40
1.0
 10
41.7358139113
 20
12.475903967
 30
0.0
 10
41.7282002734
 20
12.4802996607
 30
0.0
 10
41.7099982333
 20
12.4852113717
 30
0.0
 10
41.6869990085
 20
12.4841001905
 30
0.0
 10
41.6700813027
 20
12.478370881
 30
0.0
 10
41.6579399386
 20
12.471228364
 30
0.0
 10
41.6518060171
 20
12.4617571263
 30
0.0
 10
41.6518027509
 20
12.4558132011
 30
0.0
  0
SPLINE
  5
950
100
AcDbEntity
  8
0
100
AcDbSpline
 62
7
  6
CONTINUOUS
 70
0
 71
3
 72
12
 73
8
 74
0
 42
0.0000001
 43
0.0000001
 44
0.0000000001
 40
0.0
 40
0.0
 40
0.0
 40
0.0
 40
0.2710985227
 40
0.563793937
 40
0.698525078
 40
0.8167094781
 40
1.0
 40
1.0
 40
1.0
 40
1.0
 10
40.9006484218
 20
12.9580823494
 30
0.0
 10
40.8930347838
 20
12.9624780431
 30
0.0
 10
40.8748327437
 20
12.9673897541
 30
0.0
 10
40.8518335189
 20
12.9662785729
 30
0.0
 10
40.8349158131
 20
12.9605492634
 30
0.0
 10
40.822774449
 20
12.9534067464
 30
0.0
 10
40.8166405275
 20
12.9439355087
 30
0.0
 10
40.8166372613
 20
12.9379915835
 30
0.0
  0
SPLINE
  5
951
100
AcDbEntity
  8
0
100
AcDbSpline
 62
7
  6
CONTINUOUS
 70
0
 71
3
 72
13
 73
9
 74
0
 42
0.0000001
 43
0.0000001
 44
0.0000000001
 40
0.0
 40
0.0
 40
0.0
 40
0.0
 40
0.0871511272
 40
0.1868648538
 40
0.304532182
 40
0.4386735157
 40
0.7300874438
 40
1.0
 40
1.0
 40
1.0
 40
1.0
 10
33.7079367565
 20
9.6714915277
 30
0.0
 10
33.7044939866
 20
9.6695063834
 30
0.0
 10
33.6958476347
 20
9.6672859844
 30
0.0
 10
33.6819316136
 20
9.6700742206
 30
0.0
 10
33.6677104593
 20
9.6778367411
 30
0.0
 10
33.6490572503
 20
9.6943807743
 30
0.0
 10
33.6315377398
 20
9.7214649045
 30
0.0
 10
33.624770193
 20
9.7469778082
 30
0.0
 10
33.624770193
 20
9.7592858443
 30
0.0
  0
SPLINE
  5
952
100
AcDbEntity
  8
0
100
AcDbSpline
 62
7
  6
CONTINUOUS
 70
0
 71
3
 72
12
 73
8
 74
0
 42
0.0000001
 43
0.0000001
 44
0.0000000001
 40
0.0
 40
0.0
 40
0.0
 40
0.0
 40
0.2710985227
 40
0.563793937
 40
0.698525078
 40
0.8167094781
 40
1.0
 40
1.0
 40
1.0
 40
1.0
 10
37.0355025359
 20
8.7978472662
 30
0.0
 10
37.027888898
 20
8.8022429598
 30
0.0
 10
37.0096868579
 20
8.8071546709
 30
0.0
 10
36.9866876331
 20
8.8060434897
 30
0.0
 10
36.9697699273
 20
8.8003141802
 30
0.0
 10
36.9576285632
 20
8.7931716632
 30
0.0
 10
36.9514946417
 20
8.7837004255
 30
0.0
 10
36.9514913754
 20
8.7777565003
 30
0.0
  0
SPLINE
  5
953
100
AcDbEntity
  8
0
100
AcDbSpline
 62
7
  6
CONTINUOUS
 70
0
 71
3
 72
12
 73
8
 74
0
 42
0.0000001
 43
0.0000001
 44
0.0000000001
 40
0.0
 40
0.0
 40
0.0
 40
0.0
 40
0.2710985227
 40
0.563793937
 40
0.698525078
 40
0.8167094781
 40
1.0
 40
1.0
 40
1.0
 40
1.0
 10
36.2003370463
 20
9.2800256486
 30
0.0
 10
36.1927234084
 20
9.2844213422
 30
0.0
 10
36.1745213683
 20
9.2893330533
 30
0.0
 10
36.1515221435
 20
9.288221872
 30
0.0
 10
36.1346044377
 20
9.2824925626
 30
0.0
 10
36.1224630736
 20
9.2753500456
 30
0.0
 10
36.1163291521
 20
9.2658788079
 30
0.0
 10
36.1163258858
 20
9.2599348827
 30
0.0
  0
SPLINE
  5
954
100
AcDbEntity
  8
0
100
AcDbSpline
 62
7
  6
CONTINUOUS
 70
0
 71
3
 72
12
 73
8
 74
0
 42
0.0000001
 43
0.0000001
 44
0.0000000001
 40
0.0
 40
0.0
 40
0.0
 40
0.0
 40
0.2710985227
 40
0.563793937
 40
0.698525078
 40
0.8167094781
 40
1.0
 40
1.0
 40
1.0
 40
1.0
 10
35.3651715568
 20
9.762204031
 30
0.0
 10
35.3575579188
 20
9.7665997246
 30
0.0
 10
35.3393558787
 20
9.7715114357
 30
0.0
 10
35.3163566539
 20
9.7704002544
 30
0.0
 10
35.2994389481
 20
9.764670945
 30
0.0
 10
35.287297584
 20
9.757528428
 30
0.0
 10
35.2811636625
 20
9.7480571902
 30
0.0
 10
35.2811603963
 20
9.7421132651
 30
0.0
  0
SPLINE
  5
955
100
AcDbEntity
  8
0
100
AcDbSpline
 62
7
  6
CONTINUOUS
 70
0
 71
3
 72
10
 73
6
 74
0
 42
0.0000001
 43
0.0000001
 44
0.0000000001
 40
0.0
 40
0.0
 40
0.0
 40
0.0
 40
0.46742121
 40
0.7263360899
 40
1.0
 40
1.0
 40
1.0
 40
1.0
 10
37.3432958765
 20
8.7271550578
 30
0.0
 10
37.0625629455
 20
9.003038812
 30
0.0
 10
36.5572941056
 20
9.3633840045
 30
0.0
 10
35.8021645261
 20
9.7366527315
 30
0.0
 10
35.3815112066
 20
9.894993991
 30
0.0
 10
35.1624858829
 20
9.9666367831
 30
0.0
  0
SPLINE
  5
956
100
AcDbEntity
  8
0
100
AcDbSpline
 62
7
  6
CONTINUOUS
 70
0
 71
3
 72
13
 73
9
 74
0
 42
0.0000001
 43
0.0000001
 44
0.0000000001
 40
0.0
 40
0.0
 40
0.0
 40
0.0
 40
0.0871511272
 40
0.1868648538
 40
0.304532182
 40
0.4386735157
 40
0.7300874438
 40
1.0
 40
1.0
 40
1.0
 40
1.0
 10
39.3313843864
 20
6.8266448689
 30
0.0
 10
39.3279416165
 20
6.8246597247
 30
0.0
 10
39.3192952646
 20
6.8224393256
 30
0.0
 10
39.3053792435
 20
6.8252275619
 30
0.0
 10
39.2911580892
 20
6.8329900824
 30
0.0
 10
39.2725048802
 20
6.8495341156
 30
0.0
 10
39.2549853697
 20
6.8766182457
 30
0.0
 10
39.2482178229
 20
6.9021311494
 30
0.0
 10
39.2482178229
 20
6.9144391855
 30
0.0
  0
SPLINE
  5
957
100
AcDbEntity
  8
0
100
AcDbSpline
 62
7
  6
CONTINUOUS
 70
0
 71
3
 72
13
 73
9
 74
0
 42
0.0000001
 43
0.0000001
 44
0.0000000001
 40
0.0
 40
0.0
 40
0.0
 40
0.0
 40
0.0871511272
 40
0.1868648538
 40
0.304532182
 40
0.4386735157
 40
0.7300874438
 40
1.0
 40
1.0
 40
1.0
 40
1.0
 10
39.3313843864
 20
6.023002637
 30
0.0
 10
39.3279416165
 20
6.0210174928
 30
0.0
 10
39.3192952646
 20
6.0187970937
 30
0.0
 10
39.3053792435
 20
6.02158533
 30
0.0
 10
39.2911580892
 20
6.0293478505
 30
0.0
 10
39.2725048802
 20
6.0458918837
 30
0.0
 10
39.2549853697
 20
6.0729760138
 30
0.0
 10
39.2482178229
 20
6.0984889175
 30
0.0
 10
39.2482178229
 20
6.1107969536
 30
0.0
  0
SPLINE
  5
958
100
AcDbEntity
  8
7_ALL_ROUNDS
100
AcDbSpline
 62
7
  6
CONTINUOUS
 70
0
 71
3
 72
9
 73
5
 74
0
 42
0.0000001
 43
0.0000001
 44
0.0000000001
 40
0.0
 40
0.0
 40
0.0
 40
0.0
 40
0.4491735612
 40
1.0
 40
1.0
 40
1.0
 40
1.0
 10
38.4729512471
 20
13.3523452097
 30
0.0
 10
38.4729512471
 20
13.3446798084
 30
0.0
 10
38.4796451547
 20
13.3275702165
 30
0.0
 10
38.4936339457
 20
13.3168637266
 30
0.0
 10
38.5017747472
 20
13.3121636779
 30
0.0
  0
SPLINE
  5
959
100
AcDbEntity
  8
7_ALL_ROUNDS
100
AcDbSpline
 62
7
  6
CONTINUOUS
 70
0
 71
3
 72
9
 73
5
 74
0
 42
0.0000001
 43
0.0000001
 44
0.0000000001
 40
0.0
 40
0.0
 40
0.0
 40
0.0
 40
0.499999058
 40
1.0
 40
1.0
 40
1.0
 40
1.0
 10
40.5682205708
 20
6.6082806355
 30
0.0
 10
40.5847464278
 20
6.6178217517
 30
0.0
 10
40.6108553658
 20
6.6479564676
 30
0.0
 10
40.6238982701
 20
6.6856347975
 30
0.0
 10
40.6238982701
 20
6.7047172395
 30
0.0
  0
SPLINE
  5
95A
100
AcDbEntity
  8
7_ALL_ROUNDS
100
AcDbSpline
 62
7
  6
CONTINUOUS
 70
0
 71
3
 72
9
 73
5
 74
0
 42
0.0000001
 43
0.0000001
 44
0.0000000001
 40
0.0
 40
0.0
 40
0.0
 40
0.0
 40
0.4491735612
 40
1.0
 40
1.0
 40
1.0
 40
1.0
 10
38.8626951422
 20
7.7912211995
 30
0.0
 10
38.8626951422
 20
7.7835557982
 30
0.0
 10
38.8693890498
 20
7.7664462063
 30
0.0
 10
38.8833778408
 20
7.7557397164
 30
0.0
 10
38.8915186423
 20
7.7510396677
 30
0.0
  0
SPLINE
  5
95B
100
AcDbEntity
  8
0
100
AcDbSpline
 62
7
  6
CONTINUOUS
 70
0
 71
3
 72
9
 73
5
 74
0
 42
0.0000001
 43
0.0000001
 44
0.0000000001
 40
0.0
 40
0.0
 40
0.0
 40
0.0
 40
0.4492485186
 40
1.0
 40
1.0
 40
1.0
 40
1.0
 10
42.5853934373
 20
11.9736348187
 30
0.0
 10
42.5853955438
 20
11.9774682421
 30
0.0
 10
42.5820408263
 20
11.9860218341
 30
0.0
 10
42.5750493366
 20
11.9913758288
 30
0.0
 10
42.5709794009
 20
11.9937255847
 30
0.0
  0
SPLINE
  5
95C
100
AcDbEntity
  8
7_ALL_ROUNDS
100
AcDbSpline
 62
7
  6
CONTINUOUS
 70
0
 71
3
 72
9
 73
5
 74
0
 42
0.0000001
 43
0.0000001
 44
0.0000000001
 40
0.0
 40
0.0
 40
0.0
 40
0.0
 40
0.4491735612
 40
1.0
 40
1.0
 40
1.0
 40
1.0
 10
40.2287680761
 20
8.0708840584
 30
0.0
 10
40.2287680761
 20
8.0632186571
 30
0.0
 10
40.2220741685
 20
8.0461090652
 30
0.0
 10
40.2080853775
 20
8.0354025753
 30
0.0
 10
40.199944576
 20
8.0307025265
 30
0.0
  0
SPLINE
  5
95D
100
AcDbEntity
  8
7_ALL_ROUNDS
100
AcDbSpline
 62
7
  6
CONTINUOUS
 70
0
 71
3
 72
8
 73
4
 74
0
 42
0.0000001
 43
0.0000001
 44
0.0000000001
 40
0.0
 40
0.0
 40
0.0
 40
0.0
 40
1.0
 40
1.0
 40
1.0
 40
1.0
 10
40.6238982701
 20
7.1317309981
 30
0.0
 10
40.6238982701
 20
7.1364135688
 30
0.0
 10
40.6234534547
 20
7.1411368953
 30
0.0
 10
40.6223931899
 20
7.1456978499
 30
0.0
  0
SPLINE
  5
95E
100
AcDbEntity
  8
7_ALL_ROUNDS
100
AcDbSpline
 62
7
  6
CONTINUOUS
 70
0
 71
3
 72
9
 73
5
 74
0
 42
0.0000001
 43
0.0000001
 44
0.0000000001
 40
0.0
 40
0.0
 40
0.0
 40
0.0
 40
0.4491735612
 40
1.0
 40
1.0
 40
1.0
 40
1.0
 10
35.2177751385
 20
10.9639543527
 30
0.0
 10
35.2177751385
 20
10.9562889514
 30
0.0
 10
35.2110812309
 20
10.9391793595
 30
0.0
 10
35.1970924399
 20
10.9284728696
 30
0.0
 10
35.1889516384
 20
10.9237728209
 30
0.0
  0
SPLINE
  5
95F
100
AcDbEntity
  8
7_ALL_ROUNDS
100
AcDbSpline
 62
7
  6
CONTINUOUS
 70
0
 71
3
 72
9
 73
5
 74
0
 42
0.0000001
 43
0.0000001
 44
0.0000000001
 40
0.0
 40
0.0
 40
0.0
 40
0.0
 40
0.5
 40
1.0
 40
1.0
 40
1.0
 40
1.0
 10
34.3259472992
 20
10.4255218257
 30
0.0
 10
34.3052899551
 20
10.4135954173
 30
0.0
 10
34.2563501751
 20
10.4041660432
 30
0.0
 10
34.207410395
 20
10.4135954173
 30
0.0
 10
34.1867530509
 20
10.4255218257
 30
0.0
  0
SPLINE
  5
960
100
AcDbEntity
  8
7_ALL_ROUNDS
100
AcDbSpline
 62
7
  6
CONTINUOUS
 70
0
 71
3
 72
9
 73
5
 74
0
 42
0.0000001
 43
0.0000001
 44
0.0000000001
 40
0.0
 40
0.0
 40
0.0
 40
0.0
 40
0.5508264388
 40
1.0
 40
1.0
 40
1.0
 40
1.0
 10
33.8805257048
 20
10.6023205659
 30
0.0
 10
33.8723849033
 20
10.6070206147
 30
0.0
 10
33.8583961123
 20
10.6177271046
 30
0.0
 10
33.8517022047
 20
10.6348366965
 30
0.0
 10
33.8517022047
 20
10.6425020978
 30
0.0
  0
SPLINE
  5
961
100
AcDbEntity
  8
7_ALL_ROUNDS
100
AcDbSpline
 62
7
  6
CONTINUOUS
 70
0
 71
3
 72
9
 73
5
 74
0
 42
0.0000001
 43
0.0000001
 44
0.0000000001
 40
0.0
 40
0.0
 40
0.0
 40
0.0
 40
0.4491735612
 40
1.0
 40
1.0
 40
1.0
 40
1.0
 10
43.4839441846
 20
10.4592749154
 30
0.0
 10
43.4839441846
 20
10.4516095141
 30
0.0
 10
43.4906380922
 20
10.4344999222
 30
0.0
 10
43.5046268832
 20
10.4237934323
 30
0.0
 10
43.5127676847
 20
10.4190933835
 30
0.0
  0
SPLINE
  5
962
100
AcDbEntity
  8
0
100
AcDbSpline
 62
7
  6
CONTINUOUS
 70
0
 71
3
 72
9
 73
5
 74
0
 42
0.0000001
 43
0.0000001
 44
0.0000000001
 40
0.0
 40
0.0
 40
0.0
 40
0.0
 40
0.4492485186
 40
1.0
 40
1.0
 40
1.0
 40
1.0
 10
41.7502279477
 20
12.4558132011
 30
0.0
 10
41.7502300542
 20
12.4596466244
 30
0.0
 10
41.7468753367
 20
12.4682002165
 30
0.0
 10
41.739883847
 20
12.4735542112
 30
0.0
 10
41.7358139113
 20
12.475903967
 30
0.0
  0
SPLINE
  5
963
100
AcDbEntity
  8
7_ALL_ROUNDS
100
AcDbSpline
 62
7
  6
CONTINUOUS
 70
0
 71
3
 72
9
 73
5
 74
0
 42
0.0000001
 43
0.0000001
 44
0.0000000001
 40
0.0
 40
0.0
 40
0.0
 40
0.0
 40
0.5
 40
1.0
 40
1.0
 40
1.0
 40
1.0
 10
38.9471963416
 20
13.0935755416
 30
0.0
 10
38.9265389975
 20
13.0816491331
 30
0.0
 10
38.8775992175
 20
13.0722197591
 30
0.0
 10
38.8286594374
 20
13.0816491331
 30
0.0
 10
38.8080020933
 20
13.0935755416
 30
0.0
  0
SPLINE
  5
964
100
AcDbEntity
  8
7_ALL_ROUNDS
100
AcDbSpline
 62
7
  6
CONTINUOUS
 70
0
 71
3
 72
9
 73
5
 74
0
 42
0.0000001
 43
0.0000001
 44
0.0000000001
 40
0.0
 40
0.0
 40
0.0
 40
0.0
 40
0.5508264388
 40
1.0
 40
1.0
 40
1.0
 40
1.0
 10
38.5017747472
 20
13.2703742818
 30
0.0
 10
38.4936339457
 20
13.2750743305
 30
0.0
 10
38.4796451547
 20
13.2857808204
 30
0.0
 10
38.4729512471
 20
13.3028904124
 30
0.0
 10
38.4729512471
 20
13.3105558137
 30
0.0
  0
SPLINE
  5
965
100
AcDbEntity
  8
7_ALL_ROUNDS
100
AcDbSpline
 62
7
  6
CONTINUOUS
 70
0
 71
3
 72
9
 73
5
 74
0
 42
0.0000001
 43
0.0000001
 44
0.0000000001
 40
0.0
 40
0.0
 40
0.0
 40
0.0
 40
0.5508264388
 40
1.0
 40
1.0
 40
1.0
 40
1.0
 10
38.8915186423
 20
7.7092502716
 30
0.0
 10
38.8833778408
 20
7.7139503203
 30
0.0
 10
38.8693890498
 20
7.7246568103
 30
0.0
 10
38.8626951422
 20
7.7417664022
 30
0.0
 10
38.8626951422
 20
7.7494318035
 30
0.0
  0
SPLINE
  5
966
100
AcDbEntity
  8
7_ALL_ROUNDS
100
AcDbSpline
 62
7
  6
CONTINUOUS
 70
0
 71
3
 72
9
 73
5
 74
0
 42
0.0000001
 43
0.0000001
 44
0.0000000001
 40
0.0
 40
0.0
 40
0.0
 40
0.0
 40
0.5
 40
1.0
 40
1.0
 40
1.0
 40
1.0
 10
39.3369402367
 20
7.5324515314
 30
0.0
 10
39.3162828927
 20
7.520525123
 30
0.0
 10
39.2673431126
 20
7.5110957489
 30
0.0
 10
39.2184033326
 20
7.520525123
 30
0.0
 10
39.1977459885
 20
7.5324515314
 30
0.0
  0
SPLINE
  5
967
100
AcDbEntity
  8
7_ALL_ROUNDS
100
AcDbSpline
 62
7
  6
CONTINUOUS
 70
0
 71
3
 72
9
 73
5
 74
0
 42
0.0000001
 43
0.0000001
 44
0.0000000001
 40
0.0
 40
0.0
 40
0.0
 40
0.0
 40
0.5
 40
1.0
 40
1.0
 40
1.0
 40
1.0
 10
43.9581892791
 20
10.2005052473
 30
0.0
 10
43.9375319351
 20
10.1885788388
 30
0.0
 10
43.888592155
 20
10.1791494648
 30
0.0
 10
43.839652375
 20
10.1885788388
 30
0.0
 10
43.8189950309
 20
10.2005052473
 30
0.0
  0
SPLINE
  5
968
100
AcDbEntity
  8
7_ALL_ROUNDS
100
AcDbSpline
 62
7
  6
CONTINUOUS
 70
0
 71
3
 72
9
 73
5
 74
0
 42
0.0000001
 43
0.0000001
 44
0.0000000001
 40
0.0
 40
0.0
 40
0.0
 40
0.0
 40
0.5508264388
 40
1.0
 40
1.0
 40
1.0
 40
1.0
 10
43.5127676847
 20
10.3773039875
 30
0.0
 10
43.5046268832
 20
10.3820040362
 30
0.0
 10
43.4906380922
 20
10.3927105261
 30
0.0
 10
43.4839441846
 20
10.409820118
 30
0.0
 10
43.4839441846
 20
10.4174855193
 30
0.0
  0
SPLINE
  5
969
100
AcDbEntity
  8
7_ALL_ROUNDS
100
AcDbSpline
 62
7
  6
CONTINUOUS
 70
0
 71
3
 72
9
 73
5
 74
0
 42
0.0000001
 43
0.0000001
 44
0.0000000001
 40
0.0
 40
0.0
 40
0.0
 40
0.0
 40
0.500000942
 40
1.0
 40
1.0
 40
1.0
 40
1.0
 10
39.8810498366
 20
6.7092029784
 30
0.0
 10
39.8810498366
 20
6.7378266414
 30
0.0
 10
39.9006141931
 20
6.7943441362
 30
0.0
 10
39.9397776
 20
6.8395462101
 30
0.0
 10
39.9645663855
 20
6.8538578845
 30
0.0
  0
SPLINE
  5
96A
100
AcDbEntity
  8
7_ALL_ROUNDS
100
AcDbSpline
 62
7
  6
CONTINUOUS
 70
0
 71
3
 72
9
 73
5
 74
0
 42
0.0000001
 43
0.0000001
 44
0.0000000001
 40
0.0
 40
0.0
 40
0.0
 40
0.0
 40
0.5508241657
 40
1.0
 40
1.0
 40
1.0
 40
1.0
 10
44.5755549437
 20
9.5159877639
 30
0.0
 10
44.5853238463
 20
9.5216277883
 30
0.0
 10
44.6048436891
 20
9.5297412367
 30
0.0
 10
44.6266407257
 20
9.5264318789
 30
0.0
 10
44.6346068887
 20
9.5218326571
 30
0.0
  0
SPLINE
  5
96B
100
AcDbEntity
  8
7_ALL_ROUNDS
100
AcDbSpline
 62
7
  6
CONTINUOUS
 70
0
 71
3
 72
9
 73
5
 74
0
 42
0.0000001
 43
0.0000001
 44
0.0000000001
 40
0.0
 40
0.0
 40
0.0
 40
0.0
 40
0.4491735612
 40
1.0
 40
1.0
 40
1.0
 40
1.0
 10
44.8500171185
 20
10.7389377743
 30
0.0
 10
44.8500171185
 20
10.731272373
 30
0.0
 10
44.8433232109
 20
10.714162781
 30
0.0
 10
44.8293344199
 20
10.7034562911
 30
0.0
 10
44.8211936184
 20
10.6987562424
 30
0.0
  0
SPLINE
  5
96C
100
AcDbEntity
  8
0
100
AcDbSpline
 62
7
  6
CONTINUOUS
 70
0
 71
3
 72
9
 73
5
 74
0
 42
0.0000001
 43
0.0000001
 44
0.0000000001
 40
0.0
 40
0.0
 40
0.0
 40
0.0
 40
0.5508234397
 40
1.0
 40
1.0
 40
1.0
 40
1.0
 10
40.1906355806
 20
6.343015592
 30
0.0
 10
40.1841229966
 20
6.3392555859
 30
0.0
 10
40.1711097911
 20
6.3338466303
 30
0.0
 10
40.1565784524
 20
6.3360528328
 30
0.0
 10
40.1512676681
 20
6.3391189676
 30
0.0
  0
SPLINE
  5
96D
100
AcDbEntity
  8
0
100
AcDbSpline
 62
7
  6
CONTINUOUS
 70
0
 71
3
 72
9
 73
5
 74
0
 42
0.0000001
 43
0.0000001
 44
0.0000000001
 40
0.0
 40
0.0
 40
0.0
 40
0.0
 40
0.5000007452
 40
1.0
 40
1.0
 40
1.0
 40
1.0
 10
40.664834251
 20
6.6810830673
 30
0.0
 10
40.6648342513
 20
6.6620006328
 30
0.0
 10
40.6517913507
 20
6.6243223032
 30
0.0
 10
40.625682415
 20
6.5941875835
 30
0.0
 10
40.6091565517
 20
6.5846464632
 30
0.0
  0
SPLINE
  5
96E
100
AcDbEntity
  8
7_ALL_ROUNDS
100
AcDbSpline
 62
7
  6
CONTINUOUS
 70
0
 71
3
 72
9
 73
5
 74
0
 42
0.0000001
 43
0.0000001
 44
0.0000000001
 40
0.0
 40
0.0
 40
0.0
 40
0.0
 40
0.4491746191
 40
1.0
 40
1.0
 40
1.0
 40
1.0
 10
39.9055144405
 20
6.0755901931
 30
0.0
 10
39.897548122
 20
6.0801895047
 30
0.0
 10
39.8837832645
 20
6.0974120202
 30
0.0
 10
39.8810498366
 20
6.1183739101
 30
0.0
 10
39.8810498366
 20
6.1296543158
 30
0.0
  0
SPLINE
  5
96F
100
AcDbEntity
  8
0
100
AcDbSpline
 62
7
  6
CONTINUOUS
 70
0
 71
3
 72
9
 73
5
 74
0
 42
0.0000001
 43
0.0000001
 44
0.0000000001
 40
0.0
 40
0.0
 40
0.0
 40
0.0
 40
0.5507504268
 40
1.0
 40
1.0
 40
1.0
 40
1.0
 10
39.2482178229
 20
6.1107969536
 30
0.0
 10
39.2482178229
 20
6.1173764368
 30
0.0
 10
39.249815265
 20
6.1296012037
 30
0.0
 10
39.257837865
 20
6.1396562417
 30
0.0
 10
39.2624872331
 20
6.1423371256
 30
0.0
  0
SPLINE
  5
970
100
AcDbEntity
  8
0
100
AcDbSpline
 62
7
  6
CONTINUOUS
 70
0
 71
3
 72
9
 73
5
 74
0
 42
0.0000001
 43
0.0000001
 44
0.0000000001
 40
0.0
 40
0.0
 40
0.0
 40
0.0
 40
0.5507504268
 40
1.0
 40
1.0
 40
1.0
 40
1.0
 10
39.2482178229
 20
6.9144391855
 30
0.0
 10
39.2482178229
 20
6.9210186687
 30
0.0
 10
39.249815265
 20
6.9332434356
 30
0.0
 10
39.257837865
 20
6.9432984736
 30
0.0
 10
39.2624872331
 20
6.9459793575
 30
0.0
  0
SPLINE
  5
971
100
AcDbEntity
  8
0
100
AcDbSpline
 62
7
  6
CONTINUOUS
 70
0
 71
3
 72
9
 73
5
 74
0
 42
0.0000001
 43
0.0000001
 44
0.0000000001
 40
0.0
 40
0.0
 40
0.0
 40
0.0
 40
0.5507504268
 40
1.0
 40
1.0
 40
1.0
 40
1.0
 10
33.624770193
 20
9.7592858443
 30
0.0
 10
33.624770193
 20
9.7658653275
 30
0.0
 10
33.6263676351
 20
9.7780900943
 30
0.0
 10
33.6343902351
 20
9.7881451324
 30
0.0
 10
33.6390396032
 20
9.7908260163
 30
0.0
  0
SPLINE
  5
972
100
AcDbEntity
  8
7_ALL_ROUNDS
100
AcDbSpline
 62
7
  6
CONTINUOUS
 70
0
 71
3
 72
9
 73
5
 74
0
 42
0.0000001
 43
0.0000001
 44
0.0000000001
 40
0.0
 40
0.0
 40
0.0
 40
0.0
 40
0.4491758343
 40
1.0
 40
1.0
 40
1.0
 40
1.0
 10
44.649918256
 20
9.5129927201
 30
0.0
 10
44.641952093
 20
9.5175919419
 30
0.0
 10
44.6201550564
 20
9.5209012997
 30
0.0
 10
44.6006352136
 20
9.5127878512
 30
0.0
 10
44.590866311
 20
9.5071478269
 30
0.0
  0
SPLINE
  5
973
100
AcDbEntity
  8
7_ALL_ROUNDS
100
AcDbSpline
 62
7
  6
CONTINUOUS
 70
0
 71
3
 72
8
 73
4
 74
0
 42
0.0000001
 43
0.0000001
 44
0.0000000001
 40
0.0
 40
0.0
 40
0.0
 40
0.0
 40
1.0
 40
1.0
 40
1.0
 40
1.0
 10
40.1397288059
 20
6.3619362821
 30
0.0
 10
40.1431796734
 20
6.3632037057
 30
0.0
 10
40.146515862
 20
6.3648116501
 30
0.0
 10
40.1496995996
 20
6.3666497643
 30
0.0
  0
SPLINE
  5
974
100
AcDbEntity
  8
7_ALL_ROUNDS
100
AcDbSpline
 62
7
  6
CONTINUOUS
 70
0
 71
3
 72
9
 73
5
 74
0
 42
0.0000001
 43
0.0000001
 44
0.0000000001
 40
0.0
 40
0.0
 40
0.0
 40
0.0
 40
0.4491735612
 40
1.0
 40
1.0
 40
1.0
 40
1.0
 10
33.8517022047
 20
10.6842914939
 30
0.0
 10
33.8517022047
 20
10.6766260925
 30
0.0
 10
33.8583961123
 20
10.6595165006
 30
0.0
 10
33.8723849033
 20
10.6488100107
 30
0.0
 10
33.8805257048
 20
10.644109962
 30
0.0
  0
SPLINE
  5
975
100
AcDbEntity
  8
0
100
AcDbSpline
 62
7
  6
CONTINUOUS
 70
0
 71
3
 72
9
 73
5
 74
0
 42
0.0000001
 43
0.0000001
 44
0.0000000001
 40
0.0
 40
0.0
 40
0.0
 40
0.0
 40
0.4491750405
 40
1.0
 40
1.0
 40
1.0
 40
1.0
 10
40.6485244642
 20
7.1441396033
 30
0.0
 10
40.6538353631
 20
7.1410734022
 30
0.0
 10
40.6630119599
 20
7.1295917108
 30
0.0
 10
40.6648342509
 20
7.1156171006
 30
0.0
 10
40.664834251
 20
7.1080968259
 30
0.0
  0
SPLINE
  5
976
100
AcDbEntity
  8
7_ALL_ROUNDS
100
AcDbSpline
 62
7
  6
CONTINUOUS
 70
0
 71
3
 72
9
 73
5
 74
0
 42
0.0000001
 43
0.0000001
 44
0.0000000001
 40
0.0
 40
0.0
 40
0.0
 40
0.0
 40
0.5508264388
 40
1.0
 40
1.0
 40
1.0
 40
1.0
 10
44.8211936184
 20
10.7405456385
 30
0.0
 10
44.8293344199
 20
10.7452456872
 30
0.0
 10
44.8433232109
 20
10.7559521771
 30
0.0
 10
44.8500171185
 20
10.773061769
 30
0.0
 10
44.8500171185
 20
10.7807271703
 30
0.0
  0
SPLINE
  5
977
100
AcDbEntity
  8
7_ALL_ROUNDS
100
AcDbSpline
 62
7
  6
CONTINUOUS
 70
0
 71
3
 72
9
 73
5
 74
0
 42
0.0000001
 43
0.0000001
 44
0.0000000001
 40
0.0
 40
0.0
 40
0.0
 40
0.0
 40
0.4491735612
 40
1.0
 40
1.0
 40
1.0
 40
1.0
 10
39.8390241809
 20
13.6320080686
 30
0.0
 10
39.8390241809
 20
13.6243426673
 30
0.0
 10
39.8323302733
 20
13.6072330754
 30
0.0
 10
39.8183414823
 20
13.5965265854
 30
0.0
 10
39.8102006808
 20
13.5918265367
 30
0.0
  0
SPLINE
  5
978
100
AcDbEntity
  8
7_ALL_ROUNDS
100
AcDbSpline
 62
7
  6
CONTINUOUS
 70
0
 71
3
 72
9
 73
5
 74
0
 42
0.0000001
 43
0.0000001
 44
0.0000000001
 40
0.0
 40
0.0
 40
0.0
 40
0.0
 40
0.5508253809
 40
1.0
 40
1.0
 40
1.0
 40
1.0
 10
39.8963612039
 20
6.1208143788
 30
0.0
 10
39.8963612039
 20
6.1095339731
 30
0.0
 10
39.8990946318
 20
6.0885720832
 30
0.0
 10
39.9128594893
 20
6.0713495677
 30
0.0
 10
39.9208258078
 20
6.0667502561
 30
0.0
  0
SPLINE
  5
979
100
AcDbEntity
  8
7_ALL_ROUNDS
100
AcDbSpline
 62
7
  6
CONTINUOUS
 70
0
 71
3
 72
9
 73
5
 74
0
 42
0.0000001
 43
0.0000001
 44
0.0000000001
 40
0.0
 40
0.0
 40
0.0
 40
0.0
 40
0.499999058
 40
1.0
 40
1.0
 40
1.0
 40
1.0
 10
39.9798777528
 20
6.8450179474
 30
0.0
 10
39.9550889673
 20
6.8307062731
 30
0.0
 10
39.9159255604
 20
6.7855041992
 30
0.0
 10
39.8963612039
 20
6.7289867044
 30
0.0
 10
39.8963612039
 20
6.7003630414
 30
0.0
  0
SPLINE
  5
97A
100
AcDbEntity
  8
7_ALL_ROUNDS
100
AcDbSpline
 62
7
  6
CONTINUOUS
 70
0
 71
3
 72
9
 73
5
 74
0
 42
0.0000001
 43
0.0000001
 44
0.0000000001
 40
0.0
 40
0.0
 40
0.0
 40
0.0
 40
0.5
 40
1.0
 40
1.0
 40
1.0
 40
1.0
 10
43.8189950309
 20
10.2422946433
 30
0.0
 10
43.839652375
 20
10.2303682349
 30
0.0
 10
43.888592155
 20
10.2209388609
 30
0.0
 10
43.9375319351
 20
10.2303682349
 30
0.0
 10
43.9581892791
 20
10.2422946433
 30
0.0
  0
SPLINE
  5
97B
100
AcDbEntity
  8
0
100
AcDbSpline
 62
7
  6
CONTINUOUS
 70
0
 71
3
 72
11
 73
7
 74
0
 42
0.0000001
 43
0.0000001
 44
0.0000000001
 40
0.0
 40
0.0
 40
0.0
 40
0.0
 40
0.2372474081
 40
0.5000007094
 40
0.7627535903
 40
1.0
 40
1.0
 40
1.0
 40
1.0
 10
40.7373415824
 20
6.6818137664
 30
0.0
 10
40.7373415822
 20
6.6666388261
 30
0.0
 10
40.7316524933
 20
6.6346359084
 30
0.0
 10
40.7118067792
 20
6.5896722529
 30
0.0
 10
40.6827900295
 20
6.5500035674
 30
0.0
 10
40.6579192675
 20
6.5290752953
 30
0.0
 10
40.6447774073
 20
6.5214879122
 30
0.0
  0
SPLINE
  5
97C
100
AcDbEntity
  8
7_ALL_ROUNDS
100
AcDbSpline
 62
7
  6
CONTINUOUS
 70
0
 71
3
 72
9
 73
5
 74
0
 42
0.0000001
 43
0.0000001
 44
0.0000000001
 40
0.0
 40
0.0
 40
0.0
 40
0.0
 40
0.5
 40
1.0
 40
1.0
 40
1.0
 40
1.0
 10
39.1977459885
 20
7.5742409275
 30
0.0
 10
39.2184033326
 20
7.562314519
 30
0.0
 10
39.2673431126
 20
7.552885145
 30
0.0
 10
39.3162828927
 20
7.562314519
 30
0.0
 10
39.3369402367
 20
7.5742409275
 30
0.0
  0
SPLINE
  5
97D
100
AcDbEntity
  8
7_ALL_ROUNDS
100
AcDbSpline
 62
7
  6
CONTINUOUS
 70
0
 71
3
 72
9
 73
5
 74
0
 42
0.0000001
 43
0.0000001
 44
0.0000000001
 40
0.0
 40
0.0
 40
0.0
 40
0.0
 40
0.5508264388
 40
1.0
 40
1.0
 40
1.0
 40
1.0
 10
40.199944576
 20
8.0724919226
 30
0.0
 10
40.2080853775
 20
8.0771919713
 30
0.0
 10
40.2220741685
 20
8.0878984612
 30
0.0
 10
40.2287680761
 20
8.1050080532
 30
0.0
 10
40.2287680761
 20
8.1126734545
 30
0.0
  0
SPLINE
  5
97E
100
AcDbEntity
  8
0
100
AcDbSpline
 62
7
  6
CONTINUOUS
 70
0
 71
3
 72
11
 73
7
 74
0
 42
0.0000001
 43
0.0000001
 44
0.0000000001
 40
0.0
 40
0.0
 40
0.0
 40
0.0
 40
0.2754107945
 40
0.4999981275
 40
0.7245866115
 40
1.0
 40
1.0
 40
1.0
 40
1.0
 10
40.6447774073
 20
7.1622705044
 30
0.0
 10
40.6556046771
 20
7.1685215712
 30
0.0
 10
40.6772474514
 20
7.1775093616
 30
0.0
 10
40.7122266502
 20
7.1722114684
 30
0.0
 10
40.7343039641
 20
7.1445671037
 30
0.0
 10
40.7373415827
 20
7.1213298668
 30
0.0
 10
40.7373415824
 20
7.108827525
 30
0.0
  0
SPLINE
  5
97F
100
AcDbEntity
  8
0
100
AcDbSpline
 62
7
  6
CONTINUOUS
 70
0
 71
3
 72
11
 73
7
 74
0
 42
0.0000001
 43
0.0000001
 44
0.0000000001
 40
0.0
 40
0.0
 40
0.0
 40
0.0
 40
0.2754107945
 40
0.4999981275
 40
0.7245866115
 40
1.0
 40
1.0
 40
1.0
 40
1.0
 10
40.2262564362
 20
6.2798570409
 30
0.0
 10
40.2154291664
 20
6.2736059742
 30
0.0
 10
40.1937863921
 20
6.2646181838
 30
0.0
 10
40.1588071933
 20
6.2699160769
 30
0.0
 10
40.1367298794
 20
6.2975604416
 30
0.0
 10
40.1336922608
 20
6.3207976785
 30
0.0
 10
40.1336922611
 20
6.3333000204
 30
0.0
  0
SPLINE
  5
980
100
AcDbEntity
  8
0
100
AcDbSpline
 62
7
  6
CONTINUOUS
 70
0
 71
3
 72
9
 73
5
 74
0
 42
0.0000001
 43
0.0000001
 44
0.0000000001
 40
0.0
 40
0.0
 40
0.0
 40
0.0
 40
0.4492485186
 40
1.0
 40
1.0
 40
1.0
 40
1.0
 10
40.9150624581
 20
12.9379915835
 30
0.0
 10
40.9150645646
 20
12.9418250068
 30
0.0
 10
40.9117098471
 20
12.9503785989
 30
0.0
 10
40.9047183574
 20
12.9557325936
 30
0.0
 10
40.9006484218
 20
12.9580823494
 30
0.0
  0
SPLINE
  5
981
100
AcDbEntity
  8
0
100
AcDbSpline
 62
7
  6
CONTINUOUS
 70
0
 71
3
 72
9
 73
5
 74
0
 42
0.0000001
 43
0.0000001
 44
0.0000000001
 40
0.0
 40
0.0
 40
0.0
 40
0.0
 40
0.4492485186
 40
1.0
 40
1.0
 40
1.0
 40
1.0
 10
37.0499165723
 20
8.7777565003
 30
0.0
 10
37.0499186788
 20
8.7815899236
 30
0.0
 10
37.0465639613
 20
8.7901435157
 30
0.0
 10
37.0395724716
 20
8.7954975104
 30
0.0
 10
37.0355025359
 20
8.7978472662
 30
0.0
  0
SPLINE
  5
982
100
AcDbEntity
  8
7_ALL_ROUNDS
100
AcDbSpline
 62
7
  6
CONTINUOUS
 70
0
 71
3
 72
9
 73
5
 74
0
 42
0.0000001
 43
0.0000001
 44
0.0000000001
 40
0.0
 40
0.0
 40
0.0
 40
0.0
 40
0.5
 40
1.0
 40
1.0
 40
1.0
 40
1.0
 10
38.8080020933
 20
13.1353649376
 30
0.0
 10
38.8286594374
 20
13.1234385292
 30
0.0
 10
38.8775992175
 20
13.1140091552
 30
0.0
 10
38.9265389975
 20
13.1234385292
 30
0.0
 10
38.9471963416
 20
13.1353649376
 30
0.0
  0
SPLINE
  5
983
100
AcDbEntity
  8
0
100
AcDbSpline
 62
7
  6
CONTINUOUS
 70
0
 71
3
 72
10
 73
6
 74
0
 42
0.0000001
 43
0.0000001
 44
0.0000000001
 40
0.0
 40
0.0
 40
0.0
 40
0.0
 40
0.4661855509
 40
0.7254383424
 40
1.0
 40
1.0
 40
1.0
 40
1.0
 10
37.3895938552
 20
8.7547628488
 30
0.0
 10
37.107559359
 20
9.042167935
 30
0.0
 10
36.5930648368
 20
9.4171036845
 30
0.0
 10
35.8202391734
 20
9.8034696188
 30
0.0
 10
35.3878893353
 20
9.9668428019
 30
0.0
 10
35.1624858829
 20
10.0405718685
 30
0.0
  0
SPLINE
  5
984
100
AcDbEntity
  8
0
100
AcDbSpline
 62
7
  6
CONTINUOUS
 70
0
 71
3
 72
9
 73
5
 74
0
 42
0.0000001
 43
0.0000001
 44
0.0000000001
 40
0.0
 40
0.0
 40
0.0
 40
0.0
 40
0.4492485186
 40
1.0
 40
1.0
 40
1.0
 40
1.0
 10
36.2147510827
 20
9.2599348827
 30
0.0
 10
36.2147531892
 20
9.263768306
 30
0.0
 10
36.2113984717
 20
9.2723218981
 30
0.0
 10
36.204406982
 20
9.2776758928
 30
0.0
 10
36.2003370463
 20
9.2800256486
 30
0.0
  0
SPLINE
  5
985
100
AcDbEntity
  8
7_ALL_ROUNDS
100
AcDbSpline
 62
7
  6
CONTINUOUS
 70
0
 71
3
 72
9
 73
5
 74
0
 42
0.0000001
 43
0.0000001
 44
0.0000000001
 40
0.0
 40
0.0
 40
0.0
 40
0.0
 40
0.5508264388
 40
1.0
 40
1.0
 40
1.0
 40
1.0
 10
39.8102006808
 20
13.6336159328
 30
0.0
 10
39.8183414823
 20
13.6383159815
 30
0.0
 10
39.8323302733
 20
13.6490224714
 30
0.0
 10
39.8390241809
 20
13.6661320633
 30
0.0
 10
39.8390241809
 20
13.6737974646
 30
0.0
  0
SPLINE
  5
986
100
AcDbEntity
  8
7_ALL_ROUNDS
100
AcDbSpline
 62
7
  6
CONTINUOUS
 70
0
 71
3
 72
9
 73
5
 74
0
 42
0.0000001
 43
0.0000001
 44
0.0000000001
 40
0.0
 40
0.0
 40
0.0
 40
0.0
 40
0.5
 40
1.0
 40
1.0
 40
1.0
 40
1.0
 10
34.1867530509
 20
10.4673112218
 30
0.0
 10
34.207410395
 20
10.4553848133
 30
0.0
 10
34.2563501751
 20
10.4459554393
 30
0.0
 10
34.3052899551
 20
10.4553848133
 30
0.0
 10
34.3259472992
 20
10.4673112218
 30
0.0
  0
SPLINE
  5
987
100
AcDbEntity
  8
7_ALL_ROUNDS
100
AcDbSpline
 62
7
  6
CONTINUOUS
 70
0
 71
3
 72
9
 73
5
 74
0
 42
0.0000001
 43
0.0000001
 44
0.0000000001
 40
0.0
 40
0.0
 40
0.0
 40
0.0
 40
0.5508264388
 40
1.0
 40
1.0
 40
1.0
 40
1.0
 10
35.1889516384
 20
10.9655622169
 30
0.0
 10
35.1970924399
 20
10.9702622656
 30
0.0
 10
35.2110812309
 20
10.9809687556
 30
0.0
 10
35.2177751385
 20
10.9980783475
 30
0.0
 10
35.2177751385
 20
11.0057437488
 30
0.0
  0
ELLIPSE
  5
988
100
AcDbEntity
  8
7_ALL_ROUNDS
100
AcDbEllipse
 62
7
  6
CONTINUOUS
 10
21.861530628
 20
19.3364458472
 30
0.0
 11
0.0452421822
 21
0.0452421822
 31
0.0
 40
0.9659789643
 41
-3.9096876612
 42
-2.373497646
  0
ELLIPSE
  5
989
100
AcDbEntity
  8
7_ALL_ROUNDS
100
AcDbEllipse
 62
7
  6
CONTINUOUS
 10
21.861530628
 20
19.7618206392
 30
0.0
 11
0.0452421822
 21
-0.0452421822
 31
0.0
 40
0.9659789643
 41
2.373497646
 42
3.9096876612
  0
ELLIPSE
  5
98A
100
AcDbEntity
  8
7_ALL_ROUNDS
100
AcDbEllipse
 62
7
  6
CONTINUOUS
 10
21.4699762862
 20
19.7618206392
 30
0.0
 11
0.0452421822
 21
0.0452421822
 31
0.0
 40
0.9659789643
 41
-0.7680950076
 42
0.7680950076
  0
ELLIPSE
  5
98B
100
AcDbEntity
  8
7_ALL_ROUNDS
100
AcDbEllipse
 62
7
  6
CONTINUOUS
 10
21.4699762862
 20
19.3364458472
 30
0.0
 11
0.0452421822
 21
-0.0452421822
 31
0.0
 40
0.9659789643
 41
-0.7680950076
 42
0.7680950076
  0
ELLIPSE
  5
98C
100
AcDbEntity
  8
7_ALL_ROUNDS
100
AcDbEllipse
 62
7
  6
CONTINUOUS
 10
21.0446014942
 20
19.3364458472
 30
0.0
 11
0.0452421822
 21
0.0452421822
 31
0.0
 40
0.9659789643
 41
-3.9096876612
 42
-2.373497646
  0
ELLIPSE
  5
98D
100
AcDbEntity
  8
7_ALL_ROUNDS
100
AcDbEllipse
 62
7
  6
CONTINUOUS
 10
21.0446014942
 20
19.7618206392
 30
0.0
 11
-0.0452421822
 21
0.0452421822
 31
0.0
 40
0.9659789643
 41
-0.7680950076
 42
0.7680950076
  0
ELLIPSE
  5
98E
100
AcDbEntity
  8
7_ALL_ROUNDS
100
AcDbEllipse
 62
7
  6
CONTINUOUS
 10
21.062362515
 20
19.7440596184
 30
0.0
 11
-0.0226210911
 21
0.0226210911
 31
0.0
 40
0.9659789643
 41
-0.7680950076
 42
0.7680950076
  0
ELLIPSE
  5
98F
100
AcDbEntity
  8
7_ALL_ROUNDS
100
AcDbEllipse
 62
7
  6
CONTINUOUS
 10
21.4522152653
 20
19.7440596184
 30
0.0
 11
0.0226210911
 21
0.0226210911
 31
0.0
 40
0.9659789643
 41
-0.7680950076
 42
0.7680950076
  0
ELLIPSE
  5
990
100
AcDbEntity
  8
7_ALL_ROUNDS
100
AcDbEllipse
 62
7
  6
CONTINUOUS
 10
21.4522152653
 20
19.354206868
 30
0.0
 11
0.0226210911
 21
-0.0226210911
 31
0.0
 40
0.9659789643
 41
-0.7680950076
 42
0.7680950076
  0
ELLIPSE
  5
991
100
AcDbEntity
  8
7_ALL_ROUNDS
100
AcDbEllipse
 62
7
  6
CONTINUOUS
 10
21.062362515
 20
19.354206868
 30
0.0
 11
-0.0226210911
 21
-0.0226210911
 31
0.0
 40
0.9659789643
 41
-0.7680950076
 42
0.7680950076
  0
ELLIPSE
  5
992
100
AcDbEntity
  8
7_ALL_ROUNDS
100
AcDbEllipse
 62
7
  6
CONTINUOUS
 10
21.8792916489
 20
19.7440596184
 30
0.0
 11
-0.0226210911
 21
0.0226210911
 31
0.0
 40
0.9659789643
 41
-0.7680950076
 42
0.7680950076
  0
ELLIPSE
  5
993
100
AcDbEntity
  8
7_ALL_ROUNDS
100
AcDbEllipse
 62
7
  6
CONTINUOUS
 10
22.2691443992
 20
19.7440596184
 30
0.0
 11
0.0226210911
 21
0.0226210911
 31
0.0
 40
0.9659789643
 41
-0.7680950076
 42
0.7680950076
  0
ELLIPSE
  5
994
100
AcDbEntity
  8
7_ALL_ROUNDS
100
AcDbEllipse
 62
7
  6
CONTINUOUS
 10
22.2691443992
 20
19.354206868
 30
0.0
 11
0.0226210911
 21
-0.0226210911
 31
0.0
 40
0.9659789643
 41
-0.7680950076
 42
0.7680950076
  0
ELLIPSE
  5
995
100
AcDbEntity
  8
7_ALL_ROUNDS
100
AcDbEllipse
 62
7
  6
CONTINUOUS
 10
21.8792916489
 20
19.354206868
 30
0.0
 11
-0.0226210911
 21
-0.0226210911
 31
0.0
 40
0.9659789643
 41
-0.7680950076
 42
0.7680950076
  0
ELLIPSE
  5
996
100
AcDbEntity
  8
7_ALL_ROUNDS
100
AcDbEllipse
 62
7
  6
CONTINUOUS
 10
22.28690542
 20
19.7618206392
 30
0.0
 11
0.0452421822
 21
0.0452421822
 31
0.0
 40
0.9659789643
 41
-0.7680950076
 42
0.7680950076
  0
ELLIPSE
  5
997
100
AcDbEntity
  8
7_ALL_ROUNDS
100
AcDbEllipse
 62
7
  6
CONTINUOUS
 10
22.28690542
 20
19.3364458472
 30
0.0
 11
0.0452421822
 21
-0.0452421822
 31
0.0
 40
0.9659789643
 41
-0.7680950076
 42
0.7680950076
  0
ELLIPSE
  5
998
100
AcDbEntity
  8
7_ALL_ROUNDS
100
AcDbEllipse
 62
7
  6
CONTINUOUS
 10
41.3881551227
 20
7.4455274132
 30
0.0
 11
0.0309024372
 21
0.0535251636
 31
0.0
 40
0.5976869757
 41
0.8026935737
 42
2.3388835889
  0
ELLIPSE
  5
999
100
AcDbEntity
  8
7_ALL_ROUNDS
100
AcDbEllipse
 62
7
  6
CONTINUOUS
 10
41.965811253
 20
7.7790341277
 30
0.0
 11
0.0309024372
 21
0.0535251636
 31
0.0
 40
0.5976869757
 41
0.8026935737
 42
2.3388835889
  0
ELLIPSE
  5
99A
100
AcDbEntity
  8
7_ALL_ROUNDS
100
AcDbEllipse
 62
7
  6
CONTINUOUS
 10
42.2665966529
 20
7.952690989
 30
0.0
 11
0.0319908454
 21
0.0554102509
 31
0.0
 40
0.5577108972
 41
-0.7681017505
 42
0.4340746095
  0
ELLIPSE
  5
99B
100
AcDbEntity
  8
7_ALL_ROUNDS
100
AcDbEllipse
 62
7
  6
CONTINUOUS
 10
41.3881551227
 20
7.0982086796
 30
0.0
 11
0.0319908454
 21
0.0554102509
 31
0.0
 40
0.5577108972
 41
-3.5756688646
 42
-2.3735043889
  0
ELLIPSE
  5
99C
100
AcDbEntity
  8
7_ALL_ROUNDS
100
AcDbEllipse
 62
7
  6
CONTINUOUS
 10
41.6889405226
 20
7.2718655409
 30
0.0
 11
0.0309024372
 21
0.0535251636
 31
0.0
 40
0.5976869757
 41
-2.3388990799
 42
-0.8027090647
  0
ELLIPSE
  5
99D
100
AcDbEntity
  8
7_ALL_ROUNDS
100
AcDbEllipse
 62
7
  6
CONTINUOUS
 10
41.965811253
 20
7.4317153941
 30
0.0
 11
0.0319908454
 21
0.0554102509
 31
0.0
 40
0.5577108972
 41
-3.5756688646
 42
-2.3735043889
  0
ELLIPSE
  5
99E
100
AcDbEntity
  8
7_ALL_ROUNDS
100
AcDbEllipse
 62
7
  6
CONTINUOUS
 10
42.2665966529
 20
7.6053722554
 30
0.0
 11
0.0309024372
 21
0.0535251636
 31
0.0
 40
0.5976869757
 41
-2.3388990799
 42
-0.8027090647
  0
ELLIPSE
  5
99F
100
AcDbEntity
  8
7_ALL_ROUNDS
100
AcDbEllipse
 62
7
  6
CONTINUOUS
 10
41.6889405226
 20
7.6191842745
 30
0.0
 11
0.0319908454
 21
0.0554102509
 31
0.0
 40
0.5577108972
 41
-0.7681017505
 42
0.4340746095
  0
ELLIPSE
  5
9A0
100
AcDbEntity
  8
7_ALL_ROUNDS
100
AcDbEllipse
 62
7
  6
CONTINUOUS
 10
42.191400303
 20
7.64878668
 30
0.0
 11
0.0154512186
 21
0.0267625818
 31
0.0
 40
0.5976869757
 41
-2.3388990799
 42
-0.8027090647
  0
ELLIPSE
  5
9A1
100
AcDbEntity
  8
7_ALL_ROUNDS
100
AcDbEllipse
 62
7
  6
CONTINUOUS
 10
41.6137441727
 20
7.3152799655
 30
0.0
 11
0.0154512186
 21
0.0267625818
 31
0.0
 40
0.5976869757
 41
-2.3388990799
 42
-0.8027090647
  0
ENDSEC
  0
SECTION
  2
OBJECTS
  0
DICTIONARY
  5
C
100
AcDbDictionary
280
0
281
1
  3
ACAD_GROUP
350
D
  3
ACAD_MLINESTYLE
350
17
  3
ACAD_LAYOUT
350
1A
  3
ACAD_PLOTSETTINGS
350
19
  3
ACAD_PLOTSTYLENAME
350
E
  0
DICTIONARY
  5
D
102
{ACAD_REACTORS
330
C
102
}
100
AcDbDictionary
280
0
281
1
  0
ACDBDICTIONARYWDFLT
  5
E
102
{ACAD_REACTORS
330
C
102
}
100
AcDbDictionary
281
1
  3
Normal
350
F
100
AcDbDictionaryWithDefault
340
F
  0
DICTIONARY
  5
17
102
{ACAD_REACTORS
330
C
102
}
100
AcDbDictionary
280
0
281
1
  3
Standard
350
18
  0
DICTIONARY
  5
19
102
{ACAD_REACTORS
330
C
102
}
100
AcDbDictionary
281
1
  0
DICTIONARY
  5
1A
102
{ACAD_REACTORS
330
C
102
}
100
AcDbDictionary
281
1
  3
Model
350
9A2
  3
Layout1
350
9A3
  0
ACDBPLACEHOLDER
  5
F
102
{ACAD_REACTORS
330
E
102
}
  0
MLINESTYLE
  5
18
102
{ACAD_REACTORS
330
17
102
}
100
AcDbMlineStyle
  2
STANDARD
 70
0
  3

 62
256
 51
90.0
 52
90.0
 71
2
 49
0.5
 62
256
  6
BYLAYER
 49
-0.5
 62
256
  6
BYLAYER
  0
LAYOUT
  5
9A2
102
{ACAD_REACTORS
330
1A
102
}
100
AcDbPlotSettings
  1

  2
none_device
  4
ANSI_D_(34.00_x_22.00_Inches)
  6

 40
0.0
 41
0.0
 42
0.0
 43
0.0
 44
863.6
 45
558.8
 46
0.0
 47
0.0
 48
0.0
 49
0.0
140
0.0
141
0.0
142
1.0
143
1.0
 70
1024
 72
0
 73
0
 74
0
  7

 75
0
147
1.0
148
0.0
149
0.0
100
AcDbLayout
  1
Model
 70
0
 71
0
 10
0.0
 20
0.0
 11
34.0
 21
22.0
 12
0.0
 22
0.0
 32
0.0
 14
0.0
 24
0.0
 34
0.0
 15
0.0
 25
0.0
 35
0.0
146
0.0
 13
0.0
 23
0.0
 33
0.0
 16
1.0
 26
0.0
 36
0.0
 17
0.0
 27
1.0
 37
0.0
 76
0
330
211
345
0
346
0
  0
LAYOUT
  5
9A3
102
{ACAD_REACTORS
330
1A
102
}
100
AcDbPlotSettings
  1

  2
none_device
  4
ANSI_D_(34.00_x_22.00_Inches)
  6

 40
0.0
 41
0.0
 42
0.0
 43
0.0
 44
863.6
 45
558.8
 46
0.0
 47
0.0
 48
0.0
 49
0.0
140
0.0
141
0.0
142
1.0
143
1.0
 70
0
 72
0
 73
0
 74
0
  7

 75
0
147
1.0
148
0.0
149
0.0
100
AcDbLayout
  1
Layout1
 70
0
 71
1
 10
0.0
 20
0.0
 11
34.0
 21
22.0
 12
0.0
 22
0.0
 32
0.0
 14
0.0
 24
0.0
 34
0.0
 15
0.0
 25
0.0
 35
0.0
146
0.0
 13
0.0
 23
0.0
 33
0.0
 16
1.0
 26
0.0
 36
0.0
 17
0.0
 27
1.0
 37
0.0
 76
0
330
212
345
0
346
0
  0
ENDSEC
  0
EOF
