999
DXF file: fg-000391-2d-rA.dxf
999
Pro/ENGINEER 2010370 by Parametric Technology Corporation
  0
SECTION
  2
HEADER
  9
$ACADVER
  1
AC1015
  9
$DWGCODEPAGE
  3
ANSI_1252
  9
$EXTMAX
 10
108.9743589744
 20
70.5128205128
 30
0.0
  9
$EXTMIN
 10
0.0
 20
-0.0
 30
0.0
  9
$LIMMIN
 10
0.0
 20
-0.0
  9
$LIMMAX
 10
108.9743589744
 20
70.5128205128
  9
$VIEWCTR
 10
54.4871794872
 20
35.2564102564
  9
$VIEWSIZE
 40
70.5128205128
  9
$CLAYER
  8
0
  9
$LTSCALE
 40
5.9935897436
  9
$CELTYPE
  6
BYLAYER
  9
$DIMSCALE
 40
1.0
  9
$DIMASZ
 40
1.2019230769
  9
$DIMEXO
 40
0.6810897436
  9
$DIMDLI
 40
4.141025641
  9
$DIMEXE
 40
1.9615384615
  9
$DIMCEN
 40
0.9807692308
  9
$DIMLFAC
 40
1.0
  9
$DIMBLK
  1
_FILLED
  9
$DIMTXT
 40
1.0016025641
  9
$DIMTOL
 70
1
  9
$DIMLIM
 70
0
  9
$DIMTFAC
 40
1.0
  9
$DIMTP
 40
0.01
  9
$DIMTM
 40
0.01
  9
$PDMODE
 70
3
  9
$PDSIZE
 40
0.3125
  9
$HANDSEED
  5
589
  9
$TILEMODE
 70
1
  9
$MEASUREMENT
 70
0
  9
$INSUNITS
 70
1
  0
ENDSEC
  0
SECTION
  2
CLASSES
  0
CLASS
  1
ACDBDICTIONARYWDFLT
  2
AcDbDictionaryWithDefault
  3
AutoCAD 2000
 90
0
280
0
281
0
  0
CLASS
  1
ACDBPLACEHOLDER
  2
AcDbPlaceHolder
  3
AutoCAD 2000
 90
0
280
0
281
0
  0
CLASS
  1
LAYOUT
  2
AcDbLayout
  3
AutoCAD 2000
 90
0
280
0
281
0
  0
ENDSEC
  0
SECTION
  2
TABLES
  0
TABLE
  2
VPORT
  5
8
100
AcDbSymbolTable
 70
2
  0
VPORT
  5
1F4
100
AcDbSymbolTableRecord
100
AcDbViewportTableRecord
  2
*ACTIVE
 70
0
 10
0.0
 20
0.0
 11
1.0
 21
1.0
 12
54.4871794872
 22
35.2564102564
 13
0.0
 23
0.0
 14
1.0
 24
1.0
 15
0.0
 25
0.0
 16
0.0
 26
0.0
 36
1.0
 17
0.0
 27
0.0
 37
0.0
 40
70.5128205128
 41
1.5454545455
 42
50.0
 43
0.0
 44
0.0
 50
0.0
 51
0.0
 71
0
 72
100
 73
1
 74
1
 75
0
 76
0
 77
0
 78
0
  0
ENDTAB
  0
TABLE
  2
LTYPE
  5
5
100
AcDbSymbolTable
 70
6
  0
LTYPE
  5
14
100
AcDbSymbolTableRecord
100
AcDbLinetypeTableRecord
  2
BYBLOCK
 70
0
  3

 72
65
 73
0
 40
0.0
  0
LTYPE
  5
15
100
AcDbSymbolTableRecord
100
AcDbLinetypeTableRecord
  2
BYLAYER
 70
0
  3

 72
65
 73
0
 40
0.0
  0
LTYPE
  5
16
100
AcDbSymbolTableRecord
100
AcDbLinetypeTableRecord
  2
CONTINUOUS
 70
64
  3
Solid line
 72
65
 73
0
 40
0.0
  0
LTYPE
  5
1F5
100
AcDbSymbolTableRecord
100
AcDbLinetypeTableRecord
  2
CENTER
 70
64
  3
____ _ ____ _ ____ _ ____ _ ____ _ ____ _ ____
 72
65
 73
4
 40
0.6
 49
0.375
 74
0
 49
-0.075
 74
0
 49
0.075
 74
0
 49
-0.075
 74
0
  0
LTYPE
  5
1F6
100
AcDbSymbolTableRecord
100
AcDbLinetypeTableRecord
  2
HIDDEN
 70
64
  3
- - - - - - - - - - - - - - - - - - - -
 72
65
 73
2
 40
0.2
 49
0.1
 74
0
 49
-0.1
 74
0
  0
LTYPE
  5
1F7
100
AcDbSymbolTableRecord
100
AcDbLinetypeTableRecord
  2
PHANTOM
 70
64
  3
_____ _ _ _____ _ _ _____ _ _ _____
 72
65
 73
6
 40
0.8
 49
0.45
 74
0
 49
-0.05
 74
0
 49
0.1
 74
0
 49
-0.05
 74
0
 49
0.1
 74
0
 49
-0.05
 74
0
  0
LTYPE
  5
1F8
100
AcDbSymbolTableRecord
100
AcDbLinetypeTableRecord
  2
DOT
 70
64
  3
. . . . . . . . . . . . . . . . . . . .
 72
65
 73
2
 40
0.2
 49
0.1
 74
0
 49
-0.1
 74
0
  0
LTYPE
  5
1F9
100
AcDbSymbolTableRecord
100
AcDbLinetypeTableRecord
  2
DASHED
 70
64
  3
- - - - - - - - - - - - - - - - - - - -
 72
65
 73
2
 40
0.2
 49
0.1
 74
0
 49
-0.1
 74
0
  0
ENDTAB
  0
TABLE
  2
LAYER
  5
2
100
AcDbSymbolTable
 70
36
  0
LAYER
  5
10
100
AcDbSymbolTableRecord
100
AcDbLayerTableRecord
  2
0
 70
0
 62
7
  6
CONTINUOUS
370
-3
390
F
  0
LAYER
  5
1FA
100
AcDbSymbolTableRecord
100
AcDbLayerTableRecord
  2
DEFAULT_1
 70
0
 62
7
  6
CENTER
370
-3
390
F
  0
LAYER
  5
1FB
100
AcDbSymbolTableRecord
100
AcDbLayerTableRecord
  2
DEFAULT_2
 70
0
 62
8
  6
HIDDEN
370
-3
390
F
  0
LAYER
  5
1FC
100
AcDbSymbolTableRecord
100
AcDbLayerTableRecord
  2
DEFAULT_3
 70
0
 62
7
  6
PHANTOM
370
-3
390
F
  0
LAYER
  5
1FD
100
AcDbSymbolTableRecord
100
AcDbLayerTableRecord
  2
01_ALL_DTM_PLN
 70
0
 62
7
  6
CONTINUOUS
370
-3
390
F
  0
LAYER
  5
1FE
100
AcDbSymbolTableRecord
100
AcDbLayerTableRecord
  2
01__ASM_ALL_DTM_PLN
 70
0
 62
7
  6
CONTINUOUS
370
-3
390
F
  0
LAYER
  5
1FF
100
AcDbSymbolTableRecord
100
AcDbLayerTableRecord
  2
01__ASM_DEF_DTM_PLN
 70
0
 62
7
  6
CONTINUOUS
370
-3
390
F
  0
LAYER
  5
200
100
AcDbSymbolTableRecord
100
AcDbLayerTableRecord
  2
01___PRT_ALL_DTM_PLN
 70
0
 62
7
  6
CONTINUOUS
370
-3
390
F
  0
LAYER
  5
201
100
AcDbSymbolTableRecord
100
AcDbLayerTableRecord
  2
01___PRT_DEF_DTM_PLN
 70
0
 62
7
  6
CONTINUOUS
370
-3
390
F
  0
LAYER
  5
202
100
AcDbSymbolTableRecord
100
AcDbLayerTableRecord
  2
02_ALL_AXES
 70
0
 62
7
  6
CONTINUOUS
370
-3
390
F
  0
LAYER
  5
203
100
AcDbSymbolTableRecord
100
AcDbLayerTableRecord
  2
02__ASM_ALL_AXES
 70
0
 62
7
  6
CONTINUOUS
370
-3
390
F
  0
LAYER
  5
204
100
AcDbSymbolTableRecord
100
AcDbLayerTableRecord
  2
02___PRT_ALL_AXES
 70
0
 62
7
  6
CONTINUOUS
370
-3
390
F
  0
LAYER
  5
205
100
AcDbSymbolTableRecord
100
AcDbLayerTableRecord
  2
03_ALL_CURVES
 70
0
 62
7
  6
CONTINUOUS
370
-3
390
F
  0
LAYER
  5
206
100
AcDbSymbolTableRecord
100
AcDbLayerTableRecord
  2
03__ASM_ALL_CURVES
 70
0
 62
7
  6
CONTINUOUS
370
-3
390
F
  0
LAYER
  5
207
100
AcDbSymbolTableRecord
100
AcDbLayerTableRecord
  2
03___PRT_ALL_CURVES
 70
0
 62
7
  6
CONTINUOUS
370
-3
390
F
  0
LAYER
  5
208
100
AcDbSymbolTableRecord
100
AcDbLayerTableRecord
  2
04_ALL_DTM_PNT
 70
0
 62
7
  6
CONTINUOUS
370
-3
390
F
  0
LAYER
  5
209
100
AcDbSymbolTableRecord
100
AcDbLayerTableRecord
  2
04__ASM_ALL_DTM_PNT
 70
0
 62
7
  6
CONTINUOUS
370
-3
390
F
  0
LAYER
  5
20A
100
AcDbSymbolTableRecord
100
AcDbLayerTableRecord
  2
04___PRT_ALL_DTM_PNT
 70
0
 62
7
  6
CONTINUOUS
370
-3
390
F
  0
LAYER
  5
20B
100
AcDbSymbolTableRecord
100
AcDbLayerTableRecord
  2
05_ALL_DTM_CSYS
 70
0
 62
7
  6
CONTINUOUS
370
-3
390
F
  0
LAYER
  5
20C
100
AcDbSymbolTableRecord
100
AcDbLayerTableRecord
  2
05__ASM_ALL_DTM_CSYS
 70
0
 62
7
  6
CONTINUOUS
370
-3
390
F
  0
LAYER
  5
20D
100
AcDbSymbolTableRecord
100
AcDbLayerTableRecord
  2
05__ASM_DEF_DTM_CSYS
 70
0
 62
7
  6
CONTINUOUS
370
-3
390
F
  0
LAYER
  5
20E
100
AcDbSymbolTableRecord
100
AcDbLayerTableRecord
  2
05___PRT_ALL_DTM_CSYS
 70
0
 62
7
  6
CONTINUOUS
370
-3
390
F
  0
LAYER
  5
20F
100
AcDbSymbolTableRecord
100
AcDbLayerTableRecord
  2
05___PRT_DEF_DTM_CSYS
 70
0
 62
7
  6
CONTINUOUS
370
-3
390
F
  0
LAYER
  5
210
100
AcDbSymbolTableRecord
100
AcDbLayerTableRecord
  2
06_ALL_SURFS
 70
0
 62
7
  6
CONTINUOUS
370
-3
390
F
  0
LAYER
  5
211
100
AcDbSymbolTableRecord
100
AcDbLayerTableRecord
  2
06__ASM_ALL_SURFS
 70
0
 62
7
  6
CONTINUOUS
370
-3
390
F
  0
LAYER
  5
212
100
AcDbSymbolTableRecord
100
AcDbLayerTableRecord
  2
06___PRT_ALL_SURFS
 70
0
 62
7
  6
CONTINUOUS
370
-3
390
F
  0
LAYER
  5
213
100
AcDbSymbolTableRecord
100
AcDbLayerTableRecord
  2
07__ASM_ALL_SKELETONS
 70
0
 62
7
  6
CONTINUOUS
370
-3
390
F
  0
LAYER
  5
214
100
AcDbSymbolTableRecord
100
AcDbLayerTableRecord
  2
1_ALL_PLANES
 70
0
 62
7
  6
CONTINUOUS
370
-3
390
F
  0
LAYER
  5
215
100
AcDbSymbolTableRecord
100
AcDbLayerTableRecord
  2
1__DEF_ASM_PLN
 70
0
 62
7
  6
CONTINUOUS
370
-3
390
F
  0
LAYER
  5
216
100
AcDbSymbolTableRecord
100
AcDbLayerTableRecord
  2
1__DEF_PLANES
 70
0
 62
7
  6
CONTINUOUS
370
-3
390
F
  0
LAYER
  5
217
100
AcDbSymbolTableRecord
100
AcDbLayerTableRecord
  2
2_ALL_CSYS
 70
0
 62
7
  6
CONTINUOUS
370
-3
390
F
  0
LAYER
  5
218
100
AcDbSymbolTableRecord
100
AcDbLayerTableRecord
  2
2__DEF_ASM_CSYS
 70
0
 62
7
  6
CONTINUOUS
370
-3
390
F
  0
LAYER
  5
219
100
AcDbSymbolTableRecord
100
AcDbLayerTableRecord
  2
2__DEF_CSYS
 70
0
 62
7
  6
CONTINUOUS
370
-3
390
F
  0
LAYER
  5
21A
100
AcDbSymbolTableRecord
100
AcDbLayerTableRecord
  2
3_ALL_AXES
 70
0
 62
7
  6
CONTINUOUS
370
-3
390
F
  0
LAYER
  5
21B
100
AcDbSymbolTableRecord
100
AcDbLayerTableRecord
  2
4_ALL_POINTS
 70
0
 62
7
  6
CONTINUOUS
370
-3
390
F
  0
LAYER
  5
21C
100
AcDbSymbolTableRecord
100
AcDbLayerTableRecord
  2
5_ALL_CURVES
 70
0
 62
7
  6
CONTINUOUS
370
-3
390
F
  0
LAYER
  5
21D
100
AcDbSymbolTableRecord
100
AcDbLayerTableRecord
  2
6_ALL_SURFS
 70
0
 62
7
  6
CONTINUOUS
370
-3
390
F
  0
LAYER
  5
21E
100
AcDbSymbolTableRecord
100
AcDbLayerTableRecord
  2
6_COPYGEOM
 70
0
 62
7
  6
CONTINUOUS
370
-3
390
F
  0
LAYER
  5
21F
100
AcDbSymbolTableRecord
100
AcDbLayerTableRecord
  2
7_ALL_ROUNDS
 70
0
 62
7
  6
CONTINUOUS
370
-3
390
F
  0
LAYER
  5
220
100
AcDbSymbolTableRecord
100
AcDbLayerTableRecord
  2
7_MERGES
 70
0
 62
7
  6
CONTINUOUS
370
-3
390
F
  0
LAYER
  5
221
100
AcDbSymbolTableRecord
100
AcDbLayerTableRecord
  2
8_SET_DATUMS
 70
0
 62
7
  6
CONTINUOUS
370
-3
390
F
  0
LAYER
  5
222
100
AcDbSymbolTableRecord
100
AcDbLayerTableRecord
  2
9_COSMETICS
 70
0
 62
7
  6
CONTINUOUS
370
-3
390
F
  0
LAYER
  5
223
100
AcDbSymbolTableRecord
100
AcDbLayerTableRecord
  2
9_THREADS
 70
0
 62
7
  6
CONTINUOUS
370
-3
390
F
  0
ENDTAB
  0
TABLE
  2
STYLE
  5
3
100
AcDbSymbolTable
 70
1
  0
STYLE
  5
11
100
AcDbSymbolTableRecord
100
AcDbTextStyleTableRecord
  2
STANDARD
 70
0
 40
0.0
 41
0.8
 50
0.0
 71
0
 42
0.2
  3
txt
  4

  0
STYLE
  5
224
100
AcDbSymbolTableRecord
100
AcDbTextStyleTableRecord
  2
TEXTSTYLE_1
 70
0
 40
0.0
 41
0.8
 50
0.0
 71
0
 42
0.2
  3
gdt
  4

  0
ENDTAB
  0
TABLE
  2
VIEW
  5
6
100
AcDbSymbolTable
 70
0
  0
ENDTAB
  0
TABLE
  2
UCS
  5
7
100
AcDbSymbolTable
 70
0
  0
ENDTAB
  0
TABLE
  2
APPID
  5
9
100
AcDbSymbolTable
 70
1
  0
APPID
  5
225
100
AcDbSymbolTableRecord
100
AcDbRegAppTableRecord
  2
ACAD
 70
0
  0
ENDTAB
  0
TABLE
  2
BLOCK_RECORD
  5
1
100
AcDbSymbolTable
 70
0
  0
BLOCK_RECORD
  5
226
100
AcDbSymbolTableRecord
100
AcDbBlockTableRecord
  2
*Model_Space
  0
BLOCK_RECORD
  5
227
100
AcDbSymbolTableRecord
100
AcDbBlockTableRecord
  2
*Paper_Space
  0
BLOCK_RECORD
  5
228
100
AcDbSymbolTableRecord
100
AcDbBlockTableRecord
  2
_FILLED
  0
BLOCK_RECORD
  5
229
100
AcDbSymbolTableRecord
100
AcDbBlockTableRecord
  2
*D0
  0
BLOCK_RECORD
  5
22A
100
AcDbSymbolTableRecord
100
AcDbBlockTableRecord
  2
*D1
  0
BLOCK_RECORD
  5
22B
100
AcDbSymbolTableRecord
100
AcDbBlockTableRecord
  2
*D2
  0
BLOCK_RECORD
  5
22C
100
AcDbSymbolTableRecord
100
AcDbBlockTableRecord
  2
*D3
  0
BLOCK_RECORD
  5
22D
100
AcDbSymbolTableRecord
100
AcDbBlockTableRecord
  2
*D4
  0
BLOCK_RECORD
  5
22E
100
AcDbSymbolTableRecord
100
AcDbBlockTableRecord
  2
*D5
  0
BLOCK_RECORD
  5
22F
100
AcDbSymbolTableRecord
100
AcDbBlockTableRecord
  2
*D6
  0
BLOCK_RECORD
  5
230
100
AcDbSymbolTableRecord
100
AcDbBlockTableRecord
  2
*D7
  0
BLOCK_RECORD
  5
231
100
AcDbSymbolTableRecord
100
AcDbBlockTableRecord
  2
*D8
  0
BLOCK_RECORD
  5
232
100
AcDbSymbolTableRecord
100
AcDbBlockTableRecord
  2
*D9
  0
BLOCK_RECORD
  5
233
100
AcDbSymbolTableRecord
100
AcDbBlockTableRecord
  2
*D10
  0
BLOCK_RECORD
  5
234
100
AcDbSymbolTableRecord
100
AcDbBlockTableRecord
  2
*D11
  0
BLOCK_RECORD
  5
235
100
AcDbSymbolTableRecord
100
AcDbBlockTableRecord
  2
*D12
  0
BLOCK_RECORD
  5
236
100
AcDbSymbolTableRecord
100
AcDbBlockTableRecord
  2
*D13
  0
BLOCK_RECORD
  5
237
100
AcDbSymbolTableRecord
100
AcDbBlockTableRecord
  2
SYMBOL_0_BL0
  0
ENDTAB
  0
TABLE
  2
DIMSTYLE
  5
A
100
AcDbSymbolTable
 70
1
100
AcDbDimStyleTable
 71
0
  0
DIMSTYLE
105
238
100
AcDbSymbolTableRecord
100
AcDbDimStyleTableRecord
  2
STANDARD
 70
0
  3

  4

 40
1.0
 41
1.2019230769
 42
0.0625
 43
0.38
 44
0.18
 45
0.0
 46
0.0
 47
0.01
 48
0.01
140
1.0016025641
141
0.09
142
0.0
143
25.4
144
1.0
145
0.0
146
1.0
147
0.09
 71
1.0
 72
0.0
 73
1
 74
1
 75
0
 76
0
 77
0
 78
4
170
0
171
2
172
0
173
0
174
0
175
0
176
0
177
0
178
0
270
2
271
3
272
3
273
2
274
2
275
0
280
0
281
0
282
0
283
1
284
4
285
0
286
0
287
3
288
0
340
11
341
228
342
228
343
228
344
228
  0
DIMSTYLE
105
239
100
AcDbSymbolTableRecord
100
AcDbDimStyleTableRecord
  2
DIMSTYLE_1
 70
0
  3

  4

 40
1.0
 41
1.2019230769
 42
0.0625
 43
0.38
 44
0.18
 45
0.0
 46
0.0
 47
0.01
 48
0.01
140
1.0016025641
141
0.09
142
0.0
143
25.4
144
1.0
145
0.0
146
1.0
147
0.09
 71
0.0
 72
0.0
 73
1
 74
1
 75
0
 76
0
 77
0
 78
4
170
0
171
2
172
0
173
0
174
0
175
0
176
0
177
0
178
0
270
2
271
0
272
0
273
2
274
2
275
0
280
0
281
0
282
0
283
1
284
4
285
0
286
0
287
3
288
0
340
11
341
228
342
228
343
228
344
228
  0
DIMSTYLE
105
23A
100
AcDbSymbolTableRecord
100
AcDbDimStyleTableRecord
  2
DIMSTYLE_2
 70
0
  3

  4

 40
1.0
 41
1.2019230769
 42
0.0625
 43
0.38
 44
0.18
 45
0.0
 46
0.0
 47
0.01
 48
0.01
140
1.0016025641
141
0.09
142
0.0
143
25.4
144
1.0
145
0.0
146
1.0
147
0.09
 71
0.0
 72
0.0
 73
1
 74
1
 75
0
 76
0
 77
0
 78
4
170
0
171
2
172
0
173
0
174
0
175
0
176
0
177
0
178
0
270
2
271
0
272
0
273
2
274
2
275
0
280
0
281
0
282
0
283
1
284
4
285
0
286
0
287
3
288
0
340
11
341
228
342
228
343
228
344
228
  0
ENDTAB
  0
ENDSEC
  0
SECTION
  2
BLOCKS
  0
BLOCK
  5
20
100
AcDbEntity
  8
0
100
AcDbBlockBegin
  2
*Model_Space
 70
0
 10
0.0
 20
0.0
 30
0.0
  3
*Model_Space
  1

  0
ENDBLK
  5
21
100
AcDbEntity
  8
0
100
AcDbBlockEnd
  0
BLOCK
  5
1C
100
AcDbEntity
  8
0
100
AcDbBlockBegin
  2
*Paper_Space
 70
0
 10
0.0
 20
0.0
 30
0.0
  3
*Paper_Space
  1

  0
ENDBLK
  5
1D
100
AcDbEntity
  8
0
100
AcDbBlockEnd
  0
BLOCK
  5
23B
100
AcDbEntity
  8
0
100
AcDbBlockBegin
 62
7
  6
CONTINUOUS
  2
SYMBOL_0_BL0
 70
64
 10
76.2103865308
 20
17.3148119562
  3
SYMBOL_0_BL0
  1

  0
ARC
  5
23C
100
AcDbEntity
  8
0
100
AcDbCircle
 62
7
  6
CONTINUOUS
 10
80.3909094131
 20
17.9582539917
 40
0.0793045722
100
AcDbArc
 50
270.0
 51
360.0
  0
LINE
  5
23D
100
AcDbEntity
  8
0
100
AcDbLine
 62
7
  6
CONTINUOUS
 10
80.4702139854
 20
17.9582539917
 11
80.4702139854
 21
18.1169176404
  0
ARC
  5
23E
100
AcDbEntity
  8
0
100
AcDbCircle
 62
7
  6
CONTINUOUS
 10
80.3909094131
 20
18.1169176404
 40
0.0793045722
100
AcDbArc
 50
0.0
 51
90.0
  0
LINE
  5
23F
100
AcDbEntity
  8
0
100
AcDbLine
 62
7
  6
CONTINUOUS
 10
80.3909094131
 20
18.1962222126
 11
78.2589008733
 21
18.1962222126
  0
SPLINE
  5
240
100
AcDbEntity
  8
0
100
AcDbSpline
 62
7
  6
CONTINUOUS
 70
0
 71
3
 72
13
 73
9
 74
0
 42
0.0000001
 43
0.0000001
 44
0.0000000001
 40
0.0
 40
0.0
 40
0.0
 40
0.0
 40
0.1310616762
 40
0.2699656353
 40
0.4157607805
 40
0.5899807757
 40
0.76586761
 40
0.9948829976
 40
0.9948829976
 40
0.9948829976
 40
0.9948829976
 10
78.2589008733
 20
18.1962222126
 30
0.0
 10
78.2140841136
 20
18.1928842307
 30
0.0
 10
78.1217689137
 20
18.1860085341
 30
0.0
 10
77.996663434
 20
18.1084860478
 30
0.0
 10
77.9068526286
 20
17.978339756
 30
0.0
 10
77.8484530027
 20
17.8191994893
 30
0.0
 10
77.815558768
 20
17.6246639265
 30
0.0
 10
77.8125300983
 20
17.4872016818
 30
0.0
 10
77.8109604095
 20
17.4094419101
 30
0.0
  0
LINE
  5
241
100
AcDbEntity
  8
0
100
AcDbLine
 62
7
  6
CONTINUOUS
 10
77.8109604095
 20
17.4094419101
 11
77.8110995976
 21
17.3973750582
  0
SPLINE
  5
242
100
AcDbEntity
  8
0
100
AcDbSpline
 62
7
  6
CONTINUOUS
 70
0
 71
3
 72
13
 73
9
 74
0
 42
0.0000001
 43
0.0000001
 44
0.0000000001
 40
0.0
 40
0.0
 40
0.0
 40
0.0
 40
0.2222860645
 40
0.3981728988
 40
0.572392894
 40
0.7181880393
 40
0.8570919984
 40
0.9881536746
 40
0.9881536746
 40
0.9881536746
 40
0.9881536746
 10
77.8110995976
 20
17.3973750582
 30
0.0
 10
77.8126383503
 20
17.3219011567
 30
0.0
 10
77.8159403181
 20
17.1867485929
 30
0.0
 10
77.8484529759
 20
16.9944680496
 30
0.0
 10
77.9068533009
 20
16.8353455812
 30
0.0
 10
77.996661305
 20
16.7051440556
 30
0.0
 10
78.121776333
 20
16.6278068809
 30
0.0
 10
78.2140690262
 20
16.6204948347
 30
0.0
 10
78.2589008733
 20
16.6171557303
 30
0.0
  0
LINE
  5
243
100
AcDbEntity
  8
0
100
AcDbLine
 62
7
  6
CONTINUOUS
 10
78.2589008733
 20
16.6171557303
 11
80.3910825033
 21
16.6218094336
  0
ARC
  5
244
100
AcDbEntity
  8
0
100
AcDbCircle
 62
7
  6
CONTINUOUS
 10
80.3909094131
 20
16.7011138168
 40
0.079304572
100
AcDbArc
 50
270.125053868
 51
360.0
  0
LINE
  5
245
100
AcDbEntity
  8
0
100
AcDbLine
 62
7
  6
CONTINUOUS
 10
80.4702139854
 20
16.7011138168
 11
80.4702139854
 21
16.8535829145
  0
ARC
  5
246
100
AcDbEntity
  8
0
100
AcDbCircle
 62
7
  6
CONTINUOUS
 10
80.3909094131
 20
16.8535829145
 40
0.0793045722
100
AcDbArc
 50
0.0
 51
90.0
  0
LINE
  5
247
100
AcDbEntity
  8
0
100
AcDbLine
 62
7
  6
CONTINUOUS
 10
80.3909094131
 20
16.9328874868
 11
78.5634867003
 21
16.9328874868
  0
LINE
  5
248
100
AcDbEntity
  8
0
100
AcDbLine
 62
7
  6
CONTINUOUS
 10
78.4841821281
 20
17.012192059
 11
78.4841821281
 21
17.7996448472
  0
ARC
  5
249
100
AcDbEntity
  8
0
100
AcDbCircle
 62
7
  6
CONTINUOUS
 10
78.563486701
 20
17.7996448472
 40
0.0793045722
100
AcDbArc
 50
90.0
 51
180.0
  0
LINE
  5
24A
100
AcDbEntity
  8
0
100
AcDbLine
 62
7
  6
CONTINUOUS
 10
78.5634867003
 20
17.8789494195
 11
80.3909094131
 21
17.8789494195
  0
LINE
  5
24B
100
AcDbEntity
  8
0
100
AcDbLine
 62
7
  6
CONTINUOUS
 10
75.3050296988
 20
17.2465583371
 11
76.8281831233
 21
17.2465583371
  0
ARC
  5
24C
100
AcDbEntity
  8
0
100
AcDbCircle
 62
7
  6
CONTINUOUS
 10
76.8281831231
 20
17.167253765
 40
0.0793045722
100
AcDbArc
 50
0.0
 51
90.0
  0
LINE
  5
24D
100
AcDbEntity
  8
0
100
AcDbLine
 62
7
  6
CONTINUOUS
 10
76.9074876955
 20
17.1672537648
 11
76.9074876955
 21
17.0053220198
  0
LINE
  5
24E
100
AcDbEntity
  8
0
100
AcDbLine
 62
7
  6
CONTINUOUS
 10
76.8281831233
 20
16.9260174476
 11
75.0526694061
 21
16.9260174476
  0
ARC
  5
24F
100
AcDbEntity
  8
0
100
AcDbCircle
 62
7
  6
CONTINUOUS
 10
75.0526694061
 20
16.8467128754
 40
0.0793045722
100
AcDbArc
 50
90.0
 51
180.0
  0
LINE
  5
250
100
AcDbEntity
  8
0
100
AcDbLine
 62
7
  6
CONTINUOUS
 10
74.9733648339
 20
16.8467128754
 11
74.9733648339
 21
16.6964595022
  0
ARC
  5
251
100
AcDbEntity
  8
0
100
AcDbCircle
 62
7
  6
CONTINUOUS
 10
75.0526694061
 20
16.6964595022
 40
0.0793045722
100
AcDbArc
 50
180.0
 51
270.0
  0
LINE
  5
252
100
AcDbEntity
  8
0
100
AcDbLine
 62
7
  6
CONTINUOUS
 10
75.0526694061
 20
16.6171549299
 11
77.2568791308
 21
16.6171549299
  0
SPLINE
  5
253
100
AcDbEntity
  8
0
100
AcDbSpline
 62
7
  6
CONTINUOUS
 70
0
 71
3
 72
13
 73
9
 74
0
 42
0.0000001
 43
0.0000001
 44
0.0000000001
 40
0.0
 40
0.0
 40
0.0
 40
0.0
 40
0.1604571392
 40
0.3334692485
 40
0.4767982758
 40
0.6242014838
 40
0.7505998515
 40
1.0
 40
1.0
 40
1.0
 40
1.0
 10
77.2568791308
 20
16.6171549299
 30
0.0
 10
77.2940423819
 20
16.6189442741
 30
0.0
 10
77.3712767217
 20
16.622662968
 30
0.0
 10
77.4751350315
 20
16.6677534834
 30
0.0
 10
77.5533956896
 20
16.7435468762
 30
0.0
 10
77.5974986483
 20
16.8304410729
 30
0.0
 10
77.631311729
 20
16.9470105282
 30
0.0
 10
77.6326838653
 20
17.0342455784
 30
0.0
 10
77.633594488
 20
17.0921394583
 30
0.0
  0
SPLINE
  5
254
100
AcDbEntity
  8
0
100
AcDbSpline
 62
7
  6
CONTINUOUS
 70
0
 71
3
 72
13
 73
9
 74
0
 42
0.0000001
 43
0.0000001
 44
0.0000000001
 40
0.0
 40
0.0
 40
0.0
 40
0.0
 40
0.2494001485
 40
0.3757985162
 40
0.5232017242
 40
0.6665307515
 40
0.8395428608
 40
1.0
 40
1.0
 40
1.0
 40
1.0
 10
77.633594488
 20
17.0921394583
 30
0.0
 10
77.6326838653
 20
17.1500333394
 30
0.0
 10
77.631311729
 20
17.2372683884
 30
0.0
 10
77.5974986483
 20
17.3538378448
 30
0.0
 10
77.5533956896
 20
17.4407320415
 30
0.0
 10
77.4751350315
 20
17.5165254331
 30
0.0
 10
77.3712767217
 20
17.5616159485
 30
0.0
 10
77.2940423819
 20
17.5653346436
 30
0.0
 10
77.2568791308
 20
17.5671239866
 30
0.0
  0
LINE
  5
255
100
AcDbEntity
  8
0
100
AcDbLine
 62
7
  6
CONTINUOUS
 10
77.2568791308
 20
17.5671239866
 11
75.7540283332
 21
17.5671239866
  0
LINE
  5
256
100
AcDbEntity
  8
0
100
AcDbLine
 62
7
  6
CONTINUOUS
 10
75.674723761
 20
17.6464285589
 11
75.674723761
 21
17.7964807656
  0
ARC
  5
257
100
AcDbEntity
  8
0
100
AcDbCircle
 62
7
  6
CONTINUOUS
 10
75.7540283326
 20
17.7964807656
 40
0.0793045722
100
AcDbArc
 50
90.0
 51
180.0
  0
LINE
  5
258
100
AcDbEntity
  8
0
100
AcDbLine
 62
7
  6
CONTINUOUS
 10
75.7540283332
 20
17.8757853379
 11
77.5319520492
 21
17.8757853379
  0
ARC
  5
259
100
AcDbEntity
  8
0
100
AcDbCircle
 62
7
  6
CONTINUOUS
 10
77.5319520492
 20
17.9550899101
 40
0.0793045722
100
AcDbArc
 50
270.0
 51
360.0
  0
LINE
  5
25A
100
AcDbEntity
  8
0
100
AcDbLine
 62
7
  6
CONTINUOUS
 10
77.6112566215
 20
17.9550899101
 11
77.6112566215
 21
18.1169176404
  0
ARC
  5
25B
100
AcDbEntity
  8
0
100
AcDbCircle
 62
7
  6
CONTINUOUS
 10
77.5319520492
 20
18.1169176404
 40
0.0793045722
100
AcDbArc
 50
0.0
 51
90.0
  0
LINE
  5
25C
100
AcDbEntity
  8
0
100
AcDbLine
 62
7
  6
CONTINUOUS
 10
77.5319520492
 20
18.1962222126
 11
75.3050296988
 21
18.1962222126
  0
SPLINE
  5
25D
100
AcDbEntity
  8
0
100
AcDbSpline
 62
7
  6
CONTINUOUS
 70
0
 71
3
 72
13
 73
9
 74
0
 42
0.0000001
 43
0.0000001
 44
0.0000000001
 40
0.0
 40
0.0
 40
0.0
 40
0.0
 40
0.1133740464
 40
0.2392044088
 40
0.3655787964
 40
0.4912154373
 40
0.7445390876
 40
1.0
 40
1.0
 40
1.0
 40
1.0
 10
75.3050296988
 20
18.1962222126
 30
0.0
 10
75.2795897876
 20
18.1949691784
 30
0.0
 10
75.2259149036
 20
18.1923254385
 30
0.0
 10
75.1461861727
 20
18.1685048754
 30
0.0
 10
75.0748610533
 20
18.1204037401
 30
0.0
 10
75.0020018076
 20
18.0317996136
 30
0.0
 10
74.9561541483
 20
17.8927029235
 30
0.0
 10
74.9511819627
 20
17.7786541873
 30
0.0
 10
74.9486854279
 20
17.7213902749
 30
0.0
  0
SPLINE
  5
25E
100
AcDbEntity
  8
0
100
AcDbSpline
 62
7
  6
CONTINUOUS
 70
0
 71
3
 72
13
 73
9
 74
0
 42
0.0000001
 43
0.0000001
 44
0.0000000001
 40
0.0
 40
0.0
 40
0.0
 40
0.0
 40
0.2554609124
 40
0.5087845627
 40
0.6344212036
 40
0.7607955912
 40
0.8866259536
 40
1.0
 40
1.0
 40
1.0
 40
1.0
 10
74.9486854279
 20
17.7213902749
 30
0.0
 10
74.9511819627
 20
17.6641263624
 30
0.0
 10
74.9561541483
 20
17.550077625
 30
0.0
 10
75.0020018076
 20
17.4109809361
 30
0.0
 10
75.0748610533
 20
17.3223768096
 30
0.0
 10
75.1461861727
 20
17.2742756743
 30
0.0
 10
75.2259149036
 20
17.2504551112
 30
0.0
 10
75.2795897876
 20
17.2478113713
 30
0.0
 10
75.3050296988
 20
17.2465583371
 30
0.0
  0
LINE
  5
25F
100
AcDbEntity
  8
0
100
AcDbLine
 62
7
  6
CONTINUOUS
 10
72.3748128577
 20
16.6171549299
 11
73.6070404017
 21
16.6171549299
  0
LINE
  5
260
100
AcDbEntity
  8
0
100
AcDbLine
 62
7
  6
CONTINUOUS
 10
73.6070404017
 20
16.6171549299
 11
73.6070404017
 21
16.4639034584
  0
ARC
  5
261
100
AcDbEntity
  8
0
100
AcDbCircle
 62
7
  6
CONTINUOUS
 10
73.6375421603
 20
16.4639034584
 40
0.0305017586
100
AcDbArc
 50
180.0
 51
270.0
  0
LINE
  5
262
100
AcDbEntity
  8
0
100
AcDbLine
 62
7
  6
CONTINUOUS
 10
73.6375421603
 20
16.4334016998
 11
74.1124855637
 21
16.4334016998
  0
ARC
  5
263
100
AcDbEntity
  8
0
100
AcDbCircle
 62
7
  6
CONTINUOUS
 10
74.1124855637
 20
16.4639034584
 40
0.0305017586
100
AcDbArc
 50
270.0
 51
360.0
  0
LINE
  5
264
100
AcDbEntity
  8
0
100
AcDbLine
 62
7
  6
CONTINUOUS
 10
74.1429873222
 20
16.4639034584
 11
74.1429873222
 21
16.6171549299
  0
LINE
  5
265
100
AcDbEntity
  8
0
100
AcDbLine
 62
7
  6
CONTINUOUS
 10
74.1429873222
 20
16.6171549299
 11
74.3852893758
 21
16.6171549299
  0
SPLINE
  5
266
100
AcDbEntity
  8
0
100
AcDbSpline
 62
7
  6
CONTINUOUS
 70
0
 71
3
 72
12
 73
8
 74
0
 42
0.0000001
 43
0.0000001
 44
0.0000000001
 40
0.0
 40
0.0
 40
0.0
 40
0.0
 40
0.2415790084
 40
0.4893269843
 40
0.7378634303
 40
0.8656387112
 40
1.0
 40
1.0
 40
1.0
 40
1.0
 10
74.3852893758
 20
16.6171549299
 30
0.0
 10
74.4287365211
 20
16.6185056527
 30
0.0
 10
74.5167402803
 20
16.6212415909
 30
0.0
 10
74.6455245991
 20
16.6671695041
 30
0.0
 10
74.7237378513
 20
16.7538692496
 30
0.0
 10
74.7581960137
 20
16.8404983336
 30
0.0
 10
74.7588170003
 20
16.8879535625
 30
0.0
 10
74.7591352946
 20
16.9122773168
 30
0.0
  0
LINE
  5
267
100
AcDbEntity
  8
0
100
AcDbLine
 62
7
  6
CONTINUOUS
 10
74.7591352946
 20
16.9122773168
 11
74.7591352946
 21
17.8992477688
  0
SPLINE
  5
268
100
AcDbEntity
  8
0
100
AcDbSpline
 62
7
  6
CONTINUOUS
 70
0
 71
3
 72
12
 73
8
 74
0
 42
0.0000001
 43
0.0000001
 44
0.0000000001
 40
0.0
 40
0.0
 40
0.0
 40
0.0
 40
0.1343612888
 40
0.2621365697
 40
0.5106730157
 40
0.7584209916
 40
1.0
 40
1.0
 40
1.0
 40
1.0
 10
74.7591352946
 20
17.8992477688
 30
0.0
 10
74.7588170003
 20
17.9235715243
 30
0.0
 10
74.7581960137
 20
17.9710267532
 30
0.0
 10
74.7237378513
 20
18.0576558372
 30
0.0
 10
74.6455245991
 20
18.1443555827
 30
0.0
 10
74.5167402803
 20
18.1902834946
 30
0.0
 10
74.4287365211
 20
18.1930194328
 30
0.0
 10
74.3852893758
 20
18.1943701556
 30
0.0
  0
LINE
  5
269
100
AcDbEntity
  8
0
100
AcDbLine
 62
7
  6
CONTINUOUS
 10
74.3852893758
 20
18.1943701556
 11
72.3748128577
 21
18.1943701556
  0
SPLINE
  5
26A
100
AcDbEntity
  8
0
100
AcDbSpline
 62
7
  6
CONTINUOUS
 70
0
 71
3
 72
12
 73
8
 74
0
 42
0.0000001
 43
0.0000001
 44
0.0000000001
 40
0.0
 40
0.0
 40
0.0
 40
0.0
 40
0.1341799809
 40
0.290831959
 40
0.5815217441
 40
0.760783857
 40
1.0
 40
1.0
 40
1.0
 40
1.0
 10
72.3748128577
 20
18.1943701556
 30
0.0
 10
72.3309607954
 20
18.1868754221
 30
0.0
 10
72.2359124806
 20
18.1706307614
 30
0.0
 10
72.0759138969
 20
18.0510961912
 30
0.0
 10
72.0001304476
 20
17.8499912805
 30
0.0
 10
71.9557902291
 20
17.6220203294
 30
0.0
 10
71.9524617479
 20
17.4841331073
 30
0.0
 10
71.9505590762
 20
17.4053121672
 30
0.0
  0
SPLINE
  5
26B
100
AcDbEntity
  8
0
100
AcDbSpline
 62
7
  6
CONTINUOUS
 70
0
 71
3
 72
12
 73
8
 74
0
 42
0.0000001
 43
0.0000001
 44
0.0000000001
 40
0.0
 40
0.0
 40
0.0
 40
0.0
 40
0.2392679579
 40
0.4185688994
 40
0.7093216488
 40
0.8660075581
 40
1.0
 40
1.0
 40
1.0
 40
1.0
 10
71.9505590762
 20
17.4053121672
 30
0.0
 10
71.952462508
 20
17.3264942994
 30
0.0
 10
71.9557923179
 20
17.1886124516
 30
0.0
 10
72.0001229686
 20
16.9606028145
 30
0.0
 10
72.0759527195
 20
16.7596851297
 30
0.0
 10
72.2357847222
 20
16.6397624064
 30
0.0
 10
72.3309465975
 20
16.6242880578
 30
0.0
 10
72.3748128577
 20
16.6171549299
 30
0.0
  0
LINE
  5
26C
100
AcDbEntity
  8
0
100
AcDbLine
 62
7
  6
CONTINUOUS
 10
74.3530202026
 20
17.0232208873
 11
74.3530202026
 21
17.8140093381
  0
ARC
  5
26D
100
AcDbEntity
  8
0
100
AcDbCircle
 62
7
  6
CONTINUOUS
 10
72.6892385557
 20
17.0232208873
 40
0.0793045722
100
AcDbArc
 50
180.0
 51
270.0
  0
LINE
  5
26E
100
AcDbEntity
  8
0
100
AcDbLine
 62
7
  6
CONTINUOUS
 10
72.6892385557
 20
16.9439163151
 11
73.600103255
 21
16.9439163151
  0
LINE
  5
26F
100
AcDbEntity
  8
0
100
AcDbLine
 62
7
  6
CONTINUOUS
 10
73.600103255
 20
16.9439163151
 11
73.600103255
 21
17.0966929462
  0
ARC
  5
270
100
AcDbEntity
  8
0
100
AcDbCircle
 62
7
  6
CONTINUOUS
 10
73.6306050141
 20
17.0966929462
 40
0.0305017586
100
AcDbArc
 50
90.0
 51
180.0
  0
LINE
  5
271
100
AcDbEntity
  8
0
100
AcDbLine
 62
7
  6
CONTINUOUS
 10
73.6306050135
 20
17.1271947048
 11
74.1031279987
 21
17.1271947048
  0
ARC
  5
272
100
AcDbEntity
  8
0
100
AcDbCircle
 62
7
  6
CONTINUOUS
 10
74.1031279976
 20
17.0966929474
 40
0.0305017586
100
AcDbArc
 50
0.0
 51
90.0
  0
LINE
  5
273
100
AcDbEntity
  8
0
100
AcDbLine
 62
7
  6
CONTINUOUS
 10
74.1336297573
 20
16.9439163151
 11
74.2737156303
 21
16.9439163151
  0
ARC
  5
274
100
AcDbEntity
  8
0
100
AcDbCircle
 62
7
  6
CONTINUOUS
 10
74.2737156303
 20
17.0232208873
 40
0.0793045722
100
AcDbArc
 50
270.0
 51
360.0
  0
LINE
  5
275
100
AcDbEntity
  8
0
100
AcDbLine
 62
7
  6
CONTINUOUS
 10
74.1336297573
 20
16.9439163151
 11
74.1336297573
 21
17.0966929462
  0
LINE
  5
276
100
AcDbEntity
  8
0
100
AcDbLine
 62
7
  6
CONTINUOUS
 10
72.6099339835
 20
17.0232208873
 11
72.6099339835
 21
17.8140093381
  0
ARC
  5
277
100
AcDbEntity
  8
0
100
AcDbCircle
 62
7
  6
CONTINUOUS
 10
72.6892385568
 20
17.8140093381
 40
0.0793045722
100
AcDbArc
 50
90.0
 51
180.0
  0
LINE
  5
278
100
AcDbEntity
  8
0
100
AcDbLine
 62
7
  6
CONTINUOUS
 10
72.6892385557
 20
17.8933139103
 11
74.2737156303
 21
17.8933139103
  0
ARC
  5
279
100
AcDbEntity
  8
0
100
AcDbCircle
 62
7
  6
CONTINUOUS
 10
74.273715631
 20
17.8140093374
 40
0.0793045722
100
AcDbArc
 50
0.0000000277
 51
90.0000000277
  0
ARC
  5
27A
100
AcDbEntity
  8
0
100
AcDbCircle
 62
7
  6
CONTINUOUS
 10
75.7540283332
 20
17.6464285589
 40
0.0793045722
100
AcDbArc
 50
180.0
 51
270.0
  0
ARC
  5
27B
100
AcDbEntity
  8
0
100
AcDbCircle
 62
7
  6
CONTINUOUS
 10
76.8281831233
 20
17.0053220198
 40
0.0793045722
100
AcDbArc
 50
270.0
 51
360.0
  0
ARC
  5
27C
100
AcDbEntity
  8
0
100
AcDbCircle
 62
7
  6
CONTINUOUS
 10
78.5634867003
 20
17.012192059
 40
0.0793045722
100
AcDbArc
 50
180.0
 51
270.0
  0
ENDBLK
  5
27D
100
AcDbEntity
  8
0
  6
BYBLOCK
 62
0
100
AcDbBlockEnd
  0
BLOCK
  5
27E
100
AcDbEntity
  8
0
100
AcDbBlockBegin
  2
_FILLED
 70
64
 10
0.0
 20
0.0
  3
_FILLED
  1

  0
SOLID
  5
27F
100
AcDbEntity
  8
0
  6
BYBLOCK
 62
0
100
AcDbTrace
 10
0.0
 20
0.0
 11
-1.0
 21
0.1666666667
 12
-1.0
 22
-0.1666666667
 13
-1.0
 23
-0.1666666667
  0
ENDBLK
  5
280
100
AcDbEntity
  8
0
  6
BYBLOCK
 62
0
100
AcDbBlockEnd
  0
BLOCK
  5
281
100
AcDbEntity
  8
0
100
AcDbBlockBegin
 62
2
  6
CONTINUOUS
  2
*D0
 70
65
 10
0.0
 20
0.0
  3
*D0
  1

  0
MTEXT
  5
282
100
AcDbEntity
  8
0
100
AcDbMText
 62
2
  6
CONTINUOUS
  7
TEXTSTYLE_1
 71
3
 72
1
 10
45.7709596807
 20
35.1326102354
 30
0.0
 11
1.0
 21
0.0
 31
0.0
 44
0.9
  1
{\Fgdt;n}\Ftxt;12\P[.5]
 40
1.0016025641
 41
2.694787851
  0
LINE
  5
283
100
AcDbEntity
  8
0
100
AcDbLine
 62
2
  6
CONTINUOUS
 10
49.8842265937
 20
31.1725707058
 11
48.1604972265
 21
34.6318089533
  0
LINE
  5
284
100
AcDbEntity
  8
0
100
AcDbLine
 62
2
  6
CONTINUOUS
 10
48.1604972265
 20
34.6318089533
 11
47.058734406
 21
34.6318089533
  0
INSERT
  5
285
100
AcDbEntity
  8
0
100
AcDbBlockReference
 62
2
  6
CONTINUOUS
  2
_FILLED
 10
49.8842265937
 20
31.1725707058
 41
1.2019230769
 42
1.2019230769
 43
1.2019230769
 50
296.4869558418
  0
ENDBLK
  5
286
100
AcDbEntity
  8
0
  6
BYBLOCK
 62
0
100
AcDbBlockEnd
  0
BLOCK
  5
287
100
AcDbEntity
  8
0
100
AcDbBlockBegin
 62
2
  6
CONTINUOUS
  2
*D1
 70
65
 10
0.0
 20
0.0
  3
*D1
  1

  0
MTEXT
  5
288
100
AcDbEntity
  8
0
100
AcDbMText
 62
2
  6
CONTINUOUS
  7
STANDARD
 71
2
 72
1
 10
53.9892893827
 20
27.4521642699
 30
0.0
 11
1.0
 21
0.0
 31
0.0
 44
0.9
  1
220\P[8.6]
 40
1.0016025641
 41
3.0048076923
  0
LINE
  5
289
100
AcDbEntity
  8
0
100
AcDbLine
 62
2
  6
CONTINUOUS
 10
49.9895795207
 20
29.8941392271
 11
49.9895795207
 21
26.1500809365
  0
LINE
  5
28A
100
AcDbEntity
  8
0
100
AcDbLine
 62
2
  6
CONTINUOUS
 10
58.6328866073
 20
28.6270393051
 11
58.6328866073
 21
26.1500809365
  0
LINE
  5
28B
100
AcDbEntity
  8
0
100
AcDbLine
 62
2
  6
CONTINUOUS
 10
49.9895795207
 20
26.9513629878
 11
52.3080279358
 21
26.9513629878
  0
LINE
  5
28C
100
AcDbEntity
  8
0
100
AcDbLine
 62
2
  6
CONTINUOUS
 10
58.6328866073
 20
26.9513629878
 11
56.3144381922
 21
26.9513629878
  0
INSERT
  5
28D
100
AcDbEntity
  8
0
100
AcDbBlockReference
 62
2
  6
CONTINUOUS
  2
_FILLED
 10
49.9895795207
 20
26.9513629878
 41
1.2019230769
 42
1.2019230769
 43
1.2019230769
 50
180.0
  0
INSERT
  5
28E
100
AcDbEntity
  8
0
100
AcDbBlockReference
 62
2
  6
CONTINUOUS
  2
_FILLED
 10
58.6328866073
 20
26.9513629878
 41
1.2019230769
 42
1.2019230769
 43
1.2019230769
  0
ENDBLK
  5
28F
100
AcDbEntity
  8
0
  6
BYBLOCK
 62
0
100
AcDbBlockEnd
  0
BLOCK
  5
290
100
AcDbEntity
  8
0
100
AcDbBlockBegin
 62
2
  6
CONTINUOUS
  2
*D2
 70
65
 10
0.0
 20
0.0
  3
*D2
  1

  0
MTEXT
  5
291
100
AcDbEntity
  8
0
100
AcDbMText
 62
2
  6
CONTINUOUS
  7
STANDARD
 71
2
 72
1
 10
52.8333769307
 20
23.3824795728
 30
0.0
 11
1.0
 21
0.0
 31
0.0
 44
0.9
  1
266\P[10.5]
 40
1.0016025641
 41
3.5056089744
  0
LINE
  5
292
100
AcDbEntity
  8
0
100
AcDbLine
 62
2
  6
CONTINUOUS
 10
58.6328866073
 20
28.6270393051
 11
58.6328866073
 21
22.0803962394
  0
LINE
  5
293
100
AcDbEntity
  8
0
100
AcDbLine
 62
2
  6
CONTINUOUS
 10
48.1785558987
 20
30.560503872
 11
48.1785558987
 21
22.0803962394
  0
LINE
  5
294
100
AcDbEntity
  8
0
100
AcDbLine
 62
2
  6
CONTINUOUS
 10
58.6328866073
 20
22.8816782907
 11
55.6593270222
 21
22.8816782907
  0
LINE
  5
295
100
AcDbEntity
  8
0
100
AcDbLine
 62
2
  6
CONTINUOUS
 10
48.1785558987
 20
22.8816782907
 11
51.1521154838
 21
22.8816782907
  0
INSERT
  5
296
100
AcDbEntity
  8
0
100
AcDbBlockReference
 62
2
  6
CONTINUOUS
  2
_FILLED
 10
58.6328866073
 20
22.8816782907
 41
1.2019230769
 42
1.2019230769
 43
1.2019230769
  0
INSERT
  5
297
100
AcDbEntity
  8
0
100
AcDbBlockReference
 62
2
  6
CONTINUOUS
  2
_FILLED
 10
48.1785558987
 20
22.8816782907
 41
1.2019230769
 42
1.2019230769
 43
1.2019230769
 50
180.0
  0
ENDBLK
  5
298
100
AcDbEntity
  8
0
  6
BYBLOCK
 62
0
100
AcDbBlockEnd
  0
BLOCK
  5
299
100
AcDbEntity
  8
0
100
AcDbBlockBegin
 62
2
  6
CONTINUOUS
  2
*D3
 70
65
 10
0.0
 20
0.0
  3
*D3
  1

  0
MTEXT
  5
29A
100
AcDbEntity
  8
0
100
AcDbMText
 62
2
  6
CONTINUOUS
  7
STANDARD
 71
2
 72
1
 10
62.8598797334
 20
32.311551443
 30
0.0
 11
1.0
 21
0.0
 31
0.0
 44
0.9
  1
105\P[4.1]
 40
1.0016025641
 41
2.7901785714
  0
LINE
  5
29B
100
AcDbEntity
  8
0
100
AcDbLine
 62
2
  6
CONTINUOUS
 10
58.9000630661
 20
33.0280740315
 11
64.0188769862
 21
33.0280740315
  0
LINE
  5
29C
100
AcDbEntity
  8
0
100
AcDbLine
 62
2
  6
CONTINUOUS
 10
58.9000630661
 20
28.8942157638
 11
64.0188769862
 21
28.8942157638
  0
LINE
  5
29D
100
AcDbEntity
  8
0
100
AcDbLine
 62
2
  6
CONTINUOUS
 10
63.2175949349
 20
33.0280740315
 11
63.2175949349
 21
36.2332022366
  0
LINE
  5
29E
100
AcDbEntity
  8
0
100
AcDbLine
 62
2
  6
CONTINUOUS
 10
63.2175949349
 20
28.8942157638
 11
63.2175949349
 21
25.6890875586
  0
INSERT
  5
29F
100
AcDbEntity
  8
0
100
AcDbBlockReference
 62
2
  6
CONTINUOUS
  2
_FILLED
 10
63.2175949349
 20
33.0280740315
 41
1.2019230769
 42
1.2019230769
 43
1.2019230769
 50
270.0
  0
INSERT
  5
2A0
100
AcDbEntity
  8
0
100
AcDbBlockReference
 62
2
  6
CONTINUOUS
  2
_FILLED
 10
63.2175949349
 20
28.8942157638
 41
1.2019230769
 42
1.2019230769
 43
1.2019230769
 50
90.0
  0
ENDBLK
  5
2A1
100
AcDbEntity
  8
0
  6
BYBLOCK
 62
0
100
AcDbBlockEnd
  0
BLOCK
  5
2A2
100
AcDbEntity
  8
0
100
AcDbBlockBegin
 62
2
  6
CONTINUOUS
  2
*D4
 70
65
 10
0.0
 20
0.0
  3
*D4
  1

  0
MTEXT
  5
2A3
100
AcDbEntity
  8
0
100
AcDbMText
 62
2
  6
CONTINUOUS
  7
STANDARD
 71
2
 72
1
 10
42.5793852191
 20
48.7534320097
 30
0.0
 11
1.0
 21
0.0
 31
0.0
 44
0.9
  1
577\P[22.7]
 40
1.0016025641
 41
3.7917811355
  0
LINE
  5
2A4
100
AcDbEntity
  8
0
100
AcDbLine
 62
2
  6
CONTINUOUS
 10
47.8162146551
 20
59.6069614363
 11
42.5293050909
 21
59.6069614363
  0
LINE
  5
2A5
100
AcDbEntity
  8
0
100
AcDbLine
 62
2
  6
CONTINUOUS
 10
47.8909683351
 20
36.898300019
 11
42.5293050909
 21
36.898300019
  0
LINE
  5
2A6
100
AcDbEntity
  8
0
100
AcDbLine
 62
2
  6
CONTINUOUS
 10
43.3305871422
 20
59.6069614363
 11
43.3305871422
 21
49.2542332918
  0
LINE
  5
2A7
100
AcDbEntity
  8
0
100
AcDbLine
 62
2
  6
CONTINUOUS
 10
43.3305871422
 20
36.898300019
 11
43.3305871422
 21
45.7486243174
  0
INSERT
  5
2A8
100
AcDbEntity
  8
0
100
AcDbBlockReference
 62
2
  6
CONTINUOUS
  2
_FILLED
 10
43.3305871422
 20
59.6069614363
 41
1.2019230769
 42
1.2019230769
 43
1.2019230769
 50
90.0
  0
INSERT
  5
2A9
100
AcDbEntity
  8
0
100
AcDbBlockReference
 62
2
  6
CONTINUOUS
  2
_FILLED
 10
43.3305871422
 20
36.898300019
 41
1.2019230769
 42
1.2019230769
 43
1.2019230769
 50
270.0
  0
ENDBLK
  5
2AA
100
AcDbEntity
  8
0
  6
BYBLOCK
 62
0
100
AcDbBlockEnd
  0
BLOCK
  5
2AB
100
AcDbEntity
  8
0
100
AcDbBlockBegin
 62
2
  6
CONTINUOUS
  2
*D5
 70
65
 10
0.0
 20
0.0
  3
*D5
  1

  0
MTEXT
  5
2AC
100
AcDbEntity
  8
0
100
AcDbMText
 62
2
  6
CONTINUOUS
  7
STANDARD
 71
1
 72
1
 10
23.3185359093
 20
50.0388316137
 30
0.0
 11
1.0
 21
0.0
 31
0.0
 44
0.9
  1
3X \Fgdt;{\Fgdt;n}\Ftxt;13\P[.5]
 40
1.0016025641
 41
4.9841651404
  0
LINE
  5
2AD
100
AcDbEntity
  8
0
100
AcDbLine
 62
2
  6
CONTINUOUS
 10
18.9998689054
 20
48.3548327789
 11
21.7159718068
 21
49.5380303317
  0
LINE
  5
2AE
100
AcDbEntity
  8
0
100
AcDbLine
 62
2
  6
CONTINUOUS
 10
21.7159718068
 20
49.5380303317
 11
22.8177346273
 21
49.5380303317
  0
INSERT
  5
2AF
100
AcDbEntity
  8
0
100
AcDbBlockReference
 62
2
  6
CONTINUOUS
  2
_FILLED
 10
18.9998689054
 20
48.3548327789
 41
1.2019230769
 42
1.2019230769
 43
1.2019230769
 50
203.5390606331
  0
ENDBLK
  5
2B0
100
AcDbEntity
  8
0
  6
BYBLOCK
 62
0
100
AcDbBlockEnd
  0
BLOCK
  5
2B1
100
AcDbEntity
  8
0
100
AcDbBlockBegin
 62
2
  6
CONTINUOUS
  2
*D6
 70
65
 10
0.0
 20
0.0
  3
*D6
  1

  0
MTEXT
  5
2B2
100
AcDbEntity
  8
0
100
AcDbMText
 62
2
  6
CONTINUOUS
  7
STANDARD
 71
3
 72
1
 10
12.6900831886
 20
34.5262663623
 30
0.0
 11
1.0
 21
0.0
 31
0.0
 44
0.9
  1
4X 45\P[1.8]
 40
1.0016025641
 41
3.9348672161
  0
LINE
  5
2B3
100
AcDbEntity
  8
0
100
AcDbLine
 62
2
  6
CONTINUOUS
 10
19.6510845698
 20
40.7148971319
 11
19.6510845698
 21
33.224183029
  0
LINE
  5
2B4
100
AcDbEntity
  8
0
100
AcDbLine
 62
2
  6
CONTINUOUS
 10
17.8794310265
 20
40.7148971319
 11
17.8794310265
 21
33.224183029
  0
LINE
  5
2B5
100
AcDbEntity
  8
0
100
AcDbLine
 62
2
  6
CONTINUOUS
 10
19.6510845698
 20
34.0254650802
 11
22.8562127749
 21
34.0254650802
  0
LINE
  5
2B6
100
AcDbEntity
  8
0
100
AcDbLine
 62
2
  6
CONTINUOUS
 10
17.8794310265
 20
34.0254650802
 11
14.4786591959
 21
34.0254650802
  0
INSERT
  5
2B7
100
AcDbEntity
  8
0
100
AcDbBlockReference
 62
2
  6
CONTINUOUS
  2
_FILLED
 10
19.6510845698
 20
34.0254650802
 41
1.2019230769
 42
1.2019230769
 43
1.2019230769
 50
180.0
  0
INSERT
  5
2B8
100
AcDbEntity
  8
0
100
AcDbBlockReference
 62
2
  6
CONTINUOUS
  2
_FILLED
 10
17.8794310265
 20
34.0254650802
 41
1.2019230769
 42
1.2019230769
 43
1.2019230769
  0
ENDBLK
  5
2B9
100
AcDbEntity
  8
0
  6
BYBLOCK
 62
0
100
AcDbBlockEnd
  0
BLOCK
  5
2BA
100
AcDbEntity
  8
0
100
AcDbBlockBegin
 62
2
  6
CONTINUOUS
  2
*D7
 70
65
 10
0.0
 20
0.0
  3
*D7
  1

  0
MTEXT
  5
2BB
100
AcDbEntity
  8
0
100
AcDbMText
 62
2
  6
CONTINUOUS
  7
STANDARD
 71
1
 72
1
 10
23.6524328744
 20
31.3639595658
 30
0.0
 11
1.0
 21
0.0
 31
0.0
 44
0.9
  1
4X 10\P[.4]
 40
1.0016025641
 41
3.7917811355
  0
LINE
  5
2BC
100
AcDbEntity
  8
0
100
AcDbLine
 62
2
  6
CONTINUOUS
 10
19.4542341761
 20
41.3559267099
 11
19.4542341761
 21
30.0618762325
  0
LINE
  5
2BD
100
AcDbEntity
  8
0
100
AcDbLine
 62
2
  6
CONTINUOUS
 10
19.8479349635
 20
41.3559267099
 11
19.8479349635
 21
30.0618762325
  0
LINE
  5
2BE
100
AcDbEntity
  8
0
100
AcDbLine
 62
2
  6
CONTINUOUS
 10
19.4542341761
 20
30.8631582838
 11
16.2491059709
 21
30.8631582838
  0
LINE
  5
2BF
100
AcDbEntity
  8
0
100
AcDbLine
 62
2
  6
CONTINUOUS
 10
19.8479349635
 20
30.8631582838
 11
23.1516315924
 21
30.8631582838
  0
INSERT
  5
2C0
100
AcDbEntity
  8
0
100
AcDbBlockReference
 62
2
  6
CONTINUOUS
  2
_FILLED
 10
19.4542341761
 20
30.8631582838
 41
1.2019230769
 42
1.2019230769
 43
1.2019230769
  0
INSERT
  5
2C1
100
AcDbEntity
  8
0
100
AcDbBlockReference
 62
2
  6
CONTINUOUS
  2
_FILLED
 10
19.8479349635
 20
30.8631582838
 41
1.2019230769
 42
1.2019230769
 43
1.2019230769
 50
180.0
  0
ENDBLK
  5
2C2
100
AcDbEntity
  8
0
  6
BYBLOCK
 62
0
100
AcDbBlockEnd
  0
BLOCK
  5
2C3
100
AcDbEntity
  8
0
100
AcDbBlockBegin
 62
2
  6
CONTINUOUS
  2
*D8
 70
65
 10
0.0
 20
0.0
  3
*D8
  1

  0
MTEXT
  5
2C4
100
AcDbEntity
  8
0
100
AcDbMText
 62
2
  6
CONTINUOUS
  7
STANDARD
 71
2
 72
1
 10
12.3249286097
 20
49.5993931328
 30
0.0
 11
1.0
 21
0.0
 31
0.0
 44
0.9
  1
2X 134\P[5.3]
 40
1.0016025641
 41
4.5072115385
  0
LINE
  5
2C5
100
AcDbEntity
  8
0
100
AcDbLine
 62
2
  6
CONTINUOUS
 10
16.2809292929
 20
50.8904260032
 11
11.91713328
 21
50.8904260032
  0
LINE
  5
2C6
100
AcDbEntity
  8
0
100
AcDbLine
 62
2
  6
CONTINUOUS
 10
16.9472939378
 20
45.6148354521
 11
11.91713328
 21
45.6148354521
  0
LINE
  5
2C7
100
AcDbEntity
  8
0
100
AcDbLine
 62
2
  6
CONTINUOUS
 10
12.7184153313
 20
50.8904260032
 11
12.7184153313
 21
54.0955542084
  0
LINE
  5
2C8
100
AcDbEntity
  8
0
100
AcDbLine
 62
2
  6
CONTINUOUS
 10
12.7184153313
 20
45.6148354521
 11
12.7184153313
 21
42.4097072469
  0
INSERT
  5
2C9
100
AcDbEntity
  8
0
100
AcDbBlockReference
 62
2
  6
CONTINUOUS
  2
_FILLED
 10
12.7184153313
 20
50.8904260032
 41
1.2019230769
 42
1.2019230769
 43
1.2019230769
 50
270.0
  0
INSERT
  5
2CA
100
AcDbEntity
  8
0
100
AcDbBlockReference
 62
2
  6
CONTINUOUS
  2
_FILLED
 10
12.7184153313
 20
45.6148354521
 41
1.2019230769
 42
1.2019230769
 43
1.2019230769
 50
90.0
  0
ENDBLK
  5
2CB
100
AcDbEntity
  8
0
  6
BYBLOCK
 62
0
100
AcDbBlockEnd
  0
BLOCK
  5
2CC
100
AcDbEntity
  8
0
100
AcDbBlockBegin
 62
2
  6
CONTINUOUS
  2
*D9
 70
65
 10
0.0
 20
0.0
  3
*D9
  1

  0
MTEXT
  5
2CD
100
AcDbEntity
  8
0
100
AcDbMText
 62
2
  6
CONTINUOUS
  7
STANDARD
 71
2
 72
1
 10
6.4032007479
 20
49.6644670654
 30
0.0
 11
1.0
 21
0.0
 31
0.0
 44
0.9
  1
146\P[5.7]
 40
1.0016025641
 41
2.933264652
  0
LINE
  5
2CE
100
AcDbEntity
  8
0
100
AcDbLine
 62
2
  6
CONTINUOUS
 10
17.6982521276
 20
51.1266464757
 11
5.9954054182
 21
51.1266464757
  0
LINE
  5
2CF
100
AcDbEntity
  8
0
100
AcDbLine
 62
2
  6
CONTINUOUS
 10
17.6982521276
 20
45.3786149796
 11
5.9954054182
 21
45.3786149796
  0
LINE
  5
2D0
100
AcDbEntity
  8
0
100
AcDbLine
 62
2
  6
CONTINUOUS
 10
6.7966874695
 20
51.1266464757
 11
6.7966874695
 21
54.3317746808
  0
LINE
  5
2D1
100
AcDbEntity
  8
0
100
AcDbLine
 62
2
  6
CONTINUOUS
 10
6.7966874695
 20
45.3786149796
 11
6.7966874695
 21
42.1734867745
  0
INSERT
  5
2D2
100
AcDbEntity
  8
0
100
AcDbBlockReference
 62
2
  6
CONTINUOUS
  2
_FILLED
 10
6.7966874695
 20
51.1266464757
 41
1.2019230769
 42
1.2019230769
 43
1.2019230769
 50
270.0
  0
INSERT
  5
2D3
100
AcDbEntity
  8
0
100
AcDbBlockReference
 62
2
  6
CONTINUOUS
  2
_FILLED
 10
6.7966874695
 20
45.3786149796
 41
1.2019230769
 42
1.2019230769
 43
1.2019230769
 50
90.0
  0
ENDBLK
  5
2D4
100
AcDbEntity
  8
0
  6
BYBLOCK
 62
0
100
AcDbBlockEnd
  0
BLOCK
  5
2D5
100
AcDbEntity
  8
0
100
AcDbBlockBegin
 62
2
  6
CONTINUOUS
  2
*D10
 70
65
 10
0.0
 20
0.0
  3
*D10
  1

  0
MTEXT
  5
2D6
100
AcDbEntity
  8
0
100
AcDbMText
 62
2
  6
CONTINUOUS
  7
STANDARD
 71
1
 72
1
 10
23.3729805657
 20
53.8064751183
 30
0.0
 11
1.0
 21
0.0
 31
0.0
 44
0.9
  1
4X \Fgdt;{\Fgdt;n}\Ftxt;7\P[.3]
 40
1.0016025641
 41
4.5549068987
  0
LINE
  5
2D7
100
AcDbEntity
  8
0
100
AcDbLine
 62
2
  6
CONTINUOUS
 10
20.2582771559
 20
51.0055675438
 11
21.7704164631
 21
53.3056738362
  0
LINE
  5
2D8
100
AcDbEntity
  8
0
100
AcDbLine
 62
2
  6
CONTINUOUS
 10
21.7704164631
 20
53.3056738362
 11
22.8721792836
 21
53.3056738362
  0
INSERT
  5
2D9
100
AcDbEntity
  8
0
100
AcDbBlockReference
 62
2
  6
CONTINUOUS
  2
_FILLED
 10
20.2582771559
 20
51.0055675438
 41
1.2019230769
 42
1.2019230769
 43
1.2019230769
 50
236.6782209244
  0
ENDBLK
  5
2DA
100
AcDbEntity
  8
0
  6
BYBLOCK
 62
0
100
AcDbBlockEnd
  0
BLOCK
  5
2DB
100
AcDbEntity
  8
0
100
AcDbBlockBegin
 62
2
  6
CONTINUOUS
  2
*D11
 70
65
 10
0.0
 20
0.0
  3
*D11
  1

  0
MTEXT
  5
2DC
100
AcDbEntity
  8
0
100
AcDbMText
 62
2
  6
CONTINUOUS
  7
STANDARD
 71
1
 72
1
 10
26.1813158686
 20
39.373105545
 30
0.0
 11
1.0
 21
0.0
 31
0.0
 44
0.9
  1
4X 27\P[1.1]
 40
1.0016025641
 41
4.0064102564
  0
LINE
  5
2DD
100
AcDbEntity
  8
0
100
AcDbLine
 62
2
  6
CONTINUOUS
 10
20.6927551734
 20
42.8195598615
 11
25.3800338173
 21
42.8195598615
  0
LINE
  5
2DE
100
AcDbEntity
  8
0
100
AcDbLine
 62
2
  6
CONTINUOUS
 10
20.6927551734
 20
41.7565677355
 11
25.3800338173
 21
41.7565677355
  0
LINE
  5
2DF
100
AcDbEntity
  8
0
100
AcDbLine
 62
2
  6
CONTINUOUS
 10
24.578751766
 20
42.8195598615
 11
24.578751766
 21
46.0246880666
  0
LINE
  5
2E0
100
AcDbEntity
  8
0
100
AcDbLine
 62
2
  6
CONTINUOUS
 10
24.578751766
 20
41.7565677355
 11
24.578751766
 21
38.8723042629
  0
LINE
  5
2E1
100
AcDbEntity
  8
0
100
AcDbLine
 62
2
  6
CONTINUOUS
 10
24.578751766
 20
38.8723042629
 11
25.6805145865
 21
38.8723042629
  0
INSERT
  5
2E2
100
AcDbEntity
  8
0
100
AcDbBlockReference
 62
2
  6
CONTINUOUS
  2
_FILLED
 10
24.578751766
 20
42.8195598615
 41
1.2019230769
 42
1.2019230769
 43
1.2019230769
 50
270.0
  0
INSERT
  5
2E3
100
AcDbEntity
  8
0
100
AcDbBlockReference
 62
2
  6
CONTINUOUS
  2
_FILLED
 10
24.578751766
 20
41.7565677355
 41
1.2019230769
 42
1.2019230769
 43
1.2019230769
 50
90.0
  0
ENDBLK
  5
2E4
100
AcDbEntity
  8
0
  6
BYBLOCK
 62
0
100
AcDbBlockEnd
  0
BLOCK
  5
2E5
100
AcDbEntity
  8
0
100
AcDbBlockBegin
 62
2
  6
CONTINUOUS
  2
*D12
 70
65
 10
0.0
 20
0.0
  3
*D12
  1

  0
MTEXT
  5
2E6
100
AcDbEntity
  8
0
100
AcDbMText
 62
2
  6
CONTINUOUS
  7
STANDARD
 71
3
 72
1
 10
12.4373778617
 20
62.54342268
 30
0.0
 11
1.0
 21
0.0
 31
0.0
 44
0.9
  1
2X 72\P[2.8]
 40
1.0016025641
 41
4.0064102564
  0
LINE
  5
2E7
100
AcDbEntity
  8
0
100
AcDbLine
 62
2
  6
CONTINUOUS
 10
17.3479349635
 20
51.9574316738
 11
17.3479349635
 21
62.8439034493
  0
LINE
  5
2E8
100
AcDbEntity
  8
0
100
AcDbLine
 62
2
  6
CONTINUOUS
 10
20.1825806328
 20
51.9574316738
 11
20.1825806328
 21
62.8439034493
  0
LINE
  5
2E9
100
AcDbEntity
  8
0
100
AcDbLine
 62
2
  6
CONTINUOUS
 10
17.3479349635
 20
62.042621398
 11
14.3690399497
 21
62.042621398
  0
LINE
  5
2EA
100
AcDbEntity
  8
0
100
AcDbLine
 62
2
  6
CONTINUOUS
 10
20.1825806328
 20
62.042621398
 11
23.3877088379
 21
62.042621398
  0
INSERT
  5
2EB
100
AcDbEntity
  8
0
100
AcDbBlockReference
 62
2
  6
CONTINUOUS
  2
_FILLED
 10
17.3479349635
 20
62.042621398
 41
1.2019230769
 42
1.2019230769
 43
1.2019230769
  0
INSERT
  5
2EC
100
AcDbEntity
  8
0
100
AcDbBlockReference
 62
2
  6
CONTINUOUS
  2
_FILLED
 10
20.1825806328
 20
62.042621398
 41
1.2019230769
 42
1.2019230769
 43
1.2019230769
 50
180.0
  0
ENDBLK
  5
2ED
100
AcDbEntity
  8
0
  6
BYBLOCK
 62
0
100
AcDbBlockEnd
  0
BLOCK
  5
2EE
100
AcDbEntity
  8
0
100
AcDbBlockBegin
 62
2
  6
CONTINUOUS
  2
*D13
 70
65
 10
0.0
 20
0.0
  3
*D13
  1

  0
MTEXT
  5
2EF
100
AcDbEntity
  8
0
100
AcDbMText
 62
2
  6
CONTINUOUS
  7
STANDARD
 71
2
 72
1
 10
33.6734043588
 20
50.2961541104
 30
0.0
 11
1.0
 21
0.0
 31
0.0
 44
0.9
  1
2X 330\P[13.0]
 40
1.0016025641
 41
4.650297619
  0
LINE
  5
2F0
100
AcDbEntity
  8
0
100
AcDbLine
 62
2
  6
CONTINUOUS
 10
20.6927551734
 20
54.7486937198
 11
35.1185737727
 21
54.7486937198
  0
LINE
  5
2F1
100
AcDbEntity
  8
0
100
AcDbLine
 62
2
  6
CONTINUOUS
 10
20.6927551734
 20
41.7565677355
 11
35.1185737727
 21
41.7565677355
  0
LINE
  5
2F2
100
AcDbEntity
  8
0
100
AcDbLine
 62
2
  6
CONTINUOUS
 10
34.3172917214
 20
54.7486937198
 11
34.3172917214
 21
50.7969553924
  0
LINE
  5
2F3
100
AcDbEntity
  8
0
100
AcDbLine
 62
2
  6
CONTINUOUS
 10
34.3172917214
 20
41.7565677355
 11
34.3172917214
 21
47.2913464181
  0
INSERT
  5
2F4
100
AcDbEntity
  8
0
100
AcDbBlockReference
 62
2
  6
CONTINUOUS
  2
_FILLED
 10
34.3172917214
 20
54.7486937198
 41
1.2019230769
 42
1.2019230769
 43
1.2019230769
 50
90.0
  0
INSERT
  5
2F5
100
AcDbEntity
  8
0
100
AcDbBlockReference
 62
2
  6
CONTINUOUS
  2
_FILLED
 10
34.3172917214
 20
41.7565677355
 41
1.2019230769
 42
1.2019230769
 43
1.2019230769
 50
270.0
  0
ENDBLK
  5
2F6
100
AcDbEntity
  8
0
  6
BYBLOCK
 62
0
100
AcDbBlockEnd
  0
ENDSEC
  0
SECTION
  2
ENTITIES
  0
MTEXT
  5
2F7
100
AcDbEntity
  8
0
100
AcDbMText
 62
2
  6
CONTINUOUS
  7
STANDARD
 71
1
 72
1
 10
15.8400199415
 20
2.5841270925
 30
0.0
 11
1.0
 21
0.0
 31
0.0
 44
0.9
  1
4
 40
1.0016025641
 41
0.7869734432
  0
MTEXT
  5
2F8
100
AcDbEntity
  8
0
100
AcDbMText
 62
2
  6
CONTINUOUS
  7
STANDARD
 71
1
 72
1
 10
40.667658852
 20
2.5794412872
 30
0.0
 11
1.0
 21
0.0
 31
0.0
 44
0.9
  1
3
 40
1.0016025641
 41
0.7154304029
  0
MTEXT
  5
2F9
100
AcDbEntity
  8
0
100
AcDbMText
 62
2
  6
CONTINUOUS
  7
STANDARD
 71
1
 72
1
 10
65.4378004074
 20
2.5815730832
 30
0.0
 11
1.0
 21
0.0
 31
0.0
 44
0.9
  1
2
 40
1.0016025641
 41
0.7869734432
  0
MTEXT
  5
2FA
100
AcDbEntity
  8
0
100
AcDbMText
 62
2
  6
CONTINUOUS
  7
STANDARD
 71
1
 72
1
 10
90.2544762338
 20
2.5816805532
 30
0.0
 11
1.0
 21
0.0
 31
0.0
 44
0.9
  1
1
 40
1.0016025641
 41
0.5723443223
  0
MTEXT
  5
2FB
100
AcDbEntity
  8
0
100
AcDbMText
 62
2
  6
CONTINUOUS
  7
STANDARD
 71
1
 72
1
 10
15.8435696883
 20
69.676657022
 30
0.0
 11
1.0
 21
0.0
 31
0.0
 44
0.9
  1
4
 40
1.0016025641
 41
0.7869734432
  0
MTEXT
  5
2FC
100
AcDbEntity
  8
0
100
AcDbMText
 62
2
  6
CONTINUOUS
  7
STANDARD
 71
1
 72
1
 10
40.657855983
 20
69.6692117415
 30
0.0
 11
1.0
 21
0.0
 31
0.0
 44
0.9
  1
3
 40
1.0016025641
 41
0.7154304029
  0
MTEXT
  5
2FD
100
AcDbEntity
  8
0
100
AcDbMText
 62
2
  6
CONTINUOUS
  7
STANDARD
 71
1
 72
1
 10
65.4495632618
 20
69.6679528511
 30
0.0
 11
1.0
 21
0.0
 31
0.0
 44
0.9
  1
2
 40
1.0016025641
 41
0.7869734432
  0
MTEXT
  5
2FE
100
AcDbEntity
  8
0
100
AcDbMText
 62
2
  6
CONTINUOUS
  7
STANDARD
 71
1
 72
1
 10
90.2555899036
 20
69.6688555995
 30
0.0
 11
1.0
 21
0.0
 31
0.0
 44
0.9
  1
1
 40
1.0016025641
 41
0.5723443223
  0
MTEXT
  5
2FF
100
AcDbEntity
  8
0
100
AcDbMText
 62
2
  6
CONTINUOUS
  7
STANDARD
 71
1
 72
1
 10
1.6299241446
 20
11.9185660847
 30
0.0
 11
1.0
 21
0.0
 31
0.0
 44
0.9
  1
A
 40
1.0016025641
 41
0.8585164835
  0
MTEXT
  5
300
100
AcDbEntity
  8
0
100
AcDbMText
 62
2
  6
CONTINUOUS
  7
STANDARD
 71
1
 72
1
 10
1.6650463506
 20
27.9504526428
 30
0.0
 11
1.0
 21
0.0
 31
0.0
 44
0.9
  1
B
 40
1.0016025641
 41
0.7869734432
  0
MTEXT
  5
301
100
AcDbEntity
  8
0
100
AcDbMText
 62
2
  6
CONTINUOUS
  7
STANDARD
 71
1
 72
1
 10
1.6557631832
 20
43.9608978426
 30
0.0
 11
1.0
 21
0.0
 31
0.0
 44
0.9
  1
C
 40
1.0016025641
 41
0.8346688034
  0
MTEXT
  5
302
100
AcDbEntity
  8
0
100
AcDbMText
 62
2
  6
CONTINUOUS
  7
STANDARD
 71
1
 72
1
 10
1.6691779778
 20
60.0135108947
 30
0.0
 11
1.0
 21
0.0
 31
0.0
 44
0.9
  1
D
 40
1.0016025641
 41
0.9062118437
  0
MTEXT
  5
303
100
AcDbEntity
  8
0
100
AcDbMText
 62
2
  6
CONTINUOUS
  7
STANDARD
 71
1
 72
1
 10
104.1692232078
 20
11.9166358309
 30
0.0
 11
1.0
 21
0.0
 31
0.0
 44
0.9
  1
A
 40
1.0016025641
 41
0.8585164835
  0
MTEXT
  5
304
100
AcDbEntity
  8
0
100
AcDbMText
 62
2
  6
CONTINUOUS
  7
STANDARD
 71
1
 72
1
 10
104.1632491089
 20
27.9482893707
 30
0.0
 11
1.0
 21
0.0
 31
0.0
 44
0.9
  1
B
 40
1.0016025641
 41
0.7869734432
  0
MTEXT
  5
305
100
AcDbEntity
  8
0
100
AcDbMText
 62
2
  6
CONTINUOUS
  7
STANDARD
 71
1
 72
1
 10
104.1605962068
 20
43.957383078
 30
0.0
 11
1.0
 21
0.0
 31
0.0
 44
0.9
  1
C
 40
1.0016025641
 41
0.8346688034
  0
MTEXT
  5
306
100
AcDbEntity
  8
0
100
AcDbMText
 62
2
  6
CONTINUOUS
  7
STANDARD
 71
1
 72
1
 10
104.1630434858
 20
60.0116590433
 30
0.0
 11
1.0
 21
0.0
 31
0.0
 44
0.9
  1
D
 40
1.0016025641
 41
0.9062118437
  0
MTEXT
  5
307
100
AcDbEntity
  8
0
100
AcDbMText
 62
5
  6
CONTINUOUS
  7
STANDARD
 71
1
 72
1
 10
3.4887522829
 20
67.0671296161
 30
0.0
 11
1.0
 21
0.0
 31
0.0
 44
0.9
  1
THIS DOCUMENT CONTAINS PROPRIETARY INFORMATION\PWHICH IS THE PROPERTY OF QSC AUDIO PRODUCTS, THAT\PMAY NOT BE DISCLOSED, REPRODUCED OR USED WITHOUT\PEXPRESS WRITTEN CONSENT FROM QSC AUDIO PRODUCTS.
 40
0.4807692308
 41
18.8644688645
  0
MTEXT
  5
308
100
AcDbEntity
  8
0
100
AcDbMText
 62
2
  6
CONTINUOUS
  7
STANDARD
 71
2
 72
1
 10
46.3778671742
 20
16.6152916578
 30
0.0
 11
1.0
 21
0.0
 31
0.0
 44
0.9
  1
TOLERANCES ARE:
 40
0.5769230769
 41
6.6071428571
  0
MTEXT
  5
309
100
AcDbEntity
  8
0
100
AcDbMText
 62
2
  6
CONTINUOUS
  7
STANDARD
 71
2
 72
1
 10
52.1108781691
 20
15.144235222
 30
0.0
 11
1.0
 21
0.0
 31
0.0
 44
0.9
  1
ANGLES\P\Fgdt;{\Fgdt;`}\Ftxt; 1/2
 40
0.5769230769
 41
2.7472527473
  0
MTEXT
  5
30A
100
AcDbEntity
  8
0
100
AcDbMText
 62
2
  6
CONTINUOUS
  7
STANDARD
 71
2
 72
1
 10
41.4033620564
 20
10.8091020357
 30
0.0
 11
1.0
 21
0.0
 31
0.0
 44
0.9
  1
MATERIAL
 40
0.5769230769
 41
3.6950549451
  0
MTEXT
  5
30B
100
AcDbEntity
  8
0
100
AcDbMText
 62
2
  6
CONTINUOUS
  7
STANDARD
 71
2
 72
1
 10
40.789357154
 20
6.9047860702
 30
0.0
 11
1.0
 21
0.0
 31
0.0
 44
0.9
  1
FINISH
 40
0.5769230769
 41
2.6236263736
  0
MTEXT
  5
30C
100
AcDbEntity
  8
0
100
AcDbMText
 62
2
  6
CONTINUOUS
  7
STANDARD
 71
2
 72
1
 10
85.0627712487
 20
4.3647600111
 30
0.0
 11
1.0
 21
0.0
 31
0.0
 44
0.9
  1
DO NOT SCALE DRAWING
 40
0.8012820513
 41
13.3165445665
  0
MTEXT
  5
30D
100
AcDbEntity
  8
0
100
AcDbMText
 62
2
  6
CONTINUOUS
  7
STANDARD
 71
2
 72
1
 10
55.2817102206
 20
17.4209395421
 30
0.0
 11
1.0
 21
0.0
 31
0.0
 44
0.9
  1
DRAWN
 40
0.5769230769
 41
2.8159340659
  0
MTEXT
  5
30E
100
AcDbEntity
  8
0
100
AcDbMText
 62
2
  6
CONTINUOUS
  7
STANDARD
 71
2
 72
1
 10
55.5068646059
 20
14.5795224001
 30
0.0
 11
1.0
 21
0.0
 31
0.0
 44
0.9
  1
CHECKED
 40
0.5769230769
 41
3.3241758242
  0
MTEXT
  5
30F
100
AcDbEntity
  8
0
100
AcDbMText
 62
2
  6
CONTINUOUS
  7
STANDARD
 71
2
 72
1
 10
55.4670841431
 20
11.7827515674
 30
0.0
 11
1.0
 21
0.0
 31
0.0
 44
0.9
  1
MFG ENG
 40
0.5769230769
 41
3.2417582418
  0
MTEXT
  5
310
100
AcDbEntity
  8
0
100
AcDbMText
 62
2
  6
CONTINUOUS
  7
STANDARD
 71
2
 72
1
 10
55.756299247
 20
8.9665663256
 30
0.0
 11
1.0
 21
0.0
 31
0.0
 44
0.9
  1
QA CHECK
 40
0.5769230769
 41
3.8324175824
  0
MTEXT
  5
311
100
AcDbEntity
  8
0
100
AcDbMText
 62
2
  6
CONTINUOUS
  7
STANDARD
 71
2
 72
1
 10
57.4136121819
 20
4.3333491593
 30
0.0
 11
1.0
 21
0.0
 31
0.0
 44
0.9
  1
MODEL INFO:
 40
0.5769230769
 41
4.7115384615
  0
MTEXT
  5
312
100
AcDbEntity
  8
0
100
AcDbMText
 62
2
  6
CONTINUOUS
  7
STANDARD
 71
2
 72
1
 10
56.8195570082
 20
5.8869297532
 30
0.0
 11
1.0
 21
0.0
 31
0.0
 44
0.9
  1
DRAWING INFO:
 40
0.5769230769
 41
5.989010989
  0
MTEXT
  5
313
100
AcDbEntity
  8
0
100
AcDbMText
 62
2
  6
CONTINUOUS
  7
STANDARD
 71
2
 72
1
 10
59.2392515742
 20
18.9503414405
 30
0.0
 11
1.0
 21
0.0
 31
0.0
 44
0.9
  1
APPROVALS
 40
0.5769230769
 41
4.217032967
  0
MTEXT
  5
314
100
AcDbEntity
  8
0
100
AcDbMText
 62
2
  6
CONTINUOUS
  7
STANDARD
 71
2
 72
1
 10
67.5901451573
 20
19.4561378534
 30
0.0
 11
1.0
 21
0.0
 31
0.0
 44
0.9
  1
DATE\P(DD-MMM-YY)
 40
0.5769230769
 41
4.8351648352
  0
MTEXT
  5
315
100
AcDbEntity
  8
0
100
AcDbMText
 62
2
  6
CONTINUOUS
  7
STANDARD
 71
2
 72
1
 10
72.0472088551
 20
4.2757713476
 30
0.0
 11
1.0
 21
0.0
 31
0.0
 44
0.9
  1
SCALE:
 40
0.5769230769
 41
2.5274725275
  0
MTEXT
  5
316
100
AcDbEntity
  8
0
100
AcDbMText
 62
2
  6
CONTINUOUS
  7
STANDARD
 71
2
 72
1
 10
93.6938636813
 20
4.2864159392
 30
0.0
 11
1.0
 21
0.0
 31
0.0
 44
0.9
  1
SHEET
 40
0.5769230769
 41
2.3351648352
  0
MTEXT
  5
317
100
AcDbEntity
  8
0
100
AcDbMText
 62
2
  6
CONTINUOUS
  7
STANDARD
 71
2
 72
1
 10
72.0639708383
 20
7.7585235084
 30
0.0
 11
1.0
 21
0.0
 31
0.0
 44
0.9
  1
SIZE
 40
0.5769230769
 41
1.7994505495
  0
MTEXT
  5
318
100
AcDbEntity
  8
0
100
AcDbMText
 62
2
  6
CONTINUOUS
  7
STANDARD
 71
2
 72
1
 10
76.8185744145
 20
7.7654900199
 30
0.0
 11
1.0
 21
0.0
 31
0.0
 44
0.9
  1
CAGE CODE
 40
0.5769230769
 41
4.271978022
  0
MTEXT
  5
319
100
AcDbEntity
  8
0
100
AcDbMText
 62
2
  6
CONTINUOUS
  7
STANDARD
 71
2
 72
1
 10
82.9548060771
 20
7.7521343956
 30
0.0
 11
1.0
 21
0.0
 31
0.0
 44
0.9
  1
DRAWING NO.
 40
0.5769230769
 41
5.3296703297
  0
MTEXT
  5
31A
100
AcDbEntity
  8
0
100
AcDbMText
 62
2
  6
CONTINUOUS
  7
STANDARD
 71
2
 72
1
 10
101.0393119195
 20
7.760730171
 30
0.0
 11
1.0
 21
0.0
 31
0.0
 44
0.9
  1
REV
 40
0.5769230769
 41
1.456043956
  0
MTEXT
  5
31B
100
AcDbEntity
  8
0
100
AcDbMText
 62
2
  6
CONTINUOUS
  7
STANDARD
 71
2
 72
1
 10
91.8852318152
 20
19.1493489371
 30
0.0
 11
1.0
 21
0.0
 31
0.0
 44
0.9
  1
QSC AUDIO PRODUCTS, LLC
 40
1.0016025641
 41
18.2434752747
  0
MTEXT
  5
31C
100
AcDbEntity
  8
0
100
AcDbMText
 62
2
  6
CONTINUOUS
  7
STANDARD
 71
1
 72
1
 10
82.7700795757
 20
17.6557061788
 30
0.0
 11
1.0
 21
0.0
 31
0.0
 44
0.9
  1
1675  MACARTHUR BOULEVARD\PCOSTA MESA, CA  92626
 40
0.8012820513
 41
15.9493284493
  0
MTEXT
  5
31D
100
AcDbEntity
  8
0
100
AcDbMText
 62
2
  6
CONTINUOUS
  7
STANDARD
 71
1
 72
1
 10
74.551977493
 20
6.3863877678
 30
0.0
 11
1.0
 21
0.0
 31
0.0
 44
0.9
  1
00PW4
 40
1.0016025641
 41
4.6979929792
  0
MTEXT
  5
31E
100
AcDbEntity
  8
0
100
AcDbMText
 62
2
  6
CONTINUOUS
  7
STANDARD
 71
2
 72
1
 10
46.5068517766
 20
19.0498874029
 30
0.0
 11
1.0
 21
0.0
 31
0.0
 44
0.9
  1
UNLESS OTHERWISE SPECIFIED\PDIMENSIONS IN MILLIMETERS [IN]
 40
0.641025641
 41
14.0415140415
  0
MTEXT
  5
31F
100
AcDbEntity
  8
0
100
AcDbMText
 62
2
  6
CONTINUOUS
  7
STANDARD
 71
2
 72
1
 10
41.8488959272
 20
15.1533026557
 30
0.0
 11
1.0
 21
0.0
 31
0.0
 44
0.9
  1
DECIMALS\P.X\Fgdt;{\Fgdt;`}\Ftxt;.5[.02]
 40
0.5769230769
 41
3.9697802198
  0
MTEXT
  5
320
100
AcDbEntity
  8
0
100
AcDbMText
 62
2
  6
CONTINUOUS
  7
STANDARD
 71
2
 72
1
 10
47.4410819729
 20
15.1563738048
 30
0.0
 11
1.0
 21
0.0
 31
0.0
 44
0.9
  1
DECIMALS\P.XX\Fgdt;{\Fgdt;`}\Ftxt;.25[.010]
 40
0.5769230769
 41
5.2472527473
  0
MTEXT
  5
321
100
AcDbEntity
  8
0
100
AcDbMText
 62
2
  6
CONTINUOUS
  7
STANDARD
 71
2
 72
1
 10
46.4139182629
 20
12.6382295936
 30
0.0
 11
1.0
 21
0.0
 31
0.0
 44
0.9
  1
DEBURR EDGES .25 [.010] R MAX
 40
0.5769230769
 41
12.5686813187
  0
INSERT
  5
322
100
AcDbEntity
  8
0
100
AcDbBlockReference
 62
7
  6
CONTINUOUS
  2
SYMBOL_0_BL0
 10
76.2103865308
 20
17.3148119562
  0
DIMENSION
  5
323
100
AcDbEntity
  8
0
100
AcDbDimension
 62
2
  6
CONTINUOUS
  2
*D0
 10
49.8842265937
 20
31.1725707058
 11
43.9346883132
 21
33.8806070303
 70
163
 71
3
 42
12.0
  1
<>
  3
DIMSTYLE_1
100
AcDbDiametricDimension
 15
50.0949324477
 25
30.7497190894
  0
DIMENSION
  5
324
100
AcDbEntity
  8
0
100
AcDbDimension
 62
2
  6
CONTINUOUS
  2
*D1
 10
58.6328866073
 20
26.9513629878
 11
53.6136884212
 21
26.2001610648
 70
160
 71
2
 42
219.54
  3
DIMSTYLE_2
100
AcDbAlignedDimension
 13
49.9895795207
 23
29.8941392271
 14
58.6328866073
 24
28.6270393051
100
AcDbRotatedDimension
  0
DIMENSION
  5
325
100
AcDbEntity
  8
0
100
AcDbDimension
 62
2
  6
CONTINUOUS
  2
*D2
 10
48.1785558987
 20
22.8816782907
 11
52.7081766102
 21
22.1304763676
 70
160
 71
2
 42
265.54
  3
DIMSTYLE_2
100
AcDbAlignedDimension
 13
58.6328866073
 23
28.6270393051
 14
48.1785558987
 24
30.560503872
 50
180.0
100
AcDbRotatedDimension
  0
DIMENSION
  5
326
100
AcDbEntity
  8
0
100
AcDbDimension
 62
2
  6
CONTINUOUS
  2
*D3
 10
63.2175949349
 20
28.8942157638
 11
62.5915933323
 21
31.0595482379
 70
160
 71
2
 42
105.0
  3
DIMSTYLE_2
100
AcDbAlignedDimension
 13
58.9000630661
 23
33.0280740315
 14
58.9000630661
 24
28.8942157638
 50
270.0
100
AcDbRotatedDimension
  0
DIMENSION
  5
327
100
AcDbEntity
  8
0
100
AcDbDimension
 62
2
  6
CONTINUOUS
  2
*D4
 10
43.3305871422
 20
36.898300019
 11
42.6509282594
 21
47.5014288046
 70
160
 71
2
 42
576.8
  3
DIMSTYLE_2
100
AcDbAlignedDimension
 13
47.8162146551
 23
59.6069614363
 14
47.8909683351
 24
36.898300019
 50
270.0
100
AcDbRotatedDimension
  0
DIMENSION
  5
328
100
AcDbEntity
  8
0
100
AcDbDimension
 62
2
  6
CONTINUOUS
  2
*D5
 10
18.9998689054
 20
48.3548327789
 11
26.2398767213
 21
48.7868284086
 70
163
 71
1
 42
13.0
  1
3X <>
  3
DIMSTYLE_1
100
AcDbDiametricDimension
 15
18.5306466908
 25
48.1504286764
  0
DIMENSION
  5
329
100
AcDbEntity
  8
0
100
AcDbDimension
 62
2
  6
CONTINUOUS
  2
*D6
 10
17.8794310265
 20
34.0254650802
 11
9.9356761373
 21
33.2742631572
 70
160
 71
3
 42
45.0
  1
4X <>
  3
DIMSTYLE_2
100
AcDbAlignedDimension
 13
19.6510845698
 23
40.7148971319
 14
17.8794310265
 24
40.7148971319
 50
180.0
100
AcDbRotatedDimension
  0
DIMENSION
  5
32A
100
AcDbEntity
  8
0
100
AcDbDimension
 62
2
  6
CONTINUOUS
  2
*D7
 10
19.8479349635
 20
30.8631582838
 11
25.977581684
 21
30.1119563607
 70
160
 71
1
 42
10.0
  1
4X <>
  3
DIMSTYLE_2
100
AcDbAlignedDimension
 13
19.4542341761
 23
41.3559267099
 14
19.8479349635
 24
41.3559267099
100
AcDbRotatedDimension
  0
DIMENSION
  5
32B
100
AcDbEntity
  8
0
100
AcDbDimension
 62
2
  6
CONTINUOUS
  2
*D8
 10
12.7184153313
 20
45.6148354521
 11
12.0029849284
 21
48.3473899277
 70
160
 71
2
 42
134.0
  1
2X <>
  3
DIMSTYLE_2
100
AcDbAlignedDimension
 13
16.2809292929
 23
50.8904260032
 14
16.9472939378
 24
45.6148354521
 50
270.0
100
AcDbRotatedDimension
  0
DIMENSION
  5
32C
100
AcDbEntity
  8
0
100
AcDbDimension
 62
2
  6
CONTINUOUS
  2
*D9
 10
6.7966874695
 20
45.3786149796
 11
6.1528001069
 21
48.4124638602
 70
160
 71
2
 42
146.0
  3
DIMSTYLE_2
100
AcDbAlignedDimension
 13
17.6982521276
 23
51.1266464757
 14
17.6982521276
 24
45.3786149796
 50
270.0
100
AcDbRotatedDimension
  0
DIMENSION
  5
32D
100
AcDbEntity
  8
0
100
AcDbDimension
 62
2
  6
CONTINUOUS
  2
*D10
 10
20.2582771559
 20
51.0055675438
 11
26.3300928978
 21
52.5544719132
 70
163
 71
1
 42
7.0
  1
4X <>
  3
DIMSTYLE_1
100
AcDbDiametricDimension
 15
20.1068841096
 25
50.7752844627
  0
DIMENSION
  5
32E
100
AcDbEntity
  8
0
100
AcDbDimension
 62
2
  6
CONTINUOUS
  2
*D11
 10
24.578751766
 20
41.7565677355
 11
28.6853222788
 21
38.1211023398
 70
160
 71
1
 42
27.0
  1
4X <>
  3
DIMSTYLE_2
100
AcDbAlignedDimension
 13
20.6927551734
 23
42.8195598615
 14
20.6927551734
 24
41.7565677355
 50
270.0
100
AcDbRotatedDimension
  0
DIMENSION
  5
32F
100
AcDbEntity
  8
0
100
AcDbDimension
 62
2
  6
CONTINUOUS
  2
*D12
 10
20.1825806328
 20
62.042621398
 11
9.7187423306
 21
61.2914194749
 70
160
 71
3
 42
72.0
  1
2X <>
  3
DIMSTYLE_2
100
AcDbAlignedDimension
 13
17.3479349635
 23
51.9574316738
 14
20.1825806328
 24
51.9574316738
100
AcDbRotatedDimension
  0
DIMENSION
  5
330
100
AcDbEntity
  8
0
100
AcDbDimension
 62
2
  6
CONTINUOUS
  2
*D13
 10
34.3172917214
 20
41.7565677355
 11
33.6018613185
 21
49.0441509052
 70
160
 71
2
 42
330.0
  1
2X <>
  3
DIMSTYLE_2
100
AcDbAlignedDimension
 13
20.6927551734
 23
54.7486937198
 14
20.6927551734
 24
41.7565677355
 50
270.0
100
AcDbRotatedDimension
  0
LWPOLYLINE
  5
331
100
AcDbEntity
  8
0
100
AcDbPolyline
 62
2
  6
CONTINUOUS
 90
2
 70
0
 43
0.1282051282
 10
102.608793151
 20
67.2901515316
 10
37.9773828945
 20
67.2901515316
  0
LWPOLYLINE
  5
332
100
AcDbEntity
  8
0
100
AcDbPolyline
 62
2
  6
CONTINUOUS
 90
2
 70
0
 43
0.1282051282
 10
102.5446905869
 20
67.2901515316
 10
102.5446905869
 20
61.280536147
  0
LWPOLYLINE
  5
333
100
AcDbEntity
  8
0
100
AcDbPolyline
 62
2
  6
CONTINUOUS
 90
2
 70
0
 43
0.1282051282
 10
102.5446905869
 20
65.2869464034
 10
38.0414854586
 20
65.2869464034
  0
LWPOLYLINE
  5
334
100
AcDbEntity
  8
0
100
AcDbPolyline
 62
2
  6
CONTINUOUS
 90
2
 70
0
 43
0.1282051282
 10
102.5446905869
 20
63.2837412752
 10
38.0414854586
 20
63.2837412752
  0
LWPOLYLINE
  5
335
100
AcDbEntity
  8
0
100
AcDbPolyline
 62
2
  6
CONTINUOUS
 90
2
 70
0
 43
0.1282051282
 10
102.608793151
 20
61.280536147
 10
37.9773828945
 20
61.280536147
  0
LWPOLYLINE
  5
336
100
AcDbEntity
  8
0
100
AcDbPolyline
 62
2
  6
CONTINUOUS
 90
2
 70
0
 43
0.1282051282
 10
97.7369982792
 20
65.2869464034
 10
97.7369982792
 20
61.280536147
  0
LWPOLYLINE
  5
337
100
AcDbEntity
  8
0
100
AcDbPolyline
 62
2
  6
CONTINUOUS
 90
2
 70
0
 43
0.1282051282
 10
90.5254598176
 20
65.2869464034
 10
90.5254598176
 20
61.280536147
  0
LWPOLYLINE
  5
338
100
AcDbEntity
  8
0
100
AcDbPolyline
 62
2
  6
CONTINUOUS
 90
2
 70
0
 43
0.1282051282
 10
87.3203316125
 20
65.2869464034
 10
87.3203316125
 20
61.280536147
  0
LWPOLYLINE
  5
339
100
AcDbEntity
  8
0
100
AcDbPolyline
 62
2
  6
CONTINUOUS
 90
2
 70
0
 43
0.1282051282
 10
46.4549469971
 20
65.2869464034
 10
46.4549469971
 20
61.280536147
  0
LWPOLYLINE
  5
33A
100
AcDbEntity
  8
0
100
AcDbPolyline
 62
2
  6
CONTINUOUS
 90
2
 70
0
 43
0.1282051282
 10
41.2466136638
 20
65.2869464034
 10
41.2466136638
 20
61.280536147
  0
LWPOLYLINE
  5
33B
100
AcDbEntity
  8
0
100
AcDbPolyline
 62
2
  6
CONTINUOUS
 90
2
 70
0
 43
0.1282051282
 10
38.0414854586
 20
67.2901515316
 10
38.0414854586
 20
61.280536147
  0
MTEXT
  5
33C
100
AcDbEntity
  8
0
100
AcDbMText
 62
2
  6
CONTINUOUS
  7
STANDARD
 71
2
 72
1
 10
70.2930880228
 20
66.7893502496
 30
0.0
 11
1.0
 21
0.0
 31
0.0
 44
0.9
  1
REVISIONS
 40
1.0016025641
 41
6.7727411477
  0
MTEXT
  5
33D
100
AcDbEntity
  8
0
100
AcDbMText
 62
2
  6
CONTINUOUS
  7
STANDARD
 71
2
 72
1
 10
100.140844433
 20
64.7853438393
 30
0.0
 11
1.0
 21
0.0
 31
0.0
 44
0.9
  1
ISSUED
 40
1.0
 41
4.619047619
  0
MTEXT
  5
33E
100
AcDbEntity
  8
0
100
AcDbMText
 62
2
  6
CONTINUOUS
  7
STANDARD
 71
2
 72
1
 10
94.1312290484
 20
64.7853438393
 30
0.0
 11
1.0
 21
0.0
 31
0.0
 44
0.9
  1
EFF DATE
 40
1.0
 41
6.2619047619
  0
MTEXT
  5
33F
100
AcDbEntity
  8
0
100
AcDbMText
 62
2
  6
CONTINUOUS
  7
STANDARD
 71
2
 72
1
 10
88.9228957151
 20
64.7861451214
 30
0.0
 11
1.0
 21
0.0
 31
0.0
 44
0.9
  1
BY
 40
1.0016025641
 41
1.6454899267
  0
MTEXT
  5
340
100
AcDbEntity
  8
0
100
AcDbMText
 62
2
  6
CONTINUOUS
  7
STANDARD
 71
2
 72
1
 10
66.8876393048
 20
64.7853438393
 30
0.0
 11
1.0
 21
0.0
 31
0.0
 44
0.9
  1
DESCRIPTION
 40
1.0
 41
8.5238095238
  0
MTEXT
  5
341
100
AcDbEntity
  8
0
100
AcDbMText
 62
2
  6
CONTINUOUS
  7
STANDARD
 71
2
 72
1
 10
43.8507803304
 20
64.7861451214
 30
0.0
 11
1.0
 21
0.0
 31
0.0
 44
0.9
  1
ECO
 40
1.0016025641
 41
2.3370726496
  0
MTEXT
  5
342
100
AcDbEntity
  8
0
100
AcDbMText
 62
2
  6
CONTINUOUS
  7
STANDARD
 71
2
 72
1
 10
39.6440495612
 20
64.7853438393
 30
0.0
 11
1.0
 21
0.0
 31
0.0
 44
0.9
  1
REV
 40
1.0
 41
2.3333333333
  0
MTEXT
  5
343
100
AcDbEntity
  8
0
100
AcDbMText
 62
2
  6
CONTINUOUS
  7
STANDARD
 71
2
 72
1
 10
100.140844433
 20
62.7829399932
 30
0.0
 11
1.0
 21
0.0
 31
0.0
 44
0.9
  1
-
 40
1.0016025641
 41
0.9062118437
  0
MTEXT
  5
344
100
AcDbEntity
  8
0
100
AcDbMText
 62
2
  6
CONTINUOUS
  7
STANDARD
 71
2
 72
1
 10
94.1312290484
 20
62.7829399932
 30
0.0
 11
1.0
 21
0.0
 31
0.0
 44
0.9
  1
19-NOV-12
 40
1.0016025641
 41
6.7488934676
  0
MTEXT
  5
345
100
AcDbEntity
  8
0
100
AcDbMText
 62
2
  6
CONTINUOUS
  7
STANDARD
 71
2
 72
1
 10
88.9228957151
 20
62.7829399932
 30
0.0
 11
1.0
 21
0.0
 31
0.0
 44
0.9
  1
 JD 
 40
1.0016025641
 41
3.3148275336
  0
MTEXT
  5
346
100
AcDbEntity
  8
0
100
AcDbMText
 62
2
  6
CONTINUOUS
  7
STANDARD
 71
1
 72
1
 10
46.8555880228
 20
62.7829399932
 30
0.0
 11
1.0
 21
0.0
 31
0.0
 44
0.9
  1
RELEASE
 40
1.0016025641
 41
5.4134233822
  0
MTEXT
  5
347
100
AcDbEntity
  8
0
100
AcDbMText
 62
2
  6
CONTINUOUS
  7
STANDARD
 71
2
 72
1
 10
43.8507803304
 20
62.7829399932
 30
0.0
 11
1.0
 21
0.0
 31
0.0
 44
0.9
  1
-
 40
1.0016025641
 41
0.9062118437
  0
MTEXT
  5
348
100
AcDbEntity
  8
0
100
AcDbMText
 62
2
  6
CONTINUOUS
  7
STANDARD
 71
2
 72
1
 10
39.6440495612
 20
62.7829399932
 30
0.0
 11
1.0
 21
0.0
 31
0.0
 44
0.9
  1
A
 40
1.0016025641
 41
1.0492979243
  0
LINE
  5
349
100
AcDbEntity
  8
0
100
AcDbLine
 62
2
  6
CONTINUOUS
 10
39.2628205128
 20
11.2179487179
 11
53.6858974359
 21
11.2179487179
  0
LINE
  5
34A
100
AcDbEntity
  8
0
100
AcDbLine
 62
2
  6
CONTINUOUS
 10
39.2628205128
 20
11.2179487179
 11
39.2628205128
 21
7.2115384615
  0
LINE
  5
34B
100
AcDbEntity
  8
0
100
AcDbLine
 62
2
  6
CONTINUOUS
 10
39.2628205128
 20
7.2115384615
 11
53.6858974359
 21
7.2115384615
  0
LINE
  5
34C
100
AcDbEntity
  8
0
100
AcDbLine
 62
2
  6
CONTINUOUS
 10
53.6858974359
 20
11.2179487179
 11
53.6858974359
 21
7.2115384615
  0
LINE
  5
34D
100
AcDbEntity
  8
0
100
AcDbLine
 62
2
  6
CONTINUOUS
 10
39.2628205128
 20
7.2115384615
 11
53.6858974359
 21
7.2115384615
  0
LINE
  5
34E
100
AcDbEntity
  8
0
100
AcDbLine
 62
2
  6
CONTINUOUS
 10
39.2628205128
 20
7.2115384615
 11
39.2628205128
 21
3.2051282051
  0
LINE
  5
34F
100
AcDbEntity
  8
0
100
AcDbLine
 62
2
  6
CONTINUOUS
 10
39.2628205128
 20
3.2051282051
 11
53.6858974359
 21
3.2051282051
  0
LINE
  5
350
100
AcDbEntity
  8
0
100
AcDbLine
 62
2
  6
CONTINUOUS
 10
53.6858974359
 20
7.2115384615
 11
53.6858974359
 21
3.2051282051
  0
LINE
  5
351
100
AcDbEntity
  8
0
100
AcDbLine
 62
2
  6
CONTINUOUS
 10
53.6858974359
 20
17.6282051282
 11
64.9038461538
 21
17.6282051282
  0
LINE
  5
352
100
AcDbEntity
  8
0
100
AcDbLine
 62
2
  6
CONTINUOUS
 10
53.6858974359
 20
17.6282051282
 11
53.6858974359
 21
14.8737980769
  0
LINE
  5
353
100
AcDbEntity
  8
0
100
AcDbLine
 62
2
  6
CONTINUOUS
 10
53.6858974359
 20
14.8737980769
 11
64.9038461538
 21
14.8737980769
  0
LINE
  5
354
100
AcDbEntity
  8
0
100
AcDbLine
 62
2
  6
CONTINUOUS
 10
64.9038461538
 20
17.6282051282
 11
64.9038461538
 21
14.8737980769
  0
MTEXT
  5
355
100
AcDbEntity
  8
0
100
AcDbMText
 62
2
  6
CONTINUOUS
  7
STANDARD
 71
1
 72
1
 10
54.0865384615
 20
16.3762019231
 30
0.0
 11
1.0
 21
0.0
 31
0.0
 44
0.9
  1
J. DELARM 
 40
1.0016025641
 41
7.559714591
  0
LINE
  5
356
100
AcDbEntity
  8
0
100
AcDbLine
 62
2
  6
CONTINUOUS
 10
53.6858974359
 20
14.8237179487
 11
64.9038461538
 21
14.8237179487
  0
LINE
  5
357
100
AcDbEntity
  8
0
100
AcDbLine
 62
2
  6
CONTINUOUS
 10
53.6858974359
 20
14.8237179487
 11
53.6858974359
 21
12.0032051282
  0
LINE
  5
358
100
AcDbEntity
  8
0
100
AcDbLine
 62
2
  6
CONTINUOUS
 10
53.6858974359
 20
12.0032051282
 11
64.9038461538
 21
12.0032051282
  0
LINE
  5
359
100
AcDbEntity
  8
0
100
AcDbLine
 62
2
  6
CONTINUOUS
 10
64.9038461538
 20
14.8237179487
 11
64.9038461538
 21
12.0032051282
  0
MTEXT
  5
35A
100
AcDbEntity
  8
0
100
AcDbMText
 62
2
  6
CONTINUOUS
  7
STANDARD
 71
1
 72
1
 10
54.0865384615
 20
13.5056089744
 30
0.0
 11
1.0
 21
0.0
 31
0.0
 44
0.9
  1
- 
 40
1.0016025641
 41
1.5024038462
  0
LINE
  5
35B
100
AcDbEntity
  8
0
100
AcDbLine
 62
2
  6
CONTINUOUS
 10
53.6858974359
 20
12.0192307692
 11
64.9038461538
 21
12.0192307692
  0
LINE
  5
35C
100
AcDbEntity
  8
0
100
AcDbLine
 62
2
  6
CONTINUOUS
 10
53.6858974359
 20
12.0192307692
 11
53.6858974359
 21
9.2648237179
  0
LINE
  5
35D
100
AcDbEntity
  8
0
100
AcDbLine
 62
2
  6
CONTINUOUS
 10
53.6858974359
 20
9.2648237179
 11
64.9038461538
 21
9.2648237179
  0
LINE
  5
35E
100
AcDbEntity
  8
0
100
AcDbLine
 62
2
  6
CONTINUOUS
 10
64.9038461538
 20
12.0192307692
 11
64.9038461538
 21
9.2648237179
  0
MTEXT
  5
35F
100
AcDbEntity
  8
0
100
AcDbMText
 62
2
  6
CONTINUOUS
  7
STANDARD
 71
1
 72
1
 10
54.0865384615
 20
10.7672275641
 30
0.0
 11
1.0
 21
0.0
 31
0.0
 44
0.9
  1
-
 40
1.0016025641
 41
0.7154304029
  0
LINE
  5
360
100
AcDbEntity
  8
0
100
AcDbLine
 62
2
  6
CONTINUOUS
 10
53.6858974359
 20
9.2147435897
 11
64.9038461538
 21
9.2147435897
  0
LINE
  5
361
100
AcDbEntity
  8
0
100
AcDbLine
 62
2
  6
CONTINUOUS
 10
53.6858974359
 20
9.2147435897
 11
53.6858974359
 21
6.3942307692
  0
LINE
  5
362
100
AcDbEntity
  8
0
100
AcDbLine
 62
2
  6
CONTINUOUS
 10
53.6858974359
 20
6.3942307692
 11
64.9038461538
 21
6.3942307692
  0
LINE
  5
363
100
AcDbEntity
  8
0
100
AcDbLine
 62
2
  6
CONTINUOUS
 10
64.9038461538
 20
9.2147435897
 11
64.9038461538
 21
6.3942307692
  0
MTEXT
  5
364
100
AcDbEntity
  8
0
100
AcDbMText
 62
2
  6
CONTINUOUS
  7
STANDARD
 71
1
 72
1
 10
54.0865384615
 20
7.8966346154
 30
0.0
 11
1.0
 21
0.0
 31
0.0
 44
0.9
  1
-
 40
1.0016025641
 41
0.7154304029
  0
LINE
  5
365
100
AcDbEntity
  8
0
100
AcDbLine
 62
2
  6
CONTINUOUS
 10
64.9038461538
 20
17.6282051282
 11
70.5128205128
 21
17.6282051282
  0
LINE
  5
366
100
AcDbEntity
  8
0
100
AcDbLine
 62
2
  6
CONTINUOUS
 10
64.9038461538
 20
17.6282051282
 11
64.9038461538
 21
14.8076923077
  0
LINE
  5
367
100
AcDbEntity
  8
0
100
AcDbLine
 62
2
  6
CONTINUOUS
 10
64.9038461538
 20
14.8076923077
 11
70.5128205128
 21
14.8076923077
  0
LINE
  5
368
100
AcDbEntity
  8
0
100
AcDbLine
 62
2
  6
CONTINUOUS
 10
70.5128205128
 20
17.6282051282
 11
70.5128205128
 21
14.8076923077
  0
MTEXT
  5
369
100
AcDbEntity
  8
0
100
AcDbMText
 62
2
  6
CONTINUOUS
  7
STANDARD
 71
2
 72
1
 10
67.7083333333
 20
16.077724359
 30
0.0
 11
1.0
 21
0.0
 31
0.0
 44
0.9
  1
16-OCT-12
 40
0.7692307692
 41
5.0915750916
  0
LINE
  5
36A
100
AcDbEntity
  8
0
100
AcDbLine
 62
2
  6
CONTINUOUS
 10
64.9038461538
 20
14.8237179487
 11
70.5128205128
 21
14.8237179487
  0
LINE
  5
36B
100
AcDbEntity
  8
0
100
AcDbLine
 62
2
  6
CONTINUOUS
 10
64.9038461538
 20
14.8237179487
 11
64.9038461538
 21
12.0032051282
  0
LINE
  5
36C
100
AcDbEntity
  8
0
100
AcDbLine
 62
2
  6
CONTINUOUS
 10
64.9038461538
 20
12.0032051282
 11
70.5128205128
 21
12.0032051282
  0
LINE
  5
36D
100
AcDbEntity
  8
0
100
AcDbLine
 62
2
  6
CONTINUOUS
 10
70.5128205128
 20
14.8237179487
 11
70.5128205128
 21
12.0032051282
  0
MTEXT
  5
36E
100
AcDbEntity
  8
0
100
AcDbMText
 62
2
  6
CONTINUOUS
  7
STANDARD
 71
2
 72
1
 10
67.7083333333
 20
13.2732371795
 30
0.0
 11
1.0
 21
0.0
 31
0.0
 44
0.9
  1
-
 40
0.7692307692
 41
0.5494505495
  0
LINE
  5
36F
100
AcDbEntity
  8
0
100
AcDbLine
 62
2
  6
CONTINUOUS
 10
64.9038461538
 20
12.0192307692
 11
70.5128205128
 21
12.0192307692
  0
LINE
  5
370
100
AcDbEntity
  8
0
100
AcDbLine
 62
2
  6
CONTINUOUS
 10
64.9038461538
 20
12.0192307692
 11
64.9038461538
 21
9.1987179487
  0
LINE
  5
371
100
AcDbEntity
  8
0
100
AcDbLine
 62
2
  6
CONTINUOUS
 10
64.9038461538
 20
9.1987179487
 11
70.5128205128
 21
9.1987179487
  0
LINE
  5
372
100
AcDbEntity
  8
0
100
AcDbLine
 62
2
  6
CONTINUOUS
 10
70.5128205128
 20
12.0192307692
 11
70.5128205128
 21
9.1987179487
  0
MTEXT
  5
373
100
AcDbEntity
  8
0
100
AcDbMText
 62
2
  6
CONTINUOUS
  7
STANDARD
 71
2
 72
1
 10
67.7083333333
 20
10.46875
 30
0.0
 11
1.0
 21
0.0
 31
0.0
 44
0.9
  1
-
 40
0.7692307692
 41
0.5494505495
  0
LINE
  5
374
100
AcDbEntity
  8
0
100
AcDbLine
 62
2
  6
CONTINUOUS
 10
64.9038461538
 20
9.2147435897
 11
70.5128205128
 21
9.2147435897
  0
LINE
  5
375
100
AcDbEntity
  8
0
100
AcDbLine
 62
2
  6
CONTINUOUS
 10
64.9038461538
 20
9.2147435897
 11
64.9038461538
 21
6.4603365385
  0
LINE
  5
376
100
AcDbEntity
  8
0
100
AcDbLine
 62
2
  6
CONTINUOUS
 10
64.9038461538
 20
6.4603365385
 11
70.5128205128
 21
6.4603365385
  0
LINE
  5
377
100
AcDbEntity
  8
0
100
AcDbLine
 62
2
  6
CONTINUOUS
 10
70.5128205128
 20
9.2147435897
 11
70.5128205128
 21
6.4603365385
  0
MTEXT
  5
378
100
AcDbEntity
  8
0
100
AcDbMText
 62
2
  6
CONTINUOUS
  7
STANDARD
 71
2
 72
1
 10
67.7083333333
 20
7.7303685897
 30
0.0
 11
1.0
 21
0.0
 31
0.0
 44
0.9
  1
-
 40
0.7692307692
 41
0.5494505495
  0
LINE
  5
379
100
AcDbEntity
  8
0
100
AcDbLine
 62
2
  6
CONTINUOUS
 10
53.6858974359
 20
6.4102564103
 11
70.5128205128
 21
6.4102564103
  0
LINE
  5
37A
100
AcDbEntity
  8
0
100
AcDbLine
 62
2
  6
CONTINUOUS
 10
53.6858974359
 20
6.4102564103
 11
53.6858974359
 21
4.8076923077
  0
LINE
  5
37B
100
AcDbEntity
  8
0
100
AcDbLine
 62
2
  6
CONTINUOUS
 10
53.6858974359
 20
4.8076923077
 11
70.5128205128
 21
4.8076923077
  0
LINE
  5
37C
100
AcDbEntity
  8
0
100
AcDbLine
 62
2
  6
CONTINUOUS
 10
70.5128205128
 20
6.4102564103
 11
70.5128205128
 21
4.8076923077
  0
MTEXT
  5
37D
100
AcDbEntity
  8
0
100
AcDbMText
 62
2
  6
CONTINUOUS
  7
STANDARD
 71
3
 72
1
 10
70.1121794872
 20
6.0136217949
 30
0.0
 11
1.0
 21
0.0
 31
0.0
 44
0.9
  1
FG-000391-2D.A.3
 40
0.7051282051
 41
8.2936507937
  0
LINE
  5
37E
100
AcDbEntity
  8
0
100
AcDbLine
 62
2
  6
CONTINUOUS
 10
53.6858974359
 20
4.8076923077
 11
70.5128205128
 21
4.8076923077
  0
LINE
  5
37F
100
AcDbEntity
  8
0
100
AcDbLine
 62
2
  6
CONTINUOUS
 10
53.6858974359
 20
4.8076923077
 11
53.6858974359
 21
3.2051282051
  0
LINE
  5
380
100
AcDbEntity
  8
0
100
AcDbLine
 62
2
  6
CONTINUOUS
 10
53.6858974359
 20
3.2051282051
 11
70.5128205128
 21
3.2051282051
  0
LINE
  5
381
100
AcDbEntity
  8
0
100
AcDbLine
 62
2
  6
CONTINUOUS
 10
70.5128205128
 20
4.8076923077
 11
70.5128205128
 21
3.2051282051
  0
MTEXT
  5
382
100
AcDbEntity
  8
0
100
AcDbMText
 62
2
  6
CONTINUOUS
  7
STANDARD
 71
3
 72
1
 10
70.1121794872
 20
4.4110576923
 30
0.0
 11
1.0
 21
0.0
 31
0.0
 44
0.9
  1
FG-000391-3D.A.1
 40
0.7051282051
 41
8.1425518926
  0
LINE
  5
383
100
AcDbEntity
  8
0
100
AcDbLine
 62
2
  6
CONTINUOUS
 10
70.5128205128
 20
15.2243589744
 11
102.5641025641
 21
15.2243589744
  0
LINE
  5
384
100
AcDbEntity
  8
0
100
AcDbLine
 62
2
  6
CONTINUOUS
 10
70.5128205128
 20
15.2243589744
 11
70.5128205128
 21
8.0128205128
  0
LINE
  5
385
100
AcDbEntity
  8
0
100
AcDbLine
 62
2
  6
CONTINUOUS
 10
70.5128205128
 20
8.0128205128
 11
102.5641025641
 21
8.0128205128
  0
LINE
  5
386
100
AcDbEntity
  8
0
100
AcDbLine
 62
2
  6
CONTINUOUS
 10
102.5641025641
 20
15.2243589744
 11
102.5641025641
 21
8.0128205128
  0
MTEXT
  5
387
100
AcDbEntity
  8
0
100
AcDbMText
 62
2
  6
CONTINUOUS
  7
STANDARD
 71
2
 72
1
 10
86.5384615385
 20
13.5737179487
 30
0.0
 11
1.0
 21
0.0
 31
0.0
 44
1.02
  1
ACCESSORY, YOKE MOUNT,\PAP-5102
 40
1.2820512821
 41
22.0085470085
  0
LINE
  5
388
100
AcDbEntity
  8
0
100
AcDbLine
 62
2
  6
CONTINUOUS
 10
70.5198224547
 20
7.9996183814
 11
73.7249506599
 21
7.9996183814
  0
LINE
  5
389
100
AcDbEntity
  8
0
100
AcDbLine
 62
2
  6
CONTINUOUS
 10
70.5198224547
 20
7.9996183814
 11
70.5198224547
 21
4.7944901762
  0
LINE
  5
38A
100
AcDbEntity
  8
0
100
AcDbLine
 62
2
  6
CONTINUOUS
 10
70.5198224547
 20
4.7944901762
 11
73.7249506599
 21
4.7944901762
  0
LINE
  5
38B
100
AcDbEntity
  8
0
100
AcDbLine
 62
2
  6
CONTINUOUS
 10
73.7249506599
 20
7.9996183814
 11
73.7249506599
 21
4.7944901762
  0
MTEXT
  5
38C
100
AcDbEntity
  8
0
100
AcDbMText
 62
2
  6
CONTINUOUS
  7
STANDARD
 71
2
 72
1
 10
72.1223865573
 20
6.5773427403
 30
0.0
 11
1.0
 21
0.0
 31
0.0
 44
0.9
  1
B
 40
1.2820512821
 41
1.0073260073
  0
LINE
  5
38D
100
AcDbEntity
  8
0
100
AcDbLine
 62
2
  6
CONTINUOUS
 10
80.1315224205
 20
7.9806063405
 11
99.3622916512
 21
7.9806063405
  0
LINE
  5
38E
100
AcDbEntity
  8
0
100
AcDbLine
 62
2
  6
CONTINUOUS
 10
80.1315224205
 20
7.9806063405
 11
80.1315224205
 21
4.7754781354
  0
LINE
  5
38F
100
AcDbEntity
  8
0
100
AcDbLine
 62
2
  6
CONTINUOUS
 10
80.1315224205
 20
4.7754781354
 11
99.3622916512
 21
4.7754781354
  0
LINE
  5
390
100
AcDbEntity
  8
0
100
AcDbLine
 62
2
  6
CONTINUOUS
 10
99.3622916512
 20
7.9806063405
 11
99.3622916512
 21
4.7754781354
  0
MTEXT
  5
391
100
AcDbEntity
  8
0
100
AcDbMText
 62
2
  6
CONTINUOUS
  7
STANDARD
 71
2
 72
1
 10
89.7469070358
 20
6.7506383918
 30
0.0
 11
1.0
 21
0.0
 31
0.0
 44
0.9
  1
FG-000391-2D
 40
1.4743589744
 41
13.3394383394
  0
LINE
  5
392
100
AcDbEntity
  8
0
100
AcDbLine
 62
2
  6
CONTINUOUS
 10
99.3506403607
 20
8.0018450168
 11
102.5557685658
 21
8.0018450168
  0
LINE
  5
393
100
AcDbEntity
  8
0
100
AcDbLine
 62
2
  6
CONTINUOUS
 10
99.3506403607
 20
8.0018450168
 11
99.3506403607
 21
4.7967168117
  0
LINE
  5
394
100
AcDbEntity
  8
0
100
AcDbLine
 62
2
  6
CONTINUOUS
 10
99.3506403607
 20
4.7967168117
 11
102.5557685658
 21
4.7967168117
  0
LINE
  5
395
100
AcDbEntity
  8
0
100
AcDbLine
 62
2
  6
CONTINUOUS
 10
102.5557685658
 20
8.0018450168
 11
102.5557685658
 21
4.7967168117
  0
MTEXT
  5
396
100
AcDbEntity
  8
0
100
AcDbMText
 62
2
  6
CONTINUOUS
  7
STANDARD
 71
2
 72
1
 10
100.9532044632
 20
6.4513642476
 30
0.0
 11
1.0
 21
0.0
 31
0.0
 44
0.9
  1
A
 40
1.1538461538
 41
0.989010989
  0
LINE
  5
397
100
AcDbEntity
  8
0
100
AcDbLine
 62
2
  6
CONTINUOUS
 10
92.1514142267
 20
4.7623646387
 11
102.5680808934
 21
4.7623646387
  0
LINE
  5
398
100
AcDbEntity
  8
0
100
AcDbLine
 62
2
  6
CONTINUOUS
 10
92.1514142267
 20
4.7623646387
 11
92.1514142267
 21
3.1598005361
  0
LINE
  5
399
100
AcDbEntity
  8
0
100
AcDbLine
 62
2
  6
CONTINUOUS
 10
92.1514142267
 20
3.1598005361
 11
102.5680808934
 21
3.1598005361
  0
LINE
  5
39A
100
AcDbEntity
  8
0
100
AcDbLine
 62
2
  6
CONTINUOUS
 10
102.5680808934
 20
4.7623646387
 11
102.5680808934
 21
3.1598005361
  0
MTEXT
  5
39B
100
AcDbEntity
  8
0
100
AcDbMText
 62
2
  6
CONTINUOUS
  7
STANDARD
 71
3
 72
1
 10
102.1674398678
 20
4.5580377156
 30
0.0
 11
1.0
 21
0.0
 31
0.0
 44
0.9
  1
1 OF 1
 40
0.8974358974
 41
3.7820512821
  0
LINE
  5
39C
100
AcDbEntity
  8
0
100
AcDbLine
 62
2
  6
CONTINUOUS
 10
70.5016654622
 20
4.8001488263
 11
78.1170500776
 21
4.8001488263
  0
LINE
  5
39D
100
AcDbEntity
  8
0
100
AcDbLine
 62
2
  6
CONTINUOUS
 10
70.5016654622
 20
4.8001488263
 11
70.5016654622
 21
3.1725446597
  0
LINE
  5
39E
100
AcDbEntity
  8
0
100
AcDbLine
 62
2
  6
CONTINUOUS
 10
70.5016654622
 20
3.1725446597
 11
78.1170500776
 21
3.1725446597
  0
LINE
  5
39F
100
AcDbEntity
  8
0
100
AcDbLine
 62
2
  6
CONTINUOUS
 10
78.1170500776
 20
4.8001488263
 11
78.1170500776
 21
3.1725446597
  0
MTEXT
  5
3A0
100
AcDbEntity
  8
0
100
AcDbMText
 62
2
  6
CONTINUOUS
  7
STANDARD
 71
3
 72
1
 10
77.7164090519
 20
4.442576711
 30
0.0
 11
1.0
 21
0.0
 31
0.0
 44
0.9
  1
0.156
 40
0.7692307692
 41
2.6373626374
  0
MTEXT
  5
3A1
100
AcDbEntity
  8
0
100
AcDbMText
 62
2
  6
CONTINUOUS
  7
STANDARD
 71
1
 72
1
 10
3.8913530707
 20
13.9102074602
 30
0.0
 11
1.0
 21
0.0
 31
0.0
 44
1.2
  3
4. PARTS ARE SYMMETRICAL ABOUT CENTER LINES \P   UNLESS OTHERWISE NOTED.\P3. SYMBOL \Fgdt;{\Fgdt;r}\Ftxt; INDICATES SUSPENSION POINT, \P2. TOLERANCES (MM): X \Fgdt;{\Fgdt;`}\Ftxt; 3, ANGLES: \Fgdt;{\Fgdt;`}\Ftxt; 1\Fgdt;{\Fgdt;~}\Ftxt;.\P1. NET WEIGH
  1
T APPROX. 3.5 KG (8 LBS)\PNOTE:  UNLESS OTHERWISE SPECIFIED
 40
0.8974358974
 41
30.9615384615
  0
MTEXT
  5
3A2
100
AcDbEntity
  8
0
100
AcDbMText
 62
2
  6
CONTINUOUS
  7
STANDARD
 71
3
 72
1
 10
91.7752505389
 20
35.8658078534
 30
0.0
 11
1.0
 21
0.0
 31
0.0
 44
0.9
  1
SCALE  0.125
 40
1.0016025641
 41
8.8474893162
  0
LINE
  5
3A3
100
AcDbEntity
  8
DEFAULT_3
100
AcDbLine
 62
7
  6
PHANTOM
 10
-0.000012448
 20
-0.0
 11
-0.000012448
 21
70.5127121322
  0
LWPOLYLINE
  5
3A4
100
AcDbEntity
  8
0
100
AcDbPolyline
 62
7
  6
CONTINUOUS
 90
2
 70
0
 43
0.1282051336
 10
1.6827464239
 20
34.1753419147
 10
1.6827464239
 20
36.3375840857
  0
LWPOLYLINE
  5
3A5
100
AcDbEntity
  8
0
100
AcDbPolyline
 62
7
  6
CONTINUOUS
 90
2
 70
0
 43
0.1923076938
 10
3.204278184
 20
67.3053473654
 10
3.204278184
 20
3.2051282051
  0
LINE
  5
3A6
100
AcDbEntity
  8
DEFAULT_3
100
AcDbLine
 62
7
  6
PHANTOM
 10
-0.000012448
 20
-0.0
 11
108.9743589744
 21
-0.0
  0
LWPOLYLINE
  5
3A7
100
AcDbEntity
  8
0
100
AcDbPolyline
 62
7
  6
CONTINUOUS
 90
2
 70
0
 43
0.1923076938
 10
22.7633243274
 20
67.3457287305
 10
22.7633243274
 20
64.1406005254
  0
LWPOLYLINE
  5
3A8
100
AcDbEntity
  8
0
100
AcDbPolyline
 62
7
  6
CONTINUOUS
 90
2
 70
0
 43
0.1282051336
 10
51.8036914104
 20
1.6855344324
 10
53.9659335814
 20
1.6855344324
  0
LWPOLYLINE
  5
3A9
100
AcDbEntity
  8
0
100
AcDbPolyline
 62
7
  6
CONTINUOUS
 90
2
 70
0
 43
0.1923076938
 10
3.204278184
 20
3.2051282051
 10
102.5641025641
 20
3.2051282051
  0
LWPOLYLINE
  5
3AA
100
AcDbEntity
  8
0
100
AcDbPolyline
 62
7
  6
CONTINUOUS
 90
2
 70
0
 43
0.1282051336
 10
53.6858974359
 20
4.8076923077
 10
102.5641025641
 20
4.8076923077
  0
LWPOLYLINE
  5
3AB
100
AcDbEntity
  8
0
100
AcDbPolyline
 62
7
  6
CONTINUOUS
 90
2
 70
0
 43
0.1282051336
 10
28.0442816323
 20
3.2047144413
 10
28.0442816323
 20
-0.0004137639
  0
LWPOLYLINE
  5
3AC
100
AcDbEntity
  8
0
100
AcDbPolyline
 62
7
  6
CONTINUOUS
 90
2
 70
0
 43
0.1282051336
 10
28.0446781033
 20
67.3063607175
 10
28.0446781033
 20
70.5114889227
  0
LWPOLYLINE
  5
3AD
100
AcDbEntity
  8
0
100
AcDbPolyline
 62
7
  6
CONTINUOUS
 90
2
 70
0
 43
0.1282051336
 10
3.2054212821
 20
35.2564630002
 10
1.6827464239
 20
34.1753419147
  0
LINE
  5
3AE
100
AcDbEntity
  8
0
100
AcDbLine
 62
7
  6
CONTINUOUS
 10
53.6765323037
 20
7.2147092135
 11
39.3706789726
 21
3.2998614315
  0
LWPOLYLINE
  5
3AF
100
AcDbEntity
  8
0
100
AcDbPolyline
 62
7
  6
CONTINUOUS
 90
2
 70
0
 43
0.1282051336
 10
53.6858974359
 20
6.4102564103
 10
70.5128205128
 20
6.4102564103
  0
LWPOLYLINE
  5
3B0
100
AcDbEntity
  8
0
100
AcDbPolyline
 62
7
  6
CONTINUOUS
 90
2
 70
0
 43
0.1282051336
 10
53.6858974359
 20
7.2115384615
 10
39.2628205128
 20
7.2115384615
  0
LWPOLYLINE
  5
3B1
100
AcDbEntity
  8
0
100
AcDbPolyline
 62
7
  6
CONTINUOUS
 90
2
 70
0
 43
0.1282051336
 10
70.5128205128
 20
8.0128205128
 10
102.5641025641
 20
8.0128205128
  0
LWPOLYLINE
  5
3B2
100
AcDbEntity
  8
0
100
AcDbPolyline
 62
7
  6
CONTINUOUS
 90
2
 70
0
 43
0.1282051336
 10
3.2054212821
 20
35.2564630002
 10
1.6827464239
 20
36.3375840857
  0
LINE
  5
3B3
100
AcDbEntity
  8
0
100
AcDbLine
 62
7
  6
CONTINUOUS
 10
53.6765323037
 20
11.2128516292
 11
39.2873843389
 21
7.3188275056
  0
LWPOLYLINE
  5
3B4
100
AcDbEntity
  8
0
100
AcDbPolyline
 62
7
  6
CONTINUOUS
 90
2
 70
0
 43
0.1282051336
 10
53.6858974359
 20
9.2147435897
 10
70.5128205128
 20
9.2147435897
  0
LWPOLYLINE
  5
3B5
100
AcDbEntity
  8
0
100
AcDbPolyline
 62
7
  6
CONTINUOUS
 90
2
 70
0
 43
0.1282051336
 10
39.2628205128
 20
11.2179487179
 10
53.6858974359
 20
11.2179487179
  0
LWPOLYLINE
  5
3B6
100
AcDbEntity
  8
0
100
AcDbPolyline
 62
7
  6
CONTINUOUS
 90
2
 70
0
 43
0.1282051336
 10
53.6858974359
 20
12.0192307692
 10
70.5128205128
 20
12.0192307692
  0
LWPOLYLINE
  5
3B7
100
AcDbEntity
  8
0
100
AcDbPolyline
 62
7
  6
CONTINUOUS
 90
2
 70
0
 43
0.1282051336
 10
52.8826291598
 20
67.3079433889
 10
53.9637502453
 20
68.8306182471
  0
LWPOLYLINE
  5
3B8
100
AcDbEntity
  8
0
100
AcDbPolyline
 62
7
  6
CONTINUOUS
 90
2
 70
0
 43
0.1282051336
 10
53.6858974359
 20
14.8237179487
 10
70.5128205128
 20
14.8237179487
  0
LWPOLYLINE
  5
3B9
100
AcDbEntity
  8
0
100
AcDbPolyline
 62
7
  6
CONTINUOUS
 90
2
 70
0
 43
0.1282051336
 10
70.5128205128
 20
15.2243589744
 10
102.5641025641
 20
15.2243589744
  0
LINE
  5
3BA
100
AcDbEntity
  8
0
100
AcDbLine
 62
7
  6
CONTINUOUS
 10
39.3192010331
 20
19.5938298322
 11
53.6604500069
 21
11.2704808415
  0
LWPOLYLINE
  5
3BB
100
AcDbEntity
  8
0
100
AcDbPolyline
 62
7
  6
CONTINUOUS
 90
2
 70
0
 43
0.1282051336
 10
52.8848124959
 20
3.2082092906
 10
53.9659335814
 20
1.6855344324
  0
LWPOLYLINE
  5
3BC
100
AcDbEntity
  8
0
100
AcDbPolyline
 62
7
  6
CONTINUOUS
 90
2
 70
0
 43
0.1282051336
 10
39.2628205128
 20
3.2051282051
 10
39.2628205128
 20
19.6314102564
  0
LWPOLYLINE
  5
3BD
100
AcDbEntity
  8
0
100
AcDbPolyline
 62
7
  6
CONTINUOUS
 90
2
 70
0
 43
0.1282051336
 10
53.6858974359
 20
17.6282051282
 10
70.5128205128
 20
17.6282051282
  0
LWPOLYLINE
  5
3BE
100
AcDbEntity
  8
0
100
AcDbPolyline
 62
7
  6
CONTINUOUS
 90
2
 70
0
 43
0.1282051336
 10
3.2049785157
 20
19.2297236138
 10
-0.0001496895
 20
19.2297236138
  0
LWPOLYLINE
  5
3BF
100
AcDbEntity
  8
0
100
AcDbPolyline
 62
7
  6
CONTINUOUS
 90
2
 70
0
 43
0.1282051336
 10
102.625372573
 20
19.2297848181
 10
105.8305007781
 20
19.2297848181
  0
LWPOLYLINE
  5
3C0
100
AcDbEntity
  8
0
100
AcDbPolyline
 62
7
  6
CONTINUOUS
 90
2
 70
0
 43
0.1282051336
 10
39.2628205128
 20
19.6314102564
 10
102.5641025641
 20
19.6314102564
  0
LWPOLYLINE
  5
3C1
100
AcDbEntity
  8
0
100
AcDbPolyline
 62
7
  6
CONTINUOUS
 90
2
 70
0
 43
0.1282051336
 10
52.8826291598
 20
67.3079433889
 10
52.8826291598
 20
70.513071594
  0
LWPOLYLINE
  5
3C2
100
AcDbEntity
  8
0
100
AcDbPolyline
 62
7
  6
CONTINUOUS
 90
2
 70
0
 43
0.1282051336
 10
52.8848124959
 20
3.2082092906
 10
52.8848124959
 20
0.0030810855
  0
LWPOLYLINE
  5
3C3
100
AcDbEntity
  8
0
100
AcDbPolyline
 62
7
  6
CONTINUOUS
 90
2
 70
0
 43
0.1282051336
 10
53.6858974359
 20
3.2051282051
 10
53.6858974359
 20
19.6314102564
  0
LWPOLYLINE
  5
3C4
100
AcDbEntity
  8
0
100
AcDbPolyline
 62
7
  6
CONTINUOUS
 90
2
 70
0
 43
0.1282051336
 10
102.586139775
 20
35.2563340909
 10
105.7912679801
 20
35.2563340909
  0
LWPOLYLINE
  5
3C5
100
AcDbEntity
  8
0
100
AcDbPolyline
 62
7
  6
CONTINUOUS
 90
2
 70
0
 43
0.1282051336
 10
3.2054212821
 20
35.2564630002
 10
0.000293077
 20
35.2564630002
  0
LWPOLYLINE
  5
3C6
100
AcDbEntity
  8
0
100
AcDbPolyline
 62
7
  6
CONTINUOUS
 90
2
 70
0
 43
0.1282051336
 10
64.9038461538
 20
6.4102564103
 10
64.9038461538
 20
19.6314102564
  0
LINE
  5
3C7
100
AcDbEntity
  8
0
100
AcDbLine
 62
7
  6
CONTINUOUS
 10
53.6774018378
 20
19.5938298322
 11
39.2852973712
 21
11.3382881653
  0
LWPOLYLINE
  5
3C8
100
AcDbEntity
  8
0
100
AcDbPolyline
 62
7
  6
CONTINUOUS
 90
2
 70
0
 43
0.1282051336
 10
70.5128205128
 20
3.2051282051
 10
70.5128205128
 20
19.6314102564
  0
LWPOLYLINE
  5
3C9
100
AcDbEntity
  8
0
100
AcDbPolyline
 62
7
  6
CONTINUOUS
 90
2
 70
0
 43
0.1282051336
 10
73.7179487179
 20
4.8076923077
 10
73.7179487179
 20
8.0128205128
  0
LWPOLYLINE
  5
3CA
100
AcDbEntity
  8
0
100
AcDbPolyline
 62
7
  6
CONTINUOUS
 90
2
 70
0
 43
0.1282051336
 10
52.8848124959
 20
3.2082092906
 10
51.8036914104
 20
1.6855344324
  0
LWPOLYLINE
  5
3CB
100
AcDbEntity
  8
0
100
AcDbPolyline
 62
7
  6
CONTINUOUS
 90
2
 70
0
 43
0.1282051336
 10
102.5931504338
 20
51.280042202
 10
105.7982786389
 20
51.280042202
  0
LWPOLYLINE
  5
3CC
100
AcDbEntity
  8
0
100
AcDbPolyline
 62
7
  6
CONTINUOUS
 90
2
 70
0
 43
0.1282051336
 10
3.2042773829
 20
51.2802503495
 10
-0.0008508222
 20
51.2802503495
  0
LWPOLYLINE
  5
3CD
100
AcDbEntity
  8
0
100
AcDbPolyline
 62
7
  6
CONTINUOUS
 90
2
 70
0
 43
0.1282051336
 10
52.8826291598
 20
67.3079433889
 10
51.8015080743
 20
68.8306182471
  0
LWPOLYLINE
  5
3CE
100
AcDbEntity
  8
0
100
AcDbPolyline
 62
7
  6
CONTINUOUS
 90
2
 70
0
 43
0.1282051336
 10
77.7225187192
 20
67.3168705133
 10
77.7225187192
 20
70.5219987184
  0
LWPOLYLINE
  5
3CF
100
AcDbEntity
  8
0
100
AcDbPolyline
 62
7
  6
CONTINUOUS
 90
2
 70
0
 43
0.1282051336
 10
77.7242986874
 20
3.2030256676
 10
77.7242986874
 20
-0.0021025375
  0
LWPOLYLINE
  5
3D0
100
AcDbEntity
  8
0
100
AcDbPolyline
 62
7
  6
CONTINUOUS
 90
2
 70
0
 43
0.1282051336
 10
78.100185683
 20
3.2355779202
 10
78.100185683
 20
4.8381420228
  0
LWPOLYLINE
  5
3D1
100
AcDbEntity
  8
0
100
AcDbPolyline
 62
7
  6
CONTINUOUS
 90
2
 70
0
 43
0.1282051336
 10
80.1282051282
 20
4.8076923077
 10
80.1282051282
 20
8.0128205128
  0
LWPOLYLINE
  5
3D2
100
AcDbEntity
  8
0
100
AcDbPolyline
 62
7
  6
CONTINUOUS
 90
2
 70
0
 43
0.1282051336
 10
102.586139775
 20
35.2563340909
 10
104.1088146332
 20
36.3374551764
  0
LWPOLYLINE
  5
3D3
100
AcDbEntity
  8
0
100
AcDbPolyline
 62
7
  6
CONTINUOUS
 90
2
 70
0
 43
0.1923076938
 10
22.7633243274
 20
64.1406005254
 10
3.131914071
 20
64.1406005254
  0
LWPOLYLINE
  5
3D4
100
AcDbEntity
  8
0
100
AcDbPolyline
 62
7
  6
CONTINUOUS
 90
2
 70
0
 43
0.1282051336
 10
102.586139775
 20
35.2563340909
 10
104.1088146332
 20
34.1752130054
  0
LWPOLYLINE
  5
3D5
100
AcDbEntity
  8
0
100
AcDbPolyline
 62
7
  6
CONTINUOUS
 90
2
 70
0
 43
0.1923076938
 10
102.5641025641
 20
67.3053473654
 10
3.204278184
 20
67.3053473654
  0
LWPOLYLINE
  5
3D6
100
AcDbEntity
  8
0
100
AcDbPolyline
 62
7
  6
CONTINUOUS
 90
2
 70
0
 43
0.1282051336
 10
51.8015080743
 20
68.8306182471
 10
53.9637502453
 20
68.8306182471
  0
LWPOLYLINE
  5
3D7
100
AcDbEntity
  8
0
100
AcDbPolyline
 62
7
  6
CONTINUOUS
 90
2
 70
0
 43
0.1282051336
 10
92.1474358974
 20
3.2051282051
 10
92.1474358974
 20
4.8076923077
  0
LINE
  5
3D8
100
AcDbEntity
  8
DEFAULT_3
100
AcDbLine
 62
7
  6
PHANTOM
 10
-0.000012448
 20
70.5127121322
 11
108.9744228761
 21
70.5127121322
  0
LWPOLYLINE
  5
3D9
100
AcDbEntity
  8
0
100
AcDbPolyline
 62
7
  6
CONTINUOUS
 90
2
 70
0
 43
0.1282051336
 10
99.358974359
 20
4.8076923077
 10
99.358974359
 20
8.0128205128
  0
LWPOLYLINE
  5
3DA
100
AcDbEntity
  8
0
100
AcDbPolyline
 62
7
  6
CONTINUOUS
 90
2
 70
0
 43
0.1923076938
 10
102.5641025641
 20
67.3053473654
 10
102.5641025641
 20
3.2051282051
  0
LWPOLYLINE
  5
3DB
100
AcDbEntity
  8
0
100
AcDbPolyline
 62
7
  6
CONTINUOUS
 90
2
 70
0
 43
0.1282051336
 10
104.1088146332
 20
34.1752130054
 10
104.1088146332
 20
36.3374551764
  0
LINE
  5
3DC
100
AcDbEntity
  8
DEFAULT_3
100
AcDbLine
 62
7
  6
PHANTOM
 10
108.9743589744
 20
-0.0
 11
108.9743589744
 21
70.5104755705
  0
LINE
  5
3DD
100
AcDbEntity
  8
0
100
AcDbLine
 62
7
  6
CONTINUOUS
 10
16.8317932312
 20
36.898300019
 11
20.698722365
 21
36.898300019
  0
LINE
  5
3DE
100
AcDbEntity
  8
0
100
AcDbLine
 62
3
  6
CONTINUOUS
 10
20.698722365
 20
37.0026307277
 11
16.8317932312
 21
37.0026307277
  0
LINE
  5
3DF
100
AcDbEntity
  8
0
100
AcDbLine
 62
7
  6
CONTINUOUS
 10
20.832186932
 20
37.0317645859
 11
20.7278562233
 21
37.0317645859
  0
LINE
  5
3E0
100
AcDbEntity
  8
0
100
AcDbLine
 62
3
  6
CONTINUOUS
 10
20.7278562233
 20
37.0317645859
 11
20.698722365
 21
37.0317645859
  0
LINE
  5
3E1
100
AcDbEntity
  8
0
100
AcDbLine
 62
7
  6
CONTINUOUS
 10
16.6983286643
 20
37.0317645859
 11
16.8026593729
 21
37.0317645859
  0
LINE
  5
3E2
100
AcDbEntity
  8
0
100
AcDbLine
 62
3
  6
CONTINUOUS
 10
16.8026593729
 20
37.0317645859
 11
16.8317932312
 21
37.0317645859
  0
LINE
  5
3E3
100
AcDbEntity
  8
0
100
AcDbLine
 62
9
  6
CONTINUOUS
 10
16.8317932312
 20
37.0317645859
 11
20.698722365
 21
37.0317645859
  0
LINE
  5
3E4
100
AcDbEntity
  8
0
100
AcDbLine
 62
3
  6
CONTINUOUS
 10
16.9542341761
 20
40.929796082
 11
20.5762814202
 21
40.929796082
  0
LINE
  5
3E5
100
AcDbEntity
  8
02__ASM_ALL_AXES
100
AcDbLine
 62
7
  6
CENTER
 10
19.6510845698
 20
41.7565677355
 11
19.0100549917
 21
41.7565677355
  0
LINE
  5
3E6
100
AcDbEntity
  8
02__ASM_ALL_AXES
100
AcDbLine
 62
7
  6
CENTER
 10
17.8794310265
 20
41.7565677355
 11
17.2384014484
 21
41.7565677355
  0
LINE
  5
3E7
100
AcDbEntity
  8
02__ASM_ALL_AXES
100
AcDbLine
 62
7
  6
CENTER
 10
17.8794310265
 20
41.7565677355
 11
18.5204606045
 21
41.7565677355
  0
LINE
  5
3E8
100
AcDbEntity
  8
02__ASM_ALL_AXES
100
AcDbLine
 62
7
  6
CENTER
 10
19.6510845698
 20
41.7565677355
 11
20.2921141478
 21
41.7565677355
  0
LINE
  5
3E9
100
AcDbEntity
  8
02__ASM_ALL_AXES
100
AcDbLine
 62
7
  6
CENTER
 10
19.6510845698
 20
42.8195598615
 11
19.0100549917
 21
42.8195598615
  0
LINE
  5
3EA
100
AcDbEntity
  8
02__ASM_ALL_AXES
100
AcDbLine
 62
7
  6
CENTER
 10
17.8794310265
 20
42.8195598615
 11
17.2384014484
 21
42.8195598615
  0
LINE
  5
3EB
100
AcDbEntity
  8
02__ASM_ALL_AXES
100
AcDbLine
 62
7
  6
CENTER
 10
17.8794310265
 20
42.8195598615
 11
18.5204606045
 21
42.8195598615
  0
LINE
  5
3EC
100
AcDbEntity
  8
02__ASM_ALL_AXES
100
AcDbLine
 62
7
  6
CENTER
 10
19.6510845698
 20
42.8195598615
 11
20.2921141478
 21
42.8195598615
  0
LINE
  5
3ED
100
AcDbEntity
  8
02___PRT_ALL_AXES
100
AcDbLine
 62
7
  6
CENTER
 10
18.7652577981
 20
45.3786149796
 11
18.0988931532
 21
45.3786149796
  0
LINE
  5
3EE
100
AcDbEntity
  8
02___PRT_ALL_AXES
100
AcDbLine
 62
7
  6
CENTER
 10
18.7652577981
 20
45.3786149796
 11
19.431622443
 21
45.3786149796
  0
LINE
  5
3EF
100
AcDbEntity
  8
02___PRT_ALL_AXES
100
AcDbLine
 62
7
  6
CENTER
 10
20.1825806328
 20
45.6148354521
 11
19.5162159878
 21
45.6148354521
  0
LINE
  5
3F0
100
AcDbEntity
  8
02___PRT_ALL_AXES
100
AcDbLine
 62
7
  6
CENTER
 10
17.3479349635
 20
45.6148354521
 11
16.6815703186
 21
45.6148354521
  0
LINE
  5
3F1
100
AcDbEntity
  8
02___PRT_ALL_AXES
100
AcDbLine
 62
7
  6
CENTER
 10
17.3479349635
 20
45.6148354521
 11
18.0142996084
 21
45.6148354521
  0
LINE
  5
3F2
100
AcDbEntity
  8
02___PRT_ALL_AXES
100
AcDbLine
 62
7
  6
CENTER
 10
20.1825806328
 20
45.6148354521
 11
20.8489452777
 21
45.6148354521
  0
LINE
  5
3F3
100
AcDbEntity
  8
0
100
AcDbLine
 62
7
  6
CONTINUOUS
 10
16.6983286643
 20
37.0317645859
 11
16.6983286643
 21
59.4734968694
  0
LINE
  5
3F4
100
AcDbEntity
  8
0
100
AcDbLine
 62
3
  6
CONTINUOUS
 10
16.8026593729
 20
37.0317645859
 11
16.8026593729
 21
59.4734968694
  0
LINE
  5
3F5
100
AcDbEntity
  8
0
100
AcDbLine
 62
3
  6
CONTINUOUS
 10
16.8317932312
 20
59.5026307277
 11
16.8317932312
 21
59.4734968694
  0
LINE
  5
3F6
100
AcDbEntity
  8
0
100
AcDbLine
 62
9
  6
CONTINUOUS
 10
16.8317932312
 20
59.4734968694
 11
16.8317932312
 21
37.0317645859
  0
LINE
  5
3F7
100
AcDbEntity
  8
0
100
AcDbLine
 62
7
  6
CONTINUOUS
 10
16.8317932312
 20
37.0026307277
 11
16.8317932312
 21
36.898300019
  0
LINE
  5
3F8
100
AcDbEntity
  8
0
100
AcDbLine
 62
3
  6
CONTINUOUS
 10
16.8317932312
 20
37.0026307277
 11
16.8317932312
 21
37.0317645859
  0
LINE
  5
3F9
100
AcDbEntity
  8
0
100
AcDbLine
 62
7
  6
CONTINUOUS
 10
16.8317932312
 20
59.5026307277
 11
16.8317932312
 21
59.6069614363
  0
LINE
  5
3FA
100
AcDbEntity
  8
0
100
AcDbLine
 62
3
  6
CONTINUOUS
 10
16.9542341761
 20
55.5754653733
 11
16.9542341761
 21
40.929796082
  0
LINE
  5
3FB
100
AcDbEntity
  8
02___PRT_ALL_AXES
100
AcDbLine
 62
7
  6
CENTER
 10
17.3479349635
 20
50.8904260032
 11
17.3479349635
 21
50.2240613583
  0
LINE
  5
3FC
100
AcDbEntity
  8
02___PRT_ALL_AXES
100
AcDbLine
 62
7
  6
CENTER
 10
17.3479349635
 20
45.6148354521
 11
17.3479349635
 21
44.9484708071
  0
LINE
  5
3FD
100
AcDbEntity
  8
02___PRT_ALL_AXES
100
AcDbLine
 62
7
  6
CENTER
 10
17.3479349635
 20
45.6148354521
 11
17.3479349635
 21
46.2709483639
  0
LINE
  5
3FE
100
AcDbEntity
  8
02___PRT_ALL_AXES
100
AcDbLine
 62
7
  6
CENTER
 10
17.3479349635
 20
46.2709483639
 11
17.3479349635
 21
46.281200097
  0
LINE
  5
3FF
100
AcDbEntity
  8
02___PRT_ALL_AXES
100
AcDbLine
 62
7
  6
CENTER
 10
17.3479349635
 20
50.8904260032
 11
17.3479349635
 21
51.5567906482
  0
LINE
  5
400
100
AcDbEntity
  8
02___PRT_ALL_AXES
100
AcDbLine
 62
3
  6
CONTINUOUS
 10
17.6825806328
 20
41.7565677355
 11
17.6825806328
 21
42.8195598615
  0
LINE
  5
401
100
AcDbEntity
  8
02___PRT_ALL_AXES
100
AcDbLine
 62
3
  6
CONTINUOUS
 10
17.6825806328
 20
53.6857015938
 11
17.6825806328
 21
54.7486937198
  0
LINE
  5
402
100
AcDbEntity
  8
02__ASM_ALL_AXES
100
AcDbLine
 62
7
  6
CENTER
 10
17.8794310265
 20
54.7486937198
 11
17.8794310265
 21
54.1076641417
  0
LINE
  5
403
100
AcDbEntity
  8
02__ASM_ALL_AXES
100
AcDbLine
 62
7
  6
CENTER
 10
17.8794310265
 20
53.6857015938
 11
17.8794310265
 21
53.0446720158
  0
LINE
  5
404
100
AcDbEntity
  8
02__ASM_ALL_AXES
100
AcDbLine
 62
7
  6
CENTER
 10
17.8794310265
 20
42.8195598615
 11
17.8794310265
 21
42.1785302835
  0
LINE
  5
405
100
AcDbEntity
  8
02__ASM_ALL_AXES
100
AcDbLine
 62
7
  6
CENTER
 10
17.8794310265
 20
41.7565677355
 11
17.8794310265
 21
41.1155381575
  0
LINE
  5
406
100
AcDbEntity
  8
02__ASM_ALL_AXES
100
AcDbLine
 62
7
  6
CENTER
 10
17.8794310265
 20
41.7565677355
 11
17.8794310265
 21
42.1785302835
  0
LINE
  5
407
100
AcDbEntity
  8
02__ASM_ALL_AXES
100
AcDbLine
 62
7
  6
CENTER
 10
17.8794310265
 20
42.8195598615
 11
17.8794310265
 21
43.4605894395
  0
LINE
  5
408
100
AcDbEntity
  8
02__ASM_ALL_AXES
100
AcDbLine
 62
7
  6
CENTER
 10
17.8794310265
 20
53.6857015938
 11
17.8794310265
 21
54.1076641417
  0
LINE
  5
409
100
AcDbEntity
  8
02__ASM_ALL_AXES
100
AcDbLine
 62
7
  6
CENTER
 10
17.8794310265
 20
54.7486937198
 11
17.8794310265
 21
55.3897232978
  0
LINE
  5
40A
100
AcDbEntity
  8
02___PRT_ALL_AXES
100
AcDbLine
 62
3
  6
CONTINUOUS
 10
18.0762814202
 20
54.7486937198
 11
18.0762814202
 21
53.6857015938
  0
LINE
  5
40B
100
AcDbEntity
  8
02___PRT_ALL_AXES
100
AcDbLine
 62
3
  6
CONTINUOUS
 10
18.0762814202
 20
42.8195598615
 11
18.0762814202
 21
41.7565677355
  0
LINE
  5
40C
100
AcDbEntity
  8
02___PRT_ALL_AXES
100
AcDbLine
 62
7
  6
CENTER
 10
18.7652577981
 20
60.2479870773
 11
18.7652577981
 21
58.8616050866
  0
LINE
  5
40D
100
AcDbEntity
  8
02___PRT_ALL_AXES
100
AcDbLine
 62
7
  6
CENTER
 10
18.7652577981
 20
51.1266464757
 11
18.7652577981
 21
50.4602818308
  0
LINE
  5
40E
100
AcDbEntity
  8
02___PRT_ALL_AXES
100
AcDbLine
 62
7
  6
CENTER
 10
18.7652577981
 20
48.2526307277
 11
18.7652577981
 21
47.5862660827
  0
LINE
  5
40F
100
AcDbEntity
  8
02___PRT_ALL_AXES
100
AcDbLine
 62
7
  6
CENTER
 10
18.7652577981
 20
45.3786149796
 11
18.7652577981
 21
44.7122503347
  0
LINE
  5
410
100
AcDbEntity
  8
02___PRT_ALL_AXES
100
AcDbLine
 62
7
  6
CENTER
 10
18.7652577981
 20
37.6436563687
 11
18.7652577981
 21
36.257274378
  0
LINE
  5
411
100
AcDbEntity
  8
02___PRT_ALL_AXES
100
AcDbLine
 62
7
  6
CENTER
 10
18.7652577981
 20
45.3786149796
 11
18.7652577981
 21
46.0449796245
  0
LINE
  5
412
100
AcDbEntity
  8
02___PRT_ALL_AXES
100
AcDbLine
 62
7
  6
CENTER
 10
18.7652577981
 20
48.2526307277
 11
18.7652577981
 21
48.9189953726
  0
LINE
  5
413
100
AcDbEntity
  8
02___PRT_ALL_AXES
100
AcDbLine
 62
7
  6
CENTER
 10
18.7652577981
 20
51.1266464757
 11
18.7652577981
 21
51.7930111206
  0
LINE
  5
414
100
AcDbEntity
  8
DEFAULT_1
100
AcDbLine
 62
7
  6
CENTER
 10
18.7652577981
 20
36.257274378
 11
18.7652577981
 21
60.2479870773
  0
LINE
  5
415
100
AcDbEntity
  8
02___PRT_ALL_AXES
100
AcDbLine
 62
7
  6
CENTER
 10
18.7652577981
 20
48.2526307277
 11
18.0988931532
 21
48.2526307277
  0
LINE
  5
416
100
AcDbEntity
  8
DEFAULT_1
100
AcDbLine
 62
7
  6
CENTER
 10
21.473212573
 20
48.2526307277
 11
16.0573030232
 21
48.2526307277
  0
LINE
  5
417
100
AcDbEntity
  8
02___PRT_ALL_AXES
100
AcDbLine
 62
7
  6
CENTER
 10
18.7652577981
 20
48.2526307277
 11
19.431622443
 21
48.2526307277
  0
LINE
  5
418
100
AcDbEntity
  8
02___PRT_ALL_AXES
100
AcDbLine
 62
3
  6
CONTINUOUS
 10
19.4542341761
 20
41.7565677355
 11
19.4542341761
 21
42.8195598615
  0
LINE
  5
419
100
AcDbEntity
  8
02___PRT_ALL_AXES
100
AcDbLine
 62
3
  6
CONTINUOUS
 10
19.4542341761
 20
53.6857015938
 11
19.4542341761
 21
54.7486937198
  0
LINE
  5
41A
100
AcDbEntity
  8
02__ASM_ALL_AXES
100
AcDbLine
 62
7
  6
CENTER
 10
19.6510845698
 20
54.7486937198
 11
19.6510845698
 21
54.1076641417
  0
LINE
  5
41B
100
AcDbEntity
  8
02__ASM_ALL_AXES
100
AcDbLine
 62
7
  6
CENTER
 10
19.6510845698
 20
53.6857015938
 11
19.6510845698
 21
53.0446720158
  0
LINE
  5
41C
100
AcDbEntity
  8
02__ASM_ALL_AXES
100
AcDbLine
 62
7
  6
CENTER
 10
19.6510845698
 20
42.8195598615
 11
19.6510845698
 21
42.1785302835
  0
LINE
  5
41D
100
AcDbEntity
  8
02__ASM_ALL_AXES
100
AcDbLine
 62
7
  6
CENTER
 10
19.6510845698
 20
41.7565677355
 11
19.6510845698
 21
41.1155381575
  0
LINE
  5
41E
100
AcDbEntity
  8
02__ASM_ALL_AXES
100
AcDbLine
 62
7
  6
CENTER
 10
19.6510845698
 20
41.7565677355
 11
19.6510845698
 21
42.1785302835
  0
LINE
  5
41F
100
AcDbEntity
  8
02__ASM_ALL_AXES
100
AcDbLine
 62
7
  6
CENTER
 10
19.6510845698
 20
42.8195598615
 11
19.6510845698
 21
43.4605894395
  0
LINE
  5
420
100
AcDbEntity
  8
02__ASM_ALL_AXES
100
AcDbLine
 62
7
  6
CENTER
 10
19.6510845698
 20
53.6857015938
 11
19.6510845698
 21
54.1076641417
  0
LINE
  5
421
100
AcDbEntity
  8
02__ASM_ALL_AXES
100
AcDbLine
 62
7
  6
CENTER
 10
19.6510845698
 20
54.7486937198
 11
19.6510845698
 21
55.3897232978
  0
LINE
  5
422
100
AcDbEntity
  8
02___PRT_ALL_AXES
100
AcDbLine
 62
3
  6
CONTINUOUS
 10
19.8479349635
 20
54.7486937198
 11
19.8479349635
 21
53.6857015938
  0
LINE
  5
423
100
AcDbEntity
  8
02___PRT_ALL_AXES
100
AcDbLine
 62
3
  6
CONTINUOUS
 10
19.8479349635
 20
42.8195598615
 11
19.8479349635
 21
41.7565677355
  0
LINE
  5
424
100
AcDbEntity
  8
02___PRT_ALL_AXES
100
AcDbLine
 62
7
  6
CENTER
 10
20.1825806328
 20
50.8904260032
 11
20.1825806328
 21
50.2240613583
  0
LINE
  5
425
100
AcDbEntity
  8
02___PRT_ALL_AXES
100
AcDbLine
 62
7
  6
CENTER
 10
20.1825806328
 20
45.6148354521
 11
20.1825806328
 21
44.9484708071
  0
LINE
  5
426
100
AcDbEntity
  8
02___PRT_ALL_AXES
100
AcDbLine
 62
7
  6
CENTER
 10
20.1825806328
 20
45.6148354521
 11
20.1825806328
 21
46.2709483639
  0
LINE
  5
427
100
AcDbEntity
  8
02___PRT_ALL_AXES
100
AcDbLine
 62
7
  6
CENTER
 10
20.1825806328
 20
46.2709483639
 11
20.1825806328
 21
46.281200097
  0
LINE
  5
428
100
AcDbEntity
  8
02___PRT_ALL_AXES
100
AcDbLine
 62
7
  6
CENTER
 10
20.1825806328
 20
50.8904260032
 11
20.1825806328
 21
51.5567906482
  0
LINE
  5
429
100
AcDbEntity
  8
0
100
AcDbLine
 62
3
  6
CONTINUOUS
 10
20.5762814202
 20
40.929796082
 11
20.5762814202
 21
55.5754653733
  0
LINE
  5
42A
100
AcDbEntity
  8
0
100
AcDbLine
 62
3
  6
CONTINUOUS
 10
20.698722365
 20
59.5026307277
 11
20.698722365
 21
59.4734968694
  0
LINE
  5
42B
100
AcDbEntity
  8
0
100
AcDbLine
 62
7
  6
CONTINUOUS
 10
20.698722365
 20
37.0026307277
 11
20.698722365
 21
36.898300019
  0
LINE
  5
42C
100
AcDbEntity
  8
0
100
AcDbLine
 62
3
  6
CONTINUOUS
 10
20.698722365
 20
37.0026307277
 11
20.698722365
 21
37.0317645859
  0
LINE
  5
42D
100
AcDbEntity
  8
0
100
AcDbLine
 62
9
  6
CONTINUOUS
 10
20.698722365
 20
37.0317645859
 11
20.698722365
 21
59.4734968694
  0
LINE
  5
42E
100
AcDbEntity
  8
0
100
AcDbLine
 62
7
  6
CONTINUOUS
 10
20.698722365
 20
59.5026307277
 11
20.698722365
 21
59.6069614363
  0
LINE
  5
42F
100
AcDbEntity
  8
0
100
AcDbLine
 62
3
  6
CONTINUOUS
 10
20.7278562233
 20
59.4734968694
 11
20.7278562233
 21
37.0317645859
  0
LINE
  5
430
100
AcDbEntity
  8
0
100
AcDbLine
 62
7
  6
CONTINUOUS
 10
20.832186932
 20
59.4734968694
 11
20.832186932
 21
37.0317645859
  0
LINE
  5
431
100
AcDbEntity
  8
02___PRT_ALL_AXES
100
AcDbLine
 62
7
  6
CENTER
 10
20.1825806328
 20
50.8904260032
 11
19.5162159878
 21
50.8904260032
  0
LINE
  5
432
100
AcDbEntity
  8
02___PRT_ALL_AXES
100
AcDbLine
 62
7
  6
CENTER
 10
17.3479349635
 20
50.8904260032
 11
16.6815703186
 21
50.8904260032
  0
LINE
  5
433
100
AcDbEntity
  8
02___PRT_ALL_AXES
100
AcDbLine
 62
7
  6
CENTER
 10
17.3479349635
 20
50.8904260032
 11
18.0142996084
 21
50.8904260032
  0
LINE
  5
434
100
AcDbEntity
  8
02___PRT_ALL_AXES
100
AcDbLine
 62
7
  6
CENTER
 10
20.1825806328
 20
50.8904260032
 11
20.8489452777
 21
50.8904260032
  0
LINE
  5
435
100
AcDbEntity
  8
02___PRT_ALL_AXES
100
AcDbLine
 62
7
  6
CENTER
 10
18.7652577981
 20
51.1266464757
 11
18.0988931532
 21
51.1266464757
  0
LINE
  5
436
100
AcDbEntity
  8
02___PRT_ALL_AXES
100
AcDbLine
 62
7
  6
CENTER
 10
18.7652577981
 20
51.1266464757
 11
19.431622443
 21
51.1266464757
  0
LINE
  5
437
100
AcDbEntity
  8
02__ASM_ALL_AXES
100
AcDbLine
 62
7
  6
CENTER
 10
19.6510845698
 20
53.6857015938
 11
19.0100549917
 21
53.6857015938
  0
LINE
  5
438
100
AcDbEntity
  8
02__ASM_ALL_AXES
100
AcDbLine
 62
7
  6
CENTER
 10
17.8794310265
 20
53.6857015938
 11
17.2384014484
 21
53.6857015938
  0
LINE
  5
439
100
AcDbEntity
  8
02__ASM_ALL_AXES
100
AcDbLine
 62
7
  6
CENTER
 10
17.8794310265
 20
53.6857015938
 11
18.5204606045
 21
53.6857015938
  0
LINE
  5
43A
100
AcDbEntity
  8
02__ASM_ALL_AXES
100
AcDbLine
 62
7
  6
CENTER
 10
19.6510845698
 20
53.6857015938
 11
20.2921141478
 21
53.6857015938
  0
LINE
  5
43B
100
AcDbEntity
  8
02__ASM_ALL_AXES
100
AcDbLine
 62
7
  6
CENTER
 10
19.6510845698
 20
54.7486937198
 11
19.0100549917
 21
54.7486937198
  0
LINE
  5
43C
100
AcDbEntity
  8
02__ASM_ALL_AXES
100
AcDbLine
 62
7
  6
CENTER
 10
17.8794310265
 20
54.7486937198
 11
17.2384014484
 21
54.7486937198
  0
LINE
  5
43D
100
AcDbEntity
  8
02__ASM_ALL_AXES
100
AcDbLine
 62
7
  6
CENTER
 10
17.8794310265
 20
54.7486937198
 11
18.5204606045
 21
54.7486937198
  0
LINE
  5
43E
100
AcDbEntity
  8
02__ASM_ALL_AXES
100
AcDbLine
 62
7
  6
CENTER
 10
19.6510845698
 20
54.7486937198
 11
20.2921141478
 21
54.7486937198
  0
LINE
  5
43F
100
AcDbEntity
  8
0
100
AcDbLine
 62
3
  6
CONTINUOUS
 10
20.5762814202
 20
55.5754653733
 11
16.9542341761
 21
55.5754653733
  0
LINE
  5
440
100
AcDbEntity
  8
0
100
AcDbLine
 62
7
  6
CONTINUOUS
 10
20.832186932
 20
59.4734968694
 11
20.7278562233
 21
59.4734968694
  0
LINE
  5
441
100
AcDbEntity
  8
0
100
AcDbLine
 62
3
  6
CONTINUOUS
 10
20.7278562233
 20
59.4734968694
 11
20.698722365
 21
59.4734968694
  0
LINE
  5
442
100
AcDbEntity
  8
0
100
AcDbLine
 62
9
  6
CONTINUOUS
 10
20.698722365
 20
59.4734968694
 11
16.8317932312
 21
59.4734968694
  0
LINE
  5
443
100
AcDbEntity
  8
0
100
AcDbLine
 62
7
  6
CONTINUOUS
 10
16.6983286643
 20
59.4734968694
 11
16.8026593729
 21
59.4734968694
  0
LINE
  5
444
100
AcDbEntity
  8
0
100
AcDbLine
 62
3
  6
CONTINUOUS
 10
16.8026593729
 20
59.4734968694
 11
16.8317932312
 21
59.4734968694
  0
LINE
  5
445
100
AcDbEntity
  8
0
100
AcDbLine
 62
3
  6
CONTINUOUS
 10
16.8317932312
 20
59.5026307277
 11
20.698722365
 21
59.5026307277
  0
LINE
  5
446
100
AcDbEntity
  8
0
100
AcDbLine
 62
7
  6
CONTINUOUS
 10
20.698722365
 20
59.6069614363
 11
16.8317932312
 21
59.6069614363
  0
LINE
  5
447
100
AcDbEntity
  8
0
100
AcDbLine
 62
7
  6
CONTINUOUS
 10
48.1785558987
 20
36.898300019
 11
58.4994220404
 21
36.898300019
  0
LINE
  5
448
100
AcDbEntity
  8
0
100
AcDbLine
 62
3
  6
CONTINUOUS
 10
58.4994220404
 20
37.0026307277
 11
48.1785558987
 21
37.0026307277
  0
LINE
  5
449
100
AcDbEntity
  8
0
100
AcDbLine
 62
7
  6
CONTINUOUS
 10
57.4517842451
 20
37.0317645859
 11
58.6328866073
 21
37.0317645859
  0
LINE
  5
44A
100
AcDbEntity
  8
0
100
AcDbLine
 62
7
  6
CONTINUOUS
 10
48.1785558987
 20
37.0026307277
 11
48.1785558987
 21
36.898300019
  0
LINE
  5
44B
100
AcDbEntity
  8
0
100
AcDbLine
 62
7
  6
CONTINUOUS
 10
48.1785558987
 20
59.5026307277
 11
48.1785558987
 21
59.6069614363
  0
LINE
  5
44C
100
AcDbEntity
  8
0
100
AcDbLine
 62
9
  6
CONTINUOUS
 10
50.1120204656
 20
37.0026307277
 11
50.1120204656
 21
36.898300019
  0
LINE
  5
44D
100
AcDbEntity
  8
0
100
AcDbLine
 62
9
  6
CONTINUOUS
 10
50.1120204656
 20
59.5026307277
 11
50.1120204656
 21
59.6069614363
  0
LINE
  5
44E
100
AcDbEntity
  8
0
100
AcDbLine
 62
7
  6
CONTINUOUS
 10
57.4517842451
 20
59.4734968694
 11
57.4517842451
 21
37.0317645859
  0
LINE
  5
44F
100
AcDbEntity
  8
0
100
AcDbLine
 62
9
  6
CONTINUOUS
 10
58.4994220404
 20
59.6069614363
 11
58.4994220404
 21
59.5026307277
  0
LINE
  5
450
100
AcDbEntity
  8
0
100
AcDbLine
 62
9
  6
CONTINUOUS
 10
58.4994220404
 20
36.898300019
 11
58.4994220404
 21
37.0026307277
  0
LINE
  5
451
100
AcDbEntity
  8
0
100
AcDbLine
 62
9
  6
CONTINUOUS
 10
58.4994220404
 20
37.0317645859
 11
58.4994220404
 21
59.4734968694
  0
LINE
  5
452
100
AcDbEntity
  8
0
100
AcDbLine
 62
7
  6
CONTINUOUS
 10
58.6328866073
 20
37.0317645859
 11
58.6328866073
 21
59.4734968694
  0
LINE
  5
453
100
AcDbEntity
  8
0
100
AcDbLine
 62
7
  6
CONTINUOUS
 10
57.4517842451
 20
59.4734968694
 11
58.6328866073
 21
59.4734968694
  0
LINE
  5
454
100
AcDbEntity
  8
0
100
AcDbLine
 62
3
  6
CONTINUOUS
 10
48.1785558987
 20
59.5026307277
 11
58.4994220404
 21
59.5026307277
  0
LINE
  5
455
100
AcDbEntity
  8
0
100
AcDbLine
 62
7
  6
CONTINUOUS
 10
48.1785558987
 20
59.6069614363
 11
58.4994220404
 21
59.6069614363
  0
LINE
  5
456
100
AcDbEntity
  8
02___PRT_ALL_AXES
100
AcDbLine
 62
7
  6
CENTER
 10
49.9895795207
 20
30.9611448976
 11
49.9895795207
 21
30.2947802527
  0
LINE
  5
457
100
AcDbEntity
  8
02___PRT_ALL_AXES
100
AcDbLine
 62
7
  6
CENTER
 10
49.9895795207
 20
30.9611448976
 11
49.9895795207
 21
31.6275095425
  0
LINE
  5
458
100
AcDbEntity
  8
0
100
AcDbLine
 62
7
  6
CONTINUOUS
 10
58.4994220404
 20
28.8942157638
 11
57.4517842451
 21
28.8942157638
  0
LINE
  5
459
100
AcDbEntity
  8
0
100
AcDbLine
 62
3
  6
CONTINUOUS
 10
58.4994220404
 20
28.9985464724
 11
57.4517842451
 21
28.9985464724
  0
LINE
  5
45A
100
AcDbEntity
  8
0
100
AcDbLine
 62
7
  6
CONTINUOUS
 10
50.1120204656
 20
29.0276803307
 11
58.6328866073
 21
29.0276803307
  0
LINE
  5
45B
100
AcDbEntity
  8
02___PRT_ALL_AXES
100
AcDbLine
 62
7
  6
CENTER
 10
49.9895795207
 20
30.9611448976
 11
49.3232148758
 21
30.9611448976
  0
LINE
  5
45C
100
AcDbEntity
  8
02___PRT_ALL_AXES
100
AcDbLine
 62
7
  6
CENTER
 10
49.9895795207
 20
30.9611448976
 11
50.6559441656
 21
30.9611448976
  0
LINE
  5
45D
100
AcDbEntity
  8
0
100
AcDbLine
 62
7
  6
CONTINUOUS
 10
50.1120204656
 20
32.8946094646
 11
58.6328866073
 21
32.8946094646
  0
LINE
  5
45E
100
AcDbEntity
  8
0
100
AcDbLine
 62
3
  6
CONTINUOUS
 10
57.4517842451
 20
32.9237433228
 11
58.4994220404
 21
32.9237433228
  0
LINE
  5
45F
100
AcDbEntity
  8
0
100
AcDbLine
 62
7
  6
CONTINUOUS
 10
57.4517842451
 20
33.0280740315
 11
58.4994220404
 21
33.0280740315
  0
LINE
  5
460
100
AcDbEntity
  8
0
100
AcDbLine
 62
7
  6
CONTINUOUS
 10
57.4517842451
 20
33.0280740315
 11
57.4517842451
 21
32.9237433228
  0
LINE
  5
461
100
AcDbEntity
  8
0
100
AcDbLine
 62
7
  6
CONTINUOUS
 10
57.4517842451
 20
28.8942157638
 11
57.4517842451
 21
28.9985464724
  0
LINE
  5
462
100
AcDbEntity
  8
0
100
AcDbLine
 62
9
  6
CONTINUOUS
 10
58.4994220404
 20
33.0280740315
 11
58.4994220404
 21
32.9237433228
  0
LINE
  5
463
100
AcDbEntity
  8
0
100
AcDbLine
 62
9
  6
CONTINUOUS
 10
58.4994220404
 20
28.8942157638
 11
58.4994220404
 21
28.9985464724
  0
LINE
  5
464
100
AcDbEntity
  8
0
100
AcDbLine
 62
9
  6
CONTINUOUS
 10
58.4994220404
 20
29.0276803307
 11
58.4994220404
 21
32.8946094646
  0
LINE
  5
465
100
AcDbEntity
  8
0
100
AcDbLine
 62
7
  6
CONTINUOUS
 10
58.6328866073
 20
29.0276803307
 11
58.6328866073
 21
32.8946094646
  0
LINE
  5
466
100
AcDbEntity
  8
0
100
AcDbLine
 62
7
  6
CONTINUOUS
 10
88.1116768573
 20
55.927202181
 11
88.7052600218
 21
56.2710537324
  0
LINE
  5
467
100
AcDbEntity
  8
0
100
AcDbLine
 62
7
  6
CONTINUOUS
 10
88.780879974
 20
56.3144205356
 11
84.0286455749
 21
53.5615406217
  0
LINE
  5
468
100
AcDbEntity
  8
0
100
AcDbLine
 62
7
  6
CONTINUOUS
 10
86.2196165788
 20
52.29235237
 11
90.9718509779
 21
55.0452322839
  0
LINE
  5
469
100
AcDbEntity
  8
0
100
AcDbLine
 62
3
  6
CONTINUOUS
 10
86.2196165788
 20
52.2242090522
 11
90.9718509779
 21
54.9770889661
  0
LINE
  5
46A
100
AcDbEntity
  8
0
100
AcDbLine
 62
7
  6
CONTINUOUS
 10
91.0474709301
 20
55.0018654806
 11
90.9883579881
 21
54.9676224663
  0
LINE
  5
46B
100
AcDbEntity
  8
0
100
AcDbLine
 62
3
  6
CONTINUOUS
 10
90.9883579881
 20
54.9484980659
 11
90.3947748237
 21
54.6046465145
  0
LINE
  5
46C
100
AcDbEntity
  8
0
100
AcDbLine
 62
7
  6
CONTINUOUS
 10
91.0474709301
 20
54.9142550515
 11
90.4538877656
 21
54.5704035001
  0
LINE
  5
46D
100
AcDbEntity
  8
0
100
AcDbLine
 62
7
  6
CONTINUOUS
 10
88.8076480987
 20
53.6163919803
 11
88.8667610406
 21
53.6506349946
  0
LINE
  5
46E
100
AcDbEntity
  8
02___PRT_ALL_AXES
100
AcDbLine
 62
7
  6
CONTINUOUS
 10
89.2203233539
 20
52.8373333244
 11
89.3312458622
 21
52.901588645
  0
LINE
  5
46F
100
AcDbEntity
  8
0
100
AcDbLine
 62
7
  6
CONTINUOUS
 10
90.4538877656
 20
39.9126472753
 11
90.3947748237
 21
39.9468902897
  0
LINE
  5
470
100
AcDbEntity
  8
0
100
AcDbLine
 62
7
  6
CONTINUOUS
 10
88.1116768573
 20
41.2694459562
 11
88.1707897993
 21
41.2352029418
  0
LINE
  5
471
100
AcDbEntity
  8
0
100
AcDbLine
 62
7
  6
CONTINUOUS
 10
83.5748806226
 20
38.1629895531
 11
83.5748806226
 21
38.0948462354
  0
LINE
  5
472
100
AcDbEntity
  8
0
100
AcDbLine
 62
7
  6
CONTINUOUS
 10
83.5748806226
 20
52.8588031781
 11
83.5748806226
 21
52.9269464958
  0
LINE
  5
473
100
AcDbEntity
  8
02___PRT_ALL_AXES
100
AcDbLine
 62
7
  6
CONTINUOUS
 10
89.2203233539
 20
52.1430429169
 11
89.3385492379
 21
52.2115289456
  0
LINE
  5
474
100
AcDbEntity
  8
0
100
AcDbLine
 62
3
  6
CONTINUOUS
 10
88.780879974
 20
41.550463593
 11
90.3947748237
 21
40.6155646924
  0
LINE
  5
475
100
AcDbEntity
  8
0
100
AcDbLine
 62
3
  6
CONTINUOUS
 10
88.7973869842
 20
41.5790544932
 11
90.3947748237
 21
40.6537177929
  0
LINE
  5
476
100
AcDbEntity
  8
02___PRT_ALL_AXES
100
AcDbLine
 62
7
  6
CONTINUOUS
 10
90.2241280289
 20
52.2558481754
 11
90.3350505372
 21
52.3201034961
  0
LINE
  5
477
100
AcDbEntity
  8
02___PRT_ALL_AXES
100
AcDbLine
 62
7
  6
CONTINUOUS
 10
90.2241280289
 20
51.561557768
 11
90.3423539129
 21
51.6300437966
  0
LINE
  5
478
100
AcDbEntity
  8
02___PRT_ALL_AXES
100
AcDbLine
 62
7
  6
CONTINUOUS
 10
84.9209163971
 20
38.2003338216
 11
84.9209163971
 21
38.1321905038
  0
LINE
  5
479
100
AcDbEntity
  8
02___PRT_ALL_AXES
100
AcDbLine
 62
7
  6
CONTINUOUS
 10
84.9209163971
 20
52.8961474465
 11
84.9209163971
 21
52.9642907643
  0
LINE
  5
47A
100
AcDbEntity
  8
02___PRT_ALL_AXES
100
AcDbLine
 62
7
  6
CONTINUOUS
 10
89.0117550492
 20
50.5066220105
 11
89.03051948
 21
50.517491892
  0
LINE
  5
47B
100
AcDbEntity
  8
02___PRT_ALL_AXES
100
AcDbLine
 62
7
  6
CONTINUOUS
 10
89.0307158042
 20
50.3371517651
 11
89.0898287462
 21
50.3713947795
  0
LINE
  5
47C
100
AcDbEntity
  8
02___PRT_ALL_AXES
100
AcDbLine
 62
7
  6
CONTINUOUS
 10
89.7478784776
 20
50.2344863252
 11
89.8069914195
 21
50.2687293395
  0
LINE
  5
47D
100
AcDbEntity
  8
02___PRT_ALL_AXES
100
AcDbLine
 62
7
  6
CONTINUOUS
 10
89.8337595442
 20
49.9491070246
 11
89.8928724862
 21
49.9833500389
  0
LINE
  5
47E
100
AcDbEntity
  8
0
100
AcDbLine
 62
3
  6
CONTINUOUS
 10
88.8076480987
 20
44.0506130329
 11
90.3947748237
 21
43.1312204029
  0
LINE
  5
47F
100
AcDbEntity
  8
0
100
AcDbLine
 62
7
  6
CONTINUOUS
 10
86.2196165788
 20
37.5283954273
 11
86.2196165788
 21
37.4602521095
  0
LINE
  5
480
100
AcDbEntity
  8
0
100
AcDbLine
 62
7
  6
CONTINUOUS
 10
86.2196165788
 20
52.2242090522
 11
86.2196165788
 21
52.29235237
  0
LINE
  5
481
100
AcDbEntity
  8
02___PRT_ALL_AXES
100
AcDbLine
 62
7
  6
CONTINUOUS
 10
89.7478784776
 20
48.3573307791
 11
89.8069914195
 21
48.3915737934
  0
LINE
  5
482
100
AcDbEntity
  8
02___PRT_ALL_AXES
100
AcDbLine
 62
7
  6
CONTINUOUS
 10
89.8337595442
 20
48.0719514785
 11
89.8928724862
 21
48.1061944928
  0
LINE
  5
483
100
AcDbEntity
  8
02___PRT_ALL_AXES
100
AcDbLine
 62
7
  6
CONTINUOUS
 10
89.0117550492
 20
47.0608844327
 11
89.03051948
 21
47.0717543141
  0
LINE
  5
484
100
AcDbEntity
  8
02___PRT_ALL_AXES
100
AcDbLine
 62
7
  6
CONTINUOUS
 10
89.0307158042
 20
46.8914141873
 11
89.0898287462
 21
46.9256572016
  0
LINE
  5
485
100
AcDbEntity
  8
0
100
AcDbLine
 62
7
  6
CONTINUOUS
 10
88.1116768573
 20
41.2694459562
 11
88.1116768573
 21
53.3202439485
  0
LINE
  5
486
100
AcDbEntity
  8
0
100
AcDbLine
 62
7
  6
CONTINUOUS
 10
88.1116768573
 20
55.9267637697
 11
88.1116768573
 21
55.927202181
  0
LINE
  5
487
100
AcDbEntity
  8
0
100
AcDbLine
 62
3
  6
CONTINUOUS
 10
88.1707897993
 20
41.2352029418
 11
88.1707897993
 21
53.3544869628
  0
LINE
  5
488
100
AcDbEntity
  8
0
100
AcDbLine
 62
3
  6
CONTINUOUS
 10
88.7643729638
 20
53.6983385142
 11
88.7643729638
 21
41.5790544932
  0
LINE
  5
489
100
AcDbEntity
  8
02___PRT_ALL_AXES
100
AcDbLine
 62
7
  6
CONTINUOUS
 10
89.7478784776
 20
46.4801752329
 11
89.8069914195
 21
46.5144182473
  0
LINE
  5
48A
100
AcDbEntity
  8
0
100
AcDbLine
 62
3
  6
CONTINUOUS
 10
88.7973869842
 20
53.7174629146
 11
88.7973869842
 21
41.5790544932
  0
LINE
  5
48B
100
AcDbEntity
  8
0
100
AcDbLine
 62
3
  6
CONTINUOUS
 10
88.8076480987
 20
53.6163919803
 11
88.8076480987
 21
44.0506130329
  0
LINE
  5
48C
100
AcDbEntity
  8
02___PRT_ALL_AXES
100
AcDbLine
 62
3
  6
CONTINUOUS
 10
89.2203233539
 20
44.3515616774
 11
89.2203233539
 21
45.0458520849
  0
LINE
  5
48D
100
AcDbEntity
  8
02___PRT_ALL_AXES
100
AcDbLine
 62
3
  6
CONTINUOUS
 10
89.2203233539
 20
52.1430429169
 11
89.2203233539
 21
52.8373333244
  0
LINE
  5
48E
100
AcDbEntity
  8
02___PRT_ALL_AXES
100
AcDbLine
 62
3
  6
CONTINUOUS
 10
89.2794362959
 20
52.8715763387
 11
89.2794362959
 21
52.1772859312
  0
LINE
  5
48F
100
AcDbEntity
  8
02___PRT_ALL_AXES
100
AcDbLine
 62
3
  6
CONTINUOUS
 10
89.2794362959
 20
45.0800950993
 11
89.2794362959
 21
44.3858046918
  0
LINE
  5
490
100
AcDbEntity
  8
02___PRT_ALL_AXES
100
AcDbLine
 62
7
  6
CONTINUOUS
 10
89.3385492379
 20
52.8967446763
 11
89.3385492379
 21
52.2115289456
  0
LINE
  5
491
100
AcDbEntity
  8
02___PRT_ALL_AXES
100
AcDbLine
 62
7
  6
CONTINUOUS
 10
89.3385492379
 20
45.1052634368
 11
89.3385492379
 21
44.4200477061
  0
LINE
  5
492
100
AcDbEntity
  8
02___PRT_ALL_AXES
100
AcDbLine
 62
3
  6
CONTINUOUS
 10
89.4433910595
 20
52.7081144024
 11
89.4433910595
 21
52.0138239949
  0
LINE
  5
493
100
AcDbEntity
  8
02___PRT_ALL_AXES
100
AcDbLine
 62
3
  6
CONTINUOUS
 10
89.4433910595
 20
44.9166331629
 11
89.4433910595
 21
44.2223427555
  0
LINE
  5
494
100
AcDbEntity
  8
02___PRT_ALL_AXES
100
AcDbLine
 62
7
  6
CONTINUOUS
 10
89.8337595442
 20
46.1947959323
 11
89.8928724862
 21
46.2290389467
  0
LINE
  5
495
100
AcDbEntity
  8
02___PRT_ALL_AXES
100
AcDbLine
 62
7
  6
CONTINUOUS
 10
89.2203233539
 20
45.0458520849
 11
89.3312458622
 21
45.1101074055
  0
LINE
  5
496
100
AcDbEntity
  8
02___PRT_ALL_AXES
100
AcDbLine
 62
3
  6
CONTINUOUS
 10
90.2241280289
 20
43.7700765285
 11
90.2241280289
 21
44.464366936
  0
LINE
  5
497
100
AcDbEntity
  8
02___PRT_ALL_AXES
100
AcDbLine
 62
3
  6
CONTINUOUS
 10
90.2241280289
 20
51.561557768
 11
90.2241280289
 21
52.2558481754
  0
LINE
  5
498
100
AcDbEntity
  8
02___PRT_ALL_AXES
100
AcDbLine
 62
3
  6
CONTINUOUS
 10
90.2832409709
 20
52.2900911898
 11
90.2832409709
 21
51.5958007823
  0
LINE
  5
499
100
AcDbEntity
  8
02___PRT_ALL_AXES
100
AcDbLine
 62
3
  6
CONTINUOUS
 10
90.2832409709
 20
44.4986099503
 11
90.2832409709
 21
43.8043195428
  0
LINE
  5
49A
100
AcDbEntity
  8
02___PRT_ALL_AXES
100
AcDbLine
 62
7
  6
CONTINUOUS
 10
90.3423539129
 20
52.3152595274
 11
90.3423539129
 21
51.6300437966
  0
LINE
  5
49B
100
AcDbEntity
  8
02___PRT_ALL_AXES
100
AcDbLine
 62
7
  6
CONTINUOUS
 10
90.3423539129
 20
44.5237782879
 11
90.3423539129
 21
43.8385625572
  0
LINE
  5
49C
100
AcDbEntity
  8
0
100
AcDbLine
 62
3
  6
CONTINUOUS
 10
90.3947748237
 20
54.6046465145
 11
90.3947748237
 21
39.9468902897
  0
LINE
  5
49D
100
AcDbEntity
  8
0
100
AcDbLine
 62
7
  6
CONTINUOUS
 10
90.4538877656
 20
54.5704035001
 11
90.4538877656
 21
39.9126472753
  0
LINE
  5
49E
100
AcDbEntity
  8
02___PRT_ALL_AXES
100
AcDbLine
 62
7
  6
CONTINUOUS
 10
89.2203233539
 20
44.3515616774
 11
89.3385492379
 21
44.4200477061
  0
LINE
  5
49F
100
AcDbEntity
  8
02___PRT_ALL_AXES
100
AcDbLine
 62
7
  6
CONTINUOUS
 10
90.2241280289
 20
44.464366936
 11
90.3350505372
 21
44.5286222566
  0
LINE
  5
4A0
100
AcDbEntity
  8
0
100
AcDbLine
 62
7
  6
CONTINUOUS
 10
90.9718509779
 20
55.0452322839
 11
90.9718509779
 21
54.9770889661
  0
LINE
  5
4A1
100
AcDbEntity
  8
0
100
AcDbLine
 62
3
  6
CONTINUOUS
 10
90.9883579881
 20
54.9484980659
 11
90.9883579881
 21
54.9676224663
  0
LINE
  5
4A2
100
AcDbEntity
  8
0
100
AcDbLine
 62
7
  6
CONTINUOUS
 10
91.0474709301
 20
40.2564988267
 11
91.0474709301
 21
54.9142550515
  0
LINE
  5
4A3
100
AcDbEntity
  8
0
100
AcDbLine
 62
7
  6
CONTINUOUS
 10
91.0787937399
 20
40.3003040413
 11
91.0787937399
 21
54.9580602661
  0
LINE
  5
4A4
100
AcDbEntity
  8
02___PRT_ALL_AXES
100
AcDbLine
 62
7
  6
CONTINUOUS
 10
90.2241280289
 20
43.7700765285
 11
90.3423539129
 21
43.8385625572
  0
LINE
  5
4A5
100
AcDbEntity
  8
0
100
AcDbLine
 62
3
  6
CONTINUOUS
 10
88.7643729638
 20
41.5790544932
 11
88.1707897993
 21
41.2352029418
  0
LINE
  5
4A6
100
AcDbEntity
  8
0
100
AcDbLine
 62
3
  6
CONTINUOUS
 10
84.0286455749
 20
38.797583679
 11
88.780879974
 21
41.550463593
  0
LINE
  5
4A7
100
AcDbEntity
  8
0
100
AcDbLine
 62
3
  6
CONTINUOUS
 10
90.3947748237
 20
52.6969993504
 11
88.8076480987
 21
53.6163919803
  0
LINE
  5
4A8
100
AcDbEntity
  8
0
100
AcDbLine
 62
7
  6
CONTINUOUS
 10
90.3947748237
 20
52.765485379
 11
88.8667610406
 21
53.6506349946
  0
LINE
  5
4A9
100
AcDbEntity
  8
0
100
AcDbLine
 62
3
  6
CONTINUOUS
 10
90.3947333151
 20
39.9469619449
 11
86.2196165788
 21
37.5283954273
  0
LINE
  5
4AA
100
AcDbEntity
  8
0
100
AcDbLine
 62
7
  6
CONTINUOUS
 10
90.4536976116
 20
39.912975534
 11
86.2196165788
 21
37.4602521095
  0
LINE
  5
4AB
100
AcDbEntity
  8
0
100
AcDbLine
 62
7
  6
CONTINUOUS
 10
90.4538877656
 20
39.9126472753
 11
91.0474709301
 21
40.2564988267
  0
LINE
  5
4AC
100
AcDbEntity
  8
0
100
AcDbLine
 62
7
  6
CONTINUOUS
 10
90.4538877656
 20
54.5704035001
 11
90.3947748237
 21
54.6046465145
  0
LINE
  5
4AD
100
AcDbEntity
  8
0
100
AcDbLine
 62
7
  6
CONTINUOUS
 10
91.0474709301
 20
54.9142550515
 11
90.9883579881
 21
54.9484980659
  0
LINE
  5
4AE
100
AcDbEntity
  8
0
100
AcDbLine
 62
3
  6
CONTINUOUS
 10
90.9883579881
 20
54.9676224663
 11
90.9718924865
 21
54.9771606214
  0
LINE
  5
4AF
100
AcDbEntity
  8
0
100
AcDbLine
 62
7
  6
CONTINUOUS
 10
90.9718509779
 20
55.0452322839
 11
88.780879974
 21
56.3144205356
  0
LINE
  5
4B0
100
AcDbEntity
  8
0
100
AcDbLine
 62
7
  6
CONTINUOUS
 10
91.0254563139
 20
55.0505979465
 11
88.83448531
 21
56.3197861982
  0
CIRCLE
  5
4B1
100
AcDbEntity
  8
0
100
AcDbCircle
 62
7
  6
CONTINUOUS
 10
18.7652577981
 20
51.1266464757
 40
0.375
  0
CIRCLE
  5
4B2
100
AcDbEntity
  8
0
100
AcDbCircle
 62
7
  6
CONTINUOUS
 10
18.7652577981
 20
48.2526307277
 40
0.375
  0
CIRCLE
  5
4B3
100
AcDbEntity
  8
0
100
AcDbCircle
 62
7
  6
CONTINUOUS
 10
18.7652577981
 20
45.3786149796
 40
0.375
  0
CIRCLE
  5
4B4
100
AcDbEntity
  8
0
100
AcDbCircle
 62
7
  6
CONTINUOUS
 10
17.3479349635
 20
50.8904260032
 40
0.215
  0
CIRCLE
  5
4B5
100
AcDbEntity
  8
0
100
AcDbCircle
 62
7
  6
CONTINUOUS
 10
20.1840631052
 20
50.8904260032
 40
0.215
  0
CIRCLE
  5
4B6
100
AcDbEntity
  8
0
100
AcDbCircle
 62
7
  6
CONTINUOUS
 10
17.3479349635
 20
45.6148354521
 40
0.215
  0
CIRCLE
  5
4B7
100
AcDbEntity
  8
0
100
AcDbCircle
 62
7
  6
CONTINUOUS
 10
20.1825806328
 20
45.6148354521
 40
0.215
  0
CIRCLE
  5
4B8
100
AcDbEntity
  8
02___PRT_ALL_AXES
100
AcDbCircle
 62
3
  6
CONTINUOUS
 10
18.7652577981
 20
45.3786149796
 40
0.2559055118
  0
CIRCLE
  5
4B9
100
AcDbEntity
  8
02___PRT_ALL_AXES
100
AcDbCircle
 62
3
  6
CONTINUOUS
 10
18.7652577981
 20
51.1266464757
 40
0.2559055118
  0
CIRCLE
  5
4BA
100
AcDbEntity
  8
02___PRT_ALL_AXES
100
AcDbCircle
 62
3
  6
CONTINUOUS
 10
18.7652577981
 20
48.2526307277
 40
0.2559055118
  0
ARC
  5
4BB
100
AcDbEntity
  8
02___PRT_ALL_AXES
100
AcDbCircle
 62
3
  6
CONTINUOUS
 10
19.6510845698
 20
42.8195598615
 40
0.1968503937
100
AcDbArc
 50
0.0
 51
180.0
  0
ARC
  5
4BC
100
AcDbEntity
  8
02___PRT_ALL_AXES
100
AcDbCircle
 62
3
  6
CONTINUOUS
 10
19.6510845698
 20
41.7565677355
 40
0.1968503937
100
AcDbArc
 50
180.0
 51
360.0
  0
ARC
  5
4BD
100
AcDbEntity
  8
02___PRT_ALL_AXES
100
AcDbCircle
 62
3
  6
CONTINUOUS
 10
17.8794310265
 20
42.8195598615
 40
0.1968503937
100
AcDbArc
 50
0.0
 51
180.0
  0
ARC
  5
4BE
100
AcDbEntity
  8
02___PRT_ALL_AXES
100
AcDbCircle
 62
3
  6
CONTINUOUS
 10
17.8794310265
 20
41.7565677355
 40
0.1968503937
100
AcDbArc
 50
180.0
 51
360.0
  0
ARC
  5
4BF
100
AcDbEntity
  8
02___PRT_ALL_AXES
100
AcDbCircle
 62
3
  6
CONTINUOUS
 10
19.6510845698
 20
53.6857015938
 40
0.1968503937
100
AcDbArc
 50
180.0
 51
360.0
  0
ARC
  5
4C0
100
AcDbEntity
  8
02___PRT_ALL_AXES
100
AcDbCircle
 62
3
  6
CONTINUOUS
 10
19.6510845698
 20
54.7486937198
 40
0.1968503937
100
AcDbArc
 50
0.0
 51
180.0
  0
ARC
  5
4C1
100
AcDbEntity
  8
02___PRT_ALL_AXES
100
AcDbCircle
 62
3
  6
CONTINUOUS
 10
17.8794310265
 20
53.6857015938
 40
0.1968503937
100
AcDbArc
 50
180.0
 51
360.0
  0
ARC
  5
4C2
100
AcDbEntity
  8
02___PRT_ALL_AXES
100
AcDbCircle
 62
3
  6
CONTINUOUS
 10
17.8794310265
 20
54.7486937198
 40
0.1968503937
100
AcDbArc
 50
0.0
 51
180.0
  0
CIRCLE
  5
4C3
100
AcDbEntity
  8
02___PRT_ALL_AXES
100
AcDbCircle
 62
3
  6
CONTINUOUS
 10
20.1825806328
 20
45.6148354521
 40
0.1377952756
  0
CIRCLE
  5
4C4
100
AcDbEntity
  8
02___PRT_ALL_AXES
100
AcDbCircle
 62
3
  6
CONTINUOUS
 10
17.3479349635
 20
45.6148354521
 40
0.1377952756
  0
CIRCLE
  5
4C5
100
AcDbEntity
  8
02___PRT_ALL_AXES
100
AcDbCircle
 62
3
  6
CONTINUOUS
 10
20.1825806328
 20
50.8904260032
 40
0.1377952756
  0
CIRCLE
  5
4C6
100
AcDbEntity
  8
02___PRT_ALL_AXES
100
AcDbCircle
 62
3
  6
CONTINUOUS
 10
17.3479349635
 20
50.8904260032
 40
0.1377952756
  0
ARC
  5
4C7
100
AcDbEntity
  8
0
100
AcDbCircle
 62
7
  6
CONTINUOUS
 10
58.4994220404
 20
37.0317645859
 40
0.1334645669
100
AcDbArc
 50
270.0
 51
360.0
  0
ARC
  5
4C8
100
AcDbEntity
  8
0
100
AcDbCircle
 62
7
  6
CONTINUOUS
 10
58.4994220404
 20
59.4734968694
 40
0.1334645669
100
AcDbArc
 50
0.0
 51
90.0
  0
ARC
  5
4C9
100
AcDbEntity
  8
0
100
AcDbCircle
 62
3
  6
CONTINUOUS
 10
58.4994220404
 20
37.0317645859
 40
0.0291338583
100
AcDbArc
 50
270.0
 51
360.0
  0
ARC
  5
4CA
100
AcDbEntity
  8
0
100
AcDbCircle
 62
3
  6
CONTINUOUS
 10
58.4994220404
 20
59.4734968694
 40
0.0291338583
100
AcDbArc
 50
0.0
 51
90.0
  0
ARC
  5
4CB
100
AcDbEntity
  8
0
100
AcDbCircle
 62
7
  6
CONTINUOUS
 10
50.1120204656
 20
30.9611448976
 40
1.9334645669
100
AcDbArc
 50
90.0
 51
270.0
  0
CIRCLE
  5
4CC
100
AcDbEntity
  8
02___PRT_ALL_AXES
100
AcDbCircle
 62
7
  6
CONTINUOUS
 10
49.9895795207
 20
30.9611448976
 40
0.2362204724
  0
ARC
  5
4CD
100
AcDbEntity
  8
0
100
AcDbCircle
 62
7
  6
CONTINUOUS
 10
58.4994220404
 20
29.0276803307
 40
0.1334645669
100
AcDbArc
 50
270.0
 51
360.0
  0
ARC
  5
4CE
100
AcDbEntity
  8
0
100
AcDbCircle
 62
7
  6
CONTINUOUS
 10
58.4994220404
 20
32.8946094646
 40
0.1334645669
100
AcDbArc
 50
0.0
 51
90.0
  0
ARC
  5
4CF
100
AcDbEntity
  8
0
100
AcDbCircle
 62
3
  6
CONTINUOUS
 10
58.4994220404
 20
29.0276803307
 40
0.0291338583
100
AcDbArc
 50
270.0
 51
360.0
  0
ARC
  5
4D0
100
AcDbEntity
  8
0
100
AcDbCircle
 62
3
  6
CONTINUOUS
 10
58.4994220404
 20
32.8946094646
 40
0.0291338583
100
AcDbArc
 50
0.0
 51
90.0
  0
ARC
  5
4D1
100
AcDbEntity
  8
0
100
AcDbCircle
 62
3
  6
CONTINUOUS
 10
84.0982758273
 20
38.163123654
 40
0.5233952219
100
AcDbArc
 50
180.0146799507
 51
187.4564546436
  0
ARC
  5
4D2
100
AcDbEntity
  8
0
100
AcDbCircle
 62
7
  6
CONTINUOUS
 10
84.0982758273
 20
52.9270805967
 40
0.5233952219
100
AcDbArc
 50
180.0146799507
 51
187.4564546436
  0
ARC
  5
4D3
100
AcDbEntity
  8
02___PRT_ALL_AXES
100
AcDbCircle
 62
3
  6
CONTINUOUS
 10
89.9473610605
 20
46.4802261897
 40
0.1994825894
100
AcDbArc
 50
180.0146359103
 51
182.3407978584
  0
ARC
  5
4D4
100
AcDbEntity
  8
02___PRT_ALL_AXES
100
AcDbCircle
 62
3
  6
CONTINUOUS
 10
89.9334598308
 20
46.4802205925
 40
0.1855813587
100
AcDbArc
 50
177.5731091811
 51
180.0140041518
  0
ARC
  5
4D5
100
AcDbEntity
  8
02___PRT_ALL_AXES
100
AcDbCircle
 62
3
  6
CONTINUOUS
 10
89.9185521652
 20
46.4808898714
 40
0.1706587281
100
AcDbArc
 50
174.2871608471
 51
177.5856722806
  0
ARC
  5
4D6
100
AcDbEntity
  8
02___PRT_ALL_AXES
100
AcDbCircle
 62
3
  6
CONTINUOUS
 10
89.9690949024
 20
46.3528179871
 40
0.1450997937
100
AcDbArc
 50
248.2226882364
 51
251.245603124
  0
ARC
  5
4D7
100
AcDbEntity
  8
02___PRT_ALL_AXES
100
AcDbCircle
 62
3
  6
CONTINUOUS
 10
89.8789694134
 20
46.48673959
 40
0.1306085379
100
AcDbArc
 50
164.7845148854
 51
168.4818035974
  0
ARC
  5
4D8
100
AcDbEntity
  8
02___PRT_ALL_AXES
100
AcDbCircle
 62
3
  6
CONTINUOUS
 10
89.1470324528
 20
47.0239824124
 40
0.1137573595
100
AcDbArc
 50
235.9765015009
 51
238.2155912655
  0
ARC
  5
4D9
100
AcDbEntity
  8
02___PRT_ALL_AXES
100
AcDbCircle
 62
3
  6
CONTINUOUS
 10
89.9598097219
 20
46.3191671436
 40
0.1101491158
100
AcDbArc
 50
258.1397968334
 51
262.4152095666
  0
ARC
  5
4DA
100
AcDbEntity
  8
02___PRT_ALL_AXES
100
AcDbCircle
 62
3
  6
CONTINUOUS
 10
89.3877019554
 20
45.08356641
 40
0.1080599369
100
AcDbArc
 50
167.633110394
 51
170.9899325963
  0
ARC
  5
4DB
100
AcDbEntity
  8
02___PRT_ALL_AXES
100
AcDbCircle
 62
3
  6
CONTINUOUS
 10
90.3915066304
 20
44.5020812611
 40
0.1080599369
100
AcDbArc
 50
167.6331103946
 51
170.9899325957
  0
ARC
  5
4DC
100
AcDbEntity
  8
02___PRT_ALL_AXES
100
AcDbCircle
 62
3
  6
CONTINUOUS
 10
89.1422410278
 20
47.0161898969
 40
0.1046096841
100
AcDbArc
 50
238.1982700038
 51
241.6359198444
  0
ARC
  5
4DD
100
AcDbEntity
  8
02___PRT_ALL_AXES
100
AcDbCircle
 62
3
  6
CONTINUOUS
 10
89.8490348023
 20
46.4968403018
 40
0.0989680364
100
AcDbArc
 50
153.459510527
 51
156.8194803308
  0
ARC
  5
4DE
100
AcDbEntity
  8
02___PRT_ALL_AXES
100
AcDbCircle
 62
3
  6
CONTINUOUS
 10
89.1378503533
 20
47.0081060283
 40
0.0954104251
100
AcDbArc
 50
241.649812392
 51
244.1674802168
  0
ARC
  5
4DF
100
AcDbEntity
  8
02___PRT_ALL_AXES
100
AcDbCircle
 62
3
  6
CONTINUOUS
 10
89.8413501798
 20
46.5007322144
 40
0.0903542174
100
AcDbArc
 50
147.5228037096
 51
153.4899848676
  0
ARC
  5
4E0
100
AcDbEntity
  8
02___PRT_ALL_AXES
100
AcDbCircle
 62
3
  6
CONTINUOUS
 10
89.9579859764
 20
46.2970837597
 40
0.0879616918
100
AcDbArc
 50
270.076973222
 51
272.2327039266
  0
ARC
  5
4E1
100
AcDbEntity
  8
02___PRT_ALL_AXES
100
AcDbCircle
 62
3
  6
CONTINUOUS
 10
89.134106785
 20
47.0003056045
 40
0.0867582602
100
AcDbArc
 50
244.14800279
 51
248.0681987928
  0
ARC
  5
4E2
100
AcDbEntity
  8
02___PRT_ALL_AXES
100
AcDbCircle
 62
3
  6
CONTINUOUS
 10
89.3613695196
 20
45.0910979408
 40
0.080631746
100
AcDbArc
 50
155.3586023615
 51
160.0938676147
  0
ARC
  5
4E3
100
AcDbEntity
  8
02___PRT_ALL_AXES
100
AcDbCircle
 62
3
  6
CONTINUOUS
 10
90.3651741946
 20
44.5096127918
 40
0.080631746
100
AcDbArc
 50
155.3586023622
 51
160.0938676139
  0
ARC
  5
4E4
100
AcDbEntity
  8
02___PRT_ALL_AXES
100
AcDbCircle
 62
3
  6
CONTINUOUS
 10
89.1305910001
 20
46.9915663434
 40
0.0773383122
100
AcDbArc
 50
248.0661293716
 51
252.1599815758
  0
ARC
  5
4E5
100
AcDbEntity
  8
02___PRT_ALL_AXES
100
AcDbCircle
 62
3
  6
CONTINUOUS
 10
89.0868513987
 20
47.0634580057
 40
0.0749377084
100
AcDbArc
 50
167.9646884341
 51
170.0050927553
  0
ARC
  5
4E6
100
AcDbEntity
  8
02___PRT_ALL_AXES
100
AcDbCircle
 62
3
  6
CONTINUOUS
 10
89.9473610604
 20
48.3573817359
 40
0.1994825894
100
AcDbArc
 50
180.01463591
 51
182.3407978585
  0
ARC
  5
4E7
100
AcDbEntity
  8
02___PRT_ALL_AXES
100
AcDbCircle
 62
3
  6
CONTINUOUS
 10
89.9473610605
 20
50.234537282
 40
0.1994825894
100
AcDbArc
 50
180.0146359102
 51
182.3407978584
  0
ARC
  5
4E8
100
AcDbEntity
  8
02___PRT_ALL_AXES
100
AcDbCircle
 62
3
  6
CONTINUOUS
 10
89.9334598308
 20
48.3573761386
 40
0.1855813588
100
AcDbArc
 50
177.5731091816
 51
180.0140041512
  0
ARC
  5
4E9
100
AcDbEntity
  8
02___PRT_ALL_AXES
100
AcDbCircle
 62
3
  6
CONTINUOUS
 10
89.9334598308
 20
50.2345316847
 40
0.1855813588
100
AcDbArc
 50
177.5731091816
 51
180.0140041512
  0
ARC
  5
4EA
100
AcDbEntity
  8
02___PRT_ALL_AXES
100
AcDbCircle
 62
3
  6
CONTINUOUS
 10
89.9185521652
 20
48.3580454175
 40
0.1706587281
100
AcDbArc
 50
174.2871608469
 51
177.5856722811
  0
ARC
  5
4EB
100
AcDbEntity
  8
02___PRT_ALL_AXES
100
AcDbCircle
 62
3
  6
CONTINUOUS
 10
89.9185521652
 20
50.2352009636
 40
0.1706587281
100
AcDbArc
 50
174.2871608469
 51
177.5856722811
  0
ARC
  5
4EC
100
AcDbEntity
  8
02___PRT_ALL_AXES
100
AcDbCircle
 62
3
  6
CONTINUOUS
 10
89.9690949024
 20
48.2299735332
 40
0.1450997936
100
AcDbArc
 50
248.2226882358
 51
251.2456031246
  0
ARC
  5
4ED
100
AcDbEntity
  8
02___PRT_ALL_AXES
100
AcDbCircle
 62
3
  6
CONTINUOUS
 10
89.9690949024
 20
50.1071290793
 40
0.1450997936
100
AcDbArc
 50
248.2226882358
 51
251.2456031246
  0
ARC
  5
4EE
100
AcDbEntity
  8
02___PRT_ALL_AXES
100
AcDbCircle
 62
3
  6
CONTINUOUS
 10
89.8789694134
 20
48.3638951362
 40
0.1306085379
100
AcDbArc
 50
164.7845148856
 51
168.4818035973
  0
ARC
  5
4EF
100
AcDbEntity
  8
02___PRT_ALL_AXES
100
AcDbCircle
 62
3
  6
CONTINUOUS
 10
89.8789694134
 20
50.2410506823
 40
0.1306085379
100
AcDbArc
 50
164.7845148856
 51
168.4818035975
  0
ARC
  5
4F0
100
AcDbEntity
  8
02___PRT_ALL_AXES
100
AcDbCircle
 62
3
  6
CONTINUOUS
 10
89.1470324528
 20
50.4697199902
 40
0.1137573595
100
AcDbArc
 50
235.9765015007
 51
238.2155912659
  0
ARC
  5
4F1
100
AcDbEntity
  8
02___PRT_ALL_AXES
100
AcDbCircle
 62
3
  6
CONTINUOUS
 10
89.9598097219
 20
48.1963226897
 40
0.1101491158
100
AcDbArc
 50
258.1397968335
 51
262.4152095666
  0
ARC
  5
4F2
100
AcDbEntity
  8
02___PRT_ALL_AXES
100
AcDbCircle
 62
3
  6
CONTINUOUS
 10
89.9598097219
 20
50.0734782358
 40
0.1101491158
100
AcDbArc
 50
258.1397968331
 51
262.4152095666
  0
ARC
  5
4F3
100
AcDbEntity
  8
02___PRT_ALL_AXES
100
AcDbCircle
 62
3
  6
CONTINUOUS
 10
89.3877019554
 20
52.8750476494
 40
0.1080599369
100
AcDbArc
 50
167.633110394
 51
170.9899325963
  0
ARC
  5
4F4
100
AcDbEntity
  8
02___PRT_ALL_AXES
100
AcDbCircle
 62
3
  6
CONTINUOUS
 10
90.3915066304
 20
52.2935625005
 40
0.1080599369
100
AcDbArc
 50
167.6331103947
 51
170.9899325958
  0
ARC
  5
4F5
100
AcDbEntity
  8
0
100
AcDbCircle
 62
7
  6
CONTINUOUS
 10
88.7580985088
 20
56.1797465192
 40
0.1054936627
100
AcDbArc
 50
116.9809247524
 51
120.0574977048
  0
ARC
  5
4F6
100
AcDbEntity
  8
02___PRT_ALL_AXES
100
AcDbCircle
 62
3
  6
CONTINUOUS
 10
89.1422410278
 20
50.4619274747
 40
0.1046096841
100
AcDbArc
 50
238.1982700034
 51
241.6359198448
  0
ARC
  5
4F7
100
AcDbEntity
  8
02___PRT_ALL_AXES
100
AcDbCircle
 62
3
  6
CONTINUOUS
 10
89.8490348023
 20
48.3739958479
 40
0.0989680363
100
AcDbArc
 50
153.4595105268
 51
156.8194803312
  0
ARC
  5
4F8
100
AcDbEntity
  8
02___PRT_ALL_AXES
100
AcDbCircle
 62
3
  6
CONTINUOUS
 10
89.8490348023
 20
50.2511513941
 40
0.0989680364
100
AcDbArc
 50
153.4595105271
 51
156.8194803313
  0
ARC
  5
4F9
100
AcDbEntity
  8
02___PRT_ALL_AXES
100
AcDbCircle
 62
3
  6
CONTINUOUS
 10
89.1378503532
 20
50.4538436061
 40
0.0954104251
100
AcDbArc
 50
241.6498123914
 51
244.1674802172
  0
ARC
  5
4FA
100
AcDbEntity
  8
02___PRT_ALL_AXES
100
AcDbCircle
 62
3
  6
CONTINUOUS
 10
89.8413501798
 20
48.3778877605
 40
0.0903542174
100
AcDbArc
 50
147.5228037095
 51
153.4899848676
  0
ARC
  5
4FB
100
AcDbEntity
  8
02___PRT_ALL_AXES
100
AcDbCircle
 62
3
  6
CONTINUOUS
 10
89.8413501798
 20
50.2550433067
 40
0.0903542174
100
AcDbArc
 50
147.5228037095
 51
153.4899848676
  0
ARC
  5
4FC
100
AcDbEntity
  8
02___PRT_ALL_AXES
100
AcDbCircle
 62
3
  6
CONTINUOUS
 10
89.9579859764
 20
48.1742393058
 40
0.0879616918
100
AcDbArc
 50
270.0769732225
 51
272.232703927
  0
ARC
  5
4FD
100
AcDbEntity
  8
02___PRT_ALL_AXES
100
AcDbCircle
 62
3
  6
CONTINUOUS
 10
89.9579859764
 20
50.0513948519
 40
0.0879616918
100
AcDbArc
 50
270.0769732218
 51
272.2327039273
  0
ARC
  5
4FE
100
AcDbEntity
  8
02___PRT_ALL_AXES
100
AcDbCircle
 62
3
  6
CONTINUOUS
 10
89.134106785
 20
50.4460431824
 40
0.0867582602
100
AcDbArc
 50
244.1480027897
 51
248.0681987929
  0
ARC
  5
4FF
100
AcDbEntity
  8
02___PRT_ALL_AXES
100
AcDbCircle
 62
3
  6
CONTINUOUS
 10
89.3613695196
 20
52.8825791802
 40
0.080631746
100
AcDbArc
 50
155.3586023618
 51
160.0938676147
  0
ARC
  5
500
100
AcDbEntity
  8
02___PRT_ALL_AXES
100
AcDbCircle
 62
3
  6
CONTINUOUS
 10
90.3651741946
 20
52.3010940313
 40
0.080631746
100
AcDbArc
 50
155.358602362
 51
160.0938676139
  0
ARC
  5
501
100
AcDbEntity
  8
02___PRT_ALL_AXES
100
AcDbCircle
 62
3
  6
CONTINUOUS
 10
89.1305910001
 20
50.4373039213
 40
0.0773383122
100
AcDbArc
 50
248.0661293723
 51
252.1599815755
  0
ARC
  5
502
100
AcDbEntity
  8
02___PRT_ALL_AXES
100
AcDbCircle
 62
3
  6
CONTINUOUS
 10
89.0868513988
 20
50.5091955835
 40
0.0749377084
100
AcDbArc
 50
167.9646884345
 51
170.0050927543
  0
SPLINE
  5
503
100
AcDbEntity
  8
02___PRT_ALL_AXES
100
AcDbSpline
 62
7
  6
CONTINUOUS
 70
0
 71
3
 72
9
 73
5
 74
0
 42
0.0000001
 43
0.0000001
 44
0.0000000001
 40
0.0
 40
0.0
 40
0.0
 40
0.0
 40
0.2298408981
 40
1.0
 40
1.0
 40
1.0
 40
1.0
 10
89.2880770446
 20
52.9161900117
 30
0.0
 10
89.286616611
 20
52.9130121905
 30
0.0
 10
89.2812144272
 20
52.8987465046
 30
0.0
 10
89.2794362959
 20
52.8832953634
 30
0.0
 10
89.2794362959
 20
52.8715763387
 30
0.0
  0
SPLINE
  5
504
100
AcDbEntity
  8
02___PRT_ALL_AXES
100
AcDbSpline
 62
7
  6
CONTINUOUS
 70
0
 71
3
 72
9
 73
5
 74
0
 42
0.0000001
 43
0.0000001
 44
0.0000000001
 40
0.0
 40
0.0
 40
0.0
 40
0.0
 40
0.2298408981
 40
1.0
 40
1.0
 40
1.0
 40
1.0
 10
90.2918817196
 20
52.3347048627
 30
0.0
 10
90.290421286
 20
52.3315270416
 30
0.0
 10
90.2850191022
 20
52.3172613556
 30
0.0
 10
90.2832409709
 20
52.3018102144
 30
0.0
 10
90.2832409709
 20
52.2900911898
 30
0.0
  0
SPLINE
  5
505
100
AcDbEntity
  8
02___PRT_ALL_AXES
100
AcDbSpline
 62
7
  6
CONTINUOUS
 70
0
 71
3
 72
9
 73
5
 74
0
 42
0.0000001
 43
0.0000001
 44
0.0000000001
 40
0.0
 40
0.0
 40
0.0
 40
0.0
 40
0.2298408981
 40
1.0
 40
1.0
 40
1.0
 40
1.0
 10
89.2880770446
 20
45.1247087722
 30
0.0
 10
89.286616611
 20
45.121530951
 30
0.0
 10
89.2812144272
 20
45.1072652651
 30
0.0
 10
89.2794362959
 20
45.0918141239
 30
0.0
 10
89.2794362959
 20
45.0800950993
 30
0.0
  0
SPLINE
  5
506
100
AcDbEntity
  8
02___PRT_ALL_AXES
100
AcDbSpline
 62
7
  6
CONTINUOUS
 70
0
 71
3
 72
9
 73
5
 74
0
 42
0.0000001
 43
0.0000001
 44
0.0000000001
 40
0.0
 40
0.0
 40
0.0
 40
0.0
 40
0.2298408981
 40
1.0
 40
1.0
 40
1.0
 40
1.0
 10
90.2918817196
 20
44.5432236233
 30
0.0
 10
90.290421286
 20
44.5400458021
 30
0.0
 10
90.2850191022
 20
44.5257801162
 30
0.0
 10
90.2832409709
 20
44.510328975
 30
0.0
 10
90.2832409709
 20
44.4986099503
 30
0.0
  0
SPLINE
  5
507
100
AcDbEntity
  8
02___PRT_ALL_AXES
100
AcDbSpline
 62
7
  6
CONTINUOUS
 70
0
 71
3
 72
12
 73
8
 74
0
 42
0.0000001
 43
0.0000001
 44
0.0000000001
 40
0.0
 40
0.0
 40
0.0
 40
0.0
 40
0.2017515568
 40
0.3258990846
 40
0.4613004699
 40
0.7429940946
 40
1.0
 40
1.0
 40
1.0
 40
1.0
 10
89.7652053444
 20
48.4265270984
 30
0.0
 10
89.7517316645
 20
48.4054828289
 30
0.0
 10
89.7448449614
 20
48.3626446444
 30
0.0
 10
89.7524919813
 20
48.3062206366
 30
0.0
 10
89.7727199099
 20
48.2418638675
 30
0.0
 10
89.815438937
 20
48.1689676247
 30
0.0
 10
89.8653285927
 20
48.1221501517
 30
0.0
 10
89.8928724862
 20
48.1061944928
 30
0.0
  0
LINE
  5
508
100
AcDbEntity
  8
02___PRT_ALL_AXES
100
AcDbLine
 62
7
  6
CONTINUOUS
 10
89.0833771263
 20
50.3754305016
 11
89.0898287462
 21
50.3713947795
  0
SPLINE
  5
509
100
AcDbEntity
  8
02___PRT_ALL_AXES
100
AcDbSpline
 62
7
  6
CONTINUOUS
 70
0
 71
3
 72
11
 73
7
 74
0
 42
0.0000001
 43
0.0000001
 44
0.0000000001
 40
0.0
 40
0.0
 40
0.0
 40
0.0
 40
0.2523353288
 40
0.5303215059
 40
0.7907485322
 40
1.0
 40
1.0
 40
1.0
 40
1.0
 10
89.2794362959
 20
52.1772859312
 30
0.0
 10
89.2794362959
 20
52.1540064872
 30
0.0
 10
89.2903382345
 20
52.1051091489
 30
0.0
 10
89.3257870219
 20
52.0404276392
 30
0.0
 10
89.3741548272
 20
51.9902709241
 30
0.0
 10
89.4153536083
 20
51.9707982506
 30
0.0
 10
89.4345814672
 20
51.9690775277
 30
0.0
  0
SPLINE
  5
50A
100
AcDbEntity
  8
02___PRT_ALL_AXES
100
AcDbSpline
 62
7
  6
CONTINUOUS
 70
0
 71
3
 72
11
 73
7
 74
0
 42
0.0000001
 43
0.0000001
 44
0.0000000001
 40
0.0
 40
0.0
 40
0.0
 40
0.0
 40
0.2369618376
 40
0.4996822626
 40
0.7625744689
 40
1.0
 40
1.0
 40
1.0
 40
1.0
 10
90.2832409709
 20
51.5958007823
 30
0.0
 10
90.2832409709
 20
51.5775400575
 30
0.0
 10
90.2901062486
 20
51.5390099967
 30
0.0
 10
90.3140115906
 20
51.4848521958
 30
0.0
 10
90.3489860271
 20
51.4370444773
 30
0.0
 10
90.3789428801
 20
51.4117901704
 30
0.0
 10
90.3947748237
 20
51.4026190236
 30
0.0
  0
SPLINE
  5
50B
100
AcDbEntity
  8
02___PRT_ALL_AXES
100
AcDbSpline
 62
7
  6
CONTINUOUS
 70
0
 71
3
 72
12
 73
8
 74
0
 42
0.0000001
 43
0.0000001
 44
0.0000000001
 40
0.0
 40
0.0
 40
0.0
 40
0.0
 40
0.2017515568
 40
0.3258990846
 40
0.4613004699
 40
0.7429940946
 40
1.0
 40
1.0
 40
1.0
 40
1.0
 10
89.7652053444
 20
50.3036826445
 30
0.0
 10
89.7517316645
 20
50.282638375
 30
0.0
 10
89.7448449614
 20
50.2398001906
 30
0.0
 10
89.7524919813
 20
50.1833761828
 30
0.0
 10
89.7727199099
 20
50.1190194136
 30
0.0
 10
89.815438937
 20
50.0461231708
 30
0.0
 10
89.8653285927
 20
49.9993056978
 30
0.0
 10
89.8928724862
 20
49.9833500389
 30
0.0
  0
SPLINE
  5
50C
100
AcDbEntity
  8
02___PRT_ALL_AXES
100
AcDbSpline
 62
7
  6
CONTINUOUS
 70
0
 71
3
 72
11
 73
7
 74
0
 42
0.0000001
 43
0.0000001
 44
0.0000000001
 40
0.0
 40
0.0
 40
0.0
 40
0.0
 40
0.2523353288
 40
0.5303215059
 40
0.7907485322
 40
1.0
 40
1.0
 40
1.0
 40
1.0
 10
89.2794362959
 20
44.3858046918
 30
0.0
 10
89.2794362959
 20
44.3625252477
 30
0.0
 10
89.2903382345
 20
44.3136279095
 30
0.0
 10
89.3257870219
 20
44.2489463998
 30
0.0
 10
89.3741548272
 20
44.1987896847
 30
0.0
 10
89.4153536083
 20
44.1793170112
 30
0.0
 10
89.4345814672
 20
44.1775962882
 30
0.0
  0
SPLINE
  5
50D
100
AcDbEntity
  8
02___PRT_ALL_AXES
100
AcDbSpline
 62
7
  6
CONTINUOUS
 70
0
 71
3
 72
11
 73
7
 74
0
 42
0.0000001
 43
0.0000001
 44
0.0000000001
 40
0.0
 40
0.0
 40
0.0
 40
0.0
 40
0.2369618376
 40
0.4996822626
 40
0.7625744689
 40
1.0
 40
1.0
 40
1.0
 40
1.0
 10
90.2832409709
 20
43.8043195428
 30
0.0
 10
90.2832409709
 20
43.7860588181
 30
0.0
 10
90.2901062486
 20
43.7475287572
 30
0.0
 10
90.3140115906
 20
43.6933709563
 30
0.0
 10
90.3489860271
 20
43.6455632379
 30
0.0
 10
90.3789428801
 20
43.620308931
 30
0.0
 10
90.3947748237
 20
43.6111377842
 30
0.0
  0
LINE
  5
50E
100
AcDbEntity
  8
02___PRT_ALL_AXES
100
AcDbLine
 62
7
  6
CONTINUOUS
 10
89.0833771263
 20
46.9296929237
 11
89.0898287462
 21
46.9256572016
  0
SPLINE
  5
50F
100
AcDbEntity
  8
02___PRT_ALL_AXES
100
AcDbSpline
 62
7
  6
CONTINUOUS
 70
0
 71
3
 72
9
 73
5
 74
0
 42
0.0000001
 43
0.0000001
 44
0.0000000001
 40
0.0
 40
0.0
 40
0.0
 40
0.0
 40
0.2777279852
 40
1.0
 40
1.0
 40
1.0
 40
1.0
 10
89.8928724862
 20
48.1061944928
 30
0.0
 10
89.8985975586
 20
48.1028780661
 30
0.0
 10
89.9197286115
 20
48.0920096502
 30
0.0
 10
89.9438311032
 20
48.0857351368
 30
0.0
 10
89.9610274113
 20
48.0863300059
 30
0.0
  0
SPLINE
  5
510
100
AcDbEntity
  8
02___PRT_ALL_AXES
100
AcDbSpline
 62
7
  6
CONTINUOUS
 70
0
 71
3
 72
9
 73
5
 74
0
 42
0.0000001
 43
0.0000001
 44
0.0000000001
 40
0.0
 40
0.0
 40
0.0
 40
0.0
 40
0.2612042513
 40
1.0
 40
1.0
 40
1.0
 40
1.0
 10
89.0898287462
 20
50.3713947795
 30
0.0
 10
89.0912419172
 20
50.3705761561
 30
0.0
 10
89.09672419
 20
50.3675708598
 30
0.0
 10
89.1025070863
 20
50.3650931465
 30
0.0
 10
89.1069054202
 20
50.3636817115
 30
0.0
  0
SPLINE
  5
511
100
AcDbEntity
  8
02___PRT_ALL_AXES
100
AcDbSpline
 62
7
  6
CONTINUOUS
 70
0
 71
3
 72
9
 73
5
 74
0
 42
0.0000001
 43
0.0000001
 44
0.0000000001
 40
0.0
 40
0.0
 40
0.0
 40
0.0
 40
0.2777279852
 40
1.0
 40
1.0
 40
1.0
 40
1.0
 10
89.8928724862
 20
49.9833500389
 30
0.0
 10
89.8985975586
 20
49.9800336123
 30
0.0
 10
89.9197286115
 20
49.9691651963
 30
0.0
 10
89.9438311032
 20
49.962890683
 30
0.0
 10
89.9610274113
 20
49.963485552
 30
0.0
  0
SPLINE
  5
512
100
AcDbEntity
  8
02___PRT_ALL_AXES
100
AcDbSpline
 62
7
  6
CONTINUOUS
 70
0
 71
3
 72
12
 73
8
 74
0
 42
0.0000001
 43
0.0000001
 44
0.0000000001
 40
0.0
 40
0.0
 40
0.0
 40
0.0
 40
0.2017515568
 40
0.3258990846
 40
0.4613004699
 40
0.7429940946
 40
1.0
 40
1.0
 40
1.0
 40
1.0
 10
89.7652053444
 20
46.5493715522
 30
0.0
 10
89.7517316645
 20
46.5283272827
 30
0.0
 10
89.7448449614
 20
46.4854890983
 30
0.0
 10
89.7524919813
 20
46.4290650905
 30
0.0
 10
89.7727199099
 20
46.3647083214
 30
0.0
 10
89.815438937
 20
46.2918120785
 30
0.0
 10
89.8653285927
 20
46.2449946056
 30
0.0
 10
89.8928724862
 20
46.2290389467
 30
0.0
  0
SPLINE
  5
513
100
AcDbEntity
  8
02___PRT_ALL_AXES
100
AcDbSpline
 62
7
  6
CONTINUOUS
 70
0
 71
3
 72
9
 73
5
 74
0
 42
0.0000001
 43
0.0000001
 44
0.0000000001
 40
0.0
 40
0.0
 40
0.0
 40
0.0
 40
0.2612042513
 40
1.0
 40
1.0
 40
1.0
 40
1.0
 10
89.0898287462
 20
46.9256572016
 30
0.0
 10
89.0912419172
 20
46.9248385783
 30
0.0
 10
89.09672419
 20
46.921833282
 30
0.0
 10
89.1025070863
 20
46.9193555686
 30
0.0
 10
89.1069054202
 20
46.9179441337
 30
0.0
  0
SPLINE
  5
514
100
AcDbEntity
  8
02___PRT_ALL_AXES
100
AcDbSpline
 62
7
  6
CONTINUOUS
 70
0
 71
3
 72
9
 73
5
 74
0
 42
0.0000001
 43
0.0000001
 44
0.0000000001
 40
0.0
 40
0.0
 40
0.0
 40
0.0
 40
0.2777279852
 40
1.0
 40
1.0
 40
1.0
 40
1.0
 10
89.8928724862
 20
46.2290389467
 30
0.0
 10
89.8985975586
 20
46.22572252
 30
0.0
 10
89.9197286115
 20
46.214854104
 30
0.0
 10
89.9438311032
 20
46.2085795907
 30
0.0
 10
89.9610274113
 20
46.2091744597
 30
0.0
  0
SPLINE
  5
515
100
AcDbEntity
  8
0
100
AcDbSpline
 62
7
  6
CONTINUOUS
 70
0
 71
3
 72
9
 73
5
 74
0
 42
0.0000001
 43
0.0000001
 44
0.0000000001
 40
0.0
 40
0.0
 40
0.0
 40
0.0
 40
0.4496379442
 40
1.0
 40
1.0
 40
1.0
 40
1.0
 10
91.0787937399
 20
54.9580602661
 30
0.0
 10
91.0787937399
 20
54.9664156169
 30
0.0
 10
91.0715254035
 20
54.9850471705
 30
0.0
 10
91.0563204036
 20
54.9967391473
 30
0.0
 10
91.0474709301
 20
55.0018654806
 30
0.0
  0
SPLINE
  5
516
100
AcDbEntity
  8
0
100
AcDbSpline
 62
7
  6
CONTINUOUS
 70
0
 71
3
 72
9
 73
5
 74
0
 42
0.0000001
 43
0.0000001
 44
0.0000000001
 40
0.0
 40
0.0
 40
0.0
 40
0.0
 40
0.4492707432
 40
1.0
 40
1.0
 40
1.0
 40
1.0
 10
91.0254565103
 20
55.0505975008
 30
0.0
 10
91.0326296706
 20
55.0464421744
 30
0.0
 10
91.045008401
 20
55.0309102726
 30
0.0
 10
91.0474709301
 20
55.0120273741
 30
0.0
 10
91.0474709301
 20
55.0018654806
 30
0.0
  0
SPLINE
  5
517
100
AcDbEntity
  8
0
100
AcDbSpline
 62
7
  6
CONTINUOUS
 70
0
 71
3
 72
17
 73
13
 74
0
 42
0.0000001
 43
0.0000001
 44
0.0000000001
 40
0.0
 40
0.0
 40
0.0
 40
0.0
 40
0.0429697668
 40
0.0876963662
 40
0.1356060274
 40
0.1876215519
 40
0.3049147704
 40
0.4385364514
 40
0.5827881469
 40
0.7298374837
 40
0.8713468743
 40
1.0
 40
1.0
 40
1.0
 40
1.0
 10
83.5748806226
 20
38.0948462354
 30
0.0
 10
83.5748806225
 20
38.0505972891
 30
0.0
 10
83.5866661731
 20
37.9599071148
 30
0.0
 10
83.6385045825
 20
37.8289387777
 30
0.0
 10
83.7226258629
 20
37.7047532311
 30
0.0
 10
83.880977883
 20
37.5452951532
 30
0.0
 10
84.1508354213
 20
37.3804294416
 30
0.0
 10
84.5389477853
 20
37.2503429401
 30
0.0
 10
84.974478658
 20
37.1889375262
 30
0.0
 10
85.4221343472
 20
37.2013676413
 30
0.0
 10
85.8453635857
 20
37.2863528446
 30
0.0
 10
86.1049788718
 20
37.3938446442
 30
0.0
 10
86.2196165788
 20
37.4602521095
 30
0.0
  0
SPLINE
  5
518
100
AcDbEntity
  8
0
100
AcDbSpline
 62
7
  6
CONTINUOUS
 70
0
 71
3
 72
11
 73
7
 74
0
 42
0.0000001
 43
0.0000001
 44
0.0000000001
 40
0.0
 40
0.0
 40
0.0
 40
0.0
 40
0.2180204993
 40
0.4513193273
 40
0.7104901506
 40
1.0
 40
1.0
 40
1.0
 40
1.0
 10
83.5748806226
 20
52.9269464958
 30
0.0
 10
83.5748806228
 20
52.9861454173
 30
0.0
 10
83.5966420095
 20
53.1095166576
 30
0.0
 10
83.6898859495
 20
53.2814072885
 30
0.0
 10
83.8372284361
 20
53.4369027602
 30
0.0
 10
83.960623947
 20
53.5221369734
 30
0.0
 10
84.0286455749
 20
53.5615406217
 30
0.0
  0
SPLINE
  5
519
100
AcDbEntity
  8
02___PRT_ALL_AXES
100
AcDbSpline
 62
7
  6
CONTINUOUS
 70
0
 71
3
 72
12
 73
8
 74
0
 42
0.0000001
 43
0.0000001
 44
0.0000000001
 40
0.0
 40
0.0
 40
0.0
 40
0.0
 40
0.203993138
 40
0.3286174021
 40
0.4639651224
 40
0.7444337272
 40
1.0
 40
1.0
 40
1.0
 40
1.0
 10
85.2347528465
 20
38.0885758006
 30
0.0
 10
85.2234094568
 20
38.1087754213
 30
0.0
 10
85.1920079409
 20
38.1334267436
 30
0.0
 10
85.1432098068
 20
38.1528876981
 30
0.0
 10
85.0828455241
 20
38.1658838765
 30
0.0
 10
85.0056978679
 20
38.1650455566
 30
0.0
 10
84.9460306258
 20
38.1467387037
 30
0.0
 10
84.9209163971
 20
38.1321905038
 30
0.0
  0
SPLINE
  5
51A
100
AcDbEntity
  8
02___PRT_ALL_AXES
100
AcDbSpline
 62
7
  6
CONTINUOUS
 70
0
 71
3
 72
9
 73
5
 74
0
 42
0.0000001
 43
0.0000001
 44
0.0000000001
 40
0.0
 40
0.0
 40
0.0
 40
0.0
 40
0.2583705928
 40
1.0
 40
1.0
 40
1.0
 40
1.0
 10
89.8069914195
 20
46.5144182473
 30
0.0
 10
89.8069914195
 20
46.5167140642
 30
0.0
 10
89.8071508109
 20
46.5255983583
 30
0.0
 10
89.8079632867
 20
46.5344766792
 30
0.0
 10
89.8090007572
 20
46.5409844357
 30
0.0
  0
SPLINE
  5
51B
100
AcDbEntity
  8
02___PRT_ALL_AXES
100
AcDbSpline
 62
7
  6
CONTINUOUS
 70
0
 71
3
 72
9
 73
5
 74
0
 42
0.0000001
 43
0.0000001
 44
0.0000000001
 40
0.0
 40
0.0
 40
0.0
 40
0.0
 40
0.2583705928
 40
1.0
 40
1.0
 40
1.0
 40
1.0
 10
89.8069914195
 20
48.3915737934
 30
0.0
 10
89.8069914195
 20
48.3938696103
 30
0.0
 10
89.8071508109
 20
48.4027539045
 30
0.0
 10
89.8079632867
 20
48.4116322253
 30
0.0
 10
89.8090007572
 20
48.4181399818
 30
0.0
  0
SPLINE
  5
51C
100
AcDbEntity
  8
02___PRT_ALL_AXES
100
AcDbSpline
 62
7
  6
CONTINUOUS
 70
0
 71
3
 72
14
 73
10
 74
0
 42
0.0000001
 43
0.0000001
 44
0.0000000001
 40
0.0
 40
0.0
 40
0.0
 40
0.0
 40
0.0872622463
 40
0.186995158
 40
0.3045747512
 40
0.4385237764
 40
0.5831298898
 40
0.7305411482
 40
1.0
 40
1.0
 40
1.0
 40
1.0
 10
84.8654779314
 20
52.886765155
 30
0.0
 10
84.8654774335
 20
52.875813246
 30
0.0
 10
84.8720553349
 20
52.8521276961
 30
0.0
 10
84.8977958199
 20
52.8227371441
 30
0.0
 10
84.9358123293
 20
52.7994913514
 30
0.0
 10
84.983255557
 20
52.7835797324
 30
0.0
 10
85.0365149164
 20
52.776079698
 30
0.0
 10
85.1070037133
 20
52.7780541608
 30
0.0
 10
85.1593343566
 20
52.7922763866
 30
0.0
 10
85.1885976438
 20
52.8092280579
 30
0.0
  0
SPLINE
  5
51D
100
AcDbEntity
  8
02___PRT_ALL_AXES
100
AcDbSpline
 62
7
  6
CONTINUOUS
 70
0
 71
3
 72
9
 73
5
 74
0
 42
0.0000001
 43
0.0000001
 44
0.0000000001
 40
0.0
 40
0.0
 40
0.0
 40
0.0
 40
0.2583705928
 40
1.0
 40
1.0
 40
1.0
 40
1.0
 10
89.8069914195
 20
50.2687293395
 30
0.0
 10
89.8069914195
 20
50.2710251565
 30
0.0
 10
89.8071508109
 20
50.2799094506
 30
0.0
 10
89.8079632867
 20
50.2887877714
 30
0.0
 10
89.8090007572
 20
50.295295528
 30
0.0
  0
SPLINE
  5
51E
100
AcDbEntity
  8
02___PRT_ALL_AXES
100
AcDbSpline
 62
7
  6
CONTINUOUS
 70
0
 71
3
 72
9
 73
5
 74
0
 42
0.0000001
 43
0.0000001
 44
0.0000000001
 40
0.0
 40
0.0
 40
0.0
 40
0.0
 40
0.5237667021
 40
1.0
 40
1.0
 40
1.0
 40
1.0
 10
90.3945955362
 20
43.6994006434
 30
0.0
 10
90.3786000181
 20
43.7202394358
 30
0.0
 10
90.3537994392
 20
43.7645904347
 30
0.0
 10
90.3423539129
 20
43.8146766565
 30
0.0
 10
90.3423539129
 20
43.8385625572
 30
0.0
  0
SPLINE
  5
51F
100
AcDbEntity
  8
02___PRT_ALL_AXES
100
AcDbSpline
 62
7
  6
CONTINUOUS
 70
0
 71
3
 72
10
 73
6
 74
0
 42
0.0000001
 43
0.0000001
 44
0.0000000001
 40
0.0
 40
0.0
 40
0.0
 40
0.0
 40
0.5473015414
 40
0.7813152516
 40
1.0
 40
1.0
 40
1.0
 40
1.0
 10
85.1885976438
 20
52.8092280579
 30
0.0
 10
85.2042595539
 20
52.8183007075
 30
0.0
 10
85.2253963335
 20
52.8350125459
 30
0.0
 10
85.2413747133
 20
52.8644448227
 30
0.0
 10
85.2440357807
 20
52.8795214853
 30
0.0
 10
85.2440361095
 20
52.8867536671
 30
0.0
  0
SPLINE
  5
520
100
AcDbEntity
  8
02___PRT_ALL_AXES
100
AcDbSpline
 62
7
  6
CONTINUOUS
 70
0
 71
3
 72
11
 73
7
 74
0
 42
0.0000001
 43
0.0000001
 44
0.0000000001
 40
0.0
 40
0.0
 40
0.0
 40
0.0
 40
0.2410655723
 40
0.5039840602
 40
0.7647501235
 40
1.0
 40
1.0
 40
1.0
 40
1.0
 10
89.4433714976
 20
44.2309870269
 30
0.0
 10
89.4283127224
 20
44.2407571004
 30
0.0
 10
89.4000648979
 20
44.2662451742
 30
0.0
 10
89.3671695895
 20
44.3132095811
 30
0.0
 10
89.3448824859
 20
44.3655680707
 30
0.0
 10
89.3385492379
 20
44.4025302449
 30
0.0
 10
89.3385492379
 20
44.4200477061
 30
0.0
  0
SPLINE
  5
521
100
AcDbEntity
  8
02___PRT_ALL_AXES
100
AcDbSpline
 62
7
  6
CONTINUOUS
 70
0
 71
3
 72
9
 73
5
 74
0
 42
0.0000001
 43
0.0000001
 44
0.0000000001
 40
0.0
 40
0.0
 40
0.0
 40
0.0
 40
0.2761000621
 40
1.0
 40
1.0
 40
1.0
 40
1.0
 10
84.9209163971
 20
38.1321905038
 30
0.0
 10
84.9158672586
 20
38.1292656329
 30
0.0
 10
84.8981486811
 20
38.1178275908
 30
0.0
 10
84.8825794162
 20
38.1023070857
 30
0.0
 10
84.8750082013
 20
38.0890129103
 30
0.0
  0
SPLINE
  5
522
100
AcDbEntity
  8
02___PRT_ALL_AXES
100
AcDbSpline
 62
7
  6
CONTINUOUS
 70
0
 71
3
 72
9
 73
5
 74
0
 42
0.0000001
 43
0.0000001
 44
0.0000000001
 40
0.0
 40
0.0
 40
0.0
 40
0.0
 40
0.5237667021
 40
1.0
 40
1.0
 40
1.0
 40
1.0
 10
90.3945955362
 20
51.4908818829
 30
0.0
 10
90.3786000181
 20
51.5117206753
 30
0.0
 10
90.3537994392
 20
51.5560716742
 30
0.0
 10
90.3423539129
 20
51.606157896
 30
0.0
 10
90.3423539129
 20
51.6300437966
 30
0.0
  0
SPLINE
  5
523
100
AcDbEntity
  8
02___PRT_ALL_AXES
100
AcDbSpline
 62
7
  6
CONTINUOUS
 70
0
 71
3
 72
11
 73
7
 74
0
 42
0.0000001
 43
0.0000001
 44
0.0000000001
 40
0.0
 40
0.0
 40
0.0
 40
0.0
 40
0.2410655723
 40
0.5039840602
 40
0.7647501235
 40
1.0
 40
1.0
 40
1.0
 40
1.0
 10
89.4433714976
 20
52.0224682663
 30
0.0
 10
89.4283127224
 20
52.0322383399
 30
0.0
 10
89.4000648979
 20
52.0577264136
 30
0.0
 10
89.3671695895
 20
52.1046908206
 30
0.0
 10
89.3448824859
 20
52.1570493101
 30
0.0
 10
89.3385492379
 20
52.1940114843
 30
0.0
 10
89.3385492379
 20
52.2115289456
 30
0.0
  0
SPLINE
  5
524
100
AcDbEntity
  8
02___PRT_ALL_AXES
100
AcDbSpline
 62
7
  6
CONTINUOUS
 70
0
 71
3
 72
11
 73
7
 74
0
 42
0.0000001
 43
0.0000001
 44
0.0000000001
 40
0.0
 40
0.0
 40
0.0
 40
0.0
 40
0.226265884
 40
0.4886746103
 40
0.757385373
 40
1.0
 40
1.0
 40
1.0
 40
1.0
 10
89.9763040527
 20
46.2515623983
 30
0.0
 10
89.9532600354
 20
46.2603913
 30
0.0
 10
89.9081453972
 20
46.2912931648
 30
0.0
 10
89.8551738656
 20
46.3556052063
 30
0.0
 10
89.8179891134
 20
46.4321809861
 30
0.0
 10
89.8069914195
 20
46.4879577453
 30
0.0
 10
89.8069914195
 20
46.5144182473
 30
0.0
  0
SPLINE
  5
525
100
AcDbEntity
  8
0
100
AcDbSpline
 62
7
  6
CONTINUOUS
 70
0
 71
3
 72
9
 73
5
 74
0
 42
0.0000001
 43
0.0000001
 44
0.0000000001
 40
0.0
 40
0.0
 40
0.0
 40
0.0
 40
0.5511520512
 40
1.0
 40
1.0
 40
1.0
 40
1.0
 10
88.780879974
 20
56.3144205356
 30
0.0
 10
88.7897479084
 20
56.3195575631
 30
0.0
 10
88.8074573559
 20
56.326953775
 30
0.0
 10
88.8272636477
 20
56.3239692892
 30
0.0
 10
88.8344855064
 20
56.3197857525
 30
0.0
  0
SPLINE
  5
526
100
AcDbEntity
  8
02___PRT_ALL_AXES
100
AcDbSpline
 62
7
  6
CONTINUOUS
 70
0
 71
3
 72
11
 73
7
 74
0
 42
0.0000001
 43
0.0000001
 44
0.0000000001
 40
0.0
 40
0.0
 40
0.0
 40
0.0
 40
0.226265884
 40
0.4886746103
 40
0.757385373
 40
1.0
 40
1.0
 40
1.0
 40
1.0
 10
89.9763040527
 20
48.1287179444
 30
0.0
 10
89.9532600354
 20
48.1375468462
 30
0.0
 10
89.9081453972
 20
48.1684487109
 30
0.0
 10
89.8551738656
 20
48.2327607524
 30
0.0
 10
89.8179891134
 20
48.3093365323
 30
0.0
 10
89.8069914195
 20
48.3651132915
 30
0.0
 10
89.8069914195
 20
48.3915737934
 30
0.0
  0
SPLINE
  5
527
100
AcDbEntity
  8
02___PRT_ALL_AXES
100
AcDbSpline
 62
7
  6
CONTINUOUS
 70
0
 71
3
 72
11
 73
7
 74
0
 42
0.0000001
 43
0.0000001
 44
0.0000000001
 40
0.0
 40
0.0
 40
0.0
 40
0.0
 40
0.226265884
 40
0.4886746103
 40
0.757385373
 40
1.0
 40
1.0
 40
1.0
 40
1.0
 10
89.9763040527
 20
50.0058734906
 30
0.0
 10
89.9532600354
 20
50.0147023923
 30
0.0
 10
89.9081453972
 20
50.045604257
 30
0.0
 10
89.8551738656
 20
50.1099162985
 30
0.0
 10
89.8179891134
 20
50.1864920784
 30
0.0
 10
89.8069914195
 20
50.2422688376
 30
0.0
 10
89.8069914195
 20
50.2687293395
 30
0.0
  0
SPLINE
  5
528
100
AcDbEntity
  8
0
100
AcDbSpline
 62
7
  6
CONTINUOUS
 70
0
 71
3
 72
9
 73
5
 74
0
 42
0.0000001
 43
0.0000001
 44
0.0000000001
 40
0.0
 40
0.0
 40
0.0
 40
0.0
 40
0.5503620558
 40
1.0
 40
1.0
 40
1.0
 40
1.0
 10
91.0474709301
 20
40.2564988267
 30
0.0
 10
91.0563204036
 20
40.2616251601
 30
0.0
 10
91.0715254035
 20
40.2733171368
 30
0.0
 10
91.0787937399
 20
40.2919486905
 30
0.0
 10
91.0787937399
 20
40.3003040413
 30
0.0
  0
SPLINE
  5
529
100
AcDbEntity
  8
0
100
AcDbSpline
 62
7
  6
CONTINUOUS
 70
0
 71
3
 72
17
 73
13
 74
0
 42
0.0000001
 43
0.0000001
 44
0.0000000001
 40
0.0
 40
0.0
 40
0.0
 40
0.0
 40
0.1270755761
 40
0.266664682
 40
0.4120585962
 40
0.5555425514
 40
0.6897231313
 40
0.8089161367
 40
0.8621567174
 40
0.9112429453
 40
0.9568191499
 40
1.0
 40
1.0
 40
1.0
 40
1.0
 10
86.2196165788
 20
52.29235237
 30
0.0
 10
86.1088507305
 20
52.2281877995
 30
0.0
 10
85.8587621546
 20
52.1233873941
 30
0.0
 10
85.4507105703
 20
52.03761053
 30
0.0
 10
85.0175161678
 20
52.0197746451
 30
0.0
 10
84.5924572011
 20
52.0714610465
 30
0.0
 10
84.2080023065
 20
52.1885857078
 30
0.0
 10
83.9346190791
 20
52.3398272684
 30
0.0
 10
83.7667174635
 20
52.4880823812
 30
0.0
 10
83.6725721588
 20
52.6046426907
 30
0.0
 10
83.6077160895
 20
52.7285344174
 30
0.0
 10
83.5849462517
 20
52.8160275222
 30
0.0
 10
83.5793065525
 20
52.8591582135
 30
0.0
  0
SPLINE
  5
52A
100
AcDbEntity
  8
02___PRT_ALL_AXES
100
AcDbSpline
 62
7
  6
CONTINUOUS
 70
0
 71
3
 72
10
 73
6
 74
0
 42
0.0000001
 43
0.0000001
 44
0.0000000001
 40
0.0
 40
0.0
 40
0.0
 40
0.0
 40
0.5473015414
 40
0.7813152516
 40
1.0
 40
1.0
 40
1.0
 40
1.0
 10
84.9209163971
 20
52.9642907643
 30
0.0
 10
84.905254487
 20
52.9552181146
 30
0.0
 10
84.8841177073
 20
52.9385062763
 30
0.0
 10
84.8681393276
 20
52.9090739995
 30
0.0
 10
84.8654782601
 20
52.8939973369
 30
0.0
 10
84.8654779314
 20
52.886765155
 30
0.0
  0
SPLINE
  5
52B
100
AcDbEntity
  8
0
100
AcDbSpline
 62
7
  6
CONTINUOUS
 70
0
 71
3
 72
9
 73
5
 74
0
 42
0.0000001
 43
0.0000001
 44
0.0000000001
 40
0.0
 40
0.0
 40
0.0
 40
0.0
 40
0.5511520512
 40
1.0
 40
1.0
 40
1.0
 40
1.0
 10
90.9718509779
 20
55.0452322839
 30
0.0
 10
90.9807189123
 20
55.0503693113
 30
0.0
 10
90.9984283598
 20
55.0577655233
 30
0.0
 10
91.0182346517
 20
55.0547810375
 30
0.0
 10
91.0254565103
 20
55.0505975008
 30
0.0
  0
SPLINE
  5
52C
100
AcDbEntity
  8
02___PRT_ALL_AXES
100
AcDbSpline
 62
7
  6
CONTINUOUS
 70
0
 71
3
 72
14
 73
10
 74
0
 42
0.0000001
 43
0.0000001
 44
0.0000000001
 40
0.0
 40
0.0
 40
0.0
 40
0.0
 40
0.0872622463
 40
0.186995158
 40
0.3045747512
 40
0.4385237764
 40
0.5831298898
 40
0.7305411482
 40
1.0
 40
1.0
 40
1.0
 40
1.0
 10
85.2440361095
 20
52.8867536671
 30
0.0
 10
85.2440366073
 20
52.8977055762
 30
0.0
 10
85.2374587059
 20
52.921391126
 30
0.0
 10
85.2117182209
 20
52.950781678
 30
0.0
 10
85.1737017116
 20
52.9740274708
 30
0.0
 10
85.1262584839
 20
52.9899390898
 30
0.0
 10
85.0729991244
 20
52.9974391241
 30
0.0
 10
85.0025103275
 20
52.9954646614
 30
0.0
 10
84.9501796843
 20
52.9812424356
 30
0.0
 10
84.9209163971
 20
52.9642907643
 30
0.0
  0
SPLINE
  5
52D
100
AcDbEntity
  8
0
100
AcDbSpline
 62
7
  6
CONTINUOUS
 70
0
 71
3
 72
9
 73
5
 74
0
 42
0.0000001
 43
0.0000001
 44
0.0000000001
 40
0.0
 40
0.0
 40
0.0
 40
0.0
 40
0.5503620558
 40
1.0
 40
1.0
 40
1.0
 40
1.0
 10
91.0474709301
 20
54.9142550515
 30
0.0
 10
91.0563204036
 20
54.9193813849
 30
0.0
 10
91.0715254035
 20
54.9310733616
 30
0.0
 10
91.0787937399
 20
54.9497049153
 30
0.0
 10
91.0787937399
 20
54.9580602661
 30
0.0
  0
SPLINE
  5
52E
100
AcDbEntity
  8
02___PRT_ALL_AXES
100
AcDbSpline
 62
3
  6
CONTINUOUS
 70
0
 71
3
 72
10
 73
6
 74
0
 42
0.0000001
 43
0.0000001
 44
0.0000000001
 40
0.0
 40
0.0
 40
0.0
 40
0.0
 40
0.5480522046
 40
0.781827028
 40
1.0
 40
1.0
 40
1.0
 40
1.0
 10
89.8337595442
 20
46.5290839063
 30
0.0
 10
89.8167548949
 20
46.5389343795
 30
0.0
 10
89.7896227258
 20
46.5498281698
 30
0.0
 10
89.7533163338
 20
46.5489588409
 30
0.0
 10
89.7377383195
 20
46.5432893579
 30
0.0
 10
89.730969207
 20
46.5393676006
 30
0.0
  0
SPLINE
  5
52F
100
AcDbEntity
  8
02___PRT_ALL_AXES
100
AcDbSpline
 62
3
  6
CONTINUOUS
 70
0
 71
3
 72
9
 73
5
 74
0
 42
0.0000001
 43
0.0000001
 44
0.0000000001
 40
0.0
 40
0.0
 40
0.0
 40
0.0
 40
0.5511545544
 40
1.0
 40
1.0
 40
1.0
 40
1.0
 10
89.0307158042
 20
47.0714154041
 30
0.0
 10
89.0215602545
 20
47.0767190416
 30
0.0
 10
89.0032767333
 20
47.0843552068
 30
0.0
 10
88.9828279652
 20
47.0812747774
 30
0.0
 10
88.9753719158
 20
47.0769556651
 30
0.0
  0
SPLINE
  5
530
100
AcDbEntity
  8
02___PRT_ALL_AXES
100
AcDbSpline
 62
3
  6
CONTINUOUS
 70
0
 71
3
 72
10
 73
6
 74
0
 42
0.0000001
 43
0.0000001
 44
0.0000000001
 40
0.0
 40
0.0
 40
0.0
 40
0.0
 40
0.5480522046
 40
0.781827028
 40
1.0
 40
1.0
 40
1.0
 40
1.0
 10
89.8337595442
 20
50.2833949986
 30
0.0
 10
89.8167548949
 20
50.2932454718
 30
0.0
 10
89.7896227258
 20
50.3041392621
 30
0.0
 10
89.7533163338
 20
50.3032699331
 30
0.0
 10
89.7377383195
 20
50.2976004501
 30
0.0
 10
89.730969207
 20
50.2936786929
 30
0.0
  0
SPLINE
  5
531
100
AcDbEntity
  8
02___PRT_ALL_AXES
100
AcDbSpline
 62
3
  6
CONTINUOUS
 70
0
 71
3
 72
9
 73
5
 74
0
 42
0.0000001
 43
0.0000001
 44
0.0000000001
 40
0.0
 40
0.0
 40
0.0
 40
0.0
 40
0.5511545544
 40
1.0
 40
1.0
 40
1.0
 40
1.0
 10
89.0307158042
 20
50.5171529819
 30
0.0
 10
89.0215602545
 20
50.5224566195
 30
0.0
 10
89.0032767333
 20
50.5300927846
 30
0.0
 10
88.9828279652
 20
50.5270123553
 30
0.0
 10
88.9753719158
 20
50.522693243
 30
0.0
  0
SPLINE
  5
532
100
AcDbEntity
  8
02___PRT_ALL_AXES
100
AcDbSpline
 62
3
  6
CONTINUOUS
 70
0
 71
3
 72
10
 73
6
 74
0
 42
0.0000001
 43
0.0000001
 44
0.0000000001
 40
0.0
 40
0.0
 40
0.0
 40
0.0
 40
0.5480522046
 40
0.781827028
 40
1.0
 40
1.0
 40
1.0
 40
1.0
 10
89.8337595442
 20
48.4062394524
 30
0.0
 10
89.8167548949
 20
48.4160899256
 30
0.0
 10
89.7896227258
 20
48.4269837159
 30
0.0
 10
89.7533163338
 20
48.426114387
 30
0.0
 10
89.7377383195
 20
48.420444904
 30
0.0
 10
89.730969207
 20
48.4165231468
 30
0.0
  0
SPLINE
  5
533
100
AcDbEntity
  8
02___PRT_ALL_AXES
100
AcDbSpline
 62
3
  6
CONTINUOUS
 70
0
 71
3
 72
11
 73
7
 74
0
 42
0.0000001
 43
0.0000001
 44
0.0000000001
 40
0.0
 40
0.0
 40
0.0
 40
0.0
 40
0.308411978
 40
0.5807799652
 40
0.8077071077
 40
1.0
 40
1.0
 40
1.0
 40
1.0
 10
90.3949243787
 20
44.4743487308
 30
0.0
 10
90.3847184945
 20
44.4876405579
 30
0.0
 10
90.3630432803
 20
44.510960871
 30
0.0
 10
90.326228692
 20
44.5356720214
 30
0.0
 10
90.289270091
 20
44.5464763261
 30
0.0
 10
90.2656387678
 20
44.5414805092
 30
0.0
 10
90.2565976647
 20
44.536243089
 30
0.0
  0
SPLINE
  5
534
100
AcDbEntity
  8
02___PRT_ALL_AXES
100
AcDbSpline
 62
3
  6
CONTINUOUS
 70
0
 71
3
 72
13
 73
9
 74
0
 42
0.0000001
 43
0.0000001
 44
0.0000000001
 40
0.0
 40
0.0
 40
0.0
 40
0.0
 40
0.2697348891
 40
0.5613255636
 40
0.6955511165
 40
0.8132697375
 40
0.9129514219
 40
1.0
 40
1.0
 40
1.0
 40
1.0
 10
89.4433910595
 20
44.9166331629
 30
0.0
 10
89.4433910595
 20
44.9448113766
 30
0.0
 10
89.4278464662
 20
45.0032540916
 30
0.0
 10
89.387674415
 20
45.0652827683
 30
0.0
 10
89.3449147981
 20
45.1032018532
 30
0.0
 10
89.3123292704
 20
45.1209958654
 30
0.0
 10
89.2804572034
 20
45.127386778
 30
0.0
 10
89.2606617003
 20
45.122286503
 30
0.0
 10
89.2527929897
 20
45.117728238
 30
0.0
  0
SPLINE
  5
535
100
AcDbEntity
  8
02___PRT_ALL_AXES
100
AcDbSpline
 62
3
  6
CONTINUOUS
 70
0
 71
3
 72
11
 73
7
 74
0
 42
0.0000001
 43
0.0000001
 44
0.0000000001
 40
0.0
 40
0.0
 40
0.0
 40
0.0
 40
0.308411978
 40
0.5807799652
 40
0.8077071077
 40
1.0
 40
1.0
 40
1.0
 40
1.0
 10
90.3949243787
 20
52.2658299703
 30
0.0
 10
90.3847184945
 20
52.2791217973
 30
0.0
 10
90.3630432803
 20
52.3024421105
 30
0.0
 10
90.326228692
 20
52.3271532609
 30
0.0
 10
90.289270091
 20
52.3379575655
 30
0.0
 10
90.2656387678
 20
52.3329617487
 30
0.0
 10
90.2565976647
 20
52.3277243285
 30
0.0
  0
SPLINE
  5
536
100
AcDbEntity
  8
02___PRT_ALL_AXES
100
AcDbSpline
 62
3
  6
CONTINUOUS
 70
0
 71
3
 72
13
 73
9
 74
0
 42
0.0000001
 43
0.0000001
 44
0.0000000001
 40
0.0
 40
0.0
 40
0.0
 40
0.0
 40
0.2697348891
 40
0.5613255636
 40
0.6955511165
 40
0.8132697375
 40
0.9129514219
 40
1.0
 40
1.0
 40
1.0
 40
1.0
 10
89.4433910595
 20
52.7081144024
 30
0.0
 10
89.4433910595
 20
52.7362926161
 30
0.0
 10
89.4278464662
 20
52.7947353311
 30
0.0
 10
89.387674415
 20
52.8567640078
 30
0.0
 10
89.3449147981
 20
52.8946830927
 30
0.0
 10
89.3123292704
 20
52.9124771049
 30
0.0
 10
89.2804572034
 20
52.9188680175
 30
0.0
 10
89.2606617003
 20
52.9137677424
 30
0.0
 10
89.2527929897
 20
52.9092094774
 30
0.0
  0
SPLINE
  5
537
100
AcDbEntity
  8
02___PRT_ALL_AXES
100
AcDbSpline
 62
3
  6
CONTINUOUS
 70
0
 71
3
 72
9
 73
5
 74
0
 42
0.0000001
 43
0.0000001
 44
0.0000000001
 40
0.0
 40
0.0
 40
0.0
 40
0.0
 40
0.4492707099
 40
1.0
 40
1.0
 40
1.0
 40
1.0
 10
89.4109214237
 20
51.9419478419
 30
0.0
 10
89.4215012977
 20
51.9480766566
 30
0.0
 10
89.4397590075
 20
51.9709850617
 30
0.0
 10
89.4433910595
 20
51.9988359493
 30
0.0
 10
89.4433910595
 20
52.0138239949
 30
0.0
  0
SPLINE
  5
538
100
AcDbEntity
  8
02___PRT_ALL_AXES
100
AcDbSpline
 62
3
  6
CONTINUOUS
 70
0
 71
3
 72
9
 73
5
 74
0
 42
0.0000001
 43
0.0000001
 44
0.0000000001
 40
0.0
 40
0.0
 40
0.0
 40
0.0
 40
0.4492707099
 40
1.0
 40
1.0
 40
1.0
 40
1.0
 10
89.4109214237
 20
44.1504666024
 30
0.0
 10
89.4215012977
 20
44.1565954171
 30
0.0
 10
89.4397590075
 20
44.1795038223
 30
0.0
 10
89.4433910595
 20
44.2073547098
 30
0.0
 10
89.4433910595
 20
44.2223427555
 30
0.0
  0
SPLINE
  5
539
100
AcDbEntity
  8
02___PRT_ALL_AXES
100
AcDbSpline
 62
3
  6
CONTINUOUS
 70
0
 71
3
 72
14
 73
10
 74
0
 42
0.0000001
 43
0.0000001
 44
0.0000000001
 40
0.0
 40
0.0
 40
0.0
 40
0.0
 40
0.08694071
 40
0.1864554541
 40
0.3039419027
 40
0.437907256
 40
0.5826146893
 40
0.7301842676
 40
1.0
 40
1.0
 40
1.0
 40
1.0
 10
89.9365498814
 20
48.0616677841
 30
0.0
 10
89.9467562971
 20
48.0675809796
 30
0.0
 10
89.9652700122
 20
48.0865482208
 30
0.0
 10
89.9786929011
 20
48.1264992007
 30
0.0
 10
89.9797541808
 20
48.1746140532
 30
0.0
 10
89.968884588
 20
48.2276058023
 30
0.0
 10
89.9470331821
 20
48.2815223935
 30
0.0
 10
89.9070162573
 20
48.3465012907
 30
0.0
 10
89.8654356882
 20
48.3878900586
 30
0.0
 10
89.8337595442
 20
48.4062394524
 30
0.0
  0
SPLINE
  5
53A
100
AcDbEntity
  8
02___PRT_ALL_AXES
100
AcDbSpline
 62
3
  6
CONTINUOUS
 70
0
 71
3
 72
13
 73
9
 74
0
 42
0.0000001
 43
0.0000001
 44
0.0000000001
 40
0.0
 40
0.0
 40
0.0
 40
0.0
 40
0.0870335261
 40
0.1866518535
 40
0.3042633445
 40
0.4383711269
 40
0.7298902826
 40
1.0
 40
1.0
 40
1.0
 40
1.0
 10
89.0860596926
 20
50.3316115041
 30
0.0
 10
89.0915557476
 20
50.3347952382
 30
0.0
 10
89.1015264479
 20
50.3450067212
 30
0.0
 10
89.1087554089
 20
50.3665182373
 30
0.0
 10
89.1093334225
 20
50.3924273317
 30
0.0
 10
89.1012801069
 20
50.4315087852
 30
0.0
 10
89.0777202363
 20
50.4774618235
 30
0.0
 10
89.0477728483
 20
50.5072721574
 30
0.0
 10
89.0307158042
 20
50.5171529819
 30
0.0
  0
SPLINE
  5
53B
100
AcDbEntity
  8
02___PRT_ALL_AXES
100
AcDbSpline
 62
3
  6
CONTINUOUS
 70
0
 71
3
 72
14
 73
10
 74
0
 42
0.0000001
 43
0.0000001
 44
0.0000000001
 40
0.0
 40
0.0
 40
0.0
 40
0.0
 40
0.08694071
 40
0.1864554541
 40
0.3039419027
 40
0.437907256
 40
0.5826146893
 40
0.7301842676
 40
1.0
 40
1.0
 40
1.0
 40
1.0
 10
89.9365498814
 20
49.9388233303
 30
0.0
 10
89.9467562971
 20
49.9447365257
 30
0.0
 10
89.9652700122
 20
49.9637037669
 30
0.0
 10
89.9786929011
 20
50.0036547468
 30
0.0
 10
89.9797541808
 20
50.0517695994
 30
0.0
 10
89.968884588
 20
50.1047613484
 30
0.0
 10
89.9470331821
 20
50.1586779396
 30
0.0
 10
89.9070162573
 20
50.2236568368
 30
0.0
 10
89.8654356882
 20
50.2650456047
 30
0.0
 10
89.8337595442
 20
50.2833949986
 30
0.0
  0
SPLINE
  5
53C
100
AcDbEntity
  8
02___PRT_ALL_AXES
100
AcDbSpline
 62
3
  6
CONTINUOUS
 70
0
 71
3
 72
13
 73
9
 74
0
 42
0.0000001
 43
0.0000001
 44
0.0000000001
 40
0.0
 40
0.0
 40
0.0
 40
0.0
 40
0.0870335261
 40
0.1866518535
 40
0.3042633445
 40
0.4383711269
 40
0.7298902826
 40
1.0
 40
1.0
 40
1.0
 40
1.0
 10
89.0860596926
 20
46.8858739262
 30
0.0
 10
89.0915557476
 20
46.8890576603
 30
0.0
 10
89.1015264479
 20
46.8992691433
 30
0.0
 10
89.1087554089
 20
46.9207806595
 30
0.0
 10
89.1093334225
 20
46.9466897539
 30
0.0
 10
89.1012801069
 20
46.9857712073
 30
0.0
 10
89.0777202363
 20
47.0317242456
 30
0.0
 10
89.0477728483
 20
47.0615345796
 30
0.0
 10
89.0307158042
 20
47.0714154041
 30
0.0
  0
SPLINE
  5
53D
100
AcDbEntity
  8
02___PRT_ALL_AXES
100
AcDbSpline
 62
3
  6
CONTINUOUS
 70
0
 71
3
 72
14
 73
10
 74
0
 42
0.0000001
 43
0.0000001
 44
0.0000000001
 40
0.0
 40
0.0
 40
0.0
 40
0.0
 40
0.08694071
 40
0.1864554541
 40
0.3039419027
 40
0.437907256
 40
0.5826146893
 40
0.7301842676
 40
1.0
 40
1.0
 40
1.0
 40
1.0
 10
89.9365498814
 20
46.184512238
 30
0.0
 10
89.9467562971
 20
46.1904254334
 30
0.0
 10
89.9652700122
 20
46.2093926747
 30
0.0
 10
89.9786929011
 20
46.2493436545
 30
0.0
 10
89.9797541808
 20
46.2974585071
 30
0.0
 10
89.968884588
 20
46.3504502562
 30
0.0
 10
89.9470331821
 20
46.4043668474
 30
0.0
 10
89.9070162573
 20
46.4693457445
 30
0.0
 10
89.8654356882
 20
46.5107345125
 30
0.0
 10
89.8337595442
 20
46.5290839063
 30
0.0
  0
SPLINE
  5
53E
100
AcDbEntity
  8
02___PRT_ALL_AXES
100
AcDbSpline
 62
3
  6
CONTINUOUS
 70
0
 71
3
 72
12
 73
8
 74
0
 42
0.0000001
 43
0.0000001
 44
0.0000000001
 40
0.0
 40
0.0
 40
0.0
 40
0.0
 40
0.2596238539
 40
0.5438596199
 40
0.6794040631
 40
0.8025756855
 40
1.0
 40
1.0
 40
1.0
 40
1.0
 10
90.2241280289
 20
51.561557768
 30
0.0
 10
90.2241280289
 20
51.5362753201
 30
0.0
 10
90.2368897861
 20
51.483405644
 30
0.0
 10
90.2707717467
 20
51.4256033546
 30
0.0
 10
90.3076778983
 20
51.3872164849
 30
0.0
 10
90.3434791108
 20
51.3612496787
 30
0.0
 10
90.3758947511
 20
51.3509611668
 30
0.0
 10
90.3949243787
 20
51.3536977536
 30
0.0
  0
SPLINE
  5
53F
100
AcDbEntity
  8
02___PRT_ALL_AXES
100
AcDbSpline
 62
3
  6
CONTINUOUS
 70
0
 71
3
 72
10
 73
6
 74
0
 42
0.0000001
 43
0.0000001
 44
0.0000000001
 40
0.0
 40
0.0
 40
0.0
 40
0.0
 40
0.5480522046
 40
0.781827028
 40
1.0
 40
1.0
 40
1.0
 40
1.0
 10
89.8337595442
 20
49.9491070246
 30
0.0
 10
89.8507641935
 20
49.9392565514
 30
0.0
 10
89.8778963626
 20
49.9283627611
 30
0.0
 10
89.9142027546
 20
49.9292320901
 30
0.0
 10
89.9297807689
 20
49.934901573
 30
0.0
 10
89.9365498814
 20
49.9388233303
 30
0.0
  0
SPLINE
  5
540
100
AcDbEntity
  8
02___PRT_ALL_AXES
100
AcDbSpline
 62
3
  6
CONTINUOUS
 70
0
 71
3
 72
14
 73
10
 74
0
 42
0.0000001
 43
0.0000001
 44
0.0000000001
 40
0.0
 40
0.0
 40
0.0
 40
0.0
 40
0.08694071
 40
0.1864554541
 40
0.3039419027
 40
0.437907256
 40
0.5826146893
 40
0.7301842676
 40
1.0
 40
1.0
 40
1.0
 40
1.0
 10
89.730969207
 20
48.4165231468
 30
0.0
 10
89.7207627913
 20
48.4106099514
 30
0.0
 10
89.7022490762
 20
48.3916427101
 30
0.0
 10
89.6888261873
 20
48.3516917303
 30
0.0
 10
89.6877649076
 20
48.3035768777
 30
0.0
 10
89.6986345004
 20
48.2505851286
 30
0.0
 10
89.7204859063
 20
48.1966685374
 30
0.0
 10
89.7605028311
 20
48.1316896403
 30
0.0
 10
89.8020834002
 20
48.0903008723
 30
0.0
 10
89.8337595442
 20
48.0719514785
 30
0.0
  0
SPLINE
  5
541
100
AcDbEntity
  8
02___PRT_ALL_AXES
100
AcDbSpline
 62
3
  6
CONTINUOUS
 70
0
 71
3
 72
10
 73
6
 74
0
 42
0.0000001
 43
0.0000001
 44
0.0000000001
 40
0.0
 40
0.0
 40
0.0
 40
0.0
 40
0.5480522046
 40
0.781827028
 40
1.0
 40
1.0
 40
1.0
 40
1.0
 10
89.8337595442
 20
46.1947959323
 30
0.0
 10
89.8507641935
 20
46.1849454592
 30
0.0
 10
89.8778963626
 20
46.1740516689
 30
0.0
 10
89.9142027546
 20
46.1749209978
 30
0.0
 10
89.9297807689
 20
46.1805904808
 30
0.0
 10
89.9365498814
 20
46.184512238
 30
0.0
  0
SPLINE
  5
542
100
AcDbEntity
  8
02___PRT_ALL_AXES
100
AcDbSpline
 62
3
  6
CONTINUOUS
 70
0
 71
3
 72
13
 73
9
 74
0
 42
0.0000001
 43
0.0000001
 44
0.0000000001
 40
0.0
 40
0.0
 40
0.0
 40
0.0
 40
0.0870335261
 40
0.1866518535
 40
0.3042633445
 40
0.4383711269
 40
0.7298902826
 40
1.0
 40
1.0
 40
1.0
 40
1.0
 10
88.9753719158
 20
50.522693243
 30
0.0
 10
88.9698758608
 20
50.5195095089
 30
0.0
 10
88.9599051605
 20
50.5092980259
 30
0.0
 10
88.9526761996
 20
50.4877865097
 30
0.0
 10
88.952098186
 20
50.4618774153
 30
0.0
 10
88.9601515015
 20
50.4227959619
 30
0.0
 10
88.9837113721
 20
50.3768429236
 30
0.0
 10
89.0136587601
 20
50.3470325897
 30
0.0
 10
89.0307158042
 20
50.3371517651
 30
0.0
  0
SPLINE
  5
543
100
AcDbEntity
  8
02___PRT_ALL_AXES
100
AcDbSpline
 62
3
  6
CONTINUOUS
 70
0
 71
3
 72
13
 73
9
 74
0
 42
0.0000001
 43
0.0000001
 44
0.0000000001
 40
0.0
 40
0.0
 40
0.0
 40
0.0
 40
0.2697348891
 40
0.5613255636
 40
0.6955511165
 40
0.8132697375
 40
0.9129514219
 40
1.0
 40
1.0
 40
1.0
 40
1.0
 10
89.2203233539
 20
52.1430429169
 30
0.0
 10
89.2203233539
 20
52.1148647032
 30
0.0
 10
89.2358679472
 20
52.0564219882
 30
0.0
 10
89.2760399984
 20
51.9943933115
 30
0.0
 10
89.3187996153
 20
51.9564742266
 30
0.0
 10
89.351385143
 20
51.9386802144
 30
0.0
 10
89.38325721
 20
51.9322893018
 30
0.0
 10
89.4030527131
 20
51.9373895769
 30
0.0
 10
89.4109214237
 20
51.9419478419
 30
0.0
  0
SPLINE
  5
544
100
AcDbEntity
  8
02___PRT_ALL_AXES
100
AcDbSpline
 62
3
  6
CONTINUOUS
 70
0
 71
3
 72
9
 73
5
 74
0
 42
0.0000001
 43
0.0000001
 44
0.0000000001
 40
0.0
 40
0.0
 40
0.0
 40
0.0
 40
0.5511545544
 40
1.0
 40
1.0
 40
1.0
 40
1.0
 10
89.0307158042
 20
50.3371517651
 30
0.0
 10
89.0398713539
 20
50.3318481276
 30
0.0
 10
89.0581548751
 20
50.3242119624
 30
0.0
 10
89.0786036433
 20
50.3272923918
 30
0.0
 10
89.0860596926
 20
50.3316115041
 30
0.0
  0
SPLINE
  5
545
100
AcDbEntity
  8
02___PRT_ALL_AXES
100
AcDbSpline
 62
3
  6
CONTINUOUS
 70
0
 71
3
 72
10
 73
6
 74
0
 42
0.0000001
 43
0.0000001
 44
0.0000000001
 40
0.0
 40
0.0
 40
0.0
 40
0.0
 40
0.5480522046
 40
0.781827028
 40
1.0
 40
1.0
 40
1.0
 40
1.0
 10
89.8337595442
 20
48.0719514785
 30
0.0
 10
89.8507641935
 20
48.0621010053
 30
0.0
 10
89.8778963626
 20
48.051207215
 30
0.0
 10
89.9142027546
 20
48.0520765439
 30
0.0
 10
89.9297807689
 20
48.0577460269
 30
0.0
 10
89.9365498814
 20
48.0616677841
 30
0.0
  0
SPLINE
  5
546
100
AcDbEntity
  8
02___PRT_ALL_AXES
100
AcDbSpline
 62
3
  6
CONTINUOUS
 70
0
 71
3
 72
14
 73
10
 74
0
 42
0.0000001
 43
0.0000001
 44
0.0000000001
 40
0.0
 40
0.0
 40
0.0
 40
0.0
 40
0.08694071
 40
0.1864554541
 40
0.3039419027
 40
0.437907256
 40
0.5826146893
 40
0.7301842676
 40
1.0
 40
1.0
 40
1.0
 40
1.0
 10
89.730969207
 20
50.2936786929
 30
0.0
 10
89.7207627913
 20
50.2877654975
 30
0.0
 10
89.7022490762
 20
50.2687982563
 30
0.0
 10
89.6888261873
 20
50.2288472764
 30
0.0
 10
89.6877649076
 20
50.1807324238
 30
0.0
 10
89.6986345004
 20
50.1277406748
 30
0.0
 10
89.7204859063
 20
50.0738240835
 30
0.0
 10
89.7605028311
 20
50.0088451864
 30
0.0
 10
89.8020834002
 20
49.9674564185
 30
0.0
 10
89.8337595442
 20
49.9491070246
 30
0.0
  0
SPLINE
  5
547
100
AcDbEntity
  8
02___PRT_ALL_AXES
100
AcDbSpline
 62
3
  6
CONTINUOUS
 70
0
 71
3
 72
9
 73
5
 74
0
 42
0.0000001
 43
0.0000001
 44
0.0000000001
 40
0.0
 40
0.0
 40
0.0
 40
0.0
 40
0.5511545544
 40
1.0
 40
1.0
 40
1.0
 40
1.0
 10
89.0307158042
 20
46.8914141873
 30
0.0
 10
89.0398713539
 20
46.8861105497
 30
0.0
 10
89.0581548751
 20
46.8784743846
 30
0.0
 10
89.0786036433
 20
46.8815548139
 30
0.0
 10
89.0860596926
 20
46.8858739262
 30
0.0
  0
SPLINE
  5
548
100
AcDbEntity
  8
02___PRT_ALL_AXES
100
AcDbSpline
 62
3
  6
CONTINUOUS
 70
0
 71
3
 72
9
 73
5
 74
0
 42
0.0000001
 43
0.0000001
 44
0.0000000001
 40
0.0
 40
0.0
 40
0.0
 40
0.0
 40
0.4492707099
 40
1.0
 40
1.0
 40
1.0
 40
1.0
 10
89.2527929897
 20
52.9092094774
 30
0.0
 10
89.2422131157
 20
52.9030806627
 30
0.0
 10
89.2239554059
 20
52.8801722576
 30
0.0
 10
89.2203233539
 20
52.85232137
 30
0.0
 10
89.2203233539
 20
52.8373333244
 30
0.0
  0
SPLINE
  5
549
100
AcDbEntity
  8
02___PRT_ALL_AXES
100
AcDbSpline
 62
3
  6
CONTINUOUS
 70
0
 71
3
 72
9
 73
5
 74
0
 42
0.0000001
 43
0.0000001
 44
0.0000000001
 40
0.0
 40
0.0
 40
0.0
 40
0.0
 40
0.4492707099
 40
1.0
 40
1.0
 40
1.0
 40
1.0
 10
90.2565976647
 20
52.3277243285
 30
0.0
 10
90.2460177907
 20
52.3215955138
 30
0.0
 10
90.2277600809
 20
52.2986871086
 30
0.0
 10
90.2241280289
 20
52.2708362211
 30
0.0
 10
90.2241280289
 20
52.2558481754
 30
0.0
  0
SPLINE
  5
54A
100
AcDbEntity
  8
02___PRT_ALL_AXES
100
AcDbSpline
 62
3
  6
CONTINUOUS
 70
0
 71
3
 72
12
 73
8
 74
0
 42
0.0000001
 43
0.0000001
 44
0.0000000001
 40
0.0
 40
0.0
 40
0.0
 40
0.0
 40
0.2596238539
 40
0.5438596199
 40
0.6794040631
 40
0.8025756855
 40
1.0
 40
1.0
 40
1.0
 40
1.0
 10
90.2241280289
 20
43.7700765285
 30
0.0
 10
90.2241280289
 20
43.7447940806
 30
0.0
 10
90.2368897861
 20
43.6919244045
 30
0.0
 10
90.2707717467
 20
43.6341221151
 30
0.0
 10
90.3076778983
 20
43.5957352454
 30
0.0
 10
90.3434791108
 20
43.5697684392
 30
0.0
 10
90.3758947511
 20
43.5594799274
 30
0.0
 10
90.3949243787
 20
43.5622165142
 30
0.0
  0
SPLINE
  5
54B
100
AcDbEntity
  8
02___PRT_ALL_AXES
100
AcDbSpline
 62
3
  6
CONTINUOUS
 70
0
 71
3
 72
13
 73
9
 74
0
 42
0.0000001
 43
0.0000001
 44
0.0000000001
 40
0.0
 40
0.0
 40
0.0
 40
0.0
 40
0.0870335261
 40
0.1866518535
 40
0.3042633445
 40
0.4383711269
 40
0.7298902826
 40
1.0
 40
1.0
 40
1.0
 40
1.0
 10
88.9753719158
 20
47.0769556651
 30
0.0
 10
88.9698758608
 20
47.073771931
 30
0.0
 10
88.9599051605
 20
47.063560448
 30
0.0
 10
88.9526761996
 20
47.0420489319
 30
0.0
 10
88.952098186
 20
47.0161398375
 30
0.0
 10
88.9601515015
 20
46.977058384
 30
0.0
 10
88.9837113721
 20
46.9311053457
 30
0.0
 10
89.0136587601
 20
46.9012950118
 30
0.0
 10
89.0307158042
 20
46.8914141873
 30
0.0
  0
SPLINE
  5
54C
100
AcDbEntity
  8
02___PRT_ALL_AXES
100
AcDbSpline
 62
3
  6
CONTINUOUS
 70
0
 71
3
 72
14
 73
10
 74
0
 42
0.0000001
 43
0.0000001
 44
0.0000000001
 40
0.0
 40
0.0
 40
0.0
 40
0.0
 40
0.08694071
 40
0.1864554541
 40
0.3039419027
 40
0.437907256
 40
0.5826146893
 40
0.7301842676
 40
1.0
 40
1.0
 40
1.0
 40
1.0
 10
89.730969207
 20
46.5393676006
 30
0.0
 10
89.7207627913
 20
46.5334544052
 30
0.0
 10
89.7022490762
 20
46.514487164
 30
0.0
 10
89.6888261873
 20
46.4745361841
 30
0.0
 10
89.6877649076
 20
46.4264213315
 30
0.0
 10
89.6986345004
 20
46.3734295825
 30
0.0
 10
89.7204859063
 20
46.3195129913
 30
0.0
 10
89.7605028311
 20
46.2545340941
 30
0.0
 10
89.8020834002
 20
46.2131453262
 30
0.0
 10
89.8337595442
 20
46.1947959323
 30
0.0
  0
SPLINE
  5
54D
100
AcDbEntity
  8
02___PRT_ALL_AXES
100
AcDbSpline
 62
3
  6
CONTINUOUS
 70
0
 71
3
 72
9
 73
5
 74
0
 42
0.0000001
 43
0.0000001
 44
0.0000000001
 40
0.0
 40
0.0
 40
0.0
 40
0.0
 40
0.4492707099
 40
1.0
 40
1.0
 40
1.0
 40
1.0
 10
89.2527929897
 20
45.117728238
 30
0.0
 10
89.2422131157
 20
45.1115994232
 30
0.0
 10
89.2239554059
 20
45.0886910181
 30
0.0
 10
89.2203233539
 20
45.0608401306
 30
0.0
 10
89.2203233539
 20
45.0458520849
 30
0.0
  0
SPLINE
  5
54E
100
AcDbEntity
  8
02___PRT_ALL_AXES
100
AcDbSpline
 62
3
  6
CONTINUOUS
 70
0
 71
3
 72
13
 73
9
 74
0
 42
0.0000001
 43
0.0000001
 44
0.0000000001
 40
0.0
 40
0.0
 40
0.0
 40
0.0
 40
0.2697348891
 40
0.5613255636
 40
0.6955511165
 40
0.8132697375
 40
0.9129514219
 40
1.0
 40
1.0
 40
1.0
 40
1.0
 10
89.2203233539
 20
44.3515616774
 30
0.0
 10
89.2203233539
 20
44.3233834638
 30
0.0
 10
89.2358679472
 20
44.2649407488
 30
0.0
 10
89.2760399984
 20
44.2029120721
 30
0.0
 10
89.3187996153
 20
44.1649929872
 30
0.0
 10
89.351385143
 20
44.147198975
 30
0.0
 10
89.38325721
 20
44.1408080623
 30
0.0
 10
89.4030527131
 20
44.1459083374
 30
0.0
 10
89.4109214237
 20
44.1504666024
 30
0.0
  0
SPLINE
  5
54F
100
AcDbEntity
  8
02___PRT_ALL_AXES
100
AcDbSpline
 62
3
  6
CONTINUOUS
 70
0
 71
3
 72
9
 73
5
 74
0
 42
0.0000001
 43
0.0000001
 44
0.0000000001
 40
0.0
 40
0.0
 40
0.0
 40
0.0
 40
0.4492707099
 40
1.0
 40
1.0
 40
1.0
 40
1.0
 10
90.2565976647
 20
44.536243089
 30
0.0
 10
90.2460177907
 20
44.5301142743
 30
0.0
 10
90.2277600809
 20
44.5072058692
 30
0.0
 10
90.2241280289
 20
44.4793549817
 30
0.0
 10
90.2241280289
 20
44.464366936
 30
0.0
  0
SPLINE
  5
550
100
AcDbEntity
  8
02___PRT_ALL_AXES
100
AcDbSpline
 62
3
  6
CONTINUOUS
 70
0
 71
3
 72
9
 73
5
 74
0
 42
0.0000001
 43
0.0000001
 44
0.0000000001
 40
0.0
 40
0.0
 40
0.0
 40
0.0
 40
0.2761000621
 40
1.0
 40
1.0
 40
1.0
 40
1.0
 10
84.9209163971
 20
52.8961474465
 30
0.0
 10
84.9158672586
 20
52.8932225756
 30
0.0
 10
84.8981486811
 20
52.8817845334
 30
0.0
 10
84.8825794162
 20
52.8662640283
 30
0.0
 10
84.8750082013
 20
52.852969853
 30
0.0
  0
SPLINE
  5
551
100
AcDbEntity
  8
02___PRT_ALL_AXES
100
AcDbSpline
 62
3
  6
CONTINUOUS
 70
0
 71
3
 72
10
 73
6
 74
0
 42
0.0000001
 43
0.0000001
 44
0.0000000001
 40
0.0
 40
0.0
 40
0.0
 40
0.0
 40
0.5473015414
 40
0.7813152516
 40
1.0
 40
1.0
 40
1.0
 40
1.0
 10
85.1885976438
 20
38.0452711152
 30
0.0
 10
85.2042595539
 20
38.0543437649
 30
0.0
 10
85.2253963335
 20
38.0710556032
 30
0.0
 10
85.2413747133
 20
38.10048788
 30
0.0
 10
85.2440357807
 20
38.1155645426
 30
0.0
 10
85.2440361095
 20
38.1227967245
 30
0.0
  0
SPLINE
  5
552
100
AcDbEntity
  8
0
100
AcDbSpline
 62
3
  6
CONTINUOUS
 70
0
 71
3
 72
11
 73
7
 74
0
 42
0.0000001
 43
0.0000001
 44
0.0000000001
 40
0.0
 40
0.0
 40
0.0
 40
0.0
 40
0.2180204993
 40
0.4513193273
 40
0.7104901506
 40
1.0
 40
1.0
 40
1.0
 40
1.0
 10
83.5748806226
 20
38.1629895531
 30
0.0
 10
83.5748806228
 20
38.2221884747
 30
0.0
 10
83.5966420095
 20
38.3455597149
 30
0.0
 10
83.6898859495
 20
38.5174503458
 30
0.0
 10
83.8372284361
 20
38.6729458175
 30
0.0
 10
83.960623947
 20
38.7581800307
 30
0.0
 10
84.0286455749
 20
38.797583679
 30
0.0
  0
SPLINE
  5
553
100
AcDbEntity
  8
0
100
AcDbSpline
 62
3
  6
CONTINUOUS
 70
0
 71
3
 72
17
 73
13
 74
0
 42
0.0000001
 43
0.0000001
 44
0.0000000001
 40
0.0
 40
0.0
 40
0.0
 40
0.0
 40
0.0429697668
 40
0.0876963662
 40
0.1356060274
 40
0.1876215519
 40
0.3049147704
 40
0.4385364514
 40
0.5827881469
 40
0.7298374837
 40
0.8713468743
 40
1.0
 40
1.0
 40
1.0
 40
1.0
 10
83.5748806226
 20
52.8588031781
 30
0.0
 10
83.5748806225
 20
52.8145542318
 30
0.0
 10
83.5866661731
 20
52.7238640575
 30
0.0
 10
83.6385045825
 20
52.5928957203
 30
0.0
 10
83.7226258629
 20
52.4687101738
 30
0.0
 10
83.880977883
 20
52.3092520959
 30
0.0
 10
84.1508354213
 20
52.1443863843
 30
0.0
 10
84.5389477853
 20
52.0142998827
 30
0.0
 10
84.974478658
 20
51.9528944689
 30
0.0
 10
85.4221343472
 20
51.965324584
 30
0.0
 10
85.8453635857
 20
52.0503097873
 30
0.0
 10
86.1049788718
 20
52.1578015868
 30
0.0
 10
86.2196165788
 20
52.2242090522
 30
0.0
  0
SPLINE
  5
554
100
AcDbEntity
  8
02___PRT_ALL_AXES
100
AcDbSpline
 62
3
  6
CONTINUOUS
 70
0
 71
3
 72
14
 73
10
 74
0
 42
0.0000001
 43
0.0000001
 44
0.0000000001
 40
0.0
 40
0.0
 40
0.0
 40
0.0
 40
0.0872622463
 40
0.186995158
 40
0.3045747512
 40
0.4385237764
 40
0.5831298898
 40
0.7305411482
 40
1.0
 40
1.0
 40
1.0
 40
1.0
 10
84.8654779314
 20
38.1228082123
 30
0.0
 10
84.8654774335
 20
38.1118563033
 30
0.0
 10
84.8720553349
 20
38.0881707535
 30
0.0
 10
84.8977958199
 20
38.0587802015
 30
0.0
 10
84.9358123293
 20
38.0355344087
 30
0.0
 10
84.983255557
 20
38.0196227897
 30
0.0
 10
85.0365149164
 20
38.0121227554
 30
0.0
 10
85.1070037133
 20
38.0140972181
 30
0.0
 10
85.1593343566
 20
38.0283194439
 30
0.0
 10
85.1885976438
 20
38.0452711152
 30
0.0
  0
SPLINE
  5
555
100
AcDbEntity
  8
02___PRT_ALL_AXES
100
AcDbSpline
 62
3
  6
CONTINUOUS
 70
0
 71
3
 72
12
 73
8
 74
0
 42
0.0000001
 43
0.0000001
 44
0.0000000001
 40
0.0
 40
0.0
 40
0.0
 40
0.0
 40
0.203993138
 40
0.3286174021
 40
0.4639651224
 40
0.7444337272
 40
1.0
 40
1.0
 40
1.0
 40
1.0
 10
85.2347528465
 20
52.8525327433
 30
0.0
 10
85.2234094568
 20
52.872732364
 30
0.0
 10
85.1920079409
 20
52.8973836863
 30
0.0
 10
85.1432098068
 20
52.9168446408
 30
0.0
 10
85.0828455241
 20
52.9298408192
 30
0.0
 10
85.0056978679
 20
52.9290024992
 30
0.0
 10
84.9460306258
 20
52.9106956464
 30
0.0
 10
84.9209163971
 20
52.8961474465
 30
0.0
  0
SPLINE
  5
556
100
AcDbEntity
  8
0
100
AcDbSpline
 62
3
  6
CONTINUOUS
 70
0
 71
3
 72
9
 73
5
 74
0
 42
0.0000001
 43
0.0000001
 44
0.0000000001
 40
0.0
 40
0.0
 40
0.0
 40
0.0
 40
0.2959405883
 40
1.0
 40
1.0
 40
1.0
 40
1.0
 10
90.9718509779
 20
54.9770889661
 30
0.0
 10
90.9728787651
 20
54.9776843439
 30
0.0
 10
90.976435546
 20
54.9794447765
 30
0.0
 10
90.9811073241
 20
54.9796765844
 30
0.0
 10
90.9835524806
 20
54.9782601344
 30
0.0
  0
SPLINE
  5
557
100
AcDbEntity
  8
0
100
AcDbSpline
 62
3
  6
CONTINUOUS
 70
0
 71
3
 72
9
 73
5
 74
0
 42
0.0000001
 43
0.0000001
 44
0.0000000001
 40
0.0
 40
0.0
 40
0.0
 40
0.0
 40
0.5003281995
 40
1.0
 40
1.0
 40
1.0
 40
1.0
 10
88.780879974
 20
41.550463593
 30
0.0
 10
88.7857781672
 20
41.5533010241
 30
0.0
 10
88.7935141908
 20
41.5622326081
 30
0.0
 10
88.7973869842
 20
41.5734012385
 30
0.0
 10
88.7973869842
 20
41.5790544932
 30
0.0
  0
SPLINE
  5
558
100
AcDbEntity
  8
0
100
AcDbSpline
 62
3
  6
CONTINUOUS
 70
0
 71
3
 72
9
 73
5
 74
0
 42
0.0000001
 43
0.0000001
 44
0.0000000001
 40
0.0
 40
0.0
 40
0.0
 40
0.0
 40
0.5
 40
1.0
 40
1.0
 40
1.0
 40
1.0
 10
88.7643729638
 20
41.5790544932
 30
0.0
 10
88.7692692837
 20
41.5818908392
 30
0.0
 10
88.780879974
 20
41.5841397333
 30
0.0
 10
88.7924906642
 20
41.5818908392
 30
0.0
 10
88.7973869842
 20
41.5790544932
 30
0.0
  0
SPLINE
  5
559
100
AcDbEntity
  8
0
100
AcDbSpline
 62
3
  6
CONTINUOUS
 70
0
 71
3
 72
9
 73
5
 74
0
 42
0.0000001
 43
0.0000001
 44
0.0000000001
 40
0.0
 40
0.0
 40
0.0
 40
0.0
 40
0.2952950328
 40
1.0
 40
1.0
 40
1.0
 40
1.0
 10
90.9883579881
 20
54.9484980659
 30
0.0
 10
90.9893829874
 20
54.9490918286
 30
0.0
 10
90.9926781821
 20
54.9513023372
 30
0.0
 10
90.9951954156
 20
54.9552333851
 30
0.0
 10
90.9951954156
 20
54.9580602661
 30
0.0
  0
SPLINE
  5
55A
100
AcDbEntity
  8
02___PRT_ALL_AXES
100
AcDbSpline
 62
3
  6
CONTINUOUS
 70
0
 71
3
 72
9
 73
5
 74
0
 42
0.0000001
 43
0.0000001
 44
0.0000000001
 40
0.0
 40
0.0
 40
0.0
 40
0.0
 40
0.2591887834
 40
1.0
 40
1.0
 40
1.0
 40
1.0
 10
89.0117550492
 20
50.5066220105
 30
0.0
 10
89.0117550492
 20
50.5079736327
 30
0.0
 10
89.0118574616
 20
50.5131873596
 30
0.0
 10
89.0123798869
 20
50.5183973656
 30
0.0
 10
89.0130510062
 20
50.5222018203
 30
0.0
  0
SPLINE
  5
55B
100
AcDbEntity
  8
02___PRT_ALL_AXES
100
AcDbSpline
 62
3
  6
CONTINUOUS
 70
0
 71
3
 72
9
 73
5
 74
0
 42
0.0000001
 43
0.0000001
 44
0.0000000001
 40
0.0
 40
0.0
 40
0.0
 40
0.0
 40
0.258317475
 40
1.0
 40
1.0
 40
1.0
 40
1.0
 10
89.2794362959
 20
52.8715763387
 30
0.0
 10
89.2794362959
 20
52.8733384044
 30
0.0
 10
89.2795584979
 20
52.88015861
 30
0.0
 10
89.2801808566
 20
52.8869742266
 30
0.0
 10
89.2809753875
 20
52.891970701
 30
0.0
  0
SPLINE
  5
55C
100
AcDbEntity
  8
02___PRT_ALL_AXES
100
AcDbSpline
 62
3
  6
CONTINUOUS
 70
0
 71
3
 72
8
 73
4
 74
0
 42
0.0000001
 43
0.0000001
 44
0.0000000001
 40
0.0
 40
0.0
 40
0.0
 40
0.0
 40
1.0
 40
1.0
 40
1.0
 40
1.0
 10
89.2821494189
 20
52.8981909419
 30
0.0
 10
89.2830309044
 20
52.9022025154
 30
0.0
 10
89.2841542142
 20
52.9061718035
 30
0.0
 10
89.2855553841
 20
52.9100326922
 30
0.0
  0
SPLINE
  5
55D
100
AcDbEntity
  8
02___PRT_ALL_AXES
100
AcDbSpline
 62
3
  6
CONTINUOUS
 70
0
 71
3
 72
9
 73
5
 74
0
 42
0.0000001
 43
0.0000001
 44
0.0000000001
 40
0.0
 40
0.0
 40
0.0
 40
0.0
 40
0.258317475
 40
1.0
 40
1.0
 40
1.0
 40
1.0
 10
90.2832409709
 20
52.2900911898
 30
0.0
 10
90.2832409709
 20
52.2918532555
 30
0.0
 10
90.2833631729
 20
52.2986734611
 30
0.0
 10
90.2839855316
 20
52.3054890776
 30
0.0
 10
90.2847800625
 20
52.310485552
 30
0.0
  0
SPLINE
  5
55E
100
AcDbEntity
  8
02___PRT_ALL_AXES
100
AcDbSpline
 62
3
  6
CONTINUOUS
 70
0
 71
3
 72
8
 73
4
 74
0
 42
0.0000001
 43
0.0000001
 44
0.0000000001
 40
0.0
 40
0.0
 40
0.0
 40
0.0
 40
1.0
 40
1.0
 40
1.0
 40
1.0
 10
90.2859540938
 20
52.316705793
 30
0.0
 10
90.2868355794
 20
52.3207173665
 30
0.0
 10
90.2879588892
 20
52.3246866546
 30
0.0
 10
90.289360059
 20
52.3285475433
 30
0.0
  0
SPLINE
  5
55F
100
AcDbEntity
  8
0
100
AcDbSpline
 62
3
  6
CONTINUOUS
 70
0
 71
3
 72
17
 73
13
 74
0
 42
0.0000001
 43
0.0000001
 44
0.0000000001
 40
0.0
 40
0.0
 40
0.0
 40
0.0
 40
0.1270755761
 40
0.266664682
 40
0.4120585962
 40
0.5555425514
 40
0.6897231313
 40
0.8089161367
 40
0.8621567174
 40
0.9112429453
 40
0.9568191499
 40
1.0
 40
1.0
 40
1.0
 40
1.0
 10
86.2196165788
 20
37.5283954273
 30
0.0
 10
86.1088507305
 20
37.4642308568
 30
0.0
 10
85.8587621546
 20
37.3594304515
 30
0.0
 10
85.4507105703
 20
37.2736535873
 30
0.0
 10
85.0175161678
 20
37.2558177024
 30
0.0
 10
84.5924572011
 20
37.3075041038
 30
0.0
 10
84.2080023065
 20
37.4246287651
 30
0.0
 10
83.9346190791
 20
37.5758703258
 30
0.0
 10
83.7667174635
 20
37.7241254385
 30
0.0
 10
83.6725721588
 20
37.840685748
 30
0.0
 10
83.6077160895
 20
37.9645774747
 30
0.0
 10
83.5849462517
 20
38.0520705795
 30
0.0
 10
83.5793065525
 20
38.0952012708
 30
0.0
  0
SPLINE
  5
560
100
AcDbEntity
  8
02___PRT_ALL_AXES
100
AcDbSpline
 62
3
  6
CONTINUOUS
 70
0
 71
3
 72
11
 73
7
 74
0
 42
0.0000001
 43
0.0000001
 44
0.0000000001
 40
0.0
 40
0.0
 40
0.0
 40
0.0
 40
0.205976027
 40
0.4602778001
 40
0.7370524101
 40
1.0
 40
1.0
 40
1.0
 40
1.0
 10
89.4345625649
 20
44.1775979574
 30
0.0
 10
89.417133829
 20
44.1791631468
 30
0.0
 10
89.3796996248
 20
44.1955610225
 30
0.0
 10
89.3339140594
 20
44.2391747663
 30
0.0
 10
89.2979225886
 20
44.297024385
 30
0.0
 10
89.2839483695
 20
44.3414869643
 30
0.0
 10
89.2809753875
 20
44.3636271959
 30
0.0
  0
SPLINE
  5
561
100
AcDbEntity
  8
02___PRT_ALL_AXES
100
AcDbSpline
 62
3
  6
CONTINUOUS
 70
0
 71
3
 72
9
 73
5
 74
0
 42
0.0000001
 43
0.0000001
 44
0.0000000001
 40
0.0
 40
0.0
 40
0.0
 40
0.0
 40
0.257195702
 40
1.0
 40
1.0
 40
1.0
 40
1.0
 10
89.2809753875
 20
44.3636271959
 30
0.0
 10
89.2807216382
 20
44.3655169047
 30
0.0
 10
89.2798484654
 20
44.3728786682
 30
0.0
 10
89.2794362959
 20
44.3802980593
 30
0.0
 10
89.2794362959
 20
44.3858046918
 30
0.0
  0
SPLINE
  5
562
100
AcDbEntity
  8
02___PRT_ALL_AXES
100
AcDbSpline
 62
3
  6
CONTINUOUS
 70
0
 71
3
 72
10
 73
6
 74
0
 42
0.0000001
 43
0.0000001
 44
0.0000000001
 40
0.0
 40
0.0
 40
0.0
 40
0.0
 40
0.5473015414
 40
0.7813152516
 40
1.0
 40
1.0
 40
1.0
 40
1.0
 10
84.9209163971
 20
38.2003338216
 30
0.0
 10
84.905254487
 20
38.191261172
 30
0.0
 10
84.8841177073
 20
38.1745493336
 30
0.0
 10
84.8681393276
 20
38.1451170568
 30
0.0
 10
84.8654782601
 20
38.1300403942
 30
0.0
 10
84.8654779314
 20
38.1228082123
 30
0.0
  0
SPLINE
  5
563
100
AcDbEntity
  8
02___PRT_ALL_AXES
100
AcDbSpline
 62
3
  6
CONTINUOUS
 70
0
 71
3
 72
9
 73
5
 74
0
 42
0.0000001
 43
0.0000001
 44
0.0000000001
 40
0.0
 40
0.0
 40
0.0
 40
0.0
 40
0.2591887834
 40
1.0
 40
1.0
 40
1.0
 40
1.0
 10
89.0117550492
 20
47.0608844327
 30
0.0
 10
89.0117550492
 20
47.0622360548
 30
0.0
 10
89.0118574616
 20
47.0674497817
 30
0.0
 10
89.0123798869
 20
47.0726597877
 30
0.0
 10
89.0130510062
 20
47.0764642424
 30
0.0
  0
SPLINE
  5
564
100
AcDbEntity
  8
02___PRT_ALL_AXES
100
AcDbSpline
 62
3
  6
CONTINUOUS
 70
0
 71
3
 72
10
 73
6
 74
0
 42
0.0000001
 43
0.0000001
 44
0.0000000001
 40
0.0
 40
0.0
 40
0.0
 40
0.0
 40
0.2337333651
 40
0.4922295771
 40
1.0
 40
1.0
 40
1.0
 40
1.0
 10
90.3947748237
 20
51.4026190236
 30
0.0
 10
90.3807163803
 20
51.4107628152
 30
0.0
 10
90.3537713517
 20
51.4326553213
 30
0.0
 10
90.3106177111
 20
51.487329932
 30
0.0
 10
90.2894773411
 20
51.5386419653
 30
0.0
 10
90.2847800625
 20
51.5736232864
 30
0.0
  0
SPLINE
  5
565
100
AcDbEntity
  8
02___PRT_ALL_AXES
100
AcDbSpline
 62
3
  6
CONTINUOUS
 70
0
 71
3
 72
9
 73
5
 74
0
 42
0.0000001
 43
0.0000001
 44
0.0000000001
 40
0.0
 40
0.0
 40
0.0
 40
0.0
 40
0.257195702
 40
1.0
 40
1.0
 40
1.0
 40
1.0
 10
90.2847800625
 20
51.5736232864
 30
0.0
 10
90.2845263132
 20
51.5755129952
 30
0.0
 10
90.2836531404
 20
51.5828747588
 30
0.0
 10
90.2832409709
 20
51.5902941499
 30
0.0
 10
90.2832409709
 20
51.5958007823
 30
0.0
  0
SPLINE
  5
566
100
AcDbEntity
  8
02___PRT_ALL_AXES
100
AcDbSpline
 62
3
  6
CONTINUOUS
 70
0
 71
3
 72
8
 73
4
 74
0
 42
0.0000001
 43
0.0000001
 44
0.0000000001
 40
0.0
 40
0.0
 40
0.0
 40
0.0
 40
1.0
 40
1.0
 40
1.0
 40
1.0
 10
89.7487410497
 20
48.3750332523
 30
0.0
 10
89.7492448263
 20
48.3800447145
 30
0.0
 10
89.749982807
 20
48.3850401844
 30
0.0
 10
89.7509911567
 20
48.3899749362
 30
0.0
  0
SPLINE
  5
567
100
AcDbEntity
  8
02___PRT_ALL_AXES
100
AcDbSpline
 62
3
  6
CONTINUOUS
 70
0
 71
3
 72
8
 73
4
 74
0
 42
0.0000001
 43
0.0000001
 44
0.0000000001
 40
0.0
 40
0.0
 40
0.0
 40
0.0
 40
1.0
 40
1.0
 40
1.0
 40
1.0
 10
89.7529392797
 20
48.3981733444
 30
0.0
 10
89.7543102825
 20
48.4032032008
 30
0.0
 10
89.7560027248
 20
48.4081608136
 30
0.0
 10
89.7580565323
 20
48.4129525752
 30
0.0
  0
SPLINE
  5
568
100
AcDbEntity
  8
02___PRT_ALL_AXES
100
AcDbSpline
 62
3
  6
CONTINUOUS
 70
0
 71
3
 72
11
 73
7
 74
0
 42
0.0000001
 43
0.0000001
 44
0.0000000001
 40
0.0
 40
0.0
 40
0.0
 40
0.0
 40
0.205976027
 40
0.4602778001
 40
0.7370524101
 40
1.0
 40
1.0
 40
1.0
 40
1.0
 10
89.4345625649
 20
51.9690791969
 30
0.0
 10
89.417133829
 20
51.9706443862
 30
0.0
 10
89.3796996248
 20
51.9870422619
 30
0.0
 10
89.3339140594
 20
52.0306560057
 30
0.0
 10
89.2979225886
 20
52.0885056244
 30
0.0
 10
89.2839483695
 20
52.1329682038
 30
0.0
 10
89.2809753875
 20
52.1551084353
 30
0.0
  0
SPLINE
  5
569
100
AcDbEntity
  8
02___PRT_ALL_AXES
100
AcDbSpline
 62
3
  6
CONTINUOUS
 70
0
 71
3
 72
9
 73
5
 74
0
 42
0.0000001
 43
0.0000001
 44
0.0000000001
 40
0.0
 40
0.0
 40
0.0
 40
0.0
 40
0.257195702
 40
1.0
 40
1.0
 40
1.0
 40
1.0
 10
89.2809753875
 20
52.1551084353
 30
0.0
 10
89.2807216382
 20
52.1569981441
 30
0.0
 10
89.2798484654
 20
52.1643599077
 30
0.0
 10
89.2794362959
 20
52.1717792988
 30
0.0
 10
89.2794362959
 20
52.1772859312
 30
0.0
  0
SPLINE
  5
56A
100
AcDbEntity
  8
02___PRT_ALL_AXES
100
AcDbSpline
 62
3
  6
CONTINUOUS
 70
0
 71
3
 72
8
 73
4
 74
0
 42
0.0000001
 43
0.0000001
 44
0.0000000001
 40
0.0
 40
0.0
 40
0.0
 40
0.0
 40
1.0
 40
1.0
 40
1.0
 40
1.0
 10
89.7487410497
 20
46.4978777062
 30
0.0
 10
89.7492448263
 20
46.5028891684
 30
0.0
 10
89.749982807
 20
46.5078846382
 30
0.0
 10
89.7509911567
 20
46.51281939
 30
0.0
  0
SPLINE
  5
56B
100
AcDbEntity
  8
02___PRT_ALL_AXES
100
AcDbSpline
 62
3
  6
CONTINUOUS
 70
0
 71
3
 72
8
 73
4
 74
0
 42
0.0000001
 43
0.0000001
 44
0.0000000001
 40
0.0
 40
0.0
 40
0.0
 40
0.0
 40
1.0
 40
1.0
 40
1.0
 40
1.0
 10
89.7529392797
 20
46.5210177982
 30
0.0
 10
89.7543102825
 20
46.5260476547
 30
0.0
 10
89.7560027248
 20
46.5310052675
 30
0.0
 10
89.7580565323
 20
46.535797029
 30
0.0
  0
SPLINE
  5
56C
100
AcDbEntity
  8
02___PRT_ALL_AXES
100
AcDbSpline
 62
3
  6
CONTINUOUS
 70
0
 71
3
 72
8
 73
4
 74
0
 42
0.0000001
 43
0.0000001
 44
0.0000000001
 40
0.0
 40
0.0
 40
0.0
 40
0.0
 40
1.0
 40
1.0
 40
1.0
 40
1.0
 10
89.7487410497
 20
50.2521887984
 30
0.0
 10
89.7492448263
 20
50.2572002606
 30
0.0
 10
89.749982807
 20
50.2621957305
 30
0.0
 10
89.7509911567
 20
50.2671304823
 30
0.0
  0
SPLINE
  5
56D
100
AcDbEntity
  8
02___PRT_ALL_AXES
100
AcDbSpline
 62
3
  6
CONTINUOUS
 70
0
 71
3
 72
8
 73
4
 74
0
 42
0.0000001
 43
0.0000001
 44
0.0000000001
 40
0.0
 40
0.0
 40
0.0
 40
0.0
 40
1.0
 40
1.0
 40
1.0
 40
1.0
 10
89.7529392797
 20
50.2753288905
 30
0.0
 10
89.7543102825
 20
50.2803587469
 30
0.0
 10
89.7560027248
 20
50.2853163598
 30
0.0
 10
89.7580565323
 20
50.2901081213
 30
0.0
  0
SPLINE
  5
56E
100
AcDbEntity
  8
02___PRT_ALL_AXES
100
AcDbSpline
 62
3
  6
CONTINUOUS
 70
0
 71
3
 72
9
 73
5
 74
0
 42
0.0000001
 43
0.0000001
 44
0.0000000001
 40
0.0
 40
0.0
 40
0.0
 40
0.0
 40
0.258317475
 40
1.0
 40
1.0
 40
1.0
 40
1.0
 10
89.2794362959
 20
45.0800950993
 30
0.0
 10
89.2794362959
 20
45.0818571649
 30
0.0
 10
89.2795584979
 20
45.0886773706
 30
0.0
 10
89.2801808566
 20
45.0954929871
 30
0.0
 10
89.2809753875
 20
45.1004894615
 30
0.0
  0
SPLINE
  5
56F
100
AcDbEntity
  8
02___PRT_ALL_AXES
100
AcDbSpline
 62
3
  6
CONTINUOUS
 70
0
 71
3
 72
8
 73
4
 74
0
 42
0.0000001
 43
0.0000001
 44
0.0000000001
 40
0.0
 40
0.0
 40
0.0
 40
0.0
 40
1.0
 40
1.0
 40
1.0
 40
1.0
 10
89.2821494189
 20
45.1067097025
 30
0.0
 10
89.2830309044
 20
45.110721276
 30
0.0
 10
89.2841542142
 20
45.114690564
 30
0.0
 10
89.2855553841
 20
45.1185514528
 30
0.0
  0
SPLINE
  5
570
100
AcDbEntity
  8
02___PRT_ALL_AXES
100
AcDbSpline
 62
3
  6
CONTINUOUS
 70
0
 71
3
 72
8
 73
4
 74
0
 42
0.0000001
 43
0.0000001
 44
0.0000000001
 40
0.0
 40
0.0
 40
0.0
 40
0.0
 40
1.0
 40
1.0
 40
1.0
 40
1.0
 10
89.9581041473
 20
46.2091221472
 30
0.0
 10
89.9538167772
 20
46.2091158932
 30
0.0
 10
89.9495210029
 20
46.209418564
 30
0.0
 10
89.9452707809
 20
46.209981765
 30
0.0
  0
SPLINE
  5
571
100
AcDbEntity
  8
02___PRT_ALL_AXES
100
AcDbSpline
 62
3
  6
CONTINUOUS
 70
0
 71
3
 72
8
 73
4
 74
0
 42
0.0000001
 43
0.0000001
 44
0.0000000001
 40
0.0
 40
0.0
 40
0.0
 40
0.0
 40
1.0
 40
1.0
 40
1.0
 40
1.0
 10
89.9371713824
 20
46.2113694938
 30
0.0
 10
89.932187694
 20
46.2124129325
 30
0.0
 10
89.9272655774
 20
46.2137869488
 30
0.0
 10
89.9224435584
 20
46.2154222003
 30
0.0
  0
SPLINE
  5
572
100
AcDbEntity
  8
02___PRT_ALL_AXES
100
AcDbSpline
 62
3
  6
CONTINUOUS
 70
0
 71
3
 72
9
 73
5
 74
0
 42
0.0000001
 43
0.0000001
 44
0.0000000001
 40
0.0
 40
0.0
 40
0.0
 40
0.0
 40
0.2422820969
 40
1.0
 40
1.0
 40
1.0
 40
1.0
 10
89.9152628585
 20
46.218073558
 30
0.0
 10
89.9133918716
 20
46.2188202467
 30
0.0
 10
89.9057314833
 20
46.2220564674
 30
0.0
 10
89.8983239952
 20
46.2258809901
 30
0.0
 10
89.8928724862
 20
46.2290389467
 30
0.0
  0
SPLINE
  5
573
100
AcDbEntity
  8
02___PRT_ALL_AXES
100
AcDbSpline
 62
3
  6
CONTINUOUS
 70
0
 71
3
 72
11
 73
7
 74
0
 42
0.0000001
 43
0.0000001
 44
0.0000000001
 40
0.0
 40
0.0
 40
0.0
 40
0.0
 40
0.2360325922
 40
0.4973550892
 40
0.7601062837
 40
1.0
 40
1.0
 40
1.0
 40
1.0
 10
89.8928724862
 20
46.2290389467
 30
0.0
 10
89.8729573068
 20
46.2405754351
 30
0.0
 10
89.8351410994
 20
46.2721173439
 30
0.0
 10
89.7904423213
 20
46.3318899673
 30
0.0
 10
89.7590293142
 20
46.4000115331
 30
0.0
 10
89.7489944517
 20
46.4487061348
 30
0.0
 10
89.7480449262
 20
46.4720786693
 30
0.0
  0
SPLINE
  5
574
100
AcDbEntity
  8
02___PRT_ALL_AXES
100
AcDbSpline
 62
3
  6
CONTINUOUS
 70
0
 71
3
 72
14
 73
10
 74
0
 42
0.0000001
 43
0.0000001
 44
0.0000000001
 40
0.0
 40
0.0
 40
0.0
 40
0.0
 40
0.0872622463
 40
0.186995158
 40
0.3045747512
 40
0.4385237764
 40
0.5831298898
 40
0.7305411482
 40
1.0
 40
1.0
 40
1.0
 40
1.0
 10
85.2440361095
 20
38.1227967245
 30
0.0
 10
85.2440366073
 20
38.1337486335
 30
0.0
 10
85.2374587059
 20
38.1574341833
 30
0.0
 10
85.2117182209
 20
38.1868247353
 30
0.0
 10
85.1737017116
 20
38.2100705281
 30
0.0
 10
85.1262584839
 20
38.2259821471
 30
0.0
 10
85.0729991244
 20
38.2334821815
 30
0.0
 10
85.0025103275
 20
38.2315077187
 30
0.0
 10
84.9501796843
 20
38.2172854929
 30
0.0
 10
84.9209163971
 20
38.2003338216
 30
0.0
  0
SPLINE
  5
575
100
AcDbEntity
  8
02___PRT_ALL_AXES
100
AcDbSpline
 62
3
  6
CONTINUOUS
 70
0
 71
3
 72
9
 73
5
 74
0
 42
0.0000001
 43
0.0000001
 44
0.0000000001
 40
0.0
 40
0.0
 40
0.0
 40
0.0
 40
0.5054366646
 40
1.0
 40
1.0
 40
1.0
 40
1.0
 10
89.0833814714
 20
46.9296993842
 30
0.0
 10
89.0619849141
 20
46.9441378238
 30
0.0
 10
89.0284515351
 20
46.9850749363
 30
0.0
 10
89.0117550492
 20
47.0356273054
 30
0.0
 10
89.0117550492
 20
47.0608844327
 30
0.0
  0
SPLINE
  5
576
100
AcDbEntity
  8
0
100
AcDbSpline
 62
3
  6
CONTINUOUS
 70
0
 71
3
 72
9
 73
5
 74
0
 42
0.0000001
 43
0.0000001
 44
0.0000000001
 40
0.0
 40
0.0
 40
0.0
 40
0.0
 40
0.2209687054
 40
1.0
 40
1.0
 40
1.0
 40
1.0
 10
90.9835524806
 20
54.9782601344
 30
0.0
 10
90.9843180909
 20
54.9778166255
 30
0.0
 10
90.9874490967
 20
54.9751782787
 30
0.0
 10
90.9883579881
 20
54.9707418301
 30
0.0
 10
90.9883579881
 20
54.9676224663
 30
0.0
  0
SPLINE
  5
577
100
AcDbEntity
  8
02___PRT_ALL_AXES
100
AcDbSpline
 62
3
  6
CONTINUOUS
 70
0
 71
3
 72
9
 73
5
 74
0
 42
0.0000001
 43
0.0000001
 44
0.0000000001
 40
0.0
 40
0.0
 40
0.0
 40
0.0
 40
0.258317475
 40
1.0
 40
1.0
 40
1.0
 40
1.0
 10
90.2832409709
 20
44.4986099503
 30
0.0
 10
90.2832409709
 20
44.500372016
 30
0.0
 10
90.2833631729
 20
44.5071922216
 30
0.0
 10
90.2839855316
 20
44.5140078382
 30
0.0
 10
90.2847800625
 20
44.5190043126
 30
0.0
  0
SPLINE
  5
578
100
AcDbEntity
  8
02___PRT_ALL_AXES
100
AcDbSpline
 62
3
  6
CONTINUOUS
 70
0
 71
3
 72
8
 73
4
 74
0
 42
0.0000001
 43
0.0000001
 44
0.0000000001
 40
0.0
 40
0.0
 40
0.0
 40
0.0
 40
1.0
 40
1.0
 40
1.0
 40
1.0
 10
90.2859540938
 20
44.5252245536
 30
0.0
 10
90.2868355794
 20
44.5292361271
 30
0.0
 10
90.2879588892
 20
44.5332054151
 30
0.0
 10
90.289360059
 20
44.5370663038
 30
0.0
  0
SPLINE
  5
579
100
AcDbEntity
  8
02___PRT_ALL_AXES
100
AcDbSpline
 62
3
  6
CONTINUOUS
 70
0
 71
3
 72
8
 73
4
 74
0
 42
0.0000001
 43
0.0000001
 44
0.0000000001
 40
0.0
 40
0.0
 40
0.0
 40
0.0
 40
1.0
 40
1.0
 40
1.0
 40
1.0
 10
89.9581041473
 20
48.0862776934
 30
0.0
 10
89.9538167772
 20
48.0862714393
 30
0.0
 10
89.9495210029
 20
48.0865741101
 30
0.0
 10
89.9452707809
 20
48.0871373111
 30
0.0
  0
SPLINE
  5
57A
100
AcDbEntity
  8
02___PRT_ALL_AXES
100
AcDbSpline
 62
3
  6
CONTINUOUS
 70
0
 71
3
 72
8
 73
4
 74
0
 42
0.0000001
 43
0.0000001
 44
0.0000000001
 40
0.0
 40
0.0
 40
0.0
 40
0.0
 40
1.0
 40
1.0
 40
1.0
 40
1.0
 10
89.9371713824
 20
48.0885250399
 30
0.0
 10
89.932187694
 20
48.0895684786
 30
0.0
 10
89.9272655774
 20
48.0909424949
 30
0.0
 10
89.9224435584
 20
48.0925777464
 30
0.0
  0
SPLINE
  5
57B
100
AcDbEntity
  8
02___PRT_ALL_AXES
100
AcDbSpline
 62
3
  6
CONTINUOUS
 70
0
 71
3
 72
9
 73
5
 74
0
 42
0.0000001
 43
0.0000001
 44
0.0000000001
 40
0.0
 40
0.0
 40
0.0
 40
0.0
 40
0.2422820969
 40
1.0
 40
1.0
 40
1.0
 40
1.0
 10
89.9152628585
 20
48.0952291041
 30
0.0
 10
89.9133918716
 20
48.0959757928
 30
0.0
 10
89.9057314833
 20
48.0992120135
 30
0.0
 10
89.8983239952
 20
48.1030365363
 30
0.0
 10
89.8928724862
 20
48.1061944928
 30
0.0
  0
SPLINE
  5
57C
100
AcDbEntity
  8
02___PRT_ALL_AXES
100
AcDbSpline
 62
3
  6
CONTINUOUS
 70
0
 71
3
 72
11
 73
7
 74
0
 42
0.0000001
 43
0.0000001
 44
0.0000000001
 40
0.0
 40
0.0
 40
0.0
 40
0.0
 40
0.2360325922
 40
0.4973550892
 40
0.7601062837
 40
1.0
 40
1.0
 40
1.0
 40
1.0
 10
89.8928724862
 20
48.1061944928
 30
0.0
 10
89.8729573068
 20
48.1177309812
 30
0.0
 10
89.8351410994
 20
48.1492728901
 30
0.0
 10
89.7904423213
 20
48.2090455134
 30
0.0
 10
89.7590293142
 20
48.2771670792
 30
0.0
 10
89.7489944517
 20
48.3258616809
 30
0.0
 10
89.7480449262
 20
48.3492342155
 30
0.0
  0
SPLINE
  5
57D
100
AcDbEntity
  8
0
100
AcDbSpline
 62
3
  6
CONTINUOUS
 70
0
 71
3
 72
9
 73
5
 74
0
 42
0.0000001
 43
0.0000001
 44
0.0000000001
 40
0.0
 40
0.0
 40
0.0
 40
0.0
 40
0.2212120183
 40
1.0
 40
1.0
 40
1.0
 40
1.0
 10
90.9951954156
 20
54.9580602661
 30
0.0
 10
90.9951954156
 20
54.958952287
 30
0.0
 10
90.9944786639
 20
54.9630124137
 30
0.0
 10
90.9910753832
 20
54.9660483305
 30
0.0
 10
90.9883579881
 20
54.9676224663
 30
0.0
  0
SPLINE
  5
57E
100
AcDbEntity
  8
02___PRT_ALL_AXES
100
AcDbSpline
 62
3
  6
CONTINUOUS
 70
0
 71
3
 72
8
 73
4
 74
0
 42
0.0000001
 43
0.0000001
 44
0.0000000001
 40
0.0
 40
0.0
 40
0.0
 40
0.0
 40
1.0
 40
1.0
 40
1.0
 40
1.0
 10
89.9581041473
 20
49.9634332395
 30
0.0
 10
89.9538167772
 20
49.9634269855
 30
0.0
 10
89.9495210029
 20
49.9637296563
 30
0.0
 10
89.9452707809
 20
49.9642928572
 30
0.0
  0
SPLINE
  5
57F
100
AcDbEntity
  8
02___PRT_ALL_AXES
100
AcDbSpline
 62
3
  6
CONTINUOUS
 70
0
 71
3
 72
8
 73
4
 74
0
 42
0.0000001
 43
0.0000001
 44
0.0000000001
 40
0.0
 40
0.0
 40
0.0
 40
0.0
 40
1.0
 40
1.0
 40
1.0
 40
1.0
 10
89.9371713824
 20
49.9656805861
 30
0.0
 10
89.932187694
 20
49.9667240247
 30
0.0
 10
89.9272655774
 20
49.9680980411
 30
0.0
 10
89.9224435584
 20
49.9697332926
 30
0.0
  0
SPLINE
  5
580
100
AcDbEntity
  8
02___PRT_ALL_AXES
100
AcDbSpline
 62
3
  6
CONTINUOUS
 70
0
 71
3
 72
9
 73
5
 74
0
 42
0.0000001
 43
0.0000001
 44
0.0000000001
 40
0.0
 40
0.0
 40
0.0
 40
0.0
 40
0.2422820969
 40
1.0
 40
1.0
 40
1.0
 40
1.0
 10
89.9152628585
 20
49.9723846503
 30
0.0
 10
89.9133918716
 20
49.973131339
 30
0.0
 10
89.9057314833
 20
49.9763675597
 30
0.0
 10
89.8983239952
 20
49.9801920824
 30
0.0
 10
89.8928724862
 20
49.9833500389
 30
0.0
  0
SPLINE
  5
581
100
AcDbEntity
  8
02___PRT_ALL_AXES
100
AcDbSpline
 62
3
  6
CONTINUOUS
 70
0
 71
3
 72
11
 73
7
 74
0
 42
0.0000001
 43
0.0000001
 44
0.0000000001
 40
0.0
 40
0.0
 40
0.0
 40
0.0
 40
0.2360325922
 40
0.4973550892
 40
0.7601062837
 40
1.0
 40
1.0
 40
1.0
 40
1.0
 10
89.8928724862
 20
49.9833500389
 30
0.0
 10
89.8729573068
 20
49.9948865274
 30
0.0
 10
89.8351410994
 20
50.0264284362
 30
0.0
 10
89.7904423213
 20
50.0862010595
 30
0.0
 10
89.7590293142
 20
50.1543226253
 30
0.0
 10
89.7489944517
 20
50.203017227
 30
0.0
 10
89.7480449262
 20
50.2263897616
 30
0.0
  0
SPLINE
  5
582
100
AcDbEntity
  8
02___PRT_ALL_AXES
100
AcDbSpline
 62
3
  6
CONTINUOUS
 70
0
 71
3
 72
9
 73
5
 74
0
 42
0.0000001
 43
0.0000001
 44
0.0000000001
 40
0.0
 40
0.0
 40
0.0
 40
0.0
 40
0.5054366646
 40
1.0
 40
1.0
 40
1.0
 40
1.0
 10
89.0833814714
 20
50.3754369621
 30
0.0
 10
89.0619849141
 20
50.3898754017
 30
0.0
 10
89.0284515351
 20
50.4308125142
 30
0.0
 10
89.0117550492
 20
50.4813648832
 30
0.0
 10
89.0117550492
 20
50.5066220105
 30
0.0
  0
SPLINE
  5
583
100
AcDbEntity
  8
02___PRT_ALL_AXES
100
AcDbSpline
 62
3
  6
CONTINUOUS
 70
0
 71
3
 72
10
 73
6
 74
0
 42
0.0000001
 43
0.0000001
 44
0.0000000001
 40
0.0
 40
0.0
 40
0.0
 40
0.0
 40
0.2337333651
 40
0.4922295771
 40
1.0
 40
1.0
 40
1.0
 40
1.0
 10
90.3947748237
 20
43.6111377842
 30
0.0
 10
90.3807163803
 20
43.6192815757
 30
0.0
 10
90.3537713517
 20
43.6411740819
 30
0.0
 10
90.3106177111
 20
43.6958486926
 30
0.0
 10
90.2894773411
 20
43.7471607259
 30
0.0
 10
90.2847800625
 20
43.7821420469
 30
0.0
  0
SPLINE
  5
584
100
AcDbEntity
  8
02___PRT_ALL_AXES
100
AcDbSpline
 62
3
  6
CONTINUOUS
 70
0
 71
3
 72
9
 73
5
 74
0
 42
0.0000001
 43
0.0000001
 44
0.0000000001
 40
0.0
 40
0.0
 40
0.0
 40
0.0
 40
0.257195702
 40
1.0
 40
1.0
 40
1.0
 40
1.0
 10
90.2847800625
 20
43.7821420469
 30
0.0
 10
90.2845263132
 20
43.7840317557
 30
0.0
 10
90.2836531404
 20
43.7913935193
 30
0.0
 10
90.2832409709
 20
43.7988129104
 30
0.0
 10
90.2832409709
 20
43.8043195428
 30
0.0
  0
SPLINE
  5
585
100
AcDbEntity
  8
02___PRT_ALL_AXES
100
AcDbSpline
 62
7
  6
CONTINUOUS
 70
0
 71
3
 72
8
 73
4
 74
0
 42
0.0000001
 43
0.0000001
 44
0.0000000001
 40
0.0
 40
0.0
 40
0.0
 40
0.0
 40
1.0
 40
1.0
 40
1.0
 40
1.0
 10
89.0135493235
 20
50.5247665903
 30
0.0
 10
89.0122855528
 20
50.5188225121
 30
0.0
 10
89.0117307426
 20
50.5127377825
 30
0.0
 10
89.0117303728
 20
50.506622012
 30
0.0
  0
SPLINE
  5
586
100
AcDbEntity
  8
02___PRT_ALL_AXES
100
AcDbSpline
 62
7
  6
CONTINUOUS
 70
0
 71
3
 72
8
 73
4
 74
0
 42
0.0000001
 43
0.0000001
 44
0.0000000001
 40
0.0
 40
0.0
 40
0.0
 40
0.0
 40
1.0
 40
1.0
 40
1.0
 40
1.0
 10
89.0135493235
 20
47.0790290124
 30
0.0
 10
89.0122855528
 20
47.0730849342
 30
0.0
 10
89.0117307426
 20
47.0670002047
 30
0.0
 10
89.0117303728
 20
47.0608844342
 30
0.0
  0
ENDSEC
  0
SECTION
  2
OBJECTS
  0
DICTIONARY
  5
C
100
AcDbDictionary
280
0
281
1
  3
ACAD_GROUP
350
D
  3
ACAD_MLINESTYLE
350
17
  3
ACAD_LAYOUT
350
1A
  3
ACAD_PLOTSETTINGS
350
19
  3
ACAD_PLOTSTYLENAME
350
E
  0
DICTIONARY
  5
D
102
{ACAD_REACTORS
330
C
102
}
100
AcDbDictionary
280
0
281
1
  0
ACDBDICTIONARYWDFLT
  5
E
102
{ACAD_REACTORS
330
C
102
}
100
AcDbDictionary
281
1
  3
Normal
350
F
100
AcDbDictionaryWithDefault
340
F
  0
DICTIONARY
  5
17
102
{ACAD_REACTORS
330
C
102
}
100
AcDbDictionary
280
0
281
1
  3
Standard
350
18
  0
DICTIONARY
  5
19
102
{ACAD_REACTORS
330
C
102
}
100
AcDbDictionary
281
1
  0
DICTIONARY
  5
1A
102
{ACAD_REACTORS
330
C
102
}
100
AcDbDictionary
281
1
  3
Model
350
587
  3
Layout1
350
588
  0
ACDBPLACEHOLDER
  5
F
102
{ACAD_REACTORS
330
E
102
}
  0
MLINESTYLE
  5
18
102
{ACAD_REACTORS
330
17
102
}
100
AcDbMlineStyle
  2
STANDARD
 70
0
  3

 62
256
 51
90.0
 52
90.0
 71
2
 49
0.5
 62
256
  6
BYLAYER
 49
-0.5
 62
256
  6
BYLAYER
  0
LAYOUT
  5
587
102
{ACAD_REACTORS
330
1A
102
}
100
AcDbPlotSettings
  1

  2
none_device
  4
ANSI_B_(17.00_x_11.00_Inches)
  6

 40
0.0
 41
0.0
 42
0.0
 43
0.0
 44
431.8
 45
279.4
 46
0.0
 47
0.0
 48
0.0
 49
0.0
140
0.0
141
0.0
142
1.0
143
1.0
 70
1024
 72
0
 73
0
 74
0
  7

 75
0
147
1.0
148
0.0
149
0.0
100
AcDbLayout
  1
Model
 70
0
 71
0
 10
0.0
 20
0.0
 11
17.0
 21
11.0
 12
0.0
 22
0.0
 32
0.0
 14
0.0
 24
0.0
 34
0.0
 15
0.0
 25
0.0
 35
0.0
146
0.0
 13
0.0
 23
0.0
 33
0.0
 16
1.0
 26
0.0
 36
0.0
 17
0.0
 27
1.0
 37
0.0
 76
0
330
226
345
0
346
0
  0
LAYOUT
  5
588
102
{ACAD_REACTORS
330
1A
102
}
100
AcDbPlotSettings
  1

  2
none_device
  4
ANSI_B_(17.00_x_11.00_Inches)
  6

 40
0.0
 41
0.0
 42
0.0
 43
0.0
 44
431.8
 45
279.4
 46
0.0
 47
0.0
 48
0.0
 49
0.0
140
0.0
141
0.0
142
1.0
143
1.0
 70
0
 72
0
 73
0
 74
0
  7

 75
0
147
1.0
148
0.0
149
0.0
100
AcDbLayout
  1
Layout1
 70
0
 71
1
 10
0.0
 20
0.0
 11
17.0
 21
11.0
 12
0.0
 22
0.0
 32
0.0
 14
0.0
 24
0.0
 34
0.0
 15
0.0
 25
0.0
 35
0.0
146
0.0
 13
0.0
 23
0.0
 33
0.0
 16
1.0
 26
0.0
 36
0.0
 17
0.0
 27
1.0
 37
0.0
 76
0
330
227
345
0
346
0
  0
ENDSEC
  0
EOF
