  0
SECTION
  2
HEADER
  9
$ACADVER
  1
AC1015
  9
$ACADMAINTVER
 70
     6
  9
$DWGCODEPAGE
  3
ANSI_1252
  9
$INSBASE
 10
0.0
 20
0.0
 30
0.0
  9
$EXTMIN
 10
0.0
 20
0.0
 30
0.0
  9
$EXTMAX
 10
863.6
 20
558.8
 30
0.0
  9
$LIMMIN
 10
0.0
 20
0.0
  9
$LIMMAX
 10
863.6
 20
558.8
  9
$ORTHOMODE
 70
     0
  9
$REGENMODE
 70
     1
  9
$FILLMODE
 70
     1
  9
$QTEXTMODE
 70
     0
  9
$MIRRTEXT
 70
     1
  9
$LTSCALE
 40
2.0
  9
$ATTMODE
 70
     1
  9
$TEXTSIZE
 40
6.35
  9
$TRACEWID
 40
1.0
  9
$TEXTSTYLE
  7
STANDARD
  9
$CLAYER
  8
0
  9
$CELTYPE
  6
ByLayer
  9
$CECOLOR
 62
   256
  9
$CELTSCALE
 40
1.0
  9
$DISPSILH
 70
     0
  9
$DIMSCALE
 40
1.0
  9
$DIMASZ
 40
4.0
  9
$DIMEXO
 40
1.524
  9
$DIMDLI
 40
3.75
  9
$DIMRND
 40
0.0
  9
$DIMDLE
 40
0.0
  9
$DIMEXE
 40
1.524
  9
$DIMTP
 40
0.0
  9
$DIMTM
 40
0.0
  9
$DIMTXT
 40
6.35
  9
$DIMCEN
 40
2.5
  9
$DIMTSZ
 40
0.0
  9
$DIMTOL
 70
     0
  9
$DIMLIM
 70
     0
  9
$DIMTIH
 70
     1
  9
$DIMTOH
 70
     1
  9
$DIMSE1
 70
     0
  9
$DIMSE2
 70
     0
  9
$DIMTAD
 70
     0
  9
$DIMZIN
 70
     1
  9
$DIMBLK
  1

  9
$DIMASO
 70
     1
  9
$DIMSHO
 70
     1
  9
$DIMPOST
  1

  9
$DIMAPOST
  1

  9
$DIMALT
 70
     0
  9
$DIMALTD
 70
     3
  9
$DIMALTF
 40
0.0393700787
  9
$DIMLFAC
 40
1.0
  9
$DIMTOFL
 70
     1
  9
$DIMTVP
 40
0.0
  9
$DIMTIX
 70
     0
  9
$DIMSOXD
 70
     0
  9
$DIMSAH
 70
     0
  9
$DIMBLK1
  1

  9
$DIMBLK2
  1

  9
$DIMSTYLE
  2
ISO-25
  9
$DIMCLRD
 70
     0
  9
$DIMCLRE
 70
     0
  9
$DIMCLRT
 70
     0
  9
$DIMTFAC
 40
1.0
  9
$DIMGAP
 40
3.048
  9
$DIMJUST
 70
     0
  9
$DIMSD1
 70
     0
  9
$DIMSD2
 70
     0
  9
$DIMTOLJ
 70
     0
  9
$DIMTZIN
 70
     1
  9
$DIMALTZ
 70
     0
  9
$DIMALTTZ
 70
     0
  9
$DIMUPT
 70
     0
  9
$DIMDEC
 70
     2
  9
$DIMTDEC
 70
     2
  9
$DIMALTU
 70
     2
  9
$DIMALTTD
 70
     3
  9
$DIMTXSTY
  7
STANDARD
  9
$DIMAUNIT
 70
     0
  9
$DIMADEC
 70
     0
  9
$DIMALTRND
 40
0.0
  9
$DIMAZIN
 70
     0
  9
$DIMDSEP
 70
    44
  9
$DIMATFIT
 70
     3
  9
$DIMFRAC
 70
     0
  9
$DIMLDRBLK
  1

  9
$DIMLUNIT
 70
     2
  9
$DIMLWD
 70
    -2
  9
$DIMLWE
 70
    -2
  9
$DIMTMOVE
 70
     0
  9
$LUNITS
 70
     2
  9
$LUPREC
 70
     3
  9
$SKETCHINC
 40
1.0
  9
$FILLETRAD
 40
0.0
  9
$AUNITS
 70
     0
  9
$AUPREC
 70
     0
  9
$MENU
  1
.
  9
$ELEVATION
 40
0.0
  9
$PELEVATION
 40
0.0
  9
$THICKNESS
 40
0.0
  9
$LIMCHECK
 70
     0
  9
$CHAMFERA
 40
0.0
  9
$CHAMFERB
 40
0.0
  9
$CHAMFERC
 40
0.0
  9
$CHAMFERD
 40
0.0
  9
$SKPOLY
 70
     0
  9
$TDCREATE
 40
2460192.387690706
  9
$TDUCREATE
 40
2460192.679357373
  9
$TDUPDATE
 40
2460192.387692373
  9
$TDUUPDATE
 40
2460192.67935904
  9
$TDINDWG
 40
0.0000000116
  9
$TDUSRTIMER
 40
0.0000000116
  9
$USRTIMER
 70
     1
  9
$ANGBASE
 50
0.0
  9
$ANGDIR
 70
     0
  9
$PDMODE
 70
     0
  9
$PDSIZE
 40
-1.0
  9
$PLINEWID
 40
0.0
  9
$SPLFRAME
 70
     0
  9
$SPLINETYPE
 70
     6
  9
$SPLINESEGS
 70
     8
  9
$HANDSEED
  5
405
  9
$SURFTAB1
 70
     6
  9
$SURFTAB2
 70
     6
  9
$SURFTYPE
 70
     6
  9
$SURFU
 70
     6
  9
$SURFV
 70
     6
  9
$UCSBASE
  2

  9
$UCSNAME
  2

  9
$UCSORG
 10
0.0
 20
0.0
 30
0.0
  9
$UCSXDIR
 10
1.0
 20
0.0
 30
0.0
  9
$UCSYDIR
 10
0.0
 20
1.0
 30
0.0
  9
$UCSORTHOREF
  2

  9
$UCSORTHOVIEW
 70
     0
  9
$UCSORGTOP
 10
0.0
 20
0.0
 30
0.0
  9
$UCSORGBOTTOM
 10
0.0
 20
0.0
 30
0.0
  9
$UCSORGLEFT
 10
0.0
 20
0.0
 30
0.0
  9
$UCSORGRIGHT
 10
0.0
 20
0.0
 30
0.0
  9
$UCSORGFRONT
 10
0.0
 20
0.0
 30
0.0
  9
$UCSORGBACK
 10
0.0
 20
0.0
 30
0.0
  9
$PUCSBASE
  2

  9
$PUCSNAME
  2

  9
$PUCSORG
 10
0.0
 20
0.0
 30
0.0
  9
$PUCSXDIR
 10
1.0
 20
0.0
 30
0.0
  9
$PUCSYDIR
 10
0.0
 20
1.0
 30
0.0
  9
$PUCSORTHOREF
  2

  9
$PUCSORTHOVIEW
 70
     0
  9
$PUCSORGTOP
 10
0.0
 20
0.0
 30
0.0
  9
$PUCSORGBOTTOM
 10
0.0
 20
0.0
 30
0.0
  9
$PUCSORGLEFT
 10
0.0
 20
0.0
 30
0.0
  9
$PUCSORGRIGHT
 10
0.0
 20
0.0
 30
0.0
  9
$PUCSORGFRONT
 10
0.0
 20
0.0
 30
0.0
  9
$PUCSORGBACK
 10
0.0
 20
0.0
 30
0.0
  9
$USERI1
 70
     0
  9
$USERI2
 70
     0
  9
$USERI3
 70
     0
  9
$USERI4
 70
     0
  9
$USERI5
 70
     0
  9
$USERR1
 40
0.0
  9
$USERR2
 40
0.0
  9
$USERR3
 40
0.0
  9
$USERR4
 40
0.0
  9
$USERR5
 40
0.0
  9
$WORLDVIEW
 70
     1
  9
$SHADEDGE
 70
     3
  9
$SHADEDIF
 70
    70
  9
$TILEMODE
 70
     1
  9
$MAXACTVP
 70
    64
  9
$PINSBASE
 10
0.0
 20
0.0
 30
0.0
  9
$PLIMCHECK
 70
     0
  9
$PEXTMIN
 10
1.0000000000E+20
 20
1.0000000000E+20
 30
1.0000000000E+20
  9
$PEXTMAX
 10
-1.0000000000E+20
 20
-1.0000000000E+20
 30
-1.0000000000E+20
  9
$PLIMMIN
 10
0.0
 20
0.0
  9
$PLIMMAX
 10
420.0
 20
297.0
  9
$UNITMODE
 70
     0
  9
$VISRETAIN
 70
     1
  9
$PLINEGEN
 70
     0
  9
$PSLTSCALE
 70
     1
  9
$TREEDEPTH
 70
  3020
  9
$CMLSTYLE
  2
Standard
  9
$CMLJUST
 70
     0
  9
$CMLSCALE
 40
20.0
  9
$PROXYGRAPHICS
 70
     1
  9
$MEASUREMENT
 70
     1
  9
$CELWEIGHT
370
    -1
  9
$ENDCAPS
280
     0
  9
$JOINSTYLE
280
     0
  9
$LWDISPLAY
290
     1
  9
$INSUNITS
 70
     4
  9
$HYPERLINKBASE
  1

  9
$STYLESHEET
  1

  9
$XEDIT
290
     1
  9
$CEPSNTYPE
380
     0
  9
$PSTYLEMODE
290
     1
  9
$FINGERPRINTGUID
  2
{52dd5145-e676-4bf8-b202-035aa2737b2b}
  9
$VERSIONGUID
  2
{FAEB1C32-E019-11D5-929B-00C0DF256EC4}
  9
$EXTNAMES
290
     1
  9
$PSVPSCALE
 40
0.0
  9
$OLESTARTUP
290
     0
  0
ENDSEC
  0
SECTION
  2
CLASSES
  0
CLASS
  1
ACDBDICTIONARYWDFLT
  2
AcDbDictionaryWithDefault
  3
ObjectDBX Classes
 90
        0
280
     0
281
     0
  0
CLASS
  1
VISUALSTYLE
  2
AcDbVisualStyle
  3
ObjectDBX Classes
 90
     4095
280
     0
281
     0
  0
CLASS
  1
MATERIAL
  2
AcDbMaterial
  3
ObjectDBX Classes
 90
     1153
280
     0
281
     0
  0
CLASS
  1
SCALE
  2
AcDbScale
  3
ObjectDBX Classes
 90
     1153
280
     0
281
     0
  0
CLASS
  1
TABLESTYLE
  2
AcDbTableStyle
  3
ObjectDBX Classes
 90
     4095
280
     0
281
     0
  0
CLASS
  1
MLEADERSTYLE
  2
AcDbMLeaderStyle
  3
ACDB_MLEADERSTYLE_CLASS
 90
     4095
280
     0
281
     0
  0
CLASS
  1
SUN
  2
AcDbSun
  3
SCENEOE
 90
     1153
280
     0
281
     0
  0
CLASS
  1
ACDBPLACEHOLDER
  2
AcDbPlaceHolder
  3
ObjectDBX Classes
 90
        0
280
     0
281
     0
  0
CLASS
  1
LAYOUT
  2
AcDbLayout
  3
ObjectDBX Classes
 90
        0
280
     0
281
     0
  0
ENDSEC
  0
SECTION
  2
TABLES
  0
TABLE
  2
VPORT
  5
8
330
0
100
AcDbSymbolTable
 70
     1
  0
VPORT
  5
29
330
8
100
AcDbSymbolTableRecord
100
AcDbViewportTableRecord
  2
*Active
 70
     0
 10
0.0
 20
0.0
 11
1.0
 21
1.0
 12
431.8
 22
279.4
 13
0.0
 23
0.0
 14
10.0
 24
10.0
 15
10.0
 25
10.0
 16
0.0
 26
0.0
 36
1.0
 17
0.0
 27
0.0
 37
0.0
 40
558.8
 41
1.5454545455
 42
50.0
 43
0.0
 44
0.0
 50
0.0
 51
0.0
 71
     0
 72
  2000
 73
     1
 74
     3
 75
     0
 76
     0
 77
     0
 78
     0
281
     0
 65
     1
110
0.0
120
0.0
130
0.0
111
1.0
121
0.0
131
0.0
112
0.0
122
1.0
132
0.0
 79
     0
146
0.0
  0
ENDTAB
  0
TABLE
  2
LTYPE
  5
5
330
0
100
AcDbSymbolTable
 70
     6
  0
LTYPE
  5
14
330
5
100
AcDbSymbolTableRecord
100
AcDbLinetypeTableRecord
  2
ByBlock
 70
     0
  3

 72
    65
 73
     0
 40
0.0
  0
LTYPE
  5
15
330
5
100
AcDbSymbolTableRecord
100
AcDbLinetypeTableRecord
  2
ByLayer
 70
     0
  3

 72
    65
 73
     0
 40
0.0
  0
LTYPE
  5
16
330
5
100
AcDbSymbolTableRecord
100
AcDbLinetypeTableRecord
  2
Continuous
 70
     0
  3
Solid line
 72
    65
 73
     0
 40
0.0
  0
LTYPE
  5
5E
330
5
100
AcDbSymbolTableRecord
100
AcDbLinetypeTableRecord
  2
HIDDEN
 70
     0
  3
Hidden __ __ __ __ __ __ __ __ __ __ __ __ __ __
 72
    65
 73
     2
 40
1.905
 49
1.27
 74
     0
 49
-0.635
 74
     0
  0
LTYPE
  5
5F
330
5
100
AcDbSymbolTableRecord
100
AcDbLinetypeTableRecord
  2
PHANTOM
 70
     0
  3
Phantom ______  __  __  ______  __  __  ______
 72
    65
 73
     6
 40
12.7
 49
6.35
 74
     0
 49
-1.27
 74
     0
 49
1.27
 74
     0
 49
-1.27
 74
     0
 49
1.27
 74
     0
 49
-1.27
 74
     0
  0
LTYPE
  5
60
330
5
100
AcDbSymbolTableRecord
100
AcDbLinetypeTableRecord
  2
CENTER
 70
     0
  3
Center ____ _ ____ _ ____ _ ____ _ ____ _ ____
 72
    65
 73
     4
 40
10.16
 49
6.35
 74
     0
 49
-1.27
 74
     0
 49
1.27
 74
     0
 49
-1.27
 74
     0
  0
LTYPE
  5
61
330
5
100
AcDbSymbolTableRecord
100
AcDbLinetypeTableRecord
  2
CENTERX2
 70
     0
  3
Center (2x) ________  __  ________  __  _____
 72
    65
 73
     4
 40
20.32
 49
12.7
 74
     0
 49
-2.54
 74
     0
 49
2.54
 74
     0
 49
-2.54
 74
     0
  0
LTYPE
  5
62
330
5
100
AcDbSymbolTableRecord
100
AcDbLinetypeTableRecord
  2
DOT2
 70
     0
  3
Dot (.5x) ........................................
 72
    65
 73
     2
 40
0.635
 49
0.0
 74
     0
 49
-0.635
 74
     0
  0
ENDTAB
  0
TABLE
  2
LAYER
  5
2
330
0
100
AcDbSymbolTable
 70
     6
  0
LAYER
  5
10
330
2
100
AcDbSymbolTableRecord
100
AcDbLayerTableRecord
  2
0
 70
     0
 62
     7
  6
Continuous
370
    -3
390
F
  0
LAYER
  5
63
330
2
100
AcDbSymbolTableRecord
100
AcDbLayerTableRecord
  2
SLD-0
 70
     0
 62
   179
  6
Continuous
370
    -3
390
F
  0
LAYER
  5
64
330
2
100
AcDbSymbolTableRecord
100
AcDbLayerTableRecord
  2
WIRE_BOND
 70
     0
 62
     6
  6
Continuous
370
   100
390
F
  0
LAYER
  5
65
330
2
100
AcDbSymbolTableRecord
100
AcDbLayerTableRecord
  2
HIGHLIGHT-BLUE
 70
     0
 62
     5
  6
Continuous
370
    70
390
F
  0
LAYER
  5
66
330
2
100
AcDbSymbolTableRecord
100
AcDbLayerTableRecord
  2
MANUAL_DIM
 70
     0
 62
   114
  6
Continuous
370
    -3
390
F
  0
LAYER
  5
67
330
2
100
AcDbSymbolTableRecord
100
AcDbLayerTableRecord
  2
TORQUE_9-10
 70
     0
 62
   155
  6
Continuous
370
    -3
390
F
  0
ENDTAB
  0
TABLE
  2
STYLE
  5
3
330
0
100
AcDbSymbolTable
 70
     5
  0
STYLE
  5
11
330
3
100
AcDbSymbolTableRecord
100
AcDbTextStyleTableRecord
  2
STANDARD
 70
     0
 40
0.0
 41
1.0
 50
0.0
 71
     0
 42
6.35
  3
GOTHIC.TTF
  4

1001
ACAD
1000
CENTURY GOTHIC
1071
       34
  0
STYLE
  5
7A
330
3
100
AcDbSymbolTableRecord
100
AcDbTextStyleTableRecord
  2
SLDTEXTSTYLE0
 70
     0
 40
0.0
 41
0.913
 50
0.0
 71
     0
 42
6.35
  3
GOTHIC.TTF
  4

1001
ACAD
1000
Century Gothic
1071
      290
  0
STYLE
  5
96
330
3
100
AcDbSymbolTableRecord
100
AcDbTextStyleTableRecord
  2
SLDTEXTSTYLE1
 70
     0
 40
0.0
 41
0.87
 50
0.0
 71
     0
 42
6.35
  3
ARIALN.TTF
  4

1001
ACAD
1000
Arial Narrow
1071
      290
  0
STYLE
  5
A1
330
3
100
AcDbSymbolTableRecord
100
AcDbTextStyleTableRecord
  2
SLDTEXTSTYLE2
 70
     0
 40
0.0
 41
0.8969072165
 50
0.0
 71
     0
 42
6.35
  3
ARIALN.TTF
  4

1001
ACAD
1000
Arial Narrow
1071
      290
  0
STYLE
  5
A6
330
3
100
AcDbSymbolTableRecord
100
AcDbTextStyleTableRecord
  2
SLDTEXTSTYLE3
 70
     0
 40
0.0
 41
0.8969072165
 50
0.0
 71
     0
 42
6.35
  3
ARIALN.TTF
  4
bigfont
1001
ACAD
1000
Arial Narrow
1071
      290
  0
ENDTAB
  0
TABLE
  2
VIEW
  5
6
330
0
100
AcDbSymbolTable
 70
     0
  0
ENDTAB
  0
TABLE
  2
UCS
  5
7
330
0
100
AcDbSymbolTable
 70
     0
  0
ENDTAB
  0
TABLE
  2
APPID
  5
9
330
0
100
AcDbSymbolTable
 70
     1
  0
APPID
  5
12
330
9
100
AcDbSymbolTableRecord
100
AcDbRegAppTableRecord
  2
ACAD
 70
     0
  0
ENDTAB
  0
TABLE
  2
DIMSTYLE
  5
A
330
0
100
AcDbSymbolTable
 70
     5
100
AcDbDimStyleTable
  0
DIMSTYLE
105
27
330
A
100
AcDbSymbolTableRecord
100
AcDbDimStyleTableRecord
  2
ISO-25
 70
     0
 41
2.5
 42
0.625
 43
3.75
 44
1.25
 73
     0
 74
     0
 77
     1
 78
     8
140
2.5
141
2.5
143
0.0393700787
147
0.625
171
     3
172
     1
178
     0
271
     2
272
     2
274
     3
278
    44
283
     0
284
     8
340
11
  0
DIMSTYLE
105
115
102
{ACAD_REACTORS
330
114
330
2D8
102
}
330
A
100
AcDbSymbolTableRecord
100
AcDbDimStyleTableRecord
  2
SLDDIMSTYLE0
 70
     0
 41
4.0
 44
0.0
 45
0.000000001
 78
     4
 79
     1
140
4.7625
147
1.190625
173
     1
178
     0
271
     1
272
     2
276
     2
284
    12
340
7A
  0
DIMSTYLE
105
121
330
A
100
AcDbSymbolTableRecord
100
AcDbDimStyleTableRecord
  2
SLDDIMSTYLE1
 70
     0
 41
4.0
 44
0.0
 45
0.000000001
146
4.0
147
0.0
173
     1
178
     0
271
     0
272
     0
276
     2
340
11
  0
DIMSTYLE
105
2B5
102
{ACAD_REACTORS
330
2B4
330
2CD
102
}
330
A
100
AcDbSymbolTableRecord
100
AcDbDimStyleTableRecord
  2
SLDDIMSTYLE2
 70
     0
 41
4.0
 44
0.0
 45
0.000000001
 78
    12
 79
     3
140
4.7625
147
1.190625
173
     1
178
     0
271
     1
272
     2
276
     2
284
    12
340
7A
  0
DIMSTYLE
105
2E4
102
{ACAD_REACTORS
330
2E3
102
}
330
A
100
AcDbSymbolTableRecord
100
AcDbDimStyleTableRecord
  2
SLDDIMSTYLE3
 70
     0
 41
4.0
 44
0.0
 45
0.000000001
 78
     4
 79
     1
140
4.7625
147
1.190625
172
     1
173
     1
178
     0
271
     1
272
     2
276
     2
284
    12
289
     0
340
7A
  0
ENDTAB
  0
TABLE
  2
BLOCK_RECORD
  5
1
330
0
100
AcDbSymbolTable
 70
    11
  0
BLOCK_RECORD
  5
1F
330
1
100
AcDbSymbolTableRecord
100
AcDbBlockTableRecord
  2
*Model_Space
340
22
  0
BLOCK_RECORD
  5
1B
330
1
100
AcDbSymbolTableRecord
100
AcDbBlockTableRecord
  2
*Paper_Space
340
1E
  0
BLOCK_RECORD
  5
23
330
1
100
AcDbSymbolTableRecord
100
AcDbBlockTableRecord
  2
*Paper_Space0
340
26
  0
BLOCK_RECORD
  5
73
330
1
100
AcDbSymbolTableRecord
100
AcDbBlockTableRecord
  2
SW_NOTE_0
340
0
102
{BLKREFS
331
82
102
}
  0
BLOCK_RECORD
  5
116
330
1
100
AcDbSymbolTableRecord
100
AcDbBlockTableRecord
  2
_D
340
0
  0
BLOCK_RECORD
  5
2B6
330
1
100
AcDbSymbolTableRecord
100
AcDbBlockTableRecord
  2
_D_1
340
0
  0
BLOCK_RECORD
  5
2CE
330
1
100
AcDbSymbolTableRecord
100
AcDbBlockTableRecord
  2
_D_2
340
0
  0
BLOCK_RECORD
  5
2D9
330
1
100
AcDbSymbolTableRecord
100
AcDbBlockTableRecord
  2
_D_3
340
0
  0
BLOCK_RECORD
  5
2E5
330
1
100
AcDbSymbolTableRecord
100
AcDbBlockTableRecord
  2
_D_4
340
0
  0
BLOCK_RECORD
  5
2EF
330
1
100
AcDbSymbolTableRecord
100
AcDbBlockTableRecord
  2
SW_SYMBOL_MOD_CL
340
0
102
{BLKREFS
331
2F4
102
}
  0
BLOCK_RECORD
  5
2F5
330
1
100
AcDbSymbolTableRecord
100
AcDbBlockTableRecord
  2
SW_NOTE_0_1
340
0
102
{BLKREFS
331
2FD
102
}
  0
BLOCK_RECORD
  5
2FF
330
1
100
AcDbSymbolTableRecord
100
AcDbBlockTableRecord
  2
SW_CENTERMARKSYMBOL_0
340
0
102
{BLKREFS
331
306
102
}
  0
BLOCK_RECORD
  5
307
330
1
100
AcDbSymbolTableRecord
100
AcDbBlockTableRecord
  2
SW_CENTERMARKSYMBOL_1
340
0
102
{BLKREFS
331
30E
102
}
  0
ENDTAB
  0
ENDSEC
  0
SECTION
  2
BLOCKS
  0
BLOCK
  5
20
330
1F
100
AcDbEntity
  8
0
100
AcDbBlockBegin
  2
*Model_Space
 70
     0
 10
0.0
 20
0.0
 30
0.0
  3
*Model_Space
  1

  0
ENDBLK
  5
21
330
1F
100
AcDbEntity
  8
0
100
AcDbBlockEnd
  0
BLOCK
  5
1C
330
1B
100
AcDbEntity
 67
     1
  8
0
100
AcDbBlockBegin
  2
*Paper_Space
 70
     0
 10
0.0
 20
0.0
 30
0.0
  3
*Paper_Space
  1

  0
ENDBLK
  5
1D
330
1B
100
AcDbEntity
 67
     1
  8
0
100
AcDbBlockEnd
  0
BLOCK
  5
24
330
23
100
AcDbEntity
  8
0
100
AcDbBlockBegin
  2
*Paper_Space0
 70
     0
 10
0.0
 20
0.0
 30
0.0
  3
*Paper_Space0
  1

  0
ENDBLK
  5
25
330
23
100
AcDbEntity
  8
0
100
AcDbBlockEnd
  0
BLOCK
  5
74
330
73
100
AcDbEntity
  8
0
100
AcDbBlockBegin
  2
SW_NOTE_0
 70
     0
 10
0.0
 20
0.0
 30
0.0
  3
SW_NOTE_0
  1

  0
LINE
  5
76
330
73
100
AcDbEntity
  8
SLD-0
 62
     0
100
AcDbLine
 10
-4.3347567553
 20
-30.4120299406
 30
0.0
 11
-4.3347567553
 21
-18.2235580869
 31
0.0
  0
LINE
  5
77
330
73
100
AcDbEntity
  8
SLD-0
 62
     0
100
AcDbLine
 10
-4.3347567553
 20
-18.2235580869
 30
0.0
 11
7.8537150985
 21
-18.2235580869
 31
0.0
  0
LINE
  5
78
330
73
100
AcDbEntity
  8
SLD-0
 62
     0
100
AcDbLine
 10
7.8537150985
 20
-18.2235580869
 30
0.0
 11
7.8537150985
 21
-30.4120299406
 31
0.0
  0
LINE
  5
79
330
73
100
AcDbEntity
  8
SLD-0
 62
     0
100
AcDbLine
 10
7.8537150985
 20
-30.4120299406
 30
0.0
 11
-4.3347567553
 21
-30.4120299406
 31
0.0
  0
MTEXT
  5
7B
330
73
100
AcDbEntity
  8
SLD-0
 62
     0
100
AcDbMText
 10
0.0
 20
6.0833496094
 30
0.0
 40
4.7625
 41
0.0
 71
     1
 72
     1
  1
NOTES: UNLESS OTHERWISE SPECIFIED
  7
SLDTEXTSTYLE0
 73
     1
 44
1.0
  0
MTEXT
  5
7C
330
73
100
AcDbEntity
  8
SLD-0
 62
     0
100
AcDbMText
 10
19.999999553
 20
-10.6166499615
 30
0.0
 40
4.7625
 41
0.0
 71
     1
 72
     1
  1
NET WEIGHT WITH HARDWARE SHOWN APPROXIMATLY 0.78KG. [1.7 LBS].
  7
SLDTEXTSTYLE0
 73
     1
 44
1.0
  0
MTEXT
  5
7D
330
73
100
AcDbEntity
  8
SLD-0
 62
     0
100
AcDbMText
 10
0.0
 20
-10.6166499615
 30
0.0
 40
4.7625
 41
0.0
 71
     1
 72
     1
  1
1.
  7
SLDTEXTSTYLE0
 73
     1
 44
1.0
  0
MTEXT
  5
7E
330
73
100
AcDbEntity
  8
SLD-0
 62
     0
100
AcDbMText
 10
19.999999553
 20
-21.4094445989
 30
0.0
 40
4.7625
 41
0.0
 71
     1
 72
     1
  1
M3x0.5 MOUNTING HOLES FOR OPTIONAL MOUNTING TRAY ACCESSORY.
  7
SLDTEXTSTYLE0
 73
     1
 44
1.0
  0
MTEXT
  5
7F
330
73
100
AcDbEntity
  8
SLD-0
 62
     0
100
AcDbMText
 10
0.0
 20
-21.4094445989
 30
0.0
 40
4.7625
 41
0.0
 71
     1
 72
     1
  1
2
  7
SLDTEXTSTYLE0
 73
     1
 44
1.0
  0
MTEXT
  5
80
330
73
100
AcDbEntity
  8
SLD-0
 62
     0
100
AcDbMText
 10
19.999999553
 20
-34.2022395641
 30
0.0
 40
4.7625
 41
0.0
 71
     1
 72
     1
  1
PARTS ARE SYMMETRICAL ABOUT CENTER LINES UNLESS OTHERWISE NOTED.
  7
SLDTEXTSTYLE0
 73
     1
 44
1.0
  0
MTEXT
  5
81
330
73
100
AcDbEntity
  8
SLD-0
 62
     0
100
AcDbMText
 10
0.0
 20
-34.2022395641
 30
0.0
 40
4.7625
 41
0.0
 71
     1
 72
     1
  1
3.
  7
SLDTEXTSTYLE0
 73
     1
 44
1.0
  0
ENDBLK
  5
75
330
73
100
AcDbEntity
  8
0
100
AcDbBlockEnd
  0
BLOCK
  5
117
330
116
100
AcDbEntity
  8
0
100
AcDbBlockBegin
  2
_D
 70
     0
 10
0.0
 20
0.0
 30
0.0
  3
_D
  1

  0
SOLID
  5
119
330
116
100
AcDbEntity
  8
SLD-0
100
AcDbTrace
 10
432.1250477491
 20
337.3186488718
 30
0.0
 11
428.1250477491
 21
337.8186488718
 31
0.0
 12
428.1250477491
 22
336.8186488718
 32
0.0
 13
428.1250477491
 23
336.8186488718
 33
0.0
  0
SOLID
  5
11A
330
116
100
AcDbEntity
  8
SLD-0
100
AcDbTrace
 10
323.1250477491
 20
337.3186488718
 30
0.0
 11
327.1250477491
 21
336.8186488718
 31
0.0
 12
327.1250477491
 22
337.8186488718
 32
0.0
 13
327.1250477491
 23
337.8186488718
 33
0.0
  0
LINE
  5
11B
330
116
100
AcDbEntity
  8
SLD-0
100
AcDbLine
 10
432.1250477491
 20
318.8426488718
 30
0.0
 11
432.1250477491
 21
338.8426488718
 31
0.0
  0
LINE
  5
11C
330
116
100
AcDbEntity
  8
SLD-0
100
AcDbLine
 10
323.1250477491
 20
318.8426488718
 30
0.0
 11
323.1250477491
 21
338.8426488718
 31
0.0
  0
LINE
  5
11D
330
116
100
AcDbEntity
  8
SLD-0
100
AcDbLine
 10
432.1250477491
 20
337.3186488718
 30
0.0
 11
386.6785974035
 21
337.3186488718
 31
0.0
  0
LINE
  5
11E
330
116
100
AcDbEntity
  8
SLD-0
100
AcDbLine
 10
323.1250477491
 20
337.3186488718
 30
0.0
 11
370.8476950208
 21
337.3186488718
 31
0.0
  0
MTEXT
  5
11F
330
116
100
AcDbEntity
  8
SLD-0
100
AcDbMText
 10
370.8476950208
 20
339.6184569824
 30
0.0
 40
4.7625
 41
0.0
 71
     1
 72
     1
  1
109.0
  7
SLDTEXTSTYLE0
 73
     1
 44
1.0
  0
ENDBLK
  5
118
330
116
100
AcDbEntity
  8
0
100
AcDbBlockEnd
  0
BLOCK
  5
2B7
330
2B6
100
AcDbEntity
  8
0
100
AcDbBlockBegin
  2
_D_1
 70
     0
 10
0.0
 20
0.0
 30
0.0
  3
_D_1
  1

  0
SOLID
  5
2B9
330
2B6
100
AcDbEntity
  8
SLD-0
100
AcDbTrace
 10
285.7033624823
 20
317.3186488718
 30
0.0
 11
285.2033624823
 21
313.3186488718
 31
0.0
 12
286.2033624823
 22
313.3186488718
 32
0.0
 13
286.2033624823
 23
313.3186488718
 33
0.0
  0
SOLID
  5
2BA
330
2B6
100
AcDbEntity
  8
SLD-0
100
AcDbTrace
 10
285.7033624823
 20
274.9186488718
 30
0.0
 11
286.2033624823
 21
278.9186488718
 31
0.0
 12
285.2033624823
 22
278.9186488718
 32
0.0
 13
285.2033624823
 23
278.9186488718
 33
0.0
  0
LINE
  5
2BB
330
2B6
100
AcDbEntity
  8
SLD-0
100
AcDbLine
 10
267.2273624823
 20
317.3186488718
 30
0.0
 11
287.2273624823
 21
317.3186488718
 31
0.0
  0
LINE
  5
2BC
330
2B6
100
AcDbEntity
  8
SLD-0
100
AcDbLine
 10
267.2273624823
 20
274.9186488718
 30
0.0
 11
287.2273624823
 21
274.9186488718
 31
0.0
  0
LINE
  5
2BD
330
2B6
100
AcDbEntity
  8
SLD-0
100
AcDbLine
 10
285.7033624823
 20
317.3186488718
 30
0.0
 11
285.7033624823
 21
298.60179495
 31
0.0
  0
LINE
  5
2BE
330
2B6
100
AcDbEntity
  8
SLD-0
100
AcDbLine
 10
285.7033624823
 20
274.9186488718
 30
0.0
 11
285.7033624823
 21
291.0347114869
 31
0.0
  0
MTEXT
  5
2BF
330
2B6
100
AcDbEntity
  8
SLD-0
100
AcDbMText
 10
279.5473901132
 20
297.1180613291
 30
0.0
 40
4.7625
 41
0.0
 71
     1
 72
     1
  1
42.4
  7
SLDTEXTSTYLE0
 73
     1
 44
1.0
  0
ENDBLK
  5
2B8
330
2B6
100
AcDbEntity
  8
0
100
AcDbBlockEnd
  0
BLOCK
  5
2CF
330
2CE
100
AcDbEntity
  8
0
100
AcDbBlockBegin
  2
_D_2
 70
     0
 10
0.0
 20
0.0
 30
0.0
  3
_D_2
  1

  0
SOLID
  5
2D1
330
2CE
100
AcDbEntity
  8
SLD-0
100
AcDbTrace
 10
265.7033624823
 20
234.7974207953
 30
0.0
 11
261.7033624823
 21
235.2974207953
 31
0.0
 12
261.7033624823
 22
234.2974207953
 32
0.0
 13
261.7033624823
 23
234.2974207953
 33
0.0
  0
SOLID
  5
2D2
330
2CE
100
AcDbEntity
  8
SLD-0
100
AcDbTrace
 10
49.8033624823
 20
234.7974207953
 30
0.0
 11
53.8033624823
 21
234.2974207953
 31
0.0
 12
53.8033624823
 22
235.2974207953
 32
0.0
 13
53.8033624823
 23
235.2974207953
 33
0.0
  0
LINE
  5
2D3
330
2CE
100
AcDbEntity
  8
SLD-0
100
AcDbLine
 10
265.7033624823
 20
204.3214207953
 30
0.0
 11
265.7033624823
 21
236.3214207953
 31
0.0
  0
LINE
  5
2D4
330
2CE
100
AcDbEntity
  8
SLD-0
100
AcDbLine
 10
49.8033624823
 20
204.3214207953
 30
0.0
 11
49.8033624823
 21
236.3214207953
 31
0.0
  0
LINE
  5
2D5
330
2CE
100
AcDbEntity
  8
SLD-0
100
AcDbLine
 10
265.7033624823
 20
234.7974207953
 30
0.0
 11
168.8601134504
 21
234.7974207953
 31
0.0
  0
LINE
  5
2D6
330
2CE
100
AcDbEntity
  8
SLD-0
100
AcDbLine
 10
49.8033624823
 20
234.7974207953
 30
0.0
 11
153.0292110676
 21
234.7974207953
 31
0.0
  0
MTEXT
  5
2D7
330
2CE
100
AcDbEntity
  8
SLD-0
100
AcDbMText
 10
153.0292110676
 20
237.0972289059
 30
0.0
 40
4.7625
 41
0.0
 71
     1
 72
     1
  1
215.9
  7
SLDTEXTSTYLE0
 73
     1
 44
1.0
  0
ENDBLK
  5
2D0
330
2CE
100
AcDbEntity
  8
0
100
AcDbBlockEnd
  0
BLOCK
  5
2DA
330
2D9
100
AcDbEntity
  8
0
100
AcDbBlockBegin
  2
_D_3
 70
     0
 10
0.0
 20
0.0
 30
0.0
  3
_D_3
  1

  0
SOLID
  5
2DC
330
2D9
100
AcDbEntity
  8
SLD-0
100
AcDbTrace
 10
285.7033624823
 20
193.2974207953
 30
0.0
 11
285.2033624823
 21
189.2974207953
 31
0.0
 12
286.2033624823
 22
189.2974207953
 32
0.0
 13
286.2033624823
 23
189.2974207953
 33
0.0
  0
SOLID
  5
2DD
330
2D9
100
AcDbEntity
  8
SLD-0
100
AcDbTrace
 10
285.7033624823
 20
103.2974207953
 30
0.0
 11
286.2033624823
 21
107.2974207953
 31
0.0
 12
285.2033624823
 22
107.2974207953
 32
0.0
 13
285.2033624823
 23
107.2974207953
 33
0.0
  0
LINE
  5
2DE
330
2D9
100
AcDbEntity
  8
SLD-0
100
AcDbLine
 10
261.2273624823
 20
193.2974207953
 30
0.0
 11
287.2273624823
 21
193.2974207953
 31
0.0
  0
LINE
  5
2DF
330
2D9
100
AcDbEntity
  8
SLD-0
100
AcDbLine
 10
261.2273624823
 20
103.2974207953
 30
0.0
 11
287.2273624823
 21
103.2974207953
 31
0.0
  0
LINE
  5
2E0
330
2D9
100
AcDbEntity
  8
SLD-0
100
AcDbLine
 10
285.7033624823
 20
193.2974207953
 30
0.0
 11
285.7033624823
 21
150.6405526889
 31
0.0
  0
LINE
  5
2E1
330
2D9
100
AcDbEntity
  8
SLD-0
100
AcDbLine
 10
285.7033624823
 20
103.2974207953
 30
0.0
 11
285.7033624823
 21
143.0734692259
 31
0.0
  0
MTEXT
  5
2E2
330
2D9
100
AcDbEntity
  8
SLD-0
100
AcDbMText
 10
279.5473901132
 20
149.1568190681
 30
0.0
 40
4.7625
 41
0.0
 71
     1
 72
     1
  1
90.0
  7
SLDTEXTSTYLE0
 73
     1
 44
1.0
  0
ENDBLK
  5
2DB
330
2D9
100
AcDbEntity
  8
0
100
AcDbBlockEnd
  0
BLOCK
  5
2E6
330
2E5
100
AcDbEntity
  8
0
100
AcDbBlockBegin
  2
_D_4
 70
     0
 10
0.0
 20
0.0
 30
0.0
  3
_D_4
  1

  0
SOLID
  5
2E8
330
2E5
100
AcDbEntity
  8
SLD-0
100
AcDbTrace
 10
265.7033624823
 20
222.7974207953
 30
0.0
 11
269.7033624823
 21
222.2974207953
 31
0.0
 12
269.7033624823
 22
223.2974207953
 32
0.0
 13
269.7033624823
 23
223.2974207953
 33
0.0
  0
SOLID
  5
2E9
330
2E5
100
AcDbEntity
  8
SLD-0
100
AcDbTrace
 10
257.7033624823
 20
222.7974207953
 30
0.0
 11
253.7033624823
 21
223.2974207953
 31
0.0
 12
253.7033624823
 22
222.2974207953
 32
0.0
 13
253.7033624823
 23
222.2974207953
 33
0.0
  0
LINE
  5
2EA
330
2E5
100
AcDbEntity
  8
SLD-0
100
AcDbLine
 10
265.7033624823
 20
204.3214207953
 30
0.0
 11
265.7033624823
 21
224.3214207953
 31
0.0
  0
LINE
  5
2EB
330
2E5
100
AcDbEntity
  8
SLD-0
100
AcDbLine
 10
257.7033624823
 20
196.8214207953
 30
0.0
 11
257.7033624823
 21
224.3214207953
 31
0.0
  0
LINE
  5
2EC
330
2E5
100
AcDbEntity
  8
SLD-0
100
AcDbLine
 10
265.7033624823
 20
222.7974207953
 30
0.0
 11
273.7033624823
 21
222.7974207953
 31
0.0
  0
LINE
  5
2ED
330
2E5
100
AcDbEntity
  8
SLD-0
100
AcDbLine
 10
257.7033624823
 20
222.7974207953
 30
0.0
 11
246.9590095075
 21
222.7974207953
 31
0.0
  0
MTEXT
  5
2EE
330
2E5
100
AcDbEntity
  8
SLD-0
100
AcDbMText
 10
238.1660233455
 20
225.0972289059
 30
0.0
 40
4.7625
 41
0.0
 71
     1
 72
     1
  1
8.0
  7
SLDTEXTSTYLE0
 73
     1
 44
1.0
  0
ENDBLK
  5
2E7
330
2E5
100
AcDbEntity
  8
0
100
AcDbBlockEnd
  0
BLOCK
  5
2F0
330
2EF
100
AcDbEntity
  8
0
100
AcDbBlockBegin
  2
SW_SYMBOL_MOD_CL
 70
     0
 10
0.0
 20
0.0
 30
0.0
  3
SW_SYMBOL_MOD_CL
  1

  0
MTEXT
  5
2F2
330
2EF
100
AcDbEntity
  8
SLD-0
 62
     0
100
AcDbMText
 10
800.0
 20
1200.0
 30
0.0
 40
1565.749235474
 41
0.0
 71
     5
 72
     1
  1
C
  7
SLDTEXTSTYLE0
 73
     1
 44
1.0
  0
MTEXT
  5
2F3
330
2EF
100
AcDbEntity
  8
SLD-0
 62
     0
100
AcDbMText
 10
1200.0
 20
600.0
 30
0.0
 40
1565.749235474
 41
0.0
 71
     5
 72
     1
  1
L
  7
SLDTEXTSTYLE0
 73
     1
 44
1.0
  0
ENDBLK
  5
2F1
330
2EF
100
AcDbEntity
  8
0
100
AcDbBlockEnd
  0
BLOCK
  5
2F6
330
2F5
100
AcDbEntity
  8
0
100
AcDbBlockBegin
  2
SW_NOTE_0_1
 70
     0
 10
0.0
 20
0.0
 30
0.0
  3
SW_NOTE_0_1
  1

  0
LINE
  5
2F8
330
2F5
100
AcDbEntity
  8
SLD-0
 62
     0
100
AcDbLine
 10
0.0
 20
-6.0730217391
 30
0.0
 11
0.0
 21
5.6661086957
 31
0.0
  0
LINE
  5
2F9
330
2F5
100
AcDbEntity
  8
SLD-0
 62
     0
100
AcDbLine
 10
0.0
 20
5.6661086957
 30
0.0
 11
11.7391304348
 21
5.6661086957
 31
0.0
  0
LINE
  5
2FA
330
2F5
100
AcDbEntity
  8
SLD-0
 62
     0
100
AcDbLine
 10
11.7391304348
 20
5.6661086957
 30
0.0
 11
11.7391304348
 21
-6.0730217391
 31
0.0
  0
LINE
  5
2FB
330
2F5
100
AcDbEntity
  8
SLD-0
 62
     0
100
AcDbLine
 10
11.7391304348
 20
-6.0730217391
 30
0.0
 11
0.0
 21
-6.0730217391
 31
0.0
  0
MTEXT
  5
2FC
330
2F5
100
AcDbEntity
  8
SLD-0
 62
     0
100
AcDbMText
 10
5.8216094833
 20
2.1246538011
 30
0.0
 40
4.7625
 41
0.0
 71
     2
 72
     1
  1
2
  7
SLDTEXTSTYLE0
 73
     1
 44
1.0
  0
ENDBLK
  5
2F7
330
2F5
100
AcDbEntity
  8
0
100
AcDbBlockEnd
  0
BLOCK
  5
300
330
2FF
100
AcDbEntity
  8
0
100
AcDbBlockBegin
  2
SW_CENTERMARKSYMBOL_0
 70
     0
 10
0.0
 20
0.0
 30
0.0
  3
SW_CENTERMARKSYMBOL_0
  1

  0
LINE
  5
302
330
2FF
100
AcDbEntity
  8
SLD-0
 62
     0
100
AcDbLine
 10
0.0
 20
0.0
 30
0.0
 11
0.0
 21
2.0
 31
0.0
  0
LINE
  5
303
330
2FF
100
AcDbEntity
  8
SLD-0
 62
     0
100
AcDbLine
 10
0.0
 20
0.0
 30
0.0
 11
-2.0
 21
0.0
 31
0.0
  0
LINE
  5
304
330
2FF
100
AcDbEntity
  8
SLD-0
 62
     0
100
AcDbLine
 10
0.0
 20
0.0
 30
0.0
 11
0.0
 21
-2.0
 31
0.0
  0
LINE
  5
305
330
2FF
100
AcDbEntity
  8
SLD-0
 62
     0
100
AcDbLine
 10
0.0
 20
0.0
 30
0.0
 11
2.0
 21
0.0
 31
0.0
  0
ENDBLK
  5
301
330
2FF
100
AcDbEntity
  8
0
100
AcDbBlockEnd
  0
BLOCK
  5
308
330
307
100
AcDbEntity
  8
0
100
AcDbBlockBegin
  2
SW_CENTERMARKSYMBOL_1
 70
     0
 10
0.0
 20
0.0
 30
0.0
  3
SW_CENTERMARKSYMBOL_1
  1

  0
LINE
  5
30A
330
307
100
AcDbEntity
  8
SLD-0
 62
     0
100
AcDbLine
 10
0.0
 20
0.0
 30
0.0
 11
0.0
 21
2.0
 31
0.0
  0
LINE
  5
30B
330
307
100
AcDbEntity
  8
SLD-0
 62
     0
100
AcDbLine
 10
0.0
 20
0.0
 30
0.0
 11
-2.0
 21
0.0
 31
0.0
  0
LINE
  5
30C
330
307
100
AcDbEntity
  8
SLD-0
 62
     0
100
AcDbLine
 10
0.0
 20
0.0
 30
0.0
 11
0.0
 21
-2.0
 31
0.0
  0
LINE
  5
30D
330
307
100
AcDbEntity
  8
SLD-0
 62
     0
100
AcDbLine
 10
0.0
 20
0.0
 30
0.0
 11
2.0
 21
0.0
 31
0.0
  0
ENDBLK
  5
309
330
307
100
AcDbEntity
  8
0
100
AcDbBlockEnd
  0
ENDSEC
  0
SECTION
  2
ENTITIES
  0
LINE
  5
68
330
1F
100
AcDbEntity
  8
SLD-0
 62
     7
100
AcDbLine
 10
13.0
 20
545.8
 30
0.0
 11
850.6
 21
545.8
 31
0.0
  0
LINE
  5
69
330
1F
100
AcDbEntity
  8
0
  6
Continuous
 62
     7
370
    18
100
AcDbLine
 10
13.0
 20
36.0
 30
0.0
 11
850.6
 21
36.0
 31
0.0
  0
LINE
  5
6A
330
1F
100
AcDbEntity
  8
0
  6
CENTER
 62
     7
370
    18
100
AcDbLine
 10
366.9102516261
 20
17.8535393558
 30
0.0
 11
376.2532816249
 21
17.8535393558
 31
0.0
  0
LINE
  5
6B
330
1F
100
AcDbEntity
  8
0
  6
Continuous
 62
     7
370
    18
100
AcDbLine
 10
367.8560246098
 20
16.5835393558
 30
0.0
 11
375.4760246098
 21
15.3135393558
 31
0.0
  0
LINE
  5
6C
330
1F
100
AcDbEntity
  8
0
  6
Continuous
 62
     7
370
    18
100
AcDbLine
 10
367.8560246098
 20
19.1235393558
 30
0.0
 11
375.4760246098
 21
20.3935393558
 31
0.0
  0
LINE
  5
6D
330
1F
100
AcDbEntity
  8
0
  6
CENTER
 62
     7
370
    18
100
AcDbLine
 10
359.4841846098
 20
17.8535393558
 30
0.0
 11
366.0088790379
 21
17.8535393558
 31
0.0
  0
LINE
  5
6E
330
1F
100
AcDbEntity
  8
0
  6
CENTER
 62
     7
370
    18
100
AcDbLine
 10
362.7465318239
 20
14.5577954402
 30
0.0
 11
362.7465318239
 21
21.1492832714
 31
0.0
  0
LINE
  5
6F
330
1F
100
AcDbEntity
  8
0
  6
Continuous
 62
     7
370
    18
100
AcDbLine
 10
367.8560246098
 20
19.1235393558
 30
0.0
 11
367.8560246098
 21
16.5835393558
 31
0.0
  0
LINE
  5
70
330
1F
100
AcDbEntity
  8
0
  6
Continuous
 62
     7
370
    18
100
AcDbLine
 10
375.4760246098
 20
20.3935393558
 30
0.0
 11
375.4760246098
 21
15.3135393558
 31
0.0
  0
CIRCLE
  5
71
330
1F
100
AcDbEntity
  8
0
  6
Continuous
 62
     7
370
    18
100
AcDbCircle
 10
362.7465318239
 20
17.8535393558
 30
0.0
 40
2.539999999999801
  0
CIRCLE
  5
72
330
1F
100
AcDbEntity
  8
0
  6
Continuous
 62
     7
370
    18
100
AcDbCircle
 10
362.7465318239
 20
17.8535393558
 30
0.0
 40
1.269999999999877
  0
INSERT
  5
82
330
1F
100
AcDbEntity
  8
SLD-0
 62
     7
100
AcDbBlockReference
  2
SW_NOTE_0
 10
12.7077094556
 20
531.4858637211
 30
0.0
  0
MTEXT
  5
83
330
1F
100
AcDbEntity
  8
0
  6
Continuous
 62
     7
370
     0
100
AcDbMText
 10
295.5043019013
 20
28.9819567757
 30
0.0
 40
3.7041666667
 41
0.0
 71
     2
 72
     1
  1
00PW4
  7
SLDTEXTSTYLE0
 73
     1
 44
1.0
  0
MTEXT
  5
84
330
1F
100
AcDbEntity
  8
0
  6
Continuous
 62
     7
370
     0
100
AcDbMText
 10
453.4011705876
 20
17.7884262976
 30
0.0
 40
3.7041666667
 41
0.0
 71
     1
 72
     1
  1
D. GREEN
  7
SLDTEXTSTYLE0
 73
     1
 44
1.0
  0
MTEXT
  5
85
330
1F
100
AcDbEntity
  8
0
  6
Continuous
 62
     7
370
     0
100
AcDbMText
 10
323.1288533613
 20
33.0777444155
 30
0.0
 40
3.175
 41
0.0
 71
     1
 72
     1
  1
UNLESS  OTHERWISE  SPECIFIED
  7
SLDTEXTSTYLE0
 73
     1
 44
1.0
  0
MTEXT
  5
86
330
1F
100
AcDbEntity
  8
0
  6
Continuous
 62
     7
370
     0
100
AcDbMText
 10
323.1288533613
 20
28.8444111333
 30
0.0
 40
3.175
 41
0.0
 71
     1
 72
     1
  1
DIMENSIONS  ARE  IN  MM [IN]
  7
SLDTEXTSTYLE0
 73
     1
 44
1.0
  0
MTEXT
  5
87
330
1F
100
AcDbEntity
  8
0
  6
Continuous
 62
     7
370
     0
100
AcDbMText
 10
785.8795289483
 20
17.9849245354
 30
0.0
 40
3.7041666667
 41
0.0
 71
     2
 72
     1
  1
1:2
  7
SLDTEXTSTYLE0
 73
     1
 44
1.0
  0
MTEXT
  5
88
330
1F
100
AcDbEntity
  8
0
  6
Continuous
 62
     7
370
     0
100
AcDbMText
 10
327.9605285881
 20
19.6918719363
 30
0.0
 40
3.175
 41
0.0
 71
     1
 72
     1
  1
PROJECTION
  7
SLDTEXTSTYLE0
 73
     1
 44
1.0
  0
MTEXT
  5
89
330
1F
100
AcDbEntity
  8
0
  6
Continuous
 62
     7
370
     0
100
AcDbMText
 10
425.5151766137
 20
21.8087727956
 30
0.0
 40
3.175
 41
0.0
 71
     1
 72
     1
  1
%%p
  7
SLDTEXTSTYLE0
 73
     1
 44
1.0
  0
MTEXT
  5
8A
330
1F
100
AcDbEntity
  8
0
  6
Continuous
 62
     7
370
     0
100
AcDbMText
 10
428.5420099058
 20
21.8087727956
 30
0.0
 40
3.175
 41
0.0
 71
     1
 72
     1
  1
1
  7
SLDTEXTSTYLE0
 73
     1
 44
1.0
  0
MTEXT
  5
8B
330
1F
100
AcDbEntity
  8
0
  6
Continuous
 62
     7
370
     0
100
AcDbMText
 10
430.8879821346
 20
21.8087727956
 30
0.0
 40
3.175
 41
0.0
 71
     1
 72
     1
  1
%%d
  7
SLDTEXTSTYLE0
 73
     1
 44
1.0
  0
MTEXT
  5
8C
330
1F
100
AcDbEntity
  8
0
  6
Continuous
 62
     7
370
     0
100
AcDbMText
 10
394.0737550472
 20
21.8087727956
 30
0.0
 40
3.175
 41
0.0
 71
     1
 72
     1
  1
.X 
  7
SLDTEXTSTYLE0
 73
     1
 44
1.0
  0
MTEXT
  5
8D
330
1F
100
AcDbEntity
  8
0
  6
Continuous
 62
     7
370
     0
100
AcDbMText
 10
398.9891256531
 20
21.8087727956
 30
0.0
 40
3.175
 41
0.0
 71
     1
 72
     1
  1
%%p
  7
SLDTEXTSTYLE0
 73
     1
 44
1.0
  0
MTEXT
  5
8E
330
1F
100
AcDbEntity
  8
0
  6
Continuous
 62
     7
370
     0
100
AcDbMText
 10
402.0159584795
 20
21.8087727956
 30
0.0
 40
3.175
 41
0.0
 71
     1
 72
     1
  1
 3.0
  7
SLDTEXTSTYLE0
 73
     1
 44
1.0
  0
MTEXT
  5
8F
330
1F
100
AcDbEntity
  8
0
  6
Continuous
 62
     7
370
     0
100
AcDbMText
 10
394.0737550472
 20
17.5754395134
 30
0.0
 40
3.175
 41
0.0
 71
     1
 72
     1
  1
.XX 
  7
SLDTEXTSTYLE0
 73
     1
 44
1.0
  0
MTEXT
  5
90
330
1F
100
AcDbEntity
  8
0
  6
Continuous
 62
     7
370
     0
100
AcDbMText
 10
401.5644030039
 20
17.5754395134
 30
0.0
 40
3.175
 41
0.0
 71
     1
 72
     1
  1
%%p
  7
SLDTEXTSTYLE0
 73
     1
 44
1.0
  0
MTEXT
  5
91
330
1F
100
AcDbEntity
  8
0
  6
Continuous
 62
     7
370
     0
100
AcDbMText
 10
682.7081205355
 20
27.0356960513
 30
0.0
 40
6.35
 41
0.0
 71
     2
 72
     1
  1
PROCESSOR,QIO-TEL2,T003
  7
SLDTEXTSTYLE0
 73
     1
 44
1.0
  0
MTEXT
  5
92
330
1F
100
AcDbEntity
  8
0
  6
Continuous
 62
     7
370
     0
100
AcDbMText
 10
394.1291861843
 20
33.0777444155
 30
0.0
 40
3.175
 41
0.0
 71
     1
 72
     1
  1
TOLERANCES  ARE:
  7
SLDTEXTSTYLE0
 73
     1
 44
1.0
  0
MTEXT
  5
93
330
1F
100
AcDbEntity
  8
0
  6
Continuous
 62
     7
370
     0
100
AcDbMText
 10
394.1291861843
 20
28.8444111333
 30
0.0
 40
3.175
 41
0.0
 71
     1
 72
     1
  1
DECIMALS          ANGLES
  7
SLDTEXTSTYLE0
 73
     1
 44
1.0
  0
MTEXT
  5
94
330
1F
100
AcDbEntity
  8
0
  6
Continuous
 62
     7
370
     0
100
AcDbMText
 10
507.2368872533
 20
21.8062403245
 30
0.0
 40
2.6458333333
 41
0.0
 71
     1
 72
     1
  1
MFG ENGINEER
  7
SLDTEXTSTYLE0
 73
     1
 44
1.0
  0
MTEXT
  5
95
330
1F
100
AcDbEntity
  8
0
  6
Continuous
 62
     7
370
     0
100
AcDbMText
 10
453.4011705876
 20
21.8062403245
 30
0.0
 40
2.6458333333
 41
0.0
 71
     1
 72
     1
  1
MECH ENGINEER
  7
SLDTEXTSTYLE0
 73
     1
 44
1.0
  0
MTEXT
  5
97
330
1F
100
AcDbEntity
  8
0
  6
Continuous
 62
     7
370
     0
100
AcDbMText
 10
770.9809949308
 20
17.5597523616
 30
0.0
 40
2.6458333333
 41
0.0
 71
     1
 72
     1
  1
SCALE:  
  7
SLDTEXTSTYLE1
 73
     1
 44
1.0
  0
MTEXT
  5
98
330
1F
100
AcDbEntity
  8
SLD-0
 62
     7
100
AcDbMText
 10
770.8270341986
 20
27.7753595768
 30
0.0
 40
6.35
 41
0.0
 71
     1
 72
     1
  1
FG-901559-2D
  7
SLDTEXTSTYLE0
 73
     1
 44
1.0
  0
MTEXT
  5
99
330
1F
100
AcDbEntity
  8
0
  6
Continuous
 62
     7
370
     0
100
AcDbMText
 10
843.7692246236
 20
27.8523399428
 30
0.0
 40
6.35
 41
0.0
 71
     2
 72
     1
  1
A
  7
SLDTEXTSTYLE0
 73
     1
 44
1.0
  0
MTEXT
  5
9A
330
1F
100
AcDbEntity
  8
0
  6
Continuous
 62
     7
370
     0
100
AcDbMText
 10
841.5970786686
 20
17.9849245354
 30
0.0
 40
3.7041666667
 41
0.0
 71
     2
 72
     1
  1
1  OF  2
  7
SLDTEXTSTYLE0
 73
     1
 44
1.0
  0
MTEXT
  5
9B
330
1F
100
AcDbEntity
  8
0
  6
Continuous
 62
     7
370
     0
100
AcDbMText
 10
770.9809949308
 20
32.8518608785
 30
0.0
 40
2.6458333333
 41
0.0
 71
     1
 72
     1
  1
DRAWING NUMBER
  7
SLDTEXTSTYLE0
 73
     1
 44
1.0
  0
MTEXT
  5
9C
330
1F
100
AcDbEntity
  8
SLD-0
 62
     7
100
AcDbMText
 10
507.2368872533
 20
32.8184112811
 30
0.0
 40
2.6458333333
 41
0.0
 71
     1
 72
     1
  1
TECH DIRECTOR
  7
SLDTEXTSTYLE0
 73
     1
 44
1.0
  0
MTEXT
  5
9D
330
1F
100
AcDbEntity
  8
SLD-0
 62
     7
100
AcDbMText
 10
453.4011705876
 20
32.8184112811
 30
0.0
 40
2.6458333333
 41
0.0
 71
     1
 72
     1
  1
DRAWN BY
  7
SLDTEXTSTYLE0
 73
     1
 44
1.0
  0
MTEXT
  5
9E
330
1F
100
AcDbEntity
  8
SLD-0
 62
     7
100
AcDbMText
 10
453.4011705876
 20
29.0353427065
 30
0.0
 40
3.7041666667
 41
0.0
 71
     1
 72
     1
  1
D. GREEN
  7
SLDTEXTSTYLE0
 73
     1
 44
1.0
  0
MTEXT
  5
9F
330
1F
100
AcDbEntity
  8
SLD-0
 62
     7
100
AcDbMText
 10
507.2368872533
 20
17.7884262976
 30
0.0
 40
3.7041666667
 41
0.0
 71
     1
 72
     1
  1
C. WHITNEY
  7
SLDTEXTSTYLE0
 73
     1
 44
1.0
  0
MTEXT
  5
A0
330
1F
100
AcDbEntity
  8
SLD-0
 62
     7
100
AcDbMText
 10
507.2368872533
 20
29.0353427065
 30
0.0
 40
3.7041666667
 41
0.0
 71
     1
 72
     1
  1
A. FOSTER
  7
SLDTEXTSTYLE0
 73
     1
 44
1.0
  0
MTEXT
  5
A2
330
1F
100
AcDbEntity
  8
0
  6
Continuous
 62
     7
370
     0
100
AcDbMText
 10
219.2539871701
 20
29.8937459607
 30
0.0
 40
2.1166666667
 41
0.0
 71
     2
 72
     1
  1
THIS DOCUMENT CONTAINS CONFIDENTIAL OR PROPRIETARY INFORMATION WHICH 
  7
SLDTEXTSTYLE2
 73
     1
 44
1.0
  0
MTEXT
  5
A3
330
1F
100
AcDbEntity
  8
0
  6
Continuous
 62
     7
370
     0
100
AcDbMText
 10
219.4368646347
 20
27.0715237726
 30
0.0
 40
2.1166666667
 41
0.0
 71
     2
 72
     1
  1
IS THE PROPERTY OF QSC, LLC THAT MAY NOT BE DISCLOSED, REPRODUCED OR 
  7
SLDTEXTSTYLE2
 73
     1
 44
1.0
  0
MTEXT
  5
A4
330
1F
100
AcDbEntity
  8
0
  6
Continuous
 62
     7
370
     0
100
AcDbMText
 10
219.3957803042
 20
24.2493015845
 30
0.0
 40
2.1166666667
 41
0.0
 71
     2
 72
     1
  1
USED WITHOUT EXPRESS WRITTEN CONSENT FROM QSC, LLC. NO PORTION OF THIS 
  7
SLDTEXTSTYLE2
 73
     1
 44
1.0
  0
MTEXT
  5
A5
330
1F
100
AcDbEntity
  8
0
  6
Continuous
 62
     7
370
     0
100
AcDbMText
 10
219.325223306
 20
21.4270793964
 30
0.0
 40
2.1166666667
 41
0.0
 71
     2
 72
     1
  1
DOCUMENT MAY BE REPRODUCED, REDISTRIBUTED, OR OTHERWISE DISCLOSED TO 
  7
SLDTEXTSTYLE2
 73
     1
 44
1.0
  0
MTEXT
  5
A7
330
1F
100
AcDbEntity
  8
0
  6
Continuous
 62
     7
370
     0
100
AcDbMText
 10
218.97644348
 20
18.6048572082
 30
0.0
 40
2.1166666667
 41
0.0
 71
     2
 72
     1
  1
ANY THIRD PARTY WITHOUT QSC\U+2019S WRITTEN PERMISSION.
  7
SLDTEXTSTYLE3
 73
     1
 44
1.0
  0
MTEXT
  5
A8
330
1F
100
AcDbEntity
  8
0
  6
Continuous
 62
     7
370
     0
100
AcDbMText
 10
820.2888488759
 20
17.4944348222
 30
0.0
 40
2.6458333333
 41
0.0
 71
     1
 72
     1
  1
SHEET:
  7
SLDTEXTSTYLE0
 73
     1
 44
1.0
  0
MTEXT
  5
A9
330
1F
100
AcDbEntity
  8
SLD-0
100
AcDbMText
 10
97.8307203839
 20
30.5931483324
 30
0.0
 40
4.2333333333
 41
0.0
 71
     1
 72
     1
  1
QSC, LLC
  7
SLDTEXTSTYLE0
 73
     1
 44
1.0
  0
MTEXT
  5
AA
330
1F
100
AcDbEntity
  8
0
  6
Continuous
 62
     7
370
     0
100
AcDbMText
 10
844.0018372523
 20
32.9050913038
 30
0.0
 40
2.6458333333
 41
0.0
 71
     2
 72
     1
  1
REV
  7
SLDTEXTSTYLE0
 73
     1
 44
1.0
  0
MTEXT
  5
AB
330
1F
100
AcDbEntity
  8
SLD-0
 62
     7
100
AcDbMText
 10
560.546153547
 20
32.8184112811
 30
0.0
 40
2.6458333333
 41
0.0
 71
     1
 72
     1
  1
REV BY
  7
SLDTEXTSTYLE0
 73
     1
 44
1.0
  0
MTEXT
  5
AC
330
1F
100
AcDbEntity
  8
SLD-0
 62
     7
100
AcDbMText
 10
560.546153547
 20
29.0353427065
 30
0.0
 40
3.7041666667
 41
0.0
 71
     1
 72
     1
  1
D. GREEN
  7
SLDTEXTSTYLE0
 73
     1
 44
1.0
  0
MTEXT
  5
AD
330
1F
100
AcDbEntity
  8
SLD-0
 62
     7
100
AcDbMText
 10
560.546153547
 20
17.7884262976
 30
0.0
 40
3.7041666667
 41
0.0
 71
     1
 72
     1
  1
31-AUG-2023
  7
SLDTEXTSTYLE0
 73
     1
 44
1.0
  0
MTEXT
  5
AE
330
1F
100
AcDbEntity
  8
0
  6
Continuous
 62
     7
370
     0
100
AcDbMText
 10
560.546153547
 20
21.8062403245
 30
0.0
 40
2.6458333333
 41
0.0
 71
     1
 72
     1
  1
REV DATE
  7
SLDTEXTSTYLE0
 73
     1
 44
1.0
  0
MTEXT
  5
AF
330
1F
100
AcDbEntity
  8
SLD-0
100
AcDbMText
 10
295.5471677433
 20
22.2629071355
 30
0.0
 40
2.6458333333
 41
0.0
 71
     2
 72
     1
  1
FORM
  7
SLDTEXTSTYLE0
 73
     1
 44
1.0
  0
MTEXT
  5
B0
330
1F
100
AcDbEntity
  8
0
  6
Continuous
 62
     7
370
     0
100
AcDbMText
 10
295.9613660503
 20
18.2808667991
 30
0.0
 40
3.7041666667
 41
0.0
 71
     2
 72
     1
  1
QOS40169 B
  7
SLDTEXTSTYLE0
 73
     1
 44
1.0
  0
MTEXT
  5
B1
330
1F
100
AcDbEntity
  8
SLD-0
100
AcDbMText
 10
98.4427247375
 20
18.4600960709
 30
0.0
 40
3.175
 41
0.0
 71
     1
 72
     1
  1
COSTA MESA, CA 92626 USA
  7
SLDTEXTSTYLE0
 73
     1
 44
1.0
  0
MTEXT
  5
B2
330
1F
100
AcDbEntity
  8
SLD-0
100
AcDbMText
 10
98.2987012991
 20
23.8772967061
 30
0.0
 40
3.175
 41
0.0
 71
     1
 72
     1
  1
1675 MACARTHUR BLVD
  7
SLDTEXTSTYLE0
 73
     1
 44
1.0
  0
MTEXT
  5
B3
330
1F
100
AcDbEntity
  8
SLD-0
 62
     7
100
AcDbMText
 10
295.6823598987
 20
33.1439750107
 30
0.0
 40
2.6458333333
 41
0.0
 71
     2
 72
     1
  1
CAGE CODE
  7
SLDTEXTSTYLE0
 73
     1
 44
1.0
  0
LINE
  5
B4
330
1F
100
AcDbEntity
  8
0
  6
Continuous
 62
     7
370
    25
100
AcDbLine
 10
330.0767514578
 20
307.9669451631
 30
0.0
 11
330.0767514578
 21
296.8703525804
 31
0.0
  0
CIRCLE
  5
B5
330
1F
100
AcDbEntity
  8
0
  6
Continuous
 62
     7
370
    25
100
AcDbCircle
 10
330.3750477491
 20
288.9186488718
 30
0.0
 40
1.650000000000091
  0
CIRCLE
  5
B6
330
1F
100
AcDbEntity
  8
0
  6
Continuous
 62
     7
370
    25
100
AcDbCircle
 10
334.8750477491
 20
288.9186488718
 30
0.0
 40
1.649999999999977
  0
CIRCLE
  5
B7
330
1F
100
AcDbEntity
  8
0
  6
Continuous
 62
     7
370
    25
100
AcDbCircle
 10
339.3750477491
 20
288.9186488718
 30
0.0
 40
1.649999999999977
  0
CIRCLE
  5
B8
330
1F
100
AcDbEntity
  8
0
  6
Continuous
 62
     7
370
    25
100
AcDbCircle
 10
343.8750477491
 20
288.9186488718
 30
0.0
 40
1.649999999999977
  0
CIRCLE
  5
B9
330
1F
100
AcDbEntity
  8
0
  6
Continuous
 62
     7
370
    25
100
AcDbCircle
 10
348.3750477491
 20
288.9186488718
 30
0.0
 40
1.649999999999977
  0
CIRCLE
  5
BA
330
1F
100
AcDbEntity
  8
0
  6
Continuous
 62
     7
370
    25
100
AcDbCircle
 10
352.8750477491
 20
288.9186488718
 30
0.0
 40
1.649999999999977
  0
CIRCLE
  5
BB
330
1F
100
AcDbEntity
  8
0
  6
Continuous
 62
     7
370
    25
100
AcDbCircle
 10
357.3750477491
 20
288.9186488718
 30
0.0
 40
1.649999999999977
  0
CIRCLE
  5
BC
330
1F
100
AcDbEntity
  8
0
  6
Continuous
 62
     7
370
    25
100
AcDbCircle
 10
361.8750477491
 20
288.9186488718
 30
0.0
 40
1.649999999999977
  0
CIRCLE
  5
BD
330
1F
100
AcDbEntity
  8
0
  6
Continuous
 62
     7
370
    25
100
AcDbCircle
 10
366.3750477491
 20
288.9186488718
 30
0.0
 40
1.649999999999977
  0
CIRCLE
  5
BE
330
1F
100
AcDbEntity
  8
0
  6
Continuous
 62
     7
370
    25
100
AcDbCircle
 10
370.8750477491
 20
288.9186488718
 30
0.0
 40
1.650000000000034
  0
CIRCLE
  5
BF
330
1F
100
AcDbEntity
  8
0
  6
Continuous
 62
     7
370
    25
100
AcDbCircle
 10
375.3750477491
 20
288.9186488718
 30
0.0
 40
1.650000000000034
  0
CIRCLE
  5
C0
330
1F
100
AcDbEntity
  8
0
  6
Continuous
 62
     7
370
    25
100
AcDbCircle
 10
379.8750477491
 20
288.9186488718
 30
0.0
 40
1.650000000000034
  0
CIRCLE
  5
C1
330
1F
100
AcDbEntity
  8
0
  6
Continuous
 62
     7
370
    25
100
AcDbCircle
 10
384.3750477491
 20
288.9186488718
 30
0.0
 40
1.649999999999977
  0
CIRCLE
  5
C2
330
1F
100
AcDbEntity
  8
0
  6
Continuous
 62
     7
370
    25
100
AcDbCircle
 10
388.8750477491
 20
288.9186488718
 30
0.0
 40
1.650000000000034
  0
CIRCLE
  5
C3
330
1F
100
AcDbEntity
  8
0
  6
Continuous
 62
     7
370
    25
100
AcDbCircle
 10
393.3750477491
 20
288.9186488718
 30
0.0
 40
1.650000000000034
  0
CIRCLE
  5
C4
330
1F
100
AcDbEntity
  8
0
  6
Continuous
 62
     7
370
    25
100
AcDbCircle
 10
397.8750477491
 20
288.9186488718
 30
0.0
 40
1.649999999999977
  0
CIRCLE
  5
C5
330
1F
100
AcDbEntity
  8
0
  6
Continuous
 62
     7
370
    25
100
AcDbCircle
 10
411.3750477491
 20
288.9186488718
 30
0.0
 40
1.649999999999977
  0
CIRCLE
  5
C6
330
1F
100
AcDbEntity
  8
0
  6
Continuous
 62
     7
370
    25
100
AcDbCircle
 10
415.8750477491
 20
288.9186488718
 30
0.0
 40
1.649999999999977
  0
CIRCLE
  5
C7
330
1F
100
AcDbEntity
  8
0
  6
Continuous
 62
     7
370
    25
100
AcDbCircle
 10
420.3750477491
 20
288.9186488718
 30
0.0
 40
1.649999999999977
  0
CIRCLE
  5
C8
330
1F
100
AcDbEntity
  8
0
  6
Continuous
 62
     7
370
    25
100
AcDbCircle
 10
424.8750477491
 20
288.9186488718
 30
0.0
 40
1.650000000000034
  0
CIRCLE
  5
C9
330
1F
100
AcDbEntity
  8
0
  6
Continuous
 62
     7
370
    25
100
AcDbCircle
 10
330.3750477491
 20
284.4186488718
 30
0.0
 40
1.650000000000091
  0
CIRCLE
  5
CA
330
1F
100
AcDbEntity
  8
0
  6
Continuous
 62
     7
370
    25
100
AcDbCircle
 10
334.8750477491
 20
284.4186488718
 30
0.0
 40
1.649999999999977
  0
CIRCLE
  5
CB
330
1F
100
AcDbEntity
  8
0
  6
Continuous
 62
     7
370
    25
100
AcDbCircle
 10
339.3750477491
 20
284.4186488718
 30
0.0
 40
1.649999999999977
  0
CIRCLE
  5
CC
330
1F
100
AcDbEntity
  8
0
  6
Continuous
 62
     7
370
    25
100
AcDbCircle
 10
343.8750477491
 20
284.4186488718
 30
0.0
 40
1.649999999999977
  0
CIRCLE
  5
CD
330
1F
100
AcDbEntity
  8
0
  6
Continuous
 62
     7
370
    25
100
AcDbCircle
 10
348.3750477491
 20
284.4186488718
 30
0.0
 40
1.649999999999977
  0
CIRCLE
  5
CE
330
1F
100
AcDbEntity
  8
0
  6
Continuous
 62
     7
370
    25
100
AcDbCircle
 10
352.8750477491
 20
284.4186488718
 30
0.0
 40
1.649999999999977
  0
CIRCLE
  5
CF
330
1F
100
AcDbEntity
  8
0
  6
Continuous
 62
     7
370
    25
100
AcDbCircle
 10
357.3750477491
 20
284.4186488718
 30
0.0
 40
1.649999999999977
  0
CIRCLE
  5
D0
330
1F
100
AcDbEntity
  8
0
  6
Continuous
 62
     7
370
    25
100
AcDbCircle
 10
361.8750477491
 20
284.4186488718
 30
0.0
 40
1.649999999999977
  0
CIRCLE
  5
D1
330
1F
100
AcDbEntity
  8
0
  6
Continuous
 62
     7
370
    25
100
AcDbCircle
 10
366.3750477491
 20
284.4186488718
 30
0.0
 40
1.649999999999977
  0
CIRCLE
  5
D2
330
1F
100
AcDbEntity
  8
0
  6
Continuous
 62
     7
370
    25
100
AcDbCircle
 10
370.8750477491
 20
284.4186488718
 30
0.0
 40
1.650000000000034
  0
CIRCLE
  5
D3
330
1F
100
AcDbEntity
  8
0
  6
Continuous
 62
     7
370
    25
100
AcDbCircle
 10
375.3750477491
 20
284.4186488718
 30
0.0
 40
1.650000000000034
  0
CIRCLE
  5
D4
330
1F
100
AcDbEntity
  8
0
  6
Continuous
 62
     7
370
    25
100
AcDbCircle
 10
379.8750477491
 20
284.4186488718
 30
0.0
 40
1.650000000000034
  0
CIRCLE
  5
D5
330
1F
100
AcDbEntity
  8
0
  6
Continuous
 62
     7
370
    25
100
AcDbCircle
 10
384.3750477491
 20
284.4186488718
 30
0.0
 40
1.649999999999977
  0
CIRCLE
  5
D6
330
1F
100
AcDbEntity
  8
0
  6
Continuous
 62
     7
370
    25
100
AcDbCircle
 10
388.8750477491
 20
284.4186488718
 30
0.0
 40
1.650000000000034
  0
CIRCLE
  5
D7
330
1F
100
AcDbEntity
  8
0
  6
Continuous
 62
     7
370
    25
100
AcDbCircle
 10
393.3750477491
 20
284.4186488718
 30
0.0
 40
1.650000000000034
  0
CIRCLE
  5
D8
330
1F
100
AcDbEntity
  8
0
  6
Continuous
 62
     7
370
    25
100
AcDbCircle
 10
397.8750477491
 20
284.4186488718
 30
0.0
 40
1.649999999999977
  0
CIRCLE
  5
D9
330
1F
100
AcDbEntity
  8
0
  6
Continuous
 62
     7
370
    25
100
AcDbCircle
 10
402.3750477491
 20
284.4186488718
 30
0.0
 40
1.649999999999977
  0
CIRCLE
  5
DA
330
1F
100
AcDbEntity
  8
0
  6
Continuous
 62
     7
370
    25
100
AcDbCircle
 10
406.8750477491
 20
284.4186488718
 30
0.0
 40
1.649999999999977
  0
CIRCLE
  5
DB
330
1F
100
AcDbEntity
  8
0
  6
Continuous
 62
     7
370
    25
100
AcDbCircle
 10
411.3750477491
 20
284.4186488718
 30
0.0
 40
1.649999999999977
  0
CIRCLE
  5
DC
330
1F
100
AcDbEntity
  8
0
  6
Continuous
 62
     7
370
    25
100
AcDbCircle
 10
415.8750477491
 20
284.4186488718
 30
0.0
 40
1.649999999999977
  0
CIRCLE
  5
DD
330
1F
100
AcDbEntity
  8
0
  6
Continuous
 62
     7
370
    25
100
AcDbCircle
 10
420.3750477491
 20
284.4186488718
 30
0.0
 40
1.649999999999977
  0
CIRCLE
  5
DE
330
1F
100
AcDbEntity
  8
0
  6
Continuous
 62
     7
370
    25
100
AcDbCircle
 10
424.8750477491
 20
284.4186488718
 30
0.0
 40
1.650000000000034
  0
CIRCLE
  5
DF
330
1F
100
AcDbEntity
  8
0
  6
Continuous
 62
     7
370
    25
100
AcDbCircle
 10
330.3750477491
 20
279.9186488718
 30
0.0
 40
1.650000000000091
  0
CIRCLE
  5
E0
330
1F
100
AcDbEntity
  8
0
  6
Continuous
 62
     7
370
    25
100
AcDbCircle
 10
334.8750477491
 20
279.9186488718
 30
0.0
 40
1.649999999999977
  0
CIRCLE
  5
E1
330
1F
100
AcDbEntity
  8
0
  6
Continuous
 62
     7
370
    25
100
AcDbCircle
 10
339.3750477491
 20
279.9186488718
 30
0.0
 40
1.649999999999977
  0
CIRCLE
  5
E2
330
1F
100
AcDbEntity
  8
0
  6
Continuous
 62
     7
370
    25
100
AcDbCircle
 10
343.8750477491
 20
279.9186488718
 30
0.0
 40
1.649999999999977
  0
CIRCLE
  5
E3
330
1F
100
AcDbEntity
  8
0
  6
Continuous
 62
     7
370
    25
100
AcDbCircle
 10
348.3750477491
 20
279.9186488718
 30
0.0
 40
1.649999999999977
  0
CIRCLE
  5
E4
330
1F
100
AcDbEntity
  8
0
  6
Continuous
 62
     7
370
    25
100
AcDbCircle
 10
352.8750477491
 20
279.9186488718
 30
0.0
 40
1.649999999999977
  0
CIRCLE
  5
E5
330
1F
100
AcDbEntity
  8
0
  6
Continuous
 62
     7
370
    25
100
AcDbCircle
 10
357.3750477491
 20
279.9186488718
 30
0.0
 40
1.649999999999977
  0
CIRCLE
  5
E6
330
1F
100
AcDbEntity
  8
0
  6
Continuous
 62
     7
370
    25
100
AcDbCircle
 10
361.8750477491
 20
279.9186488718
 30
0.0
 40
1.649999999999977
  0
CIRCLE
  5
E7
330
1F
100
AcDbEntity
  8
0
  6
Continuous
 62
     7
370
    25
100
AcDbCircle
 10
366.3750477491
 20
279.9186488718
 30
0.0
 40
1.649999999999977
  0
CIRCLE
  5
E8
330
1F
100
AcDbEntity
  8
0
  6
Continuous
 62
     7
370
    25
100
AcDbCircle
 10
370.8750477491
 20
279.9186488718
 30
0.0
 40
1.650000000000034
  0
CIRCLE
  5
E9
330
1F
100
AcDbEntity
  8
0
  6
Continuous
 62
     7
370
    25
100
AcDbCircle
 10
375.3750477491
 20
279.9186488718
 30
0.0
 40
1.650000000000034
  0
CIRCLE
  5
EA
330
1F
100
AcDbEntity
  8
0
  6
Continuous
 62
     7
370
    25
100
AcDbCircle
 10
379.8750477491
 20
279.9186488718
 30
0.0
 40
1.650000000000034
  0
CIRCLE
  5
EB
330
1F
100
AcDbEntity
  8
0
  6
Continuous
 62
     7
370
    25
100
AcDbCircle
 10
384.3750477491
 20
279.9186488718
 30
0.0
 40
1.649999999999977
  0
CIRCLE
  5
EC
330
1F
100
AcDbEntity
  8
0
  6
Continuous
 62
     7
370
    25
100
AcDbCircle
 10
388.8750477491
 20
279.9186488718
 30
0.0
 40
1.650000000000034
  0
CIRCLE
  5
ED
330
1F
100
AcDbEntity
  8
0
  6
Continuous
 62
     7
370
    25
100
AcDbCircle
 10
393.3750477491
 20
279.9186488718
 30
0.0
 40
1.650000000000034
  0
CIRCLE
  5
EE
330
1F
100
AcDbEntity
  8
0
  6
Continuous
 62
     7
370
    25
100
AcDbCircle
 10
397.8750477491
 20
279.9186488718
 30
0.0
 40
1.649999999999977
  0
CIRCLE
  5
EF
330
1F
100
AcDbEntity
  8
0
  6
Continuous
 62
     7
370
    25
100
AcDbCircle
 10
402.3750477491
 20
279.9186488718
 30
0.0
 40
1.649999999999977
  0
CIRCLE
  5
F0
330
1F
100
AcDbEntity
  8
0
  6
Continuous
 62
     7
370
    25
100
AcDbCircle
 10
406.8750477491
 20
279.9186488718
 30
0.0
 40
1.649999999999977
  0
CIRCLE
  5
F1
330
1F
100
AcDbEntity
  8
0
  6
Continuous
 62
     7
370
    25
100
AcDbCircle
 10
411.3750477491
 20
279.9186488718
 30
0.0
 40
1.649999999999977
  0
CIRCLE
  5
F2
330
1F
100
AcDbEntity
  8
0
  6
Continuous
 62
     7
370
    25
100
AcDbCircle
 10
415.8750477491
 20
279.9186488718
 30
0.0
 40
1.649999999999977
  0
CIRCLE
  5
F3
330
1F
100
AcDbEntity
  8
0
  6
Continuous
 62
     7
370
    25
100
AcDbCircle
 10
420.3750477491
 20
279.9186488718
 30
0.0
 40
1.649999999999977
  0
CIRCLE
  5
F4
330
1F
100
AcDbEntity
  8
0
  6
Continuous
 62
     7
370
    25
100
AcDbCircle
 10
424.8750477491
 20
279.9186488718
 30
0.0
 40
1.650000000000034
  0
LINE
  5
F5
330
1F
100
AcDbEntity
  8
0
  6
Continuous
 62
     7
370
    25
100
AcDbLine
 10
323.1250477491
 20
274.9186488718
 30
0.0
 11
432.1250477491
 21
274.9186488718
 31
0.0
  0
LINE
  5
F6
330
1F
100
AcDbEntity
  8
0
  6
Continuous
 62
     7
370
    25
100
AcDbLine
 10
323.1250477491
 20
317.3186488718
 30
0.0
 11
323.1250477491
 21
274.9186488718
 31
0.0
  0
LINE
  5
F7
330
1F
100
AcDbEntity
  8
0
  6
Continuous
 62
     7
370
    25
100
AcDbLine
 10
432.1250477491
 20
317.3186488718
 30
0.0
 11
323.1250477491
 21
317.3186488718
 31
0.0
  0
LINE
  5
F8
330
1F
100
AcDbEntity
  8
0
  6
Continuous
 62
     7
370
    25
100
AcDbLine
 10
432.1250477491
 20
274.9186488718
 30
0.0
 11
432.1250477491
 21
317.3186488718
 31
0.0
  0
CIRCLE
  5
F9
330
1F
100
AcDbEntity
  8
0
  6
Continuous
 62
     7
370
    25
100
AcDbCircle
 10
406.8750477491
 20
288.9186488718
 30
0.0
 40
1.649999999999977
  0
CIRCLE
  5
FA
330
1F
100
AcDbEntity
  8
0
  6
Continuous
 62
     7
370
    25
100
AcDbCircle
 10
402.3750477491
 20
288.9186488718
 30
0.0
 40
1.649999999999977
  0
CIRCLE
  5
FB
330
1F
100
AcDbEntity
  8
0
  6
Continuous
 62
     7
370
    25
100
AcDbCircle
 10
415.874941102
 20
301.1685903971
 30
0.0
 40
3.730902000393712
  0
LINE
  5
FC
330
1F
100
AcDbEntity
  8
0
  6
Continuous
 62
     7
370
    25
100
AcDbLine
 10
425.1733440404
 20
296.8703525804
 30
0.0
 11
425.1733440404
 21
307.9669451631
 31
0.0
  0
ARC
  5
FD
330
1F
100
AcDbEntity
  8
0
  6
Continuous
 62
     7
370
    25
100
AcDbCircle
 10
422.1733440404
 20
296.8703525804
 30
0.0
 40
3.0
100
AcDbArc
 50
270.0
 51
0.0
  0
LINE
  5
FE
330
1F
100
AcDbEntity
  8
0
  6
Continuous
 62
     7
370
    25
100
AcDbLine
 10
333.0767514578
 20
293.8703525804
 30
0.0
 11
422.1733440404
 21
293.8703525804
 31
0.0
  0
ARC
  5
FF
330
1F
100
AcDbEntity
  8
0
  6
Continuous
 62
     7
370
    25
100
AcDbCircle
 10
333.0767514578
 20
296.8703525804
 30
0.0
 40
3.0
100
AcDbArc
 50
180.0
 51
270.0
  0
ARC
  5
100
330
1F
100
AcDbEntity
  8
0
  6
Continuous
 62
     7
370
    25
100
AcDbCircle
 10
422.1733440404
 20
307.9669451631
 30
0.0
 40
3.0
100
AcDbArc
 50
0.0
 51
90.0
  0
LINE
  5
101
330
1F
100
AcDbEntity
  8
0
  6
Continuous
 62
     7
370
    25
100
AcDbLine
 10
422.1733440404
 20
310.9669451631
 30
0.0
 11
333.0767514578
 21
310.9669451631
 31
0.0
  0
ARC
  5
102
330
1F
100
AcDbEntity
  8
0
  6
Continuous
 62
     7
370
    25
100
AcDbCircle
 10
333.0767514578
 20
307.9669451631
 30
0.0
 40
3.0
100
AcDbArc
 50
90.0
 51
180.0
  0
LINE
  5
103
330
1F
100
AcDbEntity
  8
0
  6
PHANTOM
 62
     1
370
    18
100
AcDbLine
 10
330.0767514578
 20
296.8703525804
 30
0.0
 11
329.0767514578
 21
296.8703525804
 31
0.0
  0
LINE
  5
104
330
1F
100
AcDbEntity
  8
0
  6
PHANTOM
 62
     1
370
    18
100
AcDbLine
 10
329.0767514578
 20
296.8703525804
 30
0.0
 11
329.0767514578
 21
307.9669451631
 31
0.0
  0
LINE
  5
105
330
1F
100
AcDbEntity
  8
0
  6
PHANTOM
 62
     1
370
    18
100
AcDbLine
 10
330.0767514578
 20
307.9669451631
 30
0.0
 11
329.0767514578
 21
307.9669451631
 31
0.0
  0
ARC
  5
106
330
1F
100
AcDbEntity
  8
0
  6
PHANTOM
 62
     1
370
    18
100
AcDbCircle
 10
422.1733440404
 20
296.8703525804
 30
0.0
 40
4.0
100
AcDbArc
 50
270.0
 51
0.0
  0
LINE
  5
107
330
1F
100
AcDbEntity
  8
0
  6
PHANTOM
 62
     1
370
    18
100
AcDbLine
 10
426.1733440404
 20
307.9669451631
 30
0.0
 11
426.1733440404
 21
296.8703525804
 31
0.0
  0
ARC
  5
108
330
1F
100
AcDbEntity
  8
0
  6
PHANTOM
 62
     1
370
    18
100
AcDbCircle
 10
422.1733440404
 20
307.9669451631
 30
0.0
 40
4.0
100
AcDbArc
 50
0.0
 51
90.0
  0
LINE
  5
109
330
1F
100
AcDbEntity
  8
0
  6
PHANTOM
 62
     1
370
    18
100
AcDbLine
 10
333.0767514578
 20
311.9669451631
 30
0.0
 11
422.1733440404
 21
311.9669451631
 31
0.0
  0
ARC
  5
10A
330
1F
100
AcDbEntity
  8
0
  6
PHANTOM
 62
     1
370
    18
100
AcDbCircle
 10
333.0767514578
 20
307.9669451631
 30
0.0
 40
4.0
100
AcDbArc
 50
90.0
 51
180.0
  0
ARC
  5
10B
330
1F
100
AcDbEntity
  8
0
  6
PHANTOM
 62
     1
370
    18
100
AcDbCircle
 10
333.0767514578
 20
296.8703525804
 30
0.0
 40
4.0
100
AcDbArc
 50
180.0
 51
270.0
  0
LINE
  5
10C
330
1F
100
AcDbEntity
  8
0
  6
PHANTOM
 62
     1
370
    18
100
AcDbLine
 10
422.1733440404
 20
292.8703525804
 30
0.0
 11
333.0767514578
 21
292.8703525804
 31
0.0
  0
CIRCLE
  5
10D
330
1F
100
AcDbEntity
  8
0
  6
PHANTOM
 62
     1
370
    18
100
AcDbCircle
 10
415.874941102
 20
301.1685903971
 30
0.0
 40
1.794410327289938
  0
LINE
  5
10E
330
1F
100
AcDbEntity
  8
0
  6
PHANTOM
 62
     1
370
    18
100
AcDbLine
 10
426.1733440404
 20
296.8703525804
 30
0.0
 11
425.1733440404
 21
296.8703525804
 31
0.0
  0
LINE
  5
10F
330
1F
100
AcDbEntity
  8
0
  6
PHANTOM
 62
     1
370
    18
100
AcDbLine
 10
426.1733440404
 20
307.9669451631
 30
0.0
 11
425.1733440404
 21
307.9669451631
 31
0.0
  0
LINE
  5
110
330
1F
100
AcDbEntity
  8
0
  6
PHANTOM
 62
     1
370
    18
100
AcDbLine
 10
422.1733440404
 20
292.8703525804
 30
0.0
 11
422.1733440404
 21
293.8703525804
 31
0.0
  0
LINE
  5
111
330
1F
100
AcDbEntity
  8
0
  6
PHANTOM
 62
     1
370
    18
100
AcDbLine
 10
333.0767514578
 20
292.8703525804
 30
0.0
 11
333.0767514578
 21
293.8703525804
 31
0.0
  0
LINE
  5
112
330
1F
100
AcDbEntity
  8
0
  6
PHANTOM
 62
     1
370
    18
100
AcDbLine
 10
422.1733440404
 20
310.9669451631
 30
0.0
 11
422.1733440404
 21
311.9669451631
 31
0.0
  0
LINE
  5
113
330
1F
100
AcDbEntity
  8
0
  6
PHANTOM
 62
     1
370
    18
100
AcDbLine
 10
333.0767514578
 20
310.9669451631
 30
0.0
 11
333.0767514578
 21
311.9669451631
 31
0.0
  0
DIMENSION
  5
114
330
1F
100
AcDbEntity
  8
SLD-0
100
AcDbDimension
  2
_D
 10
323.1250477491
 20
337.3186488718
 30
0.0
 11
378.7631462122
 21
337.3186488718
 31
0.0
 70
   160
  1
<>
 71
     2
 42
-1.0
  3
SLDDIMSTYLE0
100
AcDbAlignedDimension
 13
432.1250477491
 23
317.3186488718
 33
0.0
 14
323.1250477491
 24
317.3186488718
 34
0.0
100
AcDbRotatedDimension
  0
MTEXT
  5
120
330
1F
100
AcDbEntity
  8
SLD-0
100
AcDbMText
 10
394.6326369721
 20
263.3929546026
 30
0.0
 40
4.7625
 41
0.0
 71
     1
 72
     1
  1
INTAKE
  7
SLDTEXTSTYLE0
 73
     1
 44
1.0
  0
LEADER
  5
122
330
1F
100
AcDbEntity
  8
SLD-0
100
AcDbLeader
  3
SLDDIMSTYLE1
 76
     3
 10
380.6965407626
 20
278.4876879258
 30
0.0
 10
389.4565217391
 20
261.0044066426
 30
0.0
 10
393.4565217391
 20
261.0044066426
 30
0.0
  0
LINE
  5
123
330
1F
100
AcDbEntity
  8
0
  6
Continuous
 62
     7
370
    25
100
AcDbLine
 10
460.4583782609
 20
274.9186488718
 30
0.0
 11
676.3583782609
 21
274.9186488718
 31
0.0
  0
LINE
  5
124
330
1F
100
AcDbEntity
  8
0
  6
Continuous
 62
     7
370
    25
100
AcDbLine
 10
460.4583782609
 20
274.9186488718
 30
0.0
 11
460.4583782609
 21
317.3186488718
 31
0.0
  0
LINE
  5
125
330
1F
100
AcDbEntity
  8
0
  6
Continuous
 62
     7
370
    25
100
AcDbLine
 10
460.4583782609
 20
317.3186488718
 30
0.0
 11
676.3583782609
 21
317.3186488718
 31
0.0
  0
LINE
  5
126
330
1F
100
AcDbEntity
  8
0
  6
Continuous
 62
     7
370
    25
100
AcDbLine
 10
676.3583782609
 20
274.9186488718
 30
0.0
 11
676.3583782609
 21
317.3186488718
 31
0.0
  0
CIRCLE
  5
127
330
1F
100
AcDbEntity
  8
0
  6
Continuous
 62
     7
370
    25
100
AcDbCircle
 10
583.4083782609
 20
296.1186488718
 30
0.0
 40
1.750000000000057
  0
CIRCLE
  5
128
330
1F
100
AcDbEntity
  8
0
  6
Continuous
 62
     7
370
    25
100
AcDbCircle
 10
553.4083782609
 20
296.1186488718
 30
0.0
 40
1.750000000000057
  0
CIRCLE
  5
129
330
1F
100
AcDbEntity
  8
0
  6
Continuous
 62
     7
370
    25
100
AcDbCircle
 10
667.4583782609
 20
310.7186488718
 30
0.0
 40
2.000000000000057
  0
CIRCLE
  5
12A
330
1F
100
AcDbEntity
  8
0
  6
Continuous
 62
     7
370
    25
100
AcDbCircle
 10
662.4583782609
 20
310.7186488718
 30
0.0
 40
2.000000000000057
  0
CIRCLE
  5
12B
330
1F
100
AcDbEntity
  8
0
  6
Continuous
 62
     7
370
    25
100
AcDbCircle
 10
657.4583782609
 20
310.7186488718
 30
0.0
 40
2.000000000000057
  0
CIRCLE
  5
12C
330
1F
100
AcDbEntity
  8
0
  6
Continuous
 62
     7
370
    25
100
AcDbCircle
 10
652.4583782609
 20
310.7186488718
 30
0.0
 40
2.000000000000057
  0
CIRCLE
  5
12D
330
1F
100
AcDbEntity
  8
0
  6
Continuous
 62
     7
370
    25
100
AcDbCircle
 10
647.4583782609
 20
310.7186488718
 30
0.0
 40
2.000000000000057
  0
CIRCLE
  5
12E
330
1F
100
AcDbEntity
  8
0
  6
Continuous
 62
     7
370
    25
100
AcDbCircle
 10
642.4583782609
 20
310.7186488718
 30
0.0
 40
2.000000000000057
  0
CIRCLE
  5
12F
330
1F
100
AcDbEntity
  8
0
  6
Continuous
 62
     7
370
    25
100
AcDbCircle
 10
637.4583782609
 20
310.7186488718
 30
0.0
 40
2.000000000000057
  0
CIRCLE
  5
130
330
1F
100
AcDbEntity
  8
0
  6
Continuous
 62
     7
370
    25
100
AcDbCircle
 10
632.4583782609
 20
310.7186488718
 30
0.0
 40
2.000000000000057
  0
CIRCLE
  5
131
330
1F
100
AcDbEntity
  8
0
  6
Continuous
 62
     7
370
    25
100
AcDbCircle
 10
627.4583782609
 20
310.7186488718
 30
0.0
 40
2.000000000000057
  0
CIRCLE
  5
132
330
1F
100
AcDbEntity
  8
0
  6
Continuous
 62
     7
370
    25
100
AcDbCircle
 10
622.4583782609
 20
310.7186488718
 30
0.0
 40
2.000000000000057
  0
CIRCLE
  5
133
330
1F
100
AcDbEntity
  8
0
  6
Continuous
 62
     7
370
    25
100
AcDbCircle
 10
667.4583782609
 20
305.7186488718
 30
0.0
 40
2.0
  0
CIRCLE
  5
134
330
1F
100
AcDbEntity
  8
0
  6
Continuous
 62
     7
370
    25
100
AcDbCircle
 10
662.4583782609
 20
305.7186488718
 30
0.0
 40
2.0
  0
CIRCLE
  5
135
330
1F
100
AcDbEntity
  8
0
  6
Continuous
 62
     7
370
    25
100
AcDbCircle
 10
657.4583782609
 20
305.7186488718
 30
0.0
 40
2.0
  0
CIRCLE
  5
136
330
1F
100
AcDbEntity
  8
0
  6
Continuous
 62
     7
370
    25
100
AcDbCircle
 10
652.4583782609
 20
305.7186488718
 30
0.0
 40
2.0
  0
CIRCLE
  5
137
330
1F
100
AcDbEntity
  8
0
  6
Continuous
 62
     7
370
    25
100
AcDbCircle
 10
647.4583782609
 20
305.7186488718
 30
0.0
 40
2.0
  0
CIRCLE
  5
138
330
1F
100
AcDbEntity
  8
0
  6
Continuous
 62
     7
370
    25
100
AcDbCircle
 10
642.4583782609
 20
305.7186488718
 30
0.0
 40
2.0
  0
CIRCLE
  5
139
330
1F
100
AcDbEntity
  8
0
  6
Continuous
 62
     7
370
    25
100
AcDbCircle
 10
637.4583782609
 20
305.7186488718
 30
0.0
 40
2.0
  0
CIRCLE
  5
13A
330
1F
100
AcDbEntity
  8
0
  6
Continuous
 62
     7
370
    25
100
AcDbCircle
 10
632.4583782609
 20
305.7186488718
 30
0.0
 40
2.0
  0
CIRCLE
  5
13B
330
1F
100
AcDbEntity
  8
0
  6
Continuous
 62
     7
370
    25
100
AcDbCircle
 10
627.4583782609
 20
305.7186488718
 30
0.0
 40
2.0
  0
CIRCLE
  5
13C
330
1F
100
AcDbEntity
  8
0
  6
Continuous
 62
     7
370
    25
100
AcDbCircle
 10
667.4583782609
 20
300.7186488718
 30
0.0
 40
2.0
  0
CIRCLE
  5
13D
330
1F
100
AcDbEntity
  8
0
  6
Continuous
 62
     7
370
    25
100
AcDbCircle
 10
662.4583782609
 20
300.7186488718
 30
0.0
 40
2.0
  0
CIRCLE
  5
13E
330
1F
100
AcDbEntity
  8
0
  6
Continuous
 62
     7
370
    25
100
AcDbCircle
 10
657.4583782609
 20
300.7186488718
 30
0.0
 40
2.0
  0
CIRCLE
  5
13F
330
1F
100
AcDbEntity
  8
0
  6
Continuous
 62
     7
370
    25
100
AcDbCircle
 10
652.4583782609
 20
300.7186488718
 30
0.0
 40
2.0
  0
CIRCLE
  5
140
330
1F
100
AcDbEntity
  8
0
  6
Continuous
 62
     7
370
    25
100
AcDbCircle
 10
647.4583782609
 20
300.7186488718
 30
0.0
 40
2.0
  0
CIRCLE
  5
141
330
1F
100
AcDbEntity
  8
0
  6
Continuous
 62
     7
370
    25
100
AcDbCircle
 10
642.4583782609
 20
300.7186488718
 30
0.0
 40
2.0
  0
CIRCLE
  5
142
330
1F
100
AcDbEntity
  8
0
  6
Continuous
 62
     7
370
    25
100
AcDbCircle
 10
637.4583782609
 20
300.7186488718
 30
0.0
 40
2.0
  0
CIRCLE
  5
143
330
1F
100
AcDbEntity
  8
0
  6
Continuous
 62
     7
370
    25
100
AcDbCircle
 10
632.4583782609
 20
300.7186488718
 30
0.0
 40
2.0
  0
MTEXT
  5
144
330
1F
100
AcDbEntity
  8
SLD-0
100
AcDbMText
 10
601.9555073377
 20
333.9139042931
 30
0.0
 40
4.7625
 41
0.0
 71
     1
 72
     1
  1
EXHAUST
  7
SLDTEXTSTYLE0
 73
     1
 44
1.0
  0
LEADER
  5
145
330
1F
100
AcDbEntity
  8
SLD-0
100
AcDbLeader
  3
SLDDIMSTYLE1
 76
     3
 10
641.3433301258
 20
312.3789704239
 30
0.0
 10
633.1826873804
 20
331.6565805556
 30
0.0
 10
629.1826873804
 20
331.6565805556
 30
0.0
  0
LINE
  5
146
330
1F
100
AcDbEntity
  8
0
  6
Continuous
 62
     7
370
    25
100
AcDbLine
 10
784.2699782609
 20
281.1986488718
 30
0.0
 11
801.9299782609
 21
281.1986488718
 31
0.0
  0
LINE
  5
147
330
1F
100
AcDbEntity
  8
0
  6
Continuous
 62
     7
370
    25
100
AcDbLine
 10
801.9299782609
 20
281.1986488718
 30
0.0
 11
801.9299782609
 21
308.3886488718
 31
0.0
  0
LINE
  5
148
330
1F
100
AcDbEntity
  8
0
  6
Continuous
 62
     7
370
    25
100
AcDbLine
 10
801.9299782609
 20
308.3886488718
 30
0.0
 11
784.2699782609
 21
308.3886488718
 31
0.0
  0
LINE
  5
149
330
1F
100
AcDbEntity
  8
0
  6
Continuous
 62
     7
370
    25
100
AcDbLine
 10
784.2699782609
 20
308.3886488718
 30
0.0
 11
784.2699782609
 21
281.1986488718
 31
0.0
  0
LINE
  5
14A
330
1F
100
AcDbEntity
  8
0
  6
Continuous
 62
     7
370
    25
100
AcDbLine
 10
805.2149782609
 20
301.4186488718
 30
0.0
 11
814.4149782609
 21
301.4186488718
 31
0.0
  0
LINE
  5
14B
330
1F
100
AcDbEntity
  8
0
  6
Continuous
 62
     7
370
    25
100
AcDbLine
 10
814.4149782609
 20
301.4186488718
 30
0.0
 11
814.4149782609
 21
310.2186488718
 31
0.0
  0
LINE
  5
14C
330
1F
100
AcDbEntity
  8
0
  6
Continuous
 62
     7
370
    25
100
AcDbLine
 10
814.4149782609
 20
310.2186488718
 30
0.0
 11
805.2149782609
 21
310.2186488718
 31
0.0
  0
LINE
  5
14D
330
1F
100
AcDbEntity
  8
0
  6
Continuous
 62
     7
370
    25
100
AcDbLine
 10
805.2149782609
 20
310.2186488718
 30
0.0
 11
805.2149782609
 21
301.4186488718
 31
0.0
  0
LINE
  5
14E
330
1F
100
AcDbEntity
  8
0
  6
Continuous
 62
     7
370
    25
100
AcDbLine
 10
805.2149782609
 20
281.0186488718
 30
0.0
 11
814.364513504
 21
281.0186488718
 31
0.0
  0
LINE
  5
14F
330
1F
100
AcDbEntity
  8
0
  6
Continuous
 62
     7
370
    25
100
AcDbLine
 10
814.364513504
 20
281.0186488718
 30
0.0
 11
814.364513504
 21
289.2186488718
 31
0.0
  0
LINE
  5
150
330
1F
100
AcDbEntity
  8
0
  6
Continuous
 62
     7
370
    25
100
AcDbLine
 10
814.364513504
 20
289.2186488718
 30
0.0
 11
805.2149782609
 21
289.2186488718
 31
0.0
  0
LINE
  5
151
330
1F
100
AcDbEntity
  8
0
  6
Continuous
 62
     7
370
    25
100
AcDbLine
 10
805.2149782609
 20
289.2186488718
 30
0.0
 11
805.2149782609
 21
281.0186488718
 31
0.0
  0
LINE
  5
152
330
1F
100
AcDbEntity
  8
0
  6
Continuous
 62
     7
370
    25
100
AcDbLine
 10
738.7499782609
 20
281.7386488718
 30
0.0
 11
763.6499782609
 21
281.7386488718
 31
0.0
  0
LINE
  5
153
330
1F
100
AcDbEntity
  8
0
  6
Continuous
 62
     7
370
    25
100
AcDbLine
 10
763.6499782609
 20
281.7386488718
 30
0.0
 11
763.6499782609
 21
294.7386488718
 31
0.0
  0
LINE
  5
154
330
1F
100
AcDbEntity
  8
0
  6
Continuous
 62
     7
370
    25
100
AcDbLine
 10
763.6499782609
 20
294.7386488718
 30
0.0
 11
738.7499782609
 21
294.7386488718
 31
0.0
  0
LINE
  5
155
330
1F
100
AcDbEntity
  8
0
  6
Continuous
 62
     7
370
    25
100
AcDbLine
 10
738.7499782609
 20
294.7386488718
 30
0.0
 11
738.7499782609
 21
281.7386488718
 31
0.0
  0
LINE
  5
156
330
1F
100
AcDbEntity
  8
0
  6
Continuous
 62
     7
370
    25
100
AcDbLine
 10
713.3999782609
 20
274.9186488718
 30
0.0
 11
713.3999782609
 21
317.3186488718
 31
0.0
  0
LINE
  5
157
330
1F
100
AcDbEntity
  8
0
  6
Continuous
 62
     7
370
    25
100
AcDbLine
 10
780.5999782609
 20
274.9186488718
 30
0.0
 11
780.5999782609
 21
279.4186488718
 31
0.0
  0
LINE
  5
158
330
1F
100
AcDbEntity
  8
0
  6
Continuous
 62
     7
370
    25
100
AcDbLine
 10
780.5999782609
 20
279.4186488718
 30
0.0
 11
774.5999782609
 21
279.4186488718
 31
0.0
  0
LINE
  5
159
330
1F
100
AcDbEntity
  8
0
  6
Continuous
 62
     7
370
    25
100
AcDbLine
 10
774.5999782609
 20
279.4186488718
 30
0.0
 11
774.5999782609
 21
274.9186488718
 31
0.0
  0
CIRCLE
  5
15A
330
1F
100
AcDbEntity
  8
0
  6
Continuous
 62
     7
370
    25
100
AcDbCircle
 10
778.0999782609
 20
285.5686488718
 30
0.0
 40
1.600000000000023
  0
LINE
  5
15B
330
1F
100
AcDbEntity
  8
0
  6
Continuous
 62
     7
370
    25
100
AcDbLine
 10
716.1999782609
 20
313.3686488718
 30
0.0
 11
716.1999782609
 21
309.8686488718
 31
0.0
  0
LINE
  5
15C
330
1F
100
AcDbEntity
  8
0
  6
Continuous
 62
     7
370
    25
100
AcDbLine
 10
716.1999782609
 20
309.8686488718
 30
0.0
 11
719.6999782609
 21
309.8686488718
 31
0.0
  0
LINE
  5
15D
330
1F
100
AcDbEntity
  8
0
  6
Continuous
 62
     7
370
    25
100
AcDbLine
 10
719.6999782609
 20
309.8686488718
 30
0.0
 11
719.6999782609
 21
313.3686488718
 31
0.0
  0
LINE
  5
15E
330
1F
100
AcDbEntity
  8
0
  6
Continuous
 62
     7
370
    25
100
AcDbLine
 10
719.6999782609
 20
313.3686488718
 30
0.0
 11
716.1999782609
 21
313.3686488718
 31
0.0
  0
LINE
  5
15F
330
1F
100
AcDbEntity
  8
0
  6
Continuous
 62
     7
370
    25
100
AcDbLine
 10
721.0999782609
 20
313.3686488718
 30
0.0
 11
721.0999782609
 21
309.8686488718
 31
0.0
  0
LINE
  5
160
330
1F
100
AcDbEntity
  8
0
  6
Continuous
 62
     7
370
    25
100
AcDbLine
 10
721.0999782609
 20
309.8686488718
 30
0.0
 11
724.5999782609
 21
309.8686488718
 31
0.0
  0
LINE
  5
161
330
1F
100
AcDbEntity
  8
0
  6
Continuous
 62
     7
370
    25
100
AcDbLine
 10
724.5999782609
 20
309.8686488718
 30
0.0
 11
724.5999782609
 21
313.3686488718
 31
0.0
  0
LINE
  5
162
330
1F
100
AcDbEntity
  8
0
  6
Continuous
 62
     7
370
    25
100
AcDbLine
 10
724.5999782609
 20
313.3686488718
 30
0.0
 11
721.0999782609
 21
313.3686488718
 31
0.0
  0
LINE
  5
163
330
1F
100
AcDbEntity
  8
0
  6
Continuous
 62
     7
370
    25
100
AcDbLine
 10
725.9999782609
 20
313.3686488718
 30
0.0
 11
725.9999782609
 21
309.8686488718
 31
0.0
  0
LINE
  5
164
330
1F
100
AcDbEntity
  8
0
  6
Continuous
 62
     7
370
    25
100
AcDbLine
 10
725.9999782609
 20
309.8686488718
 30
0.0
 11
729.4999782609
 21
309.8686488718
 31
0.0
  0
LINE
  5
165
330
1F
100
AcDbEntity
  8
0
  6
Continuous
 62
     7
370
    25
100
AcDbLine
 10
729.4999782609
 20
309.8686488718
 30
0.0
 11
729.4999782609
 21
313.3686488718
 31
0.0
  0
LINE
  5
166
330
1F
100
AcDbEntity
  8
0
  6
Continuous
 62
     7
370
    25
100
AcDbLine
 10
729.4999782609
 20
313.3686488718
 30
0.0
 11
725.9999782609
 21
313.3686488718
 31
0.0
  0
LINE
  5
167
330
1F
100
AcDbEntity
  8
0
  6
Continuous
 62
     7
370
    25
100
AcDbLine
 10
730.8999782609
 20
313.3686488718
 30
0.0
 11
730.8999782609
 21
309.8686488718
 31
0.0
  0
LINE
  5
168
330
1F
100
AcDbEntity
  8
0
  6
Continuous
 62
     7
370
    25
100
AcDbLine
 10
730.8999782609
 20
309.8686488718
 30
0.0
 11
734.3999782609
 21
309.8686488718
 31
0.0
  0
LINE
  5
169
330
1F
100
AcDbEntity
  8
0
  6
Continuous
 62
     7
370
    25
100
AcDbLine
 10
734.3999782609
 20
309.8686488718
 30
0.0
 11
734.3999782609
 21
313.3686488718
 31
0.0
  0
LINE
  5
16A
330
1F
100
AcDbEntity
  8
0
  6
Continuous
 62
     7
370
    25
100
AcDbLine
 10
734.3999782609
 20
313.3686488718
 30
0.0
 11
730.8999782609
 21
313.3686488718
 31
0.0
  0
LINE
  5
16B
330
1F
100
AcDbEntity
  8
0
  6
Continuous
 62
     7
370
    25
100
AcDbLine
 10
735.7999782609
 20
313.3686488718
 30
0.0
 11
735.7999782609
 21
309.8686488718
 31
0.0
  0
LINE
  5
16C
330
1F
100
AcDbEntity
  8
0
  6
Continuous
 62
     7
370
    25
100
AcDbLine
 10
735.7999782609
 20
309.8686488718
 30
0.0
 11
739.2999782609
 21
309.8686488718
 31
0.0
  0
LINE
  5
16D
330
1F
100
AcDbEntity
  8
0
  6
Continuous
 62
     7
370
    25
100
AcDbLine
 10
739.2999782609
 20
309.8686488718
 30
0.0
 11
739.2999782609
 21
313.3686488718
 31
0.0
  0
LINE
  5
16E
330
1F
100
AcDbEntity
  8
0
  6
Continuous
 62
     7
370
    25
100
AcDbLine
 10
739.2999782609
 20
313.3686488718
 30
0.0
 11
735.7999782609
 21
313.3686488718
 31
0.0
  0
LINE
  5
16F
330
1F
100
AcDbEntity
  8
0
  6
Continuous
 62
     7
370
    25
100
AcDbLine
 10
740.6999782609
 20
313.3686488718
 30
0.0
 11
740.6999782609
 21
309.8686488718
 31
0.0
  0
LINE
  5
170
330
1F
100
AcDbEntity
  8
0
  6
Continuous
 62
     7
370
    25
100
AcDbLine
 10
740.6999782609
 20
309.8686488718
 30
0.0
 11
744.1999782609
 21
309.8686488718
 31
0.0
  0
LINE
  5
171
330
1F
100
AcDbEntity
  8
0
  6
Continuous
 62
     7
370
    25
100
AcDbLine
 10
744.1999782609
 20
309.8686488718
 30
0.0
 11
744.1999782609
 21
313.3686488718
 31
0.0
  0
LINE
  5
172
330
1F
100
AcDbEntity
  8
0
  6
Continuous
 62
     7
370
    25
100
AcDbLine
 10
744.1999782609
 20
313.3686488718
 30
0.0
 11
740.6999782609
 21
313.3686488718
 31
0.0
  0
LINE
  5
173
330
1F
100
AcDbEntity
  8
0
  6
Continuous
 62
     7
370
    25
100
AcDbLine
 10
745.5999782609
 20
313.3686488718
 30
0.0
 11
745.5999782609
 21
309.8686488718
 31
0.0
  0
LINE
  5
174
330
1F
100
AcDbEntity
  8
0
  6
Continuous
 62
     7
370
    25
100
AcDbLine
 10
745.5999782609
 20
309.8686488718
 30
0.0
 11
749.0999782609
 21
309.8686488718
 31
0.0
  0
LINE
  5
175
330
1F
100
AcDbEntity
  8
0
  6
Continuous
 62
     7
370
    25
100
AcDbLine
 10
749.0999782609
 20
309.8686488718
 30
0.0
 11
749.0999782609
 21
313.3686488718
 31
0.0
  0
LINE
  5
176
330
1F
100
AcDbEntity
  8
0
  6
Continuous
 62
     7
370
    25
100
AcDbLine
 10
749.0999782609
 20
313.3686488718
 30
0.0
 11
745.5999782609
 21
313.3686488718
 31
0.0
  0
LINE
  5
177
330
1F
100
AcDbEntity
  8
0
  6
Continuous
 62
     7
370
    25
100
AcDbLine
 10
750.4999782609
 20
313.3686488718
 30
0.0
 11
750.4999782609
 21
309.8686488718
 31
0.0
  0
LINE
  5
178
330
1F
100
AcDbEntity
  8
0
  6
Continuous
 62
     7
370
    25
100
AcDbLine
 10
750.4999782609
 20
309.8686488718
 30
0.0
 11
753.9999782609
 21
309.8686488718
 31
0.0
  0
LINE
  5
179
330
1F
100
AcDbEntity
  8
0
  6
Continuous
 62
     7
370
    25
100
AcDbLine
 10
753.9999782609
 20
309.8686488718
 30
0.0
 11
753.9999782609
 21
313.3686488718
 31
0.0
  0
LINE
  5
17A
330
1F
100
AcDbEntity
  8
0
  6
Continuous
 62
     7
370
    25
100
AcDbLine
 10
753.9999782609
 20
313.3686488718
 30
0.0
 11
750.4999782609
 21
313.3686488718
 31
0.0
  0
LINE
  5
17B
330
1F
100
AcDbEntity
  8
0
  6
Continuous
 62
     7
370
    25
100
AcDbLine
 10
755.3999782609
 20
313.3686488718
 30
0.0
 11
755.3999782609
 21
309.8686488718
 31
0.0
  0
LINE
  5
17C
330
1F
100
AcDbEntity
  8
0
  6
Continuous
 62
     7
370
    25
100
AcDbLine
 10
755.3999782609
 20
309.8686488718
 30
0.0
 11
758.8999782609
 21
309.8686488718
 31
0.0
  0
LINE
  5
17D
330
1F
100
AcDbEntity
  8
0
  6
Continuous
 62
     7
370
    25
100
AcDbLine
 10
758.8999782609
 20
309.8686488718
 30
0.0
 11
758.8999782609
 21
313.3686488718
 31
0.0
  0
LINE
  5
17E
330
1F
100
AcDbEntity
  8
0
  6
Continuous
 62
     7
370
    25
100
AcDbLine
 10
758.8999782609
 20
313.3686488718
 30
0.0
 11
755.3999782609
 21
313.3686488718
 31
0.0
  0
LINE
  5
17F
330
1F
100
AcDbEntity
  8
0
  6
Continuous
 62
     7
370
    25
100
AcDbLine
 10
760.2999782609
 20
313.3686488718
 30
0.0
 11
760.2999782609
 21
309.8686488718
 31
0.0
  0
LINE
  5
180
330
1F
100
AcDbEntity
  8
0
  6
Continuous
 62
     7
370
    25
100
AcDbLine
 10
760.2999782609
 20
309.8686488718
 30
0.0
 11
763.7999782609
 21
309.8686488718
 31
0.0
  0
LINE
  5
181
330
1F
100
AcDbEntity
  8
0
  6
Continuous
 62
     7
370
    25
100
AcDbLine
 10
763.7999782609
 20
309.8686488718
 30
0.0
 11
763.7999782609
 21
313.3686488718
 31
0.0
  0
LINE
  5
182
330
1F
100
AcDbEntity
  8
0
  6
Continuous
 62
     7
370
    25
100
AcDbLine
 10
763.7999782609
 20
313.3686488718
 30
0.0
 11
760.2999782609
 21
313.3686488718
 31
0.0
  0
LINE
  5
183
330
1F
100
AcDbEntity
  8
0
  6
Continuous
 62
     7
370
    25
100
AcDbLine
 10
765.1999782609
 20
313.3686488718
 30
0.0
 11
765.1999782609
 21
309.8686488718
 31
0.0
  0
LINE
  5
184
330
1F
100
AcDbEntity
  8
0
  6
Continuous
 62
     7
370
    25
100
AcDbLine
 10
765.1999782609
 20
309.8686488718
 30
0.0
 11
768.6999782609
 21
309.8686488718
 31
0.0
  0
LINE
  5
185
330
1F
100
AcDbEntity
  8
0
  6
Continuous
 62
     7
370
    25
100
AcDbLine
 10
768.6999782609
 20
309.8686488718
 30
0.0
 11
768.6999782609
 21
313.3686488718
 31
0.0
  0
LINE
  5
186
330
1F
100
AcDbEntity
  8
0
  6
Continuous
 62
     7
370
    25
100
AcDbLine
 10
768.6999782609
 20
313.3686488718
 30
0.0
 11
765.1999782609
 21
313.3686488718
 31
0.0
  0
LINE
  5
187
330
1F
100
AcDbEntity
  8
0
  6
Continuous
 62
     7
370
    25
100
AcDbLine
 10
716.1999782609
 20
308.6686488718
 30
0.0
 11
716.1999782609
 21
305.1686488718
 31
0.0
  0
LINE
  5
188
330
1F
100
AcDbEntity
  8
0
  6
Continuous
 62
     7
370
    25
100
AcDbLine
 10
716.1999782609
 20
305.1686488718
 30
0.0
 11
719.6999782609
 21
305.1686488718
 31
0.0
  0
LINE
  5
189
330
1F
100
AcDbEntity
  8
0
  6
Continuous
 62
     7
370
    25
100
AcDbLine
 10
719.6999782609
 20
305.1686488718
 30
0.0
 11
719.6999782609
 21
308.6686488718
 31
0.0
  0
LINE
  5
18A
330
1F
100
AcDbEntity
  8
0
  6
Continuous
 62
     7
370
    25
100
AcDbLine
 10
719.6999782609
 20
308.6686488718
 30
0.0
 11
716.1999782609
 21
308.6686488718
 31
0.0
  0
LINE
  5
18B
330
1F
100
AcDbEntity
  8
0
  6
Continuous
 62
     7
370
    25
100
AcDbLine
 10
721.0999782609
 20
308.6686488718
 30
0.0
 11
721.0999782609
 21
305.1686488718
 31
0.0
  0
LINE
  5
18C
330
1F
100
AcDbEntity
  8
0
  6
Continuous
 62
     7
370
    25
100
AcDbLine
 10
721.0999782609
 20
305.1686488718
 30
0.0
 11
724.5999782609
 21
305.1686488718
 31
0.0
  0
LINE
  5
18D
330
1F
100
AcDbEntity
  8
0
  6
Continuous
 62
     7
370
    25
100
AcDbLine
 10
724.5999782609
 20
305.1686488718
 30
0.0
 11
724.5999782609
 21
308.6686488718
 31
0.0
  0
LINE
  5
18E
330
1F
100
AcDbEntity
  8
0
  6
Continuous
 62
     7
370
    25
100
AcDbLine
 10
724.5999782609
 20
308.6686488718
 30
0.0
 11
721.0999782609
 21
308.6686488718
 31
0.0
  0
LINE
  5
18F
330
1F
100
AcDbEntity
  8
0
  6
Continuous
 62
     7
370
    25
100
AcDbLine
 10
725.9999782609
 20
308.6686488718
 30
0.0
 11
725.9999782609
 21
305.1686488718
 31
0.0
  0
LINE
  5
190
330
1F
100
AcDbEntity
  8
0
  6
Continuous
 62
     7
370
    25
100
AcDbLine
 10
725.9999782609
 20
305.1686488718
 30
0.0
 11
729.4999782609
 21
305.1686488718
 31
0.0
  0
LINE
  5
191
330
1F
100
AcDbEntity
  8
0
  6
Continuous
 62
     7
370
    25
100
AcDbLine
 10
729.4999782609
 20
305.1686488718
 30
0.0
 11
729.4999782609
 21
308.6686488718
 31
0.0
  0
LINE
  5
192
330
1F
100
AcDbEntity
  8
0
  6
Continuous
 62
     7
370
    25
100
AcDbLine
 10
729.4999782609
 20
308.6686488718
 30
0.0
 11
725.9999782609
 21
308.6686488718
 31
0.0
  0
LINE
  5
193
330
1F
100
AcDbEntity
  8
0
  6
Continuous
 62
     7
370
    25
100
AcDbLine
 10
730.8999782609
 20
308.6686488718
 30
0.0
 11
730.8999782609
 21
305.1686488718
 31
0.0
  0
LINE
  5
194
330
1F
100
AcDbEntity
  8
0
  6
Continuous
 62
     7
370
    25
100
AcDbLine
 10
730.8999782609
 20
305.1686488718
 30
0.0
 11
734.3999782609
 21
305.1686488718
 31
0.0
  0
LINE
  5
195
330
1F
100
AcDbEntity
  8
0
  6
Continuous
 62
     7
370
    25
100
AcDbLine
 10
734.3999782609
 20
305.1686488718
 30
0.0
 11
734.3999782609
 21
308.6686488718
 31
0.0
  0
LINE
  5
196
330
1F
100
AcDbEntity
  8
0
  6
Continuous
 62
     7
370
    25
100
AcDbLine
 10
734.3999782609
 20
308.6686488718
 30
0.0
 11
730.8999782609
 21
308.6686488718
 31
0.0
  0
LINE
  5
197
330
1F
100
AcDbEntity
  8
0
  6
Continuous
 62
     7
370
    25
100
AcDbLine
 10
735.7999782609
 20
308.6686488718
 30
0.0
 11
735.7999782609
 21
305.1686488718
 31
0.0
  0
LINE
  5
198
330
1F
100
AcDbEntity
  8
0
  6
Continuous
 62
     7
370
    25
100
AcDbLine
 10
735.7999782609
 20
305.1686488718
 30
0.0
 11
739.2999782609
 21
305.1686488718
 31
0.0
  0
LINE
  5
199
330
1F
100
AcDbEntity
  8
0
  6
Continuous
 62
     7
370
    25
100
AcDbLine
 10
739.2999782609
 20
305.1686488718
 30
0.0
 11
739.2999782609
 21
308.6686488718
 31
0.0
  0
LINE
  5
19A
330
1F
100
AcDbEntity
  8
0
  6
Continuous
 62
     7
370
    25
100
AcDbLine
 10
739.2999782609
 20
308.6686488718
 30
0.0
 11
735.7999782609
 21
308.6686488718
 31
0.0
  0
LINE
  5
19B
330
1F
100
AcDbEntity
  8
0
  6
Continuous
 62
     7
370
    25
100
AcDbLine
 10
740.6999782609
 20
308.6686488718
 30
0.0
 11
740.6999782609
 21
305.1686488718
 31
0.0
  0
LINE
  5
19C
330
1F
100
AcDbEntity
  8
0
  6
Continuous
 62
     7
370
    25
100
AcDbLine
 10
740.6999782609
 20
305.1686488718
 30
0.0
 11
744.1999782609
 21
305.1686488718
 31
0.0
  0
LINE
  5
19D
330
1F
100
AcDbEntity
  8
0
  6
Continuous
 62
     7
370
    25
100
AcDbLine
 10
744.1999782609
 20
305.1686488718
 30
0.0
 11
744.1999782609
 21
308.6686488718
 31
0.0
  0
LINE
  5
19E
330
1F
100
AcDbEntity
  8
0
  6
Continuous
 62
     7
370
    25
100
AcDbLine
 10
744.1999782609
 20
308.6686488718
 30
0.0
 11
740.6999782609
 21
308.6686488718
 31
0.0
  0
LINE
  5
19F
330
1F
100
AcDbEntity
  8
0
  6
Continuous
 62
     7
370
    25
100
AcDbLine
 10
745.5999782609
 20
308.6686488718
 30
0.0
 11
745.5999782609
 21
305.1686488718
 31
0.0
  0
LINE
  5
1A0
330
1F
100
AcDbEntity
  8
0
  6
Continuous
 62
     7
370
    25
100
AcDbLine
 10
745.5999782609
 20
305.1686488718
 30
0.0
 11
749.0999782609
 21
305.1686488718
 31
0.0
  0
LINE
  5
1A1
330
1F
100
AcDbEntity
  8
0
  6
Continuous
 62
     7
370
    25
100
AcDbLine
 10
749.0999782609
 20
305.1686488718
 30
0.0
 11
749.0999782609
 21
308.6686488718
 31
0.0
  0
LINE
  5
1A2
330
1F
100
AcDbEntity
  8
0
  6
Continuous
 62
     7
370
    25
100
AcDbLine
 10
749.0999782609
 20
308.6686488718
 30
0.0
 11
745.5999782609
 21
308.6686488718
 31
0.0
  0
LINE
  5
1A3
330
1F
100
AcDbEntity
  8
0
  6
Continuous
 62
     7
370
    25
100
AcDbLine
 10
750.4999782609
 20
308.6686488718
 30
0.0
 11
750.4999782609
 21
305.1686488718
 31
0.0
  0
LINE
  5
1A4
330
1F
100
AcDbEntity
  8
0
  6
Continuous
 62
     7
370
    25
100
AcDbLine
 10
750.4999782609
 20
305.1686488718
 30
0.0
 11
753.9999782609
 21
305.1686488718
 31
0.0
  0
LINE
  5
1A5
330
1F
100
AcDbEntity
  8
0
  6
Continuous
 62
     7
370
    25
100
AcDbLine
 10
753.9999782609
 20
305.1686488718
 30
0.0
 11
753.9999782609
 21
308.6686488718
 31
0.0
  0
LINE
  5
1A6
330
1F
100
AcDbEntity
  8
0
  6
Continuous
 62
     7
370
    25
100
AcDbLine
 10
753.9999782609
 20
308.6686488718
 30
0.0
 11
750.4999782609
 21
308.6686488718
 31
0.0
  0
LINE
  5
1A7
330
1F
100
AcDbEntity
  8
0
  6
Continuous
 62
     7
370
    25
100
AcDbLine
 10
755.3999782609
 20
308.6686488718
 30
0.0
 11
755.3999782609
 21
305.1686488718
 31
0.0
  0
LINE
  5
1A8
330
1F
100
AcDbEntity
  8
0
  6
Continuous
 62
     7
370
    25
100
AcDbLine
 10
755.3999782609
 20
305.1686488718
 30
0.0
 11
758.8999782609
 21
305.1686488718
 31
0.0
  0
LINE
  5
1A9
330
1F
100
AcDbEntity
  8
0
  6
Continuous
 62
     7
370
    25
100
AcDbLine
 10
758.8999782609
 20
305.1686488718
 30
0.0
 11
758.8999782609
 21
308.6686488718
 31
0.0
  0
LINE
  5
1AA
330
1F
100
AcDbEntity
  8
0
  6
Continuous
 62
     7
370
    25
100
AcDbLine
 10
758.8999782609
 20
308.6686488718
 30
0.0
 11
755.3999782609
 21
308.6686488718
 31
0.0
  0
LINE
  5
1AB
330
1F
100
AcDbEntity
  8
0
  6
Continuous
 62
     7
370
    25
100
AcDbLine
 10
760.2999782609
 20
308.6686488718
 30
0.0
 11
760.2999782609
 21
305.1686488718
 31
0.0
  0
LINE
  5
1AC
330
1F
100
AcDbEntity
  8
0
  6
Continuous
 62
     7
370
    25
100
AcDbLine
 10
760.2999782609
 20
305.1686488718
 30
0.0
 11
763.7999782609
 21
305.1686488718
 31
0.0
  0
LINE
  5
1AD
330
1F
100
AcDbEntity
  8
0
  6
Continuous
 62
     7
370
    25
100
AcDbLine
 10
763.7999782609
 20
305.1686488718
 30
0.0
 11
763.7999782609
 21
308.6686488718
 31
0.0
  0
LINE
  5
1AE
330
1F
100
AcDbEntity
  8
0
  6
Continuous
 62
     7
370
    25
100
AcDbLine
 10
763.7999782609
 20
308.6686488718
 30
0.0
 11
760.2999782609
 21
308.6686488718
 31
0.0
  0
LINE
  5
1AF
330
1F
100
AcDbEntity
  8
0
  6
Continuous
 62
     7
370
    25
100
AcDbLine
 10
765.1999782609
 20
308.6686488718
 30
0.0
 11
765.1999782609
 21
305.1686488718
 31
0.0
  0
LINE
  5
1B0
330
1F
100
AcDbEntity
  8
0
  6
Continuous
 62
     7
370
    25
100
AcDbLine
 10
765.1999782609
 20
305.1686488718
 30
0.0
 11
768.6999782609
 21
305.1686488718
 31
0.0
  0
LINE
  5
1B1
330
1F
100
AcDbEntity
  8
0
  6
Continuous
 62
     7
370
    25
100
AcDbLine
 10
768.6999782609
 20
305.1686488718
 30
0.0
 11
768.6999782609
 21
308.6686488718
 31
0.0
  0
LINE
  5
1B2
330
1F
100
AcDbEntity
  8
0
  6
Continuous
 62
     7
370
    25
100
AcDbLine
 10
768.6999782609
 20
308.6686488718
 30
0.0
 11
765.1999782609
 21
308.6686488718
 31
0.0
  0
LINE
  5
1B3
330
1F
100
AcDbEntity
  8
0
  6
Continuous
 62
     7
370
    25
100
AcDbLine
 10
716.1999782609
 20
303.9686488718
 30
0.0
 11
716.1999782609
 21
300.4686488718
 31
0.0
  0
LINE
  5
1B4
330
1F
100
AcDbEntity
  8
0
  6
Continuous
 62
     7
370
    25
100
AcDbLine
 10
716.1999782609
 20
300.4686488718
 30
0.0
 11
719.6999782609
 21
300.4686488718
 31
0.0
  0
LINE
  5
1B5
330
1F
100
AcDbEntity
  8
0
  6
Continuous
 62
     7
370
    25
100
AcDbLine
 10
719.6999782609
 20
300.4686488718
 30
0.0
 11
719.6999782609
 21
303.9686488718
 31
0.0
  0
LINE
  5
1B6
330
1F
100
AcDbEntity
  8
0
  6
Continuous
 62
     7
370
    25
100
AcDbLine
 10
719.6999782609
 20
303.9686488718
 30
0.0
 11
716.1999782609
 21
303.9686488718
 31
0.0
  0
LINE
  5
1B7
330
1F
100
AcDbEntity
  8
0
  6
Continuous
 62
     7
370
    25
100
AcDbLine
 10
721.0999782609
 20
303.9686488718
 30
0.0
 11
721.0999782609
 21
300.4686488718
 31
0.0
  0
LINE
  5
1B8
330
1F
100
AcDbEntity
  8
0
  6
Continuous
 62
     7
370
    25
100
AcDbLine
 10
721.0999782609
 20
300.4686488718
 30
0.0
 11
724.5999782609
 21
300.4686488718
 31
0.0
  0
LINE
  5
1B9
330
1F
100
AcDbEntity
  8
0
  6
Continuous
 62
     7
370
    25
100
AcDbLine
 10
724.5999782609
 20
300.4686488718
 30
0.0
 11
724.5999782609
 21
303.9686488718
 31
0.0
  0
LINE
  5
1BA
330
1F
100
AcDbEntity
  8
0
  6
Continuous
 62
     7
370
    25
100
AcDbLine
 10
724.5999782609
 20
303.9686488718
 30
0.0
 11
721.0999782609
 21
303.9686488718
 31
0.0
  0
LINE
  5
1BB
330
1F
100
AcDbEntity
  8
0
  6
Continuous
 62
     7
370
    25
100
AcDbLine
 10
725.9999782609
 20
303.9686488718
 30
0.0
 11
725.9999782609
 21
300.4686488718
 31
0.0
  0
LINE
  5
1BC
330
1F
100
AcDbEntity
  8
0
  6
Continuous
 62
     7
370
    25
100
AcDbLine
 10
725.9999782609
 20
300.4686488718
 30
0.0
 11
729.4999782609
 21
300.4686488718
 31
0.0
  0
LINE
  5
1BD
330
1F
100
AcDbEntity
  8
0
  6
Continuous
 62
     7
370
    25
100
AcDbLine
 10
729.4999782609
 20
300.4686488718
 30
0.0
 11
729.4999782609
 21
303.9686488718
 31
0.0
  0
LINE
  5
1BE
330
1F
100
AcDbEntity
  8
0
  6
Continuous
 62
     7
370
    25
100
AcDbLine
 10
729.4999782609
 20
303.9686488718
 30
0.0
 11
725.9999782609
 21
303.9686488718
 31
0.0
  0
LINE
  5
1BF
330
1F
100
AcDbEntity
  8
0
  6
Continuous
 62
     7
370
    25
100
AcDbLine
 10
730.8999782609
 20
303.9686488718
 30
0.0
 11
730.8999782609
 21
300.4686488718
 31
0.0
  0
LINE
  5
1C0
330
1F
100
AcDbEntity
  8
0
  6
Continuous
 62
     7
370
    25
100
AcDbLine
 10
730.8999782609
 20
300.4686488718
 30
0.0
 11
734.3999782609
 21
300.4686488718
 31
0.0
  0
LINE
  5
1C1
330
1F
100
AcDbEntity
  8
0
  6
Continuous
 62
     7
370
    25
100
AcDbLine
 10
734.3999782609
 20
300.4686488718
 30
0.0
 11
734.3999782609
 21
303.9686488718
 31
0.0
  0
LINE
  5
1C2
330
1F
100
AcDbEntity
  8
0
  6
Continuous
 62
     7
370
    25
100
AcDbLine
 10
734.3999782609
 20
303.9686488718
 30
0.0
 11
730.8999782609
 21
303.9686488718
 31
0.0
  0
LINE
  5
1C3
330
1F
100
AcDbEntity
  8
0
  6
Continuous
 62
     7
370
    25
100
AcDbLine
 10
716.1999782609
 20
299.2686488718
 30
0.0
 11
716.1999782609
 21
295.7686488718
 31
0.0
  0
LINE
  5
1C4
330
1F
100
AcDbEntity
  8
0
  6
Continuous
 62
     7
370
    25
100
AcDbLine
 10
716.1999782609
 20
295.7686488718
 30
0.0
 11
719.6999782609
 21
295.7686488718
 31
0.0
  0
LINE
  5
1C5
330
1F
100
AcDbEntity
  8
0
  6
Continuous
 62
     7
370
    25
100
AcDbLine
 10
719.6999782609
 20
295.7686488718
 30
0.0
 11
719.6999782609
 21
299.2686488718
 31
0.0
  0
LINE
  5
1C6
330
1F
100
AcDbEntity
  8
0
  6
Continuous
 62
     7
370
    25
100
AcDbLine
 10
719.6999782609
 20
299.2686488718
 30
0.0
 11
716.1999782609
 21
299.2686488718
 31
0.0
  0
LINE
  5
1C7
330
1F
100
AcDbEntity
  8
0
  6
Continuous
 62
     7
370
    25
100
AcDbLine
 10
721.0999782609
 20
299.2686488718
 30
0.0
 11
721.0999782609
 21
295.7686488718
 31
0.0
  0
LINE
  5
1C8
330
1F
100
AcDbEntity
  8
0
  6
Continuous
 62
     7
370
    25
100
AcDbLine
 10
721.0999782609
 20
295.7686488718
 30
0.0
 11
724.5999782609
 21
295.7686488718
 31
0.0
  0
LINE
  5
1C9
330
1F
100
AcDbEntity
  8
0
  6
Continuous
 62
     7
370
    25
100
AcDbLine
 10
724.5999782609
 20
295.7686488718
 30
0.0
 11
724.5999782609
 21
299.2686488718
 31
0.0
  0
LINE
  5
1CA
330
1F
100
AcDbEntity
  8
0
  6
Continuous
 62
     7
370
    25
100
AcDbLine
 10
724.5999782609
 20
299.2686488718
 30
0.0
 11
721.0999782609
 21
299.2686488718
 31
0.0
  0
LINE
  5
1CB
330
1F
100
AcDbEntity
  8
0
  6
Continuous
 62
     7
370
    25
100
AcDbLine
 10
725.9999782609
 20
299.2686488718
 30
0.0
 11
725.9999782609
 21
295.7686488718
 31
0.0
  0
LINE
  5
1CC
330
1F
100
AcDbEntity
  8
0
  6
Continuous
 62
     7
370
    25
100
AcDbLine
 10
725.9999782609
 20
295.7686488718
 30
0.0
 11
729.4999782609
 21
295.7686488718
 31
0.0
  0
LINE
  5
1CD
330
1F
100
AcDbEntity
  8
0
  6
Continuous
 62
     7
370
    25
100
AcDbLine
 10
729.4999782609
 20
295.7686488718
 30
0.0
 11
729.4999782609
 21
299.2686488718
 31
0.0
  0
LINE
  5
1CE
330
1F
100
AcDbEntity
  8
0
  6
Continuous
 62
     7
370
    25
100
AcDbLine
 10
729.4999782609
 20
299.2686488718
 30
0.0
 11
725.9999782609
 21
299.2686488718
 31
0.0
  0
LINE
  5
1CF
330
1F
100
AcDbEntity
  8
0
  6
Continuous
 62
     7
370
    25
100
AcDbLine
 10
730.8999782609
 20
299.2686488718
 30
0.0
 11
730.8999782609
 21
295.7686488718
 31
0.0
  0
LINE
  5
1D0
330
1F
100
AcDbEntity
  8
0
  6
Continuous
 62
     7
370
    25
100
AcDbLine
 10
730.8999782609
 20
295.7686488718
 30
0.0
 11
734.3999782609
 21
295.7686488718
 31
0.0
  0
LINE
  5
1D1
330
1F
100
AcDbEntity
  8
0
  6
Continuous
 62
     7
370
    25
100
AcDbLine
 10
734.3999782609
 20
295.7686488718
 30
0.0
 11
734.3999782609
 21
299.2686488718
 31
0.0
  0
LINE
  5
1D2
330
1F
100
AcDbEntity
  8
0
  6
Continuous
 62
     7
370
    25
100
AcDbLine
 10
734.3999782609
 20
299.2686488718
 30
0.0
 11
730.8999782609
 21
299.2686488718
 31
0.0
  0
LINE
  5
1D3
330
1F
100
AcDbEntity
  8
0
  6
Continuous
 62
     7
370
    25
100
AcDbLine
 10
716.1999782609
 20
294.5686488718
 30
0.0
 11
716.1999782609
 21
291.0686488718
 31
0.0
  0
LINE
  5
1D4
330
1F
100
AcDbEntity
  8
0
  6
Continuous
 62
     7
370
    25
100
AcDbLine
 10
716.1999782609
 20
291.0686488718
 30
0.0
 11
719.6999782609
 21
291.0686488718
 31
0.0
  0
LINE
  5
1D5
330
1F
100
AcDbEntity
  8
0
  6
Continuous
 62
     7
370
    25
100
AcDbLine
 10
719.6999782609
 20
291.0686488718
 30
0.0
 11
719.6999782609
 21
294.5686488718
 31
0.0
  0
LINE
  5
1D6
330
1F
100
AcDbEntity
  8
0
  6
Continuous
 62
     7
370
    25
100
AcDbLine
 10
719.6999782609
 20
294.5686488718
 30
0.0
 11
716.1999782609
 21
294.5686488718
 31
0.0
  0
LINE
  5
1D7
330
1F
100
AcDbEntity
  8
0
  6
Continuous
 62
     7
370
    25
100
AcDbLine
 10
721.0999782609
 20
294.5686488718
 30
0.0
 11
721.0999782609
 21
291.0686488718
 31
0.0
  0
LINE
  5
1D8
330
1F
100
AcDbEntity
  8
0
  6
Continuous
 62
     7
370
    25
100
AcDbLine
 10
721.0999782609
 20
291.0686488718
 30
0.0
 11
724.5999782609
 21
291.0686488718
 31
0.0
  0
LINE
  5
1D9
330
1F
100
AcDbEntity
  8
0
  6
Continuous
 62
     7
370
    25
100
AcDbLine
 10
724.5999782609
 20
291.0686488718
 30
0.0
 11
724.5999782609
 21
294.5686488718
 31
0.0
  0
LINE
  5
1DA
330
1F
100
AcDbEntity
  8
0
  6
Continuous
 62
     7
370
    25
100
AcDbLine
 10
724.5999782609
 20
294.5686488718
 30
0.0
 11
721.0999782609
 21
294.5686488718
 31
0.0
  0
LINE
  5
1DB
330
1F
100
AcDbEntity
  8
0
  6
Continuous
 62
     7
370
    25
100
AcDbLine
 10
725.9999782609
 20
294.5686488718
 30
0.0
 11
725.9999782609
 21
291.0686488718
 31
0.0
  0
LINE
  5
1DC
330
1F
100
AcDbEntity
  8
0
  6
Continuous
 62
     7
370
    25
100
AcDbLine
 10
725.9999782609
 20
291.0686488718
 30
0.0
 11
729.4999782609
 21
291.0686488718
 31
0.0
  0
LINE
  5
1DD
330
1F
100
AcDbEntity
  8
0
  6
Continuous
 62
     7
370
    25
100
AcDbLine
 10
729.4999782609
 20
291.0686488718
 30
0.0
 11
729.4999782609
 21
294.5686488718
 31
0.0
  0
LINE
  5
1DE
330
1F
100
AcDbEntity
  8
0
  6
Continuous
 62
     7
370
    25
100
AcDbLine
 10
729.4999782609
 20
294.5686488718
 30
0.0
 11
725.9999782609
 21
294.5686488718
 31
0.0
  0
LINE
  5
1DF
330
1F
100
AcDbEntity
  8
0
  6
Continuous
 62
     7
370
    25
100
AcDbLine
 10
730.8999782609
 20
294.5686488718
 30
0.0
 11
730.8999782609
 21
291.0686488718
 31
0.0
  0
LINE
  5
1E0
330
1F
100
AcDbEntity
  8
0
  6
Continuous
 62
     7
370
    25
100
AcDbLine
 10
730.8999782609
 20
291.0686488718
 30
0.0
 11
734.3999782609
 21
291.0686488718
 31
0.0
  0
LINE
  5
1E1
330
1F
100
AcDbEntity
  8
0
  6
Continuous
 62
     7
370
    25
100
AcDbLine
 10
734.3999782609
 20
291.0686488718
 30
0.0
 11
734.3999782609
 21
294.5686488718
 31
0.0
  0
LINE
  5
1E2
330
1F
100
AcDbEntity
  8
0
  6
Continuous
 62
     7
370
    25
100
AcDbLine
 10
734.3999782609
 20
294.5686488718
 30
0.0
 11
730.8999782609
 21
294.5686488718
 31
0.0
  0
LINE
  5
1E3
330
1F
100
AcDbEntity
  8
0
  6
Continuous
 62
     7
370
    25
100
AcDbLine
 10
716.1999782609
 20
289.8686488718
 30
0.0
 11
716.1999782609
 21
286.3686488718
 31
0.0
  0
LINE
  5
1E4
330
1F
100
AcDbEntity
  8
0
  6
Continuous
 62
     7
370
    25
100
AcDbLine
 10
716.1999782609
 20
286.3686488718
 30
0.0
 11
719.6999782609
 21
286.3686488718
 31
0.0
  0
LINE
  5
1E5
330
1F
100
AcDbEntity
  8
0
  6
Continuous
 62
     7
370
    25
100
AcDbLine
 10
719.6999782609
 20
286.3686488718
 30
0.0
 11
719.6999782609
 21
289.8686488718
 31
0.0
  0
LINE
  5
1E6
330
1F
100
AcDbEntity
  8
0
  6
Continuous
 62
     7
370
    25
100
AcDbLine
 10
719.6999782609
 20
289.8686488718
 30
0.0
 11
716.1999782609
 21
289.8686488718
 31
0.0
  0
LINE
  5
1E7
330
1F
100
AcDbEntity
  8
0
  6
Continuous
 62
     7
370
    25
100
AcDbLine
 10
721.0999782609
 20
289.8686488718
 30
0.0
 11
721.0999782609
 21
286.3686488718
 31
0.0
  0
LINE
  5
1E8
330
1F
100
AcDbEntity
  8
0
  6
Continuous
 62
     7
370
    25
100
AcDbLine
 10
721.0999782609
 20
286.3686488718
 30
0.0
 11
724.5999782609
 21
286.3686488718
 31
0.0
  0
LINE
  5
1E9
330
1F
100
AcDbEntity
  8
0
  6
Continuous
 62
     7
370
    25
100
AcDbLine
 10
724.5999782609
 20
286.3686488718
 30
0.0
 11
724.5999782609
 21
289.8686488718
 31
0.0
  0
LINE
  5
1EA
330
1F
100
AcDbEntity
  8
0
  6
Continuous
 62
     7
370
    25
100
AcDbLine
 10
724.5999782609
 20
289.8686488718
 30
0.0
 11
721.0999782609
 21
289.8686488718
 31
0.0
  0
LINE
  5
1EB
330
1F
100
AcDbEntity
  8
0
  6
Continuous
 62
     7
370
    25
100
AcDbLine
 10
725.9999782609
 20
289.8686488718
 30
0.0
 11
725.9999782609
 21
286.3686488718
 31
0.0
  0
LINE
  5
1EC
330
1F
100
AcDbEntity
  8
0
  6
Continuous
 62
     7
370
    25
100
AcDbLine
 10
725.9999782609
 20
286.3686488718
 30
0.0
 11
729.4999782609
 21
286.3686488718
 31
0.0
  0
LINE
  5
1ED
330
1F
100
AcDbEntity
  8
0
  6
Continuous
 62
     7
370
    25
100
AcDbLine
 10
729.4999782609
 20
286.3686488718
 30
0.0
 11
729.4999782609
 21
289.8686488718
 31
0.0
  0
LINE
  5
1EE
330
1F
100
AcDbEntity
  8
0
  6
Continuous
 62
     7
370
    25
100
AcDbLine
 10
729.4999782609
 20
289.8686488718
 30
0.0
 11
725.9999782609
 21
289.8686488718
 31
0.0
  0
LINE
  5
1EF
330
1F
100
AcDbEntity
  8
0
  6
Continuous
 62
     7
370
    25
100
AcDbLine
 10
730.8999782609
 20
289.8686488718
 30
0.0
 11
730.8999782609
 21
286.3686488718
 31
0.0
  0
LINE
  5
1F0
330
1F
100
AcDbEntity
  8
0
  6
Continuous
 62
     7
370
    25
100
AcDbLine
 10
730.8999782609
 20
286.3686488718
 30
0.0
 11
734.3999782609
 21
286.3686488718
 31
0.0
  0
LINE
  5
1F1
330
1F
100
AcDbEntity
  8
0
  6
Continuous
 62
     7
370
    25
100
AcDbLine
 10
734.3999782609
 20
286.3686488718
 30
0.0
 11
734.3999782609
 21
289.8686488718
 31
0.0
  0
LINE
  5
1F2
330
1F
100
AcDbEntity
  8
0
  6
Continuous
 62
     7
370
    25
100
AcDbLine
 10
734.3999782609
 20
289.8686488718
 30
0.0
 11
730.8999782609
 21
289.8686488718
 31
0.0
  0
LINE
  5
1F3
330
1F
100
AcDbEntity
  8
0
  6
Continuous
 62
     7
370
    25
100
AcDbLine
 10
716.1999782609
 20
285.1686488718
 30
0.0
 11
716.1999782609
 21
281.6686488718
 31
0.0
  0
LINE
  5
1F4
330
1F
100
AcDbEntity
  8
0
  6
Continuous
 62
     7
370
    25
100
AcDbLine
 10
716.1999782609
 20
281.6686488718
 30
0.0
 11
719.6999782609
 21
281.6686488718
 31
0.0
  0
LINE
  5
1F5
330
1F
100
AcDbEntity
  8
0
  6
Continuous
 62
     7
370
    25
100
AcDbLine
 10
719.6999782609
 20
281.6686488718
 30
0.0
 11
719.6999782609
 21
285.1686488718
 31
0.0
  0
LINE
  5
1F6
330
1F
100
AcDbEntity
  8
0
  6
Continuous
 62
     7
370
    25
100
AcDbLine
 10
719.6999782609
 20
285.1686488718
 30
0.0
 11
716.1999782609
 21
285.1686488718
 31
0.0
  0
LINE
  5
1F7
330
1F
100
AcDbEntity
  8
0
  6
Continuous
 62
     7
370
    25
100
AcDbLine
 10
721.0999782609
 20
285.1686488718
 30
0.0
 11
721.0999782609
 21
281.6686488718
 31
0.0
  0
LINE
  5
1F8
330
1F
100
AcDbEntity
  8
0
  6
Continuous
 62
     7
370
    25
100
AcDbLine
 10
721.0999782609
 20
281.6686488718
 30
0.0
 11
724.5999782609
 21
281.6686488718
 31
0.0
  0
LINE
  5
1F9
330
1F
100
AcDbEntity
  8
0
  6
Continuous
 62
     7
370
    25
100
AcDbLine
 10
724.5999782609
 20
281.6686488718
 30
0.0
 11
724.5999782609
 21
285.1686488718
 31
0.0
  0
LINE
  5
1FA
330
1F
100
AcDbEntity
  8
0
  6
Continuous
 62
     7
370
    25
100
AcDbLine
 10
724.5999782609
 20
285.1686488718
 30
0.0
 11
721.0999782609
 21
285.1686488718
 31
0.0
  0
LINE
  5
1FB
330
1F
100
AcDbEntity
  8
0
  6
Continuous
 62
     7
370
    25
100
AcDbLine
 10
725.9999782609
 20
285.1686488718
 30
0.0
 11
725.9999782609
 21
281.6686488718
 31
0.0
  0
LINE
  5
1FC
330
1F
100
AcDbEntity
  8
0
  6
Continuous
 62
     7
370
    25
100
AcDbLine
 10
725.9999782609
 20
281.6686488718
 30
0.0
 11
729.4999782609
 21
281.6686488718
 31
0.0
  0
LINE
  5
1FD
330
1F
100
AcDbEntity
  8
0
  6
Continuous
 62
     7
370
    25
100
AcDbLine
 10
729.4999782609
 20
281.6686488718
 30
0.0
 11
729.4999782609
 21
285.1686488718
 31
0.0
  0
LINE
  5
1FE
330
1F
100
AcDbEntity
  8
0
  6
Continuous
 62
     7
370
    25
100
AcDbLine
 10
729.4999782609
 20
285.1686488718
 30
0.0
 11
725.9999782609
 21
285.1686488718
 31
0.0
  0
LINE
  5
1FF
330
1F
100
AcDbEntity
  8
0
  6
Continuous
 62
     7
370
    25
100
AcDbLine
 10
730.8999782609
 20
285.1686488718
 30
0.0
 11
730.8999782609
 21
281.6686488718
 31
0.0
  0
LINE
  5
200
330
1F
100
AcDbEntity
  8
0
  6
Continuous
 62
     7
370
    25
100
AcDbLine
 10
730.8999782609
 20
281.6686488718
 30
0.0
 11
734.3999782609
 21
281.6686488718
 31
0.0
  0
LINE
  5
201
330
1F
100
AcDbEntity
  8
0
  6
Continuous
 62
     7
370
    25
100
AcDbLine
 10
734.3999782609
 20
281.6686488718
 30
0.0
 11
734.3999782609
 21
285.1686488718
 31
0.0
  0
LINE
  5
202
330
1F
100
AcDbEntity
  8
0
  6
Continuous
 62
     7
370
    25
100
AcDbLine
 10
734.3999782609
 20
285.1686488718
 30
0.0
 11
730.8999782609
 21
285.1686488718
 31
0.0
  0
LINE
  5
203
330
1F
100
AcDbEntity
  8
0
  6
Continuous
 62
     7
370
    25
100
AcDbLine
 10
816.0999782609
 20
309.8686488718
 30
0.0
 11
819.5999782609
 21
309.8686488718
 31
0.0
  0
LINE
  5
204
330
1F
100
AcDbEntity
  8
0
  6
Continuous
 62
     7
370
    25
100
AcDbLine
 10
819.5999782609
 20
309.8686488718
 30
0.0
 11
819.5999782609
 21
313.3686488718
 31
0.0
  0
LINE
  5
205
330
1F
100
AcDbEntity
  8
0
  6
Continuous
 62
     7
370
    25
100
AcDbLine
 10
819.5999782609
 20
313.3686488718
 30
0.0
 11
816.0999782609
 21
313.3686488718
 31
0.0
  0
LINE
  5
206
330
1F
100
AcDbEntity
  8
0
  6
Continuous
 62
     7
370
    25
100
AcDbLine
 10
816.0999782609
 20
313.3686488718
 30
0.0
 11
816.0999782609
 21
309.8686488718
 31
0.0
  0
LINE
  5
207
330
1F
100
AcDbEntity
  8
0
  6
Continuous
 62
     7
370
    25
100
AcDbLine
 10
816.0999782609
 20
305.1686488718
 30
0.0
 11
819.5999782609
 21
305.1686488718
 31
0.0
  0
LINE
  5
208
330
1F
100
AcDbEntity
  8
0
  6
Continuous
 62
     7
370
    25
100
AcDbLine
 10
819.5999782609
 20
305.1686488718
 30
0.0
 11
819.5999782609
 21
308.6686488718
 31
0.0
  0
LINE
  5
209
330
1F
100
AcDbEntity
  8
0
  6
Continuous
 62
     7
370
    25
100
AcDbLine
 10
819.5999782609
 20
308.6686488718
 30
0.0
 11
816.0999782609
 21
308.6686488718
 31
0.0
  0
LINE
  5
20A
330
1F
100
AcDbEntity
  8
0
  6
Continuous
 62
     7
370
    25
100
AcDbLine
 10
816.0999782609
 20
308.6686488718
 30
0.0
 11
816.0999782609
 21
305.1686488718
 31
0.0
  0
LINE
  5
20B
330
1F
100
AcDbEntity
  8
0
  6
Continuous
 62
     7
370
    25
100
AcDbLine
 10
816.0999782609
 20
300.4686488718
 30
0.0
 11
819.5999782609
 21
300.4686488718
 31
0.0
  0
LINE
  5
20C
330
1F
100
AcDbEntity
  8
0
  6
Continuous
 62
     7
370
    25
100
AcDbLine
 10
819.5999782609
 20
300.4686488718
 30
0.0
 11
819.5999782609
 21
303.9686488718
 31
0.0
  0
LINE
  5
20D
330
1F
100
AcDbEntity
  8
0
  6
Continuous
 62
     7
370
    25
100
AcDbLine
 10
819.5999782609
 20
303.9686488718
 30
0.0
 11
816.0999782609
 21
303.9686488718
 31
0.0
  0
LINE
  5
20E
330
1F
100
AcDbEntity
  8
0
  6
Continuous
 62
     7
370
    25
100
AcDbLine
 10
816.0999782609
 20
303.9686488718
 30
0.0
 11
816.0999782609
 21
300.4686488718
 31
0.0
  0
LINE
  5
20F
330
1F
100
AcDbEntity
  8
0
  6
Continuous
 62
     7
370
    25
100
AcDbLine
 10
816.0999782609
 20
295.7686488718
 30
0.0
 11
819.5999782609
 21
295.7686488718
 31
0.0
  0
LINE
  5
210
330
1F
100
AcDbEntity
  8
0
  6
Continuous
 62
     7
370
    25
100
AcDbLine
 10
819.5999782609
 20
295.7686488718
 30
0.0
 11
819.5999782609
 21
299.2686488718
 31
0.0
  0
LINE
  5
211
330
1F
100
AcDbEntity
  8
0
  6
Continuous
 62
     7
370
    25
100
AcDbLine
 10
819.5999782609
 20
299.2686488718
 30
0.0
 11
816.0999782609
 21
299.2686488718
 31
0.0
  0
LINE
  5
212
330
1F
100
AcDbEntity
  8
0
  6
Continuous
 62
     7
370
    25
100
AcDbLine
 10
816.0999782609
 20
299.2686488718
 30
0.0
 11
816.0999782609
 21
295.7686488718
 31
0.0
  0
LINE
  5
213
330
1F
100
AcDbEntity
  8
0
  6
Continuous
 62
     7
370
    25
100
AcDbLine
 10
816.0999782609
 20
291.0686488718
 30
0.0
 11
819.5999782609
 21
291.0686488718
 31
0.0
  0
LINE
  5
214
330
1F
100
AcDbEntity
  8
0
  6
Continuous
 62
     7
370
    25
100
AcDbLine
 10
819.5999782609
 20
291.0686488718
 30
0.0
 11
819.5999782609
 21
294.5686488718
 31
0.0
  0
LINE
  5
215
330
1F
100
AcDbEntity
  8
0
  6
Continuous
 62
     7
370
    25
100
AcDbLine
 10
819.5999782609
 20
294.5686488718
 30
0.0
 11
816.0999782609
 21
294.5686488718
 31
0.0
  0
LINE
  5
216
330
1F
100
AcDbEntity
  8
0
  6
Continuous
 62
     7
370
    25
100
AcDbLine
 10
816.0999782609
 20
294.5686488718
 30
0.0
 11
816.0999782609
 21
291.0686488718
 31
0.0
  0
LINE
  5
217
330
1F
100
AcDbEntity
  8
0
  6
Continuous
 62
     7
370
    25
100
AcDbLine
 10
816.0999782609
 20
286.3686488718
 30
0.0
 11
819.5999782609
 21
286.3686488718
 31
0.0
  0
LINE
  5
218
330
1F
100
AcDbEntity
  8
0
  6
Continuous
 62
     7
370
    25
100
AcDbLine
 10
819.5999782609
 20
286.3686488718
 30
0.0
 11
819.5999782609
 21
289.8686488718
 31
0.0
  0
LINE
  5
219
330
1F
100
AcDbEntity
  8
0
  6
Continuous
 62
     7
370
    25
100
AcDbLine
 10
819.5999782609
 20
289.8686488718
 30
0.0
 11
816.0999782609
 21
289.8686488718
 31
0.0
  0
LINE
  5
21A
330
1F
100
AcDbEntity
  8
0
  6
Continuous
 62
     7
370
    25
100
AcDbLine
 10
816.0999782609
 20
289.8686488718
 30
0.0
 11
816.0999782609
 21
286.3686488718
 31
0.0
  0
LINE
  5
21B
330
1F
100
AcDbEntity
  8
0
  6
Continuous
 62
     7
370
    25
100
AcDbLine
 10
816.0999782609
 20
281.6686488718
 30
0.0
 11
819.5999782609
 21
281.6686488718
 31
0.0
  0
LINE
  5
21C
330
1F
100
AcDbEntity
  8
0
  6
Continuous
 62
     7
370
    25
100
AcDbLine
 10
819.5999782609
 20
281.6686488718
 30
0.0
 11
819.5999782609
 21
285.1686488718
 31
0.0
  0
LINE
  5
21D
330
1F
100
AcDbEntity
  8
0
  6
Continuous
 62
     7
370
    25
100
AcDbLine
 10
819.5999782609
 20
285.1686488718
 30
0.0
 11
816.0999782609
 21
285.1686488718
 31
0.0
  0
LINE
  5
21E
330
1F
100
AcDbEntity
  8
0
  6
Continuous
 62
     7
370
    25
100
AcDbLine
 10
816.0999782609
 20
285.1686488718
 30
0.0
 11
816.0999782609
 21
281.6686488718
 31
0.0
  0
LINE
  5
21F
330
1F
100
AcDbEntity
  8
0
  6
Continuous
 62
     7
370
    25
100
AcDbLine
 10
713.3999782609
 20
317.3186488718
 30
0.0
 11
822.3999782609
 21
317.3186488718
 31
0.0
  0
LINE
  5
220
330
1F
100
AcDbEntity
  8
0
  6
Continuous
 62
     7
370
    25
100
AcDbLine
 10
822.3999782609
 20
274.9186488718
 30
0.0
 11
780.5999782609
 21
274.9186488718
 31
0.0
  0
LINE
  5
221
330
1F
100
AcDbEntity
  8
0
  6
Continuous
 62
     7
370
    25
100
AcDbLine
 10
774.5999782609
 20
274.9186488718
 30
0.0
 11
713.3999782609
 21
274.9186488718
 31
0.0
  0
LINE
  5
222
330
1F
100
AcDbEntity
  8
0
  6
Continuous
 62
     7
370
    25
100
AcDbLine
 10
822.3999782609
 20
317.3186488718
 30
0.0
 11
822.3999782609
 21
274.9186488718
 31
0.0
  0
LINE
  5
223
330
1F
100
AcDbEntity
  8
0
  6
Continuous
 62
     7
370
    25
100
AcDbLine
 10
813.4916098188
 20
309.3221941573
 30
0.0
 11
810.0649782609
 21
309.3221941573
 31
0.0
  0
LINE
  5
224
330
1F
100
AcDbEntity
  8
0
  6
Continuous
 62
     7
370
    25
100
AcDbLine
 10
810.0649782609
 20
309.3221941573
 30
0.0
 11
810.0649782609
 21
302.3018708598
 31
0.0
  0
LINE
  5
225
330
1F
100
AcDbEntity
  8
0
  6
Continuous
 62
     7
370
    25
100
AcDbLine
 10
810.0649782609
 20
302.3018708598
 30
0.0
 11
813.4916098188
 21
302.3018708598
 31
0.0
  0
LINE
  5
226
330
1F
100
AcDbEntity
  8
0
  6
Continuous
 62
     7
370
    25
100
AcDbLine
 10
809.5649782609
 20
302.3018708598
 30
0.0
 11
809.5649782609
 21
309.3221941573
 31
0.0
  0
LINE
  5
227
330
1F
100
AcDbEntity
  8
0
  6
Continuous
 62
     7
370
    25
100
AcDbLine
 10
809.5649782609
 20
309.3221941573
 30
0.0
 11
806.1521809168
 21
309.3221941573
 31
0.0
  0
LINE
  5
228
330
1F
100
AcDbEntity
  8
0
  6
Continuous
 62
     7
370
    25
100
AcDbLine
 10
806.1521809168
 20
309.3221941573
 30
0.0
 11
806.1521809168
 21
302.3018708598
 31
0.0
  0
LINE
  5
229
330
1F
100
AcDbEntity
  8
0
  6
Continuous
 62
     7
370
    25
100
AcDbLine
 10
806.1521809168
 20
302.3018708598
 30
0.0
 11
809.5649782609
 21
302.3018708598
 31
0.0
  0
LINE
  5
22A
330
1F
100
AcDbEntity
  8
0
  6
Continuous
 62
     7
370
    25
100
AcDbLine
 10
813.9149782609
 20
309.7403880022
 30
0.0
 11
805.7149782609
 21
309.7403880022
 31
0.0
  0
LINE
  5
22B
330
1F
100
AcDbEntity
  8
0
  6
Continuous
 62
     7
370
    25
100
AcDbLine
 10
805.7149782609
 20
309.7403880022
 30
0.0
 11
805.7149782609
 21
301.8969097413
 31
0.0
  0
LINE
  5
22C
330
1F
100
AcDbEntity
  8
0
  6
Continuous
 62
     7
370
    25
100
AcDbLine
 10
813.9149782609
 20
301.8969097413
 30
0.0
 11
813.9149782609
 21
309.7403880022
 31
0.0
  0
LINE
  5
22D
330
1F
100
AcDbEntity
  8
0
  6
Continuous
 62
     7
370
    25
100
AcDbLine
 10
805.7149782609
 20
301.8969097413
 30
0.0
 11
813.9149782609
 21
301.8969097413
 31
0.0
  0
LINE
  5
22E
330
1F
100
AcDbEntity
  8
0
  6
Continuous
 62
     7
370
    25
100
AcDbLine
 10
813.4916098188
 20
302.3018708598
 30
0.0
 11
813.4916098188
 21
309.3221941573
 31
0.0
  0
LINE
  5
22F
330
1F
100
AcDbEntity
  8
0
  6
Continuous
 62
     7
370
    25
100
AcDbLine
 10
813.4916098188
 20
281.6018708598
 30
0.0
 11
813.4916098188
 21
288.6221941573
 31
0.0
  0
LINE
  5
230
330
1F
100
AcDbEntity
  8
0
  6
Continuous
 62
     7
370
    25
100
AcDbLine
 10
813.4916098188
 20
288.6221941573
 30
0.0
 11
810.0649782609
 21
288.6221941573
 31
0.0
  0
LINE
  5
231
330
1F
100
AcDbEntity
  8
0
  6
Continuous
 62
     7
370
    25
100
AcDbLine
 10
810.0649782609
 20
288.6221941573
 30
0.0
 11
810.0649782609
 21
281.6018708598
 31
0.0
  0
LINE
  5
232
330
1F
100
AcDbEntity
  8
0
  6
Continuous
 62
     7
370
    25
100
AcDbLine
 10
810.0649782609
 20
281.6018708598
 30
0.0
 11
813.4916098188
 21
281.6018708598
 31
0.0
  0
LINE
  5
233
330
1F
100
AcDbEntity
  8
0
  6
Continuous
 62
     7
370
    25
100
AcDbLine
 10
809.5649782609
 20
281.6018708598
 30
0.0
 11
809.5649782609
 21
288.6221941573
 31
0.0
  0
LINE
  5
234
330
1F
100
AcDbEntity
  8
0
  6
Continuous
 62
     7
370
    25
100
AcDbLine
 10
809.5649782609
 20
288.6221941573
 30
0.0
 11
806.1521809168
 21
288.6221941573
 31
0.0
  0
LINE
  5
235
330
1F
100
AcDbEntity
  8
0
  6
Continuous
 62
     7
370
    25
100
AcDbLine
 10
806.1521809168
 20
288.6221941573
 30
0.0
 11
806.1521809168
 21
281.6018708598
 31
0.0
  0
LINE
  5
236
330
1F
100
AcDbEntity
  8
0
  6
Continuous
 62
     7
370
    25
100
AcDbLine
 10
806.1521809168
 20
281.6018708598
 30
0.0
 11
809.5649782609
 21
281.6018708598
 31
0.0
  0
LINE
  5
237
330
1F
100
AcDbEntity
  8
0
  6
Continuous
 62
     7
370
    25
100
AcDbLine
 10
813.9149782609
 20
289.0403880022
 30
0.0
 11
805.7149782609
 21
289.0403880022
 31
0.0
  0
LINE
  5
238
330
1F
100
AcDbEntity
  8
0
  6
Continuous
 62
     7
370
    25
100
AcDbLine
 10
813.9149782609
 20
281.1969097413
 30
0.0
 11
813.9149782609
 21
289.0403880022
 31
0.0
  0
LINE
  5
239
330
1F
100
AcDbEntity
  8
0
  6
Continuous
 62
     7
370
    25
100
AcDbLine
 10
805.7149782609
 20
281.1969097413
 30
0.0
 11
813.9149782609
 21
281.1969097413
 31
0.0
  0
LINE
  5
23A
330
1F
100
AcDbEntity
  8
0
  6
Continuous
 62
     7
370
    25
100
AcDbLine
 10
805.7149782609
 20
289.0403880022
 30
0.0
 11
805.7149782609
 21
281.1969097413
 31
0.0
  0
CIRCLE
  5
23B
330
1F
100
AcDbEntity
  8
0
  6
Continuous
 62
     7
370
    25
100
AcDbCircle
 10
811.7782940398
 20
305.8120325086
 30
0.0
 40
0.5000000000001137
  0
CIRCLE
  5
23C
330
1F
100
AcDbEntity
  8
0
  6
Continuous
 62
     7
370
    25
100
AcDbCircle
 10
811.7782940398
 20
285.1120325086
 30
0.0
 40
0.5000000000001137
  0
CIRCLE
  5
23D
330
1F
100
AcDbEntity
  8
0
  6
Continuous
 62
     7
370
    25
100
AcDbCircle
 10
807.8585795889
 20
285.1120325086
 30
0.0
 40
0.4999999999998863
  0
CIRCLE
  5
23E
330
1F
100
AcDbEntity
  8
0
  6
Continuous
 62
     7
370
    25
100
AcDbCircle
 10
807.8585795889
 20
305.8120325086
 30
0.0
 40
0.4999999999998863
  0
LINE
  5
23F
330
1F
100
AcDbEntity
  8
0
  6
Continuous
 62
     7
370
    25
100
AcDbLine
 10
801.5515326416
 20
308.0068462626
 30
0.0
 11
784.6499335725
 21
308.0068462626
 31
0.0
  0
LINE
  5
240
330
1F
100
AcDbEntity
  8
0
  6
Continuous
 62
     7
370
    25
100
AcDbLine
 10
784.6499335725
 20
308.0068462626
 30
0.0
 11
784.6499335725
 21
281.7699892817
 31
0.0
  0
LINE
  5
241
330
1F
100
AcDbEntity
  8
0
  6
Continuous
 62
     7
370
    25
100
AcDbLine
 10
799.0563495409
 20
297.9644656518
 30
0.0
 11
799.0563495409
 21
304.7644656518
 31
0.0
  0
LINE
  5
242
330
1F
100
AcDbEntity
  8
0
  6
Continuous
 62
     7
370
    25
100
AcDbLine
 10
799.0563495409
 20
304.7644656518
 30
0.0
 11
796.2496495409
 21
304.7644656518
 31
0.0
  0
LINE
  5
243
330
1F
100
AcDbEntity
  8
0
  6
Continuous
 62
     7
370
    25
100
AcDbLine
 10
796.2496495409
 20
304.7644656518
 30
0.0
 11
796.2496495409
 21
306.3644656518
 31
0.0
  0
LINE
  5
244
330
1F
100
AcDbEntity
  8
0
  6
Continuous
 62
     7
370
    25
100
AcDbLine
 10
796.2496495409
 20
306.3644656518
 30
0.0
 11
795.1300495409
 21
306.3644656518
 31
0.0
  0
LINE
  5
245
330
1F
100
AcDbEntity
  8
0
  6
Continuous
 62
     7
370
    25
100
AcDbLine
 10
795.1300495409
 20
306.3644656518
 30
0.0
 11
795.1300495409
 21
307.7868656518
 31
0.0
  0
LINE
  5
246
330
1F
100
AcDbEntity
  8
0
  6
Continuous
 62
     7
370
    25
100
AcDbLine
 10
795.1300495409
 20
307.7868656518
 30
0.0
 11
791.0700495409
 21
307.7868656518
 31
0.0
  0
LINE
  5
247
330
1F
100
AcDbEntity
  8
0
  6
Continuous
 62
     7
370
    25
100
AcDbLine
 10
791.0700495409
 20
307.7868656518
 30
0.0
 11
791.0700495409
 21
306.3644656518
 31
0.0
  0
LINE
  5
248
330
1F
100
AcDbEntity
  8
0
  6
Continuous
 62
     7
370
    25
100
AcDbLine
 10
791.0700495409
 20
306.3644656518
 30
0.0
 11
789.9504495409
 21
306.3644656518
 31
0.0
  0
LINE
  5
249
330
1F
100
AcDbEntity
  8
0
  6
Continuous
 62
     7
370
    25
100
AcDbLine
 10
789.9504495409
 20
306.3644656518
 30
0.0
 11
789.9504495409
 21
304.7644656518
 31
0.0
  0
LINE
  5
24A
330
1F
100
AcDbEntity
  8
0
  6
Continuous
 62
     7
370
    25
100
AcDbLine
 10
789.9504495409
 20
304.7644656518
 30
0.0
 11
787.1437495409
 21
304.7644656518
 31
0.0
  0
LINE
  5
24B
330
1F
100
AcDbEntity
  8
0
  6
Continuous
 62
     7
370
    25
100
AcDbLine
 10
787.1437495409
 20
304.7644656518
 30
0.0
 11
787.1437495409
 21
297.9644656518
 31
0.0
  0
LINE
  5
24C
330
1F
100
AcDbEntity
  8
0
  6
Continuous
 62
     7
370
    25
100
AcDbLine
 10
787.1437495409
 20
297.9644656518
 30
0.0
 11
799.0563495409
 21
297.9644656518
 31
0.0
  0
LINE
  5
24D
330
1F
100
AcDbEntity
  8
0
  6
Continuous
 62
     7
370
    25
100
AcDbLine
 10
799.0563495409
 20
284.5092656518
 30
0.0
 11
799.0563495409
 21
291.3092656518
 31
0.0
  0
LINE
  5
24E
330
1F
100
AcDbEntity
  8
0
  6
Continuous
 62
     7
370
    25
100
AcDbLine
 10
799.0563495409
 20
291.3092656518
 30
0.0
 11
787.1437495409
 21
291.3092656518
 31
0.0
  0
LINE
  5
24F
330
1F
100
AcDbEntity
  8
0
  6
Continuous
 62
     7
370
    25
100
AcDbLine
 10
787.1437495409
 20
291.3092656518
 30
0.0
 11
787.1437495409
 21
284.5092656518
 31
0.0
  0
LINE
  5
250
330
1F
100
AcDbEntity
  8
0
  6
Continuous
 62
     7
370
    25
100
AcDbLine
 10
787.1437495409
 20
284.5092656518
 30
0.0
 11
789.9504495409
 21
284.5092656518
 31
0.0
  0
LINE
  5
251
330
1F
100
AcDbEntity
  8
0
  6
Continuous
 62
     7
370
    25
100
AcDbLine
 10
789.9504495409
 20
284.5092656518
 30
0.0
 11
789.9504495409
 21
282.9092656547
 31
0.0
  0
LINE
  5
252
330
1F
100
AcDbEntity
  8
0
  6
Continuous
 62
     7
370
    25
100
AcDbLine
 10
789.9504495409
 20
282.9092656547
 30
0.0
 11
791.0700495409
 21
282.9092656547
 31
0.0
  0
LINE
  5
253
330
1F
100
AcDbEntity
  8
0
  6
Continuous
 62
     7
370
    25
100
AcDbLine
 10
791.0700495409
 20
282.9092656547
 30
0.0
 11
791.0700495409
 21
282.4218656518
 31
0.0
  0
LINE
  5
254
330
1F
100
AcDbEntity
  8
0
  6
Continuous
 62
     7
370
    25
100
AcDbLine
 10
791.0700495409
 20
282.4218656518
 30
0.0
 11
795.1300495409
 21
282.4218656518
 31
0.0
  0
LINE
  5
255
330
1F
100
AcDbEntity
  8
0
  6
Continuous
 62
     7
370
    25
100
AcDbLine
 10
795.1300495409
 20
282.4218656518
 30
0.0
 11
795.1300495409
 21
282.9092656547
 31
0.0
  0
LINE
  5
256
330
1F
100
AcDbEntity
  8
0
  6
Continuous
 62
     7
370
    25
100
AcDbLine
 10
795.1300495409
 20
282.9092656547
 30
0.0
 11
796.2496495409
 21
282.9092656547
 31
0.0
  0
LINE
  5
257
330
1F
100
AcDbEntity
  8
0
  6
Continuous
 62
     7
370
    25
100
AcDbLine
 10
796.2496495409
 20
282.9092656547
 30
0.0
 11
796.2496495409
 21
284.5092656518
 31
0.0
  0
LINE
  5
258
330
1F
100
AcDbEntity
  8
0
  6
Continuous
 62
     7
370
    25
100
AcDbLine
 10
796.2496495409
 20
284.5092656518
 30
0.0
 11
799.0563495409
 21
284.5092656518
 31
0.0
  0
LINE
  5
259
330
1F
100
AcDbEntity
  8
0
  6
Continuous
 62
     7
370
    25
100
AcDbLine
 10
784.6499335725
 20
281.7699892817
 30
0.0
 11
801.5515326416
 21
281.7699892817
 31
0.0
  0
LINE
  5
25A
330
1F
100
AcDbEntity
  8
0
  6
Continuous
 62
     7
370
    25
100
AcDbLine
 10
801.5515326416
 20
281.7699892817
 30
0.0
 11
801.5515326416
 21
308.0068462626
 31
0.0
  0
LINE
  5
25B
330
1F
100
AcDbEntity
  8
0
  6
Continuous
 62
     7
370
    25
100
AcDbLine
 10
763.2653160809
 20
294.3796853518
 30
0.0
 11
739.1353160809
 21
294.3796853518
 31
0.0
  0
LINE
  5
25C
330
1F
100
AcDbEntity
  8
0
  6
Continuous
 62
     7
370
    25
100
AcDbLine
 10
763.2653160809
 20
282.1096853574
 30
0.0
 11
763.2653160809
 21
294.3796853518
 31
0.0
  0
LINE
  5
25D
330
1F
100
AcDbEntity
  8
0
  6
Continuous
 62
     7
370
    25
100
AcDbLine
 10
739.1353160809
 20
282.1096853594
 30
0.0
 11
763.2653160809
 21
282.1096853574
 31
0.0
  0
LINE
  5
25E
330
1F
100
AcDbEntity
  8
0
  6
Continuous
 62
     7
370
    25
100
AcDbLine
 10
739.1353160809
 20
294.3796853518
 30
0.0
 11
739.1353160809
 21
282.1096853594
 31
0.0
  0
LINE
  5
25F
330
1F
100
AcDbEntity
  8
0
  6
Continuous
 62
     7
370
    25
100
AcDbLine
 10
750.5802160654
 20
286.1296853529
 30
0.0
 11
750.5802160654
 21
288.6696853529
 31
0.0
  0
LINE
  5
260
330
1F
100
AcDbEntity
  8
0
  6
Continuous
 62
     7
370
    25
100
AcDbLine
 10
750.5802160654
 20
288.6696853529
 30
0.0
 11
750.1078160596
 21
288.6696853668
 31
0.0
  0
LINE
  5
261
330
1F
100
AcDbEntity
  8
0
  6
Continuous
 62
     7
370
    25
100
AcDbLine
 10
750.1078160596
 20
288.6696853668
 30
0.0
 11
750.1078160602
 21
290.8896853656
 31
0.0
  0
LINE
  5
262
330
1F
100
AcDbEntity
  8
0
  6
Continuous
 62
     7
370
    25
100
AcDbLine
 10
750.1078160602
 20
290.8896853656
 30
0.0
 11
748.5078160553
 21
290.8896853694
 31
0.0
  0
LINE
  5
263
330
1F
100
AcDbEntity
  8
0
  6
Continuous
 62
     7
370
    25
100
AcDbLine
 10
748.5078160553
 20
290.8896853694
 30
0.0
 11
748.5078160587
 21
292.5396853732
 31
0.0
  0
LINE
  5
264
330
1F
100
AcDbEntity
  8
0
  6
Continuous
 62
     7
370
    25
100
AcDbLine
 10
748.5078160587
 20
292.5396853732
 30
0.0
 11
747.1978160601
 21
292.5396853712
 31
0.0
  0
LINE
  5
265
330
1F
100
AcDbEntity
  8
0
  6
Continuous
 62
     7
370
    25
100
AcDbLine
 10
747.1978160601
 20
292.5396853712
 30
0.0
 11
747.1978160668
 21
293.8789390468
 31
0.0
  0
LINE
  5
266
330
1F
100
AcDbEntity
  8
0
  6
Continuous
 62
     7
370
    25
100
AcDbLine
 10
747.1978160668
 20
293.8789390468
 30
0.0
 11
743.1378160631
 21
293.8789390486
 31
0.0
  0
LINE
  5
267
330
1F
100
AcDbEntity
  8
0
  6
Continuous
 62
     7
370
    25
100
AcDbLine
 10
743.1378160631
 20
293.8789390486
 30
0.0
 11
743.1378160558
 21
292.5396853746
 31
0.0
  0
LINE
  5
268
330
1F
100
AcDbEntity
  8
0
  6
Continuous
 62
     7
370
    25
100
AcDbLine
 10
743.1378160558
 20
292.5396853746
 30
0.0
 11
741.827816056
 21
292.5396853701
 31
0.0
  0
LINE
  5
269
330
1F
100
AcDbEntity
  8
0
  6
Continuous
 62
     7
370
    25
100
AcDbLine
 10
741.827816056
 20
292.5396853701
 30
0.0
 11
741.8278160581
 21
290.8896853651
 31
0.0
  0
LINE
  5
26A
330
1F
100
AcDbEntity
  8
0
  6
Continuous
 62
     7
370
    25
100
AcDbLine
 10
741.8278160581
 20
290.8896853651
 30
0.0
 11
740.2278160554
 21
290.889685368
 31
0.0
  0
LINE
  5
26B
330
1F
100
AcDbEntity
  8
0
  6
Continuous
 62
     7
370
    25
100
AcDbLine
 10
740.2278160554
 20
290.889685368
 30
0.0
 11
740.2278160584
 21
288.6696853668
 31
0.0
  0
LINE
  5
26C
330
1F
100
AcDbEntity
  8
0
  6
Continuous
 62
     7
370
    25
100
AcDbLine
 10
740.2278160584
 20
288.6696853668
 30
0.0
 11
739.9078160742
 21
288.6696853529
 31
0.0
  0
LINE
  5
26D
330
1F
100
AcDbEntity
  8
0
  6
Continuous
 62
     7
370
    25
100
AcDbLine
 10
739.9078160742
 20
288.6696853529
 30
0.0
 11
739.9078160742
 21
286.1296853529
 31
0.0
  0
LINE
  5
26E
330
1F
100
AcDbEntity
  8
0
  6
Continuous
 62
     7
370
    25
100
AcDbLine
 10
739.9078160742
 20
286.1296853529
 30
0.0
 11
740.2278160584
 21
286.1296853704
 31
0.0
  0
LINE
  5
26F
330
1F
100
AcDbEntity
  8
0
  6
Continuous
 62
     7
370
    25
100
AcDbLine
 10
740.2278160584
 20
286.1296853704
 30
0.0
 11
740.2278160607
 21
284.049685372
 31
0.0
  0
LINE
  5
270
330
1F
100
AcDbEntity
  8
0
  6
Continuous
 62
     7
370
    25
100
AcDbLine
 10
740.2278160607
 20
284.049685372
 30
0.0
 11
742.3484160622
 21
284.0496853834
 31
0.0
  0
LINE
  5
271
330
1F
100
AcDbEntity
  8
0
  6
Continuous
 62
     7
370
    25
100
AcDbLine
 10
742.3484160622
 20
284.0496853834
 30
0.0
 11
742.3484160825
 21
282.6596853498
 31
0.0
  0
LINE
  5
272
330
1F
100
AcDbEntity
  8
0
  6
Continuous
 62
     7
370
    25
100
AcDbLine
 10
742.3484160825
 20
282.6596853498
 30
0.0
 11
747.9872160793
 21
282.6596853498
 31
0.0
  0
LINE
  5
273
330
1F
100
AcDbEntity
  8
0
  6
Continuous
 62
     7
370
    25
100
AcDbLine
 10
747.9872160793
 20
282.6596853498
 30
0.0
 11
747.9872160569
 21
284.0496853832
 31
0.0
  0
LINE
  5
274
330
1F
100
AcDbEntity
  8
0
  6
Continuous
 62
     7
370
    25
100
AcDbLine
 10
747.9872160569
 20
284.0496853832
 30
0.0
 11
750.107816059
 21
284.049685383
 31
0.0
  0
LINE
  5
275
330
1F
100
AcDbEntity
  8
0
  6
Continuous
 62
     7
370
    25
100
AcDbLine
 10
750.107816059
 20
284.049685383
 30
0.0
 11
750.1078160596
 21
286.1296853704
 31
0.0
  0
LINE
  5
276
330
1F
100
AcDbEntity
  8
0
  6
Continuous
 62
     7
370
    25
100
AcDbLine
 10
750.1078160596
 20
286.1296853704
 30
0.0
 11
750.5802160654
 21
286.1296853529
 31
0.0
  0
LINE
  5
277
330
1F
100
AcDbEntity
  8
0
  6
Continuous
 62
     7
370
    25
100
AcDbLine
 10
760.5728160587
 20
292.5396853732
 30
0.0
 11
759.2628160601
 21
292.5396853712
 31
0.0
  0
LINE
  5
278
330
1F
100
AcDbEntity
  8
0
  6
Continuous
 62
     7
370
    25
100
AcDbLine
 10
759.2628160601
 20
292.5396853712
 30
0.0
 11
759.2628160668
 21
293.8789390468
 31
0.0
  0
LINE
  5
279
330
1F
100
AcDbEntity
  8
0
  6
Continuous
 62
     7
370
    25
100
AcDbLine
 10
759.2628160668
 20
293.8789390468
 30
0.0
 11
755.2028160631
 21
293.8789390486
 31
0.0
  0
LINE
  5
27A
330
1F
100
AcDbEntity
  8
0
  6
Continuous
 62
     7
370
    25
100
AcDbLine
 10
755.2028160631
 20
293.8789390486
 30
0.0
 11
755.2028160558
 21
292.5396853746
 31
0.0
  0
LINE
  5
27B
330
1F
100
AcDbEntity
  8
0
  6
Continuous
 62
     7
370
    25
100
AcDbLine
 10
755.2028160558
 20
292.5396853746
 30
0.0
 11
753.892816056
 21
292.5396853701
 31
0.0
  0
LINE
  5
27C
330
1F
100
AcDbEntity
  8
0
  6
Continuous
 62
     7
370
    25
100
AcDbLine
 10
753.892816056
 20
292.5396853701
 30
0.0
 11
753.8928160581
 21
290.8896853651
 31
0.0
  0
LINE
  5
27D
330
1F
100
AcDbEntity
  8
0
  6
Continuous
 62
     7
370
    25
100
AcDbLine
 10
753.8928160581
 20
290.8896853651
 30
0.0
 11
752.2928160554
 21
290.889685368
 31
0.0
  0
LINE
  5
27E
330
1F
100
AcDbEntity
  8
0
  6
Continuous
 62
     7
370
    25
100
AcDbLine
 10
752.2928160554
 20
290.889685368
 30
0.0
 11
752.2928160584
 21
288.6696853668
 31
0.0
  0
LINE
  5
27F
330
1F
100
AcDbEntity
  8
0
  6
Continuous
 62
     7
370
    25
100
AcDbLine
 10
752.2928160584
 20
288.6696853668
 30
0.0
 11
751.8204160742
 21
288.6696853529
 31
0.0
  0
LINE
  5
280
330
1F
100
AcDbEntity
  8
0
  6
Continuous
 62
     7
370
    25
100
AcDbLine
 10
751.8204160742
 20
288.6696853529
 30
0.0
 11
751.8204160742
 21
286.1296853529
 31
0.0
  0
LINE
  5
281
330
1F
100
AcDbEntity
  8
0
  6
Continuous
 62
     7
370
    25
100
AcDbLine
 10
751.8204160742
 20
286.1296853529
 30
0.0
 11
752.2928160584
 21
286.1296853704
 31
0.0
  0
LINE
  5
282
330
1F
100
AcDbEntity
  8
0
  6
Continuous
 62
     7
370
    25
100
AcDbLine
 10
752.2928160584
 20
286.1296853704
 30
0.0
 11
752.292816061
 21
284.0496853704
 31
0.0
  0
LINE
  5
283
330
1F
100
AcDbEntity
  8
0
  6
Continuous
 62
     7
370
    25
100
AcDbLine
 10
752.292816061
 20
284.0496853704
 30
0.0
 11
754.4134160601
 21
284.0496853834
 31
0.0
  0
LINE
  5
284
330
1F
100
AcDbEntity
  8
0
  6
Continuous
 62
     7
370
    25
100
AcDbLine
 10
754.4134160601
 20
284.0496853834
 30
0.0
 11
754.4134160825
 21
282.6596853498
 31
0.0
  0
LINE
  5
285
330
1F
100
AcDbEntity
  8
0
  6
Continuous
 62
     7
370
    25
100
AcDbLine
 10
754.4134160825
 20
282.6596853498
 30
0.0
 11
760.0522160793
 21
282.6596853498
 31
0.0
  0
LINE
  5
286
330
1F
100
AcDbEntity
  8
0
  6
Continuous
 62
     7
370
    25
100
AcDbLine
 10
760.0522160793
 20
282.6596853498
 30
0.0
 11
760.0522160579
 21
284.0496853833
 31
0.0
  0
LINE
  5
287
330
1F
100
AcDbEntity
  8
0
  6
Continuous
 62
     7
370
    25
100
AcDbLine
 10
760.0522160579
 20
284.0496853833
 30
0.0
 11
762.172816059
 21
284.0496853833
 31
0.0
  0
LINE
  5
288
330
1F
100
AcDbEntity
  8
0
  6
Continuous
 62
     7
370
    25
100
AcDbLine
 10
762.172816059
 20
284.0496853833
 30
0.0
 11
762.1728160596
 21
286.1296853704
 31
0.0
  0
LINE
  5
289
330
1F
100
AcDbEntity
  8
0
  6
Continuous
 62
     7
370
    25
100
AcDbLine
 10
762.1728160596
 20
286.1296853704
 30
0.0
 11
762.4928160654
 21
286.1296853529
 31
0.0
  0
LINE
  5
28A
330
1F
100
AcDbEntity
  8
0
  6
Continuous
 62
     7
370
    25
100
AcDbLine
 10
762.4928160654
 20
286.1296853529
 30
0.0
 11
762.4928160654
 21
288.6696853529
 31
0.0
  0
LINE
  5
28B
330
1F
100
AcDbEntity
  8
0
  6
Continuous
 62
     7
370
    25
100
AcDbLine
 10
762.4928160654
 20
288.6696853529
 30
0.0
 11
762.1728160596
 21
288.6696853668
 31
0.0
  0
LINE
  5
28C
330
1F
100
AcDbEntity
  8
0
  6
Continuous
 62
     7
370
    25
100
AcDbLine
 10
762.1728160596
 20
288.6696853668
 30
0.0
 11
762.1728160602
 21
290.8896853656
 31
0.0
  0
LINE
  5
28D
330
1F
100
AcDbEntity
  8
0
  6
Continuous
 62
     7
370
    25
100
AcDbLine
 10
762.1728160602
 20
290.8896853656
 30
0.0
 11
760.5728160553
 21
290.8896853694
 31
0.0
  0
LINE
  5
28E
330
1F
100
AcDbEntity
  8
0
  6
Continuous
 62
     7
370
    25
100
AcDbLine
 10
760.5728160553
 20
290.8896853694
 30
0.0
 11
760.5728160587
 21
292.5396853732
 31
0.0
  0
LINE
  5
28F
330
1F
100
AcDbEntity
  8
0
  6
Continuous
 62
     7
370
    25
100
AcDbLine
 10
774.5999782609
 20
275.9186488718
 30
0.0
 11
780.5999782609
 21
275.9186488718
 31
0.0
  0
LINE
  5
290
330
1F
100
AcDbEntity
  8
0
  6
Continuous
 62
     7
370
    25
100
AcDbLine
 10
774.5999782609
 20
274.9186488718
 30
0.0
 11
780.5999782609
 21
274.9186488718
 31
0.0
  0
MTEXT
  5
291
330
1F
100
AcDbEntity
  8
SLD-0
100
AcDbMText
 10
752.6215985776
 20
334.9116119422
 30
0.0
 40
4.7625
 41
0.0
 71
     1
 72
     1
  1
EXHAUST
  7
SLDTEXTSTYLE0
 73
     1
 44
1.0
  0
LEADER
  5
292
330
1F
100
AcDbEntity
  8
SLD-0
100
AcDbLeader
  3
SLDDIMSTYLE1
 76
     3
 10
737.1460282118
 20
313.3686488718
 30
0.0
 10
747.5
 20
332.526145773
 30
0.0
 10
751.5
 20
332.526145773
 30
0.0
  0
LINE
  5
293
330
1F
100
AcDbEntity
  8
0
  6
Continuous
 62
     7
370
    25
100
AcDbLine
 10
265.7033624823
 20
317.3186488718
 30
0.0
 11
49.8033624823
 21
317.3186488718
 31
0.0
  0
LINE
  5
294
330
1F
100
AcDbEntity
  8
0
  6
Continuous
 62
     7
370
    25
100
AcDbLine
 10
265.7033624823
 20
317.3186488718
 30
0.0
 11
265.7033624823
 21
274.9186488718
 31
0.0
  0
LINE
  5
295
330
1F
100
AcDbEntity
  8
0
  6
Continuous
 62
     7
370
    25
100
AcDbLine
 10
265.7033624823
 20
274.9186488718
 30
0.0
 11
49.8033624823
 21
274.9186488718
 31
0.0
  0
LINE
  5
296
330
1F
100
AcDbEntity
  8
0
  6
Continuous
 62
     7
370
    25
100
AcDbLine
 10
49.8033624823
 20
317.3186488718
 30
0.0
 11
49.8033624823
 21
274.9186488718
 31
0.0
  0
CIRCLE
  5
297
330
1F
100
AcDbEntity
  8
0
  6
Continuous
 62
     7
370
    25
100
AcDbCircle
 10
142.7533624823
 20
296.1186488718
 30
0.0
 40
1.750000000000057
  0
CIRCLE
  5
298
330
1F
100
AcDbEntity
  8
0
  6
Continuous
 62
     7
370
    25
100
AcDbCircle
 10
172.7533624823
 20
296.1186488718
 30
0.0
 40
1.750000000000057
  0
CIRCLE
  5
299
330
1F
100
AcDbEntity
  8
0
  6
Continuous
 62
     7
370
    25
100
AcDbCircle
 10
58.7033624823
 20
310.7186488718
 30
0.0
 40
2.0
  0
CIRCLE
  5
29A
330
1F
100
AcDbEntity
  8
0
  6
Continuous
 62
     7
370
    25
100
AcDbCircle
 10
88.7033624823
 20
300.7186488718
 30
0.0
 40
2.0
  0
CIRCLE
  5
29B
330
1F
100
AcDbEntity
  8
0
  6
Continuous
 62
     7
370
    25
100
AcDbCircle
 10
88.7033624823
 20
305.7186488718
 30
0.0
 40
2.0
  0
CIRCLE
  5
29C
330
1F
100
AcDbEntity
  8
0
  6
Continuous
 62
     7
370
    25
100
AcDbCircle
 10
88.7033624823
 20
310.7186488718
 30
0.0
 40
2.0
  0
CIRCLE
  5
29D
330
1F
100
AcDbEntity
  8
0
  6
Continuous
 62
     7
370
    25
100
AcDbCircle
 10
83.7033624823
 20
300.7186488718
 30
0.0
 40
2.0
  0
CIRCLE
  5
29E
330
1F
100
AcDbEntity
  8
0
  6
Continuous
 62
     7
370
    25
100
AcDbCircle
 10
98.7033624823
 20
310.7186488718
 30
0.0
 40
2.0
  0
CIRCLE
  5
29F
330
1F
100
AcDbEntity
  8
0
  6
Continuous
 62
     7
370
    25
100
AcDbCircle
 10
93.7033624823
 20
300.7186488718
 30
0.0
 40
2.0
  0
CIRCLE
  5
2A0
330
1F
100
AcDbEntity
  8
0
  6
Continuous
 62
     7
370
    25
100
AcDbCircle
 10
93.7033624823
 20
305.7186488718
 30
0.0
 40
2.0
  0
CIRCLE
  5
2A1
330
1F
100
AcDbEntity
  8
0
  6
Continuous
 62
     7
370
    25
100
AcDbCircle
 10
93.7033624823
 20
310.7186488718
 30
0.0
 40
2.0
  0
CIRCLE
  5
2A2
330
1F
100
AcDbEntity
  8
0
  6
Continuous
 62
     7
370
    25
100
AcDbCircle
 10
98.7033624823
 20
305.7186488718
 30
0.0
 40
2.0
  0
CIRCLE
  5
2A3
330
1F
100
AcDbEntity
  8
0
  6
Continuous
 62
     7
370
    25
100
AcDbCircle
 10
103.7033624823
 20
310.7186488718
 30
0.0
 40
2.0
  0
CIRCLE
  5
2A4
330
1F
100
AcDbEntity
  8
0
  6
Continuous
 62
     7
370
    25
100
AcDbCircle
 10
78.7033624823
 20
310.7186488718
 30
0.0
 40
2.0
  0
CIRCLE
  5
2A5
330
1F
100
AcDbEntity
  8
0
  6
Continuous
 62
     7
370
    25
100
AcDbCircle
 10
73.7033624823
 20
300.7186488718
 30
0.0
 40
2.0
  0
CIRCLE
  5
2A6
330
1F
100
AcDbEntity
  8
0
  6
Continuous
 62
     7
370
    25
100
AcDbCircle
 10
73.7033624823
 20
305.7186488718
 30
0.0
 40
2.0
  0
CIRCLE
  5
2A7
330
1F
100
AcDbEntity
  8
0
  6
Continuous
 62
     7
370
    25
100
AcDbCircle
 10
73.7033624823
 20
310.7186488718
 30
0.0
 40
2.0
  0
CIRCLE
  5
2A8
330
1F
100
AcDbEntity
  8
0
  6
Continuous
 62
     7
370
    25
100
AcDbCircle
 10
78.7033624823
 20
305.7186488718
 30
0.0
 40
2.0
  0
CIRCLE
  5
2A9
330
1F
100
AcDbEntity
  8
0
  6
Continuous
 62
     7
370
    25
100
AcDbCircle
 10
78.7033624823
 20
300.7186488718
 30
0.0
 40
2.0
  0
CIRCLE
  5
2AA
330
1F
100
AcDbEntity
  8
0
  6
Continuous
 62
     7
370
    25
100
AcDbCircle
 10
83.7033624823
 20
310.7186488718
 30
0.0
 40
2.0
  0
CIRCLE
  5
2AB
330
1F
100
AcDbEntity
  8
0
  6
Continuous
 62
     7
370
    25
100
AcDbCircle
 10
83.7033624823
 20
305.7186488718
 30
0.0
 40
2.0
  0
CIRCLE
  5
2AC
330
1F
100
AcDbEntity
  8
0
  6
Continuous
 62
     7
370
    25
100
AcDbCircle
 10
58.7033624823
 20
305.7186488718
 30
0.0
 40
2.0
  0
CIRCLE
  5
2AD
330
1F
100
AcDbEntity
  8
0
  6
Continuous
 62
     7
370
    25
100
AcDbCircle
 10
58.7033624823
 20
300.7186488718
 30
0.0
 40
2.0
  0
CIRCLE
  5
2AE
330
1F
100
AcDbEntity
  8
0
  6
Continuous
 62
     7
370
    25
100
AcDbCircle
 10
63.7033624823
 20
310.7186488718
 30
0.0
 40
2.0
  0
CIRCLE
  5
2AF
330
1F
100
AcDbEntity
  8
0
  6
Continuous
 62
     7
370
    25
100
AcDbCircle
 10
63.7033624823
 20
305.7186488718
 30
0.0
 40
2.0
  0
CIRCLE
  5
2B0
330
1F
100
AcDbEntity
  8
0
  6
Continuous
 62
     7
370
    25
100
AcDbCircle
 10
68.7033624823
 20
300.7186488718
 30
0.0
 40
2.0
  0
CIRCLE
  5
2B1
330
1F
100
AcDbEntity
  8
0
  6
Continuous
 62
     7
370
    25
100
AcDbCircle
 10
68.7033624823
 20
305.7186488718
 30
0.0
 40
2.0
  0
CIRCLE
  5
2B2
330
1F
100
AcDbEntity
  8
0
  6
Continuous
 62
     7
370
    25
100
AcDbCircle
 10
68.7033624823
 20
310.7186488718
 30
0.0
 40
2.0
  0
CIRCLE
  5
2B3
330
1F
100
AcDbEntity
  8
0
  6
Continuous
 62
     7
370
    25
100
AcDbCircle
 10
63.7033624823
 20
300.7186488718
 30
0.0
 40
2.0
  0
DIMENSION
  5
2B4
330
1F
100
AcDbEntity
  8
SLD-0
100
AcDbDimension
  2
_D_1
 10
285.7033624823
 20
274.9186488718
 30
0.0
 11
285.7033624823
 21
294.8182532185
 31
0.0
 70
   160
  1
<>
 71
     2
 42
-1.0
  3
SLDDIMSTYLE2
100
AcDbAlignedDimension
 13
265.7033624823
 23
317.3186488718
 33
0.0
 14
265.7033624823
 24
274.9186488718
 34
0.0
 50
90.0
100
AcDbRotatedDimension
  0
MTEXT
  5
2C0
330
1F
100
AcDbEntity
  8
SLD-0
100
AcDbMText
 10
95.4138417781
 20
332.423073453
 30
0.0
 40
4.7625
 41
0.0
 71
     1
 72
     1
  1
EXHAUST
  7
SLDTEXTSTYLE0
 73
     1
 44
1.0
  0
LEADER
  5
2C1
330
1F
100
AcDbEntity
  8
SLD-0
100
AcDbLeader
  3
SLDDIMSTYLE1
 76
     3
 10
79.4861731885
 20
312.5590856129
 30
0.0
 10
90.3260869565
 20
330.1348414252
 30
0.0
 10
94.3260869565
 20
330.1348414252
 30
0.0
  0
LINE
  5
2C2
330
1F
100
AcDbEntity
  8
0
  6
Continuous
 62
     7
370
    25
100
AcDbLine
 10
51.8033624823
 20
160.9974207953
 30
0.0
 11
49.8033624823
 21
160.9974207953
 31
0.0
  0
LINE
  5
2C3
330
1F
100
AcDbEntity
  8
0
  6
Continuous
 62
     7
370
    25
100
AcDbLine
 10
49.8033624823
 20
202.7974207953
 30
0.0
 11
49.8033624823
 21
160.9974207953
 31
0.0
  0
LINE
  5
2C4
330
1F
100
AcDbEntity
  8
0
  6
Continuous
 62
     7
370
    25
100
AcDbLine
 10
265.7033624823
 20
202.7974207953
 30
0.0
 11
49.8033624823
 21
202.7974207953
 31
0.0
  0
LINE
  5
2C5
330
1F
100
AcDbEntity
  8
0
  6
Continuous
 62
     7
370
    25
100
AcDbLine
 10
265.7033624823
 20
202.7974207953
 30
0.0
 11
265.7033624823
 21
93.7974207953
 31
0.0
  0
LINE
  5
2C6
330
1F
100
AcDbEntity
  8
0
  6
Continuous
 62
     7
370
    25
100
AcDbLine
 10
265.7033624823
 20
93.7974207953
 30
0.0
 11
49.8033624823
 21
93.7974207953
 31
0.0
  0
LINE
  5
2C7
330
1F
100
AcDbEntity
  8
0
  6
Continuous
 62
     7
370
    25
100
AcDbLine
 10
49.8033624823
 20
154.9974207953
 30
0.0
 11
49.8033624823
 21
93.7974207953
 31
0.0
  0
LINE
  5
2C8
330
1F
100
AcDbEntity
  8
0
  6
Continuous
 62
     7
370
    25
100
AcDbLine
 10
51.8033624823
 20
154.9974207953
 30
0.0
 11
49.8033624823
 21
154.9974207953
 31
0.0
  0
LINE
  5
2C9
330
1F
100
AcDbEntity
  8
0
  6
Continuous
 62
     7
370
    25
100
AcDbLine
 10
51.8033624823
 20
154.9974207953
 30
0.0
 11
51.8033624823
 21
160.9974207953
 31
0.0
  0
CIRCLE
  5
2CA
330
1F
100
AcDbEntity
  8
0
  6
Continuous
 62
     7
370
    25
100
AcDbCircle
 10
257.7033624823
 20
193.2974207953
 30
0.0
 40
1.5
  0
CIRCLE
  5
2CB
330
1F
100
AcDbEntity
  8
0
  6
Continuous
 62
     7
370
    25
100
AcDbCircle
 10
257.7033624823
 20
103.2974207953
 30
0.0
 40
1.499999999999986
  0
LINE
  5
2CC
330
1F
100
AcDbEntity
  8
0
  6
Continuous
 62
     7
370
    25
100
AcDbLine
 10
49.8033624823
 20
160.9974207953
 30
0.0
 11
49.8033624823
 21
154.9974207953
 31
0.0
  0
DIMENSION
  5
2CD
330
1F
100
AcDbEntity
  8
SLD-0
100
AcDbDimension
  2
_D_2
 10
49.8033624823
 20
234.7974207953
 30
0.0
 11
160.944662259
 21
234.7974207953
 31
0.0
 70
   160
  1
<>
 71
     2
 42
-1.0
  3
SLDDIMSTYLE2
100
AcDbAlignedDimension
 13
265.7033624823
 23
202.7974207953
 33
0.0
 14
49.8033624823
 24
202.7974207953
 34
0.0
 50
0.0
100
AcDbRotatedDimension
  0
DIMENSION
  5
2D8
330
1F
100
AcDbEntity
  8
SLD-0
100
AcDbDimension
  2
_D_3
 10
285.7033624823
 20
103.2974207953
 30
0.0
 11
285.7033624823
 21
146.8570109574
 31
0.0
 70
   160
  1
<>
 71
     2
 42
-1.0
  3
SLDDIMSTYLE0
100
AcDbAlignedDimension
 13
259.7033624823
 23
193.2974207953
 33
0.0
 14
259.7033624823
 24
103.2974207953
 34
0.0
 50
90.0
100
AcDbRotatedDimension
  0
DIMENSION
  5
2E3
330
1F
100
AcDbEntity
  8
SLD-0
100
AcDbDimension
  2
_D_4
 10
257.7033624823
 20
222.7974207953
 30
0.0
 11
242.5625164265
 21
222.7974207953
 31
0.0
 70
   160
  1
<>
 71
     2
 42
-1.0
  3
SLDDIMSTYLE3
100
AcDbAlignedDimension
 13
265.7033624823
 23
202.7974207953
 33
0.0
 14
257.7033624823
 24
195.2974207953
 34
0.0
 50
0.0
100
AcDbRotatedDimension
  0
INSERT
  5
2F4
330
1F
100
AcDbEntity
  8
SLD-0
 62
     7
100
AcDbBlockReference
  2
SW_SYMBOL_MOD_CL
 10
271.6966885837
 20
146.11514406
 30
0.0
 41
0.0030416748
 42
0.0030416748
 43
0.0030416748
  0
INSERT
  5
2FD
102
{ACAD_REACTORS
330
2FE
102
}
330
1F
100
AcDbEntity
  8
SLD-0
100
AcDbBlockReference
  2
SW_NOTE_0_1
 10
277.9347826087
 20
206.3043478261
 30
0.0
  0
LEADER
  5
2FE
330
1F
100
AcDbEntity
  8
SLD-0
100
AcDbLeader
  3
SLDDIMSTYLE1
 73
     2
 76
     3
 10
258.9027700656
 20
194.198210143
 30
0.0
 10
273.9347826087
 20
206.3043478261
 30
0.0
 10
277.9347826087
 20
206.3043478261
 30
0.0
340
2FD
  0
INSERT
  5
306
330
1F
100
AcDbEntity
  8
SLD-0
100
AcDbBlockReference
  2
SW_CENTERMARKSYMBOL_0
 10
257.7033624823
 20
193.2974207953
 30
0.0
  0
INSERT
  5
30E
330
1F
100
AcDbEntity
  8
SLD-0
100
AcDbBlockReference
  2
SW_CENTERMARKSYMBOL_1
 10
257.7033624823
 20
103.2974207953
 30
0.0
  0
LINE
  5
30F
330
1F
100
AcDbEntity
  8
SLD-0
  6
CENTERX2
370
    18
100
AcDbLine
 10
269.7033624823
 20
148.2974207953
 30
0.0
 11
45.8033624823
 21
148.2974207953
 31
0.0
  0
LINE
  5
310
330
1F
100
AcDbEntity
  8
0
  6
Continuous
 62
     7
370
    25
100
AcDbLine
 10
265.7033624823
 20
370.37955591
 30
0.0
 11
49.8033624823
 21
370.37955591
 31
0.0
  0
LINE
  5
311
330
1F
100
AcDbEntity
  8
0
  6
Continuous
 62
     7
370
    25
100
AcDbLine
 10
49.8033624823
 20
479.37955591
 30
0.0
 11
49.8033624823
 21
370.37955591
 31
0.0
  0
LINE
  5
312
330
1F
100
AcDbEntity
  8
0
  6
Continuous
 62
     7
370
    25
100
AcDbLine
 10
265.7033624823
 20
479.37955591
 30
0.0
 11
49.8033624823
 21
479.37955591
 31
0.0
  0
LINE
  5
313
330
1F
100
AcDbEntity
  8
0
  6
Continuous
 62
     7
370
    25
100
AcDbLine
 10
265.7033624823
 20
479.37955591
 30
0.0
 11
265.7033624823
 21
370.37955591
 31
0.0
  0
SPLINE
  5
314
330
1F
100
AcDbEntity
  8
0
  6
Continuous
 62
     7
370
    25
100
AcDbSpline
210
0.0
220
0.0
230
1.0
 70
     8
 71
     3
 72
    16
 73
    12
 74
     0
 42
0.00000001
 43
0.00000001
 40
0.0
 40
0.0
 40
0.0
 40
0.0
 40
0.0639398377512552
 40
0.1872572725228454
 40
0.3124236480648104
 40
0.439270961585822
 40
0.5670606687660174
 40
0.6949268660386018
 40
0.8217160858693149
 40
0.9466187526363078
 40
1.0
 40
1.0
 40
1.0
 40
1.0
 10
663.4449765315702
 20
97.51289112977487
 30
0.0
 10
663.5167475671971
 20
97.46893929870572
 30
0.0
 10
663.7269396610512
 20
97.34021986027962
 30
0.0
 10
664.0955409399382
 20
97.03951381059298
 30
0.0
 10
664.5240388444865
 20
96.58707199020269
 30
0.0
 10
664.9206097426853
 20
96.05025176657806
 30
0.0
 10
665.2605014497105
 20
95.45767081931713
 30
0.0
 10
665.524583489164
 20
94.84099351723462
 30
0.0
 10
665.6984692136873
 20
94.23818468272924
 30
0.0
 10
665.766701421514
 20
93.78338074379057
 30
0.0
 10
665.7718280288747
 20
93.54987586717287
 30
0.0
 10
665.7733630226344
 20
93.47996052096713
 30
0.0
  0
LINE
  5
315
330
1F
100
AcDbEntity
  8
0
  6
Continuous
 62
     7
370
    25
100
AcDbLine
 10
665.7733630226
 20
93.479960521
 30
0.0
 11
665.7733630226
 21
84.4191398044
 31
0.0
  0
LINE
  5
316
330
1F
100
AcDbEntity
  8
0
  6
Continuous
 62
     7
370
    25
100
AcDbLine
 10
600.4441717358
 20
133.8824815899
 30
0.0
 11
663.4449765316
 21
97.5128911298
 31
0.0
  0
SPLINE
  5
317
330
1F
100
AcDbEntity
  8
0
  6
Continuous
 62
     7
370
    25
100
AcDbSpline
210
0.0
220
0.0
230
1.0
 70
     8
 71
     3
 72
    22
 73
    18
 74
     0
 42
0.00000001
 43
0.00000001
 40
0.0
 40
0.0
 40
0.0
 40
0.0
 40
0.0092797008965162
 40
0.0751756363592988
 40
0.1408683810302951
 40
0.208402595278423
 40
0.2796383440653991
 40
0.355398411477809
 40
0.4344120813601398
 40
0.51434275527699
 40
0.595437778914664
 40
0.6788434297219405
 40
0.7563155792944033
 40
0.8302178281774679
 40
0.9002113434316024
 40
0.967728298750258
 40
1.0
 40
1.0
 40
1.0
 40
1.0
 10
657.672294756263
 20
95.30668230552305
 30
0.0
 10
657.6517018273872
 20
95.28789895935962
 30
0.0
 10
657.484876780977
 20
95.13573349448755
 30
0.0
 10
657.26845510083
 20
94.76351383195167
 30
0.0
 10
657.0386792909442
 20
94.21666765523479
 30
0.0
 10
656.927154217321
 20
93.61289129433104
 30
0.0
 10
656.9229784845055
 20
92.96639641179578
 30
0.0
 10
657.0361816714815
 20
92.2818133264271
 30
0.0
 10
657.2693089769215
 20
91.58380597991916
 30
0.0
 10
657.616970737592
 20
90.90482388140128
 30
0.0
 10
658.0688869495393
 20
90.27565021520326
 30
0.0
 10
658.6000986454532
 20
89.74097495197425
 30
0.0
 10
659.1832233296373
 20
89.32838371272544
 30
0.0
 10
659.7874635366433
 20
89.04838369308075
 30
0.0
 10
660.4028996161991
 20
88.90870399246737
 30
0.0
 10
660.916967984649
 20
88.88077180864119
 30
0.0
 10
661.2087195235003
 20
88.95048522792143
 30
0.0
 10
661.3030721165178
 20
88.97303058244846
 30
0.0
  0
SPLINE
  5
318
330
1F
100
AcDbEntity
  8
0
  6
Continuous
 62
     7
370
    25
100
AcDbSpline
210
0.0
220
0.0
230
1.0
 70
     8
 71
     3
 72
    12
 73
     8
 74
     0
 42
0.00000001
 43
0.00000001
 40
0.0
 40
0.0
 40
0.0
 40
0.0
 40
0.1305433271965073
 40
0.3777934586850567
 40
0.6259174729483774
 40
0.8849792027134614
 40
1.0
 40
1.0
 40
1.0
 40
1.0
 10
665.7733630226344
 20
84.41913980438196
 30
0.0
 10
665.7712057259106
 20
84.34040193612564
 30
0.0
 10
665.7649624915134
 20
84.11253390014967
 30
0.0
 10
665.7011254662633
 20
83.81209750136912
 30
0.0
 10
665.5888357076765
 20
83.58296817011612
 30
0.0
 10
665.5095520770998
 20
83.48969021781718
 30
0.0
 10
665.4563709596317
 20
83.46647230879898
 30
0.0
 10
665.4400191279116
 20
83.45933339635728
 30
0.0
  0
SPLINE
  5
319
330
1F
100
AcDbEntity
  8
0
  6
Continuous
 62
     7
370
    25
100
AcDbSpline
210
0.0
220
0.0
230
1.0
 70
     8
 71
     3
 72
    12
 73
     8
 74
     0
 42
0.00000001
 43
0.00000001
 40
0.0
 40
0.0
 40
0.0
 40
0.0
 40
0.1909064011750983
 40
0.4446696349251007
 40
0.6838931704298863
 40
0.9201718233374899
 40
1.0
 40
1.0
 40
1.0
 40
1.0
 10
599.4490478720729
 20
134.0749898363933
 30
0.0
 10
599.4729338608713
 20
134.0899218222019
 30
0.0
 10
599.5285704128854
 20
134.1247022205403
 30
0.0
 10
599.6878724376376
 20
134.1437882497476
 30
0.0
 10
599.9619655525411
 20
134.1034852071278
 30
0.0
 10
600.2331813997914
 20
133.9995789049722
 30
0.0
 10
600.4016319917545
 20
133.9060906797824
 30
0.0
 10
600.4441717357784
 20
133.8824815898855
 30
0.0
  0
LINE
  5
31A
330
1F
100
AcDbEntity
  8
0
  6
Continuous
 62
     7
370
    25
100
AcDbLine
 10
593.2001071441
 20
108.1512062808
 30
0.0
 11
670.2747462935
 21
63.6569641864
 31
0.0
  0
LINE
  5
31B
330
1F
100
AcDbEntity
  8
0
  6
Continuous
 62
     7
370
    25
100
AcDbLine
 10
593.2001071441
 20
142.7725367047
 30
0.0
 11
593.2001071441
 21
108.1512062808
 31
0.0
  0
LINE
  5
31C
330
1F
100
AcDbEntity
  8
0
  6
Continuous
 62
     7
370
    25
100
AcDbLine
 10
670.2747462935
 20
98.2782946104
 30
0.0
 11
593.2001071441
 21
142.7725367047
 31
0.0
  0
LINE
  5
31D
330
1F
100
AcDbEntity
  8
0
  6
Continuous
 62
     7
370
    25
100
AcDbLine
 10
670.2747462935
 20
63.6569641864
 30
0.0
 11
670.2747462935
 21
98.2782946104
 31
0.0
  0
LWPOLYLINE
  5
31E
330
1F
100
AcDbEntity
  8
0
  6
Continuous
 62
     7
370
    25
100
AcDbPolyline
 90
       20
 70
   128
 43
0.0
 10
599.4933574967
 20
115.9497615496
 10
599.4301410536
 20
116.4237207329
 10
599.2473422068
 20
116.9193072361
 10
598.9647700478
 20
117.3828165717
 10
598.6130456546
 20
117.7640203111
 10
598.2302838227
 20
118.0216091142
 10
597.8579627358
 20
118.1276692373
 10
597.5364291608
 20
118.0707074202
 10
597.3005262497
 20
117.8568963598
 10
597.1758177433
 20
117.5094058021
 10
597.1758177433
 20
117.0658917409
 10
597.3005262497
 20
116.5744158064
 10
597.5364291608
 20
116.0882370424
 10
597.8579627358
 20
115.6600404616
 10
598.2302838227
 20
115.3362278078
 10
598.6130456546
 20
115.1518892065
 10
598.9647700478
 20
115.1270006054
 10
599.2473422068
 20
115.2642590707
 10
599.4301410536
 20
115.5487905178
 10
599.4933574967
 20
115.9497615496
  0
LWPOLYLINE
  5
31F
330
1F
100
AcDbEntity
  8
0
  6
Continuous
 62
     7
370
    25
100
AcDbPolyline
 90
       20
 70
   128
 43
0.0
 10
602.675338012
 20
114.112843298
 10
602.6121215689
 20
114.5868024813
 10
602.4293227222
 20
115.0823889845
 10
602.1467505632
 20
115.5458983201
 10
601.7950261699
 20
115.9271020595
 10
601.4122643381
 20
116.1846908626
 10
601.0399432512
 20
116.2907509857
 10
600.7184096762
 20
116.2337891686
 10
600.482506765
 20
116.0199781082
 10
600.3577982586
 20
115.6724875505
 10
600.3577982586
 20
115.2289734893
 10
600.482506765
 20
114.7374975548
 10
600.7184096762
 20
114.2513187908
 10
601.0399432512
 20
113.82312221
 10
601.4122643381
 20
113.4993095562
 10
601.7950261699
 20
113.3149709549
 10
602.1467505632
 20
113.2900823538
 10
602.4293227222
 20
113.4273408191
 10
602.6121215689
 20
113.7118722662
 10
602.675338012
 20
114.112843298
  0
LWPOLYLINE
  5
320
330
1F
100
AcDbEntity
  8
0
  6
Continuous
 62
     7
370
    25
100
AcDbPolyline
 90
       20
 70
   128
 43
0.0
 10
605.8573185274
 20
112.2759250464
 10
605.7941020843
 20
112.7498842297
 10
605.6113032375
 20
113.2454707329
 10
605.3287310785
 20
113.7089800685
 10
604.9770066853
 20
114.0901838079
 10
604.5942448534
 20
114.347772611
 10
604.2219237665
 20
114.4538327341
 10
603.9003901915
 20
114.396870917
 10
603.6644872804
 20
114.1830598566
 10
603.539778774
 20
113.8355692989
 10
603.539778774
 20
113.3920552377
 10
603.6644872804
 20
112.9005793032
 10
603.9003901915
 20
112.4144005392
 10
604.2219237665
 20
111.9862039584
 10
604.5942448534
 20
111.6623913046
 10
604.9770066853
 20
111.4780527033
 10
605.3287310785
 20
111.4531641022
 10
605.6113032375
 20
111.5904225675
 10
605.7941020843
 20
111.8749540146
 10
605.8573185274
 20
112.2759250464
  0
LWPOLYLINE
  5
321
330
1F
100
AcDbEntity
  8
0
  6
Continuous
 62
     7
370
    25
100
AcDbPolyline
 90
       20
 70
   128
 43
0.0
 10
609.0392990427
 20
110.4390067948
 10
608.9760825996
 20
110.9129659781
 10
608.7932837528
 20
111.4085524813
 10
608.5107115938
 20
111.8720618169
 10
608.1589872006
 20
112.2532655563
 10
607.7762253687
 20
112.5108543594
 10
607.4039042818
 20
112.6169144825
 10
607.0823707068
 20
112.5599526654
 10
606.8464677957
 20
112.346141605
 10
606.7217592893
 20
111.9986510473
 10
606.7217592893
 20
111.5551369861
 10
606.8464677957
 20
111.0636610516
 10
607.0823707068
 20
110.5774822876
 10
607.4039042818
 20
110.1492857068
 10
607.7762253687
 20
109.825473053
 10
608.1589872006
 20
109.6411344517
 10
608.5107115938
 20
109.6162458506
 10
608.7932837528
 20
109.7535043159
 10
608.9760825996
 20
110.038035763
 10
609.0392990427
 20
110.4390067948
  0
LWPOLYLINE
  5
322
330
1F
100
AcDbEntity
  8
0
  6
Continuous
 62
     7
370
    25
100
AcDbPolyline
 90
       20
 70
   128
 43
0.0
 10
612.2212795581
 20
108.6020885432
 10
612.158063115
 20
109.0760477265
 10
611.9752642682
 20
109.5716342297
 10
611.6926921092
 20
110.0351435653
 10
611.340967716
 20
110.4163473047
 10
610.9582058841
 20
110.6739361078
 10
610.5858847972
 20
110.7799962309
 10
610.2643512222
 20
110.7230344138
 10
610.0284483111
 20
110.5092233534
 10
609.9037398046
 20
110.1617327957
 10
609.9037398046
 20
109.7182187345
 10
610.0284483111
 20
109.2267428
 10
610.2643512222
 20
108.740564036
 10
610.5858847972
 20
108.3123674552
 10
610.9582058841
 20
107.9885548014
 10
611.340967716
 20
107.8042162001
 10
611.6926921092
 20
107.779327599
 10
611.9752642682
 20
107.9165860643
 10
612.158063115
 20
108.2011175114
 10
612.2212795581
 20
108.6020885432
  0
LWPOLYLINE
  5
323
330
1F
100
AcDbEntity
  8
0
  6
Continuous
 62
     7
370
    25
100
AcDbPolyline
 90
       20
 70
   128
 43
0.0
 10
615.4032600734
 20
106.7651702916
 10
615.3400436303
 20
107.2391294749
 10
615.1572447835
 20
107.7347159781
 10
614.8746726245
 20
108.1982253137
 10
614.5229482313
 20
108.5794290531
 10
614.1401863994
 20
108.8370178562
 10
613.7678653125
 20
108.9430779793
 10
613.4463317375
 20
108.8861161622
 10
613.2104288264
 20
108.6723051018
 10
613.08572032
 20
108.3248145441
 10
613.08572032
 20
107.8813004828
 10
613.2104288264
 20
107.3898245484
 10
613.4463317375
 20
106.9036457844
 10
613.7678653125
 20
106.4754492036
 10
614.1401863994
 20
106.1516365498
 10
614.5229482313
 20
105.9672979485
 10
614.8746726245
 20
105.9424093474
 10
615.1572447835
 20
106.0796678127
 10
615.3400436303
 20
106.3641992598
 10
615.4032600734
 20
106.7651702916
  0
LWPOLYLINE
  5
324
330
1F
100
AcDbEntity
  8
0
  6
Continuous
 62
     7
370
    25
100
AcDbPolyline
 90
       20
 70
   128
 43
0.0
 10
618.5852405887
 20
104.92825204
 10
618.5220241456
 20
105.4022112233
 10
618.3392252989
 20
105.8977977265
 10
618.0566531399
 20
106.3613070621
 10
617.7049287466
 20
106.7425108015
 10
617.3221669147
 20
107.0000996046
 10
616.9498458279
 20
107.1061597277
 10
616.6283122529
 20
107.0491979106
 10
616.3924093417
 20
106.8353868502
 10
616.2677008353
 20
106.4878962925
 10
616.2677008353
 20
106.0443822312
 10
616.3924093417
 20
105.5529062968
 10
616.6283122529
 20
105.0667275328
 10
616.9498458279
 20
104.638530952
 10
617.3221669147
 20
104.3147182982
 10
617.7049287466
 20
104.1303796969
 10
618.0566531399
 20
104.1054910958
 10
618.3392252989
 20
104.2427495611
 10
618.5220241456
 20
104.5272810082
 10
618.5852405887
 20
104.92825204
  0
LWPOLYLINE
  5
325
330
1F
100
AcDbEntity
  8
0
  6
Continuous
 62
     7
370
    25
100
AcDbPolyline
 90
       20
 70
   128
 43
0.0
 10
621.7672211041
 20
103.0913337884
 10
621.704004661
 20
103.5652929717
 10
621.5212058142
 20
104.0608794749
 10
621.2386336552
 20
104.5243888105
 10
620.886909262
 20
104.9055925499
 10
620.5041474301
 20
105.163181353
 10
620.1318263432
 20
105.2692414761
 10
619.8102927682
 20
105.212279659
 10
619.5743898571
 20
104.9984685986
 10
619.4496813507
 20
104.6509780409
 10
619.4496813507
 20
104.2074639796
 10
619.5743898571
 20
103.7159880452
 10
619.8102927682
 20
103.2298092812
 10
620.1318263432
 20
102.8016127004
 10
620.5041474301
 20
102.4778000466
 10
620.886909262
 20
102.2934614453
 10
621.2386336552
 20
102.2685728442
 10
621.5212058142
 20
102.4058313095
 10
621.704004661
 20
102.6903627566
 10
621.7672211041
 20
103.0913337884
  0
LWPOLYLINE
  5
326
330
1F
100
AcDbEntity
  8
0
  6
Continuous
 62
     7
370
    25
100
AcDbPolyline
 90
       20
 70
   128
 43
0.0
 10
624.9492016194
 20
101.2544155368
 10
624.8859851763
 20
101.7283747201
 10
624.7031863295
 20
102.2239612233
 10
624.4206141705
 20
102.6874705589
 10
624.0688897773
 20
103.0686742983
 10
623.6861279454
 20
103.3262631014
 10
623.3138068585
 20
103.4323232244
 10
622.9922732835
 20
103.3753614074
 10
622.7563703724
 20
103.161550347
 10
622.631661866
 20
102.8140597893
 10
622.631661866
 20
102.370545728
 10
622.7563703724
 20
101.8790697936
 10
622.9922732835
 20
101.3928910296
 10
623.3138068585
 20
100.9646944488
 10
623.6861279454
 20
100.640881795
 10
624.0688897773
 20
100.4565431937
 10
624.4206141705
 20
100.4316545926
 10
624.7031863295
 20
100.5689130579
 10
624.8859851763
 20
100.853444505
 10
624.9492016194
 20
101.2544155368
  0
LWPOLYLINE
  5
327
330
1F
100
AcDbEntity
  8
0
  6
Continuous
 62
     7
370
    25
100
AcDbPolyline
 90
       20
 70
   128
 43
0.0
 10
628.1311821348
 20
99.4174972852
 10
628.0679656917
 20
99.8914564685
 10
627.8851668449
 20
100.3870429717
 10
627.6025946859
 20
100.8505523073
 10
627.2508702927
 20
101.2317560467
 10
626.8681084608
 20
101.4893448498
 10
626.4957873739
 20
101.5954049728
 10
626.1742537989
 20
101.5384431558
 10
625.9383508878
 20
101.3246320954
 10
625.8136423813
 20
100.9771415377
 10
625.8136423813
 20
100.5336274764
 10
625.9383508878
 20
100.042151542
 10
626.1742537989
 20
99.555972778
 10
626.4957873739
 20
99.1277761972
 10
626.8681084608
 20
98.8039635434
 10
627.2508702927
 20
98.6196249421
 10
627.6025946859
 20
98.594736341
 10
627.8851668449
 20
98.7319948063
 10
628.0679656917
 20
99.0165262534
 10
628.1311821348
 20
99.4174972852
  0
LWPOLYLINE
  5
328
330
1F
100
AcDbEntity
  8
0
  6
Continuous
 62
     7
370
    25
100
AcDbPolyline
 90
       20
 70
   128
 43
0.0
 10
631.3131626501
 20
97.5805790336
 10
631.249946207
 20
98.0545382169
 10
631.0671473602
 20
98.5501247201
 10
630.7845752012
 20
99.0136340557
 10
630.432850808
 20
99.3948377951
 10
630.0500889761
 20
99.6524265982
 10
629.6777678892
 20
99.7584867212
 10
629.3562343142
 20
99.7015249042
 10
629.1203314031
 20
99.4877138438
 10
628.9956228967
 20
99.1402232861
 10
628.9956228967
 20
98.6967092248
 10
629.1203314031
 20
98.2052332904
 10
629.3562343142
 20
97.7190545264
 10
629.6777678892
 20
97.2908579456
 10
630.0500889761
 20
96.9670452918
 10
630.432850808
 20
96.7827066905
 10
630.7845752012
 20
96.7578180894
 10
631.0671473602
 20
96.8950765547
 10
631.249946207
 20
97.1796080018
 10
631.3131626501
 20
97.5805790336
  0
LWPOLYLINE
  5
329
330
1F
100
AcDbEntity
  8
0
  6
Continuous
 62
     7
370
    25
100
AcDbPolyline
 90
       20
 70
   128
 43
0.0
 10
634.4951431654
 20
95.743660782
 10
634.4319267223
 20
96.2176199653
 10
634.2491278756
 20
96.7132064685
 10
633.9665557166
 20
97.1767158041
 10
633.6148313233
 20
97.5579195435
 10
633.2320694914
 20
97.8155083466
 10
632.8597484045
 20
97.9215684696
 10
632.5382148296
 20
97.8646066526
 10
632.3023119184
 20
97.6507955922
 10
632.177603412
 20
97.3033050345
 10
632.177603412
 20
96.8597909732
 10
632.3023119184
 20
96.3683150388
 10
632.5382148296
 20
95.8821362748
 10
632.8597484045
 20
95.453939694
 10
633.2320694914
 20
95.1301270402
 10
633.6148313233
 20
94.9457884389
 10
633.9665557166
 20
94.9208998378
 10
634.2491278756
 20
95.0581583031
 10
634.4319267223
 20
95.3426897502
 10
634.4951431654
 20
95.743660782
  0
LWPOLYLINE
  5
32A
330
1F
100
AcDbEntity
  8
0
  6
Continuous
 62
     7
370
    25
100
AcDbPolyline
 90
       20
 70
   128
 43
0.0
 10
637.6771236808
 20
93.9067425304
 10
637.6139072377
 20
94.3807017137
 10
637.4311083909
 20
94.8762882169
 10
637.1485362319
 20
95.3397975525
 10
636.7968118387
 20
95.7210012919
 10
636.4140500068
 20
95.978590095
 10
636.0417289199
 20
96.084650218
 10
635.7201953449
 20
96.027688401
 10
635.4842924338
 20
95.8138773406
 10
635.3595839274
 20
95.4663867829
 10
635.3595839274
 20
95.0228727216
 10
635.4842924338
 20
94.5313967872
 10
635.7201953449
 20
94.0452180232
 10
636.0417289199
 20
93.6170214424
 10
636.4140500068
 20
93.2932087886
 10
636.7968118387
 20
93.1088701873
 10
637.1485362319
 20
93.0839815862
 10
637.4311083909
 20
93.2212400515
 10
637.6139072377
 20
93.5057714986
 10
637.6771236808
 20
93.9067425304
  0
LWPOLYLINE
  5
32B
330
1F
100
AcDbEntity
  8
0
  6
Continuous
 62
     7
370
    25
100
AcDbPolyline
 90
       20
 70
   128
 43
0.0
 10
640.8591041961
 20
92.0698242788
 10
640.795887753
 20
92.5437834621
 10
640.6130889062
 20
93.0393699653
 10
640.3305167472
 20
93.5028793009
 10
639.978792354
 20
93.8840830403
 10
639.5960305221
 20
94.1416718434
 10
639.2237094352
 20
94.2477319664
 10
638.9021758602
 20
94.1907701494
 10
638.6662729491
 20
93.976959089
 10
638.5415644427
 20
93.6294685313
 10
638.5415644427
 20
93.18595447
 10
638.6662729491
 20
92.6944785356
 10
638.9021758602
 20
92.2082997716
 10
639.2237094352
 20
91.7801031908
 10
639.5960305221
 20
91.456290537
 10
639.978792354
 20
91.2719519357
 10
640.3305167472
 20
91.2470633346
 10
640.6130889062
 20
91.3843217999
 10
640.795887753
 20
91.668853247
 10
640.8591041961
 20
92.0698242788
  0
LWPOLYLINE
  5
32C
330
1F
100
AcDbEntity
  8
0
  6
Continuous
 62
     7
370
    25
100
AcDbPolyline
 90
       20
 70
   128
 43
0.0
 10
644.0410847115
 20
90.2329060272
 10
643.9778682684
 20
90.7068652105
 10
643.7950694216
 20
91.2024517137
 10
643.5124972626
 20
91.6659610493
 10
643.1607728694
 20
92.0471647887
 10
642.7780110375
 20
92.3047535918
 10
642.4056899506
 20
92.4108137148
 10
642.0841563756
 20
92.3538518978
 10
641.8482534645
 20
92.1400408374
 10
641.723544958
 20
91.7925502797
 10
641.723544958
 20
91.3490362184
 10
641.8482534645
 20
90.857560284
 10
642.0841563756
 20
90.37138152
 10
642.4056899506
 20
89.9431849392
 10
642.7780110375
 20
89.6193722854
 10
643.1607728694
 20
89.4350336841
 10
643.5124972626
 20
89.410145083
 10
643.7950694216
 20
89.5474035483
 10
643.9778682684
 20
89.8319349954
 10
644.0410847115
 20
90.2329060272
  0
LWPOLYLINE
  5
32D
330
1F
100
AcDbEntity
  8
0
  6
Continuous
 62
     7
370
    25
100
AcDbPolyline
 90
       20
 70
   128
 43
0.0
 10
647.2230652268
 20
88.3959877756
 10
647.1598487837
 20
88.8699469589
 10
646.9770499369
 20
89.3655334621
 10
646.6944777779
 20
89.8290427977
 10
646.3427533847
 20
90.2102465371
 10
645.9599915528
 20
90.4678353402
 10
645.5876704659
 20
90.5738954632
 10
645.2661368909
 20
90.5169336462
 10
645.0302339798
 20
90.3031225858
 10
644.9055254734
 20
89.9556320281
 10
644.9055254734
 20
89.5121179668
 10
645.0302339798
 20
89.0206420324
 10
645.2661368909
 20
88.5344632684
 10
645.5876704659
 20
88.1062666876
 10
645.9599915528
 20
87.7824540338
 10
646.3427533847
 20
87.5981154325
 10
646.6944777779
 20
87.5732268314
 10
646.9770499369
 20
87.7104852967
 10
647.1598487837
 20
87.9950167438
 10
647.2230652268
 20
88.3959877756
  0
LWPOLYLINE
  5
32E
330
1F
100
AcDbEntity
  8
0
  6
Continuous
 62
     7
370
    25
100
AcDbPolyline
 90
       20
 70
   128
 43
0.0
 10
650.4050457421
 20
86.5590695239
 10
650.341829299
 20
87.0330287073
 10
650.1590304523
 20
87.5286152105
 10
649.8764582933
 20
87.9921245461
 10
649.5247339
 20
88.3733282855
 10
649.1419720681
 20
88.6309170886
 10
648.7696509812
 20
88.7369772116
 10
648.4481174063
 20
88.6800153946
 10
648.2122144951
 20
88.4662043342
 10
648.0875059887
 20
88.1187137765
 10
648.0875059887
 20
87.6751997152
 10
648.2122144951
 20
87.1837237808
 10
648.4481174063
 20
86.6975450168
 10
648.7696509812
 20
86.269348436
 10
649.1419720681
 20
85.9455357822
 10
649.5247339
 20
85.7611971809
 10
649.8764582933
 20
85.7363085798
 10
650.1590304523
 20
85.8735670451
 10
650.341829299
 20
86.1580984922
 10
650.4050457421
 20
86.5590695239
  0
LWPOLYLINE
  5
32F
330
1F
100
AcDbEntity
  8
0
  6
Continuous
 62
     7
370
    25
100
AcDbPolyline
 90
       20
 70
   128
 43
0.0
 10
653.5870262575
 20
84.7221512723
 10
653.5238098144
 20
85.1961104557
 10
653.3410109676
 20
85.6916969589
 10
653.0584388086
 20
86.1552062945
 10
652.7067144154
 20
86.5364100339
 10
652.3239525835
 20
86.793998837
 10
651.9516314966
 20
86.90005896
 10
651.6300979216
 20
86.843097143
 10
651.3941950105
 20
86.6292860826
 10
651.2694865041
 20
86.2817955249
 10
651.2694865041
 20
85.8382814636
 10
651.3941950105
 20
85.3468055292
 10
651.6300979216
 20
84.8606267652
 10
651.9516314966
 20
84.4324301844
 10
652.3239525835
 20
84.1086175306
 10
652.7067144154
 20
83.9242789293
 10
653.0584388086
 20
83.8993903282
 10
653.3410109676
 20
84.0366487935
 10
653.5238098144
 20
84.3211802406
 10
653.5870262575
 20
84.7221512723
  0
LWPOLYLINE
  5
330
330
1F
100
AcDbEntity
  8
0
  6
Continuous
 62
     7
370
    25
100
AcDbPolyline
 90
       20
 70
   128
 43
0.0
 10
656.7690067728
 20
82.8852330207
 10
656.7057903297
 20
83.3591922041
 10
656.5229914829
 20
83.8547787073
 10
656.2404193239
 20
84.3182880429
 10
655.8886949307
 20
84.6994917823
 10
655.5059330988
 20
84.9570805854
 10
655.1336120119
 20
85.0631407084
 10
654.8120784369
 20
85.0061788914
 10
654.5761755258
 20
84.792367831
 10
654.4514670194
 20
84.4448772733
 10
654.4514670194
 20
84.001363212
 10
654.5761755258
 20
83.5098872776
 10
654.8120784369
 20
83.0237085136
 10
655.1336120119
 20
82.5955119328
 10
655.5059330988
 20
82.271699279
 10
655.8886949307
 20
82.0873606777
 10
656.2404193239
 20
82.0624720766
 10
656.5229914829
 20
82.1997305419
 10
656.7057903297
 20
82.484261989
 10
656.7690067728
 20
82.8852330207
  0
LWPOLYLINE
  5
331
330
1F
100
AcDbEntity
  8
0
  6
Continuous
 62
     7
370
    25
100
AcDbPolyline
 90
       20
 70
   128
 43
0.0
 10
659.9509872881
 20
81.0483147691
 10
659.8877708451
 20
81.5222739525
 10
659.7049719983
 20
82.0178604557
 10
659.4223998393
 20
82.4813697913
 10
659.070675446
 20
82.8625735307
 10
658.6879136142
 20
83.1201623338
 10
658.3155925273
 20
83.2262224568
 10
657.9940589523
 20
83.1692606398
 10
657.7581560412
 20
82.9554495794
 10
657.6334475347
 20
82.6079590217
 10
657.6334475347
 20
82.1644449604
 10
657.7581560412
 20
81.672969026
 10
657.9940589523
 20
81.186790262
 10
658.3155925273
 20
80.7585936812
 10
658.6879136142
 20
80.4347810274
 10
659.070675446
 20
80.2504424261
 10
659.4223998393
 20
80.225553825
 10
659.7049719983
 20
80.3628122903
 10
659.8877708451
 20
80.6473437374
 10
659.9509872881
 20
81.0483147691
  0
LWPOLYLINE
  5
332
330
1F
100
AcDbEntity
  8
0
  6
Continuous
 62
     7
370
    25
100
AcDbPolyline
 90
       20
 70
   128
 43
0.0
 10
663.1329678035
 20
79.2113965175
 10
663.0697513604
 20
79.6853557009
 10
662.8869525136
 20
80.1809422041
 10
662.6043803546
 20
80.6444515397
 10
662.2526559614
 20
81.0256552791
 10
661.8698941295
 20
81.2832440822
 10
661.4975730426
 20
81.3893042052
 10
661.1760394676
 20
81.3323423882
 10
660.9401365565
 20
81.1185313278
 10
660.8154280501
 20
80.7710407701
 10
660.8154280501
 20
80.3275267088
 10
660.9401365565
 20
79.8360507744
 10
661.1760394676
 20
79.3498720104
 10
661.4975730426
 20
78.9216754296
 10
661.8698941295
 20
78.5978627758
 10
662.2526559614
 20
78.4135241745
 10
662.6043803546
 20
78.3886355734
 10
662.8869525136
 20
78.5258940387
 10
663.0697513604
 20
78.8104254858
 10
663.1329678035
 20
79.2113965175
  0
LWPOLYLINE
  5
333
330
1F
100
AcDbEntity
  8
0
  6
Continuous
 62
     7
370
    25
100
AcDbPolyline
 90
       20
 70
   128
 43
0.0
 10
666.3149483188
 20
77.3744782659
 10
666.2517318757
 20
77.8484374493
 10
666.068933029
 20
78.3440239525
 10
665.78636087
 20
78.8075332881
 10
665.4346364767
 20
79.1887370275
 10
665.0518746448
 20
79.4463258306
 10
664.6795535579
 20
79.5523859536
 10
664.358019983
 20
79.4954241366
 10
664.1221170718
 20
79.2816130762
 10
663.9974085654
 20
78.9341225185
 10
663.9974085654
 20
78.4906084572
 10
664.1221170718
 20
77.9991325228
 10
664.358019983
 20
77.5129537588
 10
664.6795535579
 20
77.084757178
 10
665.0518746448
 20
76.7609445242
 10
665.4346364767
 20
76.5766059229
 10
665.78636087
 20
76.5517173218
 10
666.068933029
 20
76.6889757871
 10
666.2517318757
 20
76.9735072342
 10
666.3149483188
 20
77.3744782659
  0
LWPOLYLINE
  5
334
330
1F
100
AcDbEntity
  8
0
  6
Continuous
 62
     7
370
    25
100
AcDbPolyline
 90
       20
 70
   128
 43
0.0
 10
599.4933574967
 20
112.2753278961
 10
599.4301410536
 20
112.7492870794
 10
599.2473422068
 20
113.2448735826
 10
598.9647700478
 20
113.7083829182
 10
598.6130456546
 20
114.0895866576
 10
598.2302838227
 20
114.3471754607
 10
597.8579627358
 20
114.4532355838
 10
597.5364291608
 20
114.3962737667
 10
597.3005262497
 20
114.1824627063
 10
597.1758177433
 20
113.8349721486
 10
597.1758177433
 20
113.3914580874
 10
597.3005262497
 20
112.8999821529
 10
597.5364291608
 20
112.4138033889
 10
597.8579627358
 20
111.9856068081
 10
598.2302838227
 20
111.6617941543
 10
598.6130456546
 20
111.477455553
 10
598.9647700478
 20
111.4525669519
 10
599.2473422068
 20
111.5898254172
 10
599.4301410536
 20
111.8743568643
 10
599.4933574967
 20
112.2753278961
  0
LWPOLYLINE
  5
335
330
1F
100
AcDbEntity
  8
0
  6
Continuous
 62
     7
370
    25
100
AcDbPolyline
 90
       20
 70
   128
 43
0.0
 10
602.675338012
 20
110.4384096445
 10
602.6121215689
 20
110.9123688278
 10
602.4293227222
 20
111.407955331
 10
602.1467505632
 20
111.8714646666
 10
601.7950261699
 20
112.252668406
 10
601.4122643381
 20
112.5102572091
 10
601.0399432512
 20
112.6163173322
 10
600.7184096762
 20
112.5593555151
 10
600.482506765
 20
112.3455444547
 10
600.3577982586
 20
111.998053897
 10
600.3577982586
 20
111.5545398358
 10
600.482506765
 20
111.0630639013
 10
600.7184096762
 20
110.5768851373
 10
601.0399432512
 20
110.1486885565
 10
601.4122643381
 20
109.8248759027
 10
601.7950261699
 20
109.6405373014
 10
602.1467505632
 20
109.6156487003
 10
602.4293227222
 20
109.7529071656
 10
602.6121215689
 20
110.0374386127
 10
602.675338012
 20
110.4384096445
  0
LWPOLYLINE
  5
336
330
1F
100
AcDbEntity
  8
0
  6
Continuous
 62
     7
370
    25
100
AcDbPolyline
 90
       20
 70
   128
 43
0.0
 10
605.8573185274
 20
108.6014913929
 10
605.7941020843
 20
109.0754505762
 10
605.6113032375
 20
109.5710370794
 10
605.3287310785
 20
110.034546415
 10
604.9770066853
 20
110.4157501544
 10
604.5942448534
 20
110.6733389575
 10
604.2219237665
 20
110.7793990806
 10
603.9003901915
 20
110.7224372635
 10
603.6644872804
 20
110.5086262031
 10
603.539778774
 20
110.1611356454
 10
603.539778774
 20
109.7176215842
 10
603.6644872804
 20
109.2261456497
 10
603.9003901915
 20
108.7399668857
 10
604.2219237665
 20
108.3117703049
 10
604.5942448534
 20
107.9879576511
 10
604.9770066853
 20
107.8036190498
 10
605.3287310785
 20
107.7787304487
 10
605.6113032375
 20
107.915988914
 10
605.7941020843
 20
108.2005203611
 10
605.8573185274
 20
108.6014913929
  0
LWPOLYLINE
  5
337
330
1F
100
AcDbEntity
  8
0
  6
Continuous
 62
     7
370
    25
100
AcDbPolyline
 90
       20
 70
   128
 43
0.0
 10
609.0392990427
 20
106.7645731413
 10
608.9760825996
 20
107.2385323246
 10
608.7932837528
 20
107.7341188278
 10
608.5107115938
 20
108.1976281634
 10
608.1589872006
 20
108.5788319028
 10
607.7762253687
 20
108.8364207059
 10
607.4039042818
 20
108.942480829
 10
607.0823707068
 20
108.8855190119
 10
606.8464677957
 20
108.6717079515
 10
606.7217592893
 20
108.3242173938
 10
606.7217592893
 20
107.8807033326
 10
606.8464677957
 20
107.3892273981
 10
607.0823707068
 20
106.9030486341
 10
607.4039042818
 20
106.4748520533
 10
607.7762253687
 20
106.1510393995
 10
608.1589872006
 20
105.9667007982
 10
608.5107115938
 20
105.9418121971
 10
608.7932837528
 20
106.0790706624
 10
608.9760825996
 20
106.3636021095
 10
609.0392990427
 20
106.7645731413
  0
LWPOLYLINE
  5
338
330
1F
100
AcDbEntity
  8
0
  6
Continuous
 62
     7
370
    25
100
AcDbPolyline
 90
       20
 70
   128
 43
0.0
 10
612.2212795581
 20
104.9276548897
 10
612.158063115
 20
105.401614073
 10
611.9752642682
 20
105.8972005762
 10
611.6926921092
 20
106.3607099118
 10
611.340967716
 20
106.7419136512
 10
610.9582058841
 20
106.9995024543
 10
610.5858847972
 20
107.1055625774
 10
610.2643512222
 20
107.0486007603
 10
610.0284483111
 20
106.8347896999
 10
609.9037398046
 20
106.4872991422
 10
609.9037398046
 20
106.043785081
 10
610.0284483111
 20
105.5523091465
 10
610.2643512222
 20
105.0661303825
 10
610.5858847972
 20
104.6379338017
 10
610.9582058841
 20
104.3141211479
 10
611.340967716
 20
104.1297825466
 10
611.6926921092
 20
104.1048939455
 10
611.9752642682
 20
104.2421524108
 10
612.158063115
 20
104.5266838579
 10
612.2212795581
 20
104.9276548897
  0
LWPOLYLINE
  5
339
330
1F
100
AcDbEntity
  8
0
  6
Continuous
 62
     7
370
    25
100
AcDbPolyline
 90
       20
 70
   128
 43
0.0
 10
615.4032600734
 20
103.0907366381
 10
615.3400436303
 20
103.5646958214
 10
615.1572447835
 20
104.0602823246
 10
614.8746726245
 20
104.5237916602
 10
614.5229482313
 20
104.9049953996
 10
614.1401863994
 20
105.1625842027
 10
613.7678653125
 20
105.2686443258
 10
613.4463317375
 20
105.2116825087
 10
613.2104288264
 20
104.9978714483
 10
613.08572032
 20
104.6503808906
 10
613.08572032
 20
104.2068668294
 10
613.2104288264
 20
103.7153908949
 10
613.4463317375
 20
103.2292121309
 10
613.7678653125
 20
102.8010155501
 10
614.1401863994
 20
102.4772028963
 10
614.5229482313
 20
102.292864295
 10
614.8746726245
 20
102.2679756939
 10
615.1572447835
 20
102.4052341592
 10
615.3400436303
 20
102.6897656063
 10
615.4032600734
 20
103.0907366381
  0
LWPOLYLINE
  5
33A
330
1F
100
AcDbEntity
  8
0
  6
Continuous
 62
     7
370
    25
100
AcDbPolyline
 90
       20
 70
   128
 43
0.0
 10
618.5852405887
 20
101.2538183865
 10
618.5220241456
 20
101.7277775698
 10
618.3392252989
 20
102.223364073
 10
618.0566531399
 20
102.6868734086
 10
617.7049287466
 20
103.068077148
 10
617.3221669147
 20
103.3256659511
 10
616.9498458279
 20
103.4317260742
 10
616.6283122529
 20
103.3747642571
 10
616.3924093417
 20
103.1609531967
 10
616.2677008353
 20
102.813462639
 10
616.2677008353
 20
102.3699485778
 10
616.3924093417
 20
101.8784726433
 10
616.6283122529
 20
101.3922938793
 10
616.9498458279
 20
100.9640972985
 10
617.3221669147
 20
100.6402846447
 10
617.7049287466
 20
100.4559460434
 10
618.0566531399
 20
100.4310574423
 10
618.3392252989
 20
100.5683159076
 10
618.5220241456
 20
100.8528473547
 10
618.5852405887
 20
101.2538183865
  0
LWPOLYLINE
  5
33B
330
1F
100
AcDbEntity
  8
0
  6
Continuous
 62
     7
370
    25
100
AcDbPolyline
 90
       20
 70
   128
 43
0.0
 10
621.7672211041
 20
99.4169001349
 10
621.704004661
 20
99.8908593182
 10
621.5212058142
 20
100.3864458214
 10
621.2386336552
 20
100.849955157
 10
620.886909262
 20
101.2311588964
 10
620.5041474301
 20
101.4887476995
 10
620.1318263432
 20
101.5948078226
 10
619.8102927682
 20
101.5378460055
 10
619.5743898571
 20
101.3240349451
 10
619.4496813507
 20
100.9765443874
 10
619.4496813507
 20
100.5330303262
 10
619.5743898571
 20
100.0415543917
 10
619.8102927682
 20
99.5553756277
 10
620.1318263432
 20
99.1271790469
 10
620.5041474301
 20
98.8033663931
 10
620.886909262
 20
98.6190277918
 10
621.2386336552
 20
98.5941391907
 10
621.5212058142
 20
98.731397656
 10
621.704004661
 20
99.0159291031
 10
621.7672211041
 20
99.4169001349
  0
LWPOLYLINE
  5
33C
330
1F
100
AcDbEntity
  8
0
  6
Continuous
 62
     7
370
    25
100
AcDbPolyline
 90
       20
 70
   128
 43
0.0
 10
624.9492016194
 20
97.5799818833
 10
624.8859851763
 20
98.0539410666
 10
624.7031863295
 20
98.5495275698
 10
624.4206141705
 20
99.0130369054
 10
624.0688897773
 20
99.3942406448
 10
623.6861279454
 20
99.6518294479
 10
623.3138068585
 20
99.757889571
 10
622.9922732835
 20
99.7009277539
 10
622.7563703724
 20
99.4871166935
 10
622.631661866
 20
99.1396261358
 10
622.631661866
 20
98.6961120746
 10
622.7563703724
 20
98.2046361401
 10
622.9922732835
 20
97.7184573761
 10
623.3138068585
 20
97.2902607953
 10
623.6861279454
 20
96.9664481415
 10
624.0688897773
 20
96.7821095402
 10
624.4206141705
 20
96.7572209391
 10
624.7031863295
 20
96.8944794044
 10
624.8859851763
 20
97.1790108515
 10
624.9492016194
 20
97.5799818833
  0
LWPOLYLINE
  5
33D
330
1F
100
AcDbEntity
  8
0
  6
Continuous
 62
     7
370
    25
100
AcDbPolyline
 90
       20
 70
   128
 43
0.0
 10
628.1311821348
 20
95.7430636317
 10
628.0679656917
 20
96.217022815
 10
627.8851668449
 20
96.7126093182
 10
627.6025946859
 20
97.1761186538
 10
627.2508702927
 20
97.5573223932
 10
626.8681084608
 20
97.8149111963
 10
626.4957873739
 20
97.9209713194
 10
626.1742537989
 20
97.8640095023
 10
625.9383508878
 20
97.6501984419
 10
625.8136423813
 20
97.3027078842
 10
625.8136423813
 20
96.859193823
 10
625.9383508878
 20
96.3677178885
 10
626.1742537989
 20
95.8815391245
 10
626.4957873739
 20
95.4533425437
 10
626.8681084608
 20
95.1295298899
 10
627.2508702927
 20
94.9451912886
 10
627.6025946859
 20
94.9203026875
 10
627.8851668449
 20
95.0575611528
 10
628.0679656917
 20
95.3420925999
 10
628.1311821348
 20
95.7430636317
  0
LWPOLYLINE
  5
33E
330
1F
100
AcDbEntity
  8
0
  6
Continuous
 62
     7
370
    25
100
AcDbPolyline
 90
       20
 70
   128
 43
0.0
 10
631.3131626501
 20
93.9061453801
 10
631.249946207
 20
94.3801045634
 10
631.0671473602
 20
94.8756910666
 10
630.7845752012
 20
95.3392004022
 10
630.432850808
 20
95.7204041416
 10
630.0500889761
 20
95.9779929447
 10
629.6777678892
 20
96.0840530678
 10
629.3562343142
 20
96.0270912507
 10
629.1203314031
 20
95.8132801903
 10
628.9956228967
 20
95.4657896326
 10
628.9956228967
 20
95.0222755714
 10
629.1203314031
 20
94.5307996369
 10
629.3562343142
 20
94.0446208729
 10
629.6777678892
 20
93.6164242921
 10
630.0500889761
 20
93.2926116383
 10
630.432850808
 20
93.108273037
 10
630.7845752012
 20
93.0833844359
 10
631.0671473602
 20
93.2206429012
 10
631.249946207
 20
93.5051743483
 10
631.3131626501
 20
93.9061453801
  0
LWPOLYLINE
  5
33F
330
1F
100
AcDbEntity
  8
0
  6
Continuous
 62
     7
370
    25
100
AcDbPolyline
 90
       20
 70
   128
 43
0.0
 10
634.4951431654
 20
92.0692271285
 10
634.4319267223
 20
92.5431863118
 10
634.2491278756
 20
93.038772815
 10
633.9665557166
 20
93.5022821506
 10
633.6148313233
 20
93.88348589
 10
633.2320694914
 20
94.1410746931
 10
632.8597484045
 20
94.2471348162
 10
632.5382148296
 20
94.1901729991
 10
632.3023119184
 20
93.9763619387
 10
632.177603412
 20
93.628871381
 10
632.177603412
 20
93.1853573198
 10
632.3023119184
 20
92.6938813853
 10
632.5382148296
 20
92.2077026213
 10
632.8597484045
 20
91.7795060405
 10
633.2320694914
 20
91.4556933867
 10
633.6148313233
 20
91.2713547854
 10
633.9665557166
 20
91.2464661843
 10
634.2491278756
 20
91.3837246496
 10
634.4319267223
 20
91.6682560967
 10
634.4951431654
 20
92.0692271285
  0
LWPOLYLINE
  5
340
330
1F
100
AcDbEntity
  8
0
  6
Continuous
 62
     7
370
    25
100
AcDbPolyline
 90
       20
 70
   128
 43
0.0
 10
637.6771236808
 20
90.2323088769
 10
637.6139072377
 20
90.7062680602
 10
637.4311083909
 20
91.2018545634
 10
637.1485362319
 20
91.665363899
 10
636.7968118387
 20
92.0465676384
 10
636.4140500068
 20
92.3041564415
 10
636.0417289199
 20
92.4102165646
 10
635.7201953449
 20
92.3532547475
 10
635.4842924338
 20
92.1394436871
 10
635.3595839274
 20
91.7919531294
 10
635.3595839274
 20
91.3484390682
 10
635.4842924338
 20
90.8569631337
 10
635.7201953449
 20
90.3707843697
 10
636.0417289199
 20
89.9425877889
 10
636.4140500068
 20
89.6187751351
 10
636.7968118387
 20
89.4344365338
 10
637.1485362319
 20
89.4095479327
 10
637.4311083909
 20
89.546806398
 10
637.6139072377
 20
89.8313378451
 10
637.6771236808
 20
90.2323088769
  0
LWPOLYLINE
  5
341
330
1F
100
AcDbEntity
  8
0
  6
Continuous
 62
     7
370
    25
100
AcDbPolyline
 90
       20
 70
   128
 43
0.0
 10
640.8591041961
 20
88.3953906253
 10
640.795887753
 20
88.8693498086
 10
640.6130889062
 20
89.3649363118
 10
640.3305167472
 20
89.8284456474
 10
639.978792354
 20
90.2096493868
 10
639.5960305221
 20
90.4672381899
 10
639.2237094352
 20
90.573298313
 10
638.9021758602
 20
90.5163364959
 10
638.6662729491
 20
90.3025254355
 10
638.5415644427
 20
89.9550348778
 10
638.5415644427
 20
89.5115208166
 10
638.6662729491
 20
89.0200448821
 10
638.9021758602
 20
88.5338661181
 10
639.2237094352
 20
88.1056695373
 10
639.5960305221
 20
87.7818568835
 10
639.978792354
 20
87.5975182822
 10
640.3305167472
 20
87.5726296811
 10
640.6130889062
 20
87.7098881464
 10
640.795887753
 20
87.9944195935
 10
640.8591041961
 20
88.3953906253
  0
LWPOLYLINE
  5
342
330
1F
100
AcDbEntity
  8
0
  6
Continuous
 62
     7
370
    25
100
AcDbPolyline
 90
       20
 70
   128
 43
0.0
 10
644.0410847115
 20
86.5584723737
 10
643.9778682684
 20
87.032431557
 10
643.7950694216
 20
87.5280180602
 10
643.5124972626
 20
87.9915273958
 10
643.1607728694
 20
88.3727311352
 10
642.7780110375
 20
88.6303199383
 10
642.4056899506
 20
88.7363800614
 10
642.0841563756
 20
88.6794182443
 10
641.8482534645
 20
88.4656071839
 10
641.723544958
 20
88.1181166262
 10
641.723544958
 20
87.674602565
 10
641.8482534645
 20
87.1831266305
 10
642.0841563756
 20
86.6969478665
 10
642.4056899506
 20
86.2687512857
 10
642.7780110375
 20
85.9449386319
 10
643.1607728694
 20
85.7606000306
 10
643.5124972626
 20
85.7357114295
 10
643.7950694216
 20
85.8729698948
 10
643.9778682684
 20
86.1575013419
 10
644.0410847115
 20
86.5584723737
  0
LWPOLYLINE
  5
343
330
1F
100
AcDbEntity
  8
0
  6
Continuous
 62
     7
370
    25
100
AcDbPolyline
 90
       20
 70
   128
 43
0.0
 10
647.2230652268
 20
84.7215541221
 10
647.1598487837
 20
85.1955133054
 10
646.9770499369
 20
85.6910998086
 10
646.6944777779
 20
86.1546091442
 10
646.3427533847
 20
86.5358128836
 10
645.9599915528
 20
86.7934016867
 10
645.5876704659
 20
86.8994618098
 10
645.2661368909
 20
86.8424999927
 10
645.0302339798
 20
86.6286889323
 10
644.9055254734
 20
86.2811983746
 10
644.9055254734
 20
85.8376843134
 10
645.0302339798
 20
85.3462083789
 10
645.2661368909
 20
84.8600296149
 10
645.5876704659
 20
84.4318330341
 10
645.9599915528
 20
84.1080203803
 10
646.3427533847
 20
83.923681779
 10
646.6944777779
 20
83.8987931779
 10
646.9770499369
 20
84.0360516432
 10
647.1598487837
 20
84.3205830903
 10
647.2230652268
 20
84.7215541221
  0
LWPOLYLINE
  5
344
330
1F
100
AcDbEntity
  8
0
  6
Continuous
 62
     7
370
    25
100
AcDbPolyline
 90
       20
 70
   128
 43
0.0
 10
650.4050457421
 20
82.8846358705
 10
650.341829299
 20
83.3585950538
 10
650.1590304523
 20
83.854181557
 10
649.8764582933
 20
84.3176908926
 10
649.5247339
 20
84.698894632
 10
649.1419720681
 20
84.9564834351
 10
648.7696509812
 20
85.0625435582
 10
648.4481174063
 20
85.0055817411
 10
648.2122144951
 20
84.7917706807
 10
648.0875059887
 20
84.444280123
 10
648.0875059887
 20
84.0007660618
 10
648.2122144951
 20
83.5092901273
 10
648.4481174063
 20
83.0231113633
 10
648.7696509812
 20
82.5949147825
 10
649.1419720681
 20
82.2711021287
 10
649.5247339
 20
82.0867635274
 10
649.8764582933
 20
82.0618749263
 10
650.1590304523
 20
82.1991333916
 10
650.341829299
 20
82.4836648387
 10
650.4050457421
 20
82.8846358705
  0
LWPOLYLINE
  5
345
330
1F
100
AcDbEntity
  8
0
  6
Continuous
 62
     7
370
    25
100
AcDbPolyline
 90
       20
 70
   128
 43
0.0
 10
653.5870262575
 20
81.0477176189
 10
653.5238098144
 20
81.5216768022
 10
653.3410109676
 20
82.0172633054
 10
653.0584388086
 20
82.480772641
 10
652.7067144154
 20
82.8619763804
 10
652.3239525835
 20
83.1195651835
 10
651.9516314966
 20
83.2256253066
 10
651.6300979216
 20
83.1686634895
 10
651.3941950105
 20
82.9548524291
 10
651.2694865041
 20
82.6073618714
 10
651.2694865041
 20
82.1638478102
 10
651.3941950105
 20
81.6723718757
 10
651.6300979216
 20
81.1861931117
 10
651.9516314966
 20
80.7579965309
 10
652.3239525835
 20
80.4341838771
 10
652.7067144154
 20
80.2498452758
 10
653.0584388086
 20
80.2249566747
 10
653.3410109676
 20
80.36221514
 10
653.5238098144
 20
80.6467465871
 10
653.5870262575
 20
81.0477176189
  0
LWPOLYLINE
  5
346
330
1F
100
AcDbEntity
  8
0
  6
Continuous
 62
     7
370
    25
100
AcDbPolyline
 90
       20
 70
   128
 43
0.0
 10
656.7690067728
 20
79.2107993673
 10
656.7057903297
 20
79.6847585506
 10
656.5229914829
 20
80.1803450538
 10
656.2404193239
 20
80.6438543894
 10
655.8886949307
 20
81.0250581288
 10
655.5059330988
 20
81.2826469319
 10
655.1336120119
 20
81.388707055
 10
654.8120784369
 20
81.3317452379
 10
654.5761755258
 20
81.1179341775
 10
654.4514670194
 20
80.7704436198
 10
654.4514670194
 20
80.3269295585
 10
654.5761755258
 20
79.8354536241
 10
654.8120784369
 20
79.3492748601
 10
655.1336120119
 20
78.9210782793
 10
655.5059330988
 20
78.5972656255
 10
655.8886949307
 20
78.4129270242
 10
656.2404193239
 20
78.3880384231
 10
656.5229914829
 20
78.5252968884
 10
656.7057903297
 20
78.8098283355
 10
656.7690067728
 20
79.2107993673
  0
LWPOLYLINE
  5
347
330
1F
100
AcDbEntity
  8
0
  6
Continuous
 62
     7
370
    25
100
AcDbPolyline
 90
       20
 70
   128
 43
0.0
 10
659.9509872881
 20
77.3738811157
 10
659.8877708451
 20
77.847840299
 10
659.7049719983
 20
78.3434268022
 10
659.4223998393
 20
78.8069361378
 10
659.070675446
 20
79.1881398772
 10
658.6879136142
 20
79.4457286803
 10
658.3155925273
 20
79.5517888034
 10
657.9940589523
 20
79.4948269863
 10
657.7581560412
 20
79.2810159259
 10
657.6334475347
 20
78.9335253682
 10
657.6334475347
 20
78.4900113069
 10
657.7581560412
 20
77.9985353725
 10
657.9940589523
 20
77.5123566085
 10
658.3155925273
 20
77.0841600277
 10
658.6879136142
 20
76.7603473739
 10
659.070675446
 20
76.5760087726
 10
659.4223998393
 20
76.5511201715
 10
659.7049719983
 20
76.6883786368
 10
659.8877708451
 20
76.9729100839
 10
659.9509872881
 20
77.3738811157
  0
LWPOLYLINE
  5
348
330
1F
100
AcDbEntity
  8
0
  6
Continuous
 62
     7
370
    25
100
AcDbPolyline
 90
       20
 70
   128
 43
0.0
 10
663.1329678035
 20
75.5369628641
 10
663.0697513604
 20
76.0109220474
 10
662.8869525136
 20
76.5065085506
 10
662.6043803546
 20
76.9700178862
 10
662.2526559614
 20
77.3512216256
 10
661.8698941295
 20
77.6088104287
 10
661.4975730426
 20
77.7148705518
 10
661.1760394676
 20
77.6579087347
 10
660.9401365565
 20
77.4440976743
 10
660.8154280501
 20
77.0966071166
 10
660.8154280501
 20
76.6530930553
 10
660.9401365565
 20
76.1616171209
 10
661.1760394676
 20
75.6754383569
 10
661.4975730426
 20
75.2472417761
 10
661.8698941295
 20
74.9234291223
 10
662.2526559614
 20
74.739090521
 10
662.6043803546
 20
74.7142019199
 10
662.8869525136
 20
74.8514603852
 10
663.0697513604
 20
75.1359918323
 10
663.1329678035
 20
75.5369628641
  0
LWPOLYLINE
  5
349
330
1F
100
AcDbEntity
  8
0
  6
Continuous
 62
     7
370
    25
100
AcDbPolyline
 90
       20
 70
   128
 43
0.0
 10
666.3149483188
 20
73.7000446125
 10
666.2517318757
 20
74.1740037958
 10
666.068933029
 20
74.669590299
 10
665.78636087
 20
75.1330996346
 10
665.4346364767
 20
75.514303374
 10
665.0518746448
 20
75.7718921771
 10
664.6795535579
 20
75.8779523001
 10
664.358019983
 20
75.8209904831
 10
664.1221170718
 20
75.6071794227
 10
663.9974085654
 20
75.259688865
 10
663.9974085654
 20
74.8161748037
 10
664.1221170718
 20
74.3246988693
 10
664.358019983
 20
73.8385201053
 10
664.6795535579
 20
73.4103235245
 10
665.0518746448
 20
73.0865108707
 10
665.4346364767
 20
72.9021722694
 10
665.78636087
 20
72.8772836683
 10
666.068933029
 20
73.0145421336
 10
666.2517318757
 20
73.2990735807
 10
666.3149483188
 20
73.7000446125
  0
LWPOLYLINE
  5
34A
330
1F
100
AcDbEntity
  8
0
  6
Continuous
 62
     7
370
    25
100
AcDbPolyline
 90
       20
 70
   128
 43
0.0
 10
599.4933574967
 20
108.6008942426
 10
599.4301410536
 20
109.0748534259
 10
599.2473422068
 20
109.5704399291
 10
598.9647700478
 20
110.0339492647
 10
598.6130456546
 20
110.4151530042
 10
598.2302838227
 20
110.6727418073
 10
597.8579627358
 20
110.7788019303
 10
597.5364291608
 20
110.7218401132
 10
597.3005262497
 20
110.5080290529
 10
597.1758177433
 20
110.1605384951
 10
597.1758177433
 20
109.7170244339
 10
597.3005262497
 20
109.2255484995
 10
597.5364291608
 20
108.7393697354
 10
597.8579627358
 20
108.3111731546
 10
598.2302838227
 20
107.9873605008
 10
598.6130456546
 20
107.8030218995
 10
598.9647700478
 20
107.7781332985
 10
599.2473422068
 20
107.9153917637
 10
599.4301410536
 20
108.1999232109
 10
599.4933574967
 20
108.6008942426
  0
LWPOLYLINE
  5
34B
330
1F
100
AcDbEntity
  8
0
  6
Continuous
 62
     7
370
    25
100
AcDbPolyline
 90
       20
 70
   128
 43
0.0
 10
602.675338012
 20
106.763975991
 10
602.6121215689
 20
107.2379351743
 10
602.4293227222
 20
107.7335216775
 10
602.1467505632
 20
108.1970310131
 10
601.7950261699
 20
108.5782347526
 10
601.4122643381
 20
108.8358235556
 10
601.0399432512
 20
108.9418836787
 10
600.7184096762
 20
108.8849218616
 10
600.482506765
 20
108.6711108013
 10
600.3577982586
 20
108.3236202435
 10
600.3577982586
 20
107.8801061823
 10
600.482506765
 20
107.3886302479
 10
600.7184096762
 20
106.9024514838
 10
601.0399432512
 20
106.474254903
 10
601.4122643381
 20
106.1504422492
 10
601.7950261699
 20
105.9661036479
 10
602.1467505632
 20
105.9412150468
 10
602.4293227222
 20
106.0784735121
 10
602.6121215689
 20
106.3630049593
 10
602.675338012
 20
106.763975991
  0
LWPOLYLINE
  5
34C
330
1F
100
AcDbEntity
  8
0
  6
Continuous
 62
     7
370
    25
100
AcDbPolyline
 90
       20
 70
   128
 43
0.0
 10
605.8573185274
 20
104.9270577394
 10
605.7941020843
 20
105.4010169227
 10
605.6113032375
 20
105.8966034259
 10
605.3287310785
 20
106.3601127615
 10
604.9770066853
 20
106.741316501
 10
604.5942448534
 20
106.998905304
 10
604.2219237665
 20
107.1049654271
 10
603.9003901915
 20
107.04800361
 10
603.6644872804
 20
106.8341925497
 10
603.539778774
 20
106.4867019919
 10
603.539778774
 20
106.0431879307
 10
603.6644872804
 20
105.5517119963
 10
603.9003901915
 20
105.0655332322
 10
604.2219237665
 20
104.6373366514
 10
604.5942448534
 20
104.3135239976
 10
604.9770066853
 20
104.1291853963
 10
605.3287310785
 20
104.1042967952
 10
605.6113032375
 20
104.2415552605
 10
605.7941020843
 20
104.5260867077
 10
605.8573185274
 20
104.9270577394
  0
LWPOLYLINE
  5
34D
330
1F
100
AcDbEntity
  8
0
  6
Continuous
 62
     7
370
    25
100
AcDbPolyline
 90
       20
 70
   128
 43
0.0
 10
609.0392990427
 20
103.0901394878
 10
608.9760825996
 20
103.5640986711
 10
608.7932837528
 20
104.0596851743
 10
608.5107115938
 20
104.5231945099
 10
608.1589872006
 20
104.9043982494
 10
607.7762253687
 20
105.1619870524
 10
607.4039042818
 20
105.2680471755
 10
607.0823707068
 20
105.2110853584
 10
606.8464677957
 20
104.9972742981
 10
606.7217592893
 20
104.6497837403
 10
606.7217592893
 20
104.2062696791
 10
606.8464677957
 20
103.7147937447
 10
607.0823707068
 20
103.2286149806
 10
607.4039042818
 20
102.8004183998
 10
607.7762253687
 20
102.476605746
 10
608.1589872006
 20
102.2922671447
 10
608.5107115938
 20
102.2673785436
 10
608.7932837528
 20
102.4046370089
 10
608.9760825996
 20
102.6891684561
 10
609.0392990427
 20
103.0901394878
  0
LWPOLYLINE
  5
34E
330
1F
100
AcDbEntity
  8
0
  6
Continuous
 62
     7
370
    25
100
AcDbPolyline
 90
       20
 70
   128
 43
0.0
 10
612.2212795581
 20
101.2532212362
 10
612.158063115
 20
101.7271804195
 10
611.9752642682
 20
102.2227669227
 10
611.6926921092
 20
102.6862762583
 10
611.340967716
 20
103.0674799978
 10
610.9582058841
 20
103.3250688008
 10
610.5858847972
 20
103.4311289239
 10
610.2643512222
 20
103.3741671068
 10
610.0284483111
 20
103.1603560465
 10
609.9037398046
 20
102.8128654887
 10
609.9037398046
 20
102.3693514275
 10
610.0284483111
 20
101.8778754931
 10
610.2643512222
 20
101.391696729
 10
610.5858847972
 20
100.9635001482
 10
610.9582058841
 20
100.6396874944
 10
611.340967716
 20
100.4553488931
 10
611.6926921092
 20
100.430460292
 10
611.9752642682
 20
100.5677187573
 10
612.158063115
 20
100.8522502045
 10
612.2212795581
 20
101.2532212362
  0
LWPOLYLINE
  5
34F
330
1F
100
AcDbEntity
  8
0
  6
Continuous
 62
     7
370
    25
100
AcDbPolyline
 90
       20
 70
   128
 43
0.0
 10
615.4032600734
 20
99.4163029846
 10
615.3400436303
 20
99.8902621679
 10
615.1572447835
 20
100.3858486711
 10
614.8746726245
 20
100.8493580067
 10
614.5229482313
 20
101.2305617462
 10
614.1401863994
 20
101.4881505492
 10
613.7678653125
 20
101.5942106723
 10
613.4463317375
 20
101.5372488552
 10
613.2104288264
 20
101.3234377949
 10
613.08572032
 20
100.9759472371
 10
613.08572032
 20
100.5324331759
 10
613.2104288264
 20
100.0409572415
 10
613.4463317375
 20
99.5547784774
 10
613.7678653125
 20
99.1265818966
 10
614.1401863994
 20
98.8027692428
 10
614.5229482313
 20
98.6184306415
 10
614.8746726245
 20
98.5935420404
 10
615.1572447835
 20
98.7308005057
 10
615.3400436303
 20
99.0153319529
 10
615.4032600734
 20
99.4163029846
  0
LWPOLYLINE
  5
350
330
1F
100
AcDbEntity
  8
0
  6
Continuous
 62
     7
370
    25
100
AcDbPolyline
 90
       20
 70
   128
 43
0.0
 10
618.5852405887
 20
97.579384733
 10
618.5220241456
 20
98.0533439163
 10
618.3392252989
 20
98.5489304195
 10
618.0566531399
 20
99.0124397551
 10
617.7049287466
 20
99.3936434946
 10
617.3221669147
 20
99.6512322976
 10
616.9498458279
 20
99.7572924207
 10
616.6283122529
 20
99.7003306036
 10
616.3924093417
 20
99.4865195433
 10
616.2677008353
 20
99.1390289855
 10
616.2677008353
 20
98.6955149243
 10
616.3924093417
 20
98.2040389899
 10
616.6283122529
 20
97.7178602258
 10
616.9498458279
 20
97.289663645
 10
617.3221669147
 20
96.9658509912
 10
617.7049287466
 20
96.7815123899
 10
618.0566531399
 20
96.7566237888
 10
618.3392252989
 20
96.8938822541
 10
618.5220241456
 20
97.1784137013
 10
618.5852405887
 20
97.579384733
  0
LWPOLYLINE
  5
351
330
1F
100
AcDbEntity
  8
0
  6
Continuous
 62
     7
370
    25
100
AcDbPolyline
 90
       20
 70
   128
 43
0.0
 10
621.7672211041
 20
95.7424664814
 10
621.704004661
 20
96.2164256647
 10
621.5212058142
 20
96.7120121679
 10
621.2386336552
 20
97.1755215035
 10
620.886909262
 20
97.556725243
 10
620.5041474301
 20
97.814314046
 10
620.1318263432
 20
97.9203741691
 10
619.8102927682
 20
97.863412352
 10
619.5743898571
 20
97.6496012917
 10
619.4496813507
 20
97.3021107339
 10
619.4496813507
 20
96.8585966727
 10
619.5743898571
 20
96.3671207383
 10
619.8102927682
 20
95.8809419742
 10
620.1318263432
 20
95.4527453934
 10
620.5041474301
 20
95.1289327396
 10
620.886909262
 20
94.9445941383
 10
621.2386336552
 20
94.9197055372
 10
621.5212058142
 20
95.0569640025
 10
621.704004661
 20
95.3414954497
 10
621.7672211041
 20
95.7424664814
  0
LWPOLYLINE
  5
352
330
1F
100
AcDbEntity
  8
0
  6
Continuous
 62
     7
370
    25
100
AcDbPolyline
 90
       20
 70
   128
 43
0.0
 10
624.9492016194
 20
93.9055482298
 10
624.8859851763
 20
94.3795074131
 10
624.7031863295
 20
94.8750939163
 10
624.4206141705
 20
95.3386032519
 10
624.0688897773
 20
95.7198069914
 10
623.6861279454
 20
95.9773957944
 10
623.3138068585
 20
96.0834559175
 10
622.9922732835
 20
96.0264941004
 10
622.7563703724
 20
95.81268304
 10
622.631661866
 20
95.4651924823
 10
622.631661866
 20
95.0216784211
 10
622.7563703724
 20
94.5302024867
 10
622.9922732835
 20
94.0440237226
 10
623.3138068585
 20
93.6158271418
 10
623.6861279454
 20
93.292014488
 10
624.0688897773
 20
93.1076758867
 10
624.4206141705
 20
93.0827872856
 10
624.7031863295
 20
93.2200457509
 10
624.8859851763
 20
93.5045771981
 10
624.9492016194
 20
93.9055482298
  0
LWPOLYLINE
  5
353
330
1F
100
AcDbEntity
  8
0
  6
Continuous
 62
     7
370
    25
100
AcDbPolyline
 90
       20
 70
   128
 43
0.0
 10
628.1311821348
 20
92.0686299782
 10
628.0679656917
 20
92.5425891615
 10
627.8851668449
 20
93.0381756647
 10
627.6025946859
 20
93.5016850003
 10
627.2508702927
 20
93.8828887398
 10
626.8681084608
 20
94.1404775428
 10
626.4957873739
 20
94.2465376659
 10
626.1742537989
 20
94.1895758488
 10
625.9383508878
 20
93.9757647884
 10
625.8136423813
 20
93.6282742307
 10
625.8136423813
 20
93.1847601695
 10
625.9383508878
 20
92.6932842351
 10
626.1742537989
 20
92.207105471
 10
626.4957873739
 20
91.7789088902
 10
626.8681084608
 20
91.4550962364
 10
627.2508702927
 20
91.2707576351
 10
627.6025946859
 20
91.245869034
 10
627.8851668449
 20
91.3831274993
 10
628.0679656917
 20
91.6676589465
 10
628.1311821348
 20
92.0686299782
  0
LWPOLYLINE
  5
354
330
1F
100
AcDbEntity
  8
0
  6
Continuous
 62
     7
370
    25
100
AcDbPolyline
 90
       20
 70
   128
 43
0.0
 10
631.3131626501
 20
90.2317117266
 10
631.249946207
 20
90.7056709099
 10
631.0671473602
 20
91.2012574131
 10
630.7845752012
 20
91.6647667487
 10
630.432850808
 20
92.0459704882
 10
630.0500889761
 20
92.3035592912
 10
629.6777678892
 20
92.4096194143
 10
629.3562343142
 20
92.3526575972
 10
629.1203314031
 20
92.1388465368
 10
628.9956228967
 20
91.7913559791
 10
628.9956228967
 20
91.3478419179
 10
629.1203314031
 20
90.8563659835
 10
629.3562343142
 20
90.3701872194
 10
629.6777678892
 20
89.9419906386
 10
630.0500889761
 20
89.6181779848
 10
630.432850808
 20
89.4338393835
 10
630.7845752012
 20
89.4089507824
 10
631.0671473602
 20
89.5462092477
 10
631.249946207
 20
89.8307406949
 10
631.3131626501
 20
90.2317117266
  0
LWPOLYLINE
  5
355
330
1F
100
AcDbEntity
  8
0
  6
Continuous
 62
     7
370
    25
100
AcDbPolyline
 90
       20
 70
   128
 43
0.0
 10
634.4951431654
 20
88.394793475
 10
634.4319267223
 20
88.8687526583
 10
634.2491278756
 20
89.3643391615
 10
633.9665557166
 20
89.8278484971
 10
633.6148313233
 20
90.2090522365
 10
633.2320694914
 20
90.4666410396
 10
632.8597484045
 20
90.5727011627
 10
632.5382148296
 20
90.5157393456
 10
632.3023119184
 20
90.3019282852
 10
632.177603412
 20
89.9544377275
 10
632.177603412
 20
89.5109236663
 10
632.3023119184
 20
89.0194477319
 10
632.5382148296
 20
88.5332689678
 10
632.8597484045
 20
88.105072387
 10
633.2320694914
 20
87.7812597332
 10
633.6148313233
 20
87.5969211319
 10
633.9665557166
 20
87.5720325308
 10
634.2491278756
 20
87.7092909961
 10
634.4319267223
 20
87.9938224433
 10
634.4951431654
 20
88.394793475
  0
LWPOLYLINE
  5
356
330
1F
100
AcDbEntity
  8
0
  6
Continuous
 62
     7
370
    25
100
AcDbPolyline
 90
       20
 70
   128
 43
0.0
 10
637.6771236808
 20
86.5578752234
 10
637.6139072377
 20
87.0318344067
 10
637.4311083909
 20
87.5274209099
 10
637.1485362319
 20
87.9909302455
 10
636.7968118387
 20
88.3721339849
 10
636.4140500068
 20
88.629722788
 10
636.0417289199
 20
88.7357829111
 10
635.7201953449
 20
88.678821094
 10
635.4842924338
 20
88.4650100336
 10
635.3595839274
 20
88.1175194759
 10
635.3595839274
 20
87.6740054147
 10
635.4842924338
 20
87.1825294803
 10
635.7201953449
 20
86.6963507162
 10
636.0417289199
 20
86.2681541354
 10
636.4140500068
 20
85.9443414816
 10
636.7968118387
 20
85.7600028803
 10
637.1485362319
 20
85.7351142792
 10
637.4311083909
 20
85.8723727445
 10
637.6139072377
 20
86.1569041916
 10
637.6771236808
 20
86.5578752234
  0
LWPOLYLINE
  5
357
330
1F
100
AcDbEntity
  8
0
  6
Continuous
 62
     7
370
    25
100
AcDbPolyline
 90
       20
 70
   128
 43
0.0
 10
640.8591041961
 20
84.7209569718
 10
640.795887753
 20
85.1949161551
 10
640.6130889062
 20
85.6905026583
 10
640.3305167472
 20
86.1540119939
 10
639.978792354
 20
86.5352157333
 10
639.5960305221
 20
86.7928045364
 10
639.2237094352
 20
86.8988646595
 10
638.9021758602
 20
86.8419028424
 10
638.6662729491
 20
86.628091782
 10
638.5415644427
 20
86.2806012243
 10
638.5415644427
 20
85.8370871631
 10
638.6662729491
 20
85.3456112286
 10
638.9021758602
 20
84.8594324646
 10
639.2237094352
 20
84.4312358838
 10
639.5960305221
 20
84.10742323
 10
639.978792354
 20
83.9230846287
 10
640.3305167472
 20
83.8981960276
 10
640.6130889062
 20
84.0354544929
 10
640.795887753
 20
84.31998594
 10
640.8591041961
 20
84.7209569718
  0
LWPOLYLINE
  5
358
330
1F
100
AcDbEntity
  8
0
  6
Continuous
 62
     7
370
    25
100
AcDbPolyline
 90
       20
 70
   128
 43
0.0
 10
644.0410847115
 20
82.8840387202
 10
643.9778682684
 20
83.3579979035
 10
643.7950694216
 20
83.8535844067
 10
643.5124972626
 20
84.3170937423
 10
643.1607728694
 20
84.6982974817
 10
642.7780110375
 20
84.9558862848
 10
642.4056899506
 20
85.0619464079
 10
642.0841563756
 20
85.0049845908
 10
641.8482534645
 20
84.7911735304
 10
641.723544958
 20
84.4436829727
 10
641.723544958
 20
84.0001689115
 10
641.8482534645
 20
83.508692977
 10
642.0841563756
 20
83.022514213
 10
642.4056899506
 20
82.5943176322
 10
642.7780110375
 20
82.2705049784
 10
643.1607728694
 20
82.0861663771
 10
643.5124972626
 20
82.061277776
 10
643.7950694216
 20
82.1985362413
 10
643.9778682684
 20
82.4830676884
 10
644.0410847115
 20
82.8840387202
  0
LWPOLYLINE
  5
359
330
1F
100
AcDbEntity
  8
0
  6
Continuous
 62
     7
370
    25
100
AcDbPolyline
 90
       20
 70
   128
 43
0.0
 10
647.2230652268
 20
81.0471204686
 10
647.1598487837
 20
81.5210796519
 10
646.9770499369
 20
82.0166661551
 10
646.6944777779
 20
82.4801754907
 10
646.3427533847
 20
82.8613792301
 10
645.9599915528
 20
83.1189680332
 10
645.5876704659
 20
83.2250281563
 10
645.2661368909
 20
83.1680663392
 10
645.0302339798
 20
82.9542552788
 10
644.9055254734
 20
82.6067647211
 10
644.9055254734
 20
82.1632506599
 10
645.0302339798
 20
81.6717747254
 10
645.2661368909
 20
81.1855959614
 10
645.5876704659
 20
80.7573993806
 10
645.9599915528
 20
80.4335867268
 10
646.3427533847
 20
80.2492481255
 10
646.6944777779
 20
80.2243595244
 10
646.9770499369
 20
80.3616179897
 10
647.1598487837
 20
80.6461494368
 10
647.2230652268
 20
81.0471204686
  0
LWPOLYLINE
  5
35A
330
1F
100
AcDbEntity
  8
0
  6
Continuous
 62
     7
370
    25
100
AcDbPolyline
 90
       20
 70
   128
 43
0.0
 10
650.4050457421
 20
79.210202217
 10
650.341829299
 20
79.6841614003
 10
650.1590304523
 20
80.1797479035
 10
649.8764582933
 20
80.6432572391
 10
649.5247339
 20
81.0244609785
 10
649.1419720681
 20
81.2820497816
 10
648.7696509812
 20
81.3881099047
 10
648.4481174063
 20
81.3311480876
 10
648.2122144951
 20
81.1173370272
 10
648.0875059887
 20
80.7698464695
 10
648.0875059887
 20
80.3263324083
 10
648.2122144951
 20
79.8348564738
 10
648.4481174063
 20
79.3486777098
 10
648.7696509812
 20
78.920481129
 10
649.1419720681
 20
78.5966684752
 10
649.5247339
 20
78.4123298739
 10
649.8764582933
 20
78.3874412728
 10
650.1590304523
 20
78.5246997381
 10
650.341829299
 20
78.8092311852
 10
650.4050457421
 20
79.210202217
  0
LWPOLYLINE
  5
35B
330
1F
100
AcDbEntity
  8
0
  6
Continuous
 62
     7
370
    25
100
AcDbPolyline
 90
       20
 70
   128
 43
0.0
 10
653.5870262575
 20
77.3732839654
 10
653.5238098144
 20
77.8472431487
 10
653.3410109676
 20
78.3428296519
 10
653.0584388086
 20
78.8063389875
 10
652.7067144154
 20
79.1875427269
 10
652.3239525835
 20
79.44513153
 10
651.9516314966
 20
79.5511916531
 10
651.6300979216
 20
79.494229836
 10
651.3941950105
 20
79.2804187756
 10
651.2694865041
 20
78.9329282179
 10
651.2694865041
 20
78.4894141567
 10
651.3941950105
 20
77.9979382222
 10
651.6300979216
 20
77.5117594582
 10
651.9516314966
 20
77.0835628774
 10
652.3239525835
 20
76.7597502236
 10
652.7067144154
 20
76.5754116223
 10
653.0584388086
 20
76.5505230212
 10
653.3410109676
 20
76.6877814865
 10
653.5238098144
 20
76.9723129336
 10
653.5870262575
 20
77.3732839654
  0
LWPOLYLINE
  5
35C
330
1F
100
AcDbEntity
  8
0
  6
Continuous
 62
     7
370
    25
100
AcDbPolyline
 90
       20
 70
   128
 43
0.0
 10
656.7690067728
 20
75.5363657138
 10
656.7057903297
 20
76.0103248971
 10
656.5229914829
 20
76.5059114003
 10
656.2404193239
 20
76.9694207359
 10
655.8886949307
 20
77.3506244753
 10
655.5059330988
 20
77.6082132784
 10
655.1336120119
 20
77.7142734015
 10
654.8120784369
 20
77.6573115844
 10
654.5761755258
 20
77.443500524
 10
654.4514670194
 20
77.0960099663
 10
654.4514670194
 20
76.6524959051
 10
654.5761755258
 20
76.1610199706
 10
654.8120784369
 20
75.6748412066
 10
655.1336120119
 20
75.2466446258
 10
655.5059330988
 20
74.922831972
 10
655.8886949307
 20
74.7384933707
 10
656.2404193239
 20
74.7136047696
 10
656.5229914829
 20
74.8508632349
 10
656.7057903297
 20
75.135394682
 10
656.7690067728
 20
75.5363657138
  0
LWPOLYLINE
  5
35D
330
1F
100
AcDbEntity
  8
0
  6
Continuous
 62
     7
370
    25
100
AcDbPolyline
 90
       20
 70
   128
 43
0.0
 10
659.9509872881
 20
73.6994474622
 10
659.8877708451
 20
74.1734066455
 10
659.7049719983
 20
74.6689931487
 10
659.4223998393
 20
75.1325024843
 10
659.070675446
 20
75.5137062237
 10
658.6879136142
 20
75.7712950268
 10
658.3155925273
 20
75.8773551499
 10
657.9940589523
 20
75.8203933328
 10
657.7581560412
 20
75.6065822724
 10
657.6334475347
 20
75.2590917147
 10
657.6334475347
 20
74.8155776535
 10
657.7581560412
 20
74.324101719
 10
657.9940589523
 20
73.837922955
 10
658.3155925273
 20
73.4097263742
 10
658.6879136142
 20
73.0859137204
 10
659.070675446
 20
72.9015751191
 10
659.4223998393
 20
72.876686518
 10
659.7049719983
 20
73.0139449833
 10
659.8877708451
 20
73.2984764304
 10
659.9509872881
 20
73.6994474622
  0
LWPOLYLINE
  5
35E
330
1F
100
AcDbEntity
  8
0
  6
Continuous
 62
     7
370
    25
100
AcDbPolyline
 90
       20
 70
   128
 43
0.0
 10
663.1329678035
 20
71.8625292106
 10
663.0697513604
 20
72.3364883939
 10
662.8869525136
 20
72.8320748971
 10
662.6043803546
 20
73.2955842327
 10
662.2526559614
 20
73.6767879721
 10
661.8698941295
 20
73.9343767752
 10
661.4975730426
 20
74.0404368983
 10
661.1760394676
 20
73.9834750812
 10
660.9401365565
 20
73.7696640208
 10
660.8154280501
 20
73.4221734631
 10
660.8154280501
 20
72.9786594019
 10
660.9401365565
 20
72.4871834674
 10
661.1760394676
 20
72.0010047034
 10
661.4975730426
 20
71.5728081226
 10
661.8698941295
 20
71.2489954688
 10
662.2526559614
 20
71.0646568675
 10
662.6043803546
 20
71.0397682664
 10
662.8869525136
 20
71.1770267317
 10
663.0697513604
 20
71.4615581788
 10
663.1329678035
 20
71.8625292106
  0
LWPOLYLINE
  5
35F
330
1F
100
AcDbEntity
  8
0
  6
Continuous
 62
     7
370
    25
100
AcDbPolyline
 90
       20
 70
   128
 43
0.0
 10
666.3149483188
 20
70.025610959
 10
666.2517318757
 20
70.4995701423
 10
666.068933029
 20
70.9951566455
 10
665.78636087
 20
71.4586659811
 10
665.4346364767
 20
71.8398697205
 10
665.0518746448
 20
72.0974585236
 10
664.6795535579
 20
72.2035186467
 10
664.358019983
 20
72.1465568296
 10
664.1221170718
 20
71.9327457692
 10
663.9974085654
 20
71.5852552115
 10
663.9974085654
 20
71.1417411503
 10
664.1221170718
 20
70.6502652158
 10
664.358019983
 20
70.1640864518
 10
664.6795535579
 20
69.735889871
 10
665.0518746448
 20
69.4120772172
 10
665.4346364767
 20
69.2277386159
 10
665.78636087
 20
69.2028500148
 10
666.068933029
 20
69.3401084801
 10
666.2517318757
 20
69.6246399272
 10
666.3149483188
 20
70.025610959
  0
LINE
  5
360
330
1F
100
AcDbEntity
  8
0
  6
Continuous
 62
     7
370
    25
100
AcDbLine
 10
670.2747462935
 20
63.6569641864
 30
0.0
 11
822.9391003516
 21
151.7882198577
 31
0.0
  0
LINE
  5
361
330
1F
100
AcDbEntity
  8
0
  6
Continuous
 62
     7
370
    25
100
AcDbLine
 10
670.2747462935
 20
98.2782946104
 30
0.0
 11
822.9391003516
 21
186.4095502817
 31
0.0
  0
LINE
  5
362
330
1F
100
AcDbEntity
  8
0
  6
Continuous
 62
     7
370
    25
100
AcDbLine
 10
822.9391003516
 20
151.7882198577
 30
0.0
 11
822.9391003516
 21
186.4095502817
 31
0.0
  0
LWPOLYLINE
  5
363
330
1F
100
AcDbEntity
  8
0
  6
Continuous
 62
     7
370
    25
100
AcDbPolyline
 90
       21
 70
   128
 43
0.0
 10
757.2135250404
 20
129.7273716519
 10
756.831136019
 20
129.5765607845
 10
756.4861778992
 20
129.5803875673
 10
756.2124175854
 20
129.738477408
 10
756.0366526444
 20
130.0353553718
 10
755.9760881733
 20
130.4419609749
 10
756.0366526444
 20
130.9184928279
 10
756.2124175854
 20
131.418304673
 10
756.4861778992
 20
131.8924714442
 10
756.831136019
 20
132.2945783944
 10
757.2135250404
 20
132.5852644935
 10
757.5959140618
 20
132.7360753609
 10
757.9408721815
 20
132.7322485782
 10
758.2146324953
 20
132.5741587374
 10
758.3903974363
 20
132.2772807737
 10
758.4509619074
 20
131.8706751706
 10
758.3903974363
 20
131.3941433175
 10
758.2146324953
 20
130.8943314725
 10
757.9408721815
 20
130.4201647012
 10
757.5959140618
 20
130.0180577511
 10
757.2135250404
 20
129.7273716519
  0
LWPOLYLINE
  5
364
330
1F
100
AcDbEntity
  8
0
  6
Continuous
 62
     7
370
    25
100
AcDbPolyline
 90
       21
 70
   128
 43
0.0
 10
736.0003216048
 20
117.4812499746
 10
735.6179325834
 20
117.3304391072
 10
735.2729744637
 20
117.3342658899
 10
734.9992141498
 20
117.4923557307
 10
734.8234492088
 20
117.7892336944
 10
734.7628847377
 20
118.1958392975
 10
734.8234492088
 20
118.6723711506
 10
734.9992141498
 20
119.1721829956
 10
735.2729744637
 20
119.6463497669
 10
735.6179325834
 20
120.048456717
 10
736.0003216048
 20
120.3391428162
 10
736.3827106262
 20
120.4899536836
 10
736.7276687459
 20
120.4861269008
 10
737.0014290597
 20
120.32803706
 10
737.1771940007
 20
120.0311590963
 10
737.2377584718
 20
119.6245534932
 10
737.1771940007
 20
119.1480216402
 10
737.0014290597
 20
118.6482097951
 10
736.7276687459
 20
118.1740430239
 10
736.3827106262
 20
117.7719360737
 10
736.0003216048
 20
117.4812499746
  0
LWPOLYLINE
  5
365
330
1F
100
AcDbEntity
  8
0
  6
Continuous
 62
     7
370
    25
100
AcDbPolyline
 90
       22
 70
   128
 43
0.0
 10
816.6458499991
 20
175.7542832018
 10
816.2290032339
 20
175.5861959209
 10
815.849195133
 20
175.5781504015
 10
815.5401733131
 20
175.7308615232
 10
815.3293957189
 20
176.0307602328
 10
815.2355908647
 20
176.4511992139
 10
815.2670937233
 20
176.9548206178
 10
815.4211051277
 20
177.4968754728
 10
815.6839404886
 20
178.0291998262
 10
816.0322457307
 20
178.5044943232
 10
816.4350724049
 20
178.8805269618
 10
816.8566275933
 20
179.123885592
 10
817.2594542674
 20
179.2129467316
 10
817.6077595096
 20
179.1397969073
 10
817.8705948705
 20
178.9109358022
 10
818.0246062748
 20
178.5466987297
 10
818.0561091335
 20
178.0794497522
 10
817.9623042793
 20
177.5507059918
 10
817.7515266851
 20
177.0074486519
 10
817.4425048652
 20
176.4979485314
 10
817.0626967643
 20
176.0674769517
 10
816.6458499991
 20
175.7542832018
  0
LWPOLYLINE
  5
366
330
1F
100
AcDbEntity
  8
0
  6
Continuous
 62
     7
370
    25
100
AcDbPolyline
 90
       22
 70
   128
 43
0.0
 10
813.1103160932
 20
173.7132629223
 10
812.6934693279
 20
173.5451756413
 10
812.3136612271
 20
173.5371301219
 10
812.0046394072
 20
173.6898412437
 10
811.793861813
 20
173.9897399533
 10
811.7000569587
 20
174.4101789343
 10
811.7315598174
 20
174.9138003382
 10
811.8855712218
 20
175.4558551932
 10
812.1484065826
 20
175.9881795466
 10
812.4967118248
 20
176.4634740436
 10
812.899538499
 20
176.8395066823
 10
813.3210936873
 20
177.0828653125
 10
813.7239203615
 20
177.171926452
 10
814.0722256037
 20
177.0987766278
 10
814.3350609645
 20
176.8699155226
 10
814.4890723689
 20
176.5056784501
 10
814.5205752276
 20
176.0384294726
 10
814.4267703733
 20
175.5096857122
 10
814.2159927792
 20
174.9664283724
 10
813.9069709592
 20
174.4569282518
 10
813.5271628584
 20
174.0264566721
 10
813.1103160932
 20
173.7132629223
  0
LWPOLYLINE
  5
367
330
1F
100
AcDbEntity
  8
0
  6
Continuous
 62
     7
370
    25
100
AcDbPolyline
 90
       22
 70
   128
 43
0.0
 10
809.5747821872
 20
171.6722426427
 10
809.157935422
 20
171.5041553618
 10
808.7781273212
 20
171.4961098423
 10
808.4691055012
 20
171.6488209641
 10
808.258327907
 20
171.9487196737
 10
808.1645230528
 20
172.3691586547
 10
808.1960259115
 20
172.8727800587
 10
808.3500373158
 20
173.4148349137
 10
808.6128726767
 20
173.9471592671
 10
808.9611779189
 20
174.422453764
 10
809.364004593
 20
174.7984864027
 10
809.7855597814
 20
175.0418450329
 10
810.1883864556
 20
175.1309061725
 10
810.5366916977
 20
175.0577563482
 10
810.7995270586
 20
174.8288952431
 10
810.953538463
 20
174.4646581706
 10
810.9850413216
 20
173.9974091931
 10
810.8912364674
 20
173.4686654327
 10
810.6804588732
 20
172.9254080928
 10
810.3714370533
 20
172.4159079723
 10
809.9916289525
 20
171.9854363926
 10
809.5747821872
 20
171.6722426427
  0
LWPOLYLINE
  5
368
330
1F
100
AcDbEntity
  8
0
  6
Continuous
 62
     7
370
    25
100
AcDbPolyline
 90
       22
 70
   128
 43
0.0
 10
806.0392482813
 20
169.6312223632
 10
805.6224015161
 20
169.4631350822
 10
805.2425934152
 20
169.4550895628
 10
804.9335715953
 20
169.6078006845
 10
804.7227940011
 20
169.9076993942
 10
804.6289891469
 20
170.3281383752
 10
804.6604920055
 20
170.8317597791
 10
804.8145034099
 20
171.3738146341
 10
805.0773387708
 20
171.9061389875
 10
805.4256440129
 20
172.3814334845
 10
805.8284706871
 20
172.7574661231
 10
806.2500258755
 20
173.0008247534
 10
806.6528525496
 20
173.0898858929
 10
807.0011577918
 20
173.0167360686
 10
807.2639931527
 20
172.7878749635
 10
807.418004557
 20
172.423637891
 10
807.4495074157
 20
171.9563889135
 10
807.3557025615
 20
171.4276451531
 10
807.1449249673
 20
170.8843878133
 10
806.8359031474
 20
170.3748876927
 10
806.4560950465
 20
169.944416113
 10
806.0392482813
 20
169.6312223632
  0
LWPOLYLINE
  5
369
330
1F
100
AcDbEntity
  8
0
  6
Continuous
 62
     7
370
    25
100
AcDbPolyline
 90
       22
 70
   128
 43
0.0
 10
802.5037143754
 20
167.5902020836
 10
802.0868676101
 20
167.4221148027
 10
801.7070595093
 20
167.4140692832
 10
801.3980376894
 20
167.566780405
 10
801.1872600952
 20
167.8666791146
 10
801.0934552409
 20
168.2871180956
 10
801.1249580996
 20
168.7907394996
 10
801.278969504
 20
169.3327943546
 10
801.5418048648
 20
169.865118708
 10
801.890110107
 20
170.3404132049
 10
802.2929367812
 20
170.7164458436
 10
802.7144919696
 20
170.9598044738
 10
803.1173186437
 20
171.0488656133
 10
803.4656238859
 20
170.9757157891
 10
803.7284592467
 20
170.746854684
 10
803.8824706511
 20
170.3826176115
 10
803.9139735098
 20
169.915368634
 10
803.8201686555
 20
169.3866248735
 10
803.6093910614
 20
168.8433675337
 10
803.3003692414
 20
168.3338674131
 10
802.9205611406
 20
167.9033958335
 10
802.5037143754
 20
167.5902020836
  0
LWPOLYLINE
  5
36A
330
1F
100
AcDbEntity
  8
0
  6
Continuous
 62
     7
370
    25
100
AcDbPolyline
 90
       22
 70
   128
 43
0.0
 10
798.9681804694
 20
165.549181804
 10
798.5513337042
 20
165.3810945231
 10
798.1715256034
 20
165.3730490037
 10
797.8625037834
 20
165.5257601254
 10
797.6517261892
 20
165.825658835
 10
797.557921335
 20
166.2460978161
 10
797.5894241937
 20
166.74971922
 10
797.743435598
 20
167.291774075
 10
798.0062709589
 20
167.8240984284
 10
798.3545762011
 20
168.2993929254
 10
798.7574028752
 20
168.675425564
 10
799.1789580636
 20
168.9187841943
 10
799.5817847378
 20
169.0078453338
 10
799.9300899799
 20
168.9346955095
 10
800.1929253408
 20
168.7058344044
 10
800.3469367452
 20
168.3415973319
 10
800.3784396038
 20
167.8743483544
 10
800.2846347496
 20
167.345604594
 10
800.0738571554
 20
166.8023472542
 10
799.7648353355
 20
166.2928471336
 10
799.3850272347
 20
165.8623755539
 10
798.9681804694
 20
165.549181804
  0
LWPOLYLINE
  5
36B
330
1F
100
AcDbEntity
  8
0
  6
Continuous
 62
     7
370
    25
100
AcDbPolyline
 90
       22
 70
   128
 43
0.0
 10
795.4326465635
 20
163.5081615245
 10
795.0157997983
 20
163.3400742436
 10
794.6359916974
 20
163.3320287241
 10
794.3269698775
 20
163.4847398459
 10
794.1161922833
 20
163.7846385555
 10
794.0223874291
 20
164.2050775365
 10
794.0538902877
 20
164.7086989405
 10
794.2079016921
 20
165.2507537955
 10
794.470737053
 20
165.7830781489
 10
794.8190422951
 20
166.2583726458
 10
795.2218689693
 20
166.6344052845
 10
795.6434241577
 20
166.8777639147
 10
796.0462508318
 20
166.9668250542
 10
796.394556074
 20
166.89367523
 10
796.6573914349
 20
166.6648141248
 10
796.8114028392
 20
166.3005770524
 10
796.8429056979
 20
165.8333280748
 10
796.7491008437
 20
165.3045843144
 10
796.5383232495
 20
164.7613269746
 10
796.2293014296
 20
164.251826854
 10
795.8494933287
 20
163.8213552743
 10
795.4326465635
 20
163.5081615245
  0
LWPOLYLINE
  5
36C
330
1F
100
AcDbEntity
  8
0
  6
Continuous
 62
     7
370
    25
100
AcDbPolyline
 90
       22
 70
   128
 43
0.0
 10
791.8971126576
 20
161.4671412449
 10
791.4802658923
 20
161.299053964
 10
791.1004577915
 20
161.2910084446
 10
790.7914359716
 20
161.4437195663
 10
790.5806583774
 20
161.7436182759
 10
790.4868535231
 20
162.164057257
 10
790.5183563818
 20
162.6676786609
 10
790.6723677862
 20
163.2097335159
 10
790.935203147
 20
163.7420578693
 10
791.2835083892
 20
164.2173523663
 10
791.6863350634
 20
164.5933850049
 10
792.1078902518
 20
164.8367436351
 10
792.5107169259
 20
164.9258047747
 10
792.8590221681
 20
164.8526549504
 10
793.121857529
 20
164.6237938453
 10
793.2758689333
 20
164.2595567728
 10
793.307371792
 20
163.7923077953
 10
793.2135669377
 20
163.2635640349
 10
793.0027893436
 20
162.720306695
 10
792.6937675236
 20
162.2108065745
 10
792.3139594228
 20
161.7803349948
 10
791.8971126576
 20
161.4671412449
  0
LWPOLYLINE
  5
36D
330
1F
100
AcDbEntity
  8
0
  6
Continuous
 62
     7
370
    25
100
AcDbPolyline
 90
       22
 70
   128
 43
0.0
 10
788.3615787516
 20
159.4261209654
 10
787.9447319864
 20
159.2580336845
 10
787.5649238856
 20
159.249988165
 10
787.2559020656
 20
159.4026992868
 10
787.0451244714
 20
159.7025979964
 10
786.9513196172
 20
160.1230369774
 10
786.9828224759
 20
160.6266583813
 10
787.1368338802
 20
161.1687132363
 10
787.3996692411
 20
161.7010375897
 10
787.7479744833
 20
162.1763320867
 10
788.1508011574
 20
162.5523647254
 10
788.5723563458
 20
162.7957233556
 10
788.97518302
 20
162.8847844951
 10
789.3234882621
 20
162.8116346709
 10
789.586323623
 20
162.5827735657
 10
789.7403350274
 20
162.2185364932
 10
789.771837886
 20
161.7512875157
 10
789.6780330318
 20
161.2225437553
 10
789.4672554376
 20
160.6792864155
 10
789.1582336177
 20
160.1697862949
 10
788.7784255169
 20
159.7393147152
 10
788.3615787516
 20
159.4261209654
  0
LWPOLYLINE
  5
36E
330
1F
100
AcDbEntity
  8
0
  6
Continuous
 62
     7
370
    25
100
AcDbPolyline
 90
       22
 70
   128
 43
0.0
 10
784.8260448457
 20
157.3851006858
 10
784.4091980805
 20
157.2170134049
 10
784.0293899796
 20
157.2089678855
 10
783.7203681597
 20
157.3616790072
 10
783.5095905655
 20
157.6615777168
 10
783.4157857113
 20
158.0820166979
 10
783.4472885699
 20
158.5856381018
 10
783.6012999743
 20
159.1276929568
 10
783.8641353352
 20
159.6600173102
 10
784.2124405773
 20
160.1353118071
 10
784.6152672515
 20
160.5113444458
 10
785.0368224399
 20
160.754703076
 10
785.439649114
 20
160.8437642156
 10
785.7879543562
 20
160.7706143913
 10
786.0507897171
 20
160.5417532862
 10
786.2048011214
 20
160.1775162137
 10
786.2363039801
 20
159.7102672362
 10
786.1424991259
 20
159.1815234758
 10
785.9317215317
 20
158.6382661359
 10
785.6226997118
 20
158.1287660154
 10
785.2428916109
 20
157.6982944357
 10
784.8260448457
 20
157.3851006858
  0
LWPOLYLINE
  5
36F
330
1F
100
AcDbEntity
  8
0
  6
Continuous
 62
     7
370
    25
100
AcDbPolyline
 90
       22
 70
   128
 43
0.0
 10
816.6458499991
 20
171.6715791424
 10
816.2290032339
 20
171.5034918615
 10
815.849195133
 20
171.495446342
 10
815.5401733131
 20
171.6481574638
 10
815.3293957189
 20
171.9480561734
 10
815.2355908647
 20
172.3684951544
 10
815.2670937233
 20
172.8721165584
 10
815.4211051277
 20
173.4141714134
 10
815.6839404886
 20
173.9464957668
 10
816.0322457307
 20
174.4217902637
 10
816.4350724049
 20
174.7978229024
 10
816.8566275933
 20
175.0411815326
 10
817.2594542674
 20
175.1302426721
 10
817.6077595096
 20
175.0570928479
 10
817.8705948705
 20
174.8282317428
 10
818.0246062748
 20
174.4639946703
 10
818.0561091335
 20
173.9967456928
 10
817.9623042793
 20
173.4680019323
 10
817.7515266851
 20
172.9247445925
 10
817.4425048652
 20
172.4152444719
 10
817.0626967643
 20
171.9847728923
 10
816.6458499991
 20
171.6715791424
  0
LWPOLYLINE
  5
370
330
1F
100
AcDbEntity
  8
0
  6
Continuous
 62
     7
370
    25
100
AcDbPolyline
 90
       22
 70
   128
 43
0.0
 10
813.1103160932
 20
169.6305588628
 10
812.6934693279
 20
169.4624715819
 10
812.3136612271
 20
169.4544260625
 10
812.0046394072
 20
169.6071371842
 10
811.793861813
 20
169.9070358938
 10
811.7000569587
 20
170.3274748749
 10
811.7315598174
 20
170.8310962788
 10
811.8855712218
 20
171.3731511338
 10
812.1484065826
 20
171.9054754872
 10
812.4967118248
 20
172.3807699842
 10
812.899538499
 20
172.7568026228
 10
813.3210936873
 20
173.0001612531
 10
813.7239203615
 20
173.0892223926
 10
814.0722256037
 20
173.0160725683
 10
814.3350609645
 20
172.7872114632
 10
814.4890723689
 20
172.4229743907
 10
814.5205752276
 20
171.9557254132
 10
814.4267703733
 20
171.4269816528
 10
814.2159927792
 20
170.883724313
 10
813.9069709592
 20
170.3742241924
 10
813.5271628584
 20
169.9437526127
 10
813.1103160932
 20
169.6305588628
  0
LWPOLYLINE
  5
371
330
1F
100
AcDbEntity
  8
0
  6
Continuous
 62
     7
370
    25
100
AcDbPolyline
 90
       22
 70
   128
 43
0.0
 10
809.5747821872
 20
167.5895385833
 10
809.157935422
 20
167.4214513024
 10
808.7781273212
 20
167.4134057829
 10
808.4691055012
 20
167.5661169047
 10
808.258327907
 20
167.8660156143
 10
808.1645230528
 20
168.2864545953
 10
808.1960259115
 20
168.7900759993
 10
808.3500373158
 20
169.3321308542
 10
808.6128726767
 20
169.8644552077
 10
808.9611779189
 20
170.3397497046
 10
809.364004593
 20
170.7157823433
 10
809.7855597814
 20
170.9591409735
 10
810.1883864556
 20
171.048202113
 10
810.5366916977
 20
170.9750522888
 10
810.7995270586
 20
170.7461911836
 10
810.953538463
 20
170.3819541112
 10
810.9850413216
 20
169.9147051336
 10
810.8912364674
 20
169.3859613732
 10
810.6804588732
 20
168.8427040334
 10
810.3714370533
 20
168.3332039128
 10
809.9916289525
 20
167.9027323331
 10
809.5747821872
 20
167.5895385833
  0
LWPOLYLINE
  5
372
330
1F
100
AcDbEntity
  8
0
  6
Continuous
 62
     7
370
    25
100
AcDbPolyline
 90
       22
 70
   128
 43
0.0
 10
806.0392482813
 20
165.5485183037
 10
805.6224015161
 20
165.3804310228
 10
805.2425934152
 20
165.3723855034
 10
804.9335715953
 20
165.5250966251
 10
804.7227940011
 20
165.8249953347
 10
804.6289891469
 20
166.2454343158
 10
804.6604920055
 20
166.7490557197
 10
804.8145034099
 20
167.2911105747
 10
805.0773387708
 20
167.8234349281
 10
805.4256440129
 20
168.2987294251
 10
805.8284706871
 20
168.6747620637
 10
806.2500258755
 20
168.9181206939
 10
806.6528525496
 20
169.0071818335
 10
807.0011577918
 20
168.9340320092
 10
807.2639931527
 20
168.7051709041
 10
807.418004557
 20
168.3409338316
 10
807.4495074157
 20
167.8736848541
 10
807.3557025615
 20
167.3449410937
 10
807.1449249673
 20
166.8016837538
 10
806.8359031474
 20
166.2921836333
 10
806.4560950465
 20
165.8617120536
 10
806.0392482813
 20
165.5485183037
  0
LWPOLYLINE
  5
373
330
1F
100
AcDbEntity
  8
0
  6
Continuous
 62
     7
370
    25
100
AcDbPolyline
 90
       22
 70
   128
 43
0.0
 10
802.5037143754
 20
163.5074980242
 10
802.0868676101
 20
163.3394107432
 10
801.7070595093
 20
163.3313652238
 10
801.3980376894
 20
163.4840763456
 10
801.1872600952
 20
163.7839750552
 10
801.0934552409
 20
164.2044140362
 10
801.1249580996
 20
164.7080354401
 10
801.278969504
 20
165.2500902951
 10
801.5418048648
 20
165.7824146485
 10
801.890110107
 20
166.2577091455
 10
802.2929367812
 20
166.6337417842
 10
802.7144919696
 20
166.8771004144
 10
803.1173186437
 20
166.9661615539
 10
803.4656238859
 20
166.8930117297
 10
803.7284592467
 20
166.6641506245
 10
803.8824706511
 20
166.299913552
 10
803.9139735098
 20
165.8326645745
 10
803.8201686555
 20
165.3039208141
 10
803.6093910614
 20
164.7606634743
 10
803.3003692414
 20
164.2511633537
 10
802.9205611406
 20
163.820691774
 10
802.5037143754
 20
163.5074980242
  0
LWPOLYLINE
  5
374
330
1F
100
AcDbEntity
  8
0
  6
Continuous
 62
     7
370
    25
100
AcDbPolyline
 90
       22
 70
   128
 43
0.0
 10
798.9681804694
 20
161.4664777446
 10
798.5513337042
 20
161.2983904637
 10
798.1715256034
 20
161.2903449442
 10
797.8625037834
 20
161.443056066
 10
797.6517261892
 20
161.7429547756
 10
797.557921335
 20
162.1633937566
 10
797.5894241937
 20
162.6670151606
 10
797.743435598
 20
163.2090700156
 10
798.0062709589
 20
163.741394369
 10
798.3545762011
 20
164.2166888659
 10
798.7574028752
 20
164.5927215046
 10
799.1789580636
 20
164.8360801348
 10
799.5817847378
 20
164.9251412744
 10
799.9300899799
 20
164.8519914501
 10
800.1929253408
 20
164.623130345
 10
800.3469367452
 20
164.2588932725
 10
800.3784396038
 20
163.791644295
 10
800.2846347496
 20
163.2629005346
 10
800.0738571554
 20
162.7196431947
 10
799.7648353355
 20
162.2101430742
 10
799.3850272347
 20
161.7796714945
 10
798.9681804694
 20
161.4664777446
  0
LWPOLYLINE
  5
375
330
1F
100
AcDbEntity
  8
0
  6
Continuous
 62
     7
370
    25
100
AcDbPolyline
 90
       22
 70
   128
 43
0.0
 10
795.4326465635
 20
159.4254574651
 10
795.0157997983
 20
159.2573701841
 10
794.6359916974
 20
159.2493246647
 10
794.3269698775
 20
159.4020357864
 10
794.1161922833
 20
159.7019344961
 10
794.0223874291
 20
160.1223734771
 10
794.0538902877
 20
160.625994881
 10
794.2079016921
 20
161.168049736
 10
794.470737053
 20
161.7003740894
 10
794.8190422951
 20
162.1756685864
 10
795.2218689693
 20
162.551701225
 10
795.6434241577
 20
162.7950598553
 10
796.0462508318
 20
162.8841209948
 10
796.394556074
 20
162.8109711705
 10
796.6573914349
 20
162.5821100654
 10
796.8114028392
 20
162.2178729929
 10
796.8429056979
 20
161.7506240154
 10
796.7491008437
 20
161.221880255
 10
796.5383232495
 20
160.6786229152
 10
796.2293014296
 20
160.1691227946
 10
795.8494933287
 20
159.7386512149
 10
795.4326465635
 20
159.4254574651
  0
LWPOLYLINE
  5
376
330
1F
100
AcDbEntity
  8
0
  6
Continuous
 62
     7
370
    25
100
AcDbPolyline
 90
       22
 70
   128
 43
0.0
 10
791.8971126576
 20
157.3844371855
 10
791.4802658923
 20
157.2163499046
 10
791.1004577915
 20
157.2083043851
 10
790.7914359716
 20
157.3610155069
 10
790.5806583774
 20
157.6609142165
 10
790.4868535231
 20
158.0813531975
 10
790.5183563818
 20
158.5849746015
 10
790.6723677862
 20
159.1270294565
 10
790.935203147
 20
159.6593538099
 10
791.2835083892
 20
160.1346483068
 10
791.6863350634
 20
160.5106809455
 10
792.1078902518
 20
160.7540395757
 10
792.5107169259
 20
160.8431007152
 10
792.8590221681
 20
160.769950891
 10
793.121857529
 20
160.5410897859
 10
793.2758689333
 20
160.1768527134
 10
793.307371792
 20
159.7096037359
 10
793.2135669377
 20
159.1808599754
 10
793.0027893436
 20
158.6376026356
 10
792.6937675236
 20
158.128102515
 10
792.3139594228
 20
157.6976309354
 10
791.8971126576
 20
157.3844371855
  0
LWPOLYLINE
  5
377
330
1F
100
AcDbEntity
  8
0
  6
Continuous
 62
     7
370
    25
100
AcDbPolyline
 90
       22
 70
   128
 43
0.0
 10
788.3615787516
 20
155.3434169059
 10
787.9447319864
 20
155.175329625
 10
787.5649238856
 20
155.1672841056
 10
787.2559020656
 20
155.3199952273
 10
787.0451244714
 20
155.6198939369
 10
786.9513196172
 20
156.040332918
 10
786.9828224759
 20
156.5439543219
 10
787.1368338802
 20
157.0860091769
 10
787.3996692411
 20
157.6183335303
 10
787.7479744833
 20
158.0936280273
 10
788.1508011574
 20
158.4696606659
 10
788.5723563458
 20
158.7130192962
 10
788.97518302
 20
158.8020804357
 10
789.3234882621
 20
158.7289306114
 10
789.586323623
 20
158.5000695063
 10
789.7403350274
 20
158.1358324338
 10
789.771837886
 20
157.6685834563
 10
789.6780330318
 20
157.1398396959
 10
789.4672554376
 20
156.5965823561
 10
789.1582336177
 20
156.0870822355
 10
788.7784255169
 20
155.6566106558
 10
788.3615787516
 20
155.3434169059
  0
LWPOLYLINE
  5
378
330
1F
100
AcDbEntity
  8
0
  6
Continuous
 62
     7
370
    25
100
AcDbPolyline
 90
       22
 70
   128
 43
0.0
 10
816.6458499991
 20
167.588875083
 10
816.2290032339
 20
167.420787802
 10
815.849195133
 20
167.4127422826
 10
815.5401733131
 20
167.5654534044
 10
815.3293957189
 20
167.865352114
 10
815.2355908647
 20
168.285791095
 10
815.2670937233
 20
168.7894124989
 10
815.4211051277
 20
169.3314673539
 10
815.6839404886
 20
169.8637917073
 10
816.0322457307
 20
170.3390862043
 10
816.4350724049
 20
170.715118843
 10
816.8566275933
 20
170.9584774732
 10
817.2594542674
 20
171.0475386127
 10
817.6077595096
 20
170.9743887885
 10
817.8705948705
 20
170.7455276833
 10
818.0246062748
 20
170.3812906108
 10
818.0561091335
 20
169.9140416333
 10
817.9623042793
 20
169.3852978729
 10
817.7515266851
 20
168.8420405331
 10
817.4425048652
 20
168.3325404125
 10
817.0626967643
 20
167.9020688328
 10
816.6458499991
 20
167.588875083
  0
LWPOLYLINE
  5
379
330
1F
100
AcDbEntity
  8
0
  6
Continuous
 62
     7
370
    25
100
AcDbPolyline
 90
       22
 70
   128
 43
0.0
 10
813.1103160932
 20
165.5478548034
 10
812.6934693279
 20
165.3797675225
 10
812.3136612271
 20
165.371722003
 10
812.0046394072
 20
165.5244331248
 10
811.793861813
 20
165.8243318344
 10
811.7000569587
 20
166.2447708154
 10
811.7315598174
 20
166.7483922194
 10
811.8855712218
 20
167.2904470744
 10
812.1484065826
 20
167.8227714278
 10
812.4967118248
 20
168.2980659247
 10
812.899538499
 20
168.6740985634
 10
813.3210936873
 20
168.9174571936
 10
813.7239203615
 20
169.0065183332
 10
814.0722256037
 20
168.9333685089
 10
814.3350609645
 20
168.7045074038
 10
814.4890723689
 20
168.3402703313
 10
814.5205752276
 20
167.8730213538
 10
814.4267703733
 20
167.3442775934
 10
814.2159927792
 20
166.8010202535
 10
813.9069709592
 20
166.291520133
 10
813.5271628584
 20
165.8610485533
 10
813.1103160932
 20
165.5478548034
  0
LWPOLYLINE
  5
37A
330
1F
100
AcDbEntity
  8
0
  6
Continuous
 62
     7
370
    25
100
AcDbPolyline
 90
       22
 70
   128
 43
0.0
 10
809.5747821872
 20
163.5068345239
 10
809.157935422
 20
163.3387472429
 10
808.7781273212
 20
163.3307017235
 10
808.4691055012
 20
163.4834128452
 10
808.258327907
 20
163.7833115549
 10
808.1645230528
 20
164.2037505359
 10
808.1960259115
 20
164.7073719398
 10
808.3500373158
 20
165.2494267948
 10
808.6128726767
 20
165.7817511482
 10
808.9611779189
 20
166.2570456452
 10
809.364004593
 20
166.6330782838
 10
809.7855597814
 20
166.8764369141
 10
810.1883864556
 20
166.9654980536
 10
810.5366916977
 20
166.8923482293
 10
810.7995270586
 20
166.6634871242
 10
810.953538463
 20
166.2992500517
 10
810.9850413216
 20
165.8320010742
 10
810.8912364674
 20
165.3032573138
 10
810.6804588732
 20
164.759999974
 10
810.3714370533
 20
164.2504998534
 10
809.9916289525
 20
163.8200282737
 10
809.5747821872
 20
163.5068345239
  0
LWPOLYLINE
  5
37B
330
1F
100
AcDbEntity
  8
0
  6
Continuous
 62
     7
370
    25
100
AcDbPolyline
 90
       22
 70
   128
 43
0.0
 10
806.0392482813
 20
161.4658142443
 10
805.6224015161
 20
161.2977269634
 10
805.2425934152
 20
161.2896814439
 10
804.9335715953
 20
161.4423925657
 10
804.7227940011
 20
161.7422912753
 10
804.6289891469
 20
162.1627302563
 10
804.6604920055
 20
162.6663516603
 10
804.8145034099
 20
163.2084065153
 10
805.0773387708
 20
163.7407308687
 10
805.4256440129
 20
164.2160253656
 10
805.8284706871
 20
164.5920580043
 10
806.2500258755
 20
164.8354166345
 10
806.6528525496
 20
164.924477774
 10
807.0011577918
 20
164.8513279498
 10
807.2639931527
 20
164.6224668447
 10
807.418004557
 20
164.2582297722
 10
807.4495074157
 20
163.7909807947
 10
807.3557025615
 20
163.2622370342
 10
807.1449249673
 20
162.7189796944
 10
806.8359031474
 20
162.2094795738
 10
806.4560950465
 20
161.7790079942
 10
806.0392482813
 20
161.4658142443
  0
LWPOLYLINE
  5
37C
330
1F
100
AcDbEntity
  8
0
  6
Continuous
 62
     7
370
    25
100
AcDbPolyline
 90
       22
 70
   128
 43
0.0
 10
802.5037143754
 20
159.4247939647
 10
802.0868676101
 20
159.2567066838
 10
801.7070595093
 20
159.2486611644
 10
801.3980376894
 20
159.4013722861
 10
801.1872600952
 20
159.7012709957
 10
801.0934552409
 20
160.1217099768
 10
801.1249580996
 20
160.6253313807
 10
801.278969504
 20
161.1673862357
 10
801.5418048648
 20
161.6997105891
 10
801.890110107
 20
162.1750050861
 10
802.2929367812
 20
162.5510377247
 10
802.7144919696
 20
162.794396355
 10
803.1173186437
 20
162.8834574945
 10
803.4656238859
 20
162.8103076702
 10
803.7284592467
 20
162.5814465651
 10
803.8824706511
 20
162.2172094926
 10
803.9139735098
 20
161.7499605151
 10
803.8201686555
 20
161.2212167547
 10
803.6093910614
 20
160.6779594149
 10
803.3003692414
 20
160.1684592943
 10
802.9205611406
 20
159.7379877146
 10
802.5037143754
 20
159.4247939647
  0
LWPOLYLINE
  5
37D
330
1F
100
AcDbEntity
  8
0
  6
Continuous
 62
     7
370
    25
100
AcDbPolyline
 90
       22
 70
   128
 43
0.0
 10
798.9681804694
 20
157.3837736852
 10
798.5513337042
 20
157.2156864043
 10
798.1715256034
 20
157.2076408848
 10
797.8625037834
 20
157.3603520066
 10
797.6517261892
 20
157.6602507162
 10
797.557921335
 20
158.0806896972
 10
797.5894241937
 20
158.5843111012
 10
797.743435598
 20
159.1263659562
 10
798.0062709589
 20
159.6586903096
 10
798.3545762011
 20
160.1339848065
 10
798.7574028752
 20
160.5100174452
 10
799.1789580636
 20
160.7533760754
 10
799.5817847378
 20
160.8424372149
 10
799.9300899799
 20
160.7692873907
 10
800.1929253408
 20
160.5404262855
 10
800.3469367452
 20
160.1761892131
 10
800.3784396038
 20
159.7089402355
 10
800.2846347496
 20
159.1801964751
 10
800.0738571554
 20
158.6369391353
 10
799.7648353355
 20
158.1274390147
 10
799.3850272347
 20
157.696967435
 10
798.9681804694
 20
157.3837736852
  0
LWPOLYLINE
  5
37E
330
1F
100
AcDbEntity
  8
0
  6
Continuous
 62
     7
370
    25
100
AcDbPolyline
 90
       22
 70
   128
 43
0.0
 10
795.4326465635
 20
155.3427534056
 10
795.0157997983
 20
155.1746661247
 10
794.6359916974
 20
155.1666206053
 10
794.3269698775
 20
155.319331727
 10
794.1161922833
 20
155.6192304366
 10
794.0223874291
 20
156.0396694177
 10
794.0538902877
 20
156.5432908216
 10
794.2079016921
 20
157.0853456766
 10
794.470737053
 20
157.61767003
 10
794.8190422951
 20
158.092964527
 10
795.2218689693
 20
158.4689971656
 10
795.6434241577
 20
158.7123557958
 10
796.0462508318
 20
158.8014169354
 10
796.394556074
 20
158.7282671111
 10
796.6573914349
 20
158.499406006
 10
796.8114028392
 20
158.1351689335
 10
796.8429056979
 20
157.667919956
 10
796.7491008437
 20
157.1391761956
 10
796.5383232495
 20
156.5959188557
 10
796.2293014296
 20
156.0864187352
 10
795.8494933287
 20
155.6559471555
 10
795.4326465635
 20
155.3427534056
  0
LWPOLYLINE
  5
37F
330
1F
100
AcDbEntity
  8
0
  6
Continuous
 62
     7
370
    25
100
AcDbPolyline
 90
       22
 70
   128
 43
0.0
 10
791.8971126576
 20
153.3017331261
 10
791.4802658923
 20
153.1336458451
 10
791.1004577915
 20
153.1256003257
 10
790.7914359716
 20
153.2783114475
 10
790.5806583774
 20
153.5782101571
 10
790.4868535231
 20
153.9986491381
 10
790.5183563818
 20
154.502270542
 10
790.6723677862
 20
155.044325397
 10
790.935203147
 20
155.5766497504
 10
791.2835083892
 20
156.0519442474
 10
791.6863350634
 20
156.4279768861
 10
792.1078902518
 20
156.6713355163
 10
792.5107169259
 20
156.7603966558
 10
792.8590221681
 20
156.6872468316
 10
793.121857529
 20
156.4583857264
 10
793.2758689333
 20
156.0941486539
 10
793.307371792
 20
155.6268996764
 10
793.2135669377
 20
155.098155916
 10
793.0027893436
 20
154.5548985762
 10
792.6937675236
 20
154.0453984556
 10
792.3139594228
 20
153.6149268759
 10
791.8971126576
 20
153.3017331261
  0
LINE
  5
380
330
1F
100
AcDbEntity
  8
0
  6
Continuous
 62
     7
370
    25
100
AcDbLine
 10
593.2001071441
 20
142.7725367047
 30
0.0
 11
745.8644612023
 21
230.903792376
 31
0.0
  0
LINE
  5
381
330
1F
100
AcDbEntity
  8
0
  6
Continuous
 62
     7
370
    25
100
AcDbLine
 10
822.9391003516
 20
186.4095502817
 30
0.0
 11
745.8644612023
 21
230.903792376
 31
0.0
  0
ARC
  5
382
330
1F
100
AcDbEntity
  8
0
  6
Continuous
 62
     7
370
    25
100
AcDbCircle
 10
665.2057205031
 20
85.1126360715
 30
0.0
 40
1.590354707374959
100
AcDbArc
 50
235.2178018715
 51
285.2197878301
  0
LINE
  5
383
330
1F
100
AcDbEntity
  8
0
  6
Continuous
 62
     7
370
    25
100
AcDbLine
 10
601.2976844927
 20
120.1760260804
 30
0.0
 11
664.2984892885
 21
83.8064356203
 31
0.0
  0
ARC
  5
384
330
1F
100
AcDbEntity
  8
0
  6
Continuous
 62
     7
370
    25
100
AcDbCircle
 10
603.7820124532
 20
124.0598432406
 30
0.0
 40
4.610414422716171
100
AcDbArc
 50
182.6054784857
 51
237.39452166
  0
LINE
  5
385
330
1F
100
AcDbEntity
  8
0
  6
Continuous
 62
     7
370
    25
100
AcDbLine
 10
599.1763641491
 20
132.9110814004
 30
0.0
 11
599.1763641491
 21
123.8502606838
 31
0.0
  0
ARC
  5
386
330
1F
100
AcDbEntity
  8
0
  6
Continuous
 62
     7
370
    25
100
AcDbCircle
 10
600.7672076797
 20
133.0427276781
 30
0.0
 40
1.596281266320168
100
AcDbArc
 50
135.3464251869
 51
184.7305902633
  0
LWPOLYLINE
  5
387
330
1F
100
AcDbEntity
  8
0
  6
Continuous
 62
     7
370
    25
100
AcDbPolyline
 90
       13
 70
   128
 43
0.0
 10
662.4829919646
 20
90.8138089489
 10
662.4213135747
 20
91.5043083294
 10
662.239162418
 20
92.2337330796
 10
661.9450556802
 20
92.9679761086
 10
661.5527454654
 20
93.6727050286
 10
661.0805757632
 20
94.3149674985
 10
660.5506247042
 20
94.864732039
 10
659.9876722109
 20
95.2962922713
 10
659.4180413162
 20
95.5894689185
 10
658.8683673275
 20
95.7305533664
 10
658.3643523898
 20
95.7129486631
 10
657.9295636813
 20
95.5374779849
 10
657.6683757627
 20
95.3148678744
  0
ARC
  5
388
330
1F
100
AcDbEntity
  8
0
  6
Continuous
 62
     7
370
    25
100
AcDbCircle
 10
660.808125351
 20
90.5722643218
 30
0.0
 40
1.692194427345179
100
AcDbArc
 50
287.6610459523
 51
8.2064565954
  0
ARC
  5
389
330
1F
100
AcDbEntity
  8
0
  6
Continuous
 62
     7
370
    25
100
AcDbCircle
 10
666.9171865028
 20
79.0692163538
 30
0.0
 40
2.212152995663226
100
AcDbArc
 50
167.6263336948
 51
252.3682897725
  0
ARC
  5
38A
330
1F
100
AcDbEntity
  8
0
  6
Continuous
 62
     7
370
    25
100
AcDbCircle
 10
666.9171865028
 20
75.3947827003
 30
0.0
 40
2.212152995663009
100
AcDbArc
 50
167.6263336948
 51
252.3682897725
  0
ARC
  5
38B
330
1F
100
AcDbEntity
  8
0
  6
Continuous
 62
     7
370
    25
100
AcDbCircle
 10
663.7352059874
 20
80.9061346054
 30
0.0
 40
2.212152995662401
100
AcDbArc
 50
167.6263336948
 51
252.3682897725
  0
ARC
  5
38C
330
1F
100
AcDbEntity
  8
0
  6
Continuous
 62
     7
370
    25
100
AcDbCircle
 10
666.9171865028
 20
71.7203490468
 30
0.0
 40
2.212152995663387
100
AcDbArc
 50
167.6263336948
 51
252.3682897725
  0
ARC
  5
38D
330
1F
100
AcDbEntity
  8
0
  6
Continuous
 62
     7
370
    25
100
AcDbCircle
 10
663.7352059874
 20
77.2317009519
 30
0.0
 40
2.212152995662161
100
AcDbArc
 50
167.6263336947
 51
252.3682897726
  0
ARC
  5
38E
330
1F
100
AcDbEntity
  8
0
  6
Continuous
 62
     7
370
    25
100
AcDbCircle
 10
660.5532254721
 20
82.743052857
 30
0.0
 40
2.21215299566294
100
AcDbArc
 50
167.6263336948
 51
252.3682897725
  0
ARC
  5
38F
330
1F
100
AcDbEntity
  8
0
  6
Continuous
 62
     7
370
    25
100
AcDbCircle
 10
663.7352059874
 20
73.5572672984
 30
0.0
 40
2.21215299566223
100
AcDbArc
 50
167.6263336948
 51
252.3682897725
  0
ARC
  5
390
330
1F
100
AcDbEntity
  8
0
  6
Continuous
 62
     7
370
    25
100
AcDbCircle
 10
660.5532254721
 20
79.0686192035
 30
0.0
 40
2.21215299566191
100
AcDbArc
 50
167.6263336947
 51
252.3682897726
  0
ARC
  5
391
330
1F
100
AcDbEntity
  8
0
  6
Continuous
 62
     7
370
    25
100
AcDbCircle
 10
657.3712449567
 20
84.5799711086
 30
0.0
 40
2.212152995661651
100
AcDbArc
 50
167.6263336947
 51
252.3682897726
  0
ARC
  5
392
330
1F
100
AcDbEntity
  8
0
  6
Continuous
 62
     7
370
    25
100
AcDbCircle
 10
660.5532254721
 20
75.39418555
 30
0.0
 40
2.212152995662689
100
AcDbArc
 50
167.6263336948
 51
252.3682897725
  0
ARC
  5
393
330
1F
100
AcDbEntity
  8
0
  6
Continuous
 62
     7
370
    25
100
AcDbCircle
 10
657.3712449567
 20
80.9055374551
 30
0.0
 40
2.212152995661979
100
AcDbArc
 50
167.6263336947
 51
252.3682897726
  0
ARC
  5
394
330
1F
100
AcDbEntity
  8
0
  6
Continuous
 62
     7
370
    25
100
AcDbCircle
 10
654.1892644414
 20
86.4168893602
 30
0.0
 40
2.212152995663338
100
AcDbArc
 50
167.6263336948
 51
252.3682897725
  0
ARC
  5
395
330
1F
100
AcDbEntity
  8
0
  6
Continuous
 62
     7
370
    25
100
AcDbCircle
 10
657.3712449567
 20
77.2311038016
 30
0.0
 40
2.212152995663331
100
AcDbArc
 50
167.6263336948
 51
252.3682897725
  0
ARC
  5
396
330
1F
100
AcDbEntity
  8
0
  6
Continuous
 62
     7
370
    25
100
AcDbCircle
 10
654.1892644414
 20
82.7424557067
 30
0.0
 40
2.212152995662647
100
AcDbArc
 50
167.6263336948
 51
252.3682897725
  0
ARC
  5
397
330
1F
100
AcDbEntity
  8
0
  6
Continuous
 62
     7
370
    25
100
AcDbCircle
 10
651.0072839261
 20
88.2538076118
 30
0.0
 40
2.212152995663565
100
AcDbArc
 50
167.6263336948
 51
252.3682897725
  0
ARC
  5
398
330
1F
100
AcDbEntity
  8
0
  6
Continuous
 62
     7
370
    25
100
AcDbCircle
 10
654.1892644414
 20
79.0680220532
 30
0.0
 40
2.212152995662163
100
AcDbArc
 50
167.6263336947
 51
252.3682897726
  0
ARC
  5
399
330
1F
100
AcDbEntity
  8
0
  6
Continuous
 62
     7
370
    25
100
AcDbCircle
 10
651.0072839261
 20
84.5793739583
 30
0.0
 40
2.212152995663118
100
AcDbArc
 50
167.6263336948
 51
252.3682897725
  0
ARC
  5
39A
330
1F
100
AcDbEntity
  8
0
  6
Continuous
 62
     7
370
    25
100
AcDbCircle
 10
647.8253034107
 20
90.0907258634
 30
0.0
 40
2.212152995663469
100
AcDbArc
 50
167.6263336948
 51
252.3682897725
  0
ARC
  5
39B
330
1F
100
AcDbEntity
  8
0
  6
Continuous
 62
     7
370
    25
100
AcDbCircle
 10
651.0072839261
 20
80.9049403048
 30
0.0
 40
2.21215299566131
100
AcDbArc
 50
167.6263336947
 51
252.3682897726
  0
ARC
  5
39C
330
1F
100
AcDbEntity
  8
0
  6
Continuous
 62
     7
370
    25
100
AcDbCircle
 10
647.8253034107
 20
86.4162922099
 30
0.0
 40
2.2121529956622
100
AcDbArc
 50
167.6263336947
 51
252.3682897726
  0
ARC
  5
39D
330
1F
100
AcDbEntity
  8
0
  6
Continuous
 62
     7
370
    25
100
AcDbCircle
 10
644.6433228954
 20
91.927644115
 30
0.0
 40
2.212152995662434
100
AcDbArc
 50
167.6263336948
 51
252.3682897725
  0
ARC
  5
39E
330
1F
100
AcDbEntity
  8
0
  6
Continuous
 62
     7
370
    25
100
AcDbCircle
 10
647.8253034107
 20
82.7418585564
 30
0.0
 40
2.212152995661468
100
AcDbArc
 50
167.6263336947
 51
252.3682897726
  0
ARC
  5
39F
330
1F
100
AcDbEntity
  8
0
  6
Continuous
 62
     7
370
    25
100
AcDbCircle
 10
644.6433228954
 20
88.2532104615
 30
0.0
 40
2.212152995662184
100
AcDbArc
 50
167.6263336947
 51
252.3682897726
  0
ARC
  5
3A0
330
1F
100
AcDbEntity
  8
0
  6
Continuous
 62
     7
370
    25
100
AcDbCircle
 10
641.46134238
 20
93.7645623666
 30
0.0
 40
2.212152995662438
100
AcDbArc
 50
167.6263336948
 51
252.3682897725
  0
ARC
  5
3A1
330
1F
100
AcDbEntity
  8
0
  6
Continuous
 62
     7
370
    25
100
AcDbCircle
 10
644.6433228954
 20
84.578776808
 30
0.0
 40
2.212152995662211
100
AcDbArc
 50
167.6263336947
 51
252.3682897726
  0
ARC
  5
3A2
330
1F
100
AcDbEntity
  8
0
  6
Continuous
 62
     7
370
    25
100
AcDbCircle
 10
641.46134238
 20
90.0901287131
 30
0.0
 40
2.21215299566316
100
AcDbArc
 50
167.6263336948
 51
252.3682897725
  0
ARC
  5
3A3
330
1F
100
AcDbEntity
  8
0
  6
Continuous
 62
     7
370
    25
100
AcDbCircle
 10
638.2793618647
 20
95.6014806182
 30
0.0
 40
2.212152995662607
100
AcDbArc
 50
167.6263336948
 51
252.3682897725
  0
ARC
  5
3A4
330
1F
100
AcDbEntity
  8
0
  6
Continuous
 62
     7
370
    25
100
AcDbCircle
 10
641.46134238
 20
86.4156950596
 30
0.0
 40
2.212152995663298
100
AcDbArc
 50
167.6263336948
 51
252.3682897725
  0
ARC
  5
3A5
330
1F
100
AcDbEntity
  8
0
  6
Continuous
 62
     7
370
    25
100
AcDbCircle
 10
638.2793618647
 20
91.9270469647
 30
0.0
 40
2.212152995662472
100
AcDbArc
 50
167.6263336948
 51
252.3682897726
  0
ARC
  5
3A6
330
1F
100
AcDbEntity
  8
0
  6
Continuous
 62
     7
370
    25
100
AcDbCircle
 10
635.0973813494
 20
97.4383988698
 30
0.0
 40
2.212152995661211
100
AcDbArc
 50
167.6263336947
 51
252.3682897726
  0
ARC
  5
3A7
330
1F
100
AcDbEntity
  8
0
  6
Continuous
 62
     7
370
    25
100
AcDbCircle
 10
638.2793618647
 20
88.2526133112
 30
0.0
 40
2.212152995663325
100
AcDbArc
 50
167.6263336948
 51
252.3682897725
  0
ARC
  5
3A8
330
1F
100
AcDbEntity
  8
0
  6
Continuous
 62
     7
370
    25
100
AcDbCircle
 10
635.0973813494
 20
93.7639652163
 30
0.0
 40
2.212152995663399
100
AcDbArc
 50
167.6263336948
 51
252.3682897725
  0
ARC
  5
3A9
330
1F
100
AcDbEntity
  8
0
  6
Continuous
 62
     7
370
    25
100
AcDbCircle
 10
631.915400834
 20
99.2753171214
 30
0.0
 40
2.212152995662674
100
AcDbArc
 50
167.6263336948
 51
252.3682897725
  0
ARC
  5
3AA
330
1F
100
AcDbEntity
  8
0
  6
Continuous
 62
     7
370
    25
100
AcDbCircle
 10
635.0973813494
 20
90.0895315628
 30
0.0
 40
2.212152995663164
100
AcDbArc
 50
167.6263336948
 51
252.3682897725
  0
ARC
  5
3AB
330
1F
100
AcDbEntity
  8
0
  6
Continuous
 62
     7
370
    25
100
AcDbCircle
 10
631.915400834
 20
95.6008834679
 30
0.0
 40
2.212152995663343
100
AcDbArc
 50
167.6263336948
 51
252.3682897725
  0
ARC
  5
3AC
330
1F
100
AcDbEntity
  8
0
  6
Continuous
 62
     7
370
    25
100
AcDbCircle
 10
628.7334203187
 20
101.112235373
 30
0.0
 40
2.21215299566303
100
AcDbArc
 50
167.6263336948
 51
252.3682897725
  0
ARC
  5
3AD
330
1F
100
AcDbEntity
  8
0
  6
Continuous
 62
     7
370
    25
100
AcDbCircle
 10
631.915400834
 20
91.9264498144
 30
0.0
 40
2.21215299566218
100
AcDbArc
 50
167.6263336947
 51
252.3682897726
  0
ARC
  5
3AE
330
1F
100
AcDbEntity
  8
0
  6
Continuous
 62
     7
370
    25
100
AcDbCircle
 10
628.7334203187
 20
97.4378017195
 30
0.0
 40
2.212152995662336
100
AcDbArc
 50
167.6263336947
 51
252.3682897726
  0
ARC
  5
3AF
330
1F
100
AcDbEntity
  8
0
  6
Continuous
 62
     7
370
    25
100
AcDbCircle
 10
625.5514398033
 20
102.9491536246
 30
0.0
 40
2.212152995663092
100
AcDbArc
 50
167.6263336948
 51
252.3682897725
  0
ARC
  5
3B0
330
1F
100
AcDbEntity
  8
0
  6
Continuous
 62
     7
370
    25
100
AcDbCircle
 10
628.7334203187
 20
93.763368066
 30
0.0
 40
2.212152995662549
100
AcDbArc
 50
167.6263336948
 51
252.3682897725
  0
ARC
  5
3B1
330
1F
100
AcDbEntity
  8
0
  6
Continuous
 62
     7
370
    25
100
AcDbCircle
 10
625.5514398033
 20
99.2747199711
 30
0.0
 40
2.212152995662125
100
AcDbArc
 50
167.6263336947
 51
252.3682897726
  0
ARC
  5
3B2
330
1F
100
AcDbEntity
  8
0
  6
Continuous
 62
     7
370
    25
100
AcDbCircle
 10
622.369459288
 20
104.7860718762
 30
0.0
 40
2.212152995664956
100
AcDbArc
 50
167.6263336949
 51
252.3682897724
  0
ARC
  5
3B3
330
1F
100
AcDbEntity
  8
0
  6
Continuous
 62
     7
370
    25
100
AcDbCircle
 10
625.5514398033
 20
95.6002863176
 30
0.0
 40
2.212152995661254
100
AcDbArc
 50
167.6263336947
 51
252.3682897726
  0
ARC
  5
3B4
330
1F
100
AcDbEntity
  8
0
  6
Continuous
 62
     7
370
    25
100
AcDbCircle
 10
622.369459288
 20
101.1116382227
 30
0.0
 40
2.212152995661326
100
AcDbArc
 50
167.6263336947
 51
252.3682897726
  0
ARC
  5
3B5
330
1F
100
AcDbEntity
  8
0
  6
Continuous
 62
     7
370
    25
100
AcDbCircle
 10
619.1874787727
 20
106.6229901278
 30
0.0
 40
2.212152995663927
100
AcDbArc
 50
167.6263336948
 51
252.3682897725
  0
ARC
  5
3B6
330
1F
100
AcDbEntity
  8
0
  6
Continuous
 62
     7
370
    25
100
AcDbCircle
 10
622.369459288
 20
97.4372045692
 30
0.0
 40
2.212152995661709
100
AcDbArc
 50
167.6263336947
 51
252.3682897726
  0
ARC
  5
3B7
330
1F
100
AcDbEntity
  8
0
  6
Continuous
 62
     7
370
    25
100
AcDbCircle
 10
619.1874787727
 20
102.9485564743
 30
0.0
 40
2.212152995661938
100
AcDbArc
 50
167.6263336947
 51
252.3682897726
  0
ARC
  5
3B8
330
1F
100
AcDbEntity
  8
0
  6
Continuous
 62
     7
370
    25
100
AcDbCircle
 10
616.0054982573
 20
108.4599083794
 30
0.0
 40
2.21215299566253
100
AcDbArc
 50
167.6263336948
 51
252.3682897725
  0
ARC
  5
3B9
330
1F
100
AcDbEntity
  8
0
  6
Continuous
 62
     7
370
    25
100
AcDbCircle
 10
619.1874787727
 20
99.2741228208
 30
0.0
 40
2.212152995661334
100
AcDbArc
 50
167.6263336947
 51
252.3682897726
  0
ARC
  5
3BA
330
1F
100
AcDbEntity
  8
0
  6
Continuous
 62
     7
370
    25
100
AcDbCircle
 10
616.0054982573
 20
104.7854747259
 30
0.0
 40
2.212152995663715
100
AcDbArc
 50
167.6263336948
 51
252.3682897725
  0
ARC
  5
3BB
330
1F
100
AcDbEntity
  8
0
  6
Continuous
 62
     7
370
    25
100
AcDbCircle
 10
612.823517742
 20
110.296826631
 30
0.0
 40
2.212152995661318
100
AcDbArc
 50
167.6263336947
 51
252.3682897726
  0
ARC
  5
3BC
330
1F
100
AcDbEntity
  8
0
  6
Continuous
 62
     7
370
    25
100
AcDbCircle
 10
733.0713559452
 20
120.6010522798
 30
0.0
 40
2.764901009456456
100
AcDbArc
 50
308.1102873516
 51
351.8950891811
  0
ARC
  5
3BD
330
1F
100
AcDbEntity
  8
0
  6
Continuous
 62
     7
370
    25
100
AcDbCircle
 10
616.0054982573
 20
101.1110410724
 30
0.0
 40
2.212152995663709
100
AcDbArc
 50
167.6263336948
 51
252.3682897725
  0
ARC
  5
3BE
330
1F
100
AcDbEntity
  8
0
  6
Continuous
 62
     7
370
    25
100
AcDbCircle
 10
612.823517742
 20
106.6223929775
 30
0.0
 40
2.212152995662724
100
AcDbArc
 50
167.6263336948
 51
252.3682897725
  0
ARC
  5
3BF
330
1F
100
AcDbEntity
  8
0
  6
Continuous
 62
     7
370
    25
100
AcDbCircle
 10
609.6415372266
 20
112.1337448826
 30
0.0
 40
2.212152995664906
100
AcDbArc
 50
167.6263336949
 51
252.3682897724
  0
ARC
  5
3C0
330
1F
100
AcDbEntity
  8
0
  6
Continuous
 62
     7
370
    25
100
AcDbCircle
 10
612.823517742
 20
102.947959324
 30
0.0
 40
2.212152995662575
100
AcDbArc
 50
167.6263336948
 51
252.3682897725
  0
ARC
  5
3C1
330
1F
100
AcDbEntity
  8
0
  6
Continuous
 62
     7
370
    25
100
AcDbCircle
 10
609.6415372266
 20
108.4593112291
 30
0.0
 40
2.212152995661675
100
AcDbArc
 50
167.6263336947
 51
252.3682897726
  0
ARC
  5
3C2
330
1F
100
AcDbEntity
  8
0
  6
Continuous
 62
     7
370
    25
100
AcDbCircle
 10
606.4595567113
 20
113.9706631342
 30
0.0
 40
2.212152995663129
100
AcDbArc
 50
167.6263336948
 51
252.3682897725
  0
ARC
  5
3C3
330
1F
100
AcDbEntity
  8
0
  6
Continuous
 62
     7
370
    25
100
AcDbCircle
 10
609.6415372266
 20
104.7848775756
 30
0.0
 40
2.212152995662309
100
AcDbArc
 50
167.6263336947
 51
252.3682897726
  0
ARC
  5
3C4
330
1F
100
AcDbEntity
  8
0
  6
Continuous
 62
     7
370
    25
100
AcDbCircle
 10
606.4595567113
 20
110.2962294807
 30
0.0
 40
2.212152995664117
100
AcDbArc
 50
167.6263336948
 51
252.3682897725
  0
ARC
  5
3C5
330
1F
100
AcDbEntity
  8
0
  6
Continuous
 62
     7
370
    25
100
AcDbCircle
 10
603.277576196
 20
115.8075813858
 30
0.0
 40
2.212152995662194
100
AcDbArc
 50
167.6263336947
 51
252.3682897726
  0
ARC
  5
3C6
330
1F
100
AcDbEntity
  8
0
  6
Continuous
 62
     7
370
    25
100
AcDbCircle
 10
606.4595567113
 20
106.6217958272
 30
0.0
 40
2.212152995662586
100
AcDbArc
 50
167.6263336948
 51
252.3682897725
  0
ARC
  5
3C7
330
1F
100
AcDbEntity
  8
0
  6
Continuous
 62
     7
370
    25
100
AcDbCircle
 10
603.277576196
 20
112.1331477323
 30
0.0
 40
2.212152995663809
100
AcDbArc
 50
167.6263336948
 51
252.3682897725
  0
ARC
  5
3C8
330
1F
100
AcDbEntity
  8
0
  6
Continuous
 62
     7
370
    25
100
AcDbCircle
 10
600.0955956806
 20
117.6444996374
 30
0.0
 40
2.21215299566468
100
AcDbArc
 50
167.6263336949
 51
252.3682897724
  0
ARC
  5
3C9
330
1F
100
AcDbEntity
  8
0
  6
Continuous
 62
     7
370
    25
100
AcDbCircle
 10
603.277576196
 20
108.4587140788
 30
0.0
 40
2.212152995662078
100
AcDbArc
 50
167.6263336947
 51
252.3682897726
  0
ARC
  5
3CA
330
1F
100
AcDbEntity
  8
0
  6
Continuous
 62
     7
370
    25
100
AcDbCircle
 10
600.0955956806
 20
113.9700659839
 30
0.0
 40
2.212152995661528
100
AcDbArc
 50
167.6263336947
 51
252.3682897726
  0
ARC
  5
3CB
330
1F
100
AcDbEntity
  8
0
  6
Continuous
 62
     7
370
    25
100
AcDbCircle
 10
600.0955956806
 20
110.2956323304
 30
0.0
 40
2.212152995663105
100
AcDbArc
 50
167.6263336948
 51
252.3682897725
  0
ARC
  5
3CC
330
1F
100
AcDbEntity
  8
0
  6
Continuous
 62
     7
370
    25
100
AcDbCircle
 10
754.2845593808
 20
132.8471739571
 30
0.0
 40
2.764901009457242
100
AcDbArc
 50
308.1102873516
 51
351.8950891811
  0
ARC
  5
3CD
330
1F
100
AcDbEntity
  8
0
  6
Continuous
 62
     7
370
    25
100
AcDbCircle
 10
782.9578926218
 20
160.0966436327
 30
0.0
 40
2.560975410605896
100
AcDbArc
 50
283.0724651351
 51
16.9329113976
  0
ARC
  5
3CE
330
1F
100
AcDbEntity
  8
0
  6
Continuous
 62
     7
370
    25
100
AcDbCircle
 10
786.4934265278
 20
162.1376639123
 30
0.0
 40
2.560975410605273
100
AcDbArc
 50
283.0724651351
 51
16.9329113976
  0
ARC
  5
3CF
330
1F
100
AcDbEntity
  8
0
  6
Continuous
 62
     7
370
    25
100
AcDbCircle
 10
786.4934265278
 20
158.0549598529
 30
0.0
 40
2.56097541060529
100
AcDbArc
 50
283.0724651351
 51
16.9329113976
  0
ARC
  5
3D0
330
1F
100
AcDbEntity
  8
0
  6
Continuous
 62
     7
370
    25
100
AcDbCircle
 10
790.0289604337
 20
164.1786841919
 30
0.0
 40
2.560975410605777
100
AcDbArc
 50
283.0724651351
 51
16.9329113976
  0
ARC
  5
3D1
330
1F
100
AcDbEntity
  8
0
  6
Continuous
 62
     7
370
    25
100
AcDbCircle
 10
790.0289604337
 20
160.0959801324
 30
0.0
 40
2.560975410605425
100
AcDbArc
 50
283.0724651351
 51
16.9329113976
  0
ARC
  5
3D2
330
1F
100
AcDbEntity
  8
0
  6
Continuous
 62
     7
370
    25
100
AcDbCircle
 10
793.5644943396
 20
166.2197044714
 30
0.0
 40
2.560975410606409
100
AcDbArc
 50
283.0724651351
 51
16.9329113976
  0
ARC
  5
3D3
330
1F
100
AcDbEntity
  8
0
  6
Continuous
 62
     7
370
    25
100
AcDbCircle
 10
790.0289604337
 20
156.013276073
 30
0.0
 40
2.560975410605338
100
AcDbArc
 50
283.0724651351
 51
16.9329113976
  0
ARC
  5
3D4
330
1F
100
AcDbEntity
  8
0
  6
Continuous
 62
     7
370
    25
100
AcDbCircle
 10
793.5644943396
 20
162.137000412
 30
0.0
 40
2.560975410605164
100
AcDbArc
 50
283.072465135
 51
16.9329113977
  0
ARC
  5
3D5
330
1F
100
AcDbEntity
  8
0
  6
Continuous
 62
     7
370
    25
100
AcDbCircle
 10
797.1000282455
 20
168.260724751
 30
0.0
 40
2.560975410605176
100
AcDbArc
 50
283.0724651351
 51
16.9329113976
  0
ARC
  5
3D6
330
1F
100
AcDbEntity
  8
0
  6
Continuous
 62
     7
370
    25
100
AcDbCircle
 10
793.5644943396
 20
158.0542963526
 30
0.0
 40
2.560975410605861
100
AcDbArc
 50
283.0724651351
 51
16.9329113976
  0
ARC
  5
3D7
330
1F
100
AcDbEntity
  8
0
  6
Continuous
 62
     7
370
    25
100
AcDbCircle
 10
797.1000282455
 20
164.1780206915
 30
0.0
 40
2.560975410606426
100
AcDbArc
 50
283.0724651351
 51
16.9329113976
  0
ARC
  5
3D8
330
1F
100
AcDbEntity
  8
0
  6
Continuous
 62
     7
370
    25
100
AcDbCircle
 10
800.6355621515
 20
170.3017450305
 30
0.0
 40
2.560975410604769
100
AcDbArc
 50
283.072465135
 51
16.9329113977
  0
ARC
  5
3D9
330
1F
100
AcDbEntity
  8
0
  6
Continuous
 62
     7
370
    25
100
AcDbCircle
 10
797.1000282455
 20
160.0953166321
 30
0.0
 40
2.560975410606428
100
AcDbArc
 50
283.0724651351
 51
16.9329113976
  0
ARC
  5
3DA
330
1F
100
AcDbEntity
  8
0
  6
Continuous
 62
     7
370
    25
100
AcDbCircle
 10
800.6355621515
 20
166.2190409711
 30
0.0
 40
2.560975410605922
100
AcDbArc
 50
283.0724651351
 51
16.9329113976
  0
ARC
  5
3DB
330
1F
100
AcDbEntity
  8
0
  6
Continuous
 62
     7
370
    25
100
AcDbCircle
 10
804.1710960574
 20
172.3427653101
 30
0.0
 40
2.560975410604219
100
AcDbArc
 50
283.072465135
 51
16.9329113977
  0
ARC
  5
3DC
330
1F
100
AcDbEntity
  8
0
  6
Continuous
 62
     7
370
    25
100
AcDbCircle
 10
800.6355621515
 20
162.1363369117
 30
0.0
 40
2.560975410605659
100
AcDbArc
 50
283.0724651351
 51
16.9329113976
  0
ARC
  5
3DD
330
1F
100
AcDbEntity
  8
0
  6
Continuous
 62
     7
370
    25
100
AcDbCircle
 10
804.1710960574
 20
168.2600612507
 30
0.0
 40
2.560975410607981
100
AcDbArc
 50
283.0724651352
 51
16.9329113975
  0
ARC
  5
3DE
330
1F
100
AcDbEntity
  8
0
  6
Continuous
 62
     7
370
    25
100
AcDbCircle
 10
807.7066299633
 20
174.3837855896
 30
0.0
 40
2.560975410605257
100
AcDbArc
 50
283.0724651351
 51
16.9329113976
  0
ARC
  5
3DF
330
1F
100
AcDbEntity
  8
0
  6
Continuous
 62
     7
370
    25
100
AcDbCircle
 10
804.1710960574
 20
164.1773571912
 30
0.0
 40
2.560975410607485
100
AcDbArc
 50
283.0724651352
 51
16.9329113975
  0
ARC
  5
3E0
330
1F
100
AcDbEntity
  8
0
  6
Continuous
 62
     7
370
    25
100
AcDbCircle
 10
807.7066299633
 20
170.3010815302
 30
0.0
 40
2.560975410605552
100
AcDbArc
 50
283.0724651351
 51
16.9329113976
  0
ARC
  5
3E1
330
1F
100
AcDbEntity
  8
0
  6
Continuous
 62
     7
370
    25
100
AcDbCircle
 10
811.2421638693
 20
176.4248058692
 30
0.0
 40
2.560975410605073
100
AcDbArc
 50
283.072465135
 51
16.9329113977
  0
ARC
  5
3E2
330
1F
100
AcDbEntity
  8
0
  6
Continuous
 62
     7
370
    25
100
AcDbCircle
 10
807.7066299633
 20
166.2183774708
 30
0.0
 40
2.560975410606406
100
AcDbArc
 50
283.0724651351
 51
16.9329113976
  0
ARC
  5
3E3
330
1F
100
AcDbEntity
  8
0
  6
Continuous
 62
     7
370
    25
100
AcDbCircle
 10
811.2421638693
 20
172.3421018098
 30
0.0
 40
2.560975410605583
100
AcDbArc
 50
283.0724651351
 51
16.9329113976
  0
ARC
  5
3E4
330
1F
100
AcDbEntity
  8
0
  6
Continuous
 62
     7
370
    25
100
AcDbCircle
 10
814.7776977752
 20
178.4658261487
 30
0.0
 40
2.560975410605576
100
AcDbArc
 50
283.0724651351
 51
16.9329113976
  0
ARC
  5
3E5
330
1F
100
AcDbEntity
  8
0
  6
Continuous
 62
     7
370
    25
100
AcDbCircle
 10
811.2421638693
 20
168.2593977503
 30
0.0
 40
2.560975410608016
100
AcDbArc
 50
283.0724651352
 51
16.9329113975
  0
ARC
  5
3E6
330
1F
100
AcDbEntity
  8
0
  6
Continuous
 62
     7
370
    25
100
AcDbCircle
 10
814.7776977752
 20
174.3831220893
 30
0.0
 40
2.560975410607156
100
AcDbArc
 50
283.0724651351
 51
16.9329113976
  0
ARC
  5
3E7
330
1F
100
AcDbEntity
  8
0
  6
Continuous
 62
     7
370
    25
100
AcDbCircle
 10
814.7776977752
 20
170.3004180299
 30
0.0
 40
2.560975410605872
100
AcDbArc
 50
283.0724651351
 51
16.9329113976
  0
ARC
  5
3E8
330
1F
100
AcDbEntity
  8
0
  6
PHANTOM
 62
     1
370
    18
100
AcDbCircle
 10
664.3419587717
 20
83.7312269609
 30
0.0
 40
1.746836789713941
100
AcDbArc
 50
230.7967147643
 51
9.2140369905
  0
LINE
  5
3E9
330
1F
100
AcDbEntity
  8
0
  6
PHANTOM
 62
     1
370
    18
100
AcDbLine
 10
666.0662562414
 20
93.0717564651
 30
0.0
 11
666.0662562414
 21
84.0109357485
 31
0.0
  0
ARC
  5
3EA
330
1F
100
AcDbEntity
  8
0
  6
PHANTOM
 62
     1
370
    18
100
AcDbCircle
 10
659.925391836
 20
92.792313056
 30
0.0
 40
6.147219230288226
100
AcDbArc
 50
2.6054784857
 51
57.39452166
  0
LINE
  5
3EB
330
1F
100
AcDbEntity
  8
0
  6
PHANTOM
 62
     1
370
    18
100
AcDbLine
 10
600.2370243209
 20
134.3403263964
 30
0.0
 11
663.2378291167
 21
97.9707359362
 31
0.0
  0
ARC
  5
3EC
330
1F
100
AcDbEntity
  8
0
  6
PHANTOM
 62
     1
370
    18
100
AcDbCircle
 10
599.1328946659
 20
132.9866881601
 30
0.0
 40
1.746836789714002
100
AcDbArc
 50
50.7967147643
 51
189.2140369905
  0
LINE
  5
3ED
330
1F
100
AcDbEntity
  8
0
  6
PHANTOM
 62
     1
370
    18
100
AcDbLine
 10
597.4085971962
 20
123.6461586559
 30
0.0
 11
597.4085971962
 21
132.7069793725
 31
0.0
  0
ARC
  5
3EE
330
1F
100
AcDbEntity
  8
0
  6
PHANTOM
 62
     1
370
    18
100
AcDbCircle
 10
603.5494616016
 20
123.9256020649
 30
0.0
 40
6.147219230288109
100
AcDbArc
 50
182.6054784857
 51
237.39452166
  0
LINE
  5
3EF
330
1F
100
AcDbEntity
  8
0
  6
PHANTOM
 62
     1
370
    18
100
AcDbLine
 10
663.2378291167
 20
82.3775887246
 30
0.0
 11
600.2370243209
 21
118.7471791847
 31
0.0
  0
ARC
  5
3F0
330
1F
100
AcDbEntity
  8
0
  6
PHANTOM
 62
     1
370
    18
100
AcDbCircle
 10
666.2511770932
 20
93.5134870091
 30
0.0
 40
0.478875343826127
100
AcDbArc
 50
183.8221664225
 51
247.2844407734
  0
ARC
  5
3F1
330
1F
100
AcDbEntity
  8
0
  6
PHANTOM
 62
     1
370
    18
100
AcDbCircle
 10
663.7397799598
 20
97.9216993905
 30
0.0
 40
0.5043403926961851
100
AcDbArc
 50
174.4203699938
 51
233.8357079477
  0
ARC
  5
3F2
330
1F
100
AcDbEntity
  8
0
  6
PHANTOM
 62
     1
370
    18
100
AcDbCircle
 10
666.2738200851
 20
84.4690461813
 30
0.0
 40
0.5029392784938251
100
AcDbArc
 50
185.6947992512
 51
245.6253417064
  0
ARC
  5
3F3
330
1F
100
AcDbEntity
  8
0
  6
PHANTOM
 62
     1
370
    18
100
AcDbCircle
 10
600.7270262235
 20
134.2862396591
 30
0.0
 40
0.4929779301929944
100
AcDbArc
 50
173.7011524947
 51
234.9866671119
  0
LWPOLYLINE
  5
3F4
330
1F
100
AcDbEntity
  8
0
  6
PHANTOM
 62
     1
370
    18
100
AcDbPolyline
 90
       21
 70
   128
 43
0.0
 10
657.5153459777
 20
92.4569577674
 10
657.5774474134
 20
91.9683328083
 10
657.7576727993
 20
91.4558370732
 10
658.0383804189
 20
90.9696372153
 10
658.3920926546
 20
90.5573258645
 10
658.7841856884
 20
90.2592629283
 10
659.1762787221
 20
90.1046248837
 10
659.5299909578
 20
90.10854878
 10
659.8106985774
 20
90.2706505188
 10
659.9909239633
 20
90.5750624526
 10
660.053025399
 20
90.9919866202
 10
659.9909239633
 20
91.4806115793
 10
659.8106985774
 20
91.9931073144
 10
659.5299909578
 20
92.4793071722
 10
659.1762787221
 20
92.8916185231
 10
658.7841856884
 20
93.1896814593
 10
658.3920926546
 20
93.3443195038
 10
658.0383804189
 20
93.3403956076
 10
657.7576727993
 20
93.1782938687
 10
657.5774474134
 20
92.873881935
 10
657.5153459777
 20
92.4569577674
  0
ARC
  5
3F5
330
1F
100
AcDbEntity
  8
0
  6
PHANTOM
 62
     1
370
    18
100
AcDbCircle
 10
664.7730452181
 20
82.3077278723
 30
0.0
 40
1.536804807571936
100
AcDbArc
 50
122.60547834
 51
177.3945215144
  0
ARC
  5
3F6
330
1F
100
AcDbEntity
  8
0
  6
PHANTOM
 62
     1
370
    18
100
AcDbCircle
 10
664.823848376
 20
84.8294016811
 30
0.0
 40
1.509365177316364
100
AcDbArc
 50
234.387097924
 51
294.2534636672
  0
LINE
  5
3F7
330
1F
100
AcDbEntity
  8
0
  6
PHANTOM
 62
     1
370
    18
100
AcDbLine
 10
663.9449358979
 20
83.6023335924
 30
0.0
 11
664.2984892885
 21
83.8064356203
 31
0.0
  0
ARC
  5
3F8
330
1F
100
AcDbEntity
  8
0
  6
PHANTOM
 62
     1
370
    18
100
AcDbCircle
 10
601.7722404223
 20
118.6773183324
 30
0.0
 40
1.536804807571938
100
AcDbArc
 50
122.60547834
 51
177.3945215144
  0
LINE
  5
3F9
330
1F
100
AcDbEntity
  8
0
  6
PHANTOM
 62
     1
370
    18
100
AcDbLine
 10
600.9441311021
 20
119.9719240525
 30
0.0
 11
663.9449358979
 21
83.6023335924
 31
0.0
  0
LINE
  5
3FA
330
1F
100
AcDbEntity
  8
0
  6
PHANTOM
 62
     1
370
    18
100
AcDbLine
 10
601.2976844927
 20
120.1760260804
 30
0.0
 11
600.9441311021
 21
119.9719240525
 31
0.0
  0
ARC
  5
3FB
330
1F
100
AcDbEntity
  8
0
  6
PHANTOM
 62
     1
370
    18
100
AcDbCircle
 10
600.2924040786
 20
132.8693221361
 30
0.0
 40
1.478532955096871
100
AcDbArc
 50
124.9594071297
 51
186.3037805414
  0
ARC
  5
3FC
330
1F
100
AcDbEntity
  8
0
  6
PHANTOM
 62
     1
370
    18
100
AcDbCircle
 10
598.1157039774
 20
134.0716904574
 30
0.0
 40
1.537021907911645
100
AcDbArc
 50
242.6096722366
 51
297.3903277634
  0
LINE
  5
3FD
330
1F
100
AcDbEntity
  8
0
  6
PHANTOM
 62
     1
370
    18
100
AcDbLine
 10
599.1763641491
 20
132.9110814004
 30
0.0
 11
598.8228107585
 21
132.7069793725
 31
0.0
  0
LINE
  5
3FE
330
1F
100
AcDbEntity
  8
0
  6
PHANTOM
 62
     1
370
    18
100
AcDbLine
 10
598.8228107585
 20
132.7069793725
 30
0.0
 11
598.8228107585
 21
123.6461586559
 31
0.0
  0
ARC
  5
3FF
330
1F
100
AcDbEntity
  8
0
  6
PHANTOM
 62
     1
370
    18
100
AcDbCircle
 10
598.1157039774
 20
125.0108697408
 30
0.0
 40
1.537021907911456
100
AcDbArc
 50
242.6096722366
 51
297.3903277634
  0
LINE
  5
400
330
1F
100
AcDbEntity
  8
0
  6
PHANTOM
 62
     1
370
    18
100
AcDbLine
 10
598.8228107585
 20
123.6461586559
 30
0.0
 11
599.1763641491
 21
123.8502606838
 31
0.0
  0
ARC
  5
401
330
1F
100
AcDbEntity
  8
0
  6
PHANTOM
 62
     1
370
    18
100
AcDbCircle
 10
603.4284590626
 20
123.8557412127
 30
0.0
 40
4.610414422716539
100
AcDbArc
 50
182.6054784857
 51
237.39452166
  0
MTEXT
  5
402
330
1F
100
AcDbEntity
  8
SLD-0
100
AcDbMText
 10
747.9073793103
 20
89.1413494533
 30
0.0
 40
4.7625
 41
0.0
 71
     1
 72
     1
  1
FREESTANDING
  7
SLDTEXTSTYLE0
 73
     1
 44
1.0
  0
OLE2FRAME
  5
403
330
1F
100
AcDbEntity
  8
0
100
AcDbOle2Frame
 70
     2
  3
Picture (Enhanced Metafile)
 10
13.4047356173
 20
31.1336361838
 30
0.0
 11
87.8295611312
 21
15.3393002226
 31
0.0
 71
     3
 72
     0
 73
     1
 90
     5248
310
80554E67BF8139CF2A4087E11EFB35223F4000000000000000006221928717F5
310
554087E11EFB35223F4000000000000000006221928717F55540725E3FC2B8AD
310
2E4000000000000000004E67BF8139CF2A40725E3FC2B8AD2E40000000000000
310
0000000000000100000000010000010000000100000000000100000000140000
310
D0CF11E0A1B11AE1000000000000000000000000000000003E000300FEFF0900
310
0600000000000000000000000100000001000000000000000010000002000000
310
01000000FEFFFFFF0000000000000000FFFFFFFFFFFFFFFFFFFFFFFFFFFFFFFF
310
FFFFFFFFFFFFFFFFFFFFFFFFFFFFFFFFFFFFFFFFFFFFFFFFFFFFFFFFFFFFFFFF
310
FFFFFFFFFFFFFFFFFFFFFFFFFFFFFFFFFFFFFFFFFFFFFFFFFFFFFFFFFFFFFFFF
310
FFFFFFFFFFFFFFFFFFFFFFFFFFFFFFFFFFFFFFFFFFFFFFFFFFFFFFFFFFFFFFFF
310
FFFFFFFFFFFFFFFFFFFFFFFFFFFFFFFFFFFFFFFFFFFFFFFFFFFFFFFFFFFFFFFF
310
FFFFFFFFFFFFFFFFFFFFFFFFFFFFFFFFFFFFFFFFFFFFFFFFFFFFFFFFFFFFFFFF
310
FFFFFFFFFFFFFFFFFFFFFFFFFFFFFFFFFFFFFFFFFFFFFFFFFFFFFFFFFFFFFFFF
310
FFFFFFFFFFFFFFFFFFFFFFFFFFFFFFFFFFFFFFFFFFFFFFFFFFFFFFFFFFFFFFFF
310
FFFFFFFFFFFFFFFFFFFFFFFFFFFFFFFFFFFFFFFFFFFFFFFFFFFFFFFFFFFFFFFF
310
FFFFFFFFFFFFFFFFFFFFFFFFFFFFFFFFFFFFFFFFFFFFFFFFFFFFFFFFFFFFFFFF
310
FFFFFFFFFFFFFFFFFFFFFFFFFFFFFFFFFFFFFFFFFFFFFFFFFFFFFFFFFFFFFFFF
310
FFFFFFFFFFFFFFFFFFFFFFFFFFFFFFFFFFFFFFFFFFFFFFFFFFFFFFFFFFFFFFFF
310
FFFFFFFFFFFFFFFFFFFFFFFFFFFFFFFFFFFFFFFFFFFFFFFFFFFFFFFFFFFFFFFF
310
FFFFFFFFFFFFFFFFFFFFFFFFFFFFFFFFFFFFFFFFFFFFFFFFFFFFFFFFFFFFFFFF
310
FDFFFFFFFEFFFFFFFEFFFFFF0400000005000000060000000700000008000000
310
FEFFFFFFFFFFFFFFFFFFFFFFFFFFFFFFFFFFFFFFFFFFFFFFFFFFFFFFFFFFFFFF
310
FFFFFFFFFFFFFFFFFFFFFFFFFFFFFFFFFFFFFFFFFFFFFFFFFFFFFFFFFFFFFFFF
310
FFFFFFFFFFFFFFFFFFFFFFFFFFFFFFFFFFFFFFFFFFFFFFFFFFFFFFFFFFFFFFFF
310
FFFFFFFFFFFFFFFFFFFFFFFFFFFFFFFFFFFFFFFFFFFFFFFFFFFFFFFFFFFFFFFF
310
FFFFFFFFFFFFFFFFFFFFFFFFFFFFFFFFFFFFFFFFFFFFFFFFFFFFFFFFFFFFFFFF
310
FFFFFFFFFFFFFFFFFFFFFFFFFFFFFFFFFFFFFFFFFFFFFFFFFFFFFFFFFFFFFFFF
310
FFFFFFFFFFFFFFFFFFFFFFFFFFFFFFFFFFFFFFFFFFFFFFFFFFFFFFFFFFFFFFFF
310
FFFFFFFFFFFFFFFFFFFFFFFFFFFFFFFFFFFFFFFFFFFFFFFFFFFFFFFFFFFFFFFF
310
FFFFFFFFFFFFFFFFFFFFFFFFFFFFFFFFFFFFFFFFFFFFFFFFFFFFFFFFFFFFFFFF
310
FFFFFFFFFFFFFFFFFFFFFFFFFFFFFFFFFFFFFFFFFFFFFFFFFFFFFFFFFFFFFFFF
310
FFFFFFFFFFFFFFFFFFFFFFFFFFFFFFFFFFFFFFFFFFFFFFFFFFFFFFFFFFFFFFFF
310
FFFFFFFFFFFFFFFFFFFFFFFFFFFFFFFFFFFFFFFFFFFFFFFFFFFFFFFFFFFFFFFF
310
FFFFFFFFFFFFFFFFFFFFFFFFFFFFFFFFFFFFFFFFFFFFFFFFFFFFFFFFFFFFFFFF
310
FFFFFFFFFFFFFFFFFFFFFFFFFFFFFFFFFFFFFFFFFFFFFFFFFFFFFFFFFFFFFFFF
310
FFFFFFFFFFFFFFFFFFFFFFFFFFFFFFFFFFFFFFFFFFFFFFFFFFFFFFFFFFFFFFFF
310
52006F006F007400200045006E00740072007900000000000000000000000000
310
0000000000000000000000000000000000000000000000000000000000000000
310
16000500FFFFFFFFFFFFFFFF020000001903000000000000C000000000000046
310
000000000000000000000000A0A04A694BDFD90103000000000C000000000000
310
01004F006C006500000000000000000000000000000000000000000000000000
310
0000000000000000000000000000000000000000000000000000000000000000
310
0A000200FFFFFFFFFFFFFFFFFFFFFFFF00000000000000000000000000000000
310
0000000000000000000000000000000000000000000000001400000000000000
310
010043006F006D0070004F0062006A0000000000000000000000000000000000
310
0000000000000000000000000000000000000000000000000000000000000000
310
120002010100000003000000FFFFFFFF00000000000000000000000000000000
310
0000000000000000000000000000000000000000010000005800000000000000
310
43004F004E00540045004E005400530000000000000000000000000000000000
310
0000000000000000000000000000000000000000000000000000000000000000
310
12000200FFFFFFFFFFFFFFFFFFFFFFFF00000000000000000000000000000000
310
000000000000000000000000000000000000000003000000040B000000000000
310
FEFFFFFF02000000FEFFFFFF0400000005000000060000000700000008000000
310
090000000A0000000B0000000C0000000D0000000E0000000F00000010000000
310
1100000012000000130000001400000015000000160000001700000018000000
310
190000001A0000001B0000001C0000001D0000001E0000001F00000020000000
310
2100000022000000230000002400000025000000260000002700000028000000
310
290000002A0000002B0000002C0000002D0000002E0000002F000000FEFFFFFF
310
FFFFFFFFFFFFFFFFFFFFFFFFFFFFFFFFFFFFFFFFFFFFFFFFFFFFFFFFFFFFFFFF
310
FFFFFFFFFFFFFFFFFFFFFFFFFFFFFFFFFFFFFFFFFFFFFFFFFFFFFFFFFFFFFFFF
310
FFFFFFFFFFFFFFFFFFFFFFFFFFFFFFFFFFFFFFFFFFFFFFFFFFFFFFFFFFFFFFFF
310
FFFFFFFFFFFFFFFFFFFFFFFFFFFFFFFFFFFFFFFFFFFFFFFFFFFFFFFFFFFFFFFF
310
FFFFFFFFFFFFFFFFFFFFFFFFFFFFFFFFFFFFFFFFFFFFFFFFFFFFFFFFFFFFFFFF
310
FFFFFFFFFFFFFFFFFFFFFFFFFFFFFFFFFFFFFFFFFFFFFFFFFFFFFFFFFFFFFFFF
310
FFFFFFFFFFFFFFFFFFFFFFFFFFFFFFFFFFFFFFFFFFFFFFFFFFFFFFFFFFFFFFFF
310
FFFFFFFFFFFFFFFFFFFFFFFFFFFFFFFFFFFFFFFFFFFFFFFFFFFFFFFFFFFFFFFF
310
FFFFFFFFFFFFFFFFFFFFFFFFFFFFFFFFFFFFFFFFFFFFFFFFFFFFFFFFFFFFFFFF
310
FFFFFFFFFFFFFFFFFFFFFFFFFFFFFFFFFFFFFFFFFFFFFFFFFFFFFFFFFFFFFFFF
310
0100000200000000000000000000000000000000000000000000000000000000
310
0000000000000000000000000000000000000000000000000000000000000000
310
0100FEFF030A0000FFFFFFFF1903000000000000C0000000000000461C000000
310
506963747572652028456E68616E636564204D65746166696C652900FFFFFFFF
310
0E00000000000000F439B2710000000000000000000000000000000000000000
310
0000000000000000000000000000000000000000000000000000000000000000
310
74000000010000006C000000FD0A000094000000870B0000B200000062570100
310
111200003B680100BB15000020454D46000001008C0A00003800000003000000
310
0D0000005800000000000000000400000003000040010000F000000041006400
310
6F00620065002000530079007300740001B9173A000000000100000074000000
310
FD0A000094000000870B0000B200000062570100111200003B680100BB150000
310
20454D46000001008C0A000038000000030000000D0000005800000000000000
310
000400000003000040010000F0000000410064006F0062006500200053007900
310
7300740065006D0073000000110000000C00000008000000120000000C000000
310
010000000A0000001000000000000000000000000C0000001000000000000000
310
000000000900000010000000D7040000110100000B000000100000009D010000
310
5B000000130000000C0000000200000027000000180000000100000000000000
310
0000000000000000250000000C000000010000005F0000003400000002000000
310
2C000000000000002C0000000000000005000000000000000000000000000000
310
0000000000000000250000000C000000020000003B000000080000001B000000
310
100000003D210000F20100005800000048010000FC0A000093000000190B0000
310
B30000004B0000004921F9014921F9014921F9014921DA014921DA014921DA01
310
4921D5014621D0014221CD012821BE012821BE012821BE012321BB011D21BB01
310
1821BE01FE20CD01FE20CD01FE20CD01FA20D001F720D501F720DA01F720F801
310
F720F801F720F801F720FE01FA200302FE200602182115021821150218211502
310
1D21170223211702282115024321050243210502432105023721FE013721FE01
310
3721FE013521FD013521FD013521FD0122210902222109022221090221210902
310
1F2109021E2109020621FA010621FA010621FA010521FA010421F9010421F701
310
0421DB010421DB010421DB010421DA010521D9010621D8011E21CA011E21CA01
310
1E21CA011F21CA012121CA012221CA013A21D8013A21D8013A21D8013B21D901
310
3C21DA013C21DB013C21F2013C21F2013C21F2013D000000080000003C000000
310
080000003E000000180000009F8601009F8601006179FEFF6179FEFF13000000
310
0C000000020000003B000000080000001B000000100000002F210000E4010000
310
58000000C4000000050B00009D000000100B0000A90000002A0000002F21EF01
310
2F21EF012F21EF012F21F1012E21F2012C21F3012321F9012321F9012321F901
310
2221FA012121FA012021FA011F21FA011E21FA011D21F9011421F4011421F401
310
1421F4011221F3011121F1011121EF011121E4011121E4011121E4011121E201
310
1221E0011321DF011D21DA011D21DA011D21DA011E21D9011F21D9012021D901
310
2121D9012221D9012321DA012C21DF012C21DF012C21DF012E21E0012F21E201
310
2F21E4013D000000080000003C000000080000003E000000180000009F860100
310
9F8601006179FEFF6179FEFF130000000C000000020000005B00000038000000
310
3D0B0000A3000000430B0000A6000000010000000500000005000000B821F001
310
C821F001C821EB01B821EB01B821F001130000000C000000020000003B000000
310
080000001B0000001000000004220000E70100005800000084010000450B0000
310
9B000000590B0000AA0000005A0000000122E601FD21E501F621E501E421E501
310
E421E501E421E501D921E501D921E301D921E001D921DD01DA21DB01DC21DA01
310
DE21DA01E221D901E921D901EF21D901EF21D901EF21D9010022D9010022DB01
310
0022E0010022E1010022E1010022E1010722E1010722E1010722E1010722DF01
310
0722DF010722DF010722DB010622D8010322D6010022D401FB21D401F321D401
310
E521D401E521D401E521D401D921D401D121D601D121DF01D121E501D321E801
310
D721E901DB21EB01E221EB01EC21EB01F821EB01F821EB01F821EB010022EB01
310
0122ED010122F1010122F5010022F701F621F701E221F701E221F701E221F701
310
DA21F701D921F501D921F201D921EF01D921EF01D921EF01D121EF01D121EF01
310
D121EF01D121F201D121F201D121F201D121FC01DB21FD01E421FD01F521FD01
310
F521FD01F521FD01F921FD01FE21FD010222FB010622FA010922F6010922F201
310
0922EF010922EF010922EF010922EC010722E9010422E7013C00000008000000
310
3E000000180000009F8601009F8601006179FEFF6179FEFF130000000C000000
310
020000005B0000004C000000590B00009B0000006F0B0000AA00000001000000
310
0A0000000A0000002C22E6011722D4010C22D4012822EC012822FC013022FC01
310
3022EC014C22D4014122D4012C22E601130000000C000000020000003B000000
310
080000001B0000001000000082220000E701000058000000780100006F0B0000
310
9B000000830B0000AA000000570000007F22E6017B22E5017422E5016122E501
310
6122E5016122E5015722E5015722E3015722E0015722DB015822D9016622D901
310
6D22D9016D22D9016D22D9017E22D9017E22DB017E22E0017E22E1017E22E101
310
7E22E1018522E1018522E1018522E1018522DF018522DF018522DF018522DB01
310
8422D8018122D6017E22D4017922D4017122D4016322D4016322D4016322D401
310
5722D4014F22D6014F22DF014F22E5015122E8015522E9015922EB015F22EB01
310
6A22EB017622EB017622EB017622EB017E22EB017F22ED017F22F1017F22F501
310
7D22F7017422F7016022F7016022F7016022F7015822F7015722F5015722F201
310
5722EF015722EF015722EF014F22EF014F22EF014F22EF014F22F2014F22F201
310
4F22F2014F22FC015822FD016122FD017322FD017322FD017322FD017722FD01
310
7C22FD018022FB018422FA018622F6018622F2018622EF018622EF018622EF01
310
8622EC018522E9018222E7013C000000080000003E000000180000009F860100
310
9F8601006179FEFF6179FEFF130000000C000000020000005B00000038000000
310
300B0000A6000000340B0000AC00000001000000050000000500000093210202
310
9A2102029A21F3019321F30193210202130000000C000000020000003B000000
310
080000001B000000100000009B210000D40100005800000018010000240B0000
310
9B0000003A0B0000AA0000003F0000008021D4018021D4018021D4017421D401
310
6F21D8016F21E3016F21EE016F21EE016F21EE016F21F8017421FD018021FD01
310
8F21FD018F21FD018F21FD018F21F7018F21F7018F21F7018121F7018121F701
310
8121F7017921F7017621F5017621F0017621E1017621E1017621E1017621DC01
310
7921D9018121D9019A21D9019A21D9019A21D901A121D901A421DC01A421E101
310
A421F001A421F001A421F001A421F401A321F6019E21F7019E21F7019E21F701
310
9E21F7019E21FD019E21FD019E21FD019F21FD019F21FD019F21FD01A421FC01
310
A721FB01A921F801AB21F601AC21F201AC21EE01AC21E301AC21E301AC21E301
310
AC21D801A721D4019B21D4013C000000080000003E000000180000009F860100
310
9F8601006179FEFF6179FEFF130000000C000000020000005B0000006C000000
310
840B00009B000000870B00009F0000000100000012000000120000009222D401
310
9122D8019022D4018E22D4018E22DA018F22DA018F22D6018F22D5019022D601
310
9122DA019122DA019222D6019322D5019322D6019322DA019422DA019422D401
310
9222D401130000000C000000020000005B00000048000000830B00009B000000
310
850B00009F0000000100000009000000090000008A22D5018B22D5018B22DA01
310
8C22DA018C22D5018E22D5018E22D4018A22D4018A22D501280000000C000000
310
01000000280000000C000000020000000E000000140000000000000010000000
310
1400000000000000000000000000000000000000000000000000000000000000
310
0000000000000000000000000000000000000000000000000000000000000000
  1
OLE
  0
ENDSEC
  0
SECTION
  2
OBJECTS
  0
DICTIONARY
  5
C
330
0
100
AcDbDictionary
281
     1
  3
ACAD_GROUP
350
D
  3
ACAD_LAYOUT
350
1A
  3
ACAD_MLINESTYLE
350
17
  3
ACAD_PLOTSETTINGS
350
19
  3
ACAD_PLOTSTYLENAME
350
E
  3
ACAD_SCALELIST
350
47
  3
DWGPROPS
350
404
  0
DICTIONARY
  5
D
102
{ACAD_REACTORS
330
C
102
}
330
C
100
AcDbDictionary
281
     1
  0
DICTIONARY
  5
1A
102
{ACAD_REACTORS
330
C
102
}
330
C
100
AcDbDictionary
281
     1
  3
Layout1
350
1E
  3
Layout2
350
26
  3
Model
350
22
  0
DICTIONARY
  5
17
102
{ACAD_REACTORS
330
C
102
}
330
C
100
AcDbDictionary
281
     1
  3
Standard
350
18
  0
DICTIONARY
  5
19
102
{ACAD_REACTORS
330
C
102
}
330
C
100
AcDbDictionary
281
     1
  0
ACDBDICTIONARYWDFLT
  5
E
102
{ACAD_REACTORS
330
C
102
}
330
C
100
AcDbDictionary
281
     1
  3
Normal
350
F
100
AcDbDictionaryWithDefault
340
F
  0
DICTIONARY
  5
47
102
{ACAD_REACTORS
330
C
102
}
330
C
100
AcDbDictionary
281
     1
  3
A0
350
48
  3
A1
350
49
  3
A2
350
4A
  3
A3
350
4B
  3
A4
350
4C
  3
A5
350
4D
  3
A6
350
4E
  3
A7
350
4F
  3
A8
350
50
  3
A9
350
51
  3
B0
350
52
  3
B1
350
53
  3
B2
350
54
  3
B3
350
55
  3
B4
350
56
  3
B5
350
57
  3
B6
350
58
  0
XRECORD
  5
404
102
{ACAD_REACTORS
330
C
102
}
330
C
100
AcDbXrecord
280
     1
  1
DWGPROPS COOKIE
  2

  3

  4

  6

  7

  8
Douglas.Green
  9

300
=
301
=
302
=
303
=
304
=
305
=
306
=
307
=
308
=
309
=
 40
0.0
 41
2460192.679357373
 42
2460192.67935904
  1

 90
        0
  0
LAYOUT
  5
1E
102
{ACAD_REACTORS
330
1A
102
}
330
1A
100
AcDbPlotSettings
  1

  2
none_device
  4

  6

 40
0.0
 41
0.0
 42
0.0
 43
0.0
 44
0.0
 45
0.0
 46
0.0
 47
0.0
 48
0.0
 49
0.0
140
0.0
141
0.0
142
1.0
143
1.0
 70
   688
 72
     1
 73
     0
 74
     5
  7

 75
    16
147
1.0
148
0.0
149
0.0
100
AcDbLayout
  1
Layout1
 70
     1
 71
     1
 10
0.0
 20
0.0
 11
420.0
 21
297.0
 12
0.0
 22
0.0
 32
0.0
 14
1.0000000000E+20
 24
1.0000000000E+20
 34
1.0000000000E+20
 15
-1.0000000000E+20
 25
-1.0000000000E+20
 35
-1.0000000000E+20
146
0.0
 13
0.0
 23
0.0
 33
0.0
 16
1.0
 26
0.0
 36
0.0
 17
0.0
 27
1.0
 37
0.0
 76
     0
330
1B
  0
LAYOUT
  5
26
102
{ACAD_REACTORS
330
1A
102
}
330
1A
100
AcDbPlotSettings
  1

  2
none_device
  4

  6

 40
0.0
 41
0.0
 42
0.0
 43
0.0
 44
0.0
 45
0.0
 46
0.0
 47
0.0
 48
0.0
 49
0.0
140
0.0
141
0.0
142
1.0
143
1.0
 70
   688
 72
     1
 73
     0
 74
     5
  7

 75
    16
147
1.0
148
0.0
149
0.0
100
AcDbLayout
  1
Layout2
 70
     1
 71
     2
 10
0.0
 20
0.0
 11
0.0
 21
0.0
 12
0.0
 22
0.0
 32
0.0
 14
0.0
 24
0.0
 34
0.0
 15
0.0
 25
0.0
 35
0.0
146
0.0
 13
0.0
 23
0.0
 33
0.0
 16
1.0
 26
0.0
 36
0.0
 17
0.0
 27
1.0
 37
0.0
 76
     0
330
23
  0
LAYOUT
  5
22
102
{ACAD_REACTORS
330
1A
102
}
330
1A
100
AcDbPlotSettings
  1

  2
none_device
  4
Letter_(8.50_x_11.00_Inches)
  6

 40
6.35
 41
6.35
 42
6.35000508
 43
6.35000508
 44
215.9
 45
279.4
 46
0.0
 47
0.0
 48
0.0
 49
0.0
140
0.0
141
0.0
142
1.0
143
1.0
 70
  1712
 72
     1
 73
     0
 74
     0
  7

 75
     0
147
1.0
148
0.0
149
0.0
100
AcDbLayout
  1
Model
 70
     1
 71
     0
 10
0.0
 20
0.0
 11
863.6
 21
558.8
 12
0.0
 22
0.0
 32
0.0
 14
0.0
 24
0.0
 34
0.0
 15
863.6
 25
558.8
 35
0.0
146
0.0
 13
0.0
 23
0.0
 33
0.0
 16
1.0
 26
0.0
 36
0.0
 17
0.0
 27
1.0
 37
0.0
 76
     0
330
1F
331
29
  0
MLINESTYLE
  5
18
102
{ACAD_REACTORS
330
17
102
}
330
17
100
AcDbMlineStyle
  2
Standard
 70
     0
  3

 62
   256
 51
90.0
 52
90.0
 71
     2
 49
0.5
 62
   256
  6
BYLAYER
 49
-0.5
 62
   256
  6
BYLAYER
  0
ACDBPLACEHOLDER
  5
F
102
{ACAD_REACTORS
330
E
102
}
330
E
  0
SCALE
  5
48
102
{ACAD_REACTORS
330
47
102
}
330
47
100
AcDbScale
 70
     0
300
1:1
140
1.0
141
1.0
290
     1
  0
SCALE
  5
49
102
{ACAD_REACTORS
330
47
102
}
330
47
100
AcDbScale
 70
     0
300
1:2
140
1.0
141
2.0
290
     0
  0
SCALE
  5
4A
102
{ACAD_REACTORS
330
47
102
}
330
47
100
AcDbScale
 70
     0
300
1:4
140
1.0
141
4.0
290
     0
  0
SCALE
  5
4B
102
{ACAD_REACTORS
330
47
102
}
330
47
100
AcDbScale
 70
     0
300
1:5
140
1.0
141
5.0
290
     0
  0
SCALE
  5
4C
102
{ACAD_REACTORS
330
47
102
}
330
47
100
AcDbScale
 70
     0
300
1:8
140
1.0
141
8.0
290
     0
  0
SCALE
  5
4D
102
{ACAD_REACTORS
330
47
102
}
330
47
100
AcDbScale
 70
     0
300
1:10
140
1.0
141
10.0
290
     0
  0
SCALE
  5
4E
102
{ACAD_REACTORS
330
47
102
}
330
47
100
AcDbScale
 70
     0
300
1:16
140
1.0
141
16.0
290
     0
  0
SCALE
  5
4F
102
{ACAD_REACTORS
330
47
102
}
330
47
100
AcDbScale
 70
     0
300
1:20
140
1.0
141
20.0
290
     0
  0
SCALE
  5
50
102
{ACAD_REACTORS
330
47
102
}
330
47
100
AcDbScale
 70
     0
300
1:30
140
1.0
141
30.0
290
     0
  0
SCALE
  5
51
102
{ACAD_REACTORS
330
47
102
}
330
47
100
AcDbScale
 70
     0
300
1:40
140
1.0
141
40.0
290
     0
  0
SCALE
  5
52
102
{ACAD_REACTORS
330
47
102
}
330
47
100
AcDbScale
 70
     0
300
1:50
140
1.0
141
50.0
290
     0
  0
SCALE
  5
53
102
{ACAD_REACTORS
330
47
102
}
330
47
100
AcDbScale
 70
     0
300
1:100
140
1.0
141
100.0
290
     0
  0
SCALE
  5
54
102
{ACAD_REACTORS
330
47
102
}
330
47
100
AcDbScale
 70
     0
300
2:1
140
2.0
141
1.0
290
     0
  0
SCALE
  5
55
102
{ACAD_REACTORS
330
47
102
}
330
47
100
AcDbScale
 70
     0
300
4:1
140
4.0
141
1.0
290
     0
  0
SCALE
  5
56
102
{ACAD_REACTORS
330
47
102
}
330
47
100
AcDbScale
 70
     0
300
8:1
140
8.0
141
1.0
290
     0
  0
SCALE
  5
57
102
{ACAD_REACTORS
330
47
102
}
330
47
100
AcDbScale
 70
     0
300
10:1
140
10.0
141
1.0
290
     0
  0
SCALE
  5
58
102
{ACAD_REACTORS
330
47
102
}
330
47
100
AcDbScale
 70
     0
300
100:1
140
100.0
141
1.0
290
     0
  0
ENDSEC
  0
EOF
