999
DXF file: fg-222002-2d-A.dxf
999
Pro/ENGINEER 2016130 by Parametric Technology Corporation
  0
SECTION
  2
HEADER
  9
$ACADVER
  1
AC1015
  9
$DWGCODEPAGE
  3
ANSI_1252
  9
$EXTMAX
 10
34.0
 20
22.0
 30
0.0
  9
$EXTMIN
 10
0.0
 20
0.0
 30
0.0
  9
$LIMMIN
 10
0.0
 20
0.0
  9
$LIMMAX
 10
34.0
 20
22.0
  9
$VIEWCTR
 10
17.0
 20
11.0
  9
$VIEWSIZE
 40
22.0
  9
$CLAYER
  8
0
  9
$LTSCALE
 40
1.87
  9
$CELTYPE
  6
BYLAYER
  9
$DIMSCALE
 40
1.0
  9
$DIMASZ
 40
0.1875
  9
$DIMEXO
 40
0.0625
  9
$DIMDLI
 40
1.292
  9
$DIMEXE
 40
0.125
  9
$DIMCEN
 40
0.306
  9
$DIMLFAC
 40
1.0
  9
$DIMBLK
  1
_FILLED
  9
$DIMALT
 70
0
  9
$DIMALTF
 40
25.4
  9
$DIMTXT
 40
0.15625
  9
$DIMTOL
 70
1
  9
$DIMLIM
 70
0
  9
$DIMTFAC
 40
1.0
  9
$DIMTP
 40
0.01
  9
$DIMTM
 40
0.01
  9
$DIMGAP
 40
0.09
  9
$DIMDSEP
 70
46
  9
$AUNITS
 70
0
  9
$PDMODE
 70
3
  9
$PDSIZE
 40
0.3125
  9
$HANDSEED
  5
7C4
  9
$TILEMODE
 70
1
  9
$MEASUREMENT
 70
0
  9
$INSUNITS
 70
1
  0
ENDSEC
  0
SECTION
  2
CLASSES
  0
CLASS
  1
ACDBDICTIONARYWDFLT
  2
AcDbDictionaryWithDefault
  3
AutoCAD 2000
 90
0
280
0
281
0
  0
CLASS
  1
ACDBPLACEHOLDER
  2
AcDbPlaceHolder
  3
AutoCAD 2000
 90
0
280
0
281
0
  0
CLASS
  1
LAYOUT
  2
AcDbLayout
  3
AutoCAD 2000
 90
0
280
0
281
0
  0
ENDSEC
  0
SECTION
  2
TABLES
  0
TABLE
  2
VPORT
  5
8
100
AcDbSymbolTable
 70
2
  0
VPORT
  5
1F4
100
AcDbSymbolTableRecord
100
AcDbViewportTableRecord
  2
*ACTIVE
 70
0
 10
0.0
 20
0.0
 11
1.0
 21
1.0
 12
17.0
 22
11.0
 13
0.0
 23
0.0
 14
1.0
 24
1.0
 15
0.0
 25
0.0
 16
0.0
 26
0.0
 36
1.0
 17
0.0
 27
0.0
 37
0.0
 40
22.0
 41
1.5454545455
 42
50.0
 43
0.0
 44
0.0
 50
0.0
 51
0.0
 71
0
 72
100
 73
1
 74
1
 75
0
 76
0
 77
0
 78
0
  0
ENDTAB
  0
TABLE
  2
LTYPE
  5
5
100
AcDbSymbolTable
 70
6
  0
LTYPE
  5
14
100
AcDbSymbolTableRecord
100
AcDbLinetypeTableRecord
  2
BYBLOCK
 70
0
  3

 72
65
 73
0
 40
0.0
  0
LTYPE
  5
15
100
AcDbSymbolTableRecord
100
AcDbLinetypeTableRecord
  2
BYLAYER
 70
0
  3

 72
65
 73
0
 40
0.0
  0
LTYPE
  5
16
100
AcDbSymbolTableRecord
100
AcDbLinetypeTableRecord
  2
CONTINUOUS
 70
64
  3
Solid line
 72
65
 73
0
 40
0.0
  0
LTYPE
  5
1F5
100
AcDbSymbolTableRecord
100
AcDbLinetypeTableRecord
  2
CENTER
 70
64
  3
____ _ ____ _ ____ _ ____ _ ____ _ ____ _ ____
 72
65
 73
4
 40
0.6
 49
0.375
 74
0
 49
-0.075
 74
0
 49
0.075
 74
0
 49
-0.075
 74
0
  0
LTYPE
  5
1F6
100
AcDbSymbolTableRecord
100
AcDbLinetypeTableRecord
  2
HIDDEN
 70
64
  3
- - - - - - - - - - - - - - - - - - - -
 72
65
 73
2
 40
0.2
 49
0.1
 74
0
 49
-0.1
 74
0
  0
LTYPE
  5
1F7
100
AcDbSymbolTableRecord
100
AcDbLinetypeTableRecord
  2
PHANTOM
 70
64
  3
_____ _ _ _____ _ _ _____ _ _ _____
 72
65
 73
6
 40
0.8
 49
0.45
 74
0
 49
-0.05
 74
0
 49
0.1
 74
0
 49
-0.05
 74
0
 49
0.1
 74
0
 49
-0.05
 74
0
  0
LTYPE
  5
1F8
100
AcDbSymbolTableRecord
100
AcDbLinetypeTableRecord
  2
DOT
 70
64
  3
. . . . . . . . . . . . . . . . . . . .
 72
65
 73
2
 40
0.2
 49
0.1
 74
0
 49
-0.1
 74
0
  0
LTYPE
  5
1F9
100
AcDbSymbolTableRecord
100
AcDbLinetypeTableRecord
  2
DASHED
 70
64
  3
- - - - - - - - - - - - - - - - - - - -
 72
65
 73
2
 40
0.2
 49
0.1
 74
0
 49
-0.1
 74
0
  0
ENDTAB
  0
TABLE
  2
LAYER
  5
2
100
AcDbSymbolTable
 70
36
  0
LAYER
  5
10
100
AcDbSymbolTableRecord
100
AcDbLayerTableRecord
  2
0
 70
0
 62
7
  6
CONTINUOUS
370
-3
390
F
  0
LAYER
  5
1FA
100
AcDbSymbolTableRecord
100
AcDbLayerTableRecord
  2
DEFAULT_1
 70
0
 62
7
  6
CENTER
370
-3
390
F
  0
LAYER
  5
1FB
100
AcDbSymbolTableRecord
100
AcDbLayerTableRecord
  2
DEFAULT_2
 70
0
 62
8
  6
HIDDEN
370
-3
390
F
  0
LAYER
  5
1FC
100
AcDbSymbolTableRecord
100
AcDbLayerTableRecord
  2
DEFAULT_3
 70
0
 62
7
  6
PHANTOM
370
-3
390
F
  0
LAYER
  5
1FD
100
AcDbSymbolTableRecord
100
AcDbLayerTableRecord
  2
1_ALL_PLANES
 70
0
 62
7
  6
CONTINUOUS
370
-3
390
F
  0
LAYER
  5
1FE
100
AcDbSymbolTableRecord
100
AcDbLayerTableRecord
  2
1__DEF_PLANES
 70
0
 62
7
  6
CONTINUOUS
370
-3
390
F
  0
LAYER
  5
1FF
100
AcDbSymbolTableRecord
100
AcDbLayerTableRecord
  2
2_ALL_CSYS
 70
0
 62
7
  6
CONTINUOUS
370
-3
390
F
  0
LAYER
  5
200
100
AcDbSymbolTableRecord
100
AcDbLayerTableRecord
  2
2__DEF_CSYS
 70
0
 62
7
  6
CONTINUOUS
370
-3
390
F
  0
LAYER
  5
201
100
AcDbSymbolTableRecord
100
AcDbLayerTableRecord
  2
3_ALL_AXES
 70
0
 62
7
  6
CONTINUOUS
370
-3
390
F
  0
LAYER
  5
202
100
AcDbSymbolTableRecord
100
AcDbLayerTableRecord
  2
3_AXES_OTHER
 70
0
 62
7
  6
CONTINUOUS
370
-3
390
F
  0
LAYER
  5
203
100
AcDbSymbolTableRecord
100
AcDbLayerTableRecord
  2
3_HOLES
 70
0
 62
7
  6
CONTINUOUS
370
-3
390
F
  0
LAYER
  5
204
100
AcDbSymbolTableRecord
100
AcDbLayerTableRecord
  2
4_ALL_POINTS
 70
0
 62
7
  6
CONTINUOUS
370
-3
390
F
  0
LAYER
  5
205
100
AcDbSymbolTableRecord
100
AcDbLayerTableRecord
  2
5_ALL_CURVES
 70
0
 62
7
  6
CONTINUOUS
370
-3
390
F
  0
LAYER
  5
206
100
AcDbSymbolTableRecord
100
AcDbLayerTableRecord
  2
6_ALL_SURFS
 70
0
 62
7
  6
CONTINUOUS
370
-3
390
F
  0
LAYER
  5
207
100
AcDbSymbolTableRecord
100
AcDbLayerTableRecord
  2
6_COPYGEOM
 70
0
 62
7
  6
CONTINUOUS
370
-3
390
F
  0
LAYER
  5
208
100
AcDbSymbolTableRecord
100
AcDbLayerTableRecord
  2
7_ALL_ROUNDS
 70
0
 62
7
  6
CONTINUOUS
370
-3
390
F
  0
LAYER
  5
209
100
AcDbSymbolTableRecord
100
AcDbLayerTableRecord
  2
7_MERGES
 70
0
 62
7
  6
CONTINUOUS
370
-3
390
F
  0
LAYER
  5
20A
100
AcDbSymbolTableRecord
100
AcDbLayerTableRecord
  2
8_GDT
 70
0
 62
7
  6
CONTINUOUS
370
-3
390
F
  0
LAYER
  5
20B
100
AcDbSymbolTableRecord
100
AcDbLayerTableRecord
  2
8_SET_DATUMS
 70
0
 62
7
  6
CONTINUOUS
370
-3
390
F
  0
LAYER
  5
20C
100
AcDbSymbolTableRecord
100
AcDbLayerTableRecord
  2
9_COSMETICS
 70
0
 62
7
  6
CONTINUOUS
370
-3
390
F
  0
LAYER
  5
20D
100
AcDbSymbolTableRecord
100
AcDbLayerTableRecord
  2
9_THREADS
 70
0
 62
7
  6
CONTINUOUS
370
-3
390
F
  0
ENDTAB
  0
TABLE
  2
STYLE
  5
3
100
AcDbSymbolTable
 70
1
  0
STYLE
  5
11
100
AcDbSymbolTableRecord
100
AcDbTextStyleTableRecord
  2
STANDARD
 70
0
 40
0.0
 41
0.8
 50
0.0
 71
0
 42
0.2
  3
txt
  4

  0
STYLE
  5
20E
100
AcDbSymbolTableRecord
100
AcDbTextStyleTableRecord
  2
TEXTSTYLE_1
 70
0
 40
0.0
 41
0.8
 50
0.0
 71
0
 42
0.2
  3
gdt
  4

  0
ENDTAB
  0
TABLE
  2
VIEW
  5
6
100
AcDbSymbolTable
 70
0
  0
ENDTAB
  0
TABLE
  2
UCS
  5
7
100
AcDbSymbolTable
 70
0
  0
ENDTAB
  0
TABLE
  2
APPID
  5
9
100
AcDbSymbolTable
 70
1
  0
APPID
  5
20F
100
AcDbSymbolTableRecord
100
AcDbRegAppTableRecord
  2
ACAD
 70
0
  0
ENDTAB
  0
TABLE
  2
BLOCK_RECORD
  5
1
100
AcDbSymbolTable
 70
0
  0
BLOCK_RECORD
  5
210
100
AcDbSymbolTableRecord
100
AcDbBlockTableRecord
  2
*Model_Space
  0
BLOCK_RECORD
  5
211
100
AcDbSymbolTableRecord
100
AcDbBlockTableRecord
  2
*Paper_Space
  0
BLOCK_RECORD
  5
212
100
AcDbSymbolTableRecord
100
AcDbBlockTableRecord
  2
_FILLED
  0
BLOCK_RECORD
  5
213
100
AcDbSymbolTableRecord
100
AcDbBlockTableRecord
  2
*D0
  0
BLOCK_RECORD
  5
214
100
AcDbSymbolTableRecord
100
AcDbBlockTableRecord
  2
*D1
  0
BLOCK_RECORD
  5
215
100
AcDbSymbolTableRecord
100
AcDbBlockTableRecord
  2
*D2
  0
BLOCK_RECORD
  5
216
100
AcDbSymbolTableRecord
100
AcDbBlockTableRecord
  2
*D3
  0
BLOCK_RECORD
  5
217
100
AcDbSymbolTableRecord
100
AcDbBlockTableRecord
  2
*D4
  0
BLOCK_RECORD
  5
218
100
AcDbSymbolTableRecord
100
AcDbBlockTableRecord
  2
*D5
  0
BLOCK_RECORD
  5
219
100
AcDbSymbolTableRecord
100
AcDbBlockTableRecord
  2
*D6
  0
BLOCK_RECORD
  5
21A
100
AcDbSymbolTableRecord
100
AcDbBlockTableRecord
  2
*D7
  0
BLOCK_RECORD
  5
21B
100
AcDbSymbolTableRecord
100
AcDbBlockTableRecord
  2
*D8
  0
BLOCK_RECORD
  5
21C
100
AcDbSymbolTableRecord
100
AcDbBlockTableRecord
  2
*D9
  0
BLOCK_RECORD
  5
21D
100
AcDbSymbolTableRecord
100
AcDbBlockTableRecord
  2
RD010411_BL0
  0
ENDTAB
  0
TABLE
  2
DIMSTYLE
  5
A
100
AcDbSymbolTable
 70
1
100
AcDbDimStyleTable
 71
0
  0
DIMSTYLE
105
21E
100
AcDbSymbolTableRecord
100
AcDbDimStyleTableRecord
  2
STANDARD
 70
0
  3

  4

 40
1.0
 41
0.1875
 42
0.0625
 43
0.38
 44
0.125
 45
0.0
 46
0.0
 47
0.01
 48
0.01
140
0.15625
141
0.09
142
0.0
143
25.4
144
1.0
145
0.0
146
1.0
147
0.09
 71
1.0
 72
0.0
 73
1
 74
1
 75
0
 76
0
 77
0
 78
0
170
0
171
2
172
0
173
0
174
0
175
0
176
0
177
0
178
0
270
2
271
3
272
3
273
2
274
2
275
0
280
0
281
0
282
0
283
1
284
0
285
0
286
0
287
3
288
0
340
11
278
46
341
212
342
212
343
212
344
212
  0
DIMSTYLE
105
21F
100
AcDbSymbolTableRecord
100
AcDbDimStyleTableRecord
  2
DIMSTYLE_1
 70
0
  3

  4

 40
1.0
 41
0.1875
 42
0.0625
 43
0.38
 44
0.125
 45
0.0
 46
0.0
 47
0.0
 48
0.0
140
0.15625
141
0.09
142
0.0
143
25.4
144
1.0
145
0.0
146
1.0
147
0.078125
 71
0.0
 72
0.0
 73
1
 74
1
 75
0
 76
0
 77
0
 78
0
170
0
171
2
172
0
173
0
174
0
175
0
176
0
177
0
178
0
270
2
271
0
272
0
273
2
274
2
275
0
280
0
281
0
282
0
283
1
284
0
285
0
286
0
287
3
288
0
340
11
278
46
341
212
342
212
343
212
344
212
  0
DIMSTYLE
105
220
100
AcDbSymbolTableRecord
100
AcDbDimStyleTableRecord
  2
DIMSTYLE_2
 70
0
  3

  4

 40
1.0
 41
0.1875
 42
0.0625
 43
0.38
 44
0.125
 45
0.0
 46
0.0
 47
0.0
 48
0.0
140
0.15625
141
0.09
142
0.0
143
25.4
144
1.0
145
0.0
146
1.0
147
0.078125
 71
0.0
 72
0.0
 73
1
 74
1
 75
0
 76
0
 77
0
 78
0
170
0
171
2
172
0
173
0
174
0
175
0
176
0
177
0
178
0
270
2
271
1
272
1
273
2
274
2
275
0
280
0
281
0
282
0
283
1
284
0
285
0
286
0
287
3
288
0
340
11
278
46
341
212
342
212
343
212
344
212
  0
DIMSTYLE
105
221
100
AcDbSymbolTableRecord
100
AcDbDimStyleTableRecord
  2
DIMSTYLE_3
 70
0
  3

  4

 40
1.0
 41
0.1875
 42
0.0625
 43
0.38
 44
0.125
 45
0.0
 46
0.0
 47
0.1
 48
0.1
140
0.15625
141
0.09
142
0.0
143
25.4
144
1.0
145
0.0
146
1.0
147
0.078125
 71
0.0
 72
0.0
 73
1
 74
1
 75
0
 76
0
 77
0
 78
0
170
0
171
2
172
0
173
0
174
0
175
0
176
0
177
0
178
0
270
2
271
1
272
1
273
2
274
2
275
0
280
0
281
0
282
0
283
1
284
0
285
0
286
0
287
3
288
0
340
11
278
46
341
212
342
212
343
212
344
212
  0
DIMSTYLE
105
222
100
AcDbSymbolTableRecord
100
AcDbDimStyleTableRecord
  2
DIMSTYLE_4
 70
0
  3

  4

 40
1.0
 41
0.1875
 42
0.0625
 43
0.38
 44
0.125
 45
0.0
 46
0.0
 47
0.1
 48
0.1
140
0.15625
141
0.09
142
0.0
143
25.4
144
1.0
145
0.0
146
1.0
147
0.078125
 71
0.0
 72
0.0
 73
1
 74
1
 75
0
 76
0
 77
0
 78
0
170
0
171
2
172
0
173
0
174
0
175
0
176
0
177
0
178
0
270
2
271
0
272
0
273
2
274
2
275
0
280
0
281
0
282
0
283
1
284
0
285
0
286
0
287
3
288
0
340
11
278
46
341
212
342
212
343
212
344
212
  0
DIMSTYLE
105
223
100
AcDbSymbolTableRecord
100
AcDbDimStyleTableRecord
  2
DIMSTYLE_5
 70
0
  3
<>
  4

 40
1.0
 41
0.1875
 42
0.0625
 43
0.38
 44
0.125
 45
0.0
 46
0.0
 47
0.1
 48
0.1
140
0.15625
141
0.09
142
0.0
143
25.4
144
1.0
145
0.0
146
1.0
147
0.09
 71
0.0
 72
0.0
 73
1
 74
1
 75
0
 76
0
 77
0
 78
0
170
0
171
2
172
0
173
0
174
0
175
0
176
0
177
0
178
0
270
2
271
1
272
1
273
2
274
2
275
0
280
0
281
0
282
0
283
1
284
0
285
0
286
0
287
3
288
1
340
11
278
46
289
2
341
212
342
212
343
212
344
212
  0
DIMSTYLE
105
224
100
AcDbSymbolTableRecord
100
AcDbDimStyleTableRecord
  2
DIMSTYLE_6
 70
0
  3

  4

 40
1.0
 41
0.1875
 42
0.0625
 43
0.38
 44
0.125
 45
0.0
 46
0.0
 47
0.01
 48
0.01
140
0.15625
141
0.09
142
0.0
143
25.4
144
1.0
145
0.0
146
1.0
147
0.078125
 71
0.0
 72
0.0
 73
1
 74
1
 75
0
 76
0
 77
0
 78
0
170
0
171
2
172
0
173
0
174
0
175
0
176
0
177
0
178
0
270
2
271
1
272
1
273
2
274
2
275
0
280
0
281
0
282
0
283
1
284
0
285
0
286
0
287
3
288
0
340
11
278
46
341
212
342
212
343
212
344
212
  0
ENDTAB
  0
ENDSEC
  0
SECTION
  2
BLOCKS
  0
BLOCK
  5
20
100
AcDbEntity
  8
0
100
AcDbBlockBegin
  2
*Model_Space
 70
0
 10
0.0
 20
0.0
 30
0.0
  3
*Model_Space
  1

  0
ENDBLK
  5
21
100
AcDbEntity
  8
0
100
AcDbBlockEnd
  0
BLOCK
  5
1C
100
AcDbEntity
  8
0
100
AcDbBlockBegin
  2
*Paper_Space
 70
0
 10
0.0
 20
0.0
 30
0.0
  3
*Paper_Space
  1

  0
ENDBLK
  5
1D
100
AcDbEntity
  8
0
100
AcDbBlockEnd
  0
BLOCK
  5
225
100
AcDbEntity
  8
0
100
AcDbBlockBegin
 62
7
  6
CONTINUOUS
  2
RD010411_BL0
 70
64
 10
28.8888202988
 20
2.7011106652
  3
RD010411_BL0
  1

  0
ARC
  5
226
100
AcDbEntity
  8
0
100
AcDbCircle
 62
7
  6
CONTINUOUS
 10
29.5409818684
 20
2.8014876227
 40
0.0123715133
100
AcDbArc
 50
270.0
 51
360.0
  0
LINE
  5
227
100
AcDbEntity
  8
0
100
AcDbLine
 62
7
  6
CONTINUOUS
 10
29.5533533817
 20
2.8014876227
 11
29.5533533817
 21
2.8262391519
  0
ARC
  5
228
100
AcDbEntity
  8
0
100
AcDbCircle
 62
7
  6
CONTINUOUS
 10
29.5409818684
 20
2.8262391519
 40
0.0123715133
100
AcDbArc
 50
0.0
 51
90.0
  0
LINE
  5
229
100
AcDbEntity
  8
0
100
AcDbLine
 62
7
  6
CONTINUOUS
 10
29.5409818684
 20
2.8386106652
 11
29.2083885362
 21
2.8386106652
  0
SPLINE
  5
22A
100
AcDbEntity
  8
0
100
AcDbSpline
 62
7
  6
CONTINUOUS
 70
0
 71
3
 72
13
 73
9
 74
0
 42
0.0000001
 43
0.0000001
 44
0.0000000001
 40
0.0
 40
0.0
 40
0.0
 40
0.0
 40
0.1310616762
 40
0.2699656353
 40
0.4157607805
 40
0.5899807757
 40
0.76586761
 40
0.9948829976
 40
0.9948829976
 40
0.9948829976
 40
0.9948829976
 10
29.2083885362
 20
2.8386106652
 30
0.0
 10
29.2013971217
 20
2.83808994
 30
0.0
 10
29.1869959505
 20
2.8370173313
 30
0.0
 10
29.1674794957
 20
2.8249238235
 30
0.0
 10
29.1534690101
 20
2.8046210019
 30
0.0
 10
29.1443586684
 20
2.7797951203
 30
0.0
 10
29.1392271678
 20
2.7494475725
 30
0.0
 10
29.1387546953
 20
2.7280034624
 30
0.0
 10
29.1385098239
 20
2.715872938
 30
0.0
  0
LINE
  5
22B
100
AcDbEntity
  8
0
100
AcDbLine
 62
7
  6
CONTINUOUS
 10
29.1385098239
 20
2.715872938
 11
29.1385315372
 21
2.7139905091
  0
SPLINE
  5
22C
100
AcDbEntity
  8
0
100
AcDbSpline
 62
7
  6
CONTINUOUS
 70
0
 71
3
 72
13
 73
9
 74
0
 42
0.0000001
 43
0.0000001
 44
0.0000000001
 40
0.0
 40
0.0
 40
0.0
 40
0.0
 40
0.2222860645
 40
0.3981728988
 40
0.572392894
 40
0.7181880393
 40
0.8570919984
 40
0.9881536746
 40
0.9881536746
 40
0.9881536746
 40
0.9881536746
 10
29.1385315372
 20
2.7139905091
 30
0.0
 10
29.1387715826
 20
2.7022165804
 30
0.0
 10
29.1392866896
 20
2.6811327805
 30
0.0
 10
29.1443586642
 20
2.6511370157
 30
0.0
 10
29.1534691149
 20
2.6263139107
 30
0.0
 10
29.1674791636
 20
2.6060024727
 30
0.0
 10
29.1869971079
 20
2.5939378734
 30
0.0
 10
29.2013947681
 20
2.5927971942
 30
0.0
 10
29.2083885362
 20
2.5922762939
 30
0.0
  0
LINE
  5
22D
100
AcDbEntity
  8
0
100
AcDbLine
 62
7
  6
CONTINUOUS
 10
29.2083885362
 20
2.5922762939
 11
29.5410088705
 21
2.5930022716
  0
ARC
  5
22E
100
AcDbEntity
  8
0
100
AcDbCircle
 62
7
  6
CONTINUOUS
 10
29.5409818684
 20
2.6053737554
 40
0.0123715132
100
AcDbArc
 50
270.125053868
 51
360.0
  0
LINE
  5
22F
100
AcDbEntity
  8
0
100
AcDbLine
 62
7
  6
CONTINUOUS
 10
29.5533533817
 20
2.6053737554
 11
29.5533533817
 21
2.6291589347
  0
ARC
  5
230
100
AcDbEntity
  8
0
100
AcDbCircle
 62
7
  6
CONTINUOUS
 10
29.5409818684
 20
2.6291589347
 40
0.0123715133
100
AcDbArc
 50
0.0
 51
90.0
  0
LINE
  5
231
100
AcDbEntity
  8
0
100
AcDbLine
 62
7
  6
CONTINUOUS
 10
29.5409818684
 20
2.6415304479
 11
29.2559039252
 21
2.6415304479
  0
LINE
  5
232
100
AcDbEntity
  8
0
100
AcDbLine
 62
7
  6
CONTINUOUS
 10
29.243532412
 20
2.6539019612
 11
29.243532412
 21
2.7767445962
  0
ARC
  5
233
100
AcDbEntity
  8
0
100
AcDbCircle
 62
7
  6
CONTINUOUS
 10
29.2559039254
 20
2.7767445962
 40
0.0123715133
100
AcDbArc
 50
90.0
 51
180.0
  0
LINE
  5
234
100
AcDbEntity
  8
0
100
AcDbLine
 62
7
  6
CONTINUOUS
 10
29.2559039252
 20
2.7891161094
 11
29.5409818684
 21
2.7891161094
  0
LINE
  5
235
100
AcDbEntity
  8
0
100
AcDbLine
 62
7
  6
CONTINUOUS
 10
28.747584633
 20
2.6904631006
 11
28.9851965672
 21
2.6904631006
  0
ARC
  5
236
100
AcDbEntity
  8
0
100
AcDbCircle
 62
7
  6
CONTINUOUS
 10
28.9851965672
 20
2.6780915873
 40
0.0123715133
100
AcDbArc
 50
0.0
 51
90.0
  0
LINE
  5
237
100
AcDbEntity
  8
0
100
AcDbLine
 62
7
  6
CONTINUOUS
 10
28.9975680805
 20
2.6780915873
 11
28.9975680805
 21
2.6528302351
  0
LINE
  5
238
100
AcDbEntity
  8
0
100
AcDbLine
 62
7
  6
CONTINUOUS
 10
28.9851965672
 20
2.6404587218
 11
28.7082164274
 21
2.6404587218
  0
ARC
  5
239
100
AcDbEntity
  8
0
100
AcDbCircle
 62
7
  6
CONTINUOUS
 10
28.7082164274
 20
2.6280872086
 40
0.0123715133
100
AcDbArc
 50
90.0
 51
180.0
  0
LINE
  5
23A
100
AcDbEntity
  8
0
100
AcDbLine
 62
7
  6
CONTINUOUS
 10
28.6958449141
 20
2.6280872086
 11
28.6958449141
 21
2.6046476823
  0
ARC
  5
23B
100
AcDbEntity
  8
0
100
AcDbCircle
 62
7
  6
CONTINUOUS
 10
28.7082164274
 20
2.6046476823
 40
0.0123715133
100
AcDbArc
 50
180.0
 51
270.0
  0
LINE
  5
23C
100
AcDbEntity
  8
0
100
AcDbLine
 62
7
  6
CONTINUOUS
 10
28.7082164274
 20
2.5922761691
 11
29.0520731444
 21
2.5922761691
  0
SPLINE
  5
23D
100
AcDbEntity
  8
0
100
AcDbSpline
 62
7
  6
CONTINUOUS
 70
0
 71
3
 72
13
 73
9
 74
0
 42
0.0000001
 43
0.0000001
 44
0.0000000001
 40
0.0
 40
0.0
 40
0.0
 40
0.0
 40
0.1604571392
 40
0.3334692485
 40
0.4767982758
 40
0.6242014838
 40
0.7505998515
 40
1.0
 40
1.0
 40
1.0
 40
1.0
 10
29.0520731444
 20
2.5922761691
 30
0.0
 10
29.0578706116
 20
2.5925553068
 30
0.0
 10
29.0699191686
 20
2.593135423
 30
0.0
 10
29.0861210649
 20
2.6001695434
 30
0.0
 10
29.0983297276
 20
2.6119933127
 30
0.0
 10
29.1052097891
 20
2.6255488074
 30
0.0
 10
29.1104846297
 20
2.6437336424
 30
0.0
 10
29.110698683
 20
2.6573423102
 30
0.0
 10
29.1108407401
 20
2.6663737555
 30
0.0
  0
SPLINE
  5
23E
100
AcDbEntity
  8
0
100
AcDbSpline
 62
7
  6
CONTINUOUS
 70
0
 71
3
 72
13
 73
9
 74
0
 42
0.0000001
 43
0.0000001
 44
0.0000000001
 40
0.0
 40
0.0
 40
0.0
 40
0.0
 40
0.2494001485
 40
0.3757985162
 40
0.5232017242
 40
0.6665307515
 40
0.8395428608
 40
1.0
 40
1.0
 40
1.0
 40
1.0
 10
29.1108407401
 20
2.6663737555
 30
0.0
 10
29.110698683
 20
2.6754052009
 30
0.0
 10
29.1104846297
 20
2.6890138686
 30
0.0
 10
29.1052097891
 20
2.7071987038
 30
0.0
 10
29.0983297276
 20
2.7207541985
 30
0.0
 10
29.0861210649
 20
2.7325779676
 30
0.0
 10
29.0699191686
 20
2.739612088
 30
0.0
 10
29.0578706116
 20
2.7401922044
 30
0.0
 10
29.0520731444
 20
2.7404713419
 30
0.0
  0
LINE
  5
23F
100
AcDbEntity
  8
0
100
AcDbLine
 62
7
  6
CONTINUOUS
 10
29.0520731444
 20
2.7404713419
 11
28.81762842
 21
2.7404713419
  0
LINE
  5
240
100
AcDbEntity
  8
0
100
AcDbLine
 62
7
  6
CONTINUOUS
 10
28.8052569067
 20
2.7528428552
 11
28.8052569067
 21
2.7762509994
  0
ARC
  5
241
100
AcDbEntity
  8
0
100
AcDbCircle
 62
7
  6
CONTINUOUS
 10
28.8176284199
 20
2.7762509994
 40
0.0123715133
100
AcDbArc
 50
90.0
 51
180.0
  0
LINE
  5
242
100
AcDbEntity
  8
0
100
AcDbLine
 62
7
  6
CONTINUOUS
 10
28.81762842
 20
2.7886225127
 11
29.0949845197
 21
2.7886225127
  0
ARC
  5
243
100
AcDbEntity
  8
0
100
AcDbCircle
 62
7
  6
CONTINUOUS
 10
29.0949845197
 20
2.800994026
 40
0.0123715133
100
AcDbArc
 50
270.0
 51
360.0
  0
LINE
  5
244
100
AcDbEntity
  8
0
100
AcDbLine
 62
7
  6
CONTINUOUS
 10
29.107356033
 20
2.800994026
 11
29.107356033
 21
2.8262391519
  0
ARC
  5
245
100
AcDbEntity
  8
0
100
AcDbCircle
 62
7
  6
CONTINUOUS
 10
29.0949845197
 20
2.8262391519
 40
0.0123715133
100
AcDbArc
 50
0.0
 51
90.0
  0
LINE
  5
246
100
AcDbEntity
  8
0
100
AcDbLine
 62
7
  6
CONTINUOUS
 10
29.0949845197
 20
2.8386106652
 11
28.747584633
 21
2.8386106652
  0
SPLINE
  5
247
100
AcDbEntity
  8
0
100
AcDbSpline
 62
7
  6
CONTINUOUS
 70
0
 71
3
 72
13
 73
9
 74
0
 42
0.0000001
 43
0.0000001
 44
0.0000000001
 40
0.0
 40
0.0
 40
0.0
 40
0.0
 40
0.1133740464
 40
0.2392044088
 40
0.3655787964
 40
0.4912154373
 40
0.7445390876
 40
1.0
 40
1.0
 40
1.0
 40
1.0
 10
28.747584633
 20
2.8386106652
 30
0.0
 10
28.7436160069
 20
2.8384151918
 30
0.0
 10
28.735242725
 20
2.8380027684
 30
0.0
 10
28.7228050429
 20
2.8342867606
 30
0.0
 10
28.7116783243
 20
2.8267829835
 30
0.0
 10
28.700312282
 20
2.8129607397
 30
0.0
 10
28.6931600471
 20
2.7912616561
 30
0.0
 10
28.6923843862
 20
2.7734700532
 30
0.0
 10
28.6919949268
 20
2.7645368829
 30
0.0
  0
SPLINE
  5
248
100
AcDbEntity
  8
0
100
AcDbSpline
 62
7
  6
CONTINUOUS
 70
0
 71
3
 72
13
 73
9
 74
0
 42
0.0000001
 43
0.0000001
 44
0.0000000001
 40
0.0
 40
0.0
 40
0.0
 40
0.0
 40
0.2554609124
 40
0.5087845627
 40
0.6344212036
 40
0.7607955912
 40
0.8866259536
 40
1.0
 40
1.0
 40
1.0
 40
1.0
 10
28.6919949268
 20
2.7645368829
 30
0.0
 10
28.6923843862
 20
2.7556037125
 30
0.0
 10
28.6931600471
 20
2.7378121095
 30
0.0
 10
28.700312282
 20
2.716113026
 30
0.0
 10
28.7116783243
 20
2.7022907823
 30
0.0
 10
28.7228050429
 20
2.6947870052
 30
0.0
 10
28.735242725
 20
2.6910709973
 30
0.0
 10
28.7436160069
 20
2.6906585739
 30
0.0
 10
28.747584633
 20
2.6904631006
 30
0.0
  0
LINE
  5
249
100
AcDbEntity
  8
0
100
AcDbLine
 62
7
  6
CONTINUOUS
 10
28.2904708058
 20
2.5922761691
 11
28.4826983027
 21
2.5922761691
  0
LINE
  5
24A
100
AcDbEntity
  8
0
100
AcDbLine
 62
7
  6
CONTINUOUS
 10
28.4826983027
 20
2.5922761691
 11
28.4826983027
 21
2.5683689395
  0
ARC
  5
24B
100
AcDbEntity
  8
0
100
AcDbCircle
 62
7
  6
CONTINUOUS
 10
28.487456577
 20
2.5683689395
 40
0.0047582743
100
AcDbArc
 50
180.0
 51
270.0
  0
LINE
  5
24C
100
AcDbEntity
  8
0
100
AcDbLine
 62
7
  6
CONTINUOUS
 10
28.487456577
 20
2.5636106652
 11
28.5615477479
 21
2.5636106652
  0
ARC
  5
24D
100
AcDbEntity
  8
0
100
AcDbCircle
 62
7
  6
CONTINUOUS
 10
28.5615477479
 20
2.5683689395
 40
0.0047582743
100
AcDbArc
 50
270.0
 51
360.0
  0
LINE
  5
24E
100
AcDbEntity
  8
0
100
AcDbLine
 62
7
  6
CONTINUOUS
 10
28.5663060223
 20
2.5683689395
 11
28.5663060223
 21
2.5922761691
  0
LINE
  5
24F
100
AcDbEntity
  8
0
100
AcDbLine
 62
7
  6
CONTINUOUS
 10
28.5663060223
 20
2.5922761691
 11
28.6041051426
 21
2.5922761691
  0
SPLINE
  5
250
100
AcDbEntity
  8
0
100
AcDbSpline
 62
7
  6
CONTINUOUS
 70
0
 71
3
 72
12
 73
8
 74
0
 42
0.0000001
 43
0.0000001
 44
0.0000000001
 40
0.0
 40
0.0
 40
0.0
 40
0.0
 40
0.2415790084
 40
0.4893269843
 40
0.7378634303
 40
0.8656387112
 40
1.0
 40
1.0
 40
1.0
 40
1.0
 10
28.6041051426
 20
2.5922761691
 30
0.0
 10
28.6108828973
 20
2.5924868818
 30
0.0
 10
28.6246114837
 20
2.5929136882
 30
0.0
 10
28.6447018375
 20
2.6000784426
 30
0.0
 10
28.6569031048
 20
2.6136036029
 30
0.0
 10
28.6622785781
 20
2.62711774
 30
0.0
 10
28.662375452
 20
2.6345207558
 30
0.0
 10
28.662425106
 20
2.6383152614
 30
0.0
  0
LINE
  5
251
100
AcDbEntity
  8
0
100
AcDbLine
 62
7
  6
CONTINUOUS
 10
28.662425106
 20
2.6383152614
 11
28.662425106
 21
2.7922826519
  0
SPLINE
  5
252
100
AcDbEntity
  8
0
100
AcDbSpline
 62
7
  6
CONTINUOUS
 70
0
 71
3
 72
12
 73
8
 74
0
 42
0.0000001
 43
0.0000001
 44
0.0000000001
 40
0.0
 40
0.0
 40
0.0
 40
0.0
 40
0.1343612888
 40
0.2621365697
 40
0.5106730157
 40
0.7584209916
 40
1.0
 40
1.0
 40
1.0
 40
1.0
 10
28.662425106
 20
2.7922826519
 30
0.0
 10
28.662375452
 20
2.7960771578
 30
0.0
 10
28.6622785781
 20
2.8034801735
 30
0.0
 10
28.6569031048
 20
2.8169943106
 30
0.0
 10
28.6447018375
 20
2.8305194709
 30
0.0
 10
28.6246114837
 20
2.8376842252
 30
0.0
 10
28.6108828973
 20
2.8381110315
 30
0.0
 10
28.6041051426
 20
2.8383217443
 30
0.0
  0
LINE
  5
253
100
AcDbEntity
  8
0
100
AcDbLine
 62
7
  6
CONTINUOUS
 10
28.6041051426
 20
2.8383217443
 11
28.2904708058
 21
2.8383217443
  0
SPLINE
  5
254
100
AcDbEntity
  8
0
100
AcDbSpline
 62
7
  6
CONTINUOUS
 70
0
 71
3
 72
12
 73
8
 74
0
 42
0.0000001
 43
0.0000001
 44
0.0000000001
 40
0.0
 40
0.0
 40
0.0
 40
0.0
 40
0.1341799809
 40
0.290831959
 40
0.5815217441
 40
0.760783857
 40
1.0
 40
1.0
 40
1.0
 40
1.0
 10
28.2904708058
 20
2.8383217443
 30
0.0
 10
28.2836298841
 20
2.8371525659
 30
0.0
 10
28.268802347
 20
2.8346183988
 30
0.0
 10
28.2438425679
 20
2.8159710058
 30
0.0
 10
28.2320203498
 20
2.7845986398
 30
0.0
 10
28.2251032757
 20
2.7490351714
 30
0.0
 10
28.2245840327
 20
2.7275247647
 30
0.0
 10
28.2242872159
 20
2.7152286981
 30
0.0
  0
SPLINE
  5
255
100
AcDbEntity
  8
0
100
AcDbSpline
 62
7
  6
CONTINUOUS
 70
0
 71
3
 72
12
 73
8
 74
0
 42
0.0000001
 43
0.0000001
 44
0.0000000001
 40
0.0
 40
0.0
 40
0.0
 40
0.0
 40
0.2392679579
 40
0.4185688994
 40
0.7093216488
 40
0.8660075581
 40
1.0
 40
1.0
 40
1.0
 40
1.0
 10
28.2242872159
 20
2.7152286981
 30
0.0
 10
28.2245841512
 20
2.7029331107
 30
0.0
 10
28.2251036016
 20
2.6814235425
 30
0.0
 10
28.2320191831
 20
2.6458540391
 30
0.0
 10
28.2438486242
 20
2.6145108802
 30
0.0
 10
28.2687824167
 20
2.5958029354
 30
0.0
 10
28.2836276692
 20
2.593388937
 30
0.0
 10
28.2904708058
 20
2.5922761691
 30
0.0
  0
LINE
  5
256
100
AcDbEntity
  8
0
100
AcDbLine
 62
7
  6
CONTINUOUS
 10
28.5990711516
 20
2.6556224584
 11
28.5990711516
 21
2.7789854567
  0
ARC
  5
257
100
AcDbEntity
  8
0
100
AcDbCircle
 62
7
  6
CONTINUOUS
 10
28.3395212147
 20
2.6556224584
 40
0.0123715133
100
AcDbArc
 50
180.0
 51
270.0
  0
LINE
  5
258
100
AcDbEntity
  8
0
100
AcDbLine
 62
7
  6
CONTINUOUS
 10
28.3395212147
 20
2.6432509452
 11
28.4816161078
 21
2.6432509452
  0
LINE
  5
259
100
AcDbEntity
  8
0
100
AcDbLine
 62
7
  6
CONTINUOUS
 10
28.4816161078
 20
2.6432509452
 11
28.4816161078
 21
2.6670840996
  0
ARC
  5
25A
100
AcDbEntity
  8
0
100
AcDbCircle
 62
7
  6
CONTINUOUS
 10
28.4863743822
 20
2.6670840996
 40
0.0047582743
100
AcDbArc
 50
90.0
 51
180.0
  0
LINE
  5
25B
100
AcDbEntity
  8
0
100
AcDbLine
 62
7
  6
CONTINUOUS
 10
28.4863743821
 20
2.6718423739
 11
28.5600879678
 21
2.6718423739
  0
ARC
  5
25C
100
AcDbEntity
  8
0
100
AcDbCircle
 62
7
  6
CONTINUOUS
 10
28.5600879676
 20
2.6670840998
 40
0.0047582743
100
AcDbArc
 50
0.0
 51
90.0
  0
LINE
  5
25D
100
AcDbEntity
  8
0
100
AcDbLine
 62
7
  6
CONTINUOUS
 10
28.5648462421
 20
2.6432509452
 11
28.5866996383
 21
2.6432509452
  0
ARC
  5
25E
100
AcDbEntity
  8
0
100
AcDbCircle
 62
7
  6
CONTINUOUS
 10
28.5866996383
 20
2.6556224584
 40
0.0123715133
100
AcDbArc
 50
270.0
 51
360.0
  0
LINE
  5
25F
100
AcDbEntity
  8
0
100
AcDbLine
 62
7
  6
CONTINUOUS
 10
28.5648462421
 20
2.6432509452
 11
28.5648462421
 21
2.6670840996
  0
LINE
  5
260
100
AcDbEntity
  8
0
100
AcDbLine
 62
7
  6
CONTINUOUS
 10
28.3271497014
 20
2.6556224584
 11
28.3271497014
 21
2.7789854567
  0
ARC
  5
261
100
AcDbEntity
  8
0
100
AcDbCircle
 62
7
  6
CONTINUOUS
 10
28.3395212149
 20
2.7789854567
 40
0.0123715133
100
AcDbArc
 50
90.0
 51
180.0
  0
LINE
  5
262
100
AcDbEntity
  8
0
100
AcDbLine
 62
7
  6
CONTINUOUS
 10
28.3395212147
 20
2.79135697
 11
28.5866996383
 21
2.79135697
  0
ARC
  5
263
100
AcDbEntity
  8
0
100
AcDbCircle
 62
7
  6
CONTINUOUS
 10
28.5866996384
 20
2.7789854566
 40
0.0123715133
100
AcDbArc
 50
0.0000000277
 51
90.0000000277
  0
ARC
  5
264
100
AcDbEntity
  8
0
100
AcDbCircle
 62
7
  6
CONTINUOUS
 10
28.81762842
 20
2.7528428552
 40
0.0123715133
100
AcDbArc
 50
180.0
 51
270.0
  0
ARC
  5
265
100
AcDbEntity
  8
0
100
AcDbCircle
 62
7
  6
CONTINUOUS
 10
28.9851965672
 20
2.6528302351
 40
0.0123715133
100
AcDbArc
 50
270.0
 51
360.0
  0
ARC
  5
266
100
AcDbEntity
  8
0
100
AcDbCircle
 62
7
  6
CONTINUOUS
 10
29.2559039252
 20
2.6539019612
 40
0.0123715133
100
AcDbArc
 50
180.0
 51
270.0
  0
ENDBLK
  5
267
100
AcDbEntity
  8
0
  6
BYBLOCK
 62
0
100
AcDbBlockEnd
  0
BLOCK
  5
268
100
AcDbEntity
  8
0
100
AcDbBlockBegin
  2
_FILLED
 70
64
 10
0.0
 20
0.0
  3
_FILLED
  1

  0
SOLID
  5
269
100
AcDbEntity
  8
0
  6
BYBLOCK
 62
0
100
AcDbTrace
 10
0.0
 20
0.0
 11
-1.0
 21
0.1666666667
 12
-1.0
 22
-0.1666666667
 13
-1.0
 23
-0.1666666667
  0
ENDBLK
  5
26A
100
AcDbEntity
  8
0
  6
BYBLOCK
 62
0
100
AcDbBlockEnd
  0
BLOCK
  5
26B
100
AcDbEntity
  8
0
100
AcDbBlockBegin
 62
2
  6
CONTINUOUS
  2
*D0
 70
65
 10
0.0
 20
0.0
  3
*D0
  1

  0
MTEXT
  5
26C
100
AcDbEntity
  8
0
100
AcDbMText
 62
2
  6
CONTINUOUS
  7
STANDARD
 71
2
 72
1
 10
14.2228122567
 20
8.9438480384
 30
0.0
 11
1.0
 21
0.0
 31
0.0
 44
0.9
  1
183\P[7.2]
 40
0.15625
 41
0.703125
  0
LINE
  5
26D
100
AcDbEntity
  8
0
100
AcDbLine
 62
2
  6
CONTINUOUS
 10
10.689057687
 20
8.078877629
 11
10.689057687
 21
8.9907230384
  0
LINE
  5
26E
100
AcDbEntity
  8
0
100
AcDbLine
 62
2
  6
CONTINUOUS
 10
17.9016561122
 20
8.078877629
 11
17.9016561122
 21
8.9907230384
  0
LINE
  5
26F
100
AcDbEntity
  8
0
100
AcDbLine
 62
2
  6
CONTINUOUS
 10
10.689057687
 20
8.8657230384
 11
13.9828568996
 21
8.8657230384
  0
LINE
  5
270
100
AcDbEntity
  8
0
100
AcDbLine
 62
2
  6
CONTINUOUS
 10
17.9016561122
 20
8.8657230384
 11
14.6078568996
 21
8.8657230384
  0
INSERT
  5
271
100
AcDbEntity
  8
0
100
AcDbBlockReference
 62
2
  6
CONTINUOUS
  2
_FILLED
 10
10.689057687
 20
8.8657230384
 41
0.1875
 42
0.1875
 43
0.1875
 50
180.0
  0
INSERT
  5
272
100
AcDbEntity
  8
0
100
AcDbBlockReference
 62
2
  6
CONTINUOUS
  2
_FILLED
 10
17.9016561122
 20
8.8657230384
 41
0.1875
 42
0.1875
 43
0.1875
  0
ENDBLK
  5
273
100
AcDbEntity
  8
0
  6
BYBLOCK
 62
0
100
AcDbBlockEnd
  0
BLOCK
  5
274
100
AcDbEntity
  8
0
100
AcDbBlockBegin
 62
2
  6
CONTINUOUS
  2
*D1
 70
65
 10
0.0
 20
0.0
  3
*D1
  1

  0
MTEXT
  5
275
100
AcDbEntity
  8
0
100
AcDbMText
 62
2
  6
CONTINUOUS
  7
STANDARD
 71
2
 72
1
 10
20.3172551801
 20
12.545791133
 30
0.0
 11
1.0
 21
0.0
 31
0.0
 44
0.9
  1
85.0\P[3.35]
 40
0.15625
 41
0.8370535714
  0
LINE
  5
276
100
AcDbEntity
  8
0
100
AcDbLine
 62
2
  6
CONTINUOUS
 10
18.4025787324
 20
14.1408944795
 11
20.4980587515
 21
14.1408944795
  0
LINE
  5
277
100
AcDbEntity
  8
0
100
AcDbLine
 62
2
  6
CONTINUOUS
 10
18.4285817292
 20
10.7944377866
 11
20.4980587515
 21
10.7944377866
  0
LINE
  5
278
100
AcDbEntity
  8
0
100
AcDbLine
 62
2
  6
CONTINUOUS
 10
20.3730587515
 20
14.1408944795
 11
20.3730587515
 21
12.623916133
  0
LINE
  5
279
100
AcDbEntity
  8
0
100
AcDbLine
 62
2
  6
CONTINUOUS
 10
20.3730587515
 20
10.7944377866
 11
20.3730587515
 21
12.077041133
  0
INSERT
  5
27A
100
AcDbEntity
  8
0
100
AcDbBlockReference
 62
2
  6
CONTINUOUS
  2
_FILLED
 10
20.3730587515
 20
14.1408944795
 41
0.1875
 42
0.1875
 43
0.1875
 50
90.0
  0
INSERT
  5
27B
100
AcDbEntity
  8
0
100
AcDbBlockReference
 62
2
  6
CONTINUOUS
  2
_FILLED
 10
20.3730587515
 20
10.7944377866
 41
0.1875
 42
0.1875
 43
0.1875
 50
270.0
  0
ENDBLK
  5
27C
100
AcDbEntity
  8
0
  6
BYBLOCK
 62
0
100
AcDbBlockEnd
  0
BLOCK
  5
27D
100
AcDbEntity
  8
0
100
AcDbBlockBegin
 62
2
  6
CONTINUOUS
  2
*D2
 70
65
 10
0.0
 20
0.0
  3
*D2
  1

  0
MTEXT
  5
27E
100
AcDbEntity
  8
0
100
AcDbMText
 62
2
  6
CONTINUOUS
  7
STANDARD
 71
2
 72
1
 10
14.2228122567
 20
6.0426421521
 30
0.0
 11
1.0
 21
0.0
 31
0.0
 44
0.9
  1
213\P[8.4]
 40
0.15625
 41
0.703125
  0
LINE
  5
27F
100
AcDbEntity
  8
0
100
AcDbLine
 62
2
  6
CONTINUOUS
 10
10.0985065059
 20
6.9696256605
 11
10.0985065059
 21
5.8395171521
  0
LINE
  5
280
100
AcDbEntity
  8
0
100
AcDbLine
 62
2
  6
CONTINUOUS
 10
18.4922072933
 20
6.9696256605
 11
18.4922072933
 21
5.8395171521
  0
LINE
  5
281
100
AcDbEntity
  8
0
100
AcDbLine
 62
2
  6
CONTINUOUS
 10
10.0985065059
 20
5.9645171521
 11
13.9828568996
 21
5.9645171521
  0
LINE
  5
282
100
AcDbEntity
  8
0
100
AcDbLine
 62
2
  6
CONTINUOUS
 10
18.4922072933
 20
5.9645171521
 11
14.6078568996
 21
5.9645171521
  0
INSERT
  5
283
100
AcDbEntity
  8
0
100
AcDbBlockReference
 62
2
  6
CONTINUOUS
  2
_FILLED
 10
10.0985065059
 20
5.9645171521
 41
0.1875
 42
0.1875
 43
0.1875
 50
180.0
  0
INSERT
  5
284
100
AcDbEntity
  8
0
100
AcDbBlockReference
 62
2
  6
CONTINUOUS
  2
_FILLED
 10
18.4922072933
 20
5.9645171521
 41
0.1875
 42
0.1875
 43
0.1875
  0
ENDBLK
  5
285
100
AcDbEntity
  8
0
  6
BYBLOCK
 62
0
100
AcDbBlockEnd
  0
BLOCK
  5
286
100
AcDbEntity
  8
0
100
AcDbBlockBegin
 62
2
  6
CONTINUOUS
  2
*D3
 70
65
 10
0.0
 20
0.0
  3
*D3
  1

  0
MTEXT
  5
287
100
AcDbEntity
  8
0
100
AcDbMText
 62
2
  6
CONTINUOUS
  7
STANDARD
 71
2
 72
1
 10
8.739229967
 20
12.4886795955
 30
0.0
 11
1.0
 21
0.0
 31
0.0
 44
0.9
  1
4X 12.0\P[0.47]
 40
0.15625
 41
1.2053571429
  0
LINE
  5
288
100
AcDbEntity
  8
0
100
AcDbLine
 62
2
  6
CONTINUOUS
 10
10.1426994193
 20
11.6999495976
 11
8.6979353242
 21
11.6999495976
  0
LINE
  5
289
100
AcDbEntity
  8
0
100
AcDbLine
 62
2
  6
CONTINUOUS
 10
10.1426994193
 20
11.2275086527
 11
8.6979353242
 21
11.2275086527
  0
LINE
  5
28A
100
AcDbEntity
  8
0
100
AcDbLine
 62
2
  6
CONTINUOUS
 10
8.8229353242
 20
11.6999495976
 11
8.8229353242
 21
11.4637291252
  0
LINE
  5
28B
100
AcDbEntity
  8
0
100
AcDbLine
 62
2
  6
CONTINUOUS
 10
8.8229353242
 20
11.4637291252
 11
8.8229353242
 21
12.0199295955
  0
LINE
  5
28C
100
AcDbEntity
  8
0
100
AcDbLine
 62
2
  6
CONTINUOUS
 10
8.8229353242
 20
11.2275086527
 11
8.8229353242
 21
11.4637291252
  0
INSERT
  5
28D
100
AcDbEntity
  8
0
100
AcDbBlockReference
 62
2
  6
CONTINUOUS
  2
_FILLED
 10
8.8229353242
 20
11.6999495976
 41
0.1875
 42
0.1875
 43
0.1875
 50
90.0
  0
INSERT
  5
28E
100
AcDbEntity
  8
0
100
AcDbBlockReference
 62
2
  6
CONTINUOUS
  2
_FILLED
 10
8.8229353242
 20
11.2275086527
 41
0.1875
 42
0.1875
 43
0.1875
 50
270.0
  0
ENDBLK
  5
28F
100
AcDbEntity
  8
0
  6
BYBLOCK
 62
0
100
AcDbBlockEnd
  0
BLOCK
  5
290
100
AcDbEntity
  8
0
100
AcDbBlockBegin
 62
2
  6
CONTINUOUS
  2
*D4
 70
65
 10
0.0
 20
0.0
  3
*D4
  1

  0
MTEXT
  5
291
100
AcDbEntity
  8
0
100
AcDbMText
 62
2
  6
CONTINUOUS
  7
STANDARD
 71
2
 72
1
 10
14.2283926139
 20
15.1642623162
 30
0.0
 11
1.0
 21
0.0
 31
0.0
 44
0.9
  1
2X 199\P[7.8]
 40
0.15625
 41
1.0714285714
  0
LINE
  5
292
100
AcDbEntity
  8
0
100
AcDbLine
 62
2
  6
CONTINUOUS
 10
10.3740970571
 20
13.9392212512
 11
10.3740970571
 21
15.2111373162
  0
LINE
  5
293
100
AcDbEntity
  8
0
100
AcDbLine
 62
2
  6
CONTINUOUS
 10
18.2166167421
 20
13.6675677078
 11
18.2166167421
 21
15.2111373162
  0
LINE
  5
294
100
AcDbEntity
  8
0
100
AcDbLine
 62
2
  6
CONTINUOUS
 10
10.3740970571
 20
15.0861373162
 11
13.7931247567
 21
15.0861373162
  0
LINE
  5
295
100
AcDbEntity
  8
0
100
AcDbLine
 62
2
  6
CONTINUOUS
 10
18.2166167421
 20
15.0861373162
 11
14.7975890425
 21
15.0861373162
  0
INSERT
  5
296
100
AcDbEntity
  8
0
100
AcDbBlockReference
 62
2
  6
CONTINUOUS
  2
_FILLED
 10
10.3740970571
 20
15.0861373162
 41
0.1875
 42
0.1875
 43
0.1875
 50
180.0
  0
INSERT
  5
297
100
AcDbEntity
  8
0
100
AcDbBlockReference
 62
2
  6
CONTINUOUS
  2
_FILLED
 10
18.2166167421
 20
15.0861373162
 41
0.1875
 42
0.1875
 43
0.1875
  0
ENDBLK
  5
298
100
AcDbEntity
  8
0
  6
BYBLOCK
 62
0
100
AcDbBlockEnd
  0
BLOCK
  5
299
100
AcDbEntity
  8
0
100
AcDbBlockBegin
 62
2
  6
CONTINUOUS
  2
*D5
 70
65
 10
0.0
 20
0.0
  3
*D5
  1

  0
MTEXT
  5
29A
100
AcDbEntity
  8
0
100
AcDbMText
 62
2
  6
CONTINUOUS
  7
STANDARD
 71
2
 72
1
 10
19.2867075888
 20
12.545791133
 30
0.0
 11
1.0
 21
0.0
 31
0.0
 44
0.9
  1
2X 51.0\P[2.01]
 40
0.15625
 41
1.1886160714
  0
LINE
  5
29B
100
AcDbEntity
  8
0
100
AcDbLine
 62
2
  6
CONTINUOUS
 10
18.4125813091
 20
13.4716031409
 11
19.4842522317
 21
13.4716031409
  0
LINE
  5
29C
100
AcDbEntity
  8
0
100
AcDbLine
 62
2
  6
CONTINUOUS
 10
18.4125813091
 20
11.4637291252
 11
19.4842522317
 21
11.4637291252
  0
LINE
  5
29D
100
AcDbEntity
  8
0
100
AcDbLine
 62
2
  6
CONTINUOUS
 10
19.3592522317
 20
13.4716031409
 11
19.3592522317
 21
12.623916133
  0
LINE
  5
29E
100
AcDbEntity
  8
0
100
AcDbLine
 62
2
  6
CONTINUOUS
 10
19.3592522317
 20
11.4637291252
 11
19.3592522317
 21
12.077041133
  0
INSERT
  5
29F
100
AcDbEntity
  8
0
100
AcDbBlockReference
 62
2
  6
CONTINUOUS
  2
_FILLED
 10
19.3592522317
 20
13.4716031409
 41
0.1875
 42
0.1875
 43
0.1875
 50
90.0
  0
INSERT
  5
2A0
100
AcDbEntity
  8
0
100
AcDbBlockReference
 62
2
  6
CONTINUOUS
  2
_FILLED
 10
19.3592522317
 20
11.4637291252
 41
0.1875
 42
0.1875
 43
0.1875
 50
270.0
  0
ENDBLK
  5
2A1
100
AcDbEntity
  8
0
  6
BYBLOCK
 62
0
100
AcDbBlockEnd
  0
BLOCK
  5
2A2
100
AcDbEntity
  8
0
100
AcDbBlockBegin
 62
2
  6
CONTINUOUS
  2
*D6
 70
65
 10
0.0
 20
0.0
  3
*D6
  1

  0
MTEXT
  5
2A3
100
AcDbEntity
  8
0
100
AcDbMText
 62
2
  6
CONTINUOUS
  7
STANDARD
 71
3
 72
1
 10
8.972457781
 20
14.4540222297
 30
0.0
 11
1.0
 21
0.0
 31
0.0
 44
0.9
  1
4X 6.8\P[0.27]
 40
0.15625
 41
1.0714285714
  0
LINE
  5
2A4
100
AcDbEntity
  8
0
100
AcDbLine
 62
2
  6
CONTINUOUS
 10
10.2799381788
 20
13.5667458836
 11
9.4791542096
 21
14.3758972297
  0
LINE
  5
2A5
100
AcDbEntity
  8
0
100
AcDbLine
 62
2
  6
CONTINUOUS
 10
9.4791542096
 20
14.3758972297
 11
9.3072792096
 21
14.3758972297
  0
INSERT
  5
2A6
100
AcDbEntity
  8
0
100
AcDbBlockReference
 62
2
  6
CONTINUOUS
  2
_FILLED
 10
10.2799381788
 20
13.5667458836
 41
0.1875
 42
0.1875
 43
0.1875
 50
314.7022171877
  0
ENDBLK
  5
2A7
100
AcDbEntity
  8
0
  6
BYBLOCK
 62
0
100
AcDbBlockEnd
  0
BLOCK
  5
2A8
100
AcDbEntity
  8
0
100
AcDbBlockBegin
 62
2
  6
CONTINUOUS
  2
*D7
 70
65
 10
0.0
 20
0.0
  3
*D7
  1

  0
MTEXT
  5
2A9
100
AcDbEntity
  8
0
100
AcDbMText
 62
2
  6
CONTINUOUS
  7
STANDARD
 71
3
 72
1
 10
9.5381033997
 20
10.4251814083
 30
0.0
 11
1.0
 21
0.0
 31
0.0
 44
0.9
  1
8X 3.5\P[0.14]
 40
0.15625
 41
1.0379464286
  0
LINE
  5
2AA
100
AcDbEntity
  8
0
100
AcDbLine
 62
2
  6
CONTINUOUS
 10
10.3051994193
 20
11.1650086527
 11
10.3051994193
 21
10.2220564083
  0
LINE
  5
2AB
100
AcDbEntity
  8
0
100
AcDbLine
 62
2
  6
CONTINUOUS
 10
10.4429946949
 20
11.1650086527
 11
10.4429946949
 21
10.2220564083
  0
LINE
  5
2AC
100
AcDbEntity
  8
0
100
AcDbLine
 62
2
  6
CONTINUOUS
 10
10.3051994193
 20
10.3470564083
 11
9.8617641139
 21
10.3470564083
  0
LINE
  5
2AD
100
AcDbEntity
  8
0
100
AcDbLine
 62
2
  6
CONTINUOUS
 10
10.4429946949
 20
10.3470564083
 11
10.9429946949
 21
10.3470564083
  0
INSERT
  5
2AE
100
AcDbEntity
  8
0
100
AcDbBlockReference
 62
2
  6
CONTINUOUS
  2
_FILLED
 10
10.3051994193
 20
10.3470564083
 41
0.1875
 42
0.1875
 43
0.1875
  0
INSERT
  5
2AF
100
AcDbEntity
  8
0
100
AcDbBlockReference
 62
2
  6
CONTINUOUS
  2
_FILLED
 10
10.4429946949
 20
10.3470564083
 41
0.1875
 42
0.1875
 43
0.1875
 50
180.0
  0
ENDBLK
  5
2B0
100
AcDbEntity
  8
0
  6
BYBLOCK
 62
0
100
AcDbBlockEnd
  0
BLOCK
  5
2B1
100
AcDbEntity
  8
0
100
AcDbBlockBegin
 62
2
  6
CONTINUOUS
  2
*D8
 70
65
 10
0.0
 20
0.0
  3
*D8
  1

  0
MTEXT
  5
2B2
100
AcDbEntity
  8
0
100
AcDbMText
 62
2
  6
CONTINUOUS
  7
STANDARD
 71
2
 72
1
 10
20.1122178684
 20
7.7438600962
 30
0.0
 11
1.0
 21
0.0
 31
0.0
 44
0.9
  1
25.0\P[0.98]
 40
0.15625
 41
0.8872767857
  0
LINE
  5
2B3
100
AcDbEntity
  8
0
100
AcDbLine
 62
2
  6
CONTINUOUS
 10
18.5547072933
 20
7.0321256605
 11
20.3097625113
 21
7.0321256605
  0
LINE
  5
2B4
100
AcDbEntity
  8
0
100
AcDbLine
 62
2
  6
CONTINUOUS
 10
17.9641561122
 20
8.016377629
 11
20.3097625113
 21
8.016377629
  0
LINE
  5
2B5
100
AcDbEntity
  8
0
100
AcDbLine
 62
2
  6
CONTINUOUS
 10
20.1847625113
 20
7.0321256605
 11
20.1847625113
 21
6.5321256605
  0
LINE
  5
2B6
100
AcDbEntity
  8
0
100
AcDbLine
 62
2
  6
CONTINUOUS
 10
20.1847625113
 20
8.016377629
 11
20.1847625113
 21
8.516377629
  0
INSERT
  5
2B7
100
AcDbEntity
  8
0
100
AcDbBlockReference
 62
2
  6
CONTINUOUS
  2
_FILLED
 10
20.1847625113
 20
7.0321256605
 41
0.1875
 42
0.1875
 43
0.1875
 50
90.0
  0
INSERT
  5
2B8
100
AcDbEntity
  8
0
100
AcDbBlockReference
 62
2
  6
CONTINUOUS
  2
_FILLED
 10
20.1847625113
 20
8.016377629
 41
0.1875
 42
0.1875
 43
0.1875
 50
270.0
  0
ENDBLK
  5
2B9
100
AcDbEntity
  8
0
  6
BYBLOCK
 62
0
100
AcDbBlockEnd
  0
BLOCK
  5
2BA
100
AcDbEntity
  8
0
100
AcDbBlockBegin
 62
2
  6
CONTINUOUS
  2
*D9
 70
65
 10
0.0
 20
0.0
  3
*D9
  1

  0
MTEXT
  5
2BB
100
AcDbEntity
  8
0
100
AcDbMText
 62
2
  6
CONTINUOUS
  7
STANDARD
 71
1
 72
1
 10
19.0214967891
 20
7.64571822
 30
0.0
 11
1.0
 21
0.0
 31
0.0
 44
0.9
  1
1.0\P[0.04]
 40
0.15625
 41
0.8872767857
  0
LINE
  5
2BC
100
AcDbEntity
  8
0
100
AcDbLine
 62
2
  6
CONTINUOUS
 10
18.4365970571
 20
7.0321256605
 11
18.8964967891
 21
7.0321256605
  0
LINE
  5
2BD
100
AcDbEntity
  8
0
100
AcDbLine
 62
2
  6
CONTINUOUS
 10
18.4365970571
 20
7.0714957392
 11
18.8964967891
 21
7.0714957392
  0
LINE
  5
2BE
100
AcDbEntity
  8
0
100
AcDbLine
 62
2
  6
CONTINUOUS
 10
18.7714967891
 20
7.0321256605
 11
18.7714967891
 21
6.5321256605
  0
LINE
  5
2BF
100
AcDbEntity
  8
0
100
AcDbLine
 62
2
  6
CONTINUOUS
 10
18.7714967891
 20
7.0714957392
 11
18.7714967891
 21
7.56759322
  0
LINE
  5
2C0
100
AcDbEntity
  8
0
100
AcDbLine
 62
2
  6
CONTINUOUS
 10
18.7714967891
 20
7.56759322
 11
18.9433717891
 21
7.56759322
  0
INSERT
  5
2C1
100
AcDbEntity
  8
0
100
AcDbBlockReference
 62
2
  6
CONTINUOUS
  2
_FILLED
 10
18.7714967891
 20
7.0321256605
 41
0.1875
 42
0.1875
 43
0.1875
 50
90.0
  0
INSERT
  5
2C2
100
AcDbEntity
  8
0
100
AcDbBlockReference
 62
2
  6
CONTINUOUS
  2
_FILLED
 10
18.7714967891
 20
7.0714957392
 41
0.1875
 42
0.1875
 43
0.1875
 50
270.0
  0
ENDBLK
  5
2C3
100
AcDbEntity
  8
0
  6
BYBLOCK
 62
0
100
AcDbBlockEnd
  0
ENDSEC
  0
SECTION
  2
ENTITIES
  0
MTEXT
  5
2C4
100
AcDbEntity
  8
0
100
AcDbMText
 62
2
  6
CONTINUOUS
  7
STANDARD
 71
1
 72
1
 10
2.4629077447
 20
0.3649166836
 30
0.0
 11
1.0
 21
0.0
 31
0.0
 44
0.9
  1
8
 40
0.15625
 41
0.1841517857
  0
MTEXT
  5
2C5
100
AcDbEntity
  8
0
100
AcDbMText
 62
2
  6
CONTINUOUS
  7
STANDARD
 71
1
 72
1
 10
6.5254077447
 20
0.3649166836
 30
0.0
 11
1.0
 21
0.0
 31
0.0
 44
0.9
  1
7
 40
0.15625
 41
0.1841517857
  0
MTEXT
  5
2C6
100
AcDbEntity
  8
0
100
AcDbMText
 62
2
  6
CONTINUOUS
  7
STANDARD
 71
1
 72
1
 10
10.5879077447
 20
0.3649166836
 30
0.0
 11
1.0
 21
0.0
 31
0.0
 44
0.9
  1
6
 40
0.15625
 41
0.1841517857
  0
MTEXT
  5
2C7
100
AcDbEntity
  8
0
100
AcDbMText
 62
2
  6
CONTINUOUS
  7
STANDARD
 71
1
 72
1
 10
14.6504077447
 20
0.3649166836
 30
0.0
 11
1.0
 21
0.0
 31
0.0
 44
0.9
  1
5
 40
0.15625
 41
0.1674107143
  0
MTEXT
  5
2C8
100
AcDbEntity
  8
0
100
AcDbMText
 62
2
  6
CONTINUOUS
  7
STANDARD
 71
1
 72
1
 10
18.7129077447
 20
0.3649166836
 30
0.0
 11
1.0
 21
0.0
 31
0.0
 44
0.9
  1
4
 40
0.15625
 41
0.1841517857
  0
MTEXT
  5
2C9
100
AcDbEntity
  8
0
100
AcDbMText
 62
2
  6
CONTINUOUS
  7
STANDARD
 71
1
 72
1
 10
22.7754077447
 20
0.3649166836
 30
0.0
 11
1.0
 21
0.0
 31
0.0
 44
0.9
  1
3
 40
0.15625
 41
0.1674107143
  0
MTEXT
  5
2CA
100
AcDbEntity
  8
0
100
AcDbMText
 62
2
  6
CONTINUOUS
  7
STANDARD
 71
1
 72
1
 10
26.8379077447
 20
0.3649166836
 30
0.0
 11
1.0
 21
0.0
 31
0.0
 44
0.9
  1
2
 40
0.15625
 41
0.1841517857
  0
MTEXT
  5
2CB
100
AcDbEntity
  8
0
100
AcDbMText
 62
2
  6
CONTINUOUS
  7
STANDARD
 71
1
 72
1
 10
30.9004077447
 20
0.3649166836
 30
0.0
 11
1.0
 21
0.0
 31
0.0
 44
0.9
  1
1
 40
0.15625
 41
0.1339285714
  0
MTEXT
  5
2CC
100
AcDbEntity
  8
0
100
AcDbMText
 62
2
  6
CONTINUOUS
  7
STANDARD
 71
1
 72
1
 10
2.4629077447
 20
21.8649166836
 30
0.0
 11
1.0
 21
0.0
 31
0.0
 44
0.9
  1
8
 40
0.15625
 41
0.2287946429
  0
MTEXT
  5
2CD
100
AcDbEntity
  8
0
100
AcDbMText
 62
2
  6
CONTINUOUS
  7
STANDARD
 71
1
 72
1
 10
6.5254077447
 20
21.8649166836
 30
0.0
 11
1.0
 21
0.0
 31
0.0
 44
0.9
  1
7
 40
0.15625
 41
0.1841517857
  0
MTEXT
  5
2CE
100
AcDbEntity
  8
0
100
AcDbMText
 62
2
  6
CONTINUOUS
  7
STANDARD
 71
1
 72
1
 10
10.5879077447
 20
21.8649166836
 30
0.0
 11
1.0
 21
0.0
 31
0.0
 44
0.9
  1
6
 40
0.15625
 41
0.1841517857
  0
MTEXT
  5
2CF
100
AcDbEntity
  8
0
100
AcDbMText
 62
2
  6
CONTINUOUS
  7
STANDARD
 71
1
 72
1
 10
14.6504077447
 20
21.8649166836
 30
0.0
 11
1.0
 21
0.0
 31
0.0
 44
0.9
  1
5
 40
0.15625
 41
0.1674107143
  0
MTEXT
  5
2D0
100
AcDbEntity
  8
0
100
AcDbMText
 62
2
  6
CONTINUOUS
  7
STANDARD
 71
1
 72
1
 10
18.7129077447
 20
21.8649166836
 30
0.0
 11
1.0
 21
0.0
 31
0.0
 44
0.9
  1
4
 40
0.15625
 41
0.1841517857
  0
MTEXT
  5
2D1
100
AcDbEntity
  8
0
100
AcDbMText
 62
2
  6
CONTINUOUS
  7
STANDARD
 71
1
 72
1
 10
22.7754077447
 20
21.8649166836
 30
0.0
 11
1.0
 21
0.0
 31
0.0
 44
0.9
  1
3
 40
0.15625
 41
0.1674107143
  0
MTEXT
  5
2D2
100
AcDbEntity
  8
0
100
AcDbMText
 62
2
  6
CONTINUOUS
  7
STANDARD
 71
1
 72
1
 10
26.8379077447
 20
21.8649166836
 30
0.0
 11
1.0
 21
0.0
 31
0.0
 44
0.9
  1
2
 40
0.15625
 41
0.1841517857
  0
MTEXT
  5
2D3
100
AcDbEntity
  8
0
100
AcDbMText
 62
2
  6
CONTINUOUS
  7
STANDARD
 71
1
 72
1
 10
30.9004077447
 20
21.8649166836
 30
0.0
 11
1.0
 21
0.0
 31
0.0
 44
0.9
  1
1
 40
0.15625
 41
0.1339285714
  0
MTEXT
  5
2D4
100
AcDbEntity
  8
0
100
AcDbMText
 62
2
  6
CONTINUOUS
  7
STANDARD
 71
1
 72
1
 10
0.1982193093
 20
3.2194899492
 30
0.0
 11
1.0
 21
0.0
 31
0.0
 44
0.9
  1
A
 40
0.15625
 41
0.2008928571
  0
MTEXT
  5
2D5
100
AcDbEntity
  8
0
100
AcDbMText
 62
2
  6
CONTINUOUS
  7
STANDARD
 71
1
 72
1
 10
0.1982193093
 20
8.4694899492
 30
0.0
 11
1.0
 21
0.0
 31
0.0
 44
0.9
  1
B
 40
0.15625
 41
0.1841517857
  0
MTEXT
  5
2D6
100
AcDbEntity
  8
0
100
AcDbMText
 62
2
  6
CONTINUOUS
  7
STANDARD
 71
1
 72
1
 10
0.1982193093
 20
13.7194899492
 30
0.0
 11
1.0
 21
0.0
 31
0.0
 44
0.9
  1
C
 40
0.15625
 41
0.1953125
  0
MTEXT
  5
2D7
100
AcDbEntity
  8
0
100
AcDbMText
 62
2
  6
CONTINUOUS
  7
STANDARD
 71
1
 72
1
 10
0.1982193093
 20
18.9694899492
 30
0.0
 11
1.0
 21
0.0
 31
0.0
 44
0.9
  1
D
 40
0.15625
 41
0.2120535714
  0
MTEXT
  5
2D8
100
AcDbEntity
  8
0
100
AcDbMText
 62
2
  6
CONTINUOUS
  7
STANDARD
 71
1
 72
1
 10
33.1982193093
 20
3.2194899492
 30
0.0
 11
1.0
 21
0.0
 31
0.0
 44
0.9
  1
A
 40
0.15625
 41
0.2008928571
  0
MTEXT
  5
2D9
100
AcDbEntity
  8
0
100
AcDbMText
 62
2
  6
CONTINUOUS
  7
STANDARD
 71
1
 72
1
 10
33.1982193093
 20
8.4694899492
 30
0.0
 11
1.0
 21
0.0
 31
0.0
 44
0.9
  1
B
 40
0.15625
 41
0.1841517857
  0
MTEXT
  5
2DA
100
AcDbEntity
  8
0
100
AcDbMText
 62
2
  6
CONTINUOUS
  7
STANDARD
 71
1
 72
1
 10
33.1982193093
 20
13.7194899492
 30
0.0
 11
1.0
 21
0.0
 31
0.0
 44
0.9
  1
C
 40
0.15625
 41
0.1953125
  0
MTEXT
  5
2DB
100
AcDbEntity
  8
0
100
AcDbMText
 62
2
  6
CONTINUOUS
  7
STANDARD
 71
1
 72
1
 10
33.1982193093
 20
18.9694899492
 30
0.0
 11
1.0
 21
0.0
 31
0.0
 44
0.9
  1
D
 40
0.15625
 41
0.2120535714
  0
MTEXT
  5
2DC
100
AcDbEntity
  8
0
100
AcDbMText
 62
5
  6
CONTINUOUS
  7
STANDARD
 71
1
 72
1
 10
0.5662896106
 20
21.4561821154
 30
0.0
 11
1.0
 21
0.0
 31
0.0
 44
0.9
  1
THIS DOCUMENT CONTAINS PROPRIETARY INFORMATION\PWHICH IS THE PROPERTY OF QSC, LLC, THAT MAY NOT BE\PDISCLOSED, REPRODUCED OR USED WITHOUT EXPRESS\PWRITTEN CONSENT FROM QSC, LLC.
 40
0.075
 41
4.44375
  0
MTEXT
  5
2DD
100
AcDbEntity
  8
0
100
AcDbMText
 62
2
  6
CONTINUOUS
  7
STANDARD
 71
2
 72
1
 10
24.2493141054
 20
2.9782574653
 30
0.0
 11
1.0
 21
0.0
 31
0.0
 44
0.9
  1
UNLESS OTHERWISE SPECIFIED\PDIMENSIONS IN MILLIMETERS [IN]
 40
0.1
 41
3.2857142857
  0
MTEXT
  5
2DE
100
AcDbEntity
  8
0
100
AcDbMText
 62
2
  6
CONTINUOUS
  7
STANDARD
 71
2
 72
1
 10
24.2349472792
 20
2.5919854986
 30
0.0
 11
1.0
 21
0.0
 31
0.0
 44
0.9
  1
TOLERANCES ARE:
 40
0.09
 41
1.5460714286
  0
MTEXT
  5
2DF
100
AcDbEntity
  8
0
100
AcDbMText
 62
2
  6
CONTINUOUS
  7
STANDARD
 71
2
 72
1
 10
23.4992766409
 20
2.3637055727
 30
0.0
 11
1.0
 21
0.0
 31
0.0
 44
0.9
  1
DECIMALS\P.X\Fgdt;{\Fgdt;`}\Ftxt;.5[.02]
 40
0.09
 41
0.9289285714
  0
MTEXT
  5
2E0
100
AcDbEntity
  8
0
100
AcDbMText
 62
2
  6
CONTINUOUS
  7
STANDARD
 71
2
 72
1
 10
24.375
 20
2.3575
 30
0.0
 11
1.0
 21
0.0
 31
0.0
 44
0.9
  1
DECIMALS\P.XX\Fgdt;{\Fgdt;`}\Ftxt;.25[.010]
 40
0.09
 41
1.2278571429
  0
MTEXT
  5
2E1
100
AcDbEntity
  8
0
100
AcDbMText
 62
2
  6
CONTINUOUS
  7
STANDARD
 71
2
 72
1
 10
25.1292969944
 20
2.3625006946
 30
0.0
 11
1.0
 21
0.0
 31
0.0
 44
0.9
  1
ANGLES\P\Fgdt;{\Fgdt;`}\Ftxt; 1/2
 40
0.09
 41
0.6428571429
  0
MTEXT
  5
2E2
100
AcDbEntity
  8
0
100
AcDbMText
 62
2
  6
CONTINUOUS
  7
STANDARD
 71
2
 72
1
 10
24.25
 20
1.9825
 30
0.0
 11
1.0
 21
0.0
 31
0.0
 44
0.9
  1
DEBURR EDGES .25 [.010] R MAX
 40
0.09
 41
2.9410714286
  0
MTEXT
  5
2E3
100
AcDbEntity
  8
0
100
AcDbMText
 62
2
  6
CONTINUOUS
  7
STANDARD
 71
2
 72
1
 10
23.4589244808
 20
1.6862199176
 30
0.0
 11
1.0
 21
0.0
 31
0.0
 44
0.9
  1
MATERIAL
 40
0.09
 41
0.8646428571
  0
MTEXT
  5
2E4
100
AcDbEntity
  8
0
100
AcDbMText
 62
2
  6
CONTINUOUS
  7
STANDARD
 71
2
 72
1
 10
23.363139716
 20
1.0771466269
 30
0.0
 11
1.0
 21
0.0
 31
0.0
 44
0.9
  1
FINISH
 40
0.09
 41
0.6139285714
  0
MTEXT
  5
2E5
100
AcDbEntity
  8
0
100
AcDbMText
 62
2
  6
CONTINUOUS
  7
STANDARD
 71
2
 72
1
 10
30.2697923148
 20
0.6809025617
 30
0.0
 11
1.0
 21
0.0
 31
0.0
 44
0.9
  1
DO NOT SCALE DRAWING
 40
0.125
 41
3.1160714286
  0
MTEXT
  5
2E6
100
AcDbEntity
  8
0
100
AcDbMText
 62
2
  6
CONTINUOUS
  7
STANDARD
 71
2
 72
1
 10
25.7210366443
 20
3.0089361181
 30
0.0
 11
1.0
 21
0.0
 31
0.0
 44
0.9
  1
DESIGNER
 40
0.09
 41
0.8517857143
  0
MTEXT
  5
2E7
100
AcDbEntity
  8
0
100
AcDbMText
 62
2
  6
CONTINUOUS
  7
STANDARD
 71
2
 72
1
 10
25.6858412991
 20
2.4965999854
 30
0.0
 11
1.0
 21
0.0
 31
0.0
 44
0.9
  1
ENGINEER
 40
0.09
 41
0.8260714286
  0
MTEXT
  5
2E8
100
AcDbEntity
  8
0
100
AcDbMText
 62
2
  6
CONTINUOUS
  7
STANDARD
 71
2
 72
1
 10
26.0698427771
 20
1.9746251294
 30
0.0
 11
1.0
 21
0.0
 31
0.0
 44
0.9
  1
TECHNICAL DIRECTOR
 40
0.09
 41
1.9221428571
  0
MTEXT
  5
2E9
100
AcDbEntity
  8
0
100
AcDbMText
 62
2
  6
CONTINUOUS
  7
STANDARD
 71
2
 72
1
 10
26.203161279
 20
1.4523119278
 30
0.0
 11
1.0
 21
0.0
 31
0.0
 44
0.9
  1
MANUFACTURING ENGINEER
 40
0.09
 41
2.3271428571
  0
MTEXT
  5
2EA
100
AcDbEntity
  8
0
100
AcDbMText
 62
2
  6
CONTINUOUS
  7
STANDARD
 71
2
 72
1
 10
25.9565235004
 20
0.6760024689
 30
0.0
 11
1.0
 21
0.0
 31
0.0
 44
0.9
  1
MODEL INFO:
 40
0.09
 41
1.1025
  0
MTEXT
  5
2EB
100
AcDbEntity
  8
0
100
AcDbMText
 62
2
  6
CONTINUOUS
  7
STANDARD
 71
2
 72
1
 10
25.8638508933
 20
0.9183610415
 30
0.0
 11
1.0
 21
0.0
 31
0.0
 44
0.9
  1
DRAWING INFO:
 40
0.09
 41
1.4014285714
  0
MTEXT
  5
2EC
100
AcDbEntity
  8
0
100
AcDbMText
 62
2
  6
CONTINUOUS
  7
STANDARD
 71
2
 72
1
 10
28.2393645814
 20
0.6670203302
 30
0.0
 11
1.0
 21
0.0
 31
0.0
 44
0.9
  1
SCALE:
 40
0.09
 41
0.5914285714
  0
MTEXT
  5
2ED
100
AcDbEntity
  8
0
100
AcDbMText
 62
2
  6
CONTINUOUS
  7
STANDARD
 71
2
 72
1
 10
31.6162427343
 20
0.6686808865
 30
0.0
 11
1.0
 21
0.0
 31
0.0
 44
0.9
  1
SHEET
 40
0.09
 41
0.5464285714
  0
MTEXT
  5
2EE
100
AcDbEntity
  8
0
100
AcDbMText
 62
2
  6
CONTINUOUS
  7
STANDARD
 71
2
 72
1
 10
28.2419794508
 20
1.2103296673
 30
0.0
 11
1.0
 21
0.0
 31
0.0
 44
0.9
  1
SIZE
 40
0.09
 41
0.4210714286
  0
MTEXT
  5
2EF
100
AcDbEntity
  8
0
100
AcDbMText
 62
2
  6
CONTINUOUS
  7
STANDARD
 71
2
 72
1
 10
28.9836976087
 20
1.2114164431
 30
0.0
 11
1.0
 21
0.0
 31
0.0
 44
0.9
  1
CAGE CODE
 40
0.09
 41
0.9996428571
  0
MTEXT
  5
2F0
100
AcDbEntity
  8
0
100
AcDbMText
 62
2
  6
CONTINUOUS
  7
STANDARD
 71
2
 72
1
 10
29.940949748
 20
1.2093329657
 30
0.0
 11
1.0
 21
0.0
 31
0.0
 44
0.9
  1
DRAWING NO.
 40
0.09
 41
1.2471428571
  0
MTEXT
  5
2F1
100
AcDbEntity
  8
0
100
AcDbMText
 62
2
  6
CONTINUOUS
  7
STANDARD
 71
2
 72
1
 10
32.7621326594
 20
1.2106739067
 30
0.0
 11
1.0
 21
0.0
 31
0.0
 44
0.9
  1
REV
 40
0.09
 41
0.3407142857
  0
MTEXT
  5
2F2
100
AcDbEntity
  8
0
100
AcDbMText
 62
2
  6
CONTINUOUS
  7
STANDARD
 71
2
 72
1
 10
30.4171415005
 20
2.9935178027
 30
0.0
 11
1.0
 21
0.0
 31
0.0
 44
0.9
  1
QSC, LLC
 40
0.15625
 41
1.4397321429
  0
MTEXT
  5
2F3
100
AcDbEntity
  8
0
100
AcDbMText
 62
2
  6
CONTINUOUS
  7
STANDARD
 71
1
 72
1
 10
29.9121324138
 20
2.7542901639
 30
0.0
 11
1.0
 21
0.0
 31
0.0
 44
0.9
  1
1675 MACARTHUR BOULEVARD\PCOSTA MESA, CA  92626
 40
0.125
 41
3.5848214286
  0
MTEXT
  5
2F4
100
AcDbEntity
  8
0
100
AcDbMText
 62
2
  6
CONTINUOUS
  7
STANDARD
 71
1
 72
1
 10
28.6301084889
 20
0.9962764918
 30
0.0
 11
1.0
 21
0.0
 31
0.0
 44
0.9
  1
00PW4
 40
0.15625
 41
1.0993303571
  0
INSERT
  5
2F5
100
AcDbEntity
  8
0
100
AcDbBlockReference
 62
7
  6
CONTINUOUS
  2
RD010411_BL0
 10
28.8888202988
 20
2.7011106652
  0
DIMENSION
  5
2F6
100
AcDbEntity
  8
0
100
AcDbDimension
 62
2
  6
CONTINUOUS
  2
*D0
 10
17.9016561122
 20
8.8657230384
 11
14.2953568996
 21
8.7485355384
 70
160
 71
2
 42
183.2
  3
DIMSTYLE_1
100
AcDbAlignedDimension
 13
10.689057687
 23
8.016377629
 14
17.9016561122
 24
8.016377629
100
AcDbRotatedDimension
  0
DIMENSION
  5
2F7
100
AcDbEntity
  8
0
100
AcDbDimension
 62
2
  6
CONTINUOUS
  2
*D1
 10
20.3730587515
 20
10.7944377866
 11
20.3730587515
 21
12.350478633
 70
160
 71
2
 42
85.0
  3
DIMSTYLE_2
100
AcDbAlignedDimension
 13
18.3400787324
 23
14.1408944795
 14
18.3660817292
 24
10.7944377866
 50
270.0
100
AcDbRotatedDimension
  0
DIMENSION
  5
2F8
100
AcDbEntity
  8
0
100
AcDbDimension
 62
2
  6
CONTINUOUS
  2
*D2
 10
18.4922072933
 20
5.9645171521
 11
14.2953568996
 21
5.8473296521
 70
160
 71
2
 42
213.2
  3
DIMSTYLE_1
100
AcDbAlignedDimension
 13
10.0985065059
 23
7.0321256605
 14
18.4922072933
 24
7.0321256605
100
AcDbRotatedDimension
  0
DIMENSION
  5
2F9
100
AcDbEntity
  8
0
100
AcDbDimension
 62
2
  6
CONTINUOUS
  2
*D3
 10
8.8229353242
 20
11.2275086527
 11
8.8229353242
 21
12.2933670955
 70
160
 71
2
 42
12.0
  1
4X <>
  3
DIMSTYLE_3
100
AcDbAlignedDimension
 13
10.2051994193
 23
11.6999495976
 14
10.2051994193
 24
11.2275086527
 50
270.0
100
AcDbRotatedDimension
  0
DIMENSION
  5
2FA
100
AcDbEntity
  8
0
100
AcDbDimension
 62
2
  6
CONTINUOUS
  2
*D4
 10
18.2166167421
 20
15.0861373162
 11
14.2953568996
 21
14.9689498162
 70
160
 71
2
 42
199.2
  1
2X <>
  3
DIMSTYLE_4
100
AcDbAlignedDimension
 13
10.3740970571
 23
13.8767212512
 14
18.2166167421
 24
13.6050677078
100
AcDbRotatedDimension
  0
DIMENSION
  5
2FB
100
AcDbEntity
  8
0
100
AcDbDimension
 62
2
  6
CONTINUOUS
  2
*D5
 10
19.3592522317
 20
11.4637291252
 11
19.3592522317
 21
12.350478633
 70
160
 71
2
 42
51.0
  1
2X <>
  3
DIMSTYLE_3
100
AcDbAlignedDimension
 13
18.3500813091
 23
13.4716031409
 14
18.3500813091
 24
11.4637291252
 50
270.0
100
AcDbRotatedDimension
  0
DIMENSION
  5
2FC
100
AcDbEntity
  8
0
100
AcDbDimension
 62
2
  6
CONTINUOUS
  2
*D6
 10
10.2799381788
 20
13.5667458836
 11
8.7436631381
 21
14.2587097297
 70
163
 71
3
 42
6.8
  1
4X <>
  3
DIMSTYLE_5
100
AcDbDiametricDimension
 15
10.4682559354
 25
13.3764603983
  0
DIMENSION
  5
2FD
100
AcDbEntity
  8
0
100
AcDbDimension
 62
2
  6
CONTINUOUS
  2
*D7
 10
10.4429946949
 20
10.3470564083
 11
9.3148891139
 21
10.2298689083
 70
160
 71
3
 42
3.5
  1
8X <>
  3
DIMSTYLE_3
100
AcDbAlignedDimension
 13
10.3051994193
 23
11.2275086527
 14
10.4429946949
 24
11.2275086527
100
AcDbRotatedDimension
  0
DIMENSION
  5
2FE
100
AcDbEntity
  8
0
100
AcDbDimension
 62
2
  6
CONTINUOUS
  2
*D8
 10
20.1847625113
 20
8.016377629
 11
20.1847625113
 21
7.5485475962
 70
160
 71
2
 42
25.0
  3
DIMSTYLE_6
100
AcDbAlignedDimension
 13
18.4922072933
 23
7.0321256605
 14
17.9016561122
 24
8.016377629
 50
90.0
100
AcDbRotatedDimension
  0
DIMENSION
  5
2FF
100
AcDbEntity
  8
0
100
AcDbDimension
 62
2
  6
CONTINUOUS
  2
*D9
 10
18.7714967891
 20
7.0714957392
 11
19.3172557177
 21
7.45040572
 70
160
 71
1
 42
1.0
  3
DIMSTYLE_6
100
AcDbAlignedDimension
 13
18.3740970571
 23
7.0321256605
 14
18.3740970571
 24
7.0714957392
 50
90.0
100
AcDbRotatedDimension
  0
LWPOLYLINE
  5
300
100
AcDbEntity
  8
0
100
AcDbPolyline
 62
2
  6
CONTINUOUS
 90
2
 70
0
 43
0.02
 10
33.0089627573
 20
21.5000644487
 10
22.9264627573
 20
21.5000644487
  0
LWPOLYLINE
  5
301
100
AcDbEntity
  8
0
100
AcDbPolyline
 62
2
  6
CONTINUOUS
 90
2
 70
0
 43
0.02
 10
32.9989627573
 20
21.5000644487
 10
32.9989627573
 20
19.9375644487
  0
LWPOLYLINE
  5
302
100
AcDbEntity
  8
0
100
AcDbPolyline
 62
2
  6
CONTINUOUS
 90
2
 70
0
 43
0.02
 10
32.9989627573
 20
21.1875644487
 10
22.9364627573
 20
21.1875644487
  0
LWPOLYLINE
  5
303
100
AcDbEntity
  8
0
100
AcDbPolyline
 62
2
  6
CONTINUOUS
 90
2
 70
0
 43
0.02
 10
32.9989627573
 20
20.8750644487
 10
22.9364627573
 20
20.8750644487
  0
LWPOLYLINE
  5
304
100
AcDbEntity
  8
0
100
AcDbPolyline
 62
2
  6
CONTINUOUS
 90
2
 70
0
 43
0.02
 10
32.9989627573
 20
20.5625644487
 10
22.9364627573
 20
20.5625644487
  0
LWPOLYLINE
  5
305
100
AcDbEntity
  8
0
100
AcDbPolyline
 62
2
  6
CONTINUOUS
 90
2
 70
0
 43
0.02
 10
32.9989627573
 20
20.2500644487
 10
22.9364627573
 20
20.2500644487
  0
LWPOLYLINE
  5
306
100
AcDbEntity
  8
0
100
AcDbPolyline
 62
2
  6
CONTINUOUS
 90
2
 70
0
 43
0.02
 10
33.0089627573
 20
19.9375644487
 10
22.9264627573
 20
19.9375644487
  0
LWPOLYLINE
  5
307
100
AcDbEntity
  8
0
100
AcDbPolyline
 62
2
  6
CONTINUOUS
 90
2
 70
0
 43
0.02
 10
31.7489627573
 20
21.1875644487
 10
31.7489627573
 20
19.9375644487
  0
LWPOLYLINE
  5
308
100
AcDbEntity
  8
0
100
AcDbPolyline
 62
2
  6
CONTINUOUS
 90
2
 70
0
 43
0.02
 10
31.2489627573
 20
21.1875644487
 10
31.2489627573
 20
19.9375644487
  0
LWPOLYLINE
  5
309
100
AcDbEntity
  8
0
100
AcDbPolyline
 62
2
  6
CONTINUOUS
 90
2
 70
0
 43
0.02
 10
23.4364627573
 20
21.1875644487
 10
23.4364627573
 20
19.9375644487
  0
LWPOLYLINE
  5
30A
100
AcDbEntity
  8
0
100
AcDbPolyline
 62
2
  6
CONTINUOUS
 90
2
 70
0
 43
0.02
 10
22.9364627573
 20
21.5000644487
 10
22.9364627573
 20
19.9375644487
  0
MTEXT
  5
30B
100
AcDbEntity
  8
0
100
AcDbMText
 62
2
  6
CONTINUOUS
  7
STANDARD
 71
2
 72
1
 10
27.9677127573
 20
21.4219394487
 30
0.0
 11
1.0
 21
0.0
 31
0.0
 44
0.9
  1
REVISIONS
 40
0.15625
 41
1.6294642857
  0
MTEXT
  5
30C
100
AcDbEntity
  8
0
100
AcDbMText
 62
2
  6
CONTINUOUS
  7
STANDARD
 71
2
 72
1
 10
32.3739627573
 20
21.1094394487
 30
0.0
 11
1.0
 21
0.0
 31
0.0
 44
0.9
  1
 DATE 
 40
0.15625
 41
1.1941964286
  0
MTEXT
  5
30D
100
AcDbEntity
  8
0
100
AcDbMText
 62
2
  6
CONTINUOUS
  7
STANDARD
 71
2
 72
1
 10
31.4989627573
 20
21.1094394487
 30
0.0
 11
1.0
 21
0.0
 31
0.0
 44
0.9
  1
BY
 40
0.15625
 41
0.4296875
  0
MTEXT
  5
30E
100
AcDbEntity
  8
0
100
AcDbMText
 62
2
  6
CONTINUOUS
  7
STANDARD
 71
2
 72
1
 10
27.3427127573
 20
21.1094394487
 30
0.0
 11
1.0
 21
0.0
 31
0.0
 44
0.9
  1
DESCRIPTION
 40
0.15625
 41
2.0424107143
  0
MTEXT
  5
30F
100
AcDbEntity
  8
0
100
AcDbMText
 62
2
  6
CONTINUOUS
  7
STANDARD
 71
2
 72
1
 10
23.1864627573
 20
21.1094394487
 30
0.0
 11
1.0
 21
0.0
 31
0.0
 44
0.9
  1
REV
 40
0.15625
 41
0.5915178571
  0
MTEXT
  5
310
100
AcDbEntity
  8
0
100
AcDbMText
 62
2
  6
CONTINUOUS
  7
STANDARD
 71
2
 72
1
 10
32.3739627573
 20
20.7969394487
 30
0.0
 11
1.0
 21
0.0
 31
0.0
 44
0.9
  1
31-OCT-16
 40
0.15625
 41
1.5792410714
  0
MTEXT
  5
311
100
AcDbEntity
  8
0
100
AcDbMText
 62
2
  6
CONTINUOUS
  7
STANDARD
 71
2
 72
1
 10
31.4989627573
 20
20.7969394487
 30
0.0
 11
1.0
 21
0.0
 31
0.0
 44
0.9
  1
ES
 40
0.15625
 41
0.3962053571
  0
MTEXT
  5
312
100
AcDbEntity
  8
0
100
AcDbMText
 62
2
  6
CONTINUOUS
  7
STANDARD
 71
1
 72
1
 10
23.4989627573
 20
20.7969394487
 30
0.0
 11
1.0
 21
0.0
 31
0.0
 44
0.9
  1
RELEASE FOR SALES AND MARKETING
 40
0.15625
 41
5.6808035714
  0
MTEXT
  5
313
100
AcDbEntity
  8
0
100
AcDbMText
 62
2
  6
CONTINUOUS
  7
STANDARD
 71
2
 72
1
 10
23.1864627573
 20
20.7969394487
 30
0.0
 11
1.0
 21
0.0
 31
0.0
 44
0.9
  1
A
 40
0.15625
 41
0.2455357143
  0
LINE
  5
314
100
AcDbEntity
  8
0
100
AcDbLine
 62
2
  6
CONTINUOUS
 10
23.125
 20
1.75
 11
25.375
 21
1.75
  0
LINE
  5
315
100
AcDbEntity
  8
0
100
AcDbLine
 62
2
  6
CONTINUOUS
 10
23.125
 20
1.75
 11
23.125
 21
1.125
  0
LINE
  5
316
100
AcDbEntity
  8
0
100
AcDbLine
 62
2
  6
CONTINUOUS
 10
23.125
 20
1.125
 11
25.375
 21
1.125
  0
LINE
  5
317
100
AcDbEntity
  8
0
100
AcDbLine
 62
2
  6
CONTINUOUS
 10
25.375
 20
1.75
 11
25.375
 21
1.125
  0
LINE
  5
318
100
AcDbEntity
  8
0
100
AcDbLine
 62
2
  6
CONTINUOUS
 10
23.125
 20
1.125
 11
25.375
 21
1.125
  0
LINE
  5
319
100
AcDbEntity
  8
0
100
AcDbLine
 62
2
  6
CONTINUOUS
 10
23.125
 20
1.125
 11
23.125
 21
0.5
  0
LINE
  5
31A
100
AcDbEntity
  8
0
100
AcDbLine
 62
2
  6
CONTINUOUS
 10
23.125
 20
0.5
 11
25.375
 21
0.5
  0
LINE
  5
31B
100
AcDbEntity
  8
0
100
AcDbLine
 62
2
  6
CONTINUOUS
 10
25.375
 20
1.125
 11
25.375
 21
0.5
  0
LINE
  5
31C
100
AcDbEntity
  8
0
100
AcDbLine
 62
2
  6
CONTINUOUS
 10
25.3747109856
 20
3.0617464145
 11
27.9997109856
 21
3.0617464145
  0
LINE
  5
31D
100
AcDbEntity
  8
0
100
AcDbLine
 62
2
  6
CONTINUOUS
 10
25.3747109856
 20
3.0617464145
 11
25.3747109856
 21
2.5517464145
  0
LINE
  5
31E
100
AcDbEntity
  8
0
100
AcDbLine
 62
2
  6
CONTINUOUS
 10
25.3747109856
 20
2.5517464145
 11
27.9997109856
 21
2.5517464145
  0
LINE
  5
31F
100
AcDbEntity
  8
0
100
AcDbLine
 62
2
  6
CONTINUOUS
 10
27.9997109856
 20
3.0617464145
 11
27.9997109856
 21
2.5517464145
  0
MTEXT
  5
320
100
AcDbEntity
  8
0
100
AcDbMText
 62
2
  6
CONTINUOUS
  7
STANDARD
 71
1
 72
1
 10
25.4372109856
 20
2.7861214145
 30
0.0
 11
1.0
 21
0.0
 31
0.0
 44
0.9
  1
ENG. SERVICES
 40
0.15625
 41
2.3270089286
  0
LINE
  5
321
100
AcDbEntity
  8
0
100
AcDbLine
 62
2
  6
CONTINUOUS
 10
25.375
 20
2.5461365384
 11
28.0
 21
2.5461365384
  0
LINE
  5
322
100
AcDbEntity
  8
0
100
AcDbLine
 62
2
  6
CONTINUOUS
 10
25.375
 20
2.5461365384
 11
25.375
 21
2.0361365384
  0
LINE
  5
323
100
AcDbEntity
  8
0
100
AcDbLine
 62
2
  6
CONTINUOUS
 10
25.375
 20
2.0361365384
 11
28.0
 21
2.0361365384
  0
LINE
  5
324
100
AcDbEntity
  8
0
100
AcDbLine
 62
2
  6
CONTINUOUS
 10
28.0
 20
2.5461365384
 11
28.0
 21
2.0361365384
  0
LINE
  5
325
100
AcDbEntity
  8
0
100
AcDbLine
 62
2
  6
CONTINUOUS
 10
25.375
 20
2.0237995115
 11
28.0
 21
2.0237995115
  0
LINE
  5
326
100
AcDbEntity
  8
0
100
AcDbLine
 62
2
  6
CONTINUOUS
 10
25.375
 20
2.0237995115
 11
25.375
 21
1.5137995115
  0
LINE
  5
327
100
AcDbEntity
  8
0
100
AcDbLine
 62
2
  6
CONTINUOUS
 10
25.375
 20
1.5137995115
 11
28.0
 21
1.5137995115
  0
LINE
  5
328
100
AcDbEntity
  8
0
100
AcDbLine
 62
2
  6
CONTINUOUS
 10
28.0
 20
2.0237995115
 11
28.0
 21
1.5137995115
  0
LINE
  5
329
100
AcDbEntity
  8
0
100
AcDbLine
 62
2
  6
CONTINUOUS
 10
25.375
 20
1.4999656021
 11
28.0
 21
1.4999656021
  0
LINE
  5
32A
100
AcDbEntity
  8
0
100
AcDbLine
 62
2
  6
CONTINUOUS
 10
25.375
 20
1.4999656021
 11
25.375
 21
0.9899656021
  0
LINE
  5
32B
100
AcDbEntity
  8
0
100
AcDbLine
 62
2
  6
CONTINUOUS
 10
25.375
 20
0.9899656021
 11
28.0
 21
0.9899656021
  0
LINE
  5
32C
100
AcDbEntity
  8
0
100
AcDbLine
 62
2
  6
CONTINUOUS
 10
28.0
 20
1.4999656021
 11
28.0
 21
0.9899656021
  0
LINE
  5
32D
100
AcDbEntity
  8
0
100
AcDbLine
 62
2
  6
CONTINUOUS
 10
25.375
 20
1.0
 11
28.0
 21
1.0
  0
LINE
  5
32E
100
AcDbEntity
  8
0
100
AcDbLine
 62
2
  6
CONTINUOUS
 10
25.375
 20
1.0
 11
25.375
 21
0.75
  0
LINE
  5
32F
100
AcDbEntity
  8
0
100
AcDbLine
 62
2
  6
CONTINUOUS
 10
25.375
 20
0.75
 11
28.0
 21
0.75
  0
LINE
  5
330
100
AcDbEntity
  8
0
100
AcDbLine
 62
2
  6
CONTINUOUS
 10
28.0
 20
1.0
 11
28.0
 21
0.75
  0
MTEXT
  5
331
100
AcDbEntity
  8
0
100
AcDbMText
 62
2
  6
CONTINUOUS
  7
STANDARD
 71
3
 72
1
 10
27.9375
 20
0.938125
 30
0.0
 11
1.0
 21
0.0
 31
0.0
 44
0.9
  1
FG-222002-2D.A.0
 40
0.11
 41
1.9996428571
  0
LINE
  5
332
100
AcDbEntity
  8
0
100
AcDbLine
 62
2
  6
CONTINUOUS
 10
25.375
 20
0.75
 11
28.0
 21
0.75
  0
LINE
  5
333
100
AcDbEntity
  8
0
100
AcDbLine
 62
2
  6
CONTINUOUS
 10
25.375
 20
0.75
 11
25.375
 21
0.5
  0
LINE
  5
334
100
AcDbEntity
  8
0
100
AcDbLine
 62
2
  6
CONTINUOUS
 10
25.375
 20
0.5
 11
28.0
 21
0.5
  0
LINE
  5
335
100
AcDbEntity
  8
0
100
AcDbLine
 62
2
  6
CONTINUOUS
 10
28.0
 20
0.75
 11
28.0
 21
0.5
  0
MTEXT
  5
336
100
AcDbEntity
  8
0
100
AcDbMText
 62
2
  6
CONTINUOUS
  7
STANDARD
 71
3
 72
1
 10
27.9375
 20
0.688125
 30
0.0
 11
1.0
 21
0.0
 31
0.0
 44
0.9
  1
FG-222002-3D.A.0
 40
0.11
 41
1.9878571429
  0
LINE
  5
337
100
AcDbEntity
  8
0
100
AcDbLine
 62
2
  6
CONTINUOUS
 10
28.0
 20
2.375
 11
33.0
 21
2.375
  0
LINE
  5
338
100
AcDbEntity
  8
0
100
AcDbLine
 62
2
  6
CONTINUOUS
 10
28.0
 20
2.375
 11
28.0
 21
1.25
  0
LINE
  5
339
100
AcDbEntity
  8
0
100
AcDbLine
 62
2
  6
CONTINUOUS
 10
28.0
 20
1.25
 11
33.0
 21
1.25
  0
LINE
  5
33A
100
AcDbEntity
  8
0
100
AcDbLine
 62
2
  6
CONTINUOUS
 10
33.0
 20
2.375
 11
33.0
 21
1.25
  0
MTEXT
  5
33B
100
AcDbEntity
  8
0
100
AcDbMText
 62
2
  6
CONTINUOUS
  7
STANDARD
 71
2
 72
1
 10
30.5
 20
1.9475
 30
0.0
 11
1.0
 21
0.0
 31
0.0
 44
1.02
  1
USB BRIDGE, FINISHED, Q-SYS
 40
0.2
 41
6.1928571429
  0
LINE
  5
33C
100
AcDbEntity
  8
0
100
AcDbLine
 62
2
  6
CONTINUOUS
 10
28.0010923029
 20
1.2479404675
 11
28.5010923029
 21
1.2479404675
  0
LINE
  5
33D
100
AcDbEntity
  8
0
100
AcDbLine
 62
2
  6
CONTINUOUS
 10
28.0010923029
 20
1.2479404675
 11
28.0010923029
 21
0.7479404675
  0
LINE
  5
33E
100
AcDbEntity
  8
0
100
AcDbLine
 62
2
  6
CONTINUOUS
 10
28.0010923029
 20
0.7479404675
 11
28.5010923029
 21
0.7479404675
  0
LINE
  5
33F
100
AcDbEntity
  8
0
100
AcDbLine
 62
2
  6
CONTINUOUS
 10
28.5010923029
 20
1.2479404675
 11
28.5010923029
 21
0.7479404675
  0
MTEXT
  5
340
100
AcDbEntity
  8
0
100
AcDbMText
 62
2
  6
CONTINUOUS
  7
STANDARD
 71
2
 72
1
 10
28.2510923029
 20
1.0260654675
 30
0.0
 11
1.0
 21
0.0
 31
0.0
 44
0.9
  1
D
 40
0.2
 41
0.3285714286
  0
LINE
  5
341
100
AcDbEntity
  8
0
100
AcDbLine
 62
2
  6
CONTINUOUS
 10
29.5005174976
 20
1.2449745891
 11
32.5005174976
 21
1.2449745891
  0
LINE
  5
342
100
AcDbEntity
  8
0
100
AcDbLine
 62
2
  6
CONTINUOUS
 10
29.5005174976
 20
1.2449745891
 11
29.5005174976
 21
0.7449745891
  0
LINE
  5
343
100
AcDbEntity
  8
0
100
AcDbLine
 62
2
  6
CONTINUOUS
 10
29.5005174976
 20
0.7449745891
 11
32.5005174976
 21
0.7449745891
  0
LINE
  5
344
100
AcDbEntity
  8
0
100
AcDbLine
 62
2
  6
CONTINUOUS
 10
32.5005174976
 20
1.2449745891
 11
32.5005174976
 21
0.7449745891
  0
MTEXT
  5
345
100
AcDbEntity
  8
0
100
AcDbMText
 62
2
  6
CONTINUOUS
  7
STANDARD
 71
2
 72
1
 10
31.0005174976
 20
1.0230995891
 30
0.0
 11
1.0
 21
0.0
 31
0.0
 44
0.9
  1
FG-222002-2D
 40
0.2
 41
2.8571428571
  0
LINE
  5
346
100
AcDbEntity
  8
0
100
AcDbLine
 62
2
  6
CONTINUOUS
 10
32.4986998963
 20
1.2482878226
 11
32.9986998963
 21
1.2482878226
  0
LINE
  5
347
100
AcDbEntity
  8
0
100
AcDbLine
 62
2
  6
CONTINUOUS
 10
32.4986998963
 20
1.2482878226
 11
32.4986998963
 21
0.7482878226
  0
LINE
  5
348
100
AcDbEntity
  8
0
100
AcDbLine
 62
2
  6
CONTINUOUS
 10
32.4986998963
 20
0.7482878226
 11
32.9986998963
 21
0.7482878226
  0
LINE
  5
349
100
AcDbEntity
  8
0
100
AcDbLine
 62
2
  6
CONTINUOUS
 10
32.9986998963
 20
1.2482878226
 11
32.9986998963
 21
0.7482878226
  0
MTEXT
  5
34A
100
AcDbEntity
  8
0
100
AcDbMText
 62
2
  6
CONTINUOUS
  7
STANDARD
 71
2
 72
1
 10
32.7486998963
 20
1.0064128226
 30
0.0
 11
1.0
 21
0.0
 31
0.0
 44
0.9
  1
A
 40
0.18
 41
0.2828571429
  0
LINE
  5
34B
100
AcDbEntity
  8
0
100
AcDbLine
 62
2
  6
CONTINUOUS
 10
31.3756206194
 20
0.7429288836
 11
33.0006206194
 21
0.7429288836
  0
LINE
  5
34C
100
AcDbEntity
  8
0
100
AcDbLine
 62
2
  6
CONTINUOUS
 10
31.3756206194
 20
0.7429288836
 11
31.3756206194
 21
0.4929288836
  0
LINE
  5
34D
100
AcDbEntity
  8
0
100
AcDbLine
 62
2
  6
CONTINUOUS
 10
31.3756206194
 20
0.4929288836
 11
33.0006206194
 21
0.4929288836
  0
LINE
  5
34E
100
AcDbEntity
  8
0
100
AcDbLine
 62
2
  6
CONTINUOUS
 10
33.0006206194
 20
0.7429288836
 11
33.0006206194
 21
0.4929288836
  0
MTEXT
  5
34F
100
AcDbEntity
  8
0
100
AcDbMText
 62
2
  6
CONTINUOUS
  7
STANDARD
 71
3
 72
1
 10
32.9381206194
 20
0.7110538836
 30
0.0
 11
1.0
 21
0.0
 31
0.0
 44
0.9
  1
1 OF 1
 40
0.14
 41
0.925
  0
LINE
  5
350
100
AcDbEntity
  8
0
100
AcDbLine
 62
2
  6
CONTINUOUS
 10
27.9982598121
 20
0.7488232169
 11
29.1862598121
 21
0.7488232169
  0
LINE
  5
351
100
AcDbEntity
  8
0
100
AcDbLine
 62
2
  6
CONTINUOUS
 10
27.9982598121
 20
0.7488232169
 11
27.9982598121
 21
0.4949169669
  0
LINE
  5
352
100
AcDbEntity
  8
0
100
AcDbLine
 62
2
  6
CONTINUOUS
 10
27.9982598121
 20
0.4949169669
 11
29.1862598121
 21
0.4949169669
  0
LINE
  5
353
100
AcDbEntity
  8
0
100
AcDbLine
 62
2
  6
CONTINUOUS
 10
29.1862598121
 20
0.7488232169
 11
29.1862598121
 21
0.4949169669
  0
MTEXT
  5
354
100
AcDbEntity
  8
0
100
AcDbMText
 62
2
  6
CONTINUOUS
  7
STANDARD
 71
3
 72
1
 10
29.1237598121
 20
0.6830419669
 30
0.0
 11
1.0
 21
0.0
 31
0.0
 44
0.9
  1
1.000
 40
0.11
 41
0.5775
  0
MTEXT
  5
355
100
AcDbEntity
  8
0
100
AcDbMText
 62
2
  6
CONTINUOUS
  7
STANDARD
 71
1
 72
1
 10
0.6442494686
 20
2.6790653195
 30
0.0
 11
1.0
 21
0.0
 31
0.0
 44
1.2
  3
 \P4. PARTS ARE SYMMETRICAL ABOUT CENTER LINES UNLESS OTHERWISE NOTED\P3. DIMENSIONS ARE IN MILLIMETERS [INCH].\P2. TOLERANCES (MM): X \Fgdt;{\Fgdt;`}\Ftxt; 3, ANGLES: \Fgdt;{\Fgdt;`}\Ftxt; 1\Fgdt;{\Fgdt;~}\Ftxt;.\P1. NET WEIGHT APPROX. 1.2 LBS (0.54
  1
 KG).\P \PNOTES:  UNLESS OTHERWISE SPECIFIED
 40
0.15625
 41
12.1540178571
  0
MTEXT
  5
356
100
AcDbEntity
  8
0
100
AcDbMText
 62
2
  6
CONTINUOUS
  7
TEXTSTYLE_1
 71
1
 72
1
 10
14.2015606996
 20
10.5526197928
 30
0.0
 11
1.0
 21
0.0
 31
0.0
 44
0.9
  1
{\Fgdt;q}
 40
0.15625
 41
0.2473958333
  0
MTEXT
  5
357
100
AcDbEntity
  8
0
100
AcDbMText
 62
2
  6
CONTINUOUS
  7
TEXTSTYLE_1
 71
1
 72
1
 10
9.7323224484
 20
12.5464916836
 30
0.0
 11
1.0
 21
0.0
 31
0.0
 44
0.9
  1
{\Fgdt;q}
 40
0.15625
 41
0.2473958333
  0
LINE
  5
358
100
AcDbEntity
  8
DEFAULT_3
100
AcDbLine
 62
7
  6
PHANTOM
 10
0.0
 20
-0.0
 11
0.0
 21
22.0
  0
LWPOLYLINE
  5
359
100
AcDbEntity
  8
0
100
AcDbPolyline
 62
7
  6
CONTINUOUS
 90
2
 70
0
 43
0.0200000008
 10
0.2624627221
 20
10.8313451107
 10
0.2624627221
 20
11.1686548893
  0
LWPOLYLINE
  5
35A
100
AcDbEntity
  8
0
100
AcDbPolyline
 62
7
  6
CONTINUOUS
 90
2
 70
0
 43
0.0300000002
 10
0.5
 20
21.5
 10
0.5
 20
0.5
  0
LWPOLYLINE
  5
35B
100
AcDbEntity
  8
0
100
AcDbPolyline
 62
7
  6
CONTINUOUS
 90
2
 70
0
 43
0.0300000002
 10
3.5625
 20
21.5
 10
3.5625
 20
21.0
  0
LWPOLYLINE
  5
35C
100
AcDbEntity
  8
0
100
AcDbPolyline
 62
7
  6
CONTINUOUS
 90
2
 70
0
 43
0.0200000008
 10
4.5625
 20
0.5
 10
4.5625
 20
-0.0
  0
LWPOLYLINE
  5
35D
100
AcDbEntity
  8
0
100
AcDbPolyline
 62
7
  6
CONTINUOUS
 90
2
 70
0
 43
0.0200000008
 10
4.5625
 20
21.5
 10
4.5625
 20
22.0
  0
LINE
  5
35E
100
AcDbEntity
  8
0
100
AcDbLine
 62
7
  6
CONTINUOUS
 10
23.1245031012
 20
0.5003057216
 11
25.3749098905
 21
1.1247744126
  0
LINE
  5
35F
100
AcDbEntity
  8
0
100
AcDbLine
 62
7
  6
CONTINUOUS
 10
23.1251143994
 20
1.125075171
 11
25.3746903808
 21
1.7503404375
  0
LINE
  5
360
100
AcDbEntity
  8
DEFAULT_3
100
AcDbLine
 62
7
  6
PHANTOM
 10
0.0
 20
-0.0
 11
34.0
 21
-0.0
  0
LWPOLYLINE
  5
361
100
AcDbEntity
  8
0
100
AcDbPolyline
 62
7
  6
CONTINUOUS
 90
2
 70
0
 43
0.0200000008
 10
16.5813451107
 20
0.2624627221
 10
16.9186548893
 20
0.2624627221
  0
LWPOLYLINE
  5
362
100
AcDbEntity
  8
0
100
AcDbPolyline
 62
7
  6
CONTINUOUS
 90
2
 70
0
 43
0.0200000008
 10
0.5
 20
11.0
 10
0.2624627221
 20
10.8313451107
  0
LWPOLYLINE
  5
363
100
AcDbEntity
  8
0
100
AcDbPolyline
 62
7
  6
CONTINUOUS
 90
2
 70
0
 43
0.0300000002
 10
0.5
 20
0.5
 10
33.0
 20
0.5
  0
LWPOLYLINE
  5
364
100
AcDbEntity
  8
0
100
AcDbPolyline
 62
7
  6
CONTINUOUS
 90
2
 70
0
 43
0.0200000008
 10
25.375
 20
0.75
 10
33.0
 20
0.75
  0
LWPOLYLINE
  5
365
100
AcDbEntity
  8
0
100
AcDbPolyline
 62
7
  6
CONTINUOUS
 90
2
 70
0
 43
0.0200000008
 10
25.375
 20
1.0
 10
28.0
 20
1.0
  0
LWPOLYLINE
  5
366
100
AcDbEntity
  8
0
100
AcDbPolyline
 62
7
  6
CONTINUOUS
 90
2
 70
0
 43
0.0200000008
 10
25.375
 20
1.125
 10
23.125
 20
1.125
  0
LWPOLYLINE
  5
367
100
AcDbEntity
  8
0
100
AcDbPolyline
 62
7
  6
CONTINUOUS
 90
2
 70
0
 43
0.0200000008
 10
28.0
 20
1.25
 10
33.0
 20
1.25
  0
LWPOLYLINE
  5
368
100
AcDbEntity
  8
0
100
AcDbPolyline
 62
7
  6
CONTINUOUS
 90
2
 70
0
 43
0.0200000008
 10
25.3815694167
 20
1.511735345
 10
28.0065694167
 20
1.511735345
  0
LWPOLYLINE
  5
369
100
AcDbEntity
  8
0
100
AcDbPolyline
 62
7
  6
CONTINUOUS
 90
2
 70
0
 43
0.0200000008
 10
0.5
 20
11.0
 10
0.2624627221
 20
11.1686548893
  0
LWPOLYLINE
  5
36A
100
AcDbEntity
  8
0
100
AcDbPolyline
 62
7
  6
CONTINUOUS
 90
2
 70
0
 43
0.0200000008
 10
8.625
 20
0.5
 10
8.625
 20
-0.0
  0
LWPOLYLINE
  5
36B
100
AcDbEntity
  8
0
100
AcDbPolyline
 62
7
  6
CONTINUOUS
 90
2
 70
0
 43
0.0200000008
 10
8.625
 20
21.5
 10
8.625
 20
22.0
  0
LWPOLYLINE
  5
36C
100
AcDbEntity
  8
0
100
AcDbPolyline
 62
7
  6
CONTINUOUS
 90
2
 70
0
 43
0.0200000008
 10
23.125
 20
1.75
 10
25.375
 20
1.75
  0
LWPOLYLINE
  5
36D
100
AcDbEntity
  8
0
100
AcDbPolyline
 62
7
  6
CONTINUOUS
 90
2
 70
0
 43
0.0200000008
 10
25.3829431071
 20
2.0259190354
 10
28.0079431071
 20
2.0259190354
  0
LWPOLYLINE
  5
36E
100
AcDbEntity
  8
0
100
AcDbPolyline
 62
7
  6
CONTINUOUS
 90
2
 70
0
 43
0.0200000008
 10
28.0
 20
2.375
 10
33.0
 20
2.375
  0
LWPOLYLINE
  5
36F
100
AcDbEntity
  8
0
100
AcDbPolyline
 62
7
  6
CONTINUOUS
 90
2
 70
0
 43
0.0200000008
 10
25.375
 20
2.5575298285
 10
28.0
 20
2.5575298285
  0
LWPOLYLINE
  5
370
100
AcDbEntity
  8
0
100
AcDbPolyline
 62
7
  6
CONTINUOUS
 90
2
 70
0
 43
0.0200000008
 10
23.125
 20
3.0625
 10
33.0
 20
3.0625
  0
LWPOLYLINE
  5
371
100
AcDbEntity
  8
0
100
AcDbPolyline
 62
7
  6
CONTINUOUS
 90
2
 70
0
 43
0.0200000008
 10
16.75
 20
21.5
 10
16.9186548893
 20
21.7375372779
  0
LWPOLYLINE
  5
372
100
AcDbEntity
  8
0
100
AcDbPolyline
 62
7
  6
CONTINUOUS
 90
2
 70
0
 43
0.0200000008
 10
16.75
 20
0.5
 10
16.9186548893
 20
0.2624627221
  0
LWPOLYLINE
  5
373
100
AcDbEntity
  8
0
100
AcDbPolyline
 62
7
  6
CONTINUOUS
 90
2
 70
0
 43
0.0200000008
 10
0.5
 20
5.75
 10
0.0
 20
5.75
  0
LWPOLYLINE
  5
374
100
AcDbEntity
  8
0
100
AcDbPolyline
 62
7
  6
CONTINUOUS
 90
2
 70
0
 43
0.0200000008
 10
33.0065938508
 20
5.7508410409
 10
33.5065938508
 20
5.7508410409
  0
LWPOLYLINE
  5
375
100
AcDbEntity
  8
0
100
AcDbPolyline
 62
7
  6
CONTINUOUS
 90
2
 70
0
 43
0.0200000008
 10
12.6875
 20
0.5
 10
12.6875
 20
-0.0
  0
LWPOLYLINE
  5
376
100
AcDbEntity
  8
0
100
AcDbPolyline
 62
7
  6
CONTINUOUS
 90
2
 70
0
 43
0.0200000008
 10
12.6875
 20
21.5
 10
12.6875
 20
22.0
  0
LINE
  5
377
100
AcDbEntity
  8
0
100
AcDbLine
 62
7
  6
CONTINUOUS
 10
25.3766626654
 20
1.7509672338
 11
23.1173019108
 21
3.0645490679
  0
LWPOLYLINE
  5
378
100
AcDbEntity
  8
0
100
AcDbPolyline
 62
7
  6
CONTINUOUS
 90
2
 70
0
 43
0.0200000008
 10
16.75
 20
0.5
 10
16.75
 20
-0.0
  0
LWPOLYLINE
  5
379
100
AcDbEntity
  8
0
100
AcDbPolyline
 62
7
  6
CONTINUOUS
 90
2
 70
0
 43
0.0200000008
 10
16.75
 20
21.5
 10
16.75
 20
22.0
  0
LWPOLYLINE
  5
37A
100
AcDbEntity
  8
0
100
AcDbPolyline
 62
7
  6
CONTINUOUS
 90
2
 70
0
 43
0.0200000008
 10
0.5
 20
11.0
 10
-0.0
 20
11.0
  0
LWPOLYLINE
  5
37B
100
AcDbEntity
  8
0
100
AcDbPolyline
 62
7
  6
CONTINUOUS
 90
2
 70
0
 43
0.0200000008
 10
33.001079346
 20
11.0013597981
 10
33.501079346
 20
11.0013597981
  0
LWPOLYLINE
  5
37C
100
AcDbEntity
  8
0
100
AcDbPolyline
 62
7
  6
CONTINUOUS
 90
2
 70
0
 43
0.0200000008
 10
20.8125
 20
0.5
 10
20.8125
 20
-0.0
  0
LWPOLYLINE
  5
37D
100
AcDbEntity
  8
0
100
AcDbPolyline
 62
7
  6
CONTINUOUS
 90
2
 70
0
 43
0.0200000008
 10
20.8125
 20
21.5
 10
20.8125
 20
22.0
  0
LWPOLYLINE
  5
37E
100
AcDbEntity
  8
0
100
AcDbPolyline
 62
7
  6
CONTINUOUS
 90
2
 70
0
 43
0.0200000008
 10
16.75
 20
0.5
 10
16.5813451107
 20
0.2624627221
  0
LWPOLYLINE
  5
37F
100
AcDbEntity
  8
0
100
AcDbPolyline
 62
7
  6
CONTINUOUS
 90
2
 70
0
 43
0.0200000008
 10
0.5
 20
16.25
 10
0.0
 20
16.25
  0
LWPOLYLINE
  5
380
100
AcDbEntity
  8
0
100
AcDbPolyline
 62
7
  6
CONTINUOUS
 90
2
 70
0
 43
0.0200000008
 10
33.0
 20
16.25
 10
33.5
 20
16.25
  0
LWPOLYLINE
  5
381
100
AcDbEntity
  8
0
100
AcDbPolyline
 62
7
  6
CONTINUOUS
 90
2
 70
0
 43
0.0200000008
 10
16.75
 20
21.5
 10
16.5813451107
 20
21.7375372779
  0
LWPOLYLINE
  5
382
100
AcDbEntity
  8
0
100
AcDbPolyline
 62
7
  6
CONTINUOUS
 90
2
 70
0
 43
0.0200000008
 10
23.125
 20
0.5
 10
23.125
 20
3.0625
  0
LWPOLYLINE
  5
383
100
AcDbEntity
  8
0
100
AcDbPolyline
 62
7
  6
CONTINUOUS
 90
2
 70
0
 43
0.0200000008
 10
24.875
 20
0.5
 10
24.875
 20
-0.0
  0
LWPOLYLINE
  5
384
100
AcDbEntity
  8
0
100
AcDbPolyline
 62
7
  6
CONTINUOUS
 90
2
 70
0
 43
0.0200000008
 10
24.875
 20
21.5
 10
24.875
 20
22.0
  0
LWPOLYLINE
  5
385
100
AcDbEntity
  8
0
100
AcDbPolyline
 62
7
  6
CONTINUOUS
 90
2
 70
0
 43
0.0200000008
 10
25.375
 20
0.5
 10
25.375
 20
3.0625
  0
LWPOLYLINE
  5
386
100
AcDbEntity
  8
0
100
AcDbPolyline
 62
7
  6
CONTINUOUS
 90
2
 70
0
 43
0.0200000008
 10
33.001079346
 20
11.0013597981
 10
33.2386166238
 20
11.1700146875
  0
LWPOLYLINE
  5
387
100
AcDbEntity
  8
0
100
AcDbPolyline
 62
7
  6
CONTINUOUS
 90
2
 70
0
 43
0.0200000008
 10
33.001079346
 20
11.0013597981
 10
33.2386166238
 20
10.8327049088
  0
LWPOLYLINE
  5
388
100
AcDbEntity
  8
0
100
AcDbPolyline
 62
7
  6
CONTINUOUS
 90
2
 70
0
 43
0.0300000002
 10
3.5625
 20
21.0
 10
0.5
 20
21.0
  0
LWPOLYLINE
  5
389
100
AcDbEntity
  8
0
100
AcDbPolyline
 62
7
  6
CONTINUOUS
 90
2
 70
0
 43
0.0300000002
 10
33.0
 20
21.5
 10
0.5
 20
21.5
  0
LWPOLYLINE
  5
38A
100
AcDbEntity
  8
0
100
AcDbPolyline
 62
7
  6
CONTINUOUS
 90
2
 70
0
 43
0.0200000008
 10
16.5813451107
 20
21.7375372779
 10
16.9186548893
 20
21.7375372779
  0
LWPOLYLINE
  5
38B
100
AcDbEntity
  8
0
100
AcDbPolyline
 62
7
  6
CONTINUOUS
 90
2
 70
0
 43
0.0200000008
 10
28.0
 20
0.5
 10
28.0
 20
3.0625
  0
LWPOLYLINE
  5
38C
100
AcDbEntity
  8
0
100
AcDbPolyline
 62
7
  6
CONTINUOUS
 90
2
 70
0
 43
0.0200000008
 10
28.5
 20
0.75
 10
28.5
 20
1.25
  0
LWPOLYLINE
  5
38D
100
AcDbEntity
  8
0
100
AcDbPolyline
 62
7
  6
CONTINUOUS
 90
2
 70
0
 43
0.0200000008
 10
28.9375
 20
0.5
 10
28.9375
 20
-0.0
  0
LWPOLYLINE
  5
38E
100
AcDbEntity
  8
0
100
AcDbPolyline
 62
7
  6
CONTINUOUS
 90
2
 70
0
 43
0.0200000008
 10
28.9375
 20
21.5
 10
28.9375
 20
22.0
  0
LINE
  5
38F
100
AcDbEntity
  8
0
100
AcDbLine
 62
7
  6
CONTINUOUS
 10
23.1278105655
 20
1.7614758885
 11
25.3819169927
 21
3.0698033952
  0
LINE
  5
390
100
AcDbEntity
  8
DEFAULT_3
100
AcDbLine
 62
7
  6
PHANTOM
 10
0.0
 20
22.0
 11
34.0
 21
22.0
  0
LWPOLYLINE
  5
391
100
AcDbEntity
  8
0
100
AcDbPolyline
 62
7
  6
CONTINUOUS
 90
2
 70
0
 43
0.0200000008
 10
29.1836289665
 20
0.5047501556
 10
29.1836289665
 20
0.7547501556
  0
LWPOLYLINE
  5
392
100
AcDbEntity
  8
0
100
AcDbPolyline
 62
7
  6
CONTINUOUS
 90
2
 70
0
 43
0.0200000008
 10
29.5
 20
0.75
 10
29.5
 20
1.25
  0
LWPOLYLINE
  5
393
100
AcDbEntity
  8
0
100
AcDbPolyline
 62
7
  6
CONTINUOUS
 90
2
 70
0
 43
0.0200000008
 10
31.375
 20
0.5
 10
31.375
 20
0.75
  0
LWPOLYLINE
  5
394
100
AcDbEntity
  8
0
100
AcDbPolyline
 62
7
  6
CONTINUOUS
 90
2
 70
0
 43
0.0200000008
 10
32.5
 20
0.75
 10
32.5
 20
1.25
  0
LWPOLYLINE
  5
395
100
AcDbEntity
  8
0
100
AcDbPolyline
 62
7
  6
CONTINUOUS
 90
2
 70
0
 43
0.0300000002
 10
33.0
 20
21.5
 10
33.0
 20
0.5
  0
LWPOLYLINE
  5
396
100
AcDbEntity
  8
0
100
AcDbPolyline
 62
7
  6
CONTINUOUS
 90
2
 70
0
 43
0.0200000008
 10
33.2386166238
 20
10.8327049088
 10
33.2386166238
 20
11.1700146875
  0
LINE
  5
397
100
AcDbEntity
  8
DEFAULT_3
100
AcDbLine
 62
7
  6
PHANTOM
 10
34.0
 20
-0.0
 11
34.0
 21
22.0
  0
LINE
  5
398
100
AcDbEntity
  8
7_ALL_ROUNDS
100
AcDbLine
 62
7
  6
CONTINUOUS
 10
10.0985065059
 20
7.0714957392
 11
10.0985065059
 21
7.0321256605
  0
LINE
  5
399
100
AcDbEntity
  8
7_ALL_ROUNDS
100
AcDbLine
 62
9
  6
CONTINUOUS
 10
10.2166167421
 20
7.0714957392
 11
10.2166167421
 21
7.0321256605
  0
LINE
  5
39A
100
AcDbEntity
  8
7_ALL_ROUNDS
100
AcDbLine
 62
7
  6
CONTINUOUS
 10
10.6496876083
 20
7.0714957392
 11
10.6496876083
 21
7.7211020384
  0
LINE
  5
39B
100
AcDbEntity
  8
7_ALL_ROUNDS
100
AcDbLine
 62
7
  6
CONTINUOUS
 10
10.689057687
 20
8.016377629
 11
10.689057687
 21
7.6029918022
  0
LINE
  5
39C
100
AcDbEntity
  8
0
100
AcDbLine
 62
7
  6
CONTINUOUS
 10
10.689057687
 20
7.0714957392
 11
10.689057687
 21
7.0321256605
  0
LINE
  5
39D
100
AcDbEntity
  8
0
100
AcDbLine
 62
7
  6
CONTINUOUS
 10
12.0237033563
 20
7.8175587313
 11
12.0237033563
 21
7.264409125
  0
LINE
  5
39E
100
AcDbEntity
  8
0
100
AcDbLine
 62
7
  6
CONTINUOUS
 10
12.031577372
 20
7.2722831408
 11
12.031577372
 21
7.8057477077
  0
LINE
  5
39F
100
AcDbEntity
  8
0
100
AcDbLine
 62
7
  6
CONTINUOUS
 10
12.1004750098
 20
7.7703146368
 11
12.1004750098
 21
7.6915744794
  0
LINE
  5
3A0
100
AcDbEntity
  8
0
100
AcDbLine
 62
7
  6
CONTINUOUS
 10
12.1300025689
 20
7.6915744794
 11
12.1300025689
 21
7.384881566
  0
LINE
  5
3A1
100
AcDbEntity
  8
0
100
AcDbLine
 62
7
  6
CONTINUOUS
 10
12.5827584744
 20
7.384881566
 11
12.5827584744
 21
7.6915744794
  0
LINE
  5
3A2
100
AcDbEntity
  8
0
100
AcDbLine
 62
7
  6
CONTINUOUS
 10
12.6122860335
 20
7.6915744794
 11
12.6122860335
 21
7.7703146368
  0
LINE
  5
3A3
100
AcDbEntity
  8
0
100
AcDbLine
 62
7
  6
CONTINUOUS
 10
12.6811836713
 20
7.8057477077
 11
12.6811836713
 21
7.2722831408
  0
LINE
  5
3A4
100
AcDbEntity
  8
0
100
AcDbLine
 62
7
  6
CONTINUOUS
 10
12.689057687
 20
7.264409125
 11
12.689057687
 21
7.8175587313
  0
LINE
  5
3A5
100
AcDbEntity
  8
0
100
AcDbLine
 62
7
  6
CONTINUOUS
 10
12.8701600492
 20
7.8155902274
 11
12.8701600492
 21
7.264409125
  0
LINE
  5
3A6
100
AcDbEntity
  8
0
100
AcDbLine
 62
7
  6
CONTINUOUS
 10
12.878034065
 20
7.2722831408
 11
12.878034065
 21
7.8037792038
  0
LINE
  5
3A7
100
AcDbEntity
  8
0
100
AcDbLine
 62
7
  6
CONTINUOUS
 10
12.9725222539
 20
7.6659839282
 11
12.9725222539
 21
7.4022044006
  0
LINE
  5
3A8
100
AcDbEntity
  8
0
100
AcDbLine
 62
7
  6
CONTINUOUS
 10
13.0748844587
 20
7.7368500699
 11
13.0748844587
 21
7.6659839282
  0
LINE
  5
3A9
100
AcDbEntity
  8
0
100
AcDbLine
 62
7
  6
CONTINUOUS
 10
13.128034065
 20
7.7703146368
 11
13.128034065
 21
7.7368500699
  0
LINE
  5
3AA
100
AcDbEntity
  8
0
100
AcDbLine
 62
7
  6
CONTINUOUS
 10
13.2855143799
 20
7.7368500699
 11
13.2855143799
 21
7.7703146368
  0
LINE
  5
3AB
100
AcDbEntity
  8
0
100
AcDbLine
 62
7
  6
CONTINUOUS
 10
13.3386639862
 20
7.6659839282
 11
13.3386639862
 21
7.7368500699
  0
LINE
  5
3AC
100
AcDbEntity
  8
0
100
AcDbLine
 62
7
  6
CONTINUOUS
 10
13.4410261909
 20
7.4022044006
 11
13.4410261909
 21
7.6659839282
  0
LINE
  5
3AD
100
AcDbEntity
  8
0
100
AcDbLine
 62
7
  6
CONTINUOUS
 10
13.5355143799
 20
7.8037792038
 11
13.5355143799
 21
7.2722831408
  0
LINE
  5
3AE
100
AcDbEntity
  8
0
100
AcDbLine
 62
7
  6
CONTINUOUS
 10
13.5433883957
 20
7.264409125
 11
13.5433883957
 21
7.8155902274
  0
LINE
  5
3AF
100
AcDbEntity
  8
7_ALL_ROUNDS
100
AcDbLine
 62
7
  6
CONTINUOUS
 10
13.7244907579
 20
7.4730705424
 11
13.7244907579
 21
7.3891842167
  0
LINE
  5
3B0
100
AcDbEntity
  8
7_ALL_ROUNDS
100
AcDbLine
 62
7
  6
CONTINUOUS
 10
13.7323647736
 20
7.4730705424
 11
13.7323647736
 21
7.3891842167
  0
LINE
  5
3B1
100
AcDbEntity
  8
7_ALL_ROUNDS
100
AcDbLine
 62
7
  6
CONTINUOUS
 10
13.752049813
 20
7.3891842167
 11
13.752049813
 21
7.4730705424
  0
LINE
  5
3B2
100
AcDbEntity
  8
0
100
AcDbLine
 62
7
  6
CONTINUOUS
 10
13.815041939
 20
7.4195272353
 11
13.815041939
 21
7.3872437707
  0
LINE
  5
3B3
100
AcDbEntity
  8
0
100
AcDbLine
 62
7
  6
CONTINUOUS
 10
13.8288214665
 20
7.4195272353
 11
13.8288214665
 21
7.3872437707
  0
LINE
  5
3B4
100
AcDbEntity
  8
7_ALL_ROUNDS
100
AcDbLine
 62
7
  6
CONTINUOUS
 10
10.0985065059
 20
7.0321256605
 11
10.6496876083
 21
7.0321256605
  0
LINE
  5
3B5
100
AcDbEntity
  8
0
100
AcDbLine
 62
7
  6
CONTINUOUS
 10
10.689057687
 20
7.0321256605
 11
17.9016561122
 21
7.0321256605
  0
LINE
  5
3B6
100
AcDbEntity
  8
7_ALL_ROUNDS
100
AcDbLine
 62
7
  6
CONTINUOUS
 10
17.9410261909
 20
7.0321256605
 11
18.4922072933
 21
7.0321256605
  0
LINE
  5
3B7
100
AcDbEntity
  8
7_ALL_ROUNDS
100
AcDbLine
 62
7
  6
CONTINUOUS
 10
10.0985065059
 20
7.0714957392
 11
10.6496876083
 21
7.0714957392
  0
LINE
  5
3B8
100
AcDbEntity
  8
7_ALL_ROUNDS
100
AcDbLine
 62
7
  6
CONTINUOUS
 10
17.9410261909
 20
7.0714957392
 11
18.4922072933
 21
7.0714957392
  0
LINE
  5
3B9
100
AcDbEntity
  8
0
100
AcDbLine
 62
7
  6
CONTINUOUS
 10
16.2725222539
 20
7.2604721172
 11
16.6961443012
 21
7.2604721172
  0
LINE
  5
3BA
100
AcDbEntity
  8
0
100
AcDbLine
 62
7
  6
CONTINUOUS
 10
12.0237033563
 20
7.264409125
 11
12.689057687
 21
7.264409125
  0
LINE
  5
3BB
100
AcDbEntity
  8
0
100
AcDbLine
 62
7
  6
CONTINUOUS
 10
12.8701600492
 20
7.264409125
 11
13.5433883957
 21
7.264409125
  0
LINE
  5
3BC
100
AcDbEntity
  8
0
100
AcDbLine
 62
7
  6
CONTINUOUS
 10
15.078034065
 20
7.264409125
 11
15.7567742224
 21
7.264409125
  0
LINE
  5
3BD
100
AcDbEntity
  8
0
100
AcDbLine
 62
7
  6
CONTINUOUS
 10
16.6843332776
 20
7.2722831408
 11
16.2843332776
 21
7.2722831408
  0
LINE
  5
3BE
100
AcDbEntity
  8
0
100
AcDbLine
 62
7
  6
CONTINUOUS
 10
13.5355143799
 20
7.2722831408
 11
12.878034065
 21
7.2722831408
  0
LINE
  5
3BF
100
AcDbEntity
  8
0
100
AcDbLine
 62
7
  6
CONTINUOUS
 10
12.6811836713
 20
7.2722831408
 11
12.031577372
 21
7.2722831408
  0
LINE
  5
3C0
100
AcDbEntity
  8
0
100
AcDbLine
 62
7
  6
CONTINUOUS
 10
15.0859080807
 20
7.2722831408
 11
15.7489002067
 21
7.2722831408
  0
LINE
  5
3C1
100
AcDbEntity
  8
7_ALL_ROUNDS
100
AcDbLine
 62
7
  6
CONTINUOUS
 10
13.7601566693
 20
7.3515551218
 11
13.7687014736
 21
7.3489259513
  0
LINE
  5
3C2
100
AcDbEntity
  8
7_ALL_ROUNDS
100
AcDbLine
 62
7
  6
CONTINUOUS
 10
13.7851206149
 20
7.3644697142
 11
13.7659457608
 21
7.3703696692
  0
LINE
  5
3C3
100
AcDbEntity
  8
7_ALL_ROUNDS
100
AcDbLine
 62
7
  6
CONTINUOUS
 10
13.7424930877
 20
7.3520772947
 11
13.8133998999
 21
7.2961998408
  0
LINE
  5
3C4
100
AcDbEntity
  8
7_ALL_ROUNDS
100
AcDbLine
 62
7
  6
CONTINUOUS
 10
13.7866789408
 20
7.3373058287
 11
13.8130860144
 21
7.3072977906
  0
LINE
  5
3C5
100
AcDbEntity
  8
7_ALL_ROUNDS
100
AcDbLine
 62
7
  6
CONTINUOUS
 10
13.8278638395
 20
7.3203022767
 11
13.7941093485
 21
7.3586596529
  0
LINE
  5
3C6
100
AcDbEntity
  8
0
100
AcDbLine
 62
7
  6
CONTINUOUS
 10
14.2264592618
 20
7.3872437707
 11
14.2264592618
 21
7.4195272353
  0
LINE
  5
3C7
100
AcDbEntity
  8
0
100
AcDbLine
 62
7
  6
CONTINUOUS
 10
14.2402387894
 20
7.3872437707
 11
14.2402387894
 21
7.4195272353
  0
LINE
  5
3C8
100
AcDbEntity
  8
7_ALL_ROUNDS
100
AcDbLine
 62
7
  6
CONTINUOUS
 10
14.3032309154
 20
7.4730705424
 11
14.3032309154
 21
7.3891842167
  0
LINE
  5
3C9
100
AcDbEntity
  8
7_ALL_ROUNDS
100
AcDbLine
 62
7
  6
CONTINUOUS
 10
14.3229159547
 20
7.3891842167
 11
14.3229159547
 21
7.4730705424
  0
LINE
  5
3CA
100
AcDbEntity
  8
7_ALL_ROUNDS
100
AcDbLine
 62
7
  6
CONTINUOUS
 10
14.3307899705
 20
7.3891842167
 11
14.3307899705
 21
7.4730705424
  0
LINE
  5
3CB
100
AcDbEntity
  8
7_ALL_ROUNDS
100
AcDbLine
 62
7
  6
CONTINUOUS
 10
13.8426416647
 20
7.2860626683
 11
14.2126390637
 21
7.2860626683
  0
LINE
  5
3CC
100
AcDbEntity
  8
7_ALL_ROUNDS
100
AcDbLine
 62
7
  6
CONTINUOUS
 10
13.8426416647
 20
7.2939366841
 11
14.2126390637
 21
7.2939366841
  0
LINE
  5
3CD
100
AcDbEntity
  8
0
100
AcDbLine
 62
7
  6
CONTINUOUS
 10
16.3059868209
 20
7.2998422853
 11
16.4406326296
 21
7.2998422853
  0
LINE
  5
3CE
100
AcDbEntity
  8
0
100
AcDbLine
 62
7
  6
CONTINUOUS
 10
16.5280339255
 20
7.2998422853
 11
16.6626797342
 21
7.2998422853
  0
LINE
  5
3CF
100
AcDbEntity
  8
7_ALL_ROUNDS
100
AcDbLine
 62
7
  6
CONTINUOUS
 10
14.2126390637
 20
7.3136217235
 11
13.8426416647
 21
7.3136217235
  0
LINE
  5
3D0
100
AcDbEntity
  8
0
100
AcDbLine
 62
7
  6
CONTINUOUS
 10
15.731577372
 20
7.3405902274
 11
15.7138407477
 21
7.3405902274
  0
LINE
  5
3D1
100
AcDbEntity
  8
0
100
AcDbLine
 62
7
  6
CONTINUOUS
 10
15.5209675397
 20
7.3405902274
 11
15.5138407477
 21
7.3405902274
  0
LINE
  5
3D2
100
AcDbEntity
  8
0
100
AcDbLine
 62
7
  6
CONTINUOUS
 10
15.3209675397
 20
7.3405902274
 11
15.3138407477
 21
7.3405902274
  0
LINE
  5
3D3
100
AcDbEntity
  8
0
100
AcDbLine
 62
7
  6
CONTINUOUS
 10
15.1209675397
 20
7.3405902274
 11
15.1032309154
 21
7.3405902274
  0
LINE
  5
3D4
100
AcDbEntity
  8
0
100
AcDbLine
 62
7
  6
CONTINUOUS
 10
16.6626797342
 20
7.3431492825
 11
16.6406326296
 21
7.3431492825
  0
LINE
  5
3D5
100
AcDbEntity
  8
0
100
AcDbLine
 62
7
  6
CONTINUOUS
 10
16.3280339255
 20
7.3431492825
 11
16.3059868209
 21
7.3431492825
  0
LINE
  5
3D6
100
AcDbEntity
  8
0
100
AcDbLine
 62
7
  6
CONTINUOUS
 10
16.3685852461
 20
7.3746453455
 11
16.4000813091
 21
7.3746453455
  0
LINE
  5
3D7
100
AcDbEntity
  8
0
100
AcDbLine
 62
7
  6
CONTINUOUS
 10
16.5685852461
 20
7.3746453455
 11
16.6000813091
 21
7.3746453455
  0
LINE
  5
3D8
100
AcDbEntity
  8
0
100
AcDbLine
 62
7
  6
CONTINUOUS
 10
16.3764592618
 20
7.3825193613
 11
16.3922072933
 21
7.3825193613
  0
LINE
  5
3D9
100
AcDbEntity
  8
0
100
AcDbLine
 62
7
  6
CONTINUOUS
 10
16.5764592618
 20
7.3825193613
 11
16.5922072933
 21
7.3825193613
  0
LINE
  5
3DA
100
AcDbEntity
  8
0
100
AcDbLine
 62
7
  6
CONTINUOUS
 10
12.1300025689
 20
7.384881566
 11
12.5827584744
 21
7.384881566
  0
LINE
  5
3DB
100
AcDbEntity
  8
0
100
AcDbLine
 62
7
  6
CONTINUOUS
 10
13.815041939
 20
7.3872437707
 11
14.2402387894
 21
7.3872437707
  0
LINE
  5
3DC
100
AcDbEntity
  8
0
100
AcDbLine
 62
7
  6
CONTINUOUS
 10
16.5922072933
 20
7.3982673928
 11
16.5764592618
 21
7.3982673928
  0
LINE
  5
3DD
100
AcDbEntity
  8
0
100
AcDbLine
 62
7
  6
CONTINUOUS
 10
16.3922072933
 20
7.3982673928
 11
16.3764592618
 21
7.3982673928
  0
LINE
  5
3DE
100
AcDbEntity
  8
0
100
AcDbLine
 62
7
  6
CONTINUOUS
 10
12.9725222539
 20
7.4022044006
 11
13.4410261909
 21
7.4022044006
  0
LINE
  5
3DF
100
AcDbEntity
  8
0
100
AcDbLine
 62
7
  6
CONTINUOUS
 10
16.6000813091
 20
7.4061414085
 11
16.5685852461
 21
7.4061414085
  0
LINE
  5
3E0
100
AcDbEntity
  8
0
100
AcDbLine
 62
7
  6
CONTINUOUS
 10
16.4000813091
 20
7.4061414085
 11
16.3685852461
 21
7.4061414085
  0
LINE
  5
3E1
100
AcDbEntity
  8
0
100
AcDbLine
 62
7
  6
CONTINUOUS
 10
13.815041939
 20
7.4195272353
 11
14.2402387894
 21
7.4195272353
  0
LINE
  5
3E2
100
AcDbEntity
  8
0
100
AcDbLine
 62
7
  6
CONTINUOUS
 10
16.6406326296
 20
7.4730705423
 11
16.6118923327
 21
7.4730705423
  0
LINE
  5
3E3
100
AcDbEntity
  8
0
100
AcDbLine
 62
7
  6
CONTINUOUS
 10
16.5567742224
 20
7.4730705423
 11
16.5280339255
 21
7.4730705423
  0
LINE
  5
3E4
100
AcDbEntity
  8
0
100
AcDbLine
 62
7
  6
CONTINUOUS
 10
16.4406326296
 20
7.4730705423
 11
16.4118923327
 21
7.4730705423
  0
LINE
  5
3E5
100
AcDbEntity
  8
0
100
AcDbLine
 62
7
  6
CONTINUOUS
 10
16.3567742224
 20
7.4730705423
 11
16.3280339255
 21
7.4730705423
  0
LINE
  5
3E6
100
AcDbEntity
  8
7_ALL_ROUNDS
100
AcDbLine
 62
7
  6
CONTINUOUS
 10
13.7717348524
 20
7.4927555817
 11
14.283545876
 21
7.4927555817
  0
LINE
  5
3E7
100
AcDbEntity
  8
0
100
AcDbLine
 62
7
  6
CONTINUOUS
 10
16.3372286291
 20
7.5006295975
 11
16.3567742224
 21
7.5006295975
  0
LINE
  5
3E8
100
AcDbEntity
  8
0
100
AcDbLine
 62
7
  6
CONTINUOUS
 10
16.4118923327
 20
7.5006295975
 11
16.431437926
 21
7.5006295975
  0
LINE
  5
3E9
100
AcDbEntity
  8
0
100
AcDbLine
 62
7
  6
CONTINUOUS
 10
16.5372286291
 20
7.5006295975
 11
16.5567742224
 21
7.5006295975
  0
LINE
  5
3EA
100
AcDbEntity
  8
0
100
AcDbLine
 62
7
  6
CONTINUOUS
 10
16.6118923327
 20
7.5006295975
 11
16.631437926
 21
7.5006295975
  0
LINE
  5
3EB
100
AcDbEntity
  8
7_ALL_ROUNDS
100
AcDbLine
 62
7
  6
CONTINUOUS
 10
14.283545876
 20
7.5124406211
 11
13.7717348524
 21
7.5124406211
  0
LINE
  5
3EC
100
AcDbEntity
  8
7_ALL_ROUNDS
100
AcDbLine
 62
7
  6
CONTINUOUS
 10
14.283545876
 20
7.5203146368
 11
13.7717348524
 21
7.5203146368
  0
LINE
  5
3ED
100
AcDbEntity
  8
0
100
AcDbLine
 62
7
  6
CONTINUOUS
 10
16.6400356481
 20
7.5242516447
 11
16.528630907
 21
7.5242516447
  0
LINE
  5
3EE
100
AcDbEntity
  8
0
100
AcDbLine
 62
7
  6
CONTINUOUS
 10
16.4400356481
 20
7.5242516447
 11
16.328630907
 21
7.5242516447
  0
LINE
  5
3EF
100
AcDbEntity
  8
0
100
AcDbLine
 62
7
  6
CONTINUOUS
 10
16.2843332776
 20
7.547873692
 11
16.6843332776
 21
7.547873692
  0
LINE
  5
3F0
100
AcDbEntity
  8
0
100
AcDbLine
 62
7
  6
CONTINUOUS
 10
15.1032309154
 20
7.5571256605
 11
15.731577372
 21
7.5571256605
  0
LINE
  5
3F1
100
AcDbEntity
  8
7_ALL_ROUNDS
100
AcDbLine
 62
7
  6
CONTINUOUS
 10
14.2611713798
 20
7.3586596529
 11
14.2274168888
 21
7.3203022767
  0
LINE
  5
3F2
100
AcDbEntity
  8
7_ALL_ROUNDS
100
AcDbLine
 62
7
  6
CONTINUOUS
 10
14.242194714
 20
7.3072977906
 11
14.2686017875
 21
7.3373058287
  0
LINE
  5
3F3
100
AcDbEntity
  8
7_ALL_ROUNDS
100
AcDbLine
 62
7
  6
CONTINUOUS
 10
14.2418808284
 20
7.2961998408
 11
14.3127876407
 21
7.3520772947
  0
LINE
  5
3F4
100
AcDbEntity
  8
7_ALL_ROUNDS
100
AcDbLine
 62
7
  6
CONTINUOUS
 10
14.2893349675
 20
7.3703696692
 11
14.2701601135
 21
7.3644697142
  0
LINE
  5
3F5
100
AcDbEntity
  8
7_ALL_ROUNDS
100
AcDbLine
 62
7
  6
CONTINUOUS
 10
14.2865792547
 20
7.3489259513
 11
14.295124059
 21
7.3515551218
  0
LINE
  5
3F6
100
AcDbEntity
  8
0
100
AcDbLine
 62
7
  6
CONTINUOUS
 10
16.6961443012
 20
7.5675587313
 11
16.2725222539
 21
7.5675587313
  0
LINE
  5
3F7
100
AcDbEntity
  8
7_ALL_ROUNDS
100
AcDbLine
 62
9
  6
CONTINUOUS
 10
17.9410261909
 20
7.6029918022
 11
17.9016561122
 21
7.6029918022
  0
LINE
  5
3F8
100
AcDbEntity
  8
7_ALL_ROUNDS
100
AcDbLine
 62
9
  6
CONTINUOUS
 10
10.689057687
 20
7.6029918022
 11
10.6496876083
 21
7.6029918022
  0
LINE
  5
3F9
100
AcDbEntity
  8
0
100
AcDbLine
 62
7
  6
CONTINUOUS
 10
15.7489002067
 20
7.6057477077
 11
15.0859080807
 21
7.6057477077
  0
LINE
  5
3FA
100
AcDbEntity
  8
0
100
AcDbLine
 62
7
  6
CONTINUOUS
 10
15.7567742224
 20
7.6136217235
 11
15.6000813091
 21
7.6136217235
  0
LINE
  5
3FB
100
AcDbEntity
  8
0
100
AcDbLine
 62
7
  6
CONTINUOUS
 10
15.4977191043
 20
7.6136217235
 11
15.3370891831
 21
7.6136217235
  0
LINE
  5
3FC
100
AcDbEntity
  8
0
100
AcDbLine
 62
7
  6
CONTINUOUS
 10
15.2347269783
 20
7.6136217235
 11
15.078034065
 21
7.6136217235
  0
LINE
  5
3FD
100
AcDbEntity
  8
0
100
AcDbLine
 62
7
  6
CONTINUOUS
 10
13.4410261909
 20
7.6659839282
 11
13.3386639862
 21
7.6659839282
  0
LINE
  5
3FE
100
AcDbEntity
  8
0
100
AcDbLine
 62
7
  6
CONTINUOUS
 10
13.0748844587
 20
7.6659839282
 11
12.9725222539
 21
7.6659839282
  0
LINE
  5
3FF
100
AcDbEntity
  8
0
100
AcDbLine
 62
7
  6
CONTINUOUS
 10
12.1004750098
 20
7.6915744794
 11
12.1300025689
 21
7.6915744794
  0
LINE
  5
400
100
AcDbEntity
  8
0
100
AcDbLine
 62
7
  6
CONTINUOUS
 10
12.5827584744
 20
7.6915744794
 11
12.6122860335
 21
7.6915744794
  0
LINE
  5
401
100
AcDbEntity
  8
7_ALL_ROUNDS
100
AcDbLine
 62
7
  6
CONTINUOUS
 10
17.9410261909
 20
7.7211020384
 11
17.9016561122
 21
7.7211020384
  0
LINE
  5
402
100
AcDbEntity
  8
7_ALL_ROUNDS
100
AcDbLine
 62
7
  6
CONTINUOUS
 10
10.689057687
 20
7.7211020384
 11
10.6496876083
 21
7.7211020384
  0
LINE
  5
403
100
AcDbEntity
  8
0
100
AcDbLine
 62
7
  6
CONTINUOUS
 10
13.3386639862
 20
7.7368500699
 11
13.2855143799
 21
7.7368500699
  0
LINE
  5
404
100
AcDbEntity
  8
0
100
AcDbLine
 62
7
  6
CONTINUOUS
 10
13.128034065
 20
7.7368500699
 11
13.0748844587
 21
7.7368500699
  0
LINE
  5
405
100
AcDbEntity
  8
0
100
AcDbLine
 62
7
  6
CONTINUOUS
 10
15.6000813091
 20
7.7460297774
 11
15.4977191043
 21
7.7460297774
  0
LINE
  5
406
100
AcDbEntity
  8
0
100
AcDbLine
 62
7
  6
CONTINUOUS
 10
15.3370891831
 20
7.7460297774
 11
15.2347269783
 21
7.7460297774
  0
LINE
  5
407
100
AcDbEntity
  8
0
100
AcDbLine
 62
7
  6
CONTINUOUS
 10
13.2855143799
 20
7.7703146368
 11
13.128034065
 21
7.7703146368
  0
LINE
  5
408
100
AcDbEntity
  8
0
100
AcDbLine
 62
7
  6
CONTINUOUS
 10
12.6122860335
 20
7.7703146368
 11
12.1004750098
 21
7.7703146368
  0
LINE
  5
409
100
AcDbEntity
  8
0
100
AcDbLine
 62
7
  6
CONTINUOUS
 10
12.878034065
 20
7.8037792038
 11
13.5355143799
 21
7.8037792038
  0
LINE
  5
40A
100
AcDbEntity
  8
0
100
AcDbLine
 62
7
  6
CONTINUOUS
 10
12.031577372
 20
7.8057477077
 11
12.6811836713
 21
7.8057477077
  0
LINE
  5
40B
100
AcDbEntity
  8
0
100
AcDbLine
 62
7
  6
CONTINUOUS
 10
13.5433883957
 20
7.8155902274
 11
12.8701600492
 21
7.8155902274
  0
LINE
  5
40C
100
AcDbEntity
  8
0
100
AcDbLine
 62
7
  6
CONTINUOUS
 10
12.689057687
 20
7.8175587313
 11
12.0237033563
 21
7.8175587313
  0
LINE
  5
40D
100
AcDbEntity
  8
0
100
AcDbLine
 62
7
  6
CONTINUOUS
 10
17.9016561122
 20
8.016377629
 11
10.689057687
 21
8.016377629
  0
LINE
  5
40E
100
AcDbEntity
  8
0
100
AcDbLine
 62
7
  6
CONTINUOUS
 10
15.078034065
 20
7.6136217235
 11
15.078034065
 21
7.264409125
  0
LINE
  5
40F
100
AcDbEntity
  8
0
100
AcDbLine
 62
7
  6
CONTINUOUS
 10
15.0859080807
 20
7.6057477077
 11
15.0859080807
 21
7.2722831408
  0
LINE
  5
410
100
AcDbEntity
  8
0
100
AcDbLine
 62
7
  6
CONTINUOUS
 10
15.1032309154
 20
7.3405902274
 11
15.1032309154
 21
7.5571256605
  0
LINE
  5
411
100
AcDbEntity
  8
0
100
AcDbLine
 62
7
  6
CONTINUOUS
 10
15.2347269783
 20
7.7460297774
 11
15.2347269783
 21
7.6136217235
  0
LINE
  5
412
100
AcDbEntity
  8
0
100
AcDbLine
 62
7
  6
CONTINUOUS
 10
15.3370891831
 20
7.6136217235
 11
15.3370891831
 21
7.7460297774
  0
LINE
  5
413
100
AcDbEntity
  8
0
100
AcDbLine
 62
7
  6
CONTINUOUS
 10
15.4977191043
 20
7.7460297774
 11
15.4977191043
 21
7.6136217235
  0
LINE
  5
414
100
AcDbEntity
  8
0
100
AcDbLine
 62
7
  6
CONTINUOUS
 10
15.6000813091
 20
7.6136217235
 11
15.6000813091
 21
7.7460297774
  0
LINE
  5
415
100
AcDbEntity
  8
0
100
AcDbLine
 62
7
  6
CONTINUOUS
 10
15.731577372
 20
7.5571256605
 11
15.731577372
 21
7.3405902274
  0
LINE
  5
416
100
AcDbEntity
  8
0
100
AcDbLine
 62
7
  6
CONTINUOUS
 10
16.4000813091
 20
7.3746453455
 11
16.3922072933
 21
7.3825193613
  0
LINE
  5
417
100
AcDbEntity
  8
0
100
AcDbLine
 62
7
  6
CONTINUOUS
 10
16.3685852461
 20
7.4061414085
 11
16.3764592618
 21
7.3982673928
  0
LINE
  5
418
100
AcDbEntity
  8
0
100
AcDbLine
 62
7
  6
CONTINUOUS
 10
15.7489002067
 20
7.2722831408
 11
15.7489002067
 21
7.6057477077
  0
LINE
  5
419
100
AcDbEntity
  8
0
100
AcDbLine
 62
7
  6
CONTINUOUS
 10
15.7567742224
 20
7.264409125
 11
15.7567742224
 21
7.6136217235
  0
LINE
  5
41A
100
AcDbEntity
  8
0
100
AcDbLine
 62
7
  6
CONTINUOUS
 10
16.4000813091
 20
7.4061414085
 11
16.3922072933
 21
7.3982673928
  0
LINE
  5
41B
100
AcDbEntity
  8
0
100
AcDbLine
 62
7
  6
CONTINUOUS
 10
16.3685852461
 20
7.3746453455
 11
16.3764592618
 21
7.3825193613
  0
LINE
  5
41C
100
AcDbEntity
  8
0
100
AcDbLine
 62
7
  6
CONTINUOUS
 10
16.6000813091
 20
7.4061414085
 11
16.5922072933
 21
7.3982673928
  0
LINE
  5
41D
100
AcDbEntity
  8
0
100
AcDbLine
 62
7
  6
CONTINUOUS
 10
16.5685852461
 20
7.3746453455
 11
16.5764592618
 21
7.3825193613
  0
LINE
  5
41E
100
AcDbEntity
  8
0
100
AcDbLine
 62
7
  6
CONTINUOUS
 10
16.6000813091
 20
7.3746453455
 11
16.5922072933
 21
7.3825193613
  0
LINE
  5
41F
100
AcDbEntity
  8
0
100
AcDbLine
 62
7
  6
CONTINUOUS
 10
16.5685852461
 20
7.4061414085
 11
16.5764592618
 21
7.3982673928
  0
LINE
  5
420
100
AcDbEntity
  8
0
100
AcDbLine
 62
7
  6
CONTINUOUS
 10
16.2725222539
 20
7.5675587313
 11
16.2725222539
 21
7.2604721172
  0
LINE
  5
421
100
AcDbEntity
  8
0
100
AcDbLine
 62
7
  6
CONTINUOUS
 10
16.2843332776
 20
7.2722831408
 11
16.2843332776
 21
7.547873692
  0
LINE
  5
422
100
AcDbEntity
  8
0
100
AcDbLine
 62
7
  6
CONTINUOUS
 10
16.328630907
 20
7.5242516447
 11
16.3372286291
 21
7.5006295975
  0
LINE
  5
423
100
AcDbEntity
  8
0
100
AcDbLine
 62
7
  6
CONTINUOUS
 10
16.3059868209
 20
7.3431492825
 11
16.3059868209
 21
7.2998422853
  0
LINE
  5
424
100
AcDbEntity
  8
0
100
AcDbLine
 62
7
  6
CONTINUOUS
 10
16.3280339255
 20
7.4730705423
 11
16.3280339255
 21
7.3431492825
  0
LINE
  5
425
100
AcDbEntity
  8
0
100
AcDbLine
 62
7
  6
CONTINUOUS
 10
16.3567742224
 20
7.5006295975
 11
16.3567742224
 21
7.4730705423
  0
LINE
  5
426
100
AcDbEntity
  8
0
100
AcDbLine
 62
7
  6
CONTINUOUS
 10
16.3685852461
 20
7.4061414085
 11
16.3685852461
 21
7.3746453455
  0
LINE
  5
427
100
AcDbEntity
  8
0
100
AcDbLine
 62
7
  6
CONTINUOUS
 10
16.3764592618
 20
7.3982673928
 11
16.3764592618
 21
7.3825193613
  0
LINE
  5
428
100
AcDbEntity
  8
0
100
AcDbLine
 62
7
  6
CONTINUOUS
 10
16.3922072933
 20
7.3825193613
 11
16.3922072933
 21
7.3982673928
  0
LINE
  5
429
100
AcDbEntity
  8
0
100
AcDbLine
 62
7
  6
CONTINUOUS
 10
16.4000813091
 20
7.3746453455
 11
16.4000813091
 21
7.4061414085
  0
LINE
  5
42A
100
AcDbEntity
  8
0
100
AcDbLine
 62
7
  6
CONTINUOUS
 10
16.4118923327
 20
7.4730705423
 11
16.4118923327
 21
7.5006295975
  0
LINE
  5
42B
100
AcDbEntity
  8
0
100
AcDbLine
 62
7
  6
CONTINUOUS
 10
16.4406326296
 20
7.2998422853
 11
16.4406326296
 21
7.4730705423
  0
LINE
  5
42C
100
AcDbEntity
  8
0
100
AcDbLine
 62
7
  6
CONTINUOUS
 10
16.5280339255
 20
7.4730705423
 11
16.5280339255
 21
7.2998422853
  0
LINE
  5
42D
100
AcDbEntity
  8
0
100
AcDbLine
 62
7
  6
CONTINUOUS
 10
16.5567742224
 20
7.5006295975
 11
16.5567742224
 21
7.4730705423
  0
LINE
  5
42E
100
AcDbEntity
  8
0
100
AcDbLine
 62
7
  6
CONTINUOUS
 10
16.5685852461
 20
7.4061414085
 11
16.5685852461
 21
7.3746453455
  0
LINE
  5
42F
100
AcDbEntity
  8
0
100
AcDbLine
 62
7
  6
CONTINUOUS
 10
16.5764592618
 20
7.3982673928
 11
16.5764592618
 21
7.3825193613
  0
LINE
  5
430
100
AcDbEntity
  8
0
100
AcDbLine
 62
7
  6
CONTINUOUS
 10
16.431437926
 20
7.5006295975
 11
16.4400356481
 21
7.5242516447
  0
LINE
  5
431
100
AcDbEntity
  8
0
100
AcDbLine
 62
7
  6
CONTINUOUS
 10
16.631437926
 20
7.5006295975
 11
16.6400356481
 21
7.5242516447
  0
LINE
  5
432
100
AcDbEntity
  8
0
100
AcDbLine
 62
7
  6
CONTINUOUS
 10
16.528630907
 20
7.5242516447
 11
16.5372286291
 21
7.5006295975
  0
LINE
  5
433
100
AcDbEntity
  8
0
100
AcDbLine
 62
7
  6
CONTINUOUS
 10
16.5922072933
 20
7.3825193613
 11
16.5922072933
 21
7.3982673928
  0
LINE
  5
434
100
AcDbEntity
  8
0
100
AcDbLine
 62
7
  6
CONTINUOUS
 10
16.6000813091
 20
7.3746453455
 11
16.6000813091
 21
7.4061414085
  0
LINE
  5
435
100
AcDbEntity
  8
0
100
AcDbLine
 62
7
  6
CONTINUOUS
 10
16.6118923327
 20
7.4730705423
 11
16.6118923327
 21
7.5006295975
  0
LINE
  5
436
100
AcDbEntity
  8
0
100
AcDbLine
 62
7
  6
CONTINUOUS
 10
16.6406326296
 20
7.3431492825
 11
16.6406326296
 21
7.4730705423
  0
LINE
  5
437
100
AcDbEntity
  8
0
100
AcDbLine
 62
7
  6
CONTINUOUS
 10
16.6626797342
 20
7.2998422853
 11
16.6626797342
 21
7.3431492825
  0
LINE
  5
438
100
AcDbEntity
  8
0
100
AcDbLine
 62
7
  6
CONTINUOUS
 10
16.6843332776
 20
7.547873692
 11
16.6843332776
 21
7.2722831408
  0
LINE
  5
439
100
AcDbEntity
  8
0
100
AcDbLine
 62
7
  6
CONTINUOUS
 10
16.6961443012
 20
7.2604721172
 11
16.6961443012
 21
7.5675587313
  0
LINE
  5
43A
100
AcDbEntity
  8
0
100
AcDbLine
 62
7
  6
CONTINUOUS
 10
17.9016561122
 20
7.0321256605
 11
17.9016561122
 21
7.0714957392
  0
LINE
  5
43B
100
AcDbEntity
  8
7_ALL_ROUNDS
100
AcDbLine
 62
7
  6
CONTINUOUS
 10
17.9016561122
 20
7.6029918022
 11
17.9016561122
 21
8.016377629
  0
LINE
  5
43C
100
AcDbEntity
  8
7_ALL_ROUNDS
100
AcDbLine
 62
7
  6
CONTINUOUS
 10
17.9410261909
 20
7.0714957392
 11
17.9410261909
 21
7.7211020384
  0
LINE
  5
43D
100
AcDbEntity
  8
7_ALL_ROUNDS
100
AcDbLine
 62
9
  6
CONTINUOUS
 10
18.3740970571
 20
7.0321256605
 11
18.3740970571
 21
7.0714957392
  0
LINE
  5
43E
100
AcDbEntity
  8
7_ALL_ROUNDS
100
AcDbLine
 62
7
  6
CONTINUOUS
 10
18.4922072933
 20
7.0321256605
 11
18.4922072933
 21
7.0714957392
  0
LINE
  5
43F
100
AcDbEntity
  8
7_ALL_ROUNDS
100
AcDbLine
 62
7
  6
CONTINUOUS
 10
2.7249451405
 20
7.2688048424
 11
2.7249451405
 21
7.5437831408
  0
LINE
  5
440
100
AcDbEntity
  8
7_ALL_ROUNDS
100
AcDbLine
 62
9
  6
CONTINUOUS
 10
2.7349451405
 20
7.2587831408
 11
2.7349451405
 21
7.5537831408
  0
LINE
  5
441
100
AcDbEntity
  8
7_ALL_ROUNDS
100
AcDbLine
 62
7
  6
CONTINUOUS
 10
2.7997482901
 20
7.0321256605
 11
2.7997482901
 21
8.016377629
  0
LINE
  5
442
100
AcDbEntity
  8
7_ALL_ROUNDS
100
AcDbLine
 62
9
  6
CONTINUOUS
 10
2.9178585263
 20
7.0321256605
 11
2.9178585263
 21
7.0714957392
  0
LINE
  5
443
100
AcDbEntity
  8
7_ALL_ROUNDS
100
AcDbLine
 62
7
  6
CONTINUOUS
 10
3.5477797861
 20
7.6029918022
 11
3.5477797861
 21
7.4061414085
  0
LINE
  5
444
100
AcDbEntity
  8
7_ALL_ROUNDS
100
AcDbLine
 62
7
  6
CONTINUOUS
 10
3.5871498649
 20
7.4061414085
 11
3.5871498649
 21
7.6423618809
  0
LINE
  5
445
100
AcDbEntity
  8
7_ALL_ROUNDS
100
AcDbLine
 62
7
  6
CONTINUOUS
 10
3.5910868727
 20
7.6384248731
 11
3.5910868727
 21
7.4100784164
  0
LINE
  5
446
100
AcDbEntity
  8
7_ALL_ROUNDS
100
AcDbLine
 62
7
  6
CONTINUOUS
 10
2.7997482901
 20
7.0321256605
 11
6.146204983
 21
7.0321256605
  0
LINE
  5
447
100
AcDbEntity
  8
7_ALL_ROUNDS
100
AcDbLine
 62
7
  6
CONTINUOUS
 10
2.7997482901
 20
7.0714957392
 11
6.146204983
 21
7.0714957392
  0
LINE
  5
448
100
AcDbEntity
  8
0
100
AcDbLine
 62
7
  6
CONTINUOUS
 10
2.7997482901
 20
7.2587831408
 11
2.7349451405
 21
7.2587831408
  0
LINE
  5
449
100
AcDbEntity
  8
7_ALL_ROUNDS
100
AcDbLine
 62
7
  6
CONTINUOUS
 10
5.2800632507
 20
7.2880311723
 11
3.6658900223
 21
7.2880311723
  0
LINE
  5
44A
100
AcDbEntity
  8
7_ALL_ROUNDS
100
AcDbLine
 62
7
  6
CONTINUOUS
 10
5.2800632507
 20
7.327401251
 11
3.6658900223
 21
7.327401251
  0
LINE
  5
44B
100
AcDbEntity
  8
7_ALL_ROUNDS
100
AcDbLine
 62
7
  6
CONTINUOUS
 10
3.6698270302
 20
7.3313382589
 11
5.2761262428
 21
7.3313382589
  0
LINE
  5
44C
100
AcDbEntity
  8
0
100
AcDbLine
 62
7
  6
CONTINUOUS
 10
2.7997482901
 20
7.5537831408
 11
2.7349451405
 21
7.5537831408
  0
LINE
  5
44D
100
AcDbEntity
  8
7_ALL_ROUNDS
100
AcDbLine
 62
7
  6
CONTINUOUS
 10
5.2761262428
 20
7.7171650305
 11
3.6698270302
 21
7.7171650305
  0
LINE
  5
44E
100
AcDbEntity
  8
7_ALL_ROUNDS
100
AcDbLine
 62
7
  6
CONTINUOUS
 10
2.9178585263
 20
7.7211020384
 11
3.4296695499
 21
7.7211020384
  0
LINE
  5
44F
100
AcDbEntity
  8
7_ALL_ROUNDS
100
AcDbLine
 62
7
  6
CONTINUOUS
 10
3.6658900223
 20
7.7211020384
 11
5.2800632507
 21
7.7211020384
  0
LINE
  5
450
100
AcDbEntity
  8
7_ALL_ROUNDS
100
AcDbLine
 62
7
  6
CONTINUOUS
 10
5.5162837231
 20
7.7211020384
 11
6.0280947468
 21
7.7211020384
  0
LINE
  5
451
100
AcDbEntity
  8
0
100
AcDbLine
 62
7
  6
CONTINUOUS
 10
2.7997482901
 20
8.016377629
 11
6.146204983
 21
8.016377629
  0
LINE
  5
452
100
AcDbEntity
  8
7_ALL_ROUNDS
100
AcDbLine
 62
7
  6
CONTINUOUS
 10
5.3548664003
 20
7.4100784164
 11
5.3548664003
 21
7.6384248731
  0
LINE
  5
453
100
AcDbEntity
  8
7_ALL_ROUNDS
100
AcDbLine
 62
7
  6
CONTINUOUS
 10
5.3588034082
 20
7.6423618809
 11
5.3588034082
 21
7.4061414085
  0
LINE
  5
454
100
AcDbEntity
  8
7_ALL_ROUNDS
100
AcDbLine
 62
7
  6
CONTINUOUS
 10
5.3981734869
 20
7.6029918022
 11
5.3981734869
 21
7.4061414085
  0
LINE
  5
455
100
AcDbEntity
  8
7_ALL_ROUNDS
100
AcDbLine
 62
9
  6
CONTINUOUS
 10
6.0280947468
 20
7.0714957392
 11
6.0280947468
 21
7.0321256605
  0
LINE
  5
456
100
AcDbEntity
  8
7_ALL_ROUNDS
100
AcDbLine
 62
7
  6
CONTINUOUS
 10
6.146204983
 20
8.016377629
 11
6.146204983
 21
7.0321256605
  0
LINE
  5
457
100
AcDbEntity
  8
7_ALL_ROUNDS
100
AcDbLine
 62
7
  6
CONTINUOUS
 10
10.0985065059
 20
14.0227842433
 11
10.0985065059
 21
10.9125480228
  0
LINE
  5
458
100
AcDbEntity
  8
0
100
AcDbLine
 62
7
  6
CONTINUOUS
 10
10.3051994193
 20
13.7078236134
 11
10.3051994193
 21
13.5863687775
  0
LINE
  5
459
100
AcDbEntity
  8
0
100
AcDbLine
 62
7
  6
CONTINUOUS
 10
10.3051994193
 20
13.3568375043
 11
10.3051994193
 21
13.2353826685
  0
LINE
  5
45A
100
AcDbEntity
  8
0
100
AcDbLine
 62
7
  6
CONTINUOUS
 10
10.3051994193
 20
11.6999495976
 11
10.3051994193
 21
11.5784947618
  0
LINE
  5
45B
100
AcDbEntity
  8
0
100
AcDbLine
 62
7
  6
CONTINUOUS
 10
10.3051994193
 20
11.3489634886
 11
10.3051994193
 21
11.2275086527
  0
LINE
  5
45C
100
AcDbEntity
  8
3_AXES_OTHER
100
AcDbLine
 62
7
  6
CENTER
 10
10.3740970571
 20
13.7078236134
 11
10.3740970571
 21
13.5389259756
  0
LINE
  5
45D
100
AcDbEntity
  8
3_AXES_OTHER
100
AcDbLine
 62
7
  6
CENTER
 10
10.3740970571
 20
13.4716031409
 11
10.3740970571
 21
13.2377448732
  0
LINE
  5
45E
100
AcDbEntity
  8
3_AXES_OTHER
100
AcDbLine
 62
7
  6
CENTER
 10
10.3740970571
 20
13.2353826685
 11
10.3740970571
 21
13.0664850307
  0
LINE
  5
45F
100
AcDbEntity
  8
3_AXES_OTHER
100
AcDbLine
 62
7
  6
CENTER
 10
10.3740970571
 20
11.6999495976
 11
10.3740970571
 21
11.5310519598
  0
LINE
  5
460
100
AcDbEntity
  8
3_AXES_OTHER
100
AcDbLine
 62
7
  6
CENTER
 10
10.3740970571
 20
11.4637291252
 11
10.3740970571
 21
11.2298708574
  0
LINE
  5
461
100
AcDbEntity
  8
3_AXES_OTHER
100
AcDbLine
 62
7
  6
CENTER
 10
10.3740970571
 20
11.2275086527
 11
10.3740970571
 21
11.0586110149
  0
LINE
  5
462
100
AcDbEntity
  8
3_AXES_OTHER
100
AcDbLine
 62
7
  6
CENTER
 10
10.3740970571
 20
11.2275086527
 11
10.3740970571
 21
11.2298708574
  0
LINE
  5
463
100
AcDbEntity
  8
3_AXES_OTHER
100
AcDbLine
 62
7
  6
CENTER
 10
10.3740970571
 20
11.4637291252
 11
10.3740970571
 21
11.5310519598
  0
LINE
  5
464
100
AcDbEntity
  8
3_AXES_OTHER
100
AcDbLine
 62
7
  6
CENTER
 10
10.3740970571
 20
11.6999495976
 11
10.3740970571
 21
11.8688472354
  0
LINE
  5
465
100
AcDbEntity
  8
3_AXES_OTHER
100
AcDbLine
 62
7
  6
CENTER
 10
10.3740970571
 20
13.2353826685
 11
10.3740970571
 21
13.2377448732
  0
LINE
  5
466
100
AcDbEntity
  8
3_AXES_OTHER
100
AcDbLine
 62
7
  6
CENTER
 10
10.3740970571
 20
13.4716031409
 11
10.3740970571
 21
13.5389259756
  0
LINE
  5
467
100
AcDbEntity
  8
3_AXES_OTHER
100
AcDbLine
 62
7
  6
CENTER
 10
10.3740970571
 20
13.7078236134
 11
10.3740970571
 21
13.8767212512
  0
LINE
  5
468
100
AcDbEntity
  8
0
100
AcDbLine
 62
7
  6
CONTINUOUS
 10
10.4429946949
 20
11.2275086527
 11
10.4429946949
 21
11.3489634886
  0
LINE
  5
469
100
AcDbEntity
  8
0
100
AcDbLine
 62
7
  6
CONTINUOUS
 10
10.4429946949
 20
11.5784947618
 11
10.4429946949
 21
11.6999495976
  0
LINE
  5
46A
100
AcDbEntity
  8
0
100
AcDbLine
 62
7
  6
CONTINUOUS
 10
10.4429946949
 20
13.2353826685
 11
10.4429946949
 21
13.3568375043
  0
LINE
  5
46B
100
AcDbEntity
  8
0
100
AcDbLine
 62
7
  6
CONTINUOUS
 10
10.4429946949
 20
13.5863687775
 11
10.4429946949
 21
13.7078236134
  0
LINE
  5
46C
100
AcDbEntity
  8
7_ALL_ROUNDS
100
AcDbLine
 62
7
  6
CONTINUOUS
 10
10.6496876083
 20
10.7944377866
 11
10.6496876083
 21
14.1408944795
  0
LINE
  5
46D
100
AcDbEntity
  8
0
100
AcDbLine
 62
7
  6
CONTINUOUS
 10
10.689057687
 20
14.1408944795
 11
10.689057687
 21
10.7944377866
  0
LINE
  5
46E
100
AcDbEntity
  8
0
100
AcDbLine
 62
7
  6
CONTINUOUS
 10
11.6909356398
 20
14.1408944795
 11
11.6909356398
 21
14.2056976291
  0
LINE
  5
46F
100
AcDbEntity
  8
7_ALL_ROUNDS
100
AcDbLine
 62
7
  6
CONTINUOUS
 10
11.6909356398
 20
14.1408944795
 11
11.6909356398
 21
14.2056976291
  0
LINE
  5
470
100
AcDbEntity
  8
0
100
AcDbLine
 62
7
  6
CONTINUOUS
 10
11.9859356398
 20
14.1408944795
 11
11.9859356398
 21
14.2056976291
  0
LINE
  5
471
100
AcDbEntity
  8
7_ALL_ROUNDS
100
AcDbLine
 62
7
  6
CONTINUOUS
 10
11.9859356398
 20
14.1408944795
 11
11.9859356398
 21
14.2056976291
  0
LINE
  5
472
100
AcDbEntity
  8
7_ALL_ROUNDS
100
AcDbLine
 62
7
  6
CONTINUOUS
 10
18.3740970571
 20
10.7944377866
 11
17.9016561122
 21
10.7944377866
  0
LINE
  5
473
100
AcDbEntity
  8
0
100
AcDbLine
 62
7
  6
CONTINUOUS
 10
17.9016561122
 20
10.7944377866
 11
10.689057687
 21
10.7944377866
  0
LINE
  5
474
100
AcDbEntity
  8
7_ALL_ROUNDS
100
AcDbLine
 62
7
  6
CONTINUOUS
 10
10.689057687
 20
10.7944377866
 11
10.2166167421
 21
10.7944377866
  0
LINE
  5
475
100
AcDbEntity
  8
7_ALL_ROUNDS
100
AcDbLine
 62
9
  6
CONTINUOUS
 10
17.9410261909
 20
10.9125480228
 11
17.9016561122
 21
10.9125480228
  0
LINE
  5
476
100
AcDbEntity
  8
7_ALL_ROUNDS
100
AcDbLine
 62
9
  6
CONTINUOUS
 10
10.689057687
 20
10.9125480228
 11
10.6496876083
 21
10.9125480228
  0
LINE
  5
477
100
AcDbEntity
  8
3_AXES_OTHER
100
AcDbLine
 62
7
  6
CENTER
 10
18.2166167421
 20
11.2275086527
 11
18.0841127654
 21
11.2275086527
  0
LINE
  5
478
100
AcDbEntity
  8
3_AXES_OTHER
100
AcDbLine
 62
7
  6
CENTER
 10
10.3740970571
 20
11.2275086527
 11
10.2051994193
 21
11.2275086527
  0
LINE
  5
479
100
AcDbEntity
  8
3_AXES_OTHER
100
AcDbLine
 62
7
  6
CENTER
 10
10.3740970571
 20
11.2275086527
 11
10.5429946949
 21
11.2275086527
  0
LINE
  5
47A
100
AcDbEntity
  8
3_AXES_OTHER
100
AcDbLine
 62
7
  6
CENTER
 10
18.2166167421
 20
11.2275086527
 11
18.3521594675
 21
11.2275086527
  0
LINE
  5
47B
100
AcDbEntity
  8
7_ALL_ROUNDS
100
AcDbLine
 62
9
  6
CONTINUOUS
 10
17.9410261909
 20
11.4243590464
 11
17.9016561122
 21
11.4243590464
  0
LINE
  5
47C
100
AcDbEntity
  8
7_ALL_ROUNDS
100
AcDbLine
 62
9
  6
CONTINUOUS
 10
10.689057687
 20
11.4243590464
 11
10.6496876083
 21
11.4243590464
  0
LINE
  5
47D
100
AcDbEntity
  8
3_AXES_OTHER
100
AcDbLine
 62
7
  6
CENTER
 10
18.2166167421
 20
11.4637291252
 11
18.0446858439
 21
11.4637291252
  0
LINE
  5
47E
100
AcDbEntity
  8
3_AXES_OTHER
100
AcDbLine
 62
7
  6
CENTER
 10
10.3740970571
 20
11.4637291252
 11
10.1402387894
 21
11.4637291252
  0
LINE
  5
47F
100
AcDbEntity
  8
3_AXES_OTHER
100
AcDbLine
 62
7
  6
CENTER
 10
10.3740970571
 20
11.4637291252
 11
10.6079553248
 21
11.4637291252
  0
LINE
  5
480
100
AcDbEntity
  8
3_AXES_OTHER
100
AcDbLine
 62
7
  6
CENTER
 10
18.2166167421
 20
11.4637291252
 11
18.3875362767
 21
11.4637291252
  0
LINE
  5
481
100
AcDbEntity
  8
7_ALL_ROUNDS
100
AcDbLine
 62
7
  6
CONTINUOUS
 10
17.9410261909
 20
11.5424692826
 11
17.9016561122
 21
11.5424692826
  0
LINE
  5
482
100
AcDbEntity
  8
7_ALL_ROUNDS
100
AcDbLine
 62
7
  6
CONTINUOUS
 10
10.689057687
 20
11.5424692826
 11
10.6496876083
 21
11.5424692826
  0
LINE
  5
483
100
AcDbEntity
  8
7_ALL_ROUNDS
100
AcDbLine
 62
9
  6
CONTINUOUS
 10
17.9410261909
 20
11.6605795189
 11
17.9016561122
 21
11.6605795189
  0
LINE
  5
484
100
AcDbEntity
  8
7_ALL_ROUNDS
100
AcDbLine
 62
9
  6
CONTINUOUS
 10
10.689057687
 20
11.6605795189
 11
10.6496876083
 21
11.6605795189
  0
LINE
  5
485
100
AcDbEntity
  8
3_AXES_OTHER
100
AcDbLine
 62
7
  6
CENTER
 10
18.2166167421
 20
11.6999495976
 11
18.0841127654
 21
11.6999495976
  0
LINE
  5
486
100
AcDbEntity
  8
3_AXES_OTHER
100
AcDbLine
 62
7
  6
CENTER
 10
10.3740970571
 20
11.6999495976
 11
10.2051994193
 21
11.6999495976
  0
LINE
  5
487
100
AcDbEntity
  8
3_AXES_OTHER
100
AcDbLine
 62
7
  6
CENTER
 10
10.3740970571
 20
11.6999495976
 11
10.5429946949
 21
11.6999495976
  0
LINE
  5
488
100
AcDbEntity
  8
3_AXES_OTHER
100
AcDbLine
 62
7
  6
CENTER
 10
18.2166167421
 20
11.6999495976
 11
18.3480037046
 21
11.6999495976
  0
LINE
  5
489
100
AcDbEntity
  8
3_ALL_AXES
100
AcDbLine
 62
7
  6
CENTER
 10
14.2953568996
 20
10.6944377866
 11
14.2953568996
 21
14.3156976291
  0
LINE
  5
48A
100
AcDbEntity
  8
3_ALL_AXES
100
AcDbLine
 62
7
  6
CENTER
 10
18.5922072933
 20
12.467666133
 11
9.9985065059
 21
12.467666133
  0
LINE
  5
48B
100
AcDbEntity
  8
3_AXES_OTHER
100
AcDbLine
 62
7
  6
CENTER
 10
18.2166167421
 20
13.2353826685
 11
18.0993923327
 21
13.2353826685
  0
LINE
  5
48C
100
AcDbEntity
  8
3_AXES_OTHER
100
AcDbLine
 62
7
  6
CENTER
 10
10.3740970571
 20
13.2353826685
 11
10.2051994193
 21
13.2353826685
  0
LINE
  5
48D
100
AcDbEntity
  8
3_AXES_OTHER
100
AcDbLine
 62
7
  6
CENTER
 10
10.3740970571
 20
13.2353826685
 11
10.5429946949
 21
13.2353826685
  0
LINE
  5
48E
100
AcDbEntity
  8
3_AXES_OTHER
100
AcDbLine
 62
7
  6
CENTER
 10
18.2166167421
 20
13.2353826685
 11
18.3338411516
 21
13.2353826685
  0
LINE
  5
48F
100
AcDbEntity
  8
7_ALL_ROUNDS
100
AcDbLine
 62
9
  6
CONTINUOUS
 10
17.9410261909
 20
13.2747527472
 11
17.9016561122
 21
13.2747527472
  0
LINE
  5
490
100
AcDbEntity
  8
7_ALL_ROUNDS
100
AcDbLine
 62
9
  6
CONTINUOUS
 10
10.689057687
 20
13.2747527472
 11
10.6496876083
 21
13.2747527472
  0
LINE
  5
491
100
AcDbEntity
  8
7_ALL_ROUNDS
100
AcDbLine
 62
7
  6
CONTINUOUS
 10
10.6496876083
 20
13.3928629834
 11
10.689057687
 21
13.3928629834
  0
LINE
  5
492
100
AcDbEntity
  8
7_ALL_ROUNDS
100
AcDbLine
 62
7
  6
CONTINUOUS
 10
17.9016561122
 20
13.3928629834
 11
17.9410261909
 21
13.3928629834
  0
LINE
  5
493
100
AcDbEntity
  8
3_AXES_OTHER
100
AcDbLine
 62
7
  6
CENTER
 10
18.2166167421
 20
13.4716031409
 11
18.0501662561
 21
13.4716031409
  0
LINE
  5
494
100
AcDbEntity
  8
3_AXES_OTHER
100
AcDbLine
 62
7
  6
CENTER
 10
10.3740970571
 20
13.4716031409
 11
10.1402387894
 21
13.4716031409
  0
LINE
  5
495
100
AcDbEntity
  8
3_AXES_OTHER
100
AcDbLine
 62
7
  6
CENTER
 10
10.3740970571
 20
13.4716031409
 11
10.6079553248
 21
13.4716031409
  0
LINE
  5
496
100
AcDbEntity
  8
3_AXES_OTHER
100
AcDbLine
 62
7
  6
CENTER
 10
18.2166167421
 20
13.4716031409
 11
18.3859518922
 21
13.4716031409
  0
LINE
  5
497
100
AcDbEntity
  8
7_ALL_ROUNDS
100
AcDbLine
 62
9
  6
CONTINUOUS
 10
10.6496876083
 20
13.5109732197
 11
10.689057687
 21
13.5109732197
  0
LINE
  5
498
100
AcDbEntity
  8
7_ALL_ROUNDS
100
AcDbLine
 62
9
  6
CONTINUOUS
 10
17.9016561122
 20
13.5109732197
 11
17.9410261909
 21
13.5109732197
  0
LINE
  5
499
100
AcDbEntity
  8
3_AXES_OTHER
100
AcDbLine
 62
7
  6
CENTER
 10
18.2166167421
 20
13.7078236134
 11
18.0915866198
 21
13.7078236134
  0
LINE
  5
49A
100
AcDbEntity
  8
3_AXES_OTHER
100
AcDbLine
 62
7
  6
CENTER
 10
10.3740970571
 20
13.7078236134
 11
10.2051994193
 21
13.7078236134
  0
LINE
  5
49B
100
AcDbEntity
  8
3_AXES_OTHER
100
AcDbLine
 62
7
  6
CENTER
 10
10.3740970571
 20
13.7078236134
 11
10.5429946949
 21
13.7078236134
  0
LINE
  5
49C
100
AcDbEntity
  8
3_AXES_OTHER
100
AcDbLine
 62
7
  6
CENTER
 10
18.2166167421
 20
13.7078236134
 11
18.3338411516
 21
13.7078236134
  0
LINE
  5
49D
100
AcDbEntity
  8
7_ALL_ROUNDS
100
AcDbLine
 62
9
  6
CONTINUOUS
 10
10.6496876083
 20
14.0227842433
 11
10.689057687
 21
14.0227842433
  0
LINE
  5
49E
100
AcDbEntity
  8
7_ALL_ROUNDS
100
AcDbLine
 62
9
  6
CONTINUOUS
 10
17.9016561122
 20
14.0227842433
 11
17.9410261909
 21
14.0227842433
  0
LINE
  5
49F
100
AcDbEntity
  8
0
100
AcDbLine
 62
7
  6
CONTINUOUS
 10
17.9016561122
 20
14.1408944795
 11
10.689057687
 21
14.1408944795
  0
LINE
  5
4A0
100
AcDbEntity
  8
7_ALL_ROUNDS
100
AcDbLine
 62
7
  6
CONTINUOUS
 10
10.2166167421
 20
14.1408944795
 11
10.689057687
 21
14.1408944795
  0
LINE
  5
4A1
100
AcDbEntity
  8
7_ALL_ROUNDS
100
AcDbLine
 62
7
  6
CONTINUOUS
 10
17.9016561122
 20
14.1408944795
 11
18.3740970571
 21
14.1408944795
  0
LINE
  5
4A2
100
AcDbEntity
  8
7_ALL_ROUNDS
100
AcDbLine
 62
9
  6
CONTINUOUS
 10
11.6909356398
 20
14.2056976291
 11
11.9859356398
 21
14.2056976291
  0
LINE
  5
4A3
100
AcDbEntity
  8
7_ALL_ROUNDS
100
AcDbLine
 62
7
  6
CONTINUOUS
 10
11.7009356398
 20
14.2156976291
 11
11.9759356398
 21
14.2156976291
  0
LINE
  5
4A4
100
AcDbEntity
  8
0
100
AcDbLine
 62
7
  6
CONTINUOUS
 10
17.9016561122
 20
14.1408944795
 11
17.9016561122
 21
10.7944377866
  0
LINE
  5
4A5
100
AcDbEntity
  8
7_ALL_ROUNDS
100
AcDbLine
 62
7
  6
CONTINUOUS
 10
17.9410261909
 20
10.7944377866
 11
17.9410261909
 21
14.1408944795
  0
LINE
  5
4A6
100
AcDbEntity
  8
0
100
AcDbLine
 62
7
  6
CONTINUOUS
 10
18.1477191043
 20
13.7078236134
 11
18.1477191043
 21
13.5863687775
  0
LINE
  5
4A7
100
AcDbEntity
  8
0
100
AcDbLine
 62
7
  6
CONTINUOUS
 10
18.1477191043
 20
13.3568375043
 11
18.1477191043
 21
13.2353826685
  0
LINE
  5
4A8
100
AcDbEntity
  8
0
100
AcDbLine
 62
7
  6
CONTINUOUS
 10
18.1477191043
 20
11.6999495976
 11
18.1477191043
 21
11.5784947618
  0
LINE
  5
4A9
100
AcDbEntity
  8
0
100
AcDbLine
 62
7
  6
CONTINUOUS
 10
18.1477191043
 20
11.3489634886
 11
18.1477191043
 21
11.2275086527
  0
LINE
  5
4AA
100
AcDbEntity
  8
3_AXES_OTHER
100
AcDbLine
 62
7
  6
CENTER
 10
18.2166167421
 20
13.7078236134
 11
18.2166167421
 21
13.5905992039
  0
LINE
  5
4AB
100
AcDbEntity
  8
3_AXES_OTHER
100
AcDbLine
 62
7
  6
CENTER
 10
18.2166167421
 20
13.4716031409
 11
18.2166167421
 21
13.338138574
  0
LINE
  5
4AC
100
AcDbEntity
  8
3_AXES_OTHER
100
AcDbLine
 62
7
  6
CENTER
 10
18.2166167421
 20
13.2353826685
 11
18.2166167421
 21
13.118158259
  0
LINE
  5
4AD
100
AcDbEntity
  8
3_AXES_OTHER
100
AcDbLine
 62
7
  6
CENTER
 10
18.2166167421
 20
11.6999495976
 11
18.2166167421
 21
11.5827251882
  0
LINE
  5
4AE
100
AcDbEntity
  8
3_AXES_OTHER
100
AcDbLine
 62
7
  6
CENTER
 10
18.2166167421
 20
11.4637291252
 11
18.2166167421
 21
11.3302645582
  0
LINE
  5
4AF
100
AcDbEntity
  8
3_AXES_OTHER
100
AcDbLine
 62
7
  6
CENTER
 10
18.2166167421
 20
11.2275086527
 11
18.2166167421
 21
11.0825483323
  0
LINE
  5
4B0
100
AcDbEntity
  8
3_AXES_OTHER
100
AcDbLine
 62
7
  6
CENTER
 10
18.2166167421
 20
11.2275086527
 11
18.2166167421
 21
11.3302645582
  0
LINE
  5
4B1
100
AcDbEntity
  8
3_AXES_OTHER
100
AcDbLine
 62
7
  6
CENTER
 10
18.2166167421
 20
11.4637291252
 11
18.2166167421
 21
11.5827251882
  0
LINE
  5
4B2
100
AcDbEntity
  8
3_AXES_OTHER
100
AcDbLine
 62
7
  6
CENTER
 10
18.2166167421
 20
11.6999495976
 11
18.2166167421
 21
11.8171740071
  0
LINE
  5
4B3
100
AcDbEntity
  8
3_AXES_OTHER
100
AcDbLine
 62
7
  6
CENTER
 10
18.2166167421
 20
13.2353826685
 11
18.2166167421
 21
13.338138574
  0
LINE
  5
4B4
100
AcDbEntity
  8
3_AXES_OTHER
100
AcDbLine
 62
7
  6
CENTER
 10
18.2166167421
 20
13.4716031409
 11
18.2166167421
 21
13.5905992039
  0
LINE
  5
4B5
100
AcDbEntity
  8
3_AXES_OTHER
100
AcDbLine
 62
7
  6
CENTER
 10
18.2166167421
 20
13.7078236134
 11
18.2166167421
 21
13.8250480228
  0
LINE
  5
4B6
100
AcDbEntity
  8
0
100
AcDbLine
 62
7
  6
CONTINUOUS
 10
18.2855143799
 20
11.2275086527
 11
18.2855143799
 21
11.3489634886
  0
LINE
  5
4B7
100
AcDbEntity
  8
0
100
AcDbLine
 62
7
  6
CONTINUOUS
 10
18.2855143799
 20
11.5784947618
 11
18.2855143799
 21
11.6999495976
  0
LINE
  5
4B8
100
AcDbEntity
  8
0
100
AcDbLine
 62
7
  6
CONTINUOUS
 10
18.2855143799
 20
13.2353826685
 11
18.2855143799
 21
13.3568375043
  0
LINE
  5
4B9
100
AcDbEntity
  8
0
100
AcDbLine
 62
7
  6
CONTINUOUS
 10
18.2855143799
 20
13.5863687775
 11
18.2855143799
 21
13.7078236134
  0
LINE
  5
4BA
100
AcDbEntity
  8
7_ALL_ROUNDS
100
AcDbLine
 62
7
  6
CONTINUOUS
 10
18.4922072933
 20
14.0227842433
 11
18.4922072933
 21
10.9125480228
  0
LINE
  5
4BB
100
AcDbEntity
  8
7_ALL_ROUNDS
100
AcDbLine
 62
7
  6
CONTINUOUS
 10
10.0985065059
 20
17.8246987793
 11
10.0985065059
 21
17.7853287006
  0
LINE
  5
4BC
100
AcDbEntity
  8
7_ALL_ROUNDS
100
AcDbLine
 62
9
  6
CONTINUOUS
 10
10.2166167421
 20
17.8246987793
 11
10.2166167421
 21
17.7853287006
  0
LINE
  5
4BD
100
AcDbEntity
  8
7_ALL_ROUNDS
100
AcDbLine
 62
7
  6
CONTINUOUS
 10
10.6496876083
 20
17.1357224014
 11
10.6496876083
 21
17.7853287006
  0
LINE
  5
4BE
100
AcDbEntity
  8
7_ALL_ROUNDS
100
AcDbLine
 62
7
  6
CONTINUOUS
 10
10.689057687
 20
17.2538326376
 11
10.689057687
 21
16.8404468108
  0
LINE
  5
4BF
100
AcDbEntity
  8
0
100
AcDbLine
 62
7
  6
CONTINUOUS
 10
10.689057687
 20
17.7853287006
 11
10.689057687
 21
17.8246987793
  0
LINE
  5
4C0
100
AcDbEntity
  8
0
100
AcDbLine
 62
7
  6
CONTINUOUS
 10
11.846538002
 20
17.8246987793
 11
11.846538002
 21
17.7853287006
  0
LINE
  5
4C1
100
AcDbEntity
  8
7_ALL_ROUNDS
100
AcDbLine
 62
7
  6
CONTINUOUS
 10
11.8544120177
 20
17.7853287006
 11
11.8544120177
 21
17.8246987793
  0
LINE
  5
4C2
100
AcDbEntity
  8
7_ALL_ROUNDS
100
AcDbLine
 62
7
  6
CONTINUOUS
 10
13.3111049311
 20
17.8246987793
 11
13.3111049311
 21
17.7853287006
  0
LINE
  5
4C3
100
AcDbEntity
  8
0
100
AcDbLine
 62
7
  6
CONTINUOUS
 10
13.3189789468
 20
17.8246987793
 11
13.3189789468
 21
17.7853287006
  0
LINE
  5
4C4
100
AcDbEntity
  8
0
100
AcDbLine
 62
7
  6
CONTINUOUS
 10
17.9016561122
 20
16.8404468108
 11
10.689057687
 21
16.8404468108
  0
LINE
  5
4C5
100
AcDbEntity
  8
0
100
AcDbLine
 62
7
  6
CONTINUOUS
 10
14.881577372
 20
17.0254861809
 11
15.1067742224
 21
17.0254861809
  0
LINE
  5
4C6
100
AcDbEntity
  8
0
100
AcDbLine
 62
7
  6
CONTINUOUS
 10
15.3540183169
 20
17.0254861809
 11
15.5792151673
 21
17.0254861809
  0
LINE
  5
4C7
100
AcDbEntity
  8
0
100
AcDbLine
 62
7
  6
CONTINUOUS
 10
15.8264592618
 20
17.0254861809
 11
16.0516561122
 21
17.0254861809
  0
LINE
  5
4C8
100
AcDbEntity
  8
0
100
AcDbLine
 62
7
  6
CONTINUOUS
 10
14.8933883957
 20
17.0372972045
 11
15.0949631988
 21
17.0372972045
  0
LINE
  5
4C9
100
AcDbEntity
  8
0
100
AcDbLine
 62
7
  6
CONTINUOUS
 10
15.3658293405
 20
17.0372972045
 11
15.5674041437
 21
17.0372972045
  0
LINE
  5
4CA
100
AcDbEntity
  8
0
100
AcDbLine
 62
7
  6
CONTINUOUS
 10
15.8382702854
 20
17.0372972045
 11
16.0398450886
 21
17.0372972045
  0
LINE
  5
4CB
100
AcDbEntity
  8
0
100
AcDbLine
 62
7
  6
CONTINUOUS
 10
14.994569498
 20
17.0648562596
 11
15.0693726476
 21
17.0648562596
  0
LINE
  5
4CC
100
AcDbEntity
  8
0
100
AcDbLine
 62
7
  6
CONTINUOUS
 10
15.4670104429
 20
17.0648562596
 11
15.5418135925
 21
17.0648562596
  0
LINE
  5
4CD
100
AcDbEntity
  8
0
100
AcDbLine
 62
7
  6
CONTINUOUS
 10
15.9394513878
 20
17.0648562596
 11
16.0142545374
 21
17.0648562596
  0
LINE
  5
4CE
100
AcDbEntity
  8
0
100
AcDbLine
 62
7
  6
CONTINUOUS
 10
15.0024435138
 20
17.0806042911
 11
15.0536246161
 21
17.0806042911
  0
LINE
  5
4CF
100
AcDbEntity
  8
0
100
AcDbLine
 62
7
  6
CONTINUOUS
 10
15.4748844587
 20
17.0806042911
 11
15.526065561
 21
17.0806042911
  0
LINE
  5
4D0
100
AcDbEntity
  8
0
100
AcDbLine
 62
7
  6
CONTINUOUS
 10
15.9473254035
 20
17.0806042911
 11
15.9985065059
 21
17.0806042911
  0
LINE
  5
4D1
100
AcDbEntity
  8
0
100
AcDbLine
 62
7
  6
CONTINUOUS
 10
14.0591364272
 20
17.5648562596
 11
14.0591364272
 21
17.1711554722
  0
LINE
  5
4D2
100
AcDbEntity
  8
0
100
AcDbLine
 62
7
  6
CONTINUOUS
 10
14.1288214665
 20
17.521549173
 11
14.1288214665
 21
17.4601030803
  0
LINE
  5
4D3
100
AcDbEntity
  8
0
100
AcDbLine
 62
7
  6
CONTINUOUS
 10
14.1288214665
 20
17.3546488091
 11
14.1288214665
 21
17.3250924801
  0
LINE
  5
4D4
100
AcDbEntity
  8
0
100
AcDbLine
 62
7
  6
CONTINUOUS
 10
14.146538002
 20
17.4506830313
 11
14.146538002
 21
17.364068858
  0
LINE
  5
4D5
100
AcDbEntity
  8
0
100
AcDbLine
 62
7
  6
CONTINUOUS
 10
14.1851206791
 20
17.429029488
 11
14.1851206791
 21
17.3069822439
  0
LINE
  5
4D6
100
AcDbEntity
  8
0
100
AcDbLine
 62
7
  6
CONTINUOUS
 10
14.2264592618
 20
17.2597381494
 11
14.2264592618
 21
17.3069822439
  0
LINE
  5
4D7
100
AcDbEntity
  8
0
100
AcDbLine
 62
7
  6
CONTINUOUS
 10
14.2264592618
 20
17.429029488
 11
14.2264592618
 21
17.4762735825
  0
LINE
  5
4D8
100
AcDbEntity
  8
0
100
AcDbLine
 62
7
  6
CONTINUOUS
 10
14.2658293405
 20
17.4762735825
 11
14.2658293405
 21
17.429029488
  0
LINE
  5
4D9
100
AcDbEntity
  8
0
100
AcDbLine
 62
7
  6
CONTINUOUS
 10
14.2658293405
 20
17.3069822439
 11
14.2658293405
 21
17.2597381494
  0
LINE
  5
4DA
100
AcDbEntity
  8
0
100
AcDbLine
 62
7
  6
CONTINUOUS
 10
14.3248844587
 20
17.2597381494
 11
14.3248844587
 21
17.3069822439
  0
LINE
  5
4DB
100
AcDbEntity
  8
0
100
AcDbLine
 62
7
  6
CONTINUOUS
 10
14.3248844587
 20
17.429029488
 11
14.3248844587
 21
17.4762735825
  0
LINE
  5
4DC
100
AcDbEntity
  8
0
100
AcDbLine
 62
7
  6
CONTINUOUS
 10
14.146538002
 20
17.364068858
 11
14.1288214665
 21
17.3546488091
  0
LINE
  5
4DD
100
AcDbEntity
  8
0
100
AcDbLine
 62
7
  6
CONTINUOUS
 10
14.4441757972
 20
17.4506830313
 11
14.4618923327
 21
17.4601030803
  0
LINE
  5
4DE
100
AcDbEntity
  8
7_ALL_ROUNDS
100
AcDbLine
 62
7
  6
CONTINUOUS
 10
10.6496876083
 20
17.1357224014
 11
10.689057687
 21
17.1357224014
  0
LINE
  5
4DF
100
AcDbEntity
  8
7_ALL_ROUNDS
100
AcDbLine
 62
7
  6
CONTINUOUS
 10
17.9016561122
 20
17.1357224014
 11
17.9410261909
 21
17.1357224014
  0
LINE
  5
4E0
100
AcDbEntity
  8
0
100
AcDbLine
 62
7
  6
CONTINUOUS
 10
14.0591364272
 20
17.1711554722
 11
14.5118923327
 21
17.1711554722
  0
LINE
  5
4E1
100
AcDbEntity
  8
0
100
AcDbLine
 62
7
  6
CONTINUOUS
 10
14.1851206791
 20
17.2183995667
 11
14.4055931201
 21
17.2183995667
  0
LINE
  5
4E2
100
AcDbEntity
  8
7_ALL_ROUNDS
100
AcDbLine
 62
9
  6
CONTINUOUS
 10
10.6496876083
 20
17.2538326376
 11
10.689057687
 21
17.2538326376
  0
LINE
  5
4E3
100
AcDbEntity
  8
7_ALL_ROUNDS
100
AcDbLine
 62
9
  6
CONTINUOUS
 10
17.9016561122
 20
17.2538326376
 11
17.9410261909
 21
17.2538326376
  0
LINE
  5
4E4
100
AcDbEntity
  8
0
100
AcDbLine
 62
7
  6
CONTINUOUS
 10
14.2264592618
 20
17.2597381494
 11
14.2658293405
 21
17.2597381494
  0
LINE
  5
4E5
100
AcDbEntity
  8
0
100
AcDbLine
 62
7
  6
CONTINUOUS
 10
14.3248844587
 20
17.2597381494
 11
14.3642545374
 21
17.2597381494
  0
LINE
  5
4E6
100
AcDbEntity
  8
0
100
AcDbLine
 62
7
  6
CONTINUOUS
 10
14.1851206791
 20
17.3069822439
 11
14.4055931201
 21
17.3069822439
  0
LINE
  5
4E7
100
AcDbEntity
  8
0
100
AcDbLine
 62
7
  6
CONTINUOUS
 10
14.1288214665
 20
17.4601030803
 11
14.146538002
 21
17.4506830313
  0
LINE
  5
4E8
100
AcDbEntity
  8
0
100
AcDbLine
 62
7
  6
CONTINUOUS
 10
14.1288214665
 20
17.3250924801
 11
14.1851206791
 21
17.2183995667
  0
LINE
  5
4E9
100
AcDbEntity
  8
0
100
AcDbLine
 62
7
  6
CONTINUOUS
 10
14.3642545374
 20
17.4762735825
 11
14.3642545374
 21
17.429029488
  0
LINE
  5
4EA
100
AcDbEntity
  8
0
100
AcDbLine
 62
7
  6
CONTINUOUS
 10
14.3642545374
 20
17.3069822439
 11
14.3642545374
 21
17.2597381494
  0
LINE
  5
4EB
100
AcDbEntity
  8
0
100
AcDbLine
 62
7
  6
CONTINUOUS
 10
14.4055931201
 20
17.3069822439
 11
14.4055931201
 21
17.429029488
  0
LINE
  5
4EC
100
AcDbEntity
  8
0
100
AcDbLine
 62
7
  6
CONTINUOUS
 10
14.4441757972
 20
17.364068858
 11
14.4441757972
 21
17.4506830313
  0
LINE
  5
4ED
100
AcDbEntity
  8
0
100
AcDbLine
 62
7
  6
CONTINUOUS
 10
14.4618923327
 20
17.3250924801
 11
14.4618923327
 21
17.3546488091
  0
LINE
  5
4EE
100
AcDbEntity
  8
0
100
AcDbLine
 62
7
  6
CONTINUOUS
 10
14.4618923327
 20
17.4601030803
 11
14.4618923327
 21
17.521549173
  0
LINE
  5
4EF
100
AcDbEntity
  8
0
100
AcDbLine
 62
7
  6
CONTINUOUS
 10
14.5118923327
 20
17.1711554722
 11
14.5118923327
 21
17.5648562596
  0
LINE
  5
4F0
100
AcDbEntity
  8
0
100
AcDbLine
 62
7
  6
CONTINUOUS
 10
14.4055931201
 20
17.2183995667
 11
14.4618923327
 21
17.3250924801
  0
LINE
  5
4F1
100
AcDbEntity
  8
0
100
AcDbLine
 62
7
  6
CONTINUOUS
 10
14.4055931201
 20
17.429029488
 11
14.1851206791
 21
17.429029488
  0
LINE
  5
4F2
100
AcDbEntity
  8
0
100
AcDbLine
 62
7
  6
CONTINUOUS
 10
14.3642545374
 20
17.4762735825
 11
14.3248844587
 21
17.4762735825
  0
LINE
  5
4F3
100
AcDbEntity
  8
0
100
AcDbLine
 62
7
  6
CONTINUOUS
 10
14.2658293405
 20
17.4762735825
 11
14.2264592618
 21
17.4762735825
  0
LINE
  5
4F4
100
AcDbEntity
  8
0
100
AcDbLine
 62
7
  6
CONTINUOUS
 10
15.9985065059
 20
17.4861161021
 11
15.9473254035
 21
17.4861161021
  0
LINE
  5
4F5
100
AcDbEntity
  8
0
100
AcDbLine
 62
7
  6
CONTINUOUS
 10
15.526065561
 20
17.4861161021
 11
15.4748844587
 21
17.4861161021
  0
LINE
  5
4F6
100
AcDbEntity
  8
0
100
AcDbLine
 62
7
  6
CONTINUOUS
 10
15.0536246161
 20
17.4861161021
 11
15.0024435138
 21
17.4861161021
  0
LINE
  5
4F7
100
AcDbEntity
  8
0
100
AcDbLine
 62
7
  6
CONTINUOUS
 10
16.0142545374
 20
17.5018641336
 11
15.9394513878
 21
17.5018641336
  0
LINE
  5
4F8
100
AcDbEntity
  8
0
100
AcDbLine
 62
7
  6
CONTINUOUS
 10
15.5418135925
 20
17.5018641336
 11
15.4670104429
 21
17.5018641336
  0
LINE
  5
4F9
100
AcDbEntity
  8
0
100
AcDbLine
 62
7
  6
CONTINUOUS
 10
15.0693726476
 20
17.5018641336
 11
14.994569498
 21
17.5018641336
  0
LINE
  5
4FA
100
AcDbEntity
  8
0
100
AcDbLine
 62
7
  6
CONTINUOUS
 10
14.4618923327
 20
17.521549173
 11
14.1288214665
 21
17.521549173
  0
LINE
  5
4FB
100
AcDbEntity
  8
0
100
AcDbLine
 62
7
  6
CONTINUOUS
 10
16.0398450886
 20
17.5294231888
 11
15.8382702854
 21
17.5294231888
  0
LINE
  5
4FC
100
AcDbEntity
  8
0
100
AcDbLine
 62
7
  6
CONTINUOUS
 10
15.5674041437
 20
17.5294231888
 11
15.3658293405
 21
17.5294231888
  0
LINE
  5
4FD
100
AcDbEntity
  8
0
100
AcDbLine
 62
7
  6
CONTINUOUS
 10
15.0949631988
 20
17.5294231888
 11
14.8933883957
 21
17.5294231888
  0
LINE
  5
4FE
100
AcDbEntity
  8
0
100
AcDbLine
 62
7
  6
CONTINUOUS
 10
16.0516561122
 20
17.5412342124
 11
15.8264592618
 21
17.5412342124
  0
LINE
  5
4FF
100
AcDbEntity
  8
0
100
AcDbLine
 62
7
  6
CONTINUOUS
 10
15.5792151673
 20
17.5412342124
 11
15.3540183169
 21
17.5412342124
  0
LINE
  5
500
100
AcDbEntity
  8
0
100
AcDbLine
 62
7
  6
CONTINUOUS
 10
15.1067742224
 20
17.5412342124
 11
14.881577372
 21
17.5412342124
  0
LINE
  5
501
100
AcDbEntity
  8
0
100
AcDbLine
 62
7
  6
CONTINUOUS
 10
14.5118923327
 20
17.5648562596
 11
14.0591364272
 21
17.5648562596
  0
LINE
  5
502
100
AcDbEntity
  8
0
100
AcDbLine
 62
7
  6
CONTINUOUS
 10
14.4618923327
 20
17.3546488091
 11
14.4441757972
 21
17.364068858
  0
LINE
  5
503
100
AcDbEntity
  8
0
100
AcDbLine
 62
7
  6
CONTINUOUS
 10
14.881577372
 20
17.5412342124
 11
14.881577372
 21
17.0254861809
  0
LINE
  5
504
100
AcDbEntity
  8
0
100
AcDbLine
 62
7
  6
CONTINUOUS
 10
14.8933883957
 20
17.5294231888
 11
14.8933883957
 21
17.0372972045
  0
LINE
  5
505
100
AcDbEntity
  8
0
100
AcDbLine
 62
7
  6
CONTINUOUS
 10
15.0693726476
 20
17.5018641336
 11
15.0536246161
 21
17.4861161021
  0
LINE
  5
506
100
AcDbEntity
  8
7_ALL_ROUNDS
100
AcDbLine
 62
7
  6
CONTINUOUS
 10
18.4922072933
 20
17.7853287006
 11
17.9410261909
 21
17.7853287006
  0
LINE
  5
507
100
AcDbEntity
  8
7_ALL_ROUNDS
100
AcDbLine
 62
9
  6
CONTINUOUS
 10
16.7363017815
 20
17.7853287006
 11
15.2796088681
 21
17.7853287006
  0
LINE
  5
508
100
AcDbEntity
  8
7_ALL_ROUNDS
100
AcDbLine
 62
7
  6
CONTINUOUS
 10
13.3189789468
 20
17.7853287006
 11
13.3111049311
 21
17.7853287006
  0
LINE
  5
509
100
AcDbEntity
  8
7_ALL_ROUNDS
100
AcDbLine
 62
7
  6
CONTINUOUS
 10
11.8544120177
 20
17.7853287006
 11
11.846538002
 21
17.7853287006
  0
LINE
  5
50A
100
AcDbEntity
  8
7_ALL_ROUNDS
100
AcDbLine
 62
9
  6
CONTINUOUS
 10
13.3111049311
 20
17.7853287006
 11
11.8544120177
 21
17.7853287006
  0
LINE
  5
50B
100
AcDbEntity
  8
7_ALL_ROUNDS
100
AcDbLine
 62
7
  6
CONTINUOUS
 10
10.6496876083
 20
17.7853287006
 11
10.0985065059
 21
17.7853287006
  0
LINE
  5
50C
100
AcDbEntity
  8
7_ALL_ROUNDS
100
AcDbLine
 62
7
  6
CONTINUOUS
 10
15.2717348524
 20
17.7853287006
 11
15.2796088681
 21
17.7853287006
  0
LINE
  5
50D
100
AcDbEntity
  8
7_ALL_ROUNDS
100
AcDbLine
 62
7
  6
CONTINUOUS
 10
16.7363017815
 20
17.7853287006
 11
16.7441757972
 21
17.7853287006
  0
LINE
  5
50E
100
AcDbEntity
  8
7_ALL_ROUNDS
100
AcDbLine
 62
7
  6
CONTINUOUS
 10
10.0985065059
 20
17.8246987793
 11
10.6496876083
 21
17.8246987793
  0
LINE
  5
50F
100
AcDbEntity
  8
0
100
AcDbLine
 62
7
  6
CONTINUOUS
 10
10.689057687
 20
17.8246987793
 11
11.846538002
 21
17.8246987793
  0
LINE
  5
510
100
AcDbEntity
  8
0
100
AcDbLine
 62
7
  6
CONTINUOUS
 10
13.3189789468
 20
17.8246987793
 11
15.2717348524
 21
17.8246987793
  0
LINE
  5
511
100
AcDbEntity
  8
7_ALL_ROUNDS
100
AcDbLine
 62
7
  6
CONTINUOUS
 10
11.846538002
 20
17.8246987793
 11
13.3174805124
 21
17.8246987793
  0
LINE
  5
512
100
AcDbEntity
  8
7_ALL_ROUNDS
100
AcDbLine
 62
7
  6
CONTINUOUS
 10
15.2717348524
 20
17.8246987793
 11
16.7363017815
 21
17.8246987793
  0
LINE
  5
513
100
AcDbEntity
  8
0
100
AcDbLine
 62
7
  6
CONTINUOUS
 10
16.7441757972
 20
17.8246987793
 11
17.9016561122
 21
17.8246987793
  0
LINE
  5
514
100
AcDbEntity
  8
7_ALL_ROUNDS
100
AcDbLine
 62
7
  6
CONTINUOUS
 10
17.9410261909
 20
17.8246987793
 11
18.4922072933
 21
17.8246987793
  0
LINE
  5
515
100
AcDbEntity
  8
0
100
AcDbLine
 62
7
  6
CONTINUOUS
 10
15.0693726476
 20
17.0648562596
 11
15.0536246161
 21
17.0806042911
  0
LINE
  5
516
100
AcDbEntity
  8
0
100
AcDbLine
 62
7
  6
CONTINUOUS
 10
14.994569498
 20
17.5018641336
 11
14.994569498
 21
17.0648562596
  0
LINE
  5
517
100
AcDbEntity
  8
0
100
AcDbLine
 62
7
  6
CONTINUOUS
 10
15.0024435138
 20
17.4861161021
 11
15.0024435138
 21
17.0806042911
  0
LINE
  5
518
100
AcDbEntity
  8
0
100
AcDbLine
 62
7
  6
CONTINUOUS
 10
15.0536246161
 20
17.0806042911
 11
15.0536246161
 21
17.4861161021
  0
LINE
  5
519
100
AcDbEntity
  8
0
100
AcDbLine
 62
7
  6
CONTINUOUS
 10
15.0693726476
 20
17.0648562596
 11
15.0693726476
 21
17.5018641336
  0
LINE
  5
51A
100
AcDbEntity
  8
0
100
AcDbLine
 62
7
  6
CONTINUOUS
 10
15.0949631988
 20
17.0372972045
 11
15.0949631988
 21
17.5294231888
  0
LINE
  5
51B
100
AcDbEntity
  8
0
100
AcDbLine
 62
7
  6
CONTINUOUS
 10
15.1067742224
 20
17.0254861809
 11
15.1067742224
 21
17.5412342124
  0
LINE
  5
51C
100
AcDbEntity
  8
0
100
AcDbLine
 62
7
  6
CONTINUOUS
 10
14.994569498
 20
17.0648562596
 11
15.0024435138
 21
17.0806042911
  0
LINE
  5
51D
100
AcDbEntity
  8
0
100
AcDbLine
 62
7
  6
CONTINUOUS
 10
15.5418135925
 20
17.5018641336
 11
15.526065561
 21
17.4861161021
  0
LINE
  5
51E
100
AcDbEntity
  8
0
100
AcDbLine
 62
7
  6
CONTINUOUS
 10
15.5418135925
 20
17.0648562596
 11
15.526065561
 21
17.0806042911
  0
LINE
  5
51F
100
AcDbEntity
  8
0
100
AcDbLine
 62
7
  6
CONTINUOUS
 10
14.994569498
 20
17.5018641336
 11
15.0024435138
 21
17.4861161021
  0
LINE
  5
520
100
AcDbEntity
  8
0
100
AcDbLine
 62
7
  6
CONTINUOUS
 10
15.2717348524
 20
17.8246987793
 11
15.2717348524
 21
17.7853287006
  0
LINE
  5
521
100
AcDbEntity
  8
7_ALL_ROUNDS
100
AcDbLine
 62
7
  6
CONTINUOUS
 10
15.2796088681
 20
17.7853287006
 11
15.2796088681
 21
17.8246987793
  0
LINE
  5
522
100
AcDbEntity
  8
0
100
AcDbLine
 62
7
  6
CONTINUOUS
 10
15.3540183169
 20
17.5412342124
 11
15.3540183169
 21
17.0254861809
  0
LINE
  5
523
100
AcDbEntity
  8
0
100
AcDbLine
 62
7
  6
CONTINUOUS
 10
15.3658293405
 20
17.5294231888
 11
15.3658293405
 21
17.0372972045
  0
LINE
  5
524
100
AcDbEntity
  8
0
100
AcDbLine
 62
7
  6
CONTINUOUS
 10
16.0142545374
 20
17.5018641336
 11
15.9985065059
 21
17.4861161021
  0
LINE
  5
525
100
AcDbEntity
  8
0
100
AcDbLine
 62
7
  6
CONTINUOUS
 10
16.0142545374
 20
17.0648562596
 11
15.9985065059
 21
17.0806042911
  0
LINE
  5
526
100
AcDbEntity
  8
0
100
AcDbLine
 62
7
  6
CONTINUOUS
 10
15.4670104429
 20
17.5018641336
 11
15.4748844587
 21
17.4861161021
  0
LINE
  5
527
100
AcDbEntity
  8
0
100
AcDbLine
 62
7
  6
CONTINUOUS
 10
15.4670104429
 20
17.5018641336
 11
15.4670104429
 21
17.0648562596
  0
LINE
  5
528
100
AcDbEntity
  8
0
100
AcDbLine
 62
7
  6
CONTINUOUS
 10
15.4748844587
 20
17.4861161021
 11
15.4748844587
 21
17.0806042911
  0
LINE
  5
529
100
AcDbEntity
  8
0
100
AcDbLine
 62
7
  6
CONTINUOUS
 10
15.526065561
 20
17.0806042911
 11
15.526065561
 21
17.4861161021
  0
LINE
  5
52A
100
AcDbEntity
  8
0
100
AcDbLine
 62
7
  6
CONTINUOUS
 10
15.5418135925
 20
17.0648562596
 11
15.5418135925
 21
17.5018641336
  0
LINE
  5
52B
100
AcDbEntity
  8
0
100
AcDbLine
 62
7
  6
CONTINUOUS
 10
15.5674041437
 20
17.0372972045
 11
15.5674041437
 21
17.5294231888
  0
LINE
  5
52C
100
AcDbEntity
  8
0
100
AcDbLine
 62
7
  6
CONTINUOUS
 10
15.5792151673
 20
17.0254861809
 11
15.5792151673
 21
17.5412342124
  0
LINE
  5
52D
100
AcDbEntity
  8
0
100
AcDbLine
 62
7
  6
CONTINUOUS
 10
15.4670104429
 20
17.0648562596
 11
15.4748844587
 21
17.0806042911
  0
LINE
  5
52E
100
AcDbEntity
  8
0
100
AcDbLine
 62
7
  6
CONTINUOUS
 10
15.8264592618
 20
17.5412342124
 11
15.8264592618
 21
17.0254861809
  0
LINE
  5
52F
100
AcDbEntity
  8
0
100
AcDbLine
 62
7
  6
CONTINUOUS
 10
15.8382702854
 20
17.5294231888
 11
15.8382702854
 21
17.0372972045
  0
LINE
  5
530
100
AcDbEntity
  8
0
100
AcDbLine
 62
7
  6
CONTINUOUS
 10
15.9394513878
 20
17.5018641336
 11
15.9394513878
 21
17.0648562596
  0
LINE
  5
531
100
AcDbEntity
  8
0
100
AcDbLine
 62
7
  6
CONTINUOUS
 10
15.9473254035
 20
17.4861161021
 11
15.9473254035
 21
17.0806042911
  0
LINE
  5
532
100
AcDbEntity
  8
0
100
AcDbLine
 62
7
  6
CONTINUOUS
 10
15.9985065059
 20
17.0806042911
 11
15.9985065059
 21
17.4861161021
  0
LINE
  5
533
100
AcDbEntity
  8
0
100
AcDbLine
 62
7
  6
CONTINUOUS
 10
16.0142545374
 20
17.0648562596
 11
16.0142545374
 21
17.5018641336
  0
LINE
  5
534
100
AcDbEntity
  8
0
100
AcDbLine
 62
7
  6
CONTINUOUS
 10
15.9394513878
 20
17.0648562596
 11
15.9473254035
 21
17.0806042911
  0
LINE
  5
535
100
AcDbEntity
  8
0
100
AcDbLine
 62
7
  6
CONTINUOUS
 10
15.9394513878
 20
17.5018641336
 11
15.9473254035
 21
17.4861161021
  0
LINE
  5
536
100
AcDbEntity
  8
0
100
AcDbLine
 62
7
  6
CONTINUOUS
 10
16.0398450886
 20
17.0372972045
 11
16.0398450886
 21
17.5294231888
  0
LINE
  5
537
100
AcDbEntity
  8
0
100
AcDbLine
 62
7
  6
CONTINUOUS
 10
16.0516561122
 20
17.0254861809
 11
16.0516561122
 21
17.5412342124
  0
LINE
  5
538
100
AcDbEntity
  8
7_ALL_ROUNDS
100
AcDbLine
 62
7
  6
CONTINUOUS
 10
16.7363017815
 20
17.8246987793
 11
16.7363017815
 21
17.7853287006
  0
LINE
  5
539
100
AcDbEntity
  8
0
100
AcDbLine
 62
7
  6
CONTINUOUS
 10
16.7441757972
 20
17.8246987793
 11
16.7441757972
 21
17.7853287006
  0
LINE
  5
53A
100
AcDbEntity
  8
0
100
AcDbLine
 62
7
  6
CONTINUOUS
 10
17.9016561122
 20
17.8246987793
 11
17.9016561122
 21
17.7853287006
  0
LINE
  5
53B
100
AcDbEntity
  8
7_ALL_ROUNDS
100
AcDbLine
 62
7
  6
CONTINUOUS
 10
17.9016561122
 20
16.8404468108
 11
17.9016561122
 21
17.2538326376
  0
LINE
  5
53C
100
AcDbEntity
  8
7_ALL_ROUNDS
100
AcDbLine
 62
7
  6
CONTINUOUS
 10
17.9410261909
 20
17.7853287006
 11
17.9410261909
 21
17.1357224014
  0
LINE
  5
53D
100
AcDbEntity
  8
7_ALL_ROUNDS
100
AcDbLine
 62
9
  6
CONTINUOUS
 10
18.3740970571
 20
17.7853287006
 11
18.3740970571
 21
17.8246987793
  0
LINE
  5
53E
100
AcDbEntity
  8
7_ALL_ROUNDS
100
AcDbLine
 62
7
  6
CONTINUOUS
 10
18.4922072933
 20
17.7853287006
 11
18.4922072933
 21
17.8246987793
  0
LINE
  5
53F
100
AcDbEntity
  8
7_ALL_ROUNDS
100
AcDbLine
 62
7
  6
CONTINUOUS
 10
24.0143868464
 20
16.6853257235
 11
24.0143868464
 21
16.6531843986
  0
LINE
  5
540
100
AcDbEntity
  8
7_ALL_ROUNDS
100
AcDbLine
 62
9
  6
CONTINUOUS
 10
24.0489805336
 20
16.6370947943
 11
24.0489805336
 21
16.6049534695
  0
LINE
  5
541
100
AcDbEntity
  8
7_ALL_ROUNDS
100
AcDbLine
 62
7
  6
CONTINUOUS
 10
24.3552078798
 20
16.8941559392
 11
24.3552078798
 21
16.4602480541
  0
LINE
  5
542
100
AcDbEntity
  8
7_ALL_ROUNDS
100
AcDbLine
 62
7
  6
CONTINUOUS
 10
24.3830467295
 20
17.2155628733
 11
24.3830467295
 21
16.8780789628
  0
LINE
  5
543
100
AcDbEntity
  8
0
100
AcDbLine
 62
7
  6
CONTINUOUS
 10
24.3830467295
 20
16.4441710778
 11
24.3830467295
 21
16.4120297529
  0
LINE
  5
544
100
AcDbEntity
  8
0
100
AcDbLine
 62
7
  6
CONTINUOUS
 10
26.74934895
 20
18.5821058657
 11
24.3830467295
 21
17.2155628733
  0
LINE
  5
545
100
AcDbEntity
  8
0
100
AcDbLine
 62
7
  6
CONTINUOUS
 10
25.3267837327
 20
16.5082396837
 11
25.3267837327
 21
16.0566540701
  0
LINE
  5
546
100
AcDbEntity
  8
0
100
AcDbLine
 62
7
  6
CONTINUOUS
 10
25.3323515026
 20
16.0598669398
 11
25.3323515026
 21
16.495381891
  0
LINE
  5
547
100
AcDbEntity
  8
0
100
AcDbLine
 62
7
  6
CONTINUOUS
 10
25.3810694895
 20
16.43831999
 11
25.3810694895
 21
16.3740373404
  0
LINE
  5
548
100
AcDbEntity
  8
0
100
AcDbLine
 62
7
  6
CONTINUOUS
 10
25.4019486268
 20
16.3619796081
 11
25.4019486268
 21
16.1115986878
  0
LINE
  5
549
100
AcDbEntity
  8
0
100
AcDbLine
 62
7
  6
CONTINUOUS
 10
25.54392676
 20
16.3442696782
 11
25.54392676
 21
16.1935912673
  0
LINE
  5
54A
100
AcDbEntity
  8
7_ALL_ROUNDS
100
AcDbLine
 62
7
  6
CONTINUOUS
 10
24.3574367529
 20
16.9116905702
 11
24.0489805336
 21
16.7335566526
  0
LINE
  5
54B
100
AcDbEntity
  8
0
100
AcDbLine
 62
7
  6
CONTINUOUS
 10
25.7220953978
 20
15.9267134594
 11
25.7220953978
 21
16.1770943797
  0
LINE
  5
54C
100
AcDbEntity
  8
0
100
AcDbLine
 62
7
  6
CONTINUOUS
 10
25.742974535
 20
16.1650366474
 11
25.742974535
 21
16.2293192971
  0
LINE
  5
54D
100
AcDbEntity
  8
0
100
AcDbLine
 62
7
  6
CONTINUOUS
 10
25.7916925219
 20
16.2301117807
 11
25.7916925219
 21
15.7945968295
  0
LINE
  5
54E
100
AcDbEntity
  8
0
100
AcDbLine
 62
7
  6
CONTINUOUS
 10
25.7972602918
 20
15.7849531692
 11
25.7972602918
 21
16.2365387829
  0
LINE
  5
54F
100
AcDbEntity
  8
0
100
AcDbLine
 62
7
  6
CONTINUOUS
 10
24.3830467295
 20
16.4308614029
 11
24.3748967851
 21
16.426154798
  0
LINE
  5
550
100
AcDbEntity
  8
0
100
AcDbLine
 62
7
  6
CONTINUOUS
 10
25.9253190003
 20
16.1609776253
 11
25.9253190003
 21
15.7109990779
  0
LINE
  5
551
100
AcDbEntity
  8
0
100
AcDbLine
 62
7
  6
CONTINUOUS
 10
25.9308867702
 20
15.7142119476
 11
25.9308867702
 21
16.1481198326
  0
LINE
  5
552
100
AcDbEntity
  8
0
100
AcDbLine
 62
7
  6
CONTINUOUS
 10
25.9977000094
 20
15.9970404524
 11
25.9977000094
 21
15.7816935762
  0
LINE
  5
553
100
AcDbEntity
  8
0
100
AcDbLine
 62
7
  6
CONTINUOUS
 10
26.0700810184
 20
16.0130946985
 11
26.0700810184
 21
15.9552403138
  0
LINE
  5
554
100
AcDbEntity
  8
0
100
AcDbLine
 62
7
  6
CONTINUOUS
 10
26.1076634655
 20
16.0187109065
 11
26.1076634655
 21
15.9913907804
  0
LINE
  5
555
100
AcDbEntity
  8
0
100
AcDbLine
 62
7
  6
CONTINUOUS
 10
26.2190188641
 20
15.9270828749
 11
26.2190188641
 21
15.954403001
  0
LINE
  5
556
100
AcDbEntity
  8
0
100
AcDbLine
 62
7
  6
CONTINUOUS
 10
26.2566013111
 20
15.8475245721
 11
26.2566013111
 21
15.9053789568
  0
LINE
  5
557
100
AcDbEntity
  8
0
100
AcDbLine
 62
7
  6
CONTINUOUS
 10
26.3289823202
 20
15.5903775572
 11
26.3289823202
 21
15.8057244335
  0
LINE
  5
558
100
AcDbEntity
  8
0
100
AcDbLine
 62
7
  6
CONTINUOUS
 10
26.3957955594
 20
15.8796343271
 11
26.3957955594
 21
15.445726442
  0
LINE
  5
559
100
AcDbEntity
  8
0
100
AcDbLine
 62
7
  6
CONTINUOUS
 10
26.4013633293
 20
15.4360827818
 11
26.4013633293
 21
15.8860613292
  0
LINE
  5
55A
100
AcDbEntity
  8
7_ALL_ROUNDS
100
AcDbLine
 62
7
  6
CONTINUOUS
 10
26.5294220377
 20
15.532477712
 11
26.5294220377
 21
15.4639937839
  0
LINE
  5
55B
100
AcDbEntity
  8
0
100
AcDbLine
 62
7
  6
CONTINUOUS
 10
25.3323515026
 20
16.495381891
 11
25.3406998776
 21
16.5002030897
  0
LINE
  5
55C
100
AcDbEntity
  8
0
100
AcDbLine
 62
7
  6
CONTINUOUS
 10
25.3810694895
 20
16.3740373404
 11
25.4367253223
 21
16.4061786652
  0
LINE
  5
55D
100
AcDbEntity
  8
0
100
AcDbLine
 62
7
  6
CONTINUOUS
 10
25.4019486268
 20
16.3619796081
 11
25.4576044596
 21
16.3941209329
  0
LINE
  5
55E
100
AcDbEntity
  8
7_ALL_ROUNDS
100
AcDbLine
 62
7
  6
CONTINUOUS
 10
26.5656125423
 20
15.5469469907
 11
26.5656125423
 21
15.4784630626
  0
LINE
  5
55F
100
AcDbEntity
  8
7_ALL_ROUNDS
100
AcDbLine
 62
7
  6
CONTINUOUS
 10
26.5795319671
 20
15.4704245744
 11
26.5795319671
 21
15.5389085025
  0
LINE
  5
560
100
AcDbEntity
  8
0
100
AcDbLine
 62
7
  6
CONTINUOUS
 10
26.6894954232
 20
15.4786046876
 11
26.6894954232
 21
15.4696442632
  0
LINE
  5
561
100
AcDbEntity
  8
0
100
AcDbLine
 62
7
  6
CONTINUOUS
 10
25.4019486268
 20
16.1115986878
 11
25.54392676
 21
16.1935912673
  0
LINE
  5
562
100
AcDbEntity
  8
0
100
AcDbLine
 62
7
  6
CONTINUOUS
 10
25.3267837327
 20
16.0566540701
 11
25.3323504089
 21
16.0598688337
  0
LINE
  5
563
100
AcDbEntity
  8
0
100
AcDbLine
 62
7
  6
CONTINUOUS
 10
25.7916925219
 20
16.2301117807
 11
25.7972602918
 21
16.233327176
  0
LINE
  5
564
100
AcDbEntity
  8
0
100
AcDbLine
 62
7
  6
CONTINUOUS
 10
25.7220953978
 20
16.1770943797
 11
25.742974535
 21
16.189152112
  0
LINE
  5
565
100
AcDbEntity
  8
0
100
AcDbLine
 62
7
  6
CONTINUOUS
 10
25.9308867702
 20
16.1481198326
 11
25.9392351451
 21
16.1529410313
  0
LINE
  5
566
100
AcDbEntity
  8
7_ALL_ROUNDS
100
AcDbLine
 62
7
  6
CONTINUOUS
 10
24.0489805336
 20
16.6049534695
 11
24.3552078798
 21
16.4281067293
  0
LINE
  5
567
100
AcDbEntity
  8
0
100
AcDbLine
 62
7
  6
CONTINUOUS
 10
24.3830467295
 20
16.4120297529
 11
29.4831239859
 21
13.4667276801
  0
LINE
  5
568
100
AcDbEntity
  8
7_ALL_ROUNDS
100
AcDbLine
 62
7
  6
CONTINUOUS
 10
29.5109628356
 20
13.4506507037
 11
29.8171901817
 21
13.2738039635
  0
LINE
  5
569
100
AcDbEntity
  8
7_ALL_ROUNDS
100
AcDbLine
 62
7
  6
CONTINUOUS
 10
29.8171901817
 20
13.3059452883
 11
29.5109628356
 21
13.4827920285
  0
LINE
  5
56A
100
AcDbEntity
  8
7_ALL_ROUNDS
100
AcDbLine
 62
7
  6
CONTINUOUS
 10
24.3552078798
 20
16.4602480541
 11
24.0489805336
 21
16.6370947943
  0
LINE
  5
56B
100
AcDbEntity
  8
0
100
AcDbLine
 62
7
  6
CONTINUOUS
 10
28.3311523873
 20
14.3184126466
 11
28.6306984095
 21
14.1454243808
  0
LINE
  5
56C
100
AcDbEntity
  8
0
100
AcDbLine
 62
7
  6
CONTINUOUS
 10
25.3267837327
 20
16.0566540701
 11
25.7972602918
 21
15.7849531692
  0
LINE
  5
56D
100
AcDbEntity
  8
0
100
AcDbLine
 62
7
  6
CONTINUOUS
 10
25.9253190003
 20
15.7109990779
 11
26.4013633293
 21
15.4360827818
  0
LINE
  5
56E
100
AcDbEntity
  8
0
100
AcDbLine
 62
7
  6
CONTINUOUS
 10
27.4865216888
 20
14.8094022425
 11
27.9664634568
 21
14.5322351697
  0
LINE
  5
56F
100
AcDbEntity
  8
0
100
AcDbLine
 62
7
  6
CONTINUOUS
 10
28.6223467546
 20
14.1598898711
 11
28.3395040422
 21
14.3232319512
  0
LINE
  5
570
100
AcDbEntity
  8
0
100
AcDbLine
 62
7
  6
CONTINUOUS
 10
26.3957955594
 20
15.445726442
 11
25.9308867702
 21
15.7142119476
  0
LINE
  5
571
100
AcDbEntity
  8
0
100
AcDbLine
 62
7
  6
CONTINUOUS
 10
25.7916925219
 20
15.7945968295
 11
25.3323515026
 21
16.0598669398
  0
LINE
  5
572
100
AcDbEntity
  8
0
100
AcDbLine
 62
7
  6
CONTINUOUS
 10
27.4920894587
 20
14.8126151122
 11
27.9608956869
 21
14.5418788299
  0
LINE
  5
573
100
AcDbEntity
  8
7_ALL_ROUNDS
100
AcDbLine
 62
7
  6
CONTINUOUS
 10
26.5852643802
 20
15.4363940939
 11
26.5913064692
 21
15.430758351
  0
LINE
  5
574
100
AcDbEntity
  8
7_ALL_ROUNDS
100
AcDbLine
 62
7
  6
CONTINUOUS
 10
26.6029165554
 20
15.4367432764
 11
26.5893578861
 21
15.4493900901
  0
LINE
  5
575
100
AcDbEntity
  8
7_ALL_ROUNDS
100
AcDbLine
 62
7
  6
CONTINUOUS
 10
26.5421516072
 20
15.4263487318
 11
26.592290295
 21
15.3517757913
  0
LINE
  5
576
100
AcDbEntity
  8
7_ALL_ROUNDS
100
AcDbLine
 62
7
  6
CONTINUOUS
 10
26.6040184582
 20
15.413930611
 11
26.622691079
 21
15.3786488934
  0
LINE
  5
577
100
AcDbEntity
  8
7_ALL_ROUNDS
100
AcDbLine
 62
7
  6
CONTINUOUS
 10
26.6331405794
 20
15.3832310196
 11
26.6092725499
 21
15.4283294064
  0
LINE
  5
578
100
AcDbEntity
  8
7_ALL_ROUNDS
100
AcDbLine
 62
7
  6
CONTINUOUS
 10
26.9581403224
 20
15.2164083476
 11
26.9581403224
 21
15.2848922757
  0
LINE
  5
579
100
AcDbEntity
  8
0
100
AcDbLine
 62
7
  6
CONTINUOUS
 10
26.1076634655
 20
15.9913907804
 11
26.1313171944
 21
16.0050508434
  0
LINE
  5
57A
100
AcDbEntity
  8
0
100
AcDbLine
 62
7
  6
CONTINUOUS
 10
25.7916925219
 20
15.7945968295
 11
25.7972602918
 21
15.7978122248
  0
LINE
  5
57B
100
AcDbEntity
  8
0
100
AcDbLine
 62
7
  6
CONTINUOUS
 10
26.0700810184
 20
15.9552403138
 11
26.1438249969
 21
15.9978275692
  0
LINE
  5
57C
100
AcDbEntity
  8
0
100
AcDbLine
 62
7
  6
CONTINUOUS
 10
25.9977000094
 20
15.7816935762
 11
26.2342372987
 21
15.9182942066
  0
LINE
  5
57D
100
AcDbEntity
  8
0
100
AcDbLine
 62
7
  6
CONTINUOUS
 10
27.9113587464
 20
14.7412557781
 11
27.923291753
 21
14.7418712537
  0
LINE
  5
57E
100
AcDbEntity
  8
0
100
AcDbLine
 62
7
  6
CONTINUOUS
 10
27.7699373901
 20
14.8229268181
 11
27.7818703968
 21
14.8235422937
  0
LINE
  5
57F
100
AcDbEntity
  8
0
100
AcDbLine
 62
7
  6
CONTINUOUS
 10
27.6285160339
 20
14.9045978581
 11
27.6404490405
 21
14.9052133337
  0
LINE
  5
580
100
AcDbEntity
  8
7_ALL_ROUNDS
100
AcDbLine
 62
7
  6
CONTINUOUS
 10
26.6129673451
 20
15.3315588819
 11
26.874595015
 21
15.18046852
  0
LINE
  5
581
100
AcDbEntity
  8
0
100
AcDbLine
 62
7
  6
CONTINUOUS
 10
28.3548154095
 20
14.3368886145
 11
28.4500243739
 21
14.2819052983
  0
LINE
  5
582
100
AcDbEntity
  8
0
100
AcDbLine
 62
7
  6
CONTINUOUS
 10
28.5118264229
 20
14.2462145247
 11
28.6070353873
 21
14.1912312085
  0
LINE
  5
583
100
AcDbEntity
  8
7_ALL_ROUNDS
100
AcDbLine
 62
7
  6
CONTINUOUS
 10
26.6435900797
 20
15.3556718209
 11
26.9052177496
 21
15.204581459
  0
LINE
  5
584
100
AcDbEntity
  8
0
100
AcDbLine
 62
7
  6
CONTINUOUS
 10
27.948646593
 20
14.6047178981
 11
27.9361049057
 21
14.6119607409
  0
LINE
  5
585
100
AcDbEntity
  8
0
100
AcDbLine
 62
7
  6
CONTINUOUS
 10
27.7997229524
 20
14.6907215183
 11
27.7946835495
 21
14.6936317809
  0
LINE
  5
586
100
AcDbEntity
  8
0
100
AcDbLine
 62
7
  6
CONTINUOUS
 10
27.6583015961
 20
14.7723925584
 11
27.6532621932
 21
14.7753028209
  0
LINE
  5
587
100
AcDbEntity
  8
0
100
AcDbLine
 62
7
  6
CONTINUOUS
 10
27.5168802399
 20
14.8540635984
 11
27.5043385526
 21
14.8613064411
  0
LINE
  5
588
100
AcDbEntity
  8
0
100
AcDbLine
 62
7
  6
CONTINUOUS
 10
28.6070353873
 20
14.2265865928
 11
28.5914457302
 21
14.2355896426
  0
LINE
  5
589
100
AcDbEntity
  8
0
100
AcDbLine
 62
7
  6
CONTINUOUS
 10
28.3704050666
 20
14.363240949
 11
28.3548154095
 21
14.3722439988
  0
LINE
  5
58A
100
AcDbEntity
  8
7_ALL_ROUNDS
100
AcDbLine
 62
7
  6
CONTINUOUS
 10
26.9052177496
 20
15.2206521214
 11
26.6435900797
 21
15.3717424833
  0
LINE
  5
58B
100
AcDbEntity
  8
0
100
AcDbLine
 62
7
  6
CONTINUOUS
 10
25.4019486268
 20
16.1115986878
 11
25.7220953978
 21
15.9267134594
  0
LINE
  5
58C
100
AcDbEntity
  8
0
100
AcDbLine
 62
7
  6
CONTINUOUS
 10
25.9977000094
 20
15.7816935762
 11
26.3289823202
 21
15.5903775572
  0
LINE
  5
58D
100
AcDbEntity
  8
0
100
AcDbLine
 62
7
  6
CONTINUOUS
 10
28.5914457302
 20
14.3416560145
 11
28.5711232713
 21
14.3533922642
  0
LINE
  5
58E
100
AcDbEntity
  8
0
100
AcDbLine
 62
7
  6
CONTINUOUS
 10
28.5321488818
 20
14.3759000312
 11
28.5118264229
 21
14.3876362809
  0
LINE
  5
58F
100
AcDbEntity
  8
0
100
AcDbLine
 62
7
  6
CONTINUOUS
 10
28.4500243739
 20
14.4233270545
 11
28.429701915
 21
14.4350633042
  0
LINE
  5
590
100
AcDbEntity
  8
0
100
AcDbLine
 62
7
  6
CONTINUOUS
 10
28.3907275255
 20
14.4575710712
 11
28.3704050666
 21
14.4693073209
  0
LINE
  5
591
100
AcDbEntity
  8
0
100
AcDbLine
 62
7
  6
CONTINUOUS
 10
28.376906704
 20
14.4880515432
 11
28.3907275255
 21
14.4800699986
  0
LINE
  5
592
100
AcDbEntity
  8
0
100
AcDbLine
 62
7
  6
CONTINUOUS
 10
28.429701915
 20
14.4575622316
 11
28.4435227366
 21
14.449580687
  0
LINE
  5
593
100
AcDbEntity
  8
0
100
AcDbLine
 62
7
  6
CONTINUOUS
 10
28.5183280602
 20
14.4063805032
 11
28.5321488818
 21
14.3983989586
  0
LINE
  5
594
100
AcDbEntity
  8
0
100
AcDbLine
 62
7
  6
CONTINUOUS
 10
28.5711232713
 20
14.3758911916
 11
28.5849440928
 21
14.367909647
  0
LINE
  5
595
100
AcDbEntity
  8
0
100
AcDbLine
 62
7
  6
CONTINUOUS
 10
26.6894954232
 20
15.4696442632
 11
26.9453272173
 21
15.3219010281
  0
LINE
  5
596
100
AcDbEntity
  8
7_ALL_ROUNDS
100
AcDbLine
 62
7
  6
CONTINUOUS
 10
26.9247337028
 20
15.3427542372
 11
26.5628286573
 21
15.5517549301
  0
LINE
  5
597
100
AcDbEntity
  8
0
100
AcDbLine
 62
7
  6
CONTINUOUS
 10
28.5910236004
 20
14.3836835173
 11
28.5122485526
 21
14.4291762226
  0
LINE
  5
598
100
AcDbEntity
  8
0
100
AcDbLine
 62
7
  6
CONTINUOUS
 10
28.4496022442
 20
14.4653545573
 11
28.3708271964
 21
14.5108472626
  0
LINE
  5
599
100
AcDbEntity
  8
0
100
AcDbLine
 62
7
  6
CONTINUOUS
 10
28.3395040422
 20
14.5482212249
 11
28.6223467546
 21
14.3848791449
  0
LINE
  5
59A
100
AcDbEntity
  8
0
100
AcDbLine
 62
7
  6
CONTINUOUS
 10
27.5043385526
 20
15.0380837276
 11
27.948646593
 21
14.7814951846
  0
LINE
  5
59B
100
AcDbEntity
  8
0
100
AcDbLine
 62
7
  6
CONTINUOUS
 10
28.6306984095
 20
14.3961267144
 11
28.3311523873
 21
14.5691149802
  0
LINE
  5
59C
100
AcDbEntity
  8
0
100
AcDbLine
 62
7
  6
CONTINUOUS
 10
25.54392676
 20
16.1935912673
 11
25.7220953978
 21
16.0906986185
  0
LINE
  5
59D
100
AcDbEntity
  8
7_ALL_ROUNDS
100
AcDbLine
 62
9
  6
CONTINUOUS
 10
29.5109628356
 20
13.9166999136
 11
29.4831239859
 21
13.9327768899
  0
LINE
  5
59E
100
AcDbEntity
  8
7_ALL_ROUNDS
100
AcDbLine
 62
9
  6
CONTINUOUS
 10
24.3830467295
 20
16.8780789628
 11
24.3552078798
 21
16.8941559392
  0
LINE
  5
59F
100
AcDbEntity
  8
0
100
AcDbLine
 62
7
  6
CONTINUOUS
 10
27.9608956869
 20
14.8141158511
 11
27.4920894587
 21
15.0848521334
  0
LINE
  5
5A0
100
AcDbEntity
  8
0
100
AcDbLine
 62
7
  6
CONTINUOUS
 10
27.9664634568
 20
14.8173287208
 11
27.8556648352
 21
14.8813150868
  0
LINE
  5
5A1
100
AcDbEntity
  8
0
100
AcDbLine
 62
7
  6
CONTINUOUS
 10
27.7832838261
 20
14.9231152254
 11
27.6697013195
 21
14.988709289
  0
LINE
  5
5A2
100
AcDbEntity
  8
0
100
AcDbLine
 62
7
  6
CONTINUOUS
 10
27.5973203104
 20
15.0305094276
 11
27.4865216888
 21
15.0944957936
  0
LINE
  5
5A3
100
AcDbEntity
  8
0
100
AcDbLine
 62
7
  6
CONTINUOUS
 10
26.3289823202
 20
15.8057244335
 11
26.2566013111
 21
15.8475245721
  0
LINE
  5
5A4
100
AcDbEntity
  8
0
100
AcDbLine
 62
7
  6
CONTINUOUS
 10
26.0700810184
 20
15.9552403138
 11
25.9977000094
 21
15.9970404524
  0
LINE
  5
5A5
100
AcDbEntity
  8
0
100
AcDbLine
 62
7
  6
CONTINUOUS
 10
25.3810694895
 20
16.3740373404
 11
25.4019486268
 21
16.3619796081
  0
LINE
  5
5A6
100
AcDbEntity
  8
0
100
AcDbLine
 62
7
  6
CONTINUOUS
 10
25.7220953978
 20
16.1770943797
 11
25.742974535
 21
16.1650366474
  0
LINE
  5
5A7
100
AcDbEntity
  8
0
100
AcDbLine
 62
7
  6
CONTINUOUS
 10
26.2566013111
 20
15.9053789568
 11
26.2190188641
 21
15.9270828749
  0
LINE
  5
5A8
100
AcDbEntity
  8
0
100
AcDbLine
 62
7
  6
CONTINUOUS
 10
26.1076634655
 20
15.9913907804
 11
26.0700810184
 21
16.0130946985
  0
LINE
  5
5A9
100
AcDbEntity
  8
0
100
AcDbLine
 62
7
  6
CONTINUOUS
 10
27.8556648352
 20
14.9894116517
 11
27.7832838261
 21
15.0312117903
  0
LINE
  5
5AA
100
AcDbEntity
  8
0
100
AcDbLine
 62
7
  6
CONTINUOUS
 10
27.6697013195
 20
15.0968058539
 11
27.5973203104
 21
15.1386059925
  0
LINE
  5
5AB
100
AcDbEntity
  8
0
100
AcDbLine
 62
7
  6
CONTINUOUS
 10
27.4865216888
 20
15.0944957936
 11
27.4865216888
 21
14.8094022425
  0
LINE
  5
5AC
100
AcDbEntity
  8
0
100
AcDbLine
 62
7
  6
CONTINUOUS
 10
27.4920894587
 20
15.0848521334
 11
27.4920894587
 21
14.8126151122
  0
LINE
  5
5AD
100
AcDbEntity
  8
0
100
AcDbLine
 62
7
  6
CONTINUOUS
 10
27.5043385526
 20
14.8613064411
 11
27.5043385526
 21
15.0380837276
  0
LINE
  5
5AE
100
AcDbEntity
  8
0
100
AcDbLine
 62
7
  6
CONTINUOUS
 10
25.9253190003
 20
15.7109990779
 11
25.9308856764
 21
15.7142138415
  0
LINE
  5
5AF
100
AcDbEntity
  8
0
100
AcDbLine
 62
7
  6
CONTINUOUS
 10
26.3957955594
 20
15.8796343271
 11
26.4013633293
 21
15.8828497223
  0
LINE
  5
5B0
100
AcDbEntity
  8
7_ALL_ROUNDS
100
AcDbLine
 62
7
  6
CONTINUOUS
 10
26.9581403224
 20
15.2359524564
 11
26.945891274
 21
15.238674875
  0
LINE
  5
5B1
100
AcDbEntity
  8
0
100
AcDbLine
 62
7
  6
CONTINUOUS
 10
26.2190188641
 20
15.954403001
 11
26.1076634655
 21
16.0187109065
  0
LINE
  5
5B2
100
AcDbEntity
  8
0
100
AcDbLine
 62
7
  6
CONTINUOUS
 10
25.742974535
 20
16.2293192971
 11
25.3810694895
 21
16.43831999
  0
LINE
  5
5B3
100
AcDbEntity
  8
0
100
AcDbLine
 62
7
  6
CONTINUOUS
 10
25.9308867702
 20
16.1481198326
 11
26.3957955594
 21
15.8796343271
  0
LINE
  5
5B4
100
AcDbEntity
  8
0
100
AcDbLine
 62
7
  6
CONTINUOUS
 10
25.3323515026
 20
16.495381891
 11
25.7916925219
 21
16.2301117807
  0
LINE
  5
5B5
100
AcDbEntity
  8
0
100
AcDbLine
 62
7
  6
CONTINUOUS
 10
26.4013633293
 20
15.8860613292
 11
25.9253190003
 21
16.1609776253
  0
LINE
  5
5B6
100
AcDbEntity
  8
0
100
AcDbLine
 62
7
  6
CONTINUOUS
 10
25.7972602918
 20
16.2365387829
 11
25.3267837327
 21
16.5082396837
  0
LINE
  5
5B7
100
AcDbEntity
  8
7_ALL_ROUNDS
100
AcDbLine
 62
9
  6
CONTINUOUS
 10
29.5944793845
 20
14.0613548171
 11
29.5666405349
 21
14.0774317935
  0
LINE
  5
5B8
100
AcDbEntity
  8
0
100
AcDbLine
 62
7
  6
CONTINUOUS
 10
29.4831239859
 20
14.2702608005
 11
24.3830467295
 21
17.2155628733
  0
LINE
  5
5B9
100
AcDbEntity
  8
7_ALL_ROUNDS
100
AcDbLine
 62
9
  6
CONTINUOUS
 10
30.1234175279
 20
14.0132627954
 11
30.0955786783
 21
14.0293397718
  0
LINE
  5
5BA
100
AcDbEntity
  8
7_ALL_ROUNDS
100
AcDbLine
 62
7
  6
CONTINUOUS
 10
30.045752115
 20
14.0700409318
 11
30.0589847528
 21
14.0623990642
  0
LINE
  5
5BB
100
AcDbEntity
  8
7_ALL_ROUNDS
100
AcDbLine
 62
9
  6
CONTINUOUS
 10
30.0955786783
 20
14.0614810966
 11
30.0917487772
 21
14.06369287
  0
LINE
  5
5BC
100
AcDbEntity
  8
7_ALL_ROUNDS
100
AcDbLine
 62
9
  6
CONTINUOUS
 10
30.039900979
 20
14.1000393212
 11
30.0426848639
 21
14.0984316236
  0
LINE
  5
5BD
100
AcDbEntity
  8
0
100
AcDbLine
 62
7
  6
CONTINUOUS
 10
27.5973203104
 20
15.1386059925
 11
27.5973203104
 21
15.0305094276
  0
LINE
  5
5BE
100
AcDbEntity
  8
0
100
AcDbLine
 62
7
  6
CONTINUOUS
 10
27.6697013195
 20
14.988709289
 11
27.6697013195
 21
15.0968058539
  0
LINE
  5
5BF
100
AcDbEntity
  8
0
100
AcDbLine
 62
7
  6
CONTINUOUS
 10
27.7832838261
 20
15.0312117903
 11
27.7832838261
 21
14.9231152254
  0
LINE
  5
5C0
100
AcDbEntity
  8
7_ALL_ROUNDS
100
AcDbLine
 62
9
  6
CONTINUOUS
 10
26.5294220377
 20
15.532477712
 11
26.5628220948
 21
15.5517662938
  0
LINE
  5
5C1
100
AcDbEntity
  8
0
100
AcDbLine
 62
7
  6
CONTINUOUS
 10
26.3957955594
 20
15.445726442
 11
26.4013633293
 21
15.4489418373
  0
LINE
  5
5C2
100
AcDbEntity
  8
7_ALL_ROUNDS
100
AcDbLine
 62
9
  6
CONTINUOUS
 10
26.5823027322
 20
15.5405086234
 11
26.5795319671
 21
15.5389085025
  0
LINE
  5
5C3
100
AcDbEntity
  8
7_ALL_ROUNDS
100
AcDbLine
 62
9
  6
CONTINUOUS
 10
26.5294220377
 20
15.4639937839
 11
26.5656125423
 21
15.4848938532
  0
LINE
  5
5C4
100
AcDbEntity
  8
7_ALL_ROUNDS
100
AcDbLine
 62
9
  6
CONTINUOUS
 10
26.6415960263
 20
15.5062666593
 11
26.5795319671
 21
15.4704245744
  0
LINE
  5
5C5
100
AcDbEntity
  8
7_ALL_ROUNDS
100
AcDbLine
 62
9
  6
CONTINUOUS
 10
26.5421516072
 20
15.4263487318
 11
26.5768210107
 21
15.446370363
  0
LINE
  5
5C6
100
AcDbEntity
  8
7_ALL_ROUNDS
100
AcDbLine
 62
9
  6
CONTINUOUS
 10
26.6647206144
 20
15.4929121759
 11
26.5893578861
 21
15.4493900901
  0
LINE
  5
5C7
100
AcDbEntity
  8
7_ALL_ROUNDS
100
AcDbLine
 62
9
  6
CONTINUOUS
 10
26.6029165554
 20
15.4367432764
 11
26.6824495435
 21
15.4826736934
  0
LINE
  5
5C8
100
AcDbEntity
  8
7_ALL_ROUNDS
100
AcDbLine
 62
9
  6
CONTINUOUS
 10
26.6092725499
 20
15.4283294064
 11
26.6894954232
 21
15.4746582331
  0
LINE
  5
5C9
100
AcDbEntity
  8
7_ALL_ROUNDS
100
AcDbLine
 62
9
  6
CONTINUOUS
 10
29.95638443
 20
14.2703555101
 11
29.9285455804
 21
14.2864324865
  0
LINE
  5
5CA
100
AcDbEntity
  8
7_ALL_ROUNDS
100
AcDbLine
 62
7
  6
CONTINUOUS
 10
30.0154511457
 20
14.2762113039
 11
29.9876122961
 21
14.2922882803
  0
LINE
  5
5CB
100
AcDbEntity
  8
7_ALL_ROUNDS
100
AcDbLine
 62
9
  6
CONTINUOUS
 10
30.0399015258
 20
14.2864586893
 11
30.0426848639
 21
14.2848513075
  0
LINE
  5
5CC
100
AcDbEntity
  8
7_ALL_ROUNDS
100
AcDbLine
 62
9
  6
CONTINUOUS
 10
30.0955792252
 20
14.3828952917
 11
30.0983625632
 21
14.3812879099
  0
LINE
  5
5CD
100
AcDbEntity
  8
0
100
AcDbLine
 62
7
  6
CONTINUOUS
 10
27.8556648352
 20
14.8813150868
 11
27.8556648352
 21
14.9894116517
  0
LINE
  5
5CE
100
AcDbEntity
  8
0
100
AcDbLine
 62
7
  6
CONTINUOUS
 10
27.948646593
 20
14.7814951846
 11
27.948646593
 21
14.6047178981
  0
LINE
  5
5CF
100
AcDbEntity
  8
0
100
AcDbLine
 62
7
  6
CONTINUOUS
 10
27.9608956869
 20
14.5418788299
 11
27.9608956869
 21
14.8141158511
  0
LINE
  5
5D0
100
AcDbEntity
  8
0
100
AcDbLine
 62
7
  6
CONTINUOUS
 10
27.9664634568
 20
14.5322351697
 11
27.9664634568
 21
14.8173287208
  0
LINE
  5
5D1
100
AcDbEntity
  8
0
100
AcDbLine
 62
7
  6
CONTINUOUS
 10
27.6125390422
 20
14.9239856577
 11
27.6115181237
 21
14.9199558351
  0
LINE
  5
5D2
100
AcDbEntity
  8
0
100
AcDbLine
 62
7
  6
CONTINUOUS
 10
27.7539603984
 20
14.8423146177
 11
27.75293948
 21
14.838284795
  0
LINE
  5
5D3
100
AcDbEntity
  8
7_ALL_ROUNDS
100
AcDbLine
 62
7
  6
CONTINUOUS
 10
26.9395352795
 20
15.2376021972
 11
26.91566725
 21
15.2200714542
  0
LINE
  5
5D4
100
AcDbEntity
  8
7_ALL_ROUNDS
100
AcDbLine
 62
7
  6
CONTINUOUS
 10
26.9261167503
 20
15.2034201246
 11
26.9447893711
 21
15.2171349105
  0
LINE
  5
5D5
100
AcDbEntity
  8
7_ALL_ROUNDS
100
AcDbLine
 62
7
  6
CONTINUOUS
 10
26.9401444415
 20
15.2379990851
 11
26.9395352795
 21
15.2376021972
  0
LINE
  5
5D6
100
AcDbEntity
  8
7_ALL_ROUNDS
100
AcDbLine
 62
7
  6
CONTINUOUS
 10
26.9447893711
 20
15.2171349105
 11
26.9460076952
 21
15.2179286863
  0
LINE
  5
5D7
100
AcDbEntity
  8
7_ALL_ROUNDS
100
AcDbLine
 62
7
  6
CONTINUOUS
 10
26.91566725
 20
15.2200714542
 11
26.9150490414
 21
15.2196728848
  0
LINE
  5
5D8
100
AcDbEntity
  8
7_ALL_ROUNDS
100
AcDbLine
 62
7
  6
CONTINUOUS
 10
26.9248803332
 20
15.2026229857
 11
26.9261167503
 21
15.2034201246
  0
LINE
  5
5D9
100
AcDbEntity
  8
7_ALL_ROUNDS
100
AcDbLine
 62
9
  6
CONTINUOUS
 10
26.736134473
 20
15.4427101438
 11
26.6331405794
 21
15.3832310196
  0
LINE
  5
5DA
100
AcDbEntity
  8
7_ALL_ROUNDS
100
AcDbLine
 62
9
  6
CONTINUOUS
 10
26.592290295
 20
15.3517757913
 11
26.6267258154
 21
15.3716623547
  0
LINE
  5
5DB
100
AcDbEntity
  8
7_ALL_ROUNDS
100
AcDbLine
 62
9
  6
CONTINUOUS
 10
26.7513059827
 20
15.4339485748
 11
26.6435900797
 21
15.3717424833
  0
LINE
  5
5DC
100
AcDbEntity
  8
7_ALL_ROUNDS
100
AcDbLine
 62
9
  6
CONTINUOUS
 10
26.6129673451
 20
15.3315588819
 11
26.649155663
 21
15.3524576884
  0
LINE
  5
5DD
100
AcDbEntity
  8
7_ALL_ROUNDS
100
AcDbLine
 62
9
  6
CONTINUOUS
 10
26.9581403224
 20
15.2512149846
 11
26.9052177496
 21
15.2206521214
  0
LINE
  5
5DE
100
AcDbEntity
  8
7_ALL_ROUNDS
100
AcDbLine
 62
7
  6
CONTINUOUS
 10
26.9447463248
 20
15.2406574659
 11
26.9581403224
 21
15.2483925191
  0
LINE
  5
5DF
100
AcDbEntity
  8
7_ALL_ROUNDS
100
AcDbLine
 62
9
  6
CONTINUOUS
 10
26.945891274
 20
15.238674875
 11
26.9581403224
 21
15.2457487183
  0
LINE
  5
5E0
100
AcDbEntity
  8
7_ALL_ROUNDS
100
AcDbLine
 62
9
  6
CONTINUOUS
 10
26.874595015
 20
15.18046852
 11
26.9117076211
 21
15.2019011043
  0
LINE
  5
5E1
100
AcDbEntity
  8
7_ALL_ROUNDS
100
AcDbLine
 62
9
  6
CONTINUOUS
 10
26.9460467545
 20
15.2178610513
 11
26.9447893711
 21
15.2171349105
  0
LINE
  5
5E2
100
AcDbEntity
  8
7_ALL_ROUNDS
100
AcDbLine
 62
7
  6
CONTINUOUS
 10
26.9249066549
 20
15.2026295277
 11
26.95430638
 21
15.219607912
  0
LINE
  5
5E3
100
AcDbEntity
  8
7_ALL_ROUNDS
100
AcDbLine
 62
9
  6
CONTINUOUS
 10
26.8952720651
 20
15.176803376
 11
26.957629335
 21
15.2128147906
  0
LINE
  5
5E4
100
AcDbEntity
  8
7_ALL_ROUNDS
100
AcDbLine
 62
9
  6
CONTINUOUS
 10
26.9454107529
 20
15.1934659855
 11
26.9482361672
 21
15.1950976664
  0
LINE
  5
5E5
100
AcDbEntity
  8
0
100
AcDbLine
 62
7
  6
CONTINUOUS
 10
28.3708271964
 20
14.5108472626
 11
28.376906704
 21
14.4880515432
  0
LINE
  5
5E6
100
AcDbEntity
  8
0
100
AcDbLine
 62
7
  6
CONTINUOUS
 10
28.5122485526
 20
14.4291762226
 11
28.5183280602
 21
14.4063805032
  0
LINE
  5
5E7
100
AcDbEntity
  8
0
100
AcDbLine
 62
7
  6
CONTINUOUS
 10
28.3311523873
 20
14.5691149802
 11
28.3311523873
 21
14.3184126466
  0
LINE
  5
5E8
100
AcDbEntity
  8
0
100
AcDbLine
 62
7
  6
CONTINUOUS
 10
28.3395040422
 20
14.3232319512
 11
28.3395040422
 21
14.5482212249
  0
LINE
  5
5E9
100
AcDbEntity
  8
0
100
AcDbLine
 62
7
  6
CONTINUOUS
 10
28.3548154095
 20
14.3722439988
 11
28.3548154095
 21
14.3368886145
  0
LINE
  5
5EA
100
AcDbEntity
  8
0
100
AcDbLine
 62
7
  6
CONTINUOUS
 10
28.3704050666
 20
14.4693073209
 11
28.3704050666
 21
14.363240949
  0
LINE
  5
5EB
100
AcDbEntity
  8
0
100
AcDbLine
 62
7
  6
CONTINUOUS
 10
28.3907275255
 20
14.4800699986
 11
28.3907275255
 21
14.4575710712
  0
LINE
  5
5EC
100
AcDbEntity
  8
0
100
AcDbLine
 62
7
  6
CONTINUOUS
 10
28.429701915
 20
14.4350633042
 11
28.429701915
 21
14.4575622316
  0
LINE
  5
5ED
100
AcDbEntity
  8
0
100
AcDbLine
 62
7
  6
CONTINUOUS
 10
28.4491891098
 20
14.4141872281
 11
28.4491891098
 21
14.4013306981
  0
LINE
  5
5EE
100
AcDbEntity
  8
0
100
AcDbLine
 62
7
  6
CONTINUOUS
 10
28.4500243739
 20
14.2819052983
 11
28.4500243739
 21
14.4233270545
  0
LINE
  5
5EF
100
AcDbEntity
  8
0
100
AcDbLine
 62
7
  6
CONTINUOUS
 10
27.8953817546
 20
14.7606435777
 11
27.8943608362
 21
14.756613755
  0
LINE
  5
5F0
100
AcDbEntity
  8
0
100
AcDbLine
 62
7
  6
CONTINUOUS
 10
27.6125345267
 20
14.9239790008
 11
27.6215637835
 21
14.9379149947
  0
LINE
  5
5F1
100
AcDbEntity
  8
0
100
AcDbLine
 62
7
  6
CONTINUOUS
 10
27.7539558829
 20
14.8423079607
 11
27.7629851398
 21
14.8562439547
  0
LINE
  5
5F2
100
AcDbEntity
  8
0
100
AcDbLine
 62
7
  6
CONTINUOUS
 10
27.6239447478
 20
14.9402178566
 11
27.6215637738
 21
14.9379149796
  0
LINE
  5
5F3
100
AcDbEntity
  8
7_ALL_ROUNDS
100
AcDbLine
 62
7
  6
CONTINUOUS
 10
26.9483953847
 20
15.1948219658
 11
26.9454107529
 21
15.1934659855
  0
LINE
  5
5F4
100
AcDbEntity
  8
7_ALL_ROUNDS
100
AcDbLine
 62
7
  6
CONTINUOUS
 10
26.8952720651
 20
15.176803376
 11
26.9454107529
 21
15.1934659855
  0
LINE
  5
5F5
100
AcDbEntity
  8
0
100
AcDbLine
 62
7
  6
CONTINUOUS
 10
28.5118264229
 20
14.3876362809
 11
28.5118264229
 21
14.2462145247
  0
LINE
  5
5F6
100
AcDbEntity
  8
0
100
AcDbLine
 62
7
  6
CONTINUOUS
 10
28.5321488818
 20
14.3983989586
 11
28.5321488818
 21
14.3759000312
  0
LINE
  5
5F7
100
AcDbEntity
  8
0
100
AcDbLine
 62
7
  6
CONTINUOUS
 10
28.5711232713
 20
14.3533922642
 11
28.5711232713
 21
14.3758911916
  0
LINE
  5
5F8
100
AcDbEntity
  8
0
100
AcDbLine
 62
7
  6
CONTINUOUS
 10
28.590610466
 20
14.3325161881
 11
28.590610466
 21
14.3196596581
  0
LINE
  5
5F9
100
AcDbEntity
  8
0
100
AcDbLine
 62
7
  6
CONTINUOUS
 10
28.5914457302
 20
14.2355896426
 11
28.5914457302
 21
14.3416560145
  0
LINE
  5
5FA
100
AcDbEntity
  8
0
100
AcDbLine
 62
7
  6
CONTINUOUS
 10
28.6070353873
 20
14.1912312085
 11
28.6070353873
 21
14.2265865928
  0
LINE
  5
5FB
100
AcDbEntity
  8
0
100
AcDbLine
 62
7
  6
CONTINUOUS
 10
28.6223467546
 20
14.3848791449
 11
28.6223467546
 21
14.1598898711
  0
LINE
  5
5FC
100
AcDbEntity
  8
0
100
AcDbLine
 62
7
  6
CONTINUOUS
 10
28.6306984095
 20
14.1454243808
 11
28.6306984095
 21
14.3961267144
  0
LINE
  5
5FD
100
AcDbEntity
  8
0
100
AcDbLine
 62
7
  6
CONTINUOUS
 10
27.8953772391
 20
14.7606369207
 11
27.904406496
 21
14.7745729147
  0
LINE
  5
5FE
100
AcDbEntity
  8
0
100
AcDbLine
 62
7
  6
CONTINUOUS
 10
27.7653661041
 20
14.8585468166
 11
27.76298513
 21
14.8562439396
  0
LINE
  5
5FF
100
AcDbEntity
  8
0
100
AcDbLine
 62
7
  6
CONTINUOUS
 10
27.9067874603
 20
14.7768757766
 11
27.9044064862
 21
14.7745728996
  0
LINE
  5
600
100
AcDbEntity
  8
0
100
AcDbLine
 62
7
  6
CONTINUOUS
 10
27.497655042
 20
15.0880662659
 11
27.4920894587
 21
15.0848521334
  0
LINE
  5
601
100
AcDbEntity
  8
0
100
AcDbLine
 62
7
  6
CONTINUOUS
 10
27.5973203104
 20
15.0305094276
 11
27.6697013195
 21
15.0723095662
  0
LINE
  5
602
100
AcDbEntity
  8
0
100
AcDbLine
 62
7
  6
CONTINUOUS
 10
27.6488737915
 20
14.9546144158
 11
27.6239447508
 21
14.9402178584
  0
LINE
  5
603
100
AcDbEntity
  8
0
100
AcDbLine
 62
7
  6
CONTINUOUS
 10
27.6126227439
 20
14.92384072
 11
27.5043385526
 21
14.8613064411
  0
LINE
  5
604
100
AcDbEntity
  8
0
100
AcDbLine
 62
7
  6
CONTINUOUS
 10
27.6148559864
 20
14.9106447352
 11
27.5168802399
 21
14.8540635984
  0
LINE
  5
605
100
AcDbEntity
  8
0
100
AcDbLine
 62
7
  6
CONTINUOUS
 10
27.68823614
 20
14.931882602
 11
27.6436336561
 21
14.9061246023
  0
LINE
  5
606
100
AcDbEntity
  8
0
100
AcDbLine
 62
7
  6
CONTINUOUS
 10
27.4865216888
 20
14.8094022425
 11
27.492088365
 21
14.8126170061
  0
LINE
  5
607
100
AcDbEntity
  8
0
100
AcDbLine
 62
7
  6
CONTINUOUS
 10
27.7832838261
 20
14.9231152254
 11
27.8556648352
 21
14.964915364
  0
LINE
  5
608
100
AcDbEntity
  8
7_ALL_ROUNDS
100
AcDbLine
 62
9
  6
CONTINUOUS
 10
31.2648103637
 20
14.672418827
 11
31.236971514
 21
14.6884958034
  0
LINE
  5
609
100
AcDbEntity
  8
7_ALL_ROUNDS
100
AcDbLine
 62
9
  6
CONTINUOUS
 10
31.236971514
 20
14.7206371282
 11
31.234188176
 21
14.72224451
  0
LINE
  5
60A
100
AcDbEntity
  8
7_ALL_ROUNDS
100
AcDbLine
 62
9
  6
CONTINUOUS
 10
31.2926492134
 20
14.8170737306
 11
31.2898658753
 21
14.8186811124
  0
LINE
  5
60B
100
AcDbEntity
  8
7_ALL_ROUNDS
100
AcDbLine
 62
9
  6
CONTINUOUS
 10
31.3483269127
 20
14.8170737306
 11
31.320488063
 21
14.8331507069
  0
LINE
  5
60C
100
AcDbEntity
  8
0
100
AcDbLine
 62
7
  6
CONTINUOUS
 10
28.4435227366
 20
14.449580687
 11
28.4496022442
 21
14.4653545573
  0
LINE
  5
60D
100
AcDbEntity
  8
0
100
AcDbLine
 62
7
  6
CONTINUOUS
 10
28.5849440928
 20
14.367909647
 11
28.5910236004
 21
14.3836835173
  0
LINE
  5
60E
100
AcDbEntity
  8
0
100
AcDbLine
 62
7
  6
CONTINUOUS
 10
27.7902951477
 20
14.8729433758
 11
27.7653661071
 21
14.8585468184
  0
LINE
  5
60F
100
AcDbEntity
  8
0
100
AcDbLine
 62
7
  6
CONTINUOUS
 10
27.7539304689
 20
14.8334388973
 11
27.6532621932
 21
14.7753028209
  0
LINE
  5
610
100
AcDbEntity
  8
0
100
AcDbLine
 62
7
  6
CONTINUOUS
 10
27.7562773426
 20
14.8289736952
 11
27.6583015961
 21
14.7723925584
  0
LINE
  5
611
100
AcDbEntity
  8
0
100
AcDbLine
 62
7
  6
CONTINUOUS
 10
27.8296574963
 20
14.850211562
 11
27.7850550123
 21
14.8244535623
  0
LINE
  5
612
100
AcDbEntity
  8
0
100
AcDbLine
 62
7
  6
CONTINUOUS
 10
27.9664623631
 20
14.8173306148
 11
27.9608956869
 21
14.8141158511
  0
LINE
  5
613
100
AcDbEntity
  8
0
100
AcDbLine
 62
7
  6
CONTINUOUS
 10
27.931716504
 20
14.7912723358
 11
27.9067874633
 21
14.7768757784
  0
LINE
  5
614
100
AcDbEntity
  8
0
100
AcDbLine
 62
7
  6
CONTINUOUS
 10
27.8953518251
 20
14.7517678573
 11
27.7946835495
 21
14.6936317809
  0
LINE
  5
615
100
AcDbEntity
  8
0
100
AcDbLine
 62
7
  6
CONTINUOUS
 10
27.8976986989
 20
14.7473026552
 11
27.7997229524
 21
14.6907215183
  0
LINE
  5
616
100
AcDbEntity
  8
0
100
AcDbLine
 62
7
  6
CONTINUOUS
 10
27.948646593
 20
14.7555858593
 11
27.9264763686
 21
14.7427825223
  0
LINE
  5
617
100
AcDbEntity
  8
7_ALL_ROUNDS
100
AcDbLine
 62
9
  6
CONTINUOUS
 10
31.2314048374
 20
15.0388356125
 11
31.2341876291
 21
15.0372285462
  0
LINE
  5
618
100
AcDbEntity
  8
7_ALL_ROUNDS
100
AcDbLine
 62
9
  6
CONTINUOUS
 10
31.2926492134
 20
15.0099216795
 11
31.2888172411
 21
15.012134649
  0
LINE
  5
619
100
AcDbEntity
  8
7_ALL_ROUNDS
100
AcDbLine
 62
9
  6
CONTINUOUS
 10
31.320488063
 20
14.993857331
 11
31.3483269127
 21
14.9777803546
  0
LINE
  5
61A
100
AcDbEntity
  8
7_ALL_ROUNDS
100
AcDbLine
 62
7
  6
CONTINUOUS
 10
31.2603333371
 20
15.0487739673
 11
31.2735654396
 21
15.0411324087
  0
LINE
  5
61B
100
AcDbEntity
  8
7_ALL_ROUNDS
100
AcDbLine
 62
7
  6
CONTINUOUS
 10
32.1834924023
 20
14.6724882807
 11
31.8772650561
 21
14.8493350208
  0
LINE
  5
61C
100
AcDbEntity
  8
7_ALL_ROUNDS
100
AcDbLine
 62
9
  6
CONTINUOUS
 10
31.404004612
 20
15.1385122346
 11
31.4318434616
 21
15.1224352582
  0
LINE
  5
61D
100
AcDbEntity
  8
0
100
AcDbLine
 62
7
  6
CONTINUOUS
 10
27.948646593
 20
14.6192035836
 11
27.9361049057
 21
14.6119607409
  0
LINE
  5
61E
100
AcDbEntity
  8
0
100
AcDbLine
 62
7
  6
CONTINUOUS
 10
27.9664634568
 20
14.5450942252
 11
27.9608956869
 21
14.5418788299
  0
LINE
  5
61F
100
AcDbEntity
  8
0
100
AcDbLine
 62
7
  6
CONTINUOUS
 10
28.3395040422
 20
14.5482212249
 11
28.3534180004
 21
14.5562565561
  0
LINE
  5
620
100
AcDbEntity
  8
7_ALL_ROUNDS
100
AcDbLine
 62
9
  6
CONTINUOUS
 10
31.7659096575
 20
15.3475129276
 11
31.7937485071
 21
15.3314359512
  0
LINE
  5
621
100
AcDbEntity
  8
0
100
AcDbLine
 62
7
  6
CONTINUOUS
 10
29.4831239859
 20
13.4667276801
 11
29.4831239859
 21
13.4988690049
  0
LINE
  5
622
100
AcDbEntity
  8
7_ALL_ROUNDS
100
AcDbLine
 62
7
  6
CONTINUOUS
 10
29.4831239859
 20
13.9327768899
 11
29.4831239859
 21
14.2702608005
  0
LINE
  5
623
100
AcDbEntity
  8
7_ALL_ROUNDS
100
AcDbLine
 62
7
  6
CONTINUOUS
 10
29.5109628356
 20
13.4827920285
 11
29.5109628356
 21
13.9166999136
  0
LINE
  5
624
100
AcDbEntity
  8
0
100
AcDbLine
 62
7
  6
CONTINUOUS
 10
28.3936034538
 20
14.4976939407
 11
28.376906704
 21
14.4880515432
  0
LINE
  5
625
100
AcDbEntity
  8
0
100
AcDbLine
 62
7
  6
CONTINUOUS
 10
28.4074242754
 20
14.489712396
 11
28.3907275255
 21
14.4800699986
  0
LINE
  5
626
100
AcDbEntity
  8
0
100
AcDbLine
 62
7
  6
CONTINUOUS
 10
28.4269038168
 20
14.4784629323
 11
28.3907275255
 21
14.4575710712
  0
LINE
  5
627
100
AcDbEntity
  8
0
100
AcDbLine
 62
7
  6
CONTINUOUS
 10
28.4463986649
 20
14.4672046291
 11
28.429701915
 21
14.4575622316
  0
LINE
  5
628
100
AcDbEntity
  8
0
100
AcDbLine
 62
7
  6
CONTINUOUS
 10
28.4491891098
 20
14.4087388491
 11
28.3704050666
 21
14.363240949
  0
LINE
  5
629
100
AcDbEntity
  8
0
100
AcDbLine
 62
7
  6
CONTINUOUS
 10
28.4500243739
 20
14.3918719307
 11
28.3548154095
 21
14.3368886145
  0
LINE
  5
62A
100
AcDbEntity
  8
0
100
AcDbLine
 62
7
  6
CONTINUOUS
 10
28.3311523873
 20
14.3184126466
 11
28.3395024015
 21
14.3232347921
  0
LINE
  5
62B
100
AcDbEntity
  8
0
100
AcDbLine
 62
7
  6
CONTINUOUS
 10
28.53502481
 20
14.4160229007
 11
28.5183280602
 21
14.4063805032
  0
LINE
  5
62C
100
AcDbEntity
  8
0
100
AcDbLine
 62
7
  6
CONTINUOUS
 10
28.5488456316
 20
14.408041356
 11
28.5321488818
 21
14.3983989586
  0
LINE
  5
62D
100
AcDbEntity
  8
0
100
AcDbLine
 62
7
  6
CONTINUOUS
 10
28.5683251731
 20
14.3967918923
 11
28.5321488818
 21
14.3759000312
  0
LINE
  5
62E
100
AcDbEntity
  8
0
100
AcDbLine
 62
7
  6
CONTINUOUS
 10
28.5878200211
 20
14.3855335891
 11
28.5711232713
 21
14.3758911916
  0
LINE
  5
62F
100
AcDbEntity
  8
0
100
AcDbLine
 62
7
  6
CONTINUOUS
 10
28.6223467546
 20
14.3848791449
 11
28.6306984095
 21
14.3897022378
  0
LINE
  5
630
100
AcDbEntity
  8
0
100
AcDbLine
 62
7
  6
CONTINUOUS
 10
28.5914457302
 20
14.2921947911
 11
28.5118264229
 21
14.2462145247
  0
LINE
  5
631
100
AcDbEntity
  8
7_ALL_ROUNDS
100
AcDbLine
 62
7
  6
CONTINUOUS
 10
31.8249763732
 20
15.3533687214
 11
31.8528152228
 21
15.337291745
  0
LINE
  5
632
100
AcDbEntity
  8
0
100
AcDbLine
 62
7
  6
CONTINUOUS
 10
31.8494262064
 20
15.6368037928
 11
26.74934895
 21
18.5821058657
  0
LINE
  5
633
100
AcDbEntity
  8
0
100
AcDbLine
 62
7
  6
CONTINUOUS
 10
30.0452404052
 20
13.6436152956
 11
30.0492256805
 21
13.6248313565
  0
LINE
  5
634
100
AcDbEntity
  8
7_ALL_ROUNDS
100
AcDbLine
 62
9
  6
CONTINUOUS
 10
29.8171901817
 20
13.2738039635
 11
29.8171901817
 21
13.3059452883
  0
LINE
  5
635
100
AcDbEntity
  8
0
100
AcDbLine
 62
9
  6
CONTINUOUS
 10
29.9633441424
 20
13.5752346427
 11
29.9633441424
 21
13.5430933179
  0
LINE
  5
636
100
AcDbEntity
  8
7_ALL_ROUNDS
100
AcDbLine
 62
9
  6
CONTINUOUS
 10
29.9842232797
 20
13.2738039635
 11
29.9842232797
 21
13.3059452883
  0
LINE
  5
637
100
AcDbEntity
  8
7_ALL_ROUNDS
100
AcDbLine
 62
7
  6
CONTINUOUS
 10
30.039900979
 20
14.2864577424
 11
30.039900979
 21
14.0614558407
  0
LINE
  5
638
100
AcDbEntity
  8
7_ALL_ROUNDS
100
AcDbLine
 62
7
  6
CONTINUOUS
 10
30.0426848639
 20
14.0984316236
 11
30.0426848639
 21
14.2848513075
  0
LINE
  5
639
100
AcDbEntity
  8
0
100
AcDbLine
 62
7
  6
CONTINUOUS
 10
30.0492256805
 20
13.6248313565
 11
30.0492256805
 21
13.5926900317
  0
LINE
  5
63A
100
AcDbEntity
  8
0
100
AcDbLine
 62
7
  6
CONTINUOUS
 10
28.6223467546
 20
14.1598898711
 11
28.6306984095
 21
14.1647129641
  0
LINE
  5
63B
100
AcDbEntity
  8
0
100
AcDbLine
 62
7
  6
CONTINUOUS
 10
30.3129500493
 20
13.6435082891
 11
30.308964774
 21
13.6622922282
  0
LINE
  5
63C
100
AcDbEntity
  8
0
100
AcDbLine
 62
7
  6
CONTINUOUS
 10
30.2115288002
 20
13.7185616455
 11
30.2115288002
 21
13.6864203207
  0
LINE
  5
63D
100
AcDbEntity
  8
0
100
AcDbLine
 62
9
  6
CONTINUOUS
 10
30.2974103383
 20
13.7681583593
 11
30.2974103383
 21
13.7360170345
  0
LINE
  5
63E
100
AcDbEntity
  8
0
100
AcDbLine
 62
7
  6
CONTINUOUS
 10
30.308964774
 20
13.6622922282
 11
30.308964774
 21
13.6301509033
  0
LINE
  5
63F
100
AcDbEntity
  8
0
100
AcDbLine
 62
7
  6
CONTINUOUS
 10
31.8494262064
 20
15.6368037928
 11
29.4831239859
 21
14.2702608005
  0
LINE
  5
640
100
AcDbEntity
  8
7_ALL_ROUNDS
100
AcDbLine
 62
7
  6
CONTINUOUS
 10
31.7659096575
 20
15.3475129276
 11
31.404004612
 21
15.1385122346
  0
LINE
  5
641
100
AcDbEntity
  8
7_ALL_ROUNDS
100
AcDbLine
 62
7
  6
CONTINUOUS
 10
31.236971514
 20
15.0420503763
 11
30.0955786783
 21
14.3828943447
  0
LINE
  5
642
100
AcDbEntity
  8
7_ALL_ROUNDS
100
AcDbLine
 62
7
  6
CONTINUOUS
 10
29.9285455804
 20
14.2864324865
 11
29.5666405349
 21
14.0774317935
  0
LINE
  5
643
100
AcDbEntity
  8
7_ALL_ROUNDS
100
AcDbLine
 62
7
  6
CONTINUOUS
 10
30.0983625632
 20
14.3812879099
 11
31.2341876291
 21
15.0372285462
  0
LINE
  5
644
100
AcDbEntity
  8
7_ALL_ROUNDS
100
AcDbLine
 62
7
  6
CONTINUOUS
 10
31.7937485071
 20
15.3314359512
 11
31.4318434616
 21
15.1224352582
  0
LINE
  5
645
100
AcDbEntity
  8
7_ALL_ROUNDS
100
AcDbLine
 62
7
  6
CONTINUOUS
 10
29.95638443
 20
14.2703555101
 11
29.5944793845
 21
14.0613548171
  0
LINE
  5
646
100
AcDbEntity
  8
7_ALL_ROUNDS
100
AcDbLine
 62
7
  6
CONTINUOUS
 10
31.2341876291
 20
14.722243563
 11
30.0983625632
 21
14.0663029267
  0
LINE
  5
647
100
AcDbEntity
  8
7_ALL_ROUNDS
100
AcDbLine
 62
7
  6
CONTINUOUS
 10
30.0955786783
 20
14.0614810966
 11
31.236971514
 21
14.7206371282
  0
LINE
  5
648
100
AcDbEntity
  8
7_ALL_ROUNDS
100
AcDbLine
 62
7
  6
CONTINUOUS
 10
30.0955786783
 20
14.0293397718
 11
31.236971514
 21
14.6884958034
  0
LINE
  5
649
100
AcDbEntity
  8
7_ALL_ROUNDS
100
AcDbLine
 62
7
  6
CONTINUOUS
 10
30.1234175279
 20
14.0132627954
 11
31.2648103637
 21
14.672418827
  0
LINE
  5
64A
100
AcDbEntity
  8
0
100
AcDbLine
 62
7
  6
CONTINUOUS
 10
29.4912763524
 20
13.4714356837
 11
29.4831239859
 21
13.4667276801
  0
LINE
  5
64B
100
AcDbEntity
  8
0
100
AcDbLine
 62
7
  6
CONTINUOUS
 10
31.8772650561
 20
14.8493350208
 11
29.5109628356
 21
13.4827920285
  0
LINE
  5
64C
100
AcDbEntity
  8
0
100
AcDbLine
 62
7
  6
CONTINUOUS
 10
31.7171916706
 20
14.5880841547
 11
31.6313101325
 21
14.5384874409
  0
LINE
  5
64D
100
AcDbEntity
  8
0
100
AcDbLine
 62
7
  6
CONTINUOUS
 10
31.4690070128
 20
14.4447571519
 11
31.3831254747
 21
14.3951604381
  0
LINE
  5
64E
100
AcDbEntity
  8
0
100
AcDbLine
 62
7
  6
CONTINUOUS
 10
30.2974103383
 20
13.7681583593
 11
30.2115288002
 21
13.7185616455
  0
LINE
  5
64F
100
AcDbEntity
  8
0
100
AcDbLine
 62
7
  6
CONTINUOUS
 10
30.0492256805
 20
13.6248313565
 11
29.9633441424
 21
13.5752346427
  0
LINE
  5
650
100
AcDbEntity
  8
0
100
AcDbLine
 62
7
  6
CONTINUOUS
 10
31.4650217375
 20
14.4635410909
 11
31.4690070128
 21
14.4447571519
  0
LINE
  5
651
100
AcDbEntity
  8
7_ALL_ROUNDS
100
AcDbLine
 62
7
  6
CONTINUOUS
 10
31.2898653284
 20
15.0050998493
 11
31.2898653284
 21
14.8186801654
  0
LINE
  5
652
100
AcDbEntity
  8
7_ALL_ROUNDS
100
AcDbLine
 62
7
  6
CONTINUOUS
 10
31.2926492134
 20
14.8170737306
 11
31.2926492134
 21
15.0099216795
  0
LINE
  5
653
100
AcDbEntity
  8
7_ALL_ROUNDS
100
AcDbLine
 62
7
  6
CONTINUOUS
 10
31.320488063
 20
14.8331507069
 11
31.320488063
 21
14.993857331
  0
LINE
  5
654
100
AcDbEntity
  8
7_ALL_ROUNDS
100
AcDbLine
 62
7
  6
CONTINUOUS
 10
31.3483269127
 20
14.9777803546
 11
31.3483269127
 21
14.8170737306
  0
LINE
  5
655
100
AcDbEntity
  8
0
100
AcDbLine
 62
9
  6
CONTINUOUS
 10
31.3831254747
 20
14.3951604381
 11
31.3831254747
 21
14.3630191133
  0
LINE
  5
656
100
AcDbEntity
  8
0
100
AcDbLine
 62
7
  6
CONTINUOUS
 10
31.7171916706
 20
14.5559428298
 11
31.6313101325
 21
14.5063461161
  0
LINE
  5
657
100
AcDbEntity
  8
0
100
AcDbLine
 62
7
  6
CONTINUOUS
 10
31.4690070128
 20
14.4126158271
 11
31.3831254747
 21
14.3630191133
  0
LINE
  5
658
100
AcDbEntity
  8
0
100
AcDbLine
 62
7
  6
CONTINUOUS
 10
30.2974103383
 20
13.7360170345
 11
30.2115288002
 21
13.6864203207
  0
LINE
  5
659
100
AcDbEntity
  8
0
100
AcDbLine
 62
7
  6
CONTINUOUS
 10
30.0492256805
 20
13.5926900317
 11
29.9633441424
 21
13.5430933179
  0
LINE
  5
65A
100
AcDbEntity
  8
0
100
AcDbLine
 62
7
  6
CONTINUOUS
 10
30.0607801162
 20
13.5189652254
 11
30.1466616542
 21
13.5685619392
  0
LINE
  5
65B
100
AcDbEntity
  8
0
100
AcDbLine
 62
7
  6
CONTINUOUS
 10
30.308964774
 20
13.6622922282
 11
30.394846312
 21
13.7118889419
  0
LINE
  5
65C
100
AcDbEntity
  8
0
100
AcDbLine
 62
7
  6
CONTINUOUS
 10
31.4805614485
 20
14.3388910208
 11
31.5664429865
 21
14.3884877346
  0
LINE
  5
65D
100
AcDbEntity
  8
0
100
AcDbLine
 62
7
  6
CONTINUOUS
 10
31.7287461063
 20
14.4822180235
 11
31.8146276443
 21
14.5318147373
  0
LINE
  5
65E
100
AcDbEntity
  8
7_ALL_ROUNDS
100
AcDbLine
 62
7
  6
CONTINUOUS
 10
32.1834924023
 20
14.5760264224
 11
29.9842232797
 21
13.3059452883
  0
LINE
  5
65F
100
AcDbEntity
  8
7_ALL_ROUNDS
100
AcDbLine
 62
7
  6
CONTINUOUS
 10
32.1834924023
 20
14.5438850976
 11
29.9842232797
 21
13.2738039635
  0
LINE
  5
660
100
AcDbEntity
  8
0
100
AcDbLine
 62
7
  6
CONTINUOUS
 10
31.7327313816
 20
14.4634340845
 11
31.7287461063
 21
14.4822180235
  0
LINE
  5
661
100
AcDbEntity
  8
0
100
AcDbLine
 62
7
  6
CONTINUOUS
 10
31.4690070128
 20
14.4447571519
 11
31.4690070128
 21
14.4126158271
  0
LINE
  5
662
100
AcDbEntity
  8
0
100
AcDbLine
 62
7
  6
CONTINUOUS
 10
31.6313101325
 20
14.5384874409
 11
31.6313101325
 21
14.5063461161
  0
LINE
  5
663
100
AcDbEntity
  8
0
100
AcDbLine
 62
9
  6
CONTINUOUS
 10
31.7171916706
 20
14.5880841547
 11
31.7171916706
 21
14.5559428298
  0
LINE
  5
664
100
AcDbEntity
  8
0
100
AcDbLine
 62
7
  6
CONTINUOUS
 10
31.7287461063
 20
14.4822180235
 11
31.7287461063
 21
14.4500766987
  0
LINE
  5
665
100
AcDbEntity
  8
7_ALL_ROUNDS
100
AcDbLine
 62
7
  6
CONTINUOUS
 10
31.8494262064
 20
15.6368037928
 11
31.8494262064
 21
15.3392489069
  0
LINE
  5
666
100
AcDbEntity
  8
7_ALL_ROUNDS
100
AcDbLine
 62
7
  6
CONTINUOUS
 10
31.8772650561
 20
14.8493350208
 11
31.8772650561
 21
15.2832429059
  0
LINE
  5
667
100
AcDbEntity
  8
7_ALL_ROUNDS
100
AcDbLine
 62
9
  6
CONTINUOUS
 10
32.1834924023
 20
14.5760264224
 11
32.1834924023
 21
14.5438850976
  0
LINE
  5
668
100
AcDbEntity
  8
7_ALL_ROUNDS
100
AcDbLine
 62
7
  6
CONTINUOUS
 10
32.2180860895
 20
14.6242573515
 11
32.2180860895
 21
14.5921160267
  0
LINE
  5
669
100
AcDbEntity
  8
7_ALL_ROUNDS
100
AcDbLine
 62
7
  6
CONTINUOUS
 10
22.6885186924
 20
7.0321256605
 11
22.6885186924
 21
8.016377629
  0
LINE
  5
66A
100
AcDbEntity
  8
7_ALL_ROUNDS
100
AcDbLine
 62
7
  6
CONTINUOUS
 10
22.8066289286
 20
7.0321256605
 11
22.8066289286
 21
7.0714957392
  0
LINE
  5
66B
100
AcDbEntity
  8
7_ALL_ROUNDS
100
AcDbLine
 62
7
  6
CONTINUOUS
 10
23.4365501884
 20
7.6029918022
 11
23.4365501884
 21
7.4061414085
  0
LINE
  5
66C
100
AcDbEntity
  8
7_ALL_ROUNDS
100
AcDbLine
 62
7
  6
CONTINUOUS
 10
23.4759202672
 20
7.6423618809
 11
23.4759202672
 21
7.4061414085
  0
LINE
  5
66D
100
AcDbEntity
  8
7_ALL_ROUNDS
100
AcDbLine
 62
7
  6
CONTINUOUS
 10
23.4798572751
 20
7.4100784164
 11
23.4798572751
 21
7.6384248731
  0
LINE
  5
66E
100
AcDbEntity
  8
7_ALL_ROUNDS
100
AcDbLine
 62
7
  6
CONTINUOUS
 10
26.0349753853
 20
7.0321256605
 11
22.6885186924
 21
7.0321256605
  0
LINE
  5
66F
100
AcDbEntity
  8
7_ALL_ROUNDS
100
AcDbLine
 62
7
  6
CONTINUOUS
 10
22.6885186924
 20
7.0714957392
 11
26.0349753853
 21
7.0714957392
  0
LINE
  5
670
100
AcDbEntity
  8
0
100
AcDbLine
 62
7
  6
CONTINUOUS
 10
26.0349753853
 20
7.2587831408
 11
26.0997785349
 21
7.2587831408
  0
LINE
  5
671
100
AcDbEntity
  8
7_ALL_ROUNDS
100
AcDbLine
 62
7
  6
CONTINUOUS
 10
23.5546604247
 20
7.2880311723
 11
25.168833653
 21
7.2880311723
  0
LINE
  5
672
100
AcDbEntity
  8
7_ALL_ROUNDS
100
AcDbLine
 62
7
  6
CONTINUOUS
 10
23.5546604247
 20
7.327401251
 11
25.168833653
 21
7.327401251
  0
LINE
  5
673
100
AcDbEntity
  8
7_ALL_ROUNDS
100
AcDbLine
 62
7
  6
CONTINUOUS
 10
25.1648966451
 20
7.3313382589
 11
23.5585974325
 21
7.3313382589
  0
LINE
  5
674
100
AcDbEntity
  8
0
100
AcDbLine
 62
7
  6
CONTINUOUS
 10
26.0349753853
 20
7.5537831408
 11
26.0997785349
 21
7.5537831408
  0
LINE
  5
675
100
AcDbEntity
  8
7_ALL_ROUNDS
100
AcDbLine
 62
7
  6
CONTINUOUS
 10
23.5585974325
 20
7.7171650305
 11
25.1648966451
 21
7.7171650305
  0
LINE
  5
676
100
AcDbEntity
  8
7_ALL_ROUNDS
100
AcDbLine
 62
7
  6
CONTINUOUS
 10
25.9168651491
 20
7.7211020384
 11
25.4050541255
 21
7.7211020384
  0
LINE
  5
677
100
AcDbEntity
  8
7_ALL_ROUNDS
100
AcDbLine
 62
7
  6
CONTINUOUS
 10
25.168833653
 20
7.7211020384
 11
23.5546604247
 21
7.7211020384
  0
LINE
  5
678
100
AcDbEntity
  8
7_ALL_ROUNDS
100
AcDbLine
 62
7
  6
CONTINUOUS
 10
23.3184399522
 20
7.7211020384
 11
22.8066289286
 21
7.7211020384
  0
LINE
  5
679
100
AcDbEntity
  8
0
100
AcDbLine
 62
7
  6
CONTINUOUS
 10
26.0349753853
 20
8.016377629
 11
22.6885186924
 21
8.016377629
  0
LINE
  5
67A
100
AcDbEntity
  8
7_ALL_ROUNDS
100
AcDbLine
 62
7
  6
CONTINUOUS
 10
25.2436368026
 20
7.6384248731
 11
25.2436368026
 21
7.4100784164
  0
LINE
  5
67B
100
AcDbEntity
  8
7_ALL_ROUNDS
100
AcDbLine
 62
7
  6
CONTINUOUS
 10
25.2475738105
 20
7.4061414085
 11
25.2475738105
 21
7.6423618809
  0
LINE
  5
67C
100
AcDbEntity
  8
7_ALL_ROUNDS
100
AcDbLine
 62
7
  6
CONTINUOUS
 10
25.2869438892
 20
7.6029918022
 11
25.2869438892
 21
7.4061414085
  0
LINE
  5
67D
100
AcDbEntity
  8
7_ALL_ROUNDS
100
AcDbLine
 62
7
  6
CONTINUOUS
 10
25.9168651491
 20
7.0714957392
 11
25.9168651491
 21
7.0321256605
  0
LINE
  5
67E
100
AcDbEntity
  8
7_ALL_ROUNDS
100
AcDbLine
 62
7
  6
CONTINUOUS
 10
26.0349753853
 20
7.0321256605
 11
26.0349753853
 21
8.016377629
  0
LINE
  5
67F
100
AcDbEntity
  8
7_ALL_ROUNDS
100
AcDbLine
 62
7
  6
CONTINUOUS
 10
26.0997785349
 20
7.5537831408
 11
26.0997785349
 21
7.2587831408
  0
LINE
  5
680
100
AcDbEntity
  8
7_ALL_ROUNDS
100
AcDbLine
 62
7
  6
CONTINUOUS
 10
26.1097785349
 20
7.5437614392
 11
26.1097785349
 21
7.2687831408
  0
ARC
  5
681
100
AcDbEntity
  8
0
100
AcDbCircle
 62
7
  6
CONTINUOUS
 10
10.6496876083
 20
7.0714957392
 40
0.0393700787
100
AcDbArc
 50
270.0
 51
360.0
  0
ARC
  5
682
100
AcDbEntity
  8
7_ALL_ROUNDS
100
AcDbCircle
 62
7
  6
CONTINUOUS
 10
14.283545876
 20
7.3891842167
 40
0.0472440945
100
AcDbArc
 50
308.2395484545
 51
360.0
  0
ARC
  5
683
100
AcDbEntity
  8
7_ALL_ROUNDS
100
AcDbCircle
 62
7
  6
CONTINUOUS
 10
14.2126390637
 20
7.3333067628
 40
0.0472440945
100
AcDbArc
 50
270.0
 51
308.2395484545
  0
ARC
  5
684
100
AcDbEntity
  8
7_ALL_ROUNDS
100
AcDbCircle
 62
7
  6
CONTINUOUS
 10
13.8426416647
 20
7.3333067628
 40
0.0472440945
100
AcDbArc
 50
231.7604515455
 51
270.0
  0
ARC
  5
685
100
AcDbEntity
  8
7_ALL_ROUNDS
100
AcDbCircle
 62
7
  6
CONTINUOUS
 10
13.7717348524
 20
7.3891842167
 40
0.0472440945
100
AcDbArc
 50
180.0
 51
231.7604515455
  0
ARC
  5
686
100
AcDbEntity
  8
7_ALL_ROUNDS
100
AcDbCircle
 62
7
  6
CONTINUOUS
 10
13.7717348524
 20
7.4730705424
 40
0.0472440945
100
AcDbArc
 50
90.0
 51
180.0
  0
ARC
  5
687
100
AcDbEntity
  8
7_ALL_ROUNDS
100
AcDbCircle
 62
7
  6
CONTINUOUS
 10
14.283545876
 20
7.4730705424
 40
0.0472440945
100
AcDbArc
 50
0.0
 51
90.0
  0
ARC
  5
688
100
AcDbEntity
  8
7_ALL_ROUNDS
100
AcDbCircle
 62
7
  6
CONTINUOUS
 10
13.7571232906
 20
7.3112968565
 40
0.0393700787
100
AcDbArc
 50
41.3477772197
 51
72.897271031
  0
ARC
  5
689
100
AcDbEntity
  8
7_ALL_ROUNDS
100
AcDbCircle
 62
7
  6
CONTINUOUS
 10
13.7717348524
 20
7.4730705424
 40
0.0393700787
100
AcDbArc
 50
90.0
 51
180.0
  0
ARC
  5
68A
100
AcDbEntity
  8
7_ALL_ROUNDS
100
AcDbCircle
 62
7
  6
CONTINUOUS
 10
13.7717348524
 20
7.3891842167
 40
0.0393700787
100
AcDbArc
 50
180.0
 51
252.897271031
  0
ARC
  5
68B
100
AcDbEntity
  8
7_ALL_ROUNDS
100
AcDbCircle
 62
7
  6
CONTINUOUS
 10
13.8426416647
 20
7.3333067628
 40
0.0393700787
100
AcDbArc
 50
221.3477772197
 51
270.0
  0
ARC
  5
68C
100
AcDbEntity
  8
7_ALL_ROUNDS
100
AcDbCircle
 62
7
  6
CONTINUOUS
 10
14.2126390637
 20
7.3333067628
 40
0.0393700787
100
AcDbArc
 50
270.0
 51
318.6522227803
  0
ARC
  5
68D
100
AcDbEntity
  8
7_ALL_ROUNDS
100
AcDbCircle
 62
7
  6
CONTINUOUS
 10
14.283545876
 20
7.3891842167
 40
0.0393700787
100
AcDbArc
 50
287.102728969
 51
360.0
  0
ARC
  5
68E
100
AcDbEntity
  8
7_ALL_ROUNDS
100
AcDbCircle
 62
7
  6
CONTINUOUS
 10
14.283545876
 20
7.4730705424
 40
0.0393700787
100
AcDbArc
 50
0.0
 51
90.0
  0
ARC
  5
68F
100
AcDbEntity
  8
7_ALL_ROUNDS
100
AcDbCircle
 62
7
  6
CONTINUOUS
 10
14.283545876
 20
7.4730705424
 40
0.0196850394
100
AcDbArc
 50
0.0
 51
90.0
  0
ARC
  5
690
100
AcDbEntity
  8
7_ALL_ROUNDS
100
AcDbCircle
 62
7
  6
CONTINUOUS
 10
14.283545876
 20
7.3891842167
 40
0.0196850394
100
AcDbArc
 50
287.102728969
 51
360.0
  0
ARC
  5
691
100
AcDbEntity
  8
7_ALL_ROUNDS
100
AcDbCircle
 62
7
  6
CONTINUOUS
 10
14.2126390637
 20
7.3333067628
 40
0.0196850394
100
AcDbArc
 50
270.0
 51
318.6522227803
  0
ARC
  5
692
100
AcDbEntity
  8
7_ALL_ROUNDS
100
AcDbCircle
 62
7
  6
CONTINUOUS
 10
13.8426416647
 20
7.3333067628
 40
0.0196850394
100
AcDbArc
 50
221.3477772197
 51
270.0
  0
ARC
  5
693
100
AcDbEntity
  8
7_ALL_ROUNDS
100
AcDbCircle
 62
7
  6
CONTINUOUS
 10
13.7717348524
 20
7.3891842167
 40
0.0196850394
100
AcDbArc
 50
180.0
 51
252.897271031
  0
ARC
  5
694
100
AcDbEntity
  8
7_ALL_ROUNDS
100
AcDbCircle
 62
7
  6
CONTINUOUS
 10
13.7717348524
 20
7.4730705424
 40
0.0196850394
100
AcDbArc
 50
90.0
 51
180.0
  0
ARC
  5
695
100
AcDbEntity
  8
7_ALL_ROUNDS
100
AcDbCircle
 62
7
  6
CONTINUOUS
 10
14.275949205
 20
7.3456551667
 40
0.0196850394
100
AcDbArc
 50
107.102728969
 51
138.6522227803
  0
ARC
  5
696
100
AcDbEntity
  8
7_ALL_ROUNDS
100
AcDbCircle
 62
7
  6
CONTINUOUS
 10
13.7793315234
 20
7.3456551667
 40
0.0196850394
100
AcDbArc
 50
41.3477772197
 51
72.897271031
  0
ARC
  5
697
100
AcDbEntity
  8
0
100
AcDbCircle
 62
7
  6
CONTINUOUS
 10
17.9410261909
 20
7.0714957392
 40
0.0393700787
100
AcDbArc
 50
180.0000000001
 51
270.0
  0
ARC
  5
698
100
AcDbEntity
  8
0
100
AcDbCircle
 62
7
  6
CONTINUOUS
 10
15.6174041437
 20
7.4390154242
 40
0.1377952756
100
AcDbArc
 50
225.5846914028
 51
314.4153085972
  0
ARC
  5
699
100
AcDbEntity
  8
0
100
AcDbCircle
 62
7
  6
CONTINUOUS
 10
15.4174041437
 20
7.4390154242
 40
0.1377952756
100
AcDbArc
 50
225.5846914028
 51
314.4153085972
  0
ARC
  5
69A
100
AcDbEntity
  8
0
100
AcDbCircle
 62
7
  6
CONTINUOUS
 10
15.2174041437
 20
7.4390154242
 40
0.1377952756
100
AcDbArc
 50
225.5846914028
 51
314.4153085972
  0
CIRCLE
  5
69B
100
AcDbEntity
  8
0
100
AcDbCircle
 62
7
  6
CONTINUOUS
 10
14.6614986319
 20
7.4297634557
 40
0.0393700787
  0
ARC
  5
69C
100
AcDbEntity
  8
7_ALL_ROUNDS
100
AcDbCircle
 62
7
  6
CONTINUOUS
 10
14.2981574378
 20
7.3112968565
 40
0.0393700787
100
AcDbArc
 50
107.102728969
 51
138.6522227803
  0
CIRCLE
  5
69D
100
AcDbEntity
  8
0
100
AcDbCircle
 62
7
  6
CONTINUOUS
 10
16.5843332776
 20
7.390393377
 40
0.0377436107
  0
CIRCLE
  5
69E
100
AcDbEntity
  8
0
100
AcDbCircle
 62
7
  6
CONTINUOUS
 10
16.3843332776
 20
7.390393377
 40
0.0377436107
  0
CIRCLE
  5
69F
100
AcDbEntity
  8
0
100
AcDbCircle
 62
7
  6
CONTINUOUS
 10
15.6174041437
 20
7.4390154242
 40
0.0196850394
  0
CIRCLE
  5
6A0
100
AcDbEntity
  8
0
100
AcDbCircle
 62
7
  6
CONTINUOUS
 10
15.4174041437
 20
7.4390154242
 40
0.0196850394
  0
CIRCLE
  5
6A1
100
AcDbEntity
  8
0
100
AcDbCircle
 62
7
  6
CONTINUOUS
 10
15.2174041437
 20
7.4390154242
 40
0.0196850394
  0
CIRCLE
  5
6A2
100
AcDbEntity
  8
0
100
AcDbCircle
 62
7
  6
CONTINUOUS
 10
15.6174041437
 20
7.4390154242
 40
0.0118110236
  0
CIRCLE
  5
6A3
100
AcDbEntity
  8
0
100
AcDbCircle
 62
7
  6
CONTINUOUS
 10
15.4174041437
 20
7.4390154242
 40
0.0118110236
  0
CIRCLE
  5
6A4
100
AcDbEntity
  8
0
100
AcDbCircle
 62
7
  6
CONTINUOUS
 10
15.2174041437
 20
7.4390154242
 40
0.0118110236
  0
ARC
  5
6A5
100
AcDbEntity
  8
7_ALL_ROUNDS
100
AcDbCircle
 62
7
  6
CONTINUOUS
 10
3.6658900223
 20
7.4061414085
 40
0.1181102362
100
AcDbArc
 50
180.0
 51
270.0
  0
ARC
  5
6A6
100
AcDbEntity
  8
7_ALL_ROUNDS
100
AcDbCircle
 62
7
  6
CONTINUOUS
 10
3.6658900223
 20
7.4061414085
 40
0.0787401575
100
AcDbArc
 50
180.0
 51
270.0
  0
ARC
  5
6A7
100
AcDbEntity
  8
7_ALL_ROUNDS
100
AcDbCircle
 62
7
  6
CONTINUOUS
 10
3.6698270302
 20
7.4100784164
 40
0.0787401575
100
AcDbArc
 50
180.0
 51
270.0
  0
ARC
  5
6A8
100
AcDbEntity
  8
7_ALL_ROUNDS
100
AcDbCircle
 62
7
  6
CONTINUOUS
 10
2.7349451405
 20
7.2687831408
 40
0.01
100
AcDbArc
 50
180.0
 51
270.0
  0
ARC
  5
6A9
100
AcDbEntity
  8
7_ALL_ROUNDS
100
AcDbCircle
 62
7
  6
CONTINUOUS
 10
2.7349451405
 20
7.5437831408
 40
0.01
100
AcDbArc
 50
90.0
 51
180.0
  0
ARC
  5
6AA
100
AcDbEntity
  8
7_ALL_ROUNDS
100
AcDbCircle
 62
7
  6
CONTINUOUS
 10
2.9178585263
 20
7.6029918022
 40
0.1181102362
100
AcDbArc
 50
90.0
 51
180.0
  0
CIRCLE
  5
6AB
100
AcDbEntity
  8
0
100
AcDbCircle
 62
7
  6
CONTINUOUS
 10
3.3902994712
 20
7.5242516447
 40
0.1003937008
  0
CIRCLE
  5
6AC
100
AcDbEntity
  8
0
100
AcDbCircle
 62
7
  6
CONTINUOUS
 10
3.3902994712
 20
7.5242516447
 40
0.062992126
  0
CIRCLE
  5
6AD
100
AcDbEntity
  8
7_ALL_ROUNDS
100
AcDbCircle
 62
7
  6
CONTINUOUS
 10
3.3902994712
 20
7.5242516447
 40
0.0492125984
  0
ARC
  5
6AE
100
AcDbEntity
  8
7_ALL_ROUNDS
100
AcDbCircle
 62
7
  6
CONTINUOUS
 10
3.4296695499
 20
7.6029918022
 40
0.1181102362
100
AcDbArc
 50
0.0
 51
90.0
  0
ARC
  5
6AF
100
AcDbEntity
  8
7_ALL_ROUNDS
100
AcDbCircle
 62
7
  6
CONTINUOUS
 10
3.6658900223
 20
7.6423618809
 40
0.0787401575
100
AcDbArc
 50
90.0
 51
180.0
  0
ARC
  5
6B0
100
AcDbEntity
  8
7_ALL_ROUNDS
100
AcDbCircle
 62
7
  6
CONTINUOUS
 10
3.6698270302
 20
7.6384248731
 40
0.0787401575
100
AcDbArc
 50
90.0
 51
180.0
  0
ARC
  5
6B1
100
AcDbEntity
  8
7_ALL_ROUNDS
100
AcDbCircle
 62
7
  6
CONTINUOUS
 10
5.2800632507
 20
7.4061414085
 40
0.1181102362
100
AcDbArc
 50
270.0
 51
360.0
  0
ARC
  5
6B2
100
AcDbEntity
  8
7_ALL_ROUNDS
100
AcDbCircle
 62
7
  6
CONTINUOUS
 10
5.2800632507
 20
7.4061414085
 40
0.0787401575
100
AcDbArc
 50
270.0
 51
360.0
  0
ARC
  5
6B3
100
AcDbEntity
  8
7_ALL_ROUNDS
100
AcDbCircle
 62
7
  6
CONTINUOUS
 10
5.2761262428
 20
7.4100784164
 40
0.0787401575
100
AcDbArc
 50
270.0
 51
360.0
  0
CIRCLE
  5
6B4
100
AcDbEntity
  8
0
100
AcDbCircle
 62
7
  6
CONTINUOUS
 10
5.5556538019
 20
7.5242516447
 40
0.1003937008
  0
CIRCLE
  5
6B5
100
AcDbEntity
  8
0
100
AcDbCircle
 62
7
  6
CONTINUOUS
 10
5.5556538019
 20
7.5242516447
 40
0.062992126
  0
CIRCLE
  5
6B6
100
AcDbEntity
  8
7_ALL_ROUNDS
100
AcDbCircle
 62
7
  6
CONTINUOUS
 10
5.5556538019
 20
7.5242516447
 40
0.0492125984
  0
ARC
  5
6B7
100
AcDbEntity
  8
7_ALL_ROUNDS
100
AcDbCircle
 62
7
  6
CONTINUOUS
 10
5.5162837231
 20
7.6029918022
 40
0.1181102362
100
AcDbArc
 50
90.0
 51
180.0
  0
ARC
  5
6B8
100
AcDbEntity
  8
7_ALL_ROUNDS
100
AcDbCircle
 62
7
  6
CONTINUOUS
 10
5.2800632507
 20
7.6423618809
 40
0.0787401575
100
AcDbArc
 50
0.0
 51
90.0
  0
ARC
  5
6B9
100
AcDbEntity
  8
7_ALL_ROUNDS
100
AcDbCircle
 62
7
  6
CONTINUOUS
 10
5.2761262428
 20
7.6384248731
 40
0.0787401575
100
AcDbArc
 50
0.0
 51
90.0
  0
ARC
  5
6BA
100
AcDbEntity
  8
7_ALL_ROUNDS
100
AcDbCircle
 62
7
  6
CONTINUOUS
 10
6.0280947468
 20
7.6029918022
 40
0.1181102362
100
AcDbArc
 50
0.0
 51
90.0
  0
ARC
  5
6BB
100
AcDbEntity
  8
0
100
AcDbCircle
 62
7
  6
CONTINUOUS
 10
10.3740970571
 20
13.4716031409
 40
0.1338582677
100
AcDbArc
 50
120.9777977806
 51
239.0222022194
  0
ARC
  5
6BC
100
AcDbEntity
  8
0
100
AcDbCircle
 62
7
  6
CONTINUOUS
 10
10.3740970571
 20
13.4716031409
 40
0.1338582677
100
AcDbArc
 50
300.9777977806
 51
59.0222022194
  0
ARC
  5
6BD
100
AcDbEntity
  8
0
100
AcDbCircle
 62
7
  6
CONTINUOUS
 10
10.3740970571
 20
11.4637291252
 40
0.1338582677
100
AcDbArc
 50
120.9777977806
 51
239.0222022194
  0
ARC
  5
6BE
100
AcDbEntity
  8
0
100
AcDbCircle
 62
7
  6
CONTINUOUS
 10
10.3740970571
 20
11.4637291252
 40
0.1338582677
100
AcDbArc
 50
300.9777977806
 51
59.0222022194
  0
ARC
  5
6BF
100
AcDbEntity
  8
0
100
AcDbCircle
 62
7
  6
CONTINUOUS
 10
18.2166167421
 20
13.4716031409
 40
0.1338582677
100
AcDbArc
 50
120.9777977806
 51
239.0222022194
  0
ARC
  5
6C0
100
AcDbEntity
  8
0
100
AcDbCircle
 62
7
  6
CONTINUOUS
 10
18.2166167421
 20
13.4716031409
 40
0.1338582677
100
AcDbArc
 50
300.9777977806
 51
59.0222022194
  0
ARC
  5
6C1
100
AcDbEntity
  8
0
100
AcDbCircle
 62
7
  6
CONTINUOUS
 10
18.2166167421
 20
11.4637291252
 40
0.1338582677
100
AcDbArc
 50
120.9777977806
 51
239.0222022194
  0
ARC
  5
6C2
100
AcDbEntity
  8
0
100
AcDbCircle
 62
7
  6
CONTINUOUS
 10
18.2166167421
 20
11.4637291252
 40
0.1338582677
100
AcDbArc
 50
300.9777977806
 51
59.0222022194
  0
ARC
  5
6C3
100
AcDbEntity
  8
7_ALL_ROUNDS
100
AcDbCircle
 62
7
  6
CONTINUOUS
 10
10.2166167421
 20
10.9125480228
 40
0.1181102362
100
AcDbArc
 50
180.0
 51
270.0
  0
ARC
  5
6C4
100
AcDbEntity
  8
7_ALL_ROUNDS
100
AcDbCircle
 62
7
  6
CONTINUOUS
 10
10.2166167421
 20
14.0227842433
 40
0.1181102362
100
AcDbArc
 50
90.0
 51
180.0
  0
ARC
  5
6C5
100
AcDbEntity
  8
7_ALL_ROUNDS
100
AcDbCircle
 62
7
  6
CONTINUOUS
 10
18.3740970571
 20
10.9125480228
 40
0.1181102362
100
AcDbArc
 50
270.0
 51
360.0
  0
ARC
  5
6C6
100
AcDbEntity
  8
7_ALL_ROUNDS
100
AcDbCircle
 62
7
  6
CONTINUOUS
 10
18.3740970571
 20
14.0227842433
 40
0.1181102362
100
AcDbArc
 50
0.0
 51
90.0
  0
ARC
  5
6C7
100
AcDbEntity
  8
0
100
AcDbCircle
 62
7
  6
CONTINUOUS
 10
10.3740970571
 20
13.2353826685
 40
0.0688976378
100
AcDbArc
 50
180.0
 51
360.0
  0
ARC
  5
6C8
100
AcDbEntity
  8
0
100
AcDbCircle
 62
7
  6
CONTINUOUS
 10
10.3740970571
 20
13.7078236134
 40
0.0688976378
100
AcDbArc
 50
0.0
 51
180.0
  0
ARC
  5
6C9
100
AcDbEntity
  8
0
100
AcDbCircle
 62
7
  6
CONTINUOUS
 10
10.3740970571
 20
11.2275086527
 40
0.0688976378
100
AcDbArc
 50
180.0
 51
360.0
  0
ARC
  5
6CA
100
AcDbEntity
  8
0
100
AcDbCircle
 62
7
  6
CONTINUOUS
 10
10.3740970571
 20
11.6999495976
 40
0.0688976378
100
AcDbArc
 50
0.0
 51
180.0
  0
ARC
  5
6CB
100
AcDbEntity
  8
0
100
AcDbCircle
 62
7
  6
CONTINUOUS
 10
18.2166167421
 20
13.2353826685
 40
0.0688976378
100
AcDbArc
 50
180.0
 51
360.0
  0
ARC
  5
6CC
100
AcDbEntity
  8
0
100
AcDbCircle
 62
7
  6
CONTINUOUS
 10
18.2166167421
 20
13.7078236134
 40
0.0688976378
100
AcDbArc
 50
0.0
 51
180.0
  0
ARC
  5
6CD
100
AcDbEntity
  8
0
100
AcDbCircle
 62
7
  6
CONTINUOUS
 10
18.2166167421
 20
11.2275086527
 40
0.0688976378
100
AcDbArc
 50
180.0
 51
360.0
  0
ARC
  5
6CE
100
AcDbEntity
  8
0
100
AcDbCircle
 62
7
  6
CONTINUOUS
 10
18.2166167421
 20
11.6999495976
 40
0.0688976378
100
AcDbArc
 50
0.0
 51
180.0
  0
ARC
  5
6CF
100
AcDbEntity
  8
0
100
AcDbCircle
 62
7
  6
CONTINUOUS
 10
12.378034065
 20
14.0877448732
 40
0.0590551181
100
AcDbArc
 50
65.5298480248
 51
114.4701519752
  0
ARC
  5
6D0
100
AcDbEntity
  8
0
100
AcDbCircle
 62
7
  6
CONTINUOUS
 10
13.063073435
 20
14.0877448732
 40
0.0590551181
100
AcDbArc
 50
65.5298480248
 51
114.4701519752
  0
ARC
  5
6D1
100
AcDbEntity
  8
7_ALL_ROUNDS
100
AcDbCircle
 62
7
  6
CONTINUOUS
 10
11.9759356398
 20
14.2056976291
 40
0.01
100
AcDbArc
 50
0.0
 51
90.0000000039
  0
ARC
  5
6D2
100
AcDbEntity
  8
7_ALL_ROUNDS
100
AcDbCircle
 62
7
  6
CONTINUOUS
 10
11.7009356398
 20
14.2056976291
 40
0.01
100
AcDbArc
 50
90.0
 51
180.0
  0
ARC
  5
6D3
100
AcDbEntity
  8
0
100
AcDbCircle
 62
7
  6
CONTINUOUS
 10
11.8384356398
 20
17.450541299
 40
0.1593110236
100
AcDbArc
 50
180.0
 51
179.3782415352
  0
ARC
  5
6D4
100
AcDbEntity
  8
7_ALL_ROUNDS
100
AcDbCircle
 62
7
  6
CONTINUOUS
 10
11.8384356398
 20
17.450541299
 40
0.1475
100
AcDbArc
 50
359.9999995432
 51
359.4453004689
  0
CIRCLE
  5
6D5
100
AcDbEntity
  8
7_ALL_ROUNDS
100
AcDbCircle
 62
9
  6
CONTINUOUS
 10
11.8384356398
 20
17.450541299
 40
0.1375
  0
CIRCLE
  5
6D6
100
AcDbEntity
  8
0
100
AcDbCircle
 62
7
  6
CONTINUOUS
 10
13.063073435
 20
17.4624940549
 40
0.0688976378
  0
CIRCLE
  5
6D7
100
AcDbEntity
  8
0
100
AcDbCircle
 62
7
  6
CONTINUOUS
 10
12.378034065
 20
17.4624940549
 40
0.0688976378
  0
CIRCLE
  5
6D8
100
AcDbEntity
  8
0
100
AcDbCircle
 62
7
  6
CONTINUOUS
 10
12.378034065
 20
17.4624940549
 40
0.0590551181
  0
CIRCLE
  5
6D9
100
AcDbEntity
  8
0
100
AcDbCircle
 62
7
  6
CONTINUOUS
 10
13.063073435
 20
17.4624940549
 40
0.0590551181
  0
ARC
  5
6DA
100
AcDbEntity
  8
0
100
AcDbCircle
 62
7
  6
CONTINUOUS
 10
10.6496876083
 20
17.7853287006
 40
0.0393700787
100
AcDbArc
 50
0.0
 51
90.0
  0
ARC
  5
6DB
100
AcDbEntity
  8
0
100
AcDbCircle
 62
7
  6
CONTINUOUS
 10
17.9410261909
 20
17.7853287006
 40
0.0393700787
100
AcDbArc
 50
90.0
 51
179.9999999999
  0
ARC
  5
6DC
100
AcDbEntity
  8
0
100
AcDbCircle
 62
7
  6
CONTINUOUS
 10
29.9981714521
 20
14.0466986362
 40
0.1411044265
100
AcDbArc
 50
164.875226904
 51
166.387031522
  0
ARC
  5
6DD
100
AcDbEntity
  8
0
100
AcDbCircle
 62
7
  6
CONTINUOUS
 10
31.529308183
 20
14.9309323372
 40
0.1411044265
100
AcDbArc
 50
164.8752269039
 51
166.3870315221
  0
ARC
  5
6DE
100
AcDbEntity
  8
0
100
AcDbCircle
 62
7
  6
CONTINUOUS
 10
29.993316447
 20
14.0478782631
 40
0.13610817
100
AcDbArc
 50
166.3886329687
 51
167.814226869
  0
ARC
  5
6DF
100
AcDbEntity
  8
0
100
AcDbCircle
 62
7
  6
CONTINUOUS
 10
31.5244531779
 20
14.932111964
 40
0.13610817
100
AcDbArc
 50
166.3886329687
 51
167.8142268689
  0
ARC
  5
6E0
100
AcDbEntity
  8
7_ALL_ROUNDS
100
AcDbCircle
 62
7
  6
CONTINUOUS
 10
30.1479797958
 20
14.0614514807
 40
0.1080788169
100
AcDbArc
 50
179.9976886502
 51
181.0576066414
  0
ARC
  5
6E1
100
AcDbEntity
  8
7_ALL_ROUNDS
100
AcDbCircle
 62
7
  6
CONTINUOUS
 10
30.1431237244
 20
14.0613405855
 40
0.1032215281
100
AcDbArc
 50
181.045814319
 51
183.6155525907
  0
ARC
  5
6E2
100
AcDbEntity
  8
0
100
AcDbCircle
 62
7
  6
CONTINUOUS
 10
29.9497908533
 20
14.0525836296
 40
0.0922344873
100
AcDbArc
 50
179.1512627897
 51
182.1440382273
  0
ARC
  5
6E3
100
AcDbEntity
  8
0
100
AcDbCircle
 62
7
  6
CONTINUOUS
 10
31.4809275842
 20
14.9368173305
 40
0.0922344873
100
AcDbArc
 50
179.1512627897
 51
182.1440382273
  0
ARC
  5
6E4
100
AcDbEntity
  8
7_ALL_ROUNDS
100
AcDbCircle
 62
7
  6
CONTINUOUS
 10
31.1970679078
 20
14.7865138477
 40
0.0742195608
100
AcDbArc
 50
300.0088617173
 51
300.8978517556
  0
ARC
  5
6E5
100
AcDbEntity
  8
7_ALL_ROUNDS
100
AcDbCircle
 62
7
  6
CONTINUOUS
 10
31.215689986
 20
14.8186832249
 40
0.0741753425
100
AcDbArc
 50
359.1089685942
 51
359.9976367148
  0
ARC
  5
6E6
100
AcDbEntity
  8
7_ALL_ROUNDS
100
AcDbCircle
 62
7
  6
CONTINUOUS
 10
26.5438792331
 20
15.3821041348
 40
0.0680415387
100
AcDbArc
 50
27.8883872929
 51
33.9661670795
  0
ARC
  5
6E7
100
AcDbEntity
  8
7_ALL_ROUNDS
100
AcDbCircle
 62
7
  6
CONTINUOUS
 10
26.6823269973
 20
15.4102132608
 40
0.0674740842
100
AcDbArc
 50
207.8915753909
 51
209.3858957841
  0
ARC
  5
6E8
100
AcDbEntity
  8
7_ALL_ROUNDS
100
AcDbCircle
 62
7
  6
CONTINUOUS
 10
26.5528946916
 20
15.3896196714
 40
0.0562837066
100
AcDbArc
 50
43.2777961804
 51
46.9632674358
  0
ARC
  5
6E9
100
AcDbEntity
  8
0
100
AcDbCircle
 62
7
  6
CONTINUOUS
 10
29.934169357
 20
14.1095971132
 40
0.0557439831
100
AcDbArc
 50
116.7999697381
 51
120.0271407024
  0
ARC
  5
6EA
100
AcDbEntity
  8
0
100
AcDbCircle
 62
7
  6
CONTINUOUS
 10
31.4653060879
 20
14.9938308141
 40
0.0557439831
100
AcDbArc
 50
116.7999697377
 51
120.0271407029
  0
ARC
  5
6EB
100
AcDbEntity
  8
0
100
AcDbCircle
 62
7
  6
CONTINUOUS
 10
30.2615491476
 20
13.6096450368
 40
0.0516597734
100
AcDbArc
 50
22.2989746344
 51
23.3870654928
  0
ARC
  5
6EC
100
AcDbEntity
  8
0
100
AcDbCircle
 62
7
  6
CONTINUOUS
 10
31.6813304799
 20
14.4295708322
 40
0.0516597734
100
AcDbArc
 50
22.2989746341
 51
23.387065493
  0
ARC
  5
6ED
100
AcDbEntity
  8
7_ALL_ROUNDS
100
AcDbCircle
 62
7
  6
CONTINUOUS
 10
30.0874130522
 20
14.090284488
 40
0.0472211783
100
AcDbArc
 50
193.0033566978
 51
198.4768426105
  0
ARC
  5
6EE
100
AcDbEntity
  8
7_ALL_ROUNDS
100
AcDbCircle
 62
7
  6
CONTINUOUS
 10
26.5995646386
 20
15.5469812248
 40
0.0339521136
100
AcDbArc
 50
174.709342857
 51
180.0577716269
  0
ARC
  5
6EF
100
AcDbEntity
  8
7_ALL_ROUNDS
100
AcDbCircle
 62
7
  6
CONTINUOUS
 10
31.2603274147
 20
15.0182127576
 40
0.0264643549
100
AcDbArc
 50
55.0329377613
 51
59.9897941414
  0
ARC
  5
6F0
100
AcDbEntity
  8
7_ALL_ROUNDS
100
AcDbCircle
 62
7
  6
CONTINUOUS
 10
30.0694069342
 20
14.0804449896
 40
0.0264034325
100
AcDbArc
 50
239.9935226699
 51
241.5799174029
  0
ARC
  5
6F1
100
AcDbEntity
  8
7_ALL_ROUNDS
100
AcDbCircle
 62
7
  6
CONTINUOUS
 10
23.5546604247
 20
7.4061414085
 40
0.1181102362
100
AcDbArc
 50
180.0
 51
270.0
  0
ARC
  5
6F2
100
AcDbEntity
  8
7_ALL_ROUNDS
100
AcDbCircle
 62
7
  6
CONTINUOUS
 10
23.5546604247
 20
7.4061414085
 40
0.0787401575
100
AcDbArc
 50
180.0
 51
270.0
  0
ARC
  5
6F3
100
AcDbEntity
  8
7_ALL_ROUNDS
100
AcDbCircle
 62
7
  6
CONTINUOUS
 10
23.5585974325
 20
7.4100784164
 40
0.0787401575
100
AcDbArc
 50
180.0
 51
270.0
  0
ARC
  5
6F4
100
AcDbEntity
  8
7_ALL_ROUNDS
100
AcDbCircle
 62
7
  6
CONTINUOUS
 10
22.8066289286
 20
7.6029918022
 40
0.1181102362
100
AcDbArc
 50
90.0
 51
180.0
  0
ARC
  5
6F5
100
AcDbEntity
  8
7_ALL_ROUNDS
100
AcDbCircle
 62
7
  6
CONTINUOUS
 10
23.3184399522
 20
7.6029918022
 40
0.1181102362
100
AcDbArc
 50
0.0
 51
90.0
  0
CIRCLE
  5
6F6
100
AcDbEntity
  8
0
100
AcDbCircle
 62
7
  6
CONTINUOUS
 10
23.2790698735
 20
7.5242516447
 40
0.1003937008
  0
ARC
  5
6F7
100
AcDbEntity
  8
7_ALL_ROUNDS
100
AcDbCircle
 62
7
  6
CONTINUOUS
 10
23.5546604247
 20
7.6423618809
 40
0.0787401575
100
AcDbArc
 50
90.0
 51
180.0
  0
ARC
  5
6F8
100
AcDbEntity
  8
7_ALL_ROUNDS
100
AcDbCircle
 62
7
  6
CONTINUOUS
 10
23.5585974325
 20
7.6384248731
 40
0.0787401575
100
AcDbArc
 50
90.0
 51
180.0
  0
CIRCLE
  5
6F9
100
AcDbEntity
  8
0
100
AcDbCircle
 62
7
  6
CONTINUOUS
 10
23.2790698735
 20
7.5242516447
 40
0.062992126
  0
CIRCLE
  5
6FA
100
AcDbEntity
  8
7_ALL_ROUNDS
100
AcDbCircle
 62
7
  6
CONTINUOUS
 10
23.2790698735
 20
7.5242516447
 40
0.0492125984
  0
ARC
  5
6FB
100
AcDbEntity
  8
7_ALL_ROUNDS
100
AcDbCircle
 62
7
  6
CONTINUOUS
 10
25.168833653
 20
7.4061414085
 40
0.1181102362
100
AcDbArc
 50
270.0
 51
360.0
  0
ARC
  5
6FC
100
AcDbEntity
  8
7_ALL_ROUNDS
100
AcDbCircle
 62
7
  6
CONTINUOUS
 10
25.168833653
 20
7.4061414085
 40
0.0787401575
100
AcDbArc
 50
270.0
 51
360.0
  0
ARC
  5
6FD
100
AcDbEntity
  8
7_ALL_ROUNDS
100
AcDbCircle
 62
7
  6
CONTINUOUS
 10
25.1648966451
 20
7.4100784164
 40
0.0787401575
100
AcDbArc
 50
270.0
 51
360.0
  0
ARC
  5
6FE
100
AcDbEntity
  8
0
100
AcDbCircle
 62
7
  6
CONTINUOUS
 10
25.981825779
 20
7.3943303849
 40
0.0590551181
100
AcDbArc
 50
335.0214159611
 51
24.9785840389
  0
ARC
  5
6FF
100
AcDbEntity
  8
7_ALL_ROUNDS
100
AcDbCircle
 62
7
  6
CONTINUOUS
 10
26.0997785349
 20
7.2687831408
 40
0.01
100
AcDbArc
 50
270.0
 51
360.0
  0
ARC
  5
700
100
AcDbEntity
  8
7_ALL_ROUNDS
100
AcDbCircle
 62
7
  6
CONTINUOUS
 10
25.9168651491
 20
7.6029918022
 40
0.1181102362
100
AcDbArc
 50
0.0
 51
90.0
  0
ARC
  5
701
100
AcDbEntity
  8
7_ALL_ROUNDS
100
AcDbCircle
 62
7
  6
CONTINUOUS
 10
25.4050541255
 20
7.6029918022
 40
0.1181102362
100
AcDbArc
 50
90.0
 51
180.0
  0
CIRCLE
  5
702
100
AcDbEntity
  8
0
100
AcDbCircle
 62
7
  6
CONTINUOUS
 10
25.4444242042
 20
7.5242516447
 40
0.1003937008
  0
ARC
  5
703
100
AcDbEntity
  8
7_ALL_ROUNDS
100
AcDbCircle
 62
7
  6
CONTINUOUS
 10
25.168833653
 20
7.6423618809
 40
0.0787401575
100
AcDbArc
 50
0.0
 51
90.0
  0
ARC
  5
704
100
AcDbEntity
  8
7_ALL_ROUNDS
100
AcDbCircle
 62
7
  6
CONTINUOUS
 10
25.1648966451
 20
7.6384248731
 40
0.0787401575
100
AcDbArc
 50
0.0
 51
90.0
  0
CIRCLE
  5
705
100
AcDbEntity
  8
0
100
AcDbCircle
 62
7
  6
CONTINUOUS
 10
25.4444242042
 20
7.5242516447
 40
0.062992126
  0
CIRCLE
  5
706
100
AcDbEntity
  8
7_ALL_ROUNDS
100
AcDbCircle
 62
7
  6
CONTINUOUS
 10
25.4444242042
 20
7.5242516447
 40
0.0492125984
  0
ARC
  5
707
100
AcDbEntity
  8
7_ALL_ROUNDS
100
AcDbCircle
 62
7
  6
CONTINUOUS
 10
26.0997785349
 20
7.5437831408
 40
0.01
100
AcDbArc
 50
0.0
 51
90.0
  0
SPLINE
  5
708
100
AcDbEntity
  8
7_ALL_ROUNDS
100
AcDbSpline
 62
7
  6
CONTINUOUS
 70
0
 71
3
 72
9
 73
5
 74
0
 42
0.0000001
 43
0.0000001
 44
0.0000000001
 40
0.0
 40
0.0
 40
0.0
 40
0.0
 40
0.4492178748
 40
1.0
 40
1.0
 40
1.0
 40
1.0
 10
26.5392020892
 20
15.5540973158
 30
0.0
 10
26.5423894188
 20
15.5559379789
 30
0.0
 10
26.551111706
 20
15.5572573582
 30
0.0
 10
26.5589207132
 20
15.5540117735
 30
0.0
 10
26.5628286573
 20
15.5517549301
 30
0.0
  0
SPLINE
  5
709
100
AcDbEntity
  8
7_ALL_ROUNDS
100
AcDbSpline
 62
7
  6
CONTINUOUS
 70
0
 71
3
 72
8
 73
4
 74
0
 42
0.0000001
 43
0.0000001
 44
0.0000000001
 40
0.0
 40
0.0
 40
0.0
 40
0.0
 40
1.0
 40
1.0
 40
1.0
 40
1.0
 10
26.9460071311
 20
15.2179296638
 30
0.0
 10
26.9480342715
 20
15.2190980887
 30
0.0
 10
26.9504435134
 20
15.2197023792
 30
0.0
 10
26.952782465
 20
15.2197641898
 30
0.0
  0
SPLINE
  5
70A
100
AcDbEntity
  8
7_ALL_ROUNDS
100
AcDbSpline
 62
7
  6
CONTINUOUS
 70
0
 71
3
 72
8
 73
4
 74
0
 42
0.0000001
 43
0.0000001
 44
0.0000000001
 40
0.0
 40
0.0
 40
0.0
 40
0.0
 40
1.0
 40
1.0
 40
1.0
 40
1.0
 10
26.952782465
 20
15.2197641898
 30
0.0
 10
26.9543631276
 20
15.2198059615
 30
0.0
 10
26.9559578099
 20
15.2196233287
 30
0.0
 10
26.9575013601
 20
15.2192802661
 30
0.0
  0
SPLINE
  5
70B
100
AcDbEntity
  8
7_ALL_ROUNDS
100
AcDbSpline
 62
7
  6
CONTINUOUS
 70
0
 71
3
 72
8
 73
4
 74
0
 42
0.0000001
 43
0.0000001
 44
0.0000000001
 40
0.0
 40
0.0
 40
0.0
 40
0.0
 40
1.0
 40
1.0
 40
1.0
 40
1.0
 10
30.056202633
 20
14.0575804389
 30
0.0
 10
30.0541338838
 20
14.0587751467
 30
0.0
 10
30.0522145987
 20
14.0602679569
 30
0.0
 10
30.0505344733
 20
14.0619662586
 30
0.0
  0
LINE
  5
70C
100
AcDbEntity
  8
7_ALL_ROUNDS
100
AcDbLine
 62
7
  6
CONTINUOUS
 10
30.0505344733
 20
14.0619662586
 11
30.0474810127
 21
14.0656055764
  0
SPLINE
  5
70D
100
AcDbEntity
  8
7_ALL_ROUNDS
100
AcDbSpline
 62
7
  6
CONTINUOUS
 70
0
 71
3
 72
9
 73
5
 74
0
 42
0.0000001
 43
0.0000001
 44
0.0000000001
 40
0.0
 40
0.0
 40
0.0
 40
0.0
 40
0.2399894066
 40
1.0
 40
1.0
 40
1.0
 40
1.0
 10
30.0474810127
 20
14.0656055764
 30
0.0
 10
30.046975657
 20
14.0663144037
 30
0.0
 10
30.044992266
 20
14.0693547939
 30
0.0
 10
30.043503057
 20
14.0727054747
 30
0.0
 10
30.0426260395
 20
14.0753190887
 30
0.0
  0
SPLINE
  5
70E
100
AcDbEntity
  8
7_ALL_ROUNDS
100
AcDbSpline
 62
7
  6
CONTINUOUS
 70
0
 71
3
 72
9
 73
5
 74
0
 42
0.0000001
 43
0.0000001
 44
0.0000000001
 40
0.0
 40
0.0
 40
0.0
 40
0.0
 40
0.4764796399
 40
1.0
 40
1.0
 40
1.0
 40
1.0
 10
30.058986518
 20
14.062402269
 30
0.0
 10
30.0621140025
 20
14.0605961391
 30
0.0
 10
30.069551506
 20
14.0581999404
 30
0.0
 10
30.0772682888
 20
14.0587242868
 30
0.0
 10
30.0811572079
 20
14.0595130257
 30
0.0
  0
SPLINE
  5
70F
100
AcDbEntity
  8
7_ALL_ROUNDS
100
AcDbSpline
 62
7
  6
CONTINUOUS
 70
0
 71
3
 72
9
 73
5
 74
0
 42
0.0000001
 43
0.0000001
 44
0.0000000001
 40
0.0
 40
0.0
 40
0.0
 40
0.0
 40
0.2343714105
 40
1.0
 40
1.0
 40
1.0
 40
1.0
 10
30.0811572079
 20
14.0595130257
 30
0.0
 10
30.0825769827
 20
14.0598009801
 30
0.0
 10
30.0885731918
 20
14.0613313899
 30
0.0
 10
30.094264406
 20
14.0639362349
 30
0.0
 10
30.0983625632
 20
14.0663029267
 30
0.0
  0
SPLINE
  5
710
100
AcDbEntity
  8
0
100
AcDbSpline
 62
7
  6
CONTINUOUS
 70
0
 71
3
 72
9
 73
5
 74
0
 42
0.0000001
 43
0.0000001
 44
0.0000000001
 40
0.0
 40
0.0
 40
0.0
 40
0.0
 40
0.2354210173
 40
1.0
 40
1.0
 40
1.0
 40
1.0
 10
29.4831239859
 20
13.4988690049
 30
0.0
 10
29.4831239859
 20
13.4977926528
 30
0.0
 10
29.4833237385
 20
13.4932210575
 30
0.0
 10
29.4842471594
 20
13.4886960695
 30
0.0
 10
29.4852430922
 20
13.4853452655
 30
0.0
  0
SPLINE
  5
711
100
AcDbEntity
  8
0
100
AcDbSpline
 62
7
  6
CONTINUOUS
 70
0
 71
3
 72
9
 73
5
 74
0
 42
0.0000001
 43
0.0000001
 44
0.0000000001
 40
0.0
 40
0.0
 40
0.0
 40
0.0
 40
0.2446107481
 40
1.0
 40
1.0
 40
1.0
 40
1.0
 10
29.4852430922
 20
13.4853452655
 30
0.0
 10
29.4855957565
 20
13.4841587305
 30
0.0
 10
29.487191467
 20
13.4793546967
 30
0.0
 10
29.4893650532
 20
13.4747461472
 30
0.0
 10
29.4912761948
 20
13.4714355927
 30
0.0
  0
SPLINE
  5
712
100
AcDbEntity
  8
0
100
AcDbSpline
 62
7
  6
CONTINUOUS
 70
0
 71
3
 72
9
 73
5
 74
0
 42
0.0000001
 43
0.0000001
 44
0.0000000001
 40
0.0
 40
0.0
 40
0.0
 40
0.0
 40
0.7553802603
 40
1.0
 40
1.0
 40
1.0
 40
1.0
 10
29.4912761948
 20
13.4714355927
 30
0.0
 10
29.4931882155
 20
13.4681235154
 30
0.0
 10
29.496093691
 20
13.4639347027
 30
0.0
 10
29.4994577208
 20
13.4601488707
 30
0.0
 10
29.500309369
 20
13.4592497089
 30
0.0
  0
SPLINE
  5
713
100
AcDbEntity
  8
0
100
AcDbSpline
 62
7
  6
CONTINUOUS
 70
0
 71
3
 72
9
 73
5
 74
0
 42
0.0000001
 43
0.0000001
 44
0.0000000001
 40
0.0
 40
0.0
 40
0.0
 40
0.0
 40
0.2639388785
 40
1.0
 40
1.0
 40
1.0
 40
1.0
 10
29.500309369
 20
13.4592497089
 30
0.0
 10
29.5011392045
 20
13.4583735769
 30
0.0
 10
29.5043840041
 20
13.455154171
 30
0.0
 10
29.5080485754
 20
13.4523336932
 30
0.0
 10
29.5109628356
 20
13.4506507037
 30
0.0
  0
SPLINE
  5
714
100
AcDbEntity
  8
0
100
AcDbSpline
 62
7
  6
CONTINUOUS
 70
0
 71
3
 72
9
 73
5
 74
0
 42
0.0000001
 43
0.0000001
 44
0.0000000001
 40
0.0
 40
0.0
 40
0.0
 40
0.0
 40
0.5507819368
 40
1.0
 40
1.0
 40
1.0
 40
1.0
 10
24.3552078798
 20
16.4281067293
 30
0.0
 10
24.3584645115
 20
16.4262260197
 30
0.0
 10
24.3649720485
 20
16.4235213558
 30
0.0
 10
24.3722406479
 20
16.424620879
 30
0.0
 10
24.3748967603
 20
16.4261547838
 30
0.0
  0
SPLINE
  5
715
100
AcDbEntity
  8
0
100
AcDbSpline
 62
7
  6
CONTINUOUS
 70
0
 71
3
 72
13
 73
9
 74
0
 42
0.0000001
 43
0.0000001
 44
0.0000000001
 40
0.0
 40
0.0
 40
0.0
 40
0.0
 40
0.2699018057
 40
0.5613268729
 40
0.6954749741
 40
0.8131455923
 40
0.9128567735
 40
1.0
 40
1.0
 40
1.0
 40
1.0
 10
27.2198255091
 20
15.0984132404
 30
0.0
 10
27.2198255091
 20
15.1054464868
 30
0.0
 10
27.2159572565
 20
15.1200259316
 30
0.0
 10
27.2059449065
 20
15.1355030287
 30
0.0
 10
27.1952848701
 20
15.1449574943
 30
0.0
 10
27.1871579535
 20
15.1493936005
 30
0.0
 10
27.1792057367
 20
15.150987067
 30
0.0
 10
27.1742649444
 20
15.1497180765
 30
0.0
 10
27.1722978515
 20
15.1485835318
 30
0.0
  0
SPLINE
  5
716
100
AcDbEntity
  8
7_ALL_ROUNDS
100
AcDbSpline
 62
7
  6
CONTINUOUS
 70
0
 71
3
 72
9
 73
5
 74
0
 42
0.0000001
 43
0.0000001
 44
0.0000000001
 40
0.0
 40
0.0
 40
0.0
 40
0.0
 40
0.2662047348
 40
1.0
 40
1.0
 40
1.0
 40
1.0
 10
31.2898653284
 20
15.0050998493
 30
0.0
 10
31.2898653284
 20
15.0067445862
 30
0.0
 10
31.2896565964
 20
15.0129169976
 30
0.0
 10
31.2885825594
 20
15.0190923575
 30
0.0
 10
31.2871402678
 20
15.0233905541
 30
0.0
  0
SPLINE
  5
717
100
AcDbEntity
  8
7_ALL_ROUNDS
100
AcDbSpline
 62
7
  6
CONTINUOUS
 70
0
 71
3
 72
9
 73
5
 74
0
 42
0.0000001
 43
0.0000001
 44
0.0000000001
 40
0.0
 40
0.0
 40
0.0
 40
0.0
 40
0.2644278362
 40
1.0
 40
1.0
 40
1.0
 40
1.0
 10
31.2871402678
 20
15.0233905541
 30
0.0
 10
31.2867522974
 20
15.0245467511
 30
0.0
 10
31.28510588
 20
15.0288535538
 30
0.0
 10
31.2826726956
 20
15.0328857804
 30
0.0
 10
31.2804415401
 20
15.0354413566
 30
0.0
  0
SPLINE
  5
718
100
AcDbEntity
  8
7_ALL_ROUNDS
100
AcDbSpline
 62
7
  6
CONTINUOUS
 70
0
 71
3
 72
8
 73
4
 74
0
 42
0.0000001
 43
0.0000001
 44
0.0000000001
 40
0.0
 40
0.0
 40
0.0
 40
0.0
 40
1.0
 40
1.0
 40
1.0
 40
1.0
 10
31.2804415401
 20
15.0354413566
 30
0.0
 10
31.2789815438
 20
15.0371136434
 30
0.0
 10
31.27731351
 20
15.0386275938
 30
0.0
 10
31.2754942803
 20
15.0398998106
 30
0.0
  0
SPLINE
  5
719
100
AcDbEntity
  8
7_ALL_ROUNDS
100
AcDbSpline
 62
7
  6
CONTINUOUS
 70
0
 71
3
 72
11
 73
7
 74
0
 42
0.0000001
 43
0.0000001
 44
0.0000000001
 40
0.0
 40
0.0
 40
0.0
 40
0.0
 40
0.2378545545
 40
0.5000251604
 40
0.762182149
 40
1.0
 40
1.0
 40
1.0
 40
1.0
 10
31.2351803261
 20
14.7228272183
 30
0.0
 10
31.2428779506
 20
14.7274333304
 30
0.0
 10
31.2574270892
 20
14.7398787593
 30
0.0
 10
31.2744653436
 20
14.7632837929
 30
0.0
 10
31.2862149647
 20
14.7897406199
 30
0.0
 10
31.2897172501
 20
14.8085617117
 30
0.0
 10
31.2898563591
 20
14.8175297386
 30
0.0
  0
SPLINE
  5
71A
100
AcDbEntity
  8
7_ALL_ROUNDS
100
AcDbSpline
 62
7
  6
CONTINUOUS
 70
0
 71
3
 72
9
 73
5
 74
0
 42
0.0000001
 43
0.0000001
 44
0.0000000001
 40
0.0
 40
0.0
 40
0.0
 40
0.0
 40
0.4791101025
 40
1.0
 40
1.0
 40
1.0
 40
1.0
 10
32.2180806023
 20
14.5921160267
 30
0.0
 10
32.2180806023
 20
14.587060417
 30
0.0
 10
32.2159609147
 20
14.5764311322
 30
0.0
 10
32.2102933775
 20
14.5672973991
 30
0.0
 10
32.2068177293
 20
14.5630393372
 30
0.0
  0
SPLINE
  5
71B
100
AcDbEntity
  8
7_ALL_ROUNDS
100
AcDbSpline
 62
7
  6
CONTINUOUS
 70
0
 71
3
 72
9
 73
5
 74
0
 42
0.0000001
 43
0.0000001
 44
0.0000000001
 40
0.0
 40
0.0
 40
0.0
 40
0.0
 40
0.2327325831
 40
1.0
 40
1.0
 40
1.0
 40
1.0
 10
32.2068177293
 20
14.5630393372
 30
0.0
 10
32.2053324221
 20
14.5612196679
 30
0.0
 10
32.1985050165
 20
14.553764884
 30
0.0
 10
32.1901982917
 20
14.5477577585
 30
0.0
 10
32.1834924023
 20
14.5438850976
 30
0.0
  0
SPLINE
  5
71C
100
AcDbEntity
  8
7_ALL_ROUNDS
100
AcDbSpline
 62
7
  6
CONTINUOUS
 70
0
 71
3
 72
10
 73
6
 74
0
 42
0.0000001
 43
0.0000001
 44
0.0000000001
 40
0.0
 40
0.0
 40
0.0
 40
0.0
 40
0.2184288335
 40
0.4522872128
 40
1.0
 40
1.0
 40
1.0
 40
1.0
 10
32.2180806023
 20
14.6242573515
 30
0.0
 10
32.2180806023
 20
14.6287564368
 30
0.0
 10
32.2164285998
 20
14.6381397332
 30
0.0
 10
32.206448051
 20
14.6564581781
 30
0.0
 10
32.1932618347
 20
14.6668464191
 30
0.0
 10
32.1834924023
 20
14.6724882807
 30
0.0
  0
SPLINE
  5
71D
100
AcDbEntity
  8
7_ALL_ROUNDS
100
AcDbSpline
 62
7
  6
CONTINUOUS
 70
0
 71
3
 72
9
 73
5
 74
0
 42
0.0000001
 43
0.0000001
 44
0.0000000001
 40
0.0
 40
0.0
 40
0.0
 40
0.0
 40
0.4550250319
 40
1.0
 40
1.0
 40
1.0
 40
1.0
 10
30.06435346
 20
14.0074118089
 30
0.0
 10
30.0571382951
 20
14.0115785844
 30
0.0
 10
30.0443995296
 20
14.0263591385
 30
0.0
 10
30.0407394429
 20
14.0448723441
 30
0.0
 10
30.0401076435
 20
14.0548312888
 30
0.0
  0
SPLINE
  5
71E
100
AcDbEntity
  8
7_ALL_ROUNDS
100
AcDbSpline
 62
7
  6
CONTINUOUS
 70
0
 71
3
 72
9
 73
5
 74
0
 42
0.0000001
 43
0.0000001
 44
0.0000000001
 40
0.0
 40
0.0
 40
0.0
 40
0.0
 40
0.4745488208
 40
1.0
 40
1.0
 40
1.0
 40
1.0
 10
24.3552078798
 20
16.8941559392
 30
0.0
 10
24.3552078798
 20
16.9086899101
 30
0.0
 10
24.3609640051
 20
16.9393207372
 30
0.0
 10
24.3740058102
 20
16.9673480989
 30
0.0
 10
24.3824128996
 20
16.9810704896
 30
0.0
  0
SPLINE
  5
71F
100
AcDbEntity
  8
7_ALL_ROUNDS
100
AcDbSpline
 62
7
  6
CONTINUOUS
 70
0
 71
3
 72
10
 73
6
 74
0
 42
0.0000001
 43
0.0000001
 44
0.0000000001
 40
0.0
 40
0.0
 40
0.0
 40
0.0
 40
0.5477127872
 40
0.7815711665
 40
1.0
 40
1.0
 40
1.0
 40
1.0
 10
24.0489805336
 20
16.7335566526
 30
0.0
 10
24.0392111012
 20
16.7279147911
 30
0.0
 10
24.0260248849
 20
16.7175265501
 30
0.0
 10
24.016044336
 20
16.6992081051
 30
0.0
 10
24.0143923335
 20
16.6898248087
 30
0.0
 10
24.0143923335
 20
16.6853257235
 30
0.0
  0
SPLINE
  5
720
100
AcDbEntity
  8
7_ALL_ROUNDS
100
AcDbSpline
 62
7
  6
CONTINUOUS
 70
0
 71
3
 72
9
 73
5
 74
0
 42
0.0000001
 43
0.0000001
 44
0.0000000001
 40
0.0
 40
0.0
 40
0.0
 40
0.0
 40
0.2680559327
 40
1.0
 40
1.0
 40
1.0
 40
1.0
 10
24.0489805336
 20
16.6049534695
 30
0.0
 10
24.0466384424
 20
16.6063060306
 30
0.0
 10
24.0380991724
 20
16.6116682647
 30
0.0
 10
24.030325087
 20
16.6183865777
 30
0.0
 10
24.0256552066
 20
16.6241077091
 30
0.0
  0
SPLINE
  5
721
100
AcDbEntity
  8
7_ALL_ROUNDS
100
AcDbSpline
 62
7
  6
CONTINUOUS
 70
0
 71
3
 72
9
 73
5
 74
0
 42
0.0000001
 43
0.0000001
 44
0.0000000001
 40
0.0
 40
0.0
 40
0.0
 40
0.0
 40
0.5208898975
 40
1.0
 40
1.0
 40
1.0
 40
1.0
 10
24.0256552066
 20
16.6241077091
 30
0.0
 10
24.0221795583
 20
16.628365771
 30
0.0
 10
24.0165120212
 20
16.6374995042
 30
0.0
 10
24.0143923335
 20
16.6481287889
 30
0.0
 10
24.0143923335
 20
16.6531843986
 30
0.0
  0
SPLINE
  5
722
100
AcDbEntity
  8
0
100
AcDbSpline
 62
7
  6
CONTINUOUS
 70
0
 71
3
 72
9
 73
5
 74
0
 42
0.0000001
 43
0.0000001
 44
0.0000000001
 40
0.0
 40
0.0
 40
0.0
 40
0.0
 40
0.2626576282
 40
1.0
 40
1.0
 40
1.0
 40
1.0
 10
31.3831254747
 20
14.3630191133
 30
0.0
 10
31.3821081144
 20
14.3624315862
 30
0.0
 10
31.3782987016
 20
14.360088622
 30
0.0
 10
31.3747468226
 20
14.3573061792
 30
0.0
 10
31.3723966933
 20
14.3549923615
 30
0.0
  0
LINE
  5
723
100
AcDbEntity
  8
0
100
AcDbLine
 62
7
  6
CONTINUOUS
 10
31.3723966933
 20
14.3549923615
 11
31.369400996
 21
14.3516997457
  0
SPLINE
  5
724
100
AcDbEntity
  8
0
100
AcDbSpline
 62
7
  6
CONTINUOUS
 70
0
 71
3
 72
11
 73
7
 74
0
 42
0.0000001
 43
0.0000001
 44
0.0000000001
 40
0.0
 40
0.0
 40
0.0
 40
0.0
 40
0.2824210032
 40
0.5563695285
 40
0.7995532116
 40
1.0
 40
1.0
 40
1.0
 40
1.0
 10
31.6313101325
 20
14.5063461161
 30
0.0
 10
31.6151722226
 20
14.5086736062
 30
0.0
 10
31.5827917731
 20
14.5097761386
 30
0.0
 10
31.536966257
 20
14.5017176368
 30
0.0
 10
31.4985700274
 20
14.4851162002
 30
0.0
 10
31.4789578138
 20
14.4672442592
 30
0.0
 10
31.4728567007
 20
14.4574109136
 30
0.0
  0
SPLINE
  5
725
100
AcDbEntity
  8
0
100
AcDbSpline
 62
7
  6
CONTINUOUS
 70
0
 71
3
 72
9
 73
5
 74
0
 42
0.0000001
 43
0.0000001
 44
0.0000000001
 40
0.0
 40
0.0
 40
0.0
 40
0.0
 40
0.2569265
 40
1.0
 40
1.0
 40
1.0
 40
1.0
 10
31.4728567007
 20
14.4574109136
 30
0.0
 10
31.4722782992
 20
14.4564786866
 30
0.0
 10
31.4701262959
 20
14.4527902746
 30
0.0
 10
31.4683891718
 20
14.4488551525
 30
0.0
 10
31.4673930308
 20
14.4458426269
 30
0.0
  0
SPLINE
  5
726
100
AcDbEntity
  8
0
100
AcDbSpline
 62
7
  6
CONTINUOUS
 70
0
 71
3
 72
9
 73
5
 74
0
 42
0.0000001
 43
0.0000001
 44
0.0000000001
 40
0.0
 40
0.0
 40
0.0
 40
0.0
 40
0.2626576282
 40
1.0
 40
1.0
 40
1.0
 40
1.0
 10
29.9633441424
 20
13.5430933179
 30
0.0
 10
29.9623267821
 20
13.5425057908
 30
0.0
 10
29.9585173693
 20
13.5401628266
 30
0.0
 10
29.9549654902
 20
13.5373803838
 30
0.0
 10
29.952615361
 20
13.5350665661
 30
0.0
  0
LINE
  5
727
100
AcDbEntity
  8
0
100
AcDbLine
 62
7
  6
CONTINUOUS
 10
29.952615361
 20
13.5350665661
 11
29.9496196637
 21
13.5317739503
  0
SPLINE
  5
728
100
AcDbEntity
  8
0
100
AcDbSpline
 62
7
  6
CONTINUOUS
 70
0
 71
3
 72
11
 73
7
 74
0
 42
0.0000001
 43
0.0000001
 44
0.0000000001
 40
0.0
 40
0.0
 40
0.0
 40
0.0
 40
0.2824210032
 40
0.5563695285
 40
0.7995532116
 40
1.0
 40
1.0
 40
1.0
 40
1.0
 10
30.2115288002
 20
13.6864203207
 30
0.0
 10
30.1953908903
 20
13.6887478108
 30
0.0
 10
30.1630104408
 20
13.6898503432
 30
0.0
 10
30.1171849247
 20
13.6817918414
 30
0.0
 10
30.0787886951
 20
13.6651904048
 30
0.0
 10
30.0591764815
 20
13.6473184638
 30
0.0
 10
30.0530753684
 20
13.6374851182
 30
0.0
  0
SPLINE
  5
729
100
AcDbEntity
  8
0
100
AcDbSpline
 62
7
  6
CONTINUOUS
 70
0
 71
3
 72
9
 73
5
 74
0
 42
0.0000001
 43
0.0000001
 44
0.0000000001
 40
0.0
 40
0.0
 40
0.0
 40
0.0
 40
0.2569265
 40
1.0
 40
1.0
 40
1.0
 40
1.0
 10
30.0530753684
 20
13.6374851182
 30
0.0
 10
30.0524969669
 20
13.6365528913
 30
0.0
 10
30.0503449636
 20
13.6328644793
 30
0.0
 10
30.0486078395
 20
13.6289293571
 30
0.0
 10
30.0476116985
 20
13.6259168315
 30
0.0
  0
SPLINE
  5
72A
100
AcDbEntity
  8
7_ALL_ROUNDS
100
AcDbSpline
 62
7
  6
CONTINUOUS
 70
0
 71
3
 72
11
 73
7
 74
0
 42
0.0000001
 43
0.0000001
 44
0.0000000001
 40
0.0
 40
0.0
 40
0.0
 40
0.0
 40
0.2372509404
 40
0.5
 40
0.7627490596
 40
1.0
 40
1.0
 40
1.0
 40
1.0
 10
29.9842232797
 20
13.2738039635
 30
0.0
 10
29.9723663325
 20
13.2669565592
 30
0.0
 10
29.9447937859
 20
13.2569617706
 30
0.0
 10
29.9007067307
 20
13.2521830818
 30
0.0
 10
29.8566196755
 20
13.2569617706
 30
0.0
 10
29.8290471289
 20
13.2669565592
 30
0.0
 10
29.8171901817
 20
13.2738039635
 30
0.0
  0
SPLINE
  5
72B
100
AcDbEntity
  8
0
100
AcDbSpline
 62
7
  6
CONTINUOUS
 70
0
 71
3
 72
13
 73
9
 74
0
 42
0.0000001
 43
0.0000001
 44
0.0000000001
 40
0.0
 40
0.0
 40
0.0
 40
0.0
 40
0.3000768051
 40
0.5817515043
 40
0.7056331117
 40
0.815183785
 40
0.9116352101
 40
1.0
 40
1.0
 40
1.0
 40
1.0
 10
31.5664429865
 20
14.3884877346
 30
0.0
 10
31.5863074546
 20
14.3856227816
 30
0.0
 10
31.6256721773
 20
14.3852381942
 30
0.0
 10
31.6721996154
 20
14.3968092959
 30
0.0
 10
31.7025414994
 20
14.4135447259
 30
0.0
 10
31.7192966469
 20
14.4282370848
 30
0.0
 10
31.7301275362
 20
14.4450645383
 30
0.0
 10
31.7327297442
 20
14.4575239924
 30
0.0
 10
31.7327321342
 20
14.4634340844
 30
0.0
  0
SPLINE
  5
72C
100
AcDbEntity
  8
0
100
AcDbSpline
 62
7
  6
CONTINUOUS
 70
0
 71
3
 72
9
 73
5
 74
0
 42
0.0000001
 43
0.0000001
 44
0.0000000001
 40
0.0
 40
0.0
 40
0.0
 40
0.0
 40
0.550776636
 40
1.0
 40
1.0
 40
1.0
 40
1.0
 10
31.8146276443
 20
14.5318147373
 30
0.0
 10
31.8203223029
 20
14.535103411
 30
0.0
 10
31.8301049914
 20
14.5425945275
 30
0.0
 10
31.834802575
 20
14.5545592555
 30
0.0
 10
31.8348048232
 20
14.5599228048
 30
0.0
  0
SPLINE
  5
72D
100
AcDbEntity
  8
0
100
AcDbSpline
 62
7
  6
CONTINUOUS
 70
0
 71
3
 72
13
 73
9
 74
0
 42
0.0000001
 43
0.0000001
 44
0.0000000001
 40
0.0
 40
0.0
 40
0.0
 40
0.0
 40
0.3000768051
 40
0.5817515043
 40
0.7056331117
 40
0.815183785
 40
0.9116352101
 40
1.0
 40
1.0
 40
1.0
 40
1.0
 10
30.1466616542
 20
13.5685619392
 30
0.0
 10
30.1665261223
 20
13.5656969862
 30
0.0
 10
30.205890845
 20
13.5653123988
 30
0.0
 10
30.2524182831
 20
13.5768835005
 30
0.0
 10
30.282760167
 20
13.5936189305
 30
0.0
 10
30.2995153145
 20
13.6083112894
 30
0.0
 10
30.3103462039
 20
13.6251387429
 30
0.0
 10
30.3129484119
 20
13.6375981971
 30
0.0
 10
30.3129508019
 20
13.643508289
 30
0.0
  0
SPLINE
  5
72E
100
AcDbEntity
  8
0
100
AcDbSpline
 62
7
  6
CONTINUOUS
 70
0
 71
3
 72
9
 73
5
 74
0
 42
0.0000001
 43
0.0000001
 44
0.0000000001
 40
0.0
 40
0.0
 40
0.0
 40
0.0
 40
0.550776636
 40
1.0
 40
1.0
 40
1.0
 40
1.0
 10
30.394846312
 20
13.7118889419
 30
0.0
 10
30.4005409706
 20
13.7151776156
 30
0.0
 10
30.4103236591
 20
13.7226687321
 30
0.0
 10
30.4150212427
 20
13.7346334601
 30
0.0
 10
30.4150234909
 20
13.7399970094
 30
0.0
  0
SPLINE
  5
72F
100
AcDbEntity
  8
0
100
AcDbSpline
 62
7
  6
CONTINUOUS
 70
0
 71
3
 72
9
 73
5
 74
0
 42
0.0000001
 43
0.0000001
 44
0.0000000001
 40
0.0
 40
0.0
 40
0.0
 40
0.0
 40
0.2372225062
 40
1.0
 40
1.0
 40
1.0
 40
1.0
 10
29.9285455804
 20
14.1755322879
 30
0.0
 10
29.9266559945
 20
14.1744410493
 30
0.0
 10
29.9188530892
 20
14.1695611724
 30
0.0
 10
29.9116899362
 20
14.1636906624
 30
0.0
 10
29.9066087524
 20
14.1588523112
 30
0.0
  0
SPLINE
  5
730
100
AcDbEntity
  8
0
100
AcDbSpline
 62
7
  6
CONTINUOUS
 70
0
 71
3
 72
9
 73
5
 74
0
 42
0.0000001
 43
0.0000001
 44
0.0000000001
 40
0.0
 40
0.0
 40
0.0
 40
0.0
 40
0.4985085412
 40
1.0
 40
1.0
 40
1.0
 40
1.0
 10
29.9066087524
 20
14.1588523112
 30
0.0
 10
29.8959777067
 20
14.1487293292
 30
0.0
 10
29.877732068
 20
14.1251123728
 30
0.0
 10
29.8658067897
 20
14.097772222
 30
0.0
 10
29.8619548962
 20
14.0835158752
 30
0.0
  0
SPLINE
  5
731
100
AcDbEntity
  8
0
100
AcDbSpline
 62
7
  6
CONTINUOUS
 70
0
 71
3
 72
9
 73
5
 74
0
 42
0.0000001
 43
0.0000001
 44
0.0000000001
 40
0.0
 40
0.0
 40
0.0
 40
0.0
 40
0.2601025099
 40
1.0
 40
1.0
 40
1.0
 40
1.0
 10
29.8602750203
 20
14.0766082604
 30
0.0
 10
29.8598571512
 20
14.0746726104
 30
0.0
 10
29.8584163341
 20
14.0671972072
 30
0.0
 10
29.8576478562
 20
14.0595823548
 30
0.0
 10
29.8575664855
 20
14.053949873
 30
0.0
  0
SPLINE
  5
732
100
AcDbEntity
  8
0
100
AcDbSpline
 62
7
  6
CONTINUOUS
 70
0
 71
3
 72
9
 73
5
 74
0
 42
0.0000001
 43
0.0000001
 44
0.0000000001
 40
0.0
 40
0.0
 40
0.0
 40
0.0
 40
0.2840373038
 40
1.0
 40
1.0
 40
1.0
 40
1.0
 10
29.8576209363
 20
14.049132972
 30
0.0
 10
29.8577639267
 20
14.045351658
 30
0.0
 10
29.8590542446
 20
14.0321610344
 30
0.0
 10
29.8645210762
 20
14.0188155705
 30
0.0
 10
29.871269069
 20
14.0120744626
 30
0.0
  0
SPLINE
  5
733
100
AcDbEntity
  8
0
100
AcDbSpline
 62
7
  6
CONTINUOUS
 70
0
 71
3
 72
8
 73
4
 74
0
 42
0.0000001
 43
0.0000001
 44
0.0000000001
 40
0.0
 40
0.0
 40
0.0
 40
0.0
 40
1.0
 40
1.0
 40
1.0
 40
1.0
 10
29.871269069
 20
14.0120744626
 30
0.0
 10
29.8733726455
 20
14.0099730324
 30
0.0
 10
29.8757656778
 20
14.0081241693
 30
0.0
 10
29.878340609
 20
14.0066373028
 30
0.0
  0
SPLINE
  5
734
100
AcDbEntity
  8
0
100
AcDbSpline
 62
7
  6
CONTINUOUS
 70
0
 71
3
 72
9
 73
5
 74
0
 42
0.0000001
 43
0.0000001
 44
0.0000000001
 40
0.0
 40
0.0
 40
0.0
 40
0.0
 40
0.2372225062
 40
1.0
 40
1.0
 40
1.0
 40
1.0
 10
31.4596823113
 20
15.0597659888
 30
0.0
 10
31.4577927254
 20
15.0586747502
 30
0.0
 10
31.4499898201
 20
15.0537948733
 30
0.0
 10
31.4428266671
 20
15.0479243633
 30
0.0
 10
31.4377454833
 20
15.0430860121
 30
0.0
  0
SPLINE
  5
735
100
AcDbEntity
  8
0
100
AcDbSpline
 62
7
  6
CONTINUOUS
 70
0
 71
3
 72
9
 73
5
 74
0
 42
0.0000001
 43
0.0000001
 44
0.0000000001
 40
0.0
 40
0.0
 40
0.0
 40
0.0
 40
0.4985085412
 40
1.0
 40
1.0
 40
1.0
 40
1.0
 10
31.4377454833
 20
15.0430860121
 30
0.0
 10
31.4271144376
 20
15.0329630301
 30
0.0
 10
31.4088687989
 20
15.0093460738
 30
0.0
 10
31.3969435206
 20
14.9820059229
 30
0.0
 10
31.3930916271
 20
14.9677495761
 30
0.0
  0
SPLINE
  5
736
100
AcDbEntity
  8
0
100
AcDbSpline
 62
7
  6
CONTINUOUS
 70
0
 71
3
 72
9
 73
5
 74
0
 42
0.0000001
 43
0.0000001
 44
0.0000000001
 40
0.0
 40
0.0
 40
0.0
 40
0.0
 40
0.2601025099
 40
1.0
 40
1.0
 40
1.0
 40
1.0
 10
31.3914117513
 20
14.9608419613
 30
0.0
 10
31.3909938821
 20
14.9589063113
 30
0.0
 10
31.389553065
 20
14.9514309081
 30
0.0
 10
31.3887845871
 20
14.9438160557
 30
0.0
 10
31.3887032164
 20
14.9381835739
 30
0.0
  0
SPLINE
  5
737
100
AcDbEntity
  8
0
100
AcDbSpline
 62
7
  6
CONTINUOUS
 70
0
 71
3
 72
9
 73
5
 74
0
 42
0.0000001
 43
0.0000001
 44
0.0000000001
 40
0.0
 40
0.0
 40
0.0
 40
0.0
 40
0.2840373038
 40
1.0
 40
1.0
 40
1.0
 40
1.0
 10
31.3887576672
 20
14.9333666729
 30
0.0
 10
31.3889006577
 20
14.9295853589
 30
0.0
 10
31.3901909756
 20
14.9163947353
 30
0.0
 10
31.3956578071
 20
14.9030492714
 30
0.0
 10
31.4024057999
 20
14.8963081635
 30
0.0
  0
SPLINE
  5
738
100
AcDbEntity
  8
0
100
AcDbSpline
 62
7
  6
CONTINUOUS
 70
0
 71
3
 72
8
 73
4
 74
0
 42
0.0000001
 43
0.0000001
 44
0.0000000001
 40
0.0
 40
0.0
 40
0.0
 40
0.0
 40
1.0
 40
1.0
 40
1.0
 40
1.0
 10
31.4024057999
 20
14.8963081635
 30
0.0
 10
31.4045093764
 20
14.8942067333
 30
0.0
 10
31.4069024087
 20
14.8923578702
 30
0.0
 10
31.4094773399
 20
14.8908710037
 30
0.0
  0
SPLINE
  5
739
100
AcDbEntity
  8
7_ALL_ROUNDS
100
AcDbSpline
 62
7
  6
CONTINUOUS
 70
0
 71
3
 72
10
 73
6
 74
0
 42
0.0000001
 43
0.0000001
 44
0.0000000001
 40
0.0
 40
0.0
 40
0.0
 40
0.0
 40
0.5477410649
 40
0.7815898514
 40
1.0
 40
1.0
 40
1.0
 40
1.0
 10
31.8772650561
 20
15.2832429059
 30
0.0
 10
31.8772650561
 20
15.2945187653
 30
0.0
 10
31.8748657982
 20
15.3111239694
 30
0.0
 10
31.864000996
 20
15.3289187317
 30
0.0
 10
31.8567061557
 20
15.3350383852
 30
0.0
 10
31.852812575
 20
15.3372869377
 30
0.0
  0
SPLINE
  5
73A
100
AcDbEntity
  8
7_ALL_ROUNDS
100
AcDbSpline
 62
7
  6
CONTINUOUS
 70
0
 71
3
 72
10
 73
6
 74
0
 42
0.0000001
 43
0.0000001
 44
0.0000000001
 40
0.0
 40
0.0
 40
0.0
 40
0.0
 40
0.5477410649
 40
0.7815898514
 40
1.0
 40
1.0
 40
1.0
 40
1.0
 10
30.039900979
 20
14.2221624648
 30
0.0
 10
30.039900979
 20
14.2334383243
 30
0.0
 10
30.0375017211
 20
14.2500435283
 30
0.0
 10
30.0266369189
 20
14.2678382906
 30
0.0
 10
30.0193420786
 20
14.2739579442
 30
0.0
 10
30.0154484979
 20
14.2762064966
 30
0.0
  0
SPLINE
  5
73B
100
AcDbEntity
  8
0
100
AcDbSpline
 62
7
  6
CONTINUOUS
 70
0
 71
3
 72
8
 73
4
 74
0
 42
0.0000001
 43
0.0000001
 44
0.0000000001
 40
0.0
 40
0.0
 40
0.0
 40
0.0
 40
1.0
 40
1.0
 40
1.0
 40
1.0
 10
27.9232908038
 20
14.7418737946
 30
0.0
 10
27.9243935865
 20
14.7419299312
 30
0.0
 10
27.9255203594
 20
14.7422299648
 30
0.0
 10
27.9264763396
 20
14.7427825794
 30
0.0
  0
SPLINE
  5
73C
100
AcDbEntity
  8
0
100
AcDbSpline
 62
7
  6
CONTINUOUS
 70
0
 71
3
 72
8
 73
4
 74
0
 42
0.0000001
 43
0.0000001
 44
0.0000000001
 40
0.0
 40
0.0
 40
0.0
 40
0.0
 40
1.0
 40
1.0
 40
1.0
 40
1.0
 10
27.7818694476
 20
14.8235448346
 30
0.0
 10
27.7829722302
 20
14.8236009712
 30
0.0
 10
27.7840990032
 20
14.8239010048
 30
0.0
 10
27.7850549833
 20
14.8244536194
 30
0.0
  0
SPLINE
  5
73D
100
AcDbEntity
  8
0
100
AcDbSpline
 62
7
  6
CONTINUOUS
 70
0
 71
3
 72
8
 73
4
 74
0
 42
0.0000001
 43
0.0000001
 44
0.0000000001
 40
0.0
 40
0.0
 40
0.0
 40
0.0
 40
1.0
 40
1.0
 40
1.0
 40
1.0
 10
27.6404480913
 20
14.9052158746
 30
0.0
 10
27.641550874
 20
14.9052720112
 30
0.0
 10
27.642677647
 20
14.9055720449
 30
0.0
 10
27.6436336271
 20
14.9061246594
 30
0.0
  0
SPLINE
  5
73E
100
AcDbEntity
  8
0
100
AcDbSpline
 62
7
  6
CONTINUOUS
 70
0
 71
3
 72
9
 73
5
 74
0
 42
0.0000001
 43
0.0000001
 44
0.0000000001
 40
0.0
 40
0.0
 40
0.0
 40
0.0
 40
0.4492511382
 40
1.0
 40
1.0
 40
1.0
 40
1.0
 10
27.2116754675
 20
15.0803969018
 30
0.0
 10
27.2143310422
 20
15.0819285368
 30
0.0
 10
27.2189131479
 20
15.0876722142
 30
0.0
 10
27.2198255091
 20
15.0946550243
 30
0.0
 10
27.2198255091
 20
15.0984132404
 30
0.0
  0
SPLINE
  5
73F
100
AcDbEntity
  8
0
100
AcDbSpline
 62
7
  6
CONTINUOUS
 70
0
 71
3
 72
9
 73
5
 74
0
 42
0.0000001
 43
0.0000001
 44
0.0000000001
 40
0.0
 40
0.0
 40
0.0
 40
0.0
 40
0.2716147628
 40
1.0
 40
1.0
 40
1.0
 40
1.0
 10
29.8617323412
 20
14.0807103285
 30
0.0
 10
29.8617323412
 20
14.0790702988
 30
0.0
 10
29.8619841308
 20
14.0730440351
 30
0.0
 10
29.8633091468
 20
14.0669950885
 30
0.0
 10
29.8651229112
 20
14.0629884636
 30
0.0
  0
SPLINE
  5
740
100
AcDbEntity
  8
0
100
AcDbSpline
 62
7
  6
CONTINUOUS
 70
0
 71
3
 72
9
 73
5
 74
0
 42
0.0000001
 43
0.0000001
 44
0.0000000001
 40
0.0
 40
0.0
 40
0.0
 40
0.0
 40
0.2660897479
 40
1.0
 40
1.0
 40
1.0
 40
1.0
 10
29.8651229112
 20
14.0629884636
 30
0.0
 10
29.8656658472
 20
14.0617891122
 30
0.0
 10
29.8679820426
 20
14.0574186626
 30
0.0
 10
29.8716288126
 20
14.0537019467
 30
0.0
 10
29.8747722542
 20
14.0518842844
 30
0.0
  0
SPLINE
  5
741
100
AcDbEntity
  8
0
100
AcDbSpline
 62
7
  6
CONTINUOUS
 70
0
 71
3
 72
9
 73
5
 74
0
 42
0.0000001
 43
0.0000001
 44
0.0000000001
 40
0.0
 40
0.0
 40
0.0
 40
0.0
 40
0.2676392817
 40
1.0
 40
1.0
 40
1.0
 40
1.0
 10
29.9090356733
 20
14.1593534152
 30
0.0
 10
29.9102304733
 20
14.1599563944
 30
0.0
 10
29.9147729337
 20
14.1620395466
 30
0.0
 10
29.9196760994
 20
14.1634239512
 30
0.0
 10
29.9233200471
 20
14.1637888582
 30
0.0
  0
SPLINE
  5
742
100
AcDbEntity
  8
0
100
AcDbSpline
 62
7
  6
CONTINUOUS
 70
0
 71
3
 72
9
 73
5
 74
0
 42
0.0000001
 43
0.0000001
 44
0.0000000001
 40
0.0
 40
0.0
 40
0.0
 40
0.0
 40
0.2664069687
 40
1.0
 40
1.0
 40
1.0
 40
1.0
 10
29.9233200471
 20
14.1637888582
 30
0.0
 10
29.9246330862
 20
14.1639203466
 30
0.0
 10
29.9295816382
 20
14.1641061001
 30
0.0
 10
29.9346310467
 20
14.1628016654
 30
0.0
 10
29.937776747
 20
14.1609826971
 30
0.0
  0
SPLINE
  5
743
100
AcDbEntity
  8
0
100
AcDbSpline
 62
7
  6
CONTINUOUS
 70
0
 71
3
 72
9
 73
5
 74
0
 42
0.0000001
 43
0.0000001
 44
0.0000000001
 40
0.0
 40
0.0
 40
0.0
 40
0.0
 40
0.2716147628
 40
1.0
 40
1.0
 40
1.0
 40
1.0
 10
31.3928690721
 20
14.9649440294
 30
0.0
 10
31.3928690721
 20
14.9633039997
 30
0.0
 10
31.3931208617
 20
14.957277736
 30
0.0
 10
31.3944458777
 20
14.9512287894
 30
0.0
 10
31.3962596421
 20
14.9472221646
 30
0.0
  0
SPLINE
  5
744
100
AcDbEntity
  8
0
100
AcDbSpline
 62
7
  6
CONTINUOUS
 70
0
 71
3
 72
9
 73
5
 74
0
 42
0.0000001
 43
0.0000001
 44
0.0000000001
 40
0.0
 40
0.0
 40
0.0
 40
0.0
 40
0.2660897479
 40
1.0
 40
1.0
 40
1.0
 40
1.0
 10
31.3962596421
 20
14.9472221646
 30
0.0
 10
31.3968025781
 20
14.9460228132
 30
0.0
 10
31.3991187736
 20
14.9416523635
 30
0.0
 10
31.4027655435
 20
14.9379356476
 30
0.0
 10
31.4059089851
 20
14.9361179853
 30
0.0
  0
SPLINE
  5
745
100
AcDbEntity
  8
0
100
AcDbSpline
 62
7
  6
CONTINUOUS
 70
0
 71
3
 72
9
 73
5
 74
0
 42
0.0000001
 43
0.0000001
 44
0.0000000001
 40
0.0
 40
0.0
 40
0.0
 40
0.0
 40
0.2676392817
 40
1.0
 40
1.0
 40
1.0
 40
1.0
 10
31.4401724042
 20
15.0435871162
 30
0.0
 10
31.4413672043
 20
15.0441900953
 30
0.0
 10
31.4459096646
 20
15.0462732475
 30
0.0
 10
31.4508128303
 20
15.0476576522
 30
0.0
 10
31.454456778
 20
15.0480225591
 30
0.0
  0
SPLINE
  5
746
100
AcDbEntity
  8
0
100
AcDbSpline
 62
7
  6
CONTINUOUS
 70
0
 71
3
 72
9
 73
5
 74
0
 42
0.0000001
 43
0.0000001
 44
0.0000000001
 40
0.0
 40
0.0
 40
0.0
 40
0.0
 40
0.2664069687
 40
1.0
 40
1.0
 40
1.0
 40
1.0
 10
31.454456778
 20
15.0480225591
 30
0.0
 10
31.4557698171
 20
15.0481540475
 30
0.0
 10
31.4607183691
 20
15.048339801
 30
0.0
 10
31.4657677777
 20
15.0470353663
 30
0.0
 10
31.468913478
 20
15.045216398
 30
0.0
  0
SPLINE
  5
747
100
AcDbEntity
  8
0
100
AcDbSpline
 62
7
  6
CONTINUOUS
 70
0
 71
3
 72
9
 73
5
 74
0
 42
0.0000001
 43
0.0000001
 44
0.0000000001
 40
0.0
 40
0.0
 40
0.0
 40
0.0
 40
0.4764712596
 40
1.0
 40
1.0
 40
1.0
 40
1.0
 10
31.5098872826
 20
15.0647402173
 30
0.0
 10
31.5058996876
 20
15.0670428114
 30
0.0
 10
31.4964163981
 20
15.0700963241
 30
0.0
 10
31.4865776299
 20
15.0694286622
 30
0.0
 10
31.4816191393
 20
15.0684231126
 30
0.0
  0
SPLINE
  5
748
100
AcDbEntity
  8
0
100
AcDbSpline
 62
7
  6
CONTINUOUS
 70
0
 71
3
 72
9
 73
5
 74
0
 42
0.0000001
 43
0.0000001
 44
0.0000000001
 40
0.0
 40
0.0
 40
0.0
 40
0.0
 40
0.234370573
 40
1.0
 40
1.0
 40
1.0
 40
1.0
 10
31.4816191393
 20
15.0684231126
 30
0.0
 10
31.4798089238
 20
15.0680560127
 30
0.0
 10
31.4721637278
 20
15.0661048139
 30
0.0
 10
31.4649074699
 20
15.0627835255
 30
0.0
 10
31.4596823113
 20
15.0597659888
 30
0.0
  0
SPLINE
  5
749
100
AcDbEntity
  8
0
100
AcDbSpline
 62
7
  6
CONTINUOUS
 70
0
 71
3
 72
9
 73
5
 74
0
 42
0.0000001
 43
0.0000001
 44
0.0000000001
 40
0.0
 40
0.0
 40
0.0
 40
0.0
 40
0.4764712596
 40
1.0
 40
1.0
 40
1.0
 40
1.0
 10
29.9787505517
 20
14.1805065164
 30
0.0
 10
29.9747629567
 20
14.1828091105
 30
0.0
 10
29.9652796672
 20
14.1858626231
 30
0.0
 10
29.955440899
 20
14.1851949613
 30
0.0
 10
29.9504824084
 20
14.1841894117
 30
0.0
  0
SPLINE
  5
74A
100
AcDbEntity
  8
0
100
AcDbSpline
 62
7
  6
CONTINUOUS
 70
0
 71
3
 72
9
 73
5
 74
0
 42
0.0000001
 43
0.0000001
 44
0.0000000001
 40
0.0
 40
0.0
 40
0.0
 40
0.0
 40
0.234370573
 40
1.0
 40
1.0
 40
1.0
 40
1.0
 10
29.9504824084
 20
14.1841894117
 30
0.0
 10
29.9486721929
 20
14.1838223118
 30
0.0
 10
29.9410269969
 20
14.181871113
 30
0.0
 10
29.933770739
 20
14.1785498246
 30
0.0
 10
29.9285455804
 20
14.1755322879
 30
0.0
  0
SPLINE
  5
74B
100
AcDbEntity
  8
0
100
AcDbSpline
 62
7
  6
CONTINUOUS
 70
0
 71
3
 72
9
 73
5
 74
0
 42
0.0000001
 43
0.0000001
 44
0.0000000001
 40
0.0
 40
0.0
 40
0.0
 40
0.0
 40
0.2391969537
 40
1.0
 40
1.0
 40
1.0
 40
1.0
 10
30.4095137162
 20
13.7234735711
 30
0.0
 10
30.4090383205
 20
13.7241178371
 30
0.0
 10
30.4069572147
 20
13.7267418897
 30
0.0
 10
30.404530687
 20
13.7290837563
 30
0.0
 10
30.402565966
 20
13.7307040641
 30
0.0
  0
SPLINE
  5
74C
100
AcDbEntity
  8
0
100
AcDbSpline
 62
7
  6
CONTINUOUS
 70
0
 71
3
 72
11
 73
7
 74
0
 42
0.0000001
 43
0.0000001
 44
0.0000000001
 40
0.0
 40
0.0
 40
0.0
 40
0.0
 40
0.2256586539
 40
0.4879126845
 40
0.7568527179
 40
1.0
 40
1.0
 40
1.0
 40
1.0
 10
30.402565966
 20
13.7307040641
 30
0.0
 10
30.3961683368
 20
13.7359801968
 30
0.0
 10
30.3796065514
 20
13.7440152686
 30
0.0
 10
30.3519435667
 20
13.7486965706
 30
0.0
 10
30.3233064652
 20
13.7466804693
 30
0.0
 10
30.3051480119
 20
13.7404855523
 30
0.0
 10
30.2974103383
 20
13.7360170345
 30
0.0
  0
SPLINE
  5
74D
100
AcDbEntity
  8
0
100
AcDbSpline
 62
7
  6
CONTINUOUS
 70
0
 71
3
 72
13
 73
9
 74
0
 42
0.0000001
 43
0.0000001
 44
0.0000000001
 40
0.0
 40
0.0
 40
0.0
 40
0.0
 40
0.0871571751
 40
0.186862535
 40
0.3045317277
 40
0.4386627757
 40
0.7300916822
 40
1.0
 40
1.0
 40
1.0
 40
1.0
 10
29.9431669635
 20
13.5471265752
 30
0.0
 10
29.9431652972
 20
13.5431511746
 30
0.0
 10
29.9455472096
 20
13.534545911
 30
0.0
 10
29.9549174853
 20
13.5238775753
 30
0.0
 10
29.9687502555
 20
13.5154366276
 30
0.0
 10
29.9924094174
 20
13.5075474286
 30
0.0
 10
30.0246330859
 20
13.5059090197
 30
0.0
 10
30.0501191575
 20
13.5128085061
 30
0.0
 10
30.0607801162
 20
13.5189652254
 30
0.0
  0
SPLINE
  5
74E
100
AcDbEntity
  8
0
100
AcDbSpline
 62
7
  6
CONTINUOUS
 70
0
 71
3
 72
9
 73
5
 74
0
 42
0.0000001
 43
0.0000001
 44
0.0000000001
 40
0.0
 40
0.0
 40
0.0
 40
0.0
 40
0.2391969537
 40
1.0
 40
1.0
 40
1.0
 40
1.0
 10
31.8292950485
 20
14.5433993665
 30
0.0
 10
31.8288196528
 20
14.5440436324
 30
0.0
 10
31.826738547
 20
14.5466676851
 30
0.0
 10
31.8243120193
 20
14.5490095517
 30
0.0
 10
31.8223472983
 20
14.5506298595
 30
0.0
  0
SPLINE
  5
74F
100
AcDbEntity
  8
0
100
AcDbSpline
 62
7
  6
CONTINUOUS
 70
0
 71
3
 72
11
 73
7
 74
0
 42
0.0000001
 43
0.0000001
 44
0.0000000001
 40
0.0
 40
0.0
 40
0.0
 40
0.0
 40
0.2256586539
 40
0.4879126845
 40
0.7568527179
 40
1.0
 40
1.0
 40
1.0
 40
1.0
 10
31.8223472983
 20
14.5506298595
 30
0.0
 10
31.8159496691
 20
14.5559059922
 30
0.0
 10
31.7993878837
 20
14.563941064
 30
0.0
 10
31.771724899
 20
14.568622366
 30
0.0
 10
31.7430877975
 20
14.5666062647
 30
0.0
 10
31.7249293442
 20
14.5604113477
 30
0.0
 10
31.7171916706
 20
14.5559428298
 30
0.0
  0
SPLINE
  5
750
100
AcDbEntity
  8
0
100
AcDbSpline
 62
7
  6
CONTINUOUS
 70
0
 71
3
 72
13
 73
9
 74
0
 42
0.0000001
 43
0.0000001
 44
0.0000000001
 40
0.0
 40
0.0
 40
0.0
 40
0.0
 40
0.0871571751
 40
0.186862535
 40
0.3045317277
 40
0.4386627757
 40
0.7300916822
 40
1.0
 40
1.0
 40
1.0
 40
1.0
 10
31.3629482959
 20
14.3670523706
 30
0.0
 10
31.3629466295
 20
14.36307697
 30
0.0
 10
31.3653285419
 20
14.3544717064
 30
0.0
 10
31.3746988176
 20
14.3438033706
 30
0.0
 10
31.3885315878
 20
14.335362423
 30
0.0
 10
31.4121907497
 20
14.327473224
 30
0.0
 10
31.4444144182
 20
14.3258348151
 30
0.0
 10
31.4699004898
 20
14.3327343015
 30
0.0
 10
31.4805614485
 20
14.3388910208
 30
0.0
  0
SPLINE
  5
751
100
AcDbEntity
  8
7_ALL_ROUNDS
100
AcDbSpline
 62
7
  6
CONTINUOUS
 70
0
 71
3
 72
9
 73
5
 74
0
 42
0.0000001
 43
0.0000001
 44
0.0000000001
 40
0.0
 40
0.0
 40
0.0
 40
0.0
 40
0.2654933366
 40
1.0
 40
1.0
 40
1.0
 40
1.0
 10
26.9581403224
 20
15.2164083476
 30
0.0
 10
26.9581403224
 20
15.2154613888
 30
0.0
 10
26.9580246747
 20
15.2118976638
 30
0.0
 10
26.9574307836
 20
15.2083334508
 30
0.0
 10
26.9566370884
 20
15.2058367409
 30
0.0
  0
SPLINE
  5
752
100
AcDbEntity
  8
7_ALL_ROUNDS
100
AcDbSpline
 62
7
  6
CONTINUOUS
 70
0
 71
3
 72
9
 73
5
 74
0
 42
0.0000001
 43
0.0000001
 44
0.0000000001
 40
0.0
 40
0.0
 40
0.0
 40
0.0
 40
0.2728470507
 40
1.0
 40
1.0
 40
1.0
 40
1.0
 10
26.9566370884
 20
15.2058367409
 30
0.0
 10
26.9562531831
 20
15.2046290983
 30
0.0
 10
26.9545615043
 20
15.200310607
 30
0.0
 10
26.9513182939
 20
15.1965136112
 30
0.0
 10
26.9483998308
 20
15.1948142882
 30
0.0
  0
SPLINE
  5
753
100
AcDbEntity
  8
7_ALL_ROUNDS
100
AcDbSpline
 62
7
  6
CONTINUOUS
 70
0
 71
3
 72
9
 73
5
 74
0
 42
0.0000001
 43
0.0000001
 44
0.0000000001
 40
0.0
 40
0.0
 40
0.0
 40
0.0
 40
0.5000256547
 40
1.0
 40
1.0
 40
1.0
 40
1.0
 10
26.9247337028
 20
15.3427542372
 30
0.0
 10
26.9346490835
 20
15.3370280903
 30
0.0
 10
26.9503155918
 20
15.3189488676
 30
0.0
 10
26.9581403224
 20
15.2963411459
 30
0.0
 10
26.9581403224
 20
15.2848922757
 30
0.0
  0
SPLINE
  5
754
100
AcDbEntity
  8
7_ALL_ROUNDS
100
AcDbSpline
 62
7
  6
CONTINUOUS
 70
0
 71
3
 72
8
 73
4
 74
0
 42
0.0000001
 43
0.0000001
 44
0.0000000001
 40
0.0
 40
0.0
 40
0.0
 40
0.0
 40
1.0
 40
1.0
 40
1.0
 40
1.0
 10
26.5938713957
 20
15.4282041935
 30
0.0
 10
26.5962345423
 20
15.4256970492
 30
0.0
 10
26.5983854898
 20
15.4229764126
 30
0.0
 10
26.6003106827
 20
15.4201191644
 30
0.0
  0
SPLINE
  5
755
100
AcDbEntity
  8
7_ALL_ROUNDS
100
AcDbSpline
 62
7
  6
CONTINUOUS
 70
0
 71
3
 72
9
 73
5
 74
0
 42
0.0000001
 43
0.0000001
 44
0.0000000001
 40
0.0
 40
0.0
 40
0.0
 40
0.0
 40
0.2662007224
 40
1.0
 40
1.0
 40
1.0
 40
1.0
 10
31.236971514
 20
15.0420503763
 30
0.0
 10
31.2383960951
 20
15.042873074
 30
0.0
 10
31.243846756
 20
15.045779837
 30
0.0
 10
31.2497326083
 20
15.0479389057
 30
0.0
 10
31.2541768693
 20
15.0488402774
 30
0.0
  0
SPLINE
  5
756
100
AcDbEntity
  8
7_ALL_ROUNDS
100
AcDbSpline
 62
7
  6
CONTINUOUS
 70
0
 71
3
 72
9
 73
5
 74
0
 42
0.0000001
 43
0.0000001
 44
0.0000000001
 40
0.0
 40
0.0
 40
0.0
 40
0.0
 40
0.5235203601
 40
1.0
 40
1.0
 40
1.0
 40
1.0
 10
31.2541768693
 20
15.0488402774
 30
0.0
 10
31.2580657885
 20
15.0496290163
 30
0.0
 10
31.2657825713
 20
15.0501533626
 30
0.0
 10
31.2732200748
 20
15.047757164
 30
0.0
 10
31.2763475593
 20
15.045951034
 30
0.0
  0
SPLINE
  5
757
100
AcDbEntity
  8
7_ALL_ROUNDS
100
AcDbSpline
 62
7
  6
CONTINUOUS
 70
0
 71
3
 72
11
 73
7
 74
0
 42
0.0000001
 43
0.0000001
 44
0.0000000001
 40
0.0
 40
0.0
 40
0.0
 40
0.0
 40
0.2372271621
 40
0.4999751797
 40
0.762736697
 40
1.0
 40
1.0
 40
1.0
 40
1.0
 10
30.039900979
 20
14.2864577424
 30
0.0
 10
30.039900979
 20
14.2955846623
 30
0.0
 10
30.0433233023
 20
14.3148333283
 30
0.0
 10
30.0552606799
 20
14.3418780021
 30
0.0
 10
30.0727143433
 20
14.3657394274
 30
0.0
 10
30.0876738471
 20
14.3783292932
 30
0.0
 10
30.0955786783
 20
14.3828943447
 30
0.0
  0
SPLINE
  5
758
100
AcDbEntity
  8
0
100
AcDbSpline
 62
7
  6
CONTINUOUS
 70
0
 71
3
 72
9
 73
5
 74
0
 42
0.0000001
 43
0.0000001
 44
0.0000000001
 40
0.0
 40
0.0
 40
0.0
 40
0.0
 40
0.5423791842
 40
1.0
 40
1.0
 40
1.0
 40
1.0
 10
27.8943608362
 20
14.756613755
 30
0.0
 10
27.8943608362
 20
14.7528094099
 30
0.0
 10
27.897178698
 20
14.7460955042
 30
0.0
 10
27.9035099265
 20
14.7408514452
 30
0.0
 10
27.9067155137
 20
14.7410165199
 30
0.0
  0
SPLINE
  5
759
100
AcDbEntity
  8
0
100
AcDbSpline
 62
7
  6
CONTINUOUS
 70
0
 71
3
 72
9
 73
5
 74
0
 42
0.0000001
 43
0.0000001
 44
0.0000000001
 40
0.0
 40
0.0
 40
0.0
 40
0.0
 40
0.5423791842
 40
1.0
 40
1.0
 40
1.0
 40
1.0
 10
27.75293948
 20
14.838284795
 30
0.0
 10
27.7529394799
 20
14.8344804499
 30
0.0
 10
27.7557573418
 20
14.8277665442
 30
0.0
 10
27.7620885703
 20
14.8225224852
 30
0.0
 10
27.7652941575
 20
14.8226875599
 30
0.0
  0
SPLINE
  5
75A
100
AcDbEntity
  8
0
100
AcDbSpline
 62
7
  6
CONTINUOUS
 70
0
 71
3
 72
9
 73
5
 74
0
 42
0.0000001
 43
0.0000001
 44
0.0000000001
 40
0.0
 40
0.0
 40
0.0
 40
0.0
 40
0.5423791842
 40
1.0
 40
1.0
 40
1.0
 40
1.0
 10
27.6115181237
 20
14.9199558351
 30
0.0
 10
27.6115181237
 20
14.9161514899
 30
0.0
 10
27.6143359856
 20
14.9094375842
 30
0.0
 10
27.620667214
 20
14.9041935252
 30
0.0
 10
27.6238728013
 20
14.9043585999
 30
0.0
  0
SPLINE
  5
75B
100
AcDbEntity
  8
7_ALL_ROUNDS
100
AcDbSpline
 62
7
  6
CONTINUOUS
 70
0
 71
3
 72
9
 73
5
 74
0
 42
0.0000001
 43
0.0000001
 44
0.0000000001
 40
0.0
 40
0.0
 40
0.0
 40
0.0
 40
0.5506898374
 40
1.0
 40
1.0
 40
1.0
 40
1.0
 10
26.9052177496
 20
15.204581459
 30
0.0
 10
26.9084698891
 20
15.2027033437
 30
0.0
 10
26.9149687833
 20
15.1999991632
 30
0.0
 10
26.9222260627
 20
15.2010920823
 30
0.0
 10
26.9248836878
 20
15.2026171646
 30
0.0
  0
SPLINE
  5
75C
100
AcDbEntity
  8
7_ALL_ROUNDS
100
AcDbSpline
 62
7
  6
CONTINUOUS
 70
0
 71
3
 72
9
 73
5
 74
0
 42
0.0000001
 43
0.0000001
 44
0.0000000001
 40
0.0
 40
0.0
 40
0.0
 40
0.0
 40
0.255129826
 40
1.0
 40
1.0
 40
1.0
 40
1.0
 10
26.6235344913
 20
15.3771044512
 30
0.0
 10
26.624270965
 20
15.3757965737
 30
0.0
 10
26.6273255601
 20
15.3707680948
 30
0.0
 10
26.6310335352
 20
15.3661250358
 30
0.0
 10
26.6341415945
 20
15.3630357326
 30
0.0
  0
SPLINE
  5
75D
100
AcDbEntity
  8
7_ALL_ROUNDS
100
AcDbSpline
 62
7
  6
CONTINUOUS
 70
0
 71
3
 72
9
 73
5
 74
0
 42
0.0000001
 43
0.0000001
 44
0.0000000001
 40
0.0
 40
0.0
 40
0.0
 40
0.0
 40
0.2629188556
 40
1.0
 40
1.0
 40
1.0
 40
1.0
 10
26.6341415945
 20
15.3630357326
 30
0.0
 10
26.6348873056
 20
15.3622945217
 30
0.0
 10
26.6378018212
 20
15.3595572685
 30
0.0
 10
26.6410375493
 20
15.357145911
 30
0.0
 10
26.6435900797
 20
15.3556718209
 30
0.0
  0
SPLINE
  5
75E
100
AcDbEntity
  8
7_ALL_ROUNDS
100
AcDbSpline
 62
7
  6
CONTINUOUS
 70
0
 71
3
 72
9
 73
5
 74
0
 42
0.0000001
 43
0.0000001
 44
0.0000000001
 40
0.0
 40
0.0
 40
0.0
 40
0.0
 40
0.4780322952
 40
1.0
 40
1.0
 40
1.0
 40
1.0
 10
26.5656125423
 20
15.4784630626
 30
0.0
 10
26.5656125423
 20
15.4720276943
 30
0.0
 10
26.56889564
 20
15.4585945206
 30
0.0
 10
26.5759122105
 20
15.4468657253
 30
0.0
 10
26.5804377345
 20
15.4414902203
 30
0.0
  0
SPLINE
  5
75F
100
AcDbEntity
  8
7_ALL_ROUNDS
100
AcDbSpline
 62
7
  6
CONTINUOUS
 70
0
 71
3
 72
8
 73
4
 74
0
 42
0.0000001
 43
0.0000001
 44
0.0000000001
 40
0.0
 40
0.0
 40
0.0
 40
0.0
 40
1.0
 40
1.0
 40
1.0
 40
1.0
 10
26.5804377345
 20
15.4414902203
 30
0.0
 10
26.5819445703
 20
15.4397003715
 30
0.0
 10
26.5835534433
 20
15.4379899659
 30
0.0
 10
26.5852643802
 20
15.4363940939
 30
0.0
  0
SPLINE
  5
760
100
AcDbEntity
  8
0
100
AcDbSpline
 62
7
  6
CONTINUOUS
 70
0
 71
3
 72
8
 73
4
 74
0
 42
0.0000001
 43
0.0000001
 44
0.0000000001
 40
0.0
 40
0.0
 40
0.0
 40
0.0
 40
1.0
 40
1.0
 40
1.0
 40
1.0
 10
27.9264763396
 20
14.7427825794
 30
0.0
 10
27.9276047207
 20
14.7434348522
 30
0.0
 10
27.9285468202
 20
14.744470864
 30
0.0
 10
27.9291729144
 20
14.7456139782
 30
0.0
  0
SPLINE
  5
761
100
AcDbEntity
  8
0
100
AcDbSpline
 62
7
  6
CONTINUOUS
 70
0
 71
3
 72
9
 73
5
 74
0
 42
0.0000001
 43
0.0000001
 44
0.0000000001
 40
0.0
 40
0.0
 40
0.0
 40
0.0
 40
0.2282915545
 40
1.0
 40
1.0
 40
1.0
 40
1.0
 10
27.9291729144
 20
14.7456139782
 30
0.0
 10
27.9294056727
 20
14.7460389453
 30
0.0
 10
27.9302683905
 20
14.7479865395
 30
0.0
 10
27.9305513407
 20
14.75015276
 30
0.0
 10
27.9305513408
 20
14.7517906621
 30
0.0
  0
SPLINE
  5
762
100
AcDbEntity
  8
0
100
AcDbSpline
 62
7
  6
CONTINUOUS
 70
0
 71
3
 72
8
 73
4
 74
0
 42
0.0000001
 43
0.0000001
 44
0.0000000001
 40
0.0
 40
0.0
 40
0.0
 40
0.0
 40
1.0
 40
1.0
 40
1.0
 40
1.0
 10
27.7850549833
 20
14.8244536194
 30
0.0
 10
27.7861833645
 20
14.8251058922
 30
0.0
 10
27.787125464
 20
14.826141904
 30
0.0
 10
27.7877515581
 20
14.8272850182
 30
0.0
  0
SPLINE
  5
763
100
AcDbEntity
  8
0
100
AcDbSpline
 62
7
  6
CONTINUOUS
 70
0
 71
3
 72
9
 73
5
 74
0
 42
0.0000001
 43
0.0000001
 44
0.0000000001
 40
0.0
 40
0.0
 40
0.0
 40
0.0
 40
0.2282915545
 40
1.0
 40
1.0
 40
1.0
 40
1.0
 10
27.7877515581
 20
14.8272850182
 30
0.0
 10
27.7879843165
 20
14.8277099853
 30
0.0
 10
27.7888470343
 20
14.8296575795
 30
0.0
 10
27.7891299845
 20
14.8318238
 30
0.0
 10
27.7891299845
 20
14.8334617021
 30
0.0
  0
SPLINE
  5
764
100
AcDbEntity
  8
0
100
AcDbSpline
 62
7
  6
CONTINUOUS
 70
0
 71
3
 72
8
 73
4
 74
0
 42
0.0000001
 43
0.0000001
 44
0.0000000001
 40
0.0
 40
0.0
 40
0.0
 40
0.0
 40
1.0
 40
1.0
 40
1.0
 40
1.0
 10
27.6436336271
 20
14.9061246594
 30
0.0
 10
27.6447620083
 20
14.9067769322
 30
0.0
 10
27.6457041077
 20
14.9078129441
 30
0.0
 10
27.6463302019
 20
14.9089560582
 30
0.0
  0
SPLINE
  5
765
100
AcDbEntity
  8
0
100
AcDbSpline
 62
7
  6
CONTINUOUS
 70
0
 71
3
 72
9
 73
5
 74
0
 42
0.0000001
 43
0.0000001
 44
0.0000000001
 40
0.0
 40
0.0
 40
0.0
 40
0.0
 40
0.2282915545
 40
1.0
 40
1.0
 40
1.0
 40
1.0
 10
27.6463302019
 20
14.9089560582
 30
0.0
 10
27.6465629603
 20
14.9093810253
 30
0.0
 10
27.647425678
 20
14.9113286195
 30
0.0
 10
27.6477086283
 20
14.91349484
 30
0.0
 10
27.6477086283
 20
14.9151327421
 30
0.0
  0
SPLINE
  5
766
100
AcDbEntity
  8
0
100
AcDbSpline
 62
7
  6
CONTINUOUS
 70
0
 71
3
 72
9
 73
5
 74
0
 42
0.0000001
 43
0.0000001
 44
0.0000000001
 40
0.0
 40
0.0
 40
0.0
 40
0.0
 40
0.4492511382
 40
1.0
 40
1.0
 40
1.0
 40
1.0
 10
27.1722978515
 20
15.1485835318
 30
0.0
 10
27.1696422767
 20
15.1470518969
 30
0.0
 10
27.165060171
 20
15.1413082194
 30
0.0
 10
27.1641478098
 20
15.1343254093
 30
0.0
 10
27.1641478098
 20
15.1305671932
 30
0.0
  0
SPLINE
  5
767
100
AcDbEntity
  8
7_ALL_ROUNDS
100
AcDbSpline
 62
9
  6
CONTINUOUS
 70
0
 71
3
 72
9
 73
5
 74
0
 42
0.0000001
 43
0.0000001
 44
0.0000000001
 40
0.0
 40
0.0
 40
0.0
 40
0.0
 40
0.5000256633
 40
1.0
 40
1.0
 40
1.0
 40
1.0
 10
29.879551036
 20
14.081689674
 30
0.0
 10
29.8898794688
 20
14.0876543589
 30
0.0
 10
29.9061965859
 20
14.1064882317
 30
0.0
 10
29.9143496061
 20
14.130036743
 30
0.0
 10
29.9143496061
 20
14.1419625464
 30
0.0
  0
SPLINE
  5
768
100
AcDbEntity
  8
7_ALL_ROUNDS
100
AcDbSpline
 62
9
  6
CONTINUOUS
 70
0
 71
3
 72
9
 73
5
 74
0
 42
0.0000001
 43
0.0000001
 44
0.0000000001
 40
0.0
 40
0.0
 40
0.0
 40
0.0
 40
0.5000256634
 40
1.0
 40
1.0
 40
1.0
 40
1.0
 10
31.4106877669
 20
14.9659233749
 30
0.0
 10
31.4210161997
 20
14.9718880598
 30
0.0
 10
31.4373333168
 20
14.9907219326
 30
0.0
 10
31.4454863371
 20
15.0142704439
 30
0.0
 10
31.4454863371
 20
15.0261962473
 30
0.0
  0
SPLINE
  5
769
100
AcDbEntity
  8
7_ALL_ROUNDS
100
AcDbSpline
 62
7
  6
CONTINUOUS
 70
0
 71
3
 72
9
 73
5
 74
0
 42
0.0000001
 43
0.0000001
 44
0.0000000001
 40
0.0
 40
0.0
 40
0.0
 40
0.0
 40
0.4491430072
 40
1.0
 40
1.0
 40
1.0
 40
1.0
 10
31.2735636744
 20
15.0411292039
 30
0.0
 10
31.2682524425
 20
15.0441964533
 30
0.0
 10
31.2537170359
 20
15.0464025984
 30
0.0
 10
31.2407016578
 20
15.0409904073
 30
0.0
 10
31.2341876291
 20
15.0372285462
 30
0.0
  0
SPLINE
  5
76A
100
AcDbEntity
  8
0
100
AcDbSpline
 62
7
  6
CONTINUOUS
 70
0
 71
3
 72
8
 73
4
 74
0
 42
0.0000001
 43
0.0000001
 44
0.0000000001
 40
0.0
 40
0.0
 40
0.0
 40
0.0
 40
1.0
 40
1.0
 40
1.0
 40
1.0
 10
31.5049624375
 20
15.0673807106
 30
0.0
 10
31.5082086549
 20
15.0650342089
 30
0.0
 10
31.5110614921
 20
15.0620675069
 30
0.0
 10
31.5133657684
 20
15.0587911815
 30
0.0
  0
SPLINE
  5
76B
100
AcDbEntity
  8
0
100
AcDbSpline
 62
7
  6
CONTINUOUS
 70
0
 71
3
 72
12
 73
8
 74
0
 42
0.0000001
 43
0.0000001
 44
0.0000000001
 40
0.0
 40
0.0
 40
0.0
 40
0.0
 40
0.1999163622
 40
0.3236327255
 40
0.4590874354
 40
0.7418212793
 40
1.0
 40
1.0
 40
1.0
 40
1.0
 10
31.5133657684
 20
15.0587911815
 30
0.0
 10
31.520411202
 20
15.0487736622
 30
0.0
 10
31.5243535171
 20
15.0277048228
 30
0.0
 10
31.5209931029
 20
14.9998905498
 30
0.0
 10
31.5113130569
 20
14.9679029598
 30
0.0
 10
31.4903186842
 20
14.9315893728
 30
0.0
 10
31.4655837489
 20
14.9082564279
 30
0.0
 10
31.4518874334
 20
14.9003467856
 30
0.0
  0
SPLINE
  5
76C
100
AcDbEntity
  8
0
100
AcDbSpline
 62
7
  6
CONTINUOUS
 70
0
 71
3
 72
13
 73
9
 74
0
 42
0.0000001
 43
0.0000001
 44
0.0000000001
 40
0.0
 40
0.0
 40
0.0
 40
0.0
 40
0.0871419996
 40
0.1868482176
 40
0.3045103211
 40
0.4386491725
 40
0.7300686945
 40
1.0
 40
1.0
 40
1.0
 40
1.0
 10
31.468913478
 20
15.045216398
 30
0.0
 10
31.4720582753
 20
15.0433979518
 30
0.0
 10
31.4777671761
 20
15.0375672621
 30
0.0
 10
31.4819186247
 20
15.0252756105
 30
0.0
 10
31.4822715909
 20
15.0104689951
 30
0.0
 10
31.4776977038
 20
14.9881394029
 30
0.0
 10
31.4642611315
 20
14.9618890752
 30
0.0
 10
31.4471556798
 20
14.9448685051
 30
0.0
 10
31.4374112315
 20
14.9392410719
 30
0.0
  0
SPLINE
  5
76D
100
AcDbEntity
  8
7_ALL_ROUNDS
100
AcDbSpline
 62
7
  6
CONTINUOUS
 70
0
 71
3
 72
8
 73
4
 74
0
 42
0.0000001
 43
0.0000001
 44
0.0000000001
 40
0.0
 40
0.0
 40
0.0
 40
0.0
 40
1.0
 40
1.0
 40
1.0
 40
1.0
 10
31.4665422248
 20
15.0461616289
 30
0.0
 10
31.4680047149
 20
15.0449088056
 30
0.0
 10
31.469307906
 20
15.0434505984
 30
0.0
 10
31.4704159688
 20
15.0418755935
 30
0.0
  0
SPLINE
  5
76E
100
AcDbEntity
  8
7_ALL_ROUNDS
100
AcDbSpline
 62
7
  6
CONTINUOUS
 70
0
 71
3
 72
11
 73
7
 74
0
 42
0.0000001
 43
0.0000001
 44
0.0000000001
 40
0.0
 40
0.0
 40
0.0
 40
0.0
 40
0.2001247181
 40
0.4584980334
 40
0.7415398271
 40
1.0
 40
1.0
 40
1.0
 40
1.0
 10
31.4704159688
 20
15.0418755935
 30
0.0
 10
31.4748375425
 20
15.0355907511
 30
0.0
 10
31.4782859078
 20
15.0169999412
 30
0.0
 10
31.471433865
 20
14.9890256066
 30
0.0
 10
31.455981327
 20
14.9620480519
 30
0.0
 10
31.4404376213
 20
14.947419607
 30
0.0
 10
31.4318434616
 20
14.9424564672
 30
0.0
  0
SPLINE
  5
76F
100
AcDbEntity
  8
0
100
AcDbSpline
 62
7
  6
CONTINUOUS
 70
0
 71
3
 72
10
 73
6
 74
0
 42
0.0000001
 43
0.0000001
 44
0.0000000001
 40
0.0
 40
0.0
 40
0.0
 40
0.0
 40
0.2183819221
 40
0.45222374
 40
1.0
 40
1.0
 40
1.0
 40
1.0
 10
31.4094773399
 20
14.8908710037
 30
0.0
 10
31.4127885685
 20
14.8889589702
 30
0.0
 10
31.4203979618
 20
14.8861887122
 30
0.0
 10
31.4381253368
 20
14.8857525209
 30
0.0
 10
31.4513768455
 20
14.8910488136
 30
0.0
 10
31.4596823113
 20
14.8958452322
 30
0.0
  0
SPLINE
  5
770
100
AcDbEntity
  8
0
100
AcDbSpline
 62
7
  6
CONTINUOUS
 70
0
 71
3
 72
9
 73
5
 74
0
 42
0.0000001
 43
0.0000001
 44
0.0000000001
 40
0.0
 40
0.0
 40
0.0
 40
0.0
 40
0.2381332473
 40
1.0
 40
1.0
 40
1.0
 40
1.0
 10
31.406521819
 20
14.8930673252
 30
0.0
 10
31.4081015074
 20
14.8924637097
 30
0.0
 10
31.4149242986
 20
14.8904205637
 30
0.0
 10
31.4222635968
 20
14.8904243292
 30
0.0
 10
31.4276077426
 20
14.8912680443
 30
0.0
  0
SPLINE
  5
771
100
AcDbEntity
  8
0
100
AcDbSpline
 62
7
  6
CONTINUOUS
 70
0
 71
3
 72
9
 73
5
 74
0
 42
0.0000001
 43
0.0000001
 44
0.0000000001
 40
0.0
 40
0.0
 40
0.0
 40
0.0
 40
0.2326937961
 40
1.0
 40
1.0
 40
1.0
 40
1.0
 10
31.4276077426
 20
14.8912680443
 30
0.0
 10
31.4296002123
 20
14.8915826085
 30
0.0
 10
31.4380841606
 20
14.8934303401
 30
0.0
 10
31.4461274151
 20
14.8970203666
 30
0.0
 10
31.4518874334
 20
14.9003467856
 30
0.0
  0
SPLINE
  5
772
100
AcDbEntity
  8
0
100
AcDbSpline
 62
7
  6
CONTINUOUS
 70
0
 71
3
 72
9
 73
5
 74
0
 42
0.0000001
 43
0.0000001
 44
0.0000000001
 40
0.0
 40
0.0
 40
0.0
 40
0.0
 40
0.4492177296
 40
1.0
 40
1.0
 40
1.0
 40
1.0
 10
31.4059089851
 20
14.9361179853
 30
0.0
 10
31.4101574062
 20
14.9336613802
 30
0.0
 10
31.4217893663
 20
14.9319058926
 30
0.0
 10
31.4322006106
 20
14.9362319307
 30
0.0
 10
31.4374112315
 20
14.9392410719
 30
0.0
  0
SPLINE
  5
773
100
AcDbEntity
  8
7_ALL_ROUNDS
100
AcDbSpline
 62
7
  6
CONTINUOUS
 70
0
 71
3
 72
9
 73
5
 74
0
 42
0.0000001
 43
0.0000001
 44
0.0000000001
 40
0.0
 40
0.0
 40
0.0
 40
0.0
 40
0.2368013959
 40
1.0
 40
1.0
 40
1.0
 40
1.0
 10
31.4045913015
 20
14.9374674801
 30
0.0
 10
31.4056134422
 20
14.9371442111
 30
0.0
 10
31.4100309431
 20
14.936095673
 30
0.0
 10
31.4146941146
 20
14.9363378888
 30
0.0
 10
31.4180802865
 20
14.9370247712
 30
0.0
  0
SPLINE
  5
774
100
AcDbEntity
  8
7_ALL_ROUNDS
100
AcDbSpline
 62
7
  6
CONTINUOUS
 70
0
 71
3
 72
9
 73
5
 74
0
 42
0.0000001
 43
0.0000001
 44
0.0000000001
 40
0.0
 40
0.0
 40
0.0
 40
0.0
 40
0.2343728367
 40
1.0
 40
1.0
 40
1.0
 40
1.0
 10
31.4180802865
 20
14.9370247712
 30
0.0
 10
31.41921602
 20
14.9372551538
 30
0.0
 10
31.4240125912
 20
14.9384795113
 30
0.0
 10
31.4285651904
 20
14.9405632608
 30
0.0
 10
31.4318434616
 20
14.9424564672
 30
0.0
  0
SPLINE
  5
775
100
AcDbEntity
  8
0
100
AcDbSpline
 62
7
  6
CONTINUOUS
 70
0
 71
3
 72
8
 73
4
 74
0
 42
0.0000001
 43
0.0000001
 44
0.0000000001
 40
0.0
 40
0.0
 40
0.0
 40
0.0
 40
1.0
 40
1.0
 40
1.0
 40
1.0
 10
29.9738257066
 20
14.1831470097
 30
0.0
 10
29.977071924
 20
14.180800508
 30
0.0
 10
29.9799247612
 20
14.177833806
 30
0.0
 10
29.9822290375
 20
14.1745574805
 30
0.0
  0
SPLINE
  5
776
100
AcDbEntity
  8
0
100
AcDbSpline
 62
7
  6
CONTINUOUS
 70
0
 71
3
 72
12
 73
8
 74
0
 42
0.0000001
 43
0.0000001
 44
0.0000000001
 40
0.0
 40
0.0
 40
0.0
 40
0.0
 40
0.1999163622
 40
0.3236327255
 40
0.4590874354
 40
0.7418212793
 40
1.0
 40
1.0
 40
1.0
 40
1.0
 10
29.9822290375
 20
14.1745574805
 30
0.0
 10
29.9892744711
 20
14.1645399613
 30
0.0
 10
29.9932167862
 20
14.1434711219
 30
0.0
 10
29.989856372
 20
14.1156568489
 30
0.0
 10
29.980176326
 20
14.0836692589
 30
0.0
 10
29.9591819533
 20
14.0473556719
 30
0.0
 10
29.934447018
 20
14.024022727
 30
0.0
 10
29.9207507025
 20
14.0161130847
 30
0.0
  0
SPLINE
  5
777
100
AcDbEntity
  8
0
100
AcDbSpline
 62
7
  6
CONTINUOUS
 70
0
 71
3
 72
13
 73
9
 74
0
 42
0.0000001
 43
0.0000001
 44
0.0000000001
 40
0.0
 40
0.0
 40
0.0
 40
0.0
 40
0.0871419996
 40
0.1868482176
 40
0.3045103211
 40
0.4386491725
 40
0.7300686945
 40
1.0
 40
1.0
 40
1.0
 40
1.0
 10
29.937776747
 20
14.1609826971
 30
0.0
 10
29.9409215443
 20
14.1591642509
 30
0.0
 10
29.9466304452
 20
14.1533335612
 30
0.0
 10
29.9507818938
 20
14.1410419096
 30
0.0
 10
29.95113486
 20
14.1262352942
 30
0.0
 10
29.9465609729
 20
14.103905702
 30
0.0
 10
29.9331244006
 20
14.0776553743
 30
0.0
 10
29.9160189489
 20
14.0606348042
 30
0.0
 10
29.9062745006
 20
14.055007371
 30
0.0
  0
SPLINE
  5
778
100
AcDbEntity
  8
7_ALL_ROUNDS
100
AcDbSpline
 62
7
  6
CONTINUOUS
 70
0
 71
3
 72
8
 73
4
 74
0
 42
0.0000001
 43
0.0000001
 44
0.0000000001
 40
0.0
 40
0.0
 40
0.0
 40
0.0
 40
1.0
 40
1.0
 40
1.0
 40
1.0
 10
29.9354054939
 20
14.161927928
 30
0.0
 10
29.936867984
 20
14.1606751047
 30
0.0
 10
29.9381711751
 20
14.1592168975
 30
0.0
 10
29.9392792379
 20
14.1576418926
 30
0.0
  0
SPLINE
  5
779
100
AcDbEntity
  8
7_ALL_ROUNDS
100
AcDbSpline
 62
7
  6
CONTINUOUS
 70
0
 71
3
 72
11
 73
7
 74
0
 42
0.0000001
 43
0.0000001
 44
0.0000000001
 40
0.0
 40
0.0
 40
0.0
 40
0.0
 40
0.2001247181
 40
0.4584980334
 40
0.7415398271
 40
1.0
 40
1.0
 40
1.0
 40
1.0
 10
29.9392792379
 20
14.1576418926
 30
0.0
 10
29.9437008116
 20
14.1513570502
 30
0.0
 10
29.9471491769
 20
14.1327662403
 30
0.0
 10
29.9402971341
 20
14.1047919057
 30
0.0
 10
29.9248445961
 20
14.077814351
 30
0.0
 10
29.9093008904
 20
14.0631859061
 30
0.0
 10
29.9007067307
 20
14.0582227663
 30
0.0
  0
SPLINE
  5
77A
100
AcDbEntity
  8
0
100
AcDbSpline
 62
7
  6
CONTINUOUS
 70
0
 71
3
 72
10
 73
6
 74
0
 42
0.0000001
 43
0.0000001
 44
0.0000000001
 40
0.0
 40
0.0
 40
0.0
 40
0.0
 40
0.2183819221
 40
0.45222374
 40
1.0
 40
1.0
 40
1.0
 40
1.0
 10
29.878340609
 20
14.0066373028
 30
0.0
 10
29.8816518376
 20
14.0047252693
 30
0.0
 10
29.8892612309
 20
14.0019550113
 30
0.0
 10
29.9069886058
 20
14.00151882
 30
0.0
 10
29.9202401146
 20
14.0068151127
 30
0.0
 10
29.9285455804
 20
14.0116115313
 30
0.0
  0
SPLINE
  5
77B
100
AcDbEntity
  8
7_ALL_ROUNDS
100
AcDbSpline
 62
7
  6
CONTINUOUS
 70
0
 71
3
 72
9
 73
5
 74
0
 42
0.0000001
 43
0.0000001
 44
0.0000000001
 40
0.0
 40
0.0
 40
0.0
 40
0.0
 40
0.4765204817
 40
1.0
 40
1.0
 40
1.0
 40
1.0
 10
24.0143923335
 20
16.6853257235
 30
0.0
 10
24.0143923335
 20
16.6799086878
 30
0.0
 10
24.0168564227
 20
16.6684518615
 30
0.0
 10
24.023321089
 20
16.658820167
 30
0.0
 10
24.0272600916
 20
16.6543595608
 30
0.0
  0
SPLINE
  5
77C
100
AcDbEntity
  8
7_ALL_ROUNDS
100
AcDbSpline
 62
7
  6
CONTINUOUS
 70
0
 71
3
 72
9
 73
5
 74
0
 42
0.0000001
 43
0.0000001
 44
0.0000000001
 40
0.0
 40
0.0
 40
0.0
 40
0.0
 40
0.2343821242
 40
1.0
 40
1.0
 40
1.0
 40
1.0
 10
24.0272600916
 20
16.6543595608
 30
0.0
 10
24.0286985892
 20
16.6527305769
 30
0.0
 10
24.0351819974
 20
16.646086752
 30
0.0
 10
24.0428331192
 20
16.6406449351
 30
0.0
 10
24.0489805336
 20
16.6370947943
 30
0.0
  0
SPLINE
  5
77D
100
AcDbEntity
  8
0
100
AcDbSpline
 62
7
  6
CONTINUOUS
 70
0
 71
3
 72
9
 73
5
 74
0
 42
0.0000001
 43
0.0000001
 44
0.0000000001
 40
0.0
 40
0.0
 40
0.0
 40
0.0
 40
0.2381332473
 40
1.0
 40
1.0
 40
1.0
 40
1.0
 10
29.8753850881
 20
14.0088336243
 30
0.0
 10
29.8769647765
 20
14.0082300087
 30
0.0
 10
29.8837875677
 20
14.0061868628
 30
0.0
 10
29.8911268659
 20
14.0061906283
 30
0.0
 10
29.8964710117
 20
14.0070343434
 30
0.0
  0
SPLINE
  5
77E
100
AcDbEntity
  8
0
100
AcDbSpline
 62
7
  6
CONTINUOUS
 70
0
 71
3
 72
9
 73
5
 74
0
 42
0.0000001
 43
0.0000001
 44
0.0000000001
 40
0.0
 40
0.0
 40
0.0
 40
0.0
 40
0.2326937961
 40
1.0
 40
1.0
 40
1.0
 40
1.0
 10
29.8964710117
 20
14.0070343434
 30
0.0
 10
29.8984634814
 20
14.0073489076
 30
0.0
 10
29.9069474296
 20
14.0091966392
 30
0.0
 10
29.9149906842
 20
14.0127866657
 30
0.0
 10
29.9207507025
 20
14.0161130847
 30
0.0
  0
SPLINE
  5
77F
100
AcDbEntity
  8
0
100
AcDbSpline
 62
7
  6
CONTINUOUS
 70
0
 71
3
 72
9
 73
5
 74
0
 42
0.0000001
 43
0.0000001
 44
0.0000000001
 40
0.0
 40
0.0
 40
0.0
 40
0.0
 40
0.4492177296
 40
1.0
 40
1.0
 40
1.0
 40
1.0
 10
29.8747722542
 20
14.0518842844
 30
0.0
 10
29.8790206753
 20
14.0494276793
 30
0.0
 10
29.8906526353
 20
14.0476721917
 30
0.0
 10
29.9010638797
 20
14.0519982298
 30
0.0
 10
29.9062745006
 20
14.055007371
 30
0.0
  0
SPLINE
  5
780
100
AcDbEntity
  8
7_ALL_ROUNDS
100
AcDbSpline
 62
7
  6
CONTINUOUS
 70
0
 71
3
 72
9
 73
5
 74
0
 42
0.0000001
 43
0.0000001
 44
0.0000000001
 40
0.0
 40
0.0
 40
0.0
 40
0.0
 40
0.2368013959
 40
1.0
 40
1.0
 40
1.0
 40
1.0
 10
29.8734545706
 20
14.0532337792
 30
0.0
 10
29.8744767113
 20
14.0529105102
 30
0.0
 10
29.8788942121
 20
14.0518619721
 30
0.0
 10
29.8835573837
 20
14.0521041879
 30
0.0
 10
29.8869435556
 20
14.0527910703
 30
0.0
  0
SPLINE
  5
781
100
AcDbEntity
  8
7_ALL_ROUNDS
100
AcDbSpline
 62
7
  6
CONTINUOUS
 70
0
 71
3
 72
9
 73
5
 74
0
 42
0.0000001
 43
0.0000001
 44
0.0000000001
 40
0.0
 40
0.0
 40
0.0
 40
0.0
 40
0.2343728367
 40
1.0
 40
1.0
 40
1.0
 40
1.0
 10
29.8869435556
 20
14.0527910703
 30
0.0
 10
29.8880792891
 20
14.0530214529
 30
0.0
 10
29.8928758603
 20
14.0542458104
 30
0.0
 10
29.8974284595
 20
14.0563295599
 30
0.0
 10
29.9007067307
 20
14.0582227663
 30
0.0
  0
SPLINE
  5
782
100
AcDbEntity
  8
0
100
AcDbSpline
 62
7
  6
CONTINUOUS
 70
0
 71
3
 72
13
 73
9
 74
0
 42
0.0000001
 43
0.0000001
 44
0.0000000001
 40
0.0
 40
0.0
 40
0.0
 40
0.0
 40
0.0871571751
 40
0.186862535
 40
0.3045317277
 40
0.4386627757
 40
0.7300916822
 40
1.0
 40
1.0
 40
1.0
 40
1.0
 10
30.4150234909
 20
13.7399970094
 30
0.0
 10
30.4150251573
 20
13.7439724101
 30
0.0
 10
30.4126432449
 20
13.7525776737
 30
0.0
 10
30.4032729692
 20
13.7632460094
 30
0.0
 10
30.389440199
 20
13.771686957
 30
0.0
 10
30.365781037
 20
13.779576156
 30
0.0
 10
30.3335573685
 20
13.7812145649
 30
0.0
 10
30.308071297
 20
13.7743150785
 30
0.0
 10
30.2974103383
 20
13.7681583593
 30
0.0
  0
SPLINE
  5
783
100
AcDbEntity
  8
0
100
AcDbSpline
 62
7
  6
CONTINUOUS
 70
0
 71
3
 72
13
 73
9
 74
0
 42
0.0000001
 43
0.0000001
 44
0.0000000001
 40
0.0
 40
0.0
 40
0.0
 40
0.0
 40
0.0871571751
 40
0.186862535
 40
0.3045317277
 40
0.4386627757
 40
0.7300916822
 40
1.0
 40
1.0
 40
1.0
 40
1.0
 10
31.8348048232
 20
14.5599228048
 30
0.0
 10
31.8348064896
 20
14.5638982055
 30
0.0
 10
31.8324245772
 20
14.572503469
 30
0.0
 10
31.8230543015
 20
14.5831718048
 30
0.0
 10
31.8092215313
 20
14.5916127524
 30
0.0
 10
31.7855623694
 20
14.5995019514
 30
0.0
 10
31.7533387008
 20
14.6011403603
 30
0.0
 10
31.7278526293
 20
14.5942408739
 30
0.0
 10
31.7171916706
 20
14.5880841547
 30
0.0
  0
SPLINE
  5
784
100
AcDbEntity
  8
7_ALL_ROUNDS
100
AcDbSpline
 62
7
  6
CONTINUOUS
 70
0
 71
3
 72
10
 73
6
 74
0
 42
0.0000001
 43
0.0000001
 44
0.0000000001
 40
0.0
 40
0.0
 40
0.0
 40
0.0
 40
0.218388806
 40
0.4522284808
 40
1.0
 40
1.0
 40
1.0
 40
1.0
 10
30.0154484979
 20
14.2762064966
 30
0.0
 10
30.0115529221
 20
14.2784562012
 30
0.0
 10
30.0026011407
 20
14.2817169931
 30
0.0
 10
29.9817450945
 20
14.2822289505
 30
0.0
 10
29.9661554731
 20
14.2759983018
 30
0.0
 10
29.95638443
 20
14.2703555101
 30
0.0
  0
SPLINE
  5
785
100
AcDbEntity
  8
0
100
AcDbSpline
 62
7
  6
CONTINUOUS
 70
0
 71
3
 72
13
 73
9
 74
0
 42
0.0000001
 43
0.0000001
 44
0.0000000001
 40
0.0
 40
0.0
 40
0.0
 40
0.0
 40
0.2699018057
 40
0.5613268729
 40
0.6954749741
 40
0.8131455923
 40
0.9128567735
 40
1.0
 40
1.0
 40
1.0
 40
1.0
 10
27.1641478098
 20
15.1305671932
 30
0.0
 10
27.1641478098
 20
15.1235339469
 30
0.0
 10
27.1680160625
 20
15.108954502
 30
0.0
 10
27.1780284124
 20
15.0934774049
 30
0.0
 10
27.1886884488
 20
15.0840229393
 30
0.0
 10
27.1968153654
 20
15.0795868332
 30
0.0
 10
27.2047675822
 20
15.0779933667
 30
0.0
 10
27.2097083745
 20
15.0792623571
 30
0.0
 10
27.2116754675
 20
15.0803969018
 30
0.0
  0
SPLINE
  5
786
100
AcDbEntity
  8
0
100
AcDbSpline
 62
7
  6
CONTINUOUS
 70
0
 71
3
 72
9
 73
5
 74
0
 42
0.0000001
 43
0.0000001
 44
0.0000000001
 40
0.0
 40
0.0
 40
0.0
 40
0.0
 40
0.4492509647
 40
1.0
 40
1.0
 40
1.0
 40
1.0
 10
24.3748967603
 20
16.4261547838
 30
0.0
 10
24.3775514755
 20
16.4276878816
 30
0.0
 10
24.3821348925
 20
16.4334292029
 30
0.0
 10
24.3830467295
 20
16.4404128753
 30
0.0
 10
24.3830467295
 20
16.4441710778
 30
0.0
  0
SPLINE
  5
787
100
AcDbEntity
  8
7_ALL_ROUNDS
100
AcDbSpline
 62
7
  6
CONTINUOUS
 70
0
 71
3
 72
9
 73
5
 74
0
 42
0.0000001
 43
0.0000001
 44
0.0000000001
 40
0.0
 40
0.0
 40
0.0
 40
0.0
 40
0.2208858732
 40
1.0
 40
1.0
 40
1.0
 40
1.0
 10
26.8952720651
 20
15.176803376
 30
0.0
 10
26.893778019
 20
15.1763068591
 30
0.0
 10
26.8866637955
 20
15.1750514213
 30
0.0
 10
26.8794039351
 20
15.1776913616
 30
0.0
 10
26.874595015
 20
15.18046852
 30
0.0
  0
SPLINE
  5
788
100
AcDbEntity
  8
7_ALL_ROUNDS
100
AcDbSpline
 62
7
  6
CONTINUOUS
 70
0
 71
3
 72
9
 73
5
 74
0
 42
0.0000001
 43
0.0000001
 44
0.0000000001
 40
0.0
 40
0.0
 40
0.0
 40
0.0
 40
0.2301992704
 40
1.0
 40
1.0
 40
1.0
 40
1.0
 10
26.6129673451
 20
15.3315588819
 30
0.0
 10
26.6110363559
 20
15.332674031
 30
0.0
 10
26.6030145705
 20
15.3381472171
 30
0.0
 10
26.5964508705
 20
15.3455876287
 30
0.0
 10
26.592290295
 20
15.3517757913
 30
0.0
  0
SPLINE
  5
789
100
AcDbEntity
  8
7_ALL_ROUNDS
100
AcDbSpline
 62
7
  6
CONTINUOUS
 70
0
 71
3
 72
9
 73
5
 74
0
 42
0.0000001
 43
0.0000001
 44
0.0000000001
 40
0.0
 40
0.0
 40
0.0
 40
0.0
 40
0.2658898804
 40
1.0
 40
1.0
 40
1.0
 40
1.0
 10
26.5421516072
 20
15.4263487318
 30
0.0
 10
26.5401721297
 20
15.4292928746
 30
0.0
 10
26.5334907223
 20
15.4408126165
 30
0.0
 10
26.5294220377
 20
15.4541986906
 30
0.0
 10
26.5294220377
 20
15.4639937839
 30
0.0
  0
SPLINE
  5
78A
100
AcDbEntity
  8
7_ALL_ROUNDS
100
AcDbSpline
 62
7
  6
CONTINUOUS
 70
0
 71
3
 72
9
 73
5
 74
0
 42
0.0000001
 43
0.0000001
 44
0.0000000001
 40
0.0
 40
0.0
 40
0.0
 40
0.0
 40
0.5507488464
 40
1.0
 40
1.0
 40
1.0
 40
1.0
 10
26.5294220377
 20
15.532477712
 30
0.0
 10
26.5294220377
 20
15.536987571
 30
0.0
 10
26.5305162503
 20
15.5453680161
 30
0.0
 10
26.5360164087
 20
15.5522576051
 30
0.0
 10
26.5392020892
 20
15.5540973158
 30
0.0
  0
SPLINE
  5
78B
100
AcDbEntity
  8
7_ALL_ROUNDS
100
AcDbSpline
 62
7
  6
CONTINUOUS
 70
0
 71
3
 72
11
 73
7
 74
0
 42
0.0000001
 43
0.0000001
 44
0.0000000001
 40
0.0
 40
0.0
 40
0.0
 40
0.0
 40
0.237263303
 40
0.5000248203
 40
0.7627728379
 40
1.0
 40
1.0
 40
1.0
 40
1.0
 10
30.0983625632
 20
14.3812879099
 30
0.0
 10
30.0904577321
 20
14.3767228583
 30
0.0
 10
30.0754982283
 20
14.3641329925
 30
0.0
 10
30.0580445649
 20
14.3402715673
 30
0.0
 10
30.0461071872
 20
14.3132268934
 30
0.0
 10
30.0426848639
 20
14.2939782275
 30
0.0
 10
30.0426848639
 20
14.2848513075
 30
0.0
  0
SPLINE
  5
78C
100
AcDbEntity
  8
7_ALL_ROUNDS
100
AcDbSpline
 62
7
  6
CONTINUOUS
 70
0
 71
3
 72
9
 73
5
 74
0
 42
0.0000001
 43
0.0000001
 44
0.0000000001
 40
0.0
 40
0.0
 40
0.0
 40
0.0
 40
0.2288358519
 40
1.0
 40
1.0
 40
1.0
 40
1.0
 10
26.6435900797
 20
15.3717424833
 30
0.0
 10
26.6425567757
 20
15.3723392179
 30
0.0
 10
26.6382959093
 20
15.3753797048
 30
0.0
 10
26.6350215521
 20
15.3796769416
 30
0.0
 10
26.6331405794
 20
15.3832310196
 30
0.0
  0
SPLINE
  5
78D
100
AcDbEntity
  8
7_ALL_ROUNDS
100
AcDbSpline
 62
7
  6
CONTINUOUS
 70
0
 71
3
 72
9
 73
5
 74
0
 42
0.0000001
 43
0.0000001
 44
0.0000000001
 40
0.0
 40
0.0
 40
0.0
 40
0.0
 40
0.255491711
 40
1.0
 40
1.0
 40
1.0
 40
1.0
 10
26.5893578861
 20
15.4493900901
 30
0.0
 10
26.5878924954
 20
15.4507569294
 30
0.0
 10
26.5827918935
 20
15.4567002943
 30
0.0
 10
26.5795319671
 20
15.4645851638
 30
0.0
 10
26.5795319671
 20
15.4704245744
 30
0.0
  0
LINE
  5
78E
100
AcDbEntity
  8
7_ALL_ROUNDS
100
AcDbLine
 62
7
  6
CONTINUOUS
 10
26.5795319671
 20
15.5389085025
 11
26.5798237265
 21
15.5420024067
  0
SPLINE
  5
78F
100
AcDbEntity
  8
7_ALL_ROUNDS
100
AcDbSpline
 62
9
  6
CONTINUOUS
 70
0
 71
3
 72
9
 73
5
 74
0
 42
0.0000001
 43
0.0000001
 44
0.0000000001
 40
0.0
 40
0.0
 40
0.0
 40
0.0
 40
0.2245008438
 40
1.0
 40
1.0
 40
1.0
 40
1.0
 10
31.3932896299
 20
14.9612577036
 30
0.0
 10
31.3946448314
 20
14.961137154
 30
0.0
 10
31.4007415258
 20
14.9612259935
 30
0.0
 10
31.4066178938
 20
14.9635730173
 30
0.0
 10
31.4106877669
 20
14.9659233749
 30
0.0
  0
SPLINE
  5
790
100
AcDbEntity
  8
0
100
AcDbSpline
 62
7
  6
CONTINUOUS
 70
0
 71
3
 72
13
 73
9
 74
0
 42
0.0000001
 43
0.0000001
 44
0.0000000001
 40
0.0
 40
0.0
 40
0.0
 40
0.0
 40
0.3000768051
 40
0.5817515043
 40
0.7056331117
 40
0.815183785
 40
0.9116352101
 40
1.0
 40
1.0
 40
1.0
 40
1.0
 10
31.6313101325
 20
14.5384874409
 30
0.0
 10
31.6114456645
 20
14.5413523938
 30
0.0
 10
31.5720809418
 20
14.5417369812
 30
0.0
 10
31.5255535037
 20
14.5301658795
 30
0.0
 10
31.4952116197
 20
14.5134304495
 30
0.0
 10
31.4784564722
 20
14.4987380907
 30
0.0
 10
31.4676255829
 20
14.4819106372
 30
0.0
 10
31.4650233749
 20
14.469451183
 30
0.0
 10
31.4650209849
 20
14.463541091
 30
0.0
  0
SPLINE
  5
791
100
AcDbEntity
  8
0
100
AcDbSpline
 62
7
  6
CONTINUOUS
 70
0
 71
3
 72
9
 73
5
 74
0
 42
0.0000001
 43
0.0000001
 44
0.0000000001
 40
0.0
 40
0.0
 40
0.0
 40
0.0
 40
0.550776636
 40
1.0
 40
1.0
 40
1.0
 40
1.0
 10
31.3831254747
 20
14.3951604381
 30
0.0
 10
31.3774308162
 20
14.3918717645
 30
0.0
 10
31.3676481276
 20
14.3843806479
 30
0.0
 10
31.3629505441
 20
14.3724159199
 30
0.0
 10
31.3629482959
 20
14.3670523706
 30
0.0
  0
SPLINE
  5
792
100
AcDbEntity
  8
7_ALL_ROUNDS
100
AcDbSpline
 62
7
  6
CONTINUOUS
 70
0
 71
3
 72
9
 73
5
 74
0
 42
0.0000001
 43
0.0000001
 44
0.0000000001
 40
0.0
 40
0.0
 40
0.0
 40
0.0
 40
0.2662047348
 40
1.0
 40
1.0
 40
1.0
 40
1.0
 10
30.0426848639
 20
14.0984316236
 30
0.0
 10
30.0426848639
 20
14.0967868867
 30
0.0
 10
30.042893596
 20
14.0906144753
 30
0.0
 10
30.043967633
 20
14.0844391154
 30
0.0
 10
30.0454099245
 20
14.0801409189
 30
0.0
  0
SPLINE
  5
793
100
AcDbEntity
  8
7_ALL_ROUNDS
100
AcDbSpline
 62
7
  6
CONTINUOUS
 70
0
 71
3
 72
9
 73
5
 74
0
 42
0.0000001
 43
0.0000001
 44
0.0000000001
 40
0.0
 40
0.0
 40
0.0
 40
0.0
 40
0.2661587797
 40
1.0
 40
1.0
 40
1.0
 40
1.0
 10
30.0454099245
 20
14.0801409189
 30
0.0
 10
30.0458500031
 20
14.0788294335
 30
0.0
 10
30.0477305807
 20
14.0739867756
 30
0.0
 10
30.0506359191
 20
14.0694995477
 30
0.0
 10
30.0533183583
 20
14.0667880887
 30
0.0
  0
SPLINE
  5
794
100
AcDbEntity
  8
7_ALL_ROUNDS
100
AcDbSpline
 62
7
  6
CONTINUOUS
 70
0
 71
3
 72
8
 73
4
 74
0
 42
0.0000001
 43
0.0000001
 44
0.0000000001
 40
0.0
 40
0.0
 40
0.0
 40
0.0
 40
1.0
 40
1.0
 40
1.0
 40
1.0
 10
30.0533183583
 20
14.0667880887
 30
0.0
 10
30.0549984837
 20
14.065089787
 30
0.0
 10
30.0569177688
 20
14.0635969768
 30
0.0
 10
30.058986518
 20
14.062402269
 30
0.0
  0
SPLINE
  5
795
100
AcDbEntity
  8
7_ALL_ROUNDS
100
AcDbSpline
 62
7
  6
CONTINUOUS
 70
0
 71
3
 72
11
 73
7
 74
0
 42
0.0000001
 43
0.0000001
 44
0.0000000001
 40
0.0
 40
0.0
 40
0.0
 40
0.0
 40
0.2372271621
 40
0.4999751797
 40
0.762736697
 40
1.0
 40
1.0
 40
1.0
 40
1.0
 10
31.2926492134
 20
14.8170737306
 30
0.0
 10
31.2926492134
 20
14.8079468106
 30
0.0
 10
31.28922689
 20
14.7886981446
 30
0.0
 10
31.2772895124
 20
14.7616534708
 30
0.0
 10
31.259835849
 20
14.7377920455
 30
0.0
 10
31.2448763452
 20
14.7252021797
 30
0.0
 10
31.236971514
 20
14.7206371282
 30
0.0
  0
SPLINE
  5
796
100
AcDbEntity
  8
7_ALL_ROUNDS
100
AcDbSpline
 62
7
  6
CONTINUOUS
 70
0
 71
3
 72
9
 73
5
 74
0
 42
0.0000001
 43
0.0000001
 44
0.0000000001
 40
0.0
 40
0.0
 40
0.0
 40
0.0
 40
0.5503379836
 40
1.0
 40
1.0
 40
1.0
 40
1.0
 10
30.0955786783
 20
14.0614810966
 30
0.0
 10
30.0891816596
 20
14.057786809
 30
0.0
 10
30.0764209094
 20
14.0524635485
 30
0.0
 10
30.0621490205
 20
14.054351026
 30
0.0
 10
30.0568406825
 20
14.057223651
 30
0.0
  0
SPLINE
  5
797
100
AcDbEntity
  8
7_ALL_ROUNDS
100
AcDbSpline
 62
7
  6
CONTINUOUS
 70
0
 71
3
 72
8
 73
4
 74
0
 42
0.0000001
 43
0.0000001
 44
0.0000000001
 40
0.0
 40
0.0
 40
0.0
 40
0.0
 40
1.0
 40
1.0
 40
1.0
 40
1.0
 10
31.2763475593
 20
15.045951034
 30
0.0
 10
31.2784163085
 20
15.0447563262
 30
0.0
 10
31.2803355936
 20
15.043263516
 30
0.0
 10
31.282015719
 20
15.0415652143
 30
0.0
  0
SPLINE
  5
798
100
AcDbEntity
  8
7_ALL_ROUNDS
100
AcDbSpline
 62
7
  6
CONTINUOUS
 70
0
 71
3
 72
9
 73
5
 74
0
 42
0.0000001
 43
0.0000001
 44
0.0000000001
 40
0.0
 40
0.0
 40
0.0
 40
0.0
 40
0.2215088056
 40
1.0
 40
1.0
 40
1.0
 40
1.0
 10
31.282015719
 20
15.0415652143
 30
0.0
 10
31.2837759537
 20
15.0397859367
 30
0.0
 10
31.290642872
 20
15.0306545075
 30
0.0
 10
31.2926492134
 20
15.0187179267
 30
0.0
 10
31.2926492134
 20
15.0099216795
 30
0.0
  0
SPLINE
  5
799
100
AcDbEntity
  8
7_ALL_ROUNDS
100
AcDbSpline
 62
7
  6
CONTINUOUS
 70
0
 71
3
 72
11
 73
7
 74
0
 42
0.0000001
 43
0.0000001
 44
0.0000000001
 40
0.0
 40
0.0
 40
0.0
 40
0.0
 40
0.2372271621
 40
0.4999751797
 40
0.762736697
 40
1.0
 40
1.0
 40
1.0
 40
1.0
 10
31.320488063
 20
14.993857331
 30
0.0
 10
31.320488063
 20
15.007547711
 30
0.0
 10
31.325621548
 20
15.0364207099
 30
0.0
 10
31.3435276144
 20
15.0769877207
 30
0.0
 10
31.3697081095
 20
15.1127798585
 30
0.0
 10
31.3921473652
 20
15.1316646573
 30
0.0
 10
31.404004612
 20
15.1385122346
 30
0.0
  0
SPLINE
  5
79A
100
AcDbEntity
  8
7_ALL_ROUNDS
100
AcDbSpline
 62
7
  6
CONTINUOUS
 70
0
 71
3
 72
10
 73
6
 74
0
 42
0.0000001
 43
0.0000001
 44
0.0000000001
 40
0.0
 40
0.0
 40
0.0
 40
0.0
 40
0.5477715192
 40
0.781611194
 40
1.0
 40
1.0
 40
1.0
 40
1.0
 10
29.9285455804
 20
14.2864324865
 30
0.0
 10
29.9383166234
 20
14.2920752781
 30
0.0
 10
29.9539062448
 20
14.2983059269
 30
0.0
 10
29.9747622911
 20
14.2977939694
 30
0.0
 10
29.9837140724
 20
14.2945331776
 30
0.0
 10
29.9876096483
 20
14.2922834729
 30
0.0
  0
SPLINE
  5
79B
100
AcDbEntity
  8
7_ALL_ROUNDS
100
AcDbSpline
 62
7
  6
CONTINUOUS
 70
0
 71
3
 72
11
 73
7
 74
0
 42
0.0000001
 43
0.0000001
 44
0.0000000001
 40
0.0
 40
0.0
 40
0.0
 40
0.0
 40
0.2372271621
 40
0.4999751797
 40
0.762736697
 40
1.0
 40
1.0
 40
1.0
 40
1.0
 10
29.4831239859
 20
13.9327768899
 30
0.0
 10
29.4831239859
 20
13.9464672699
 30
0.0
 10
29.4882574709
 20
13.9753402688
 30
0.0
 10
29.5061635373
 20
14.0159072796
 30
0.0
 10
29.5323440324
 20
14.0516994175
 30
0.0
 10
29.5547832881
 20
14.0705842162
 30
0.0
 10
29.5666405349
 20
14.0774317935
 30
0.0
  0
SPLINE
  5
79C
100
AcDbEntity
  8
7_ALL_ROUNDS
100
AcDbSpline
 62
7
  6
CONTINUOUS
 70
0
 71
3
 72
10
 73
6
 74
0
 42
0.0000001
 43
0.0000001
 44
0.0000000001
 40
0.0
 40
0.0
 40
0.0
 40
0.0
 40
0.5477715192
 40
0.781611194
 40
1.0
 40
1.0
 40
1.0
 40
1.0
 10
31.7659096575
 20
15.3475129276
 30
0.0
 10
31.7756807005
 20
15.3531557192
 30
0.0
 10
31.7912703219
 20
15.359386368
 30
0.0
 10
31.8121263682
 20
15.3588744105
 30
0.0
 10
31.8210781495
 20
15.3556136187
 30
0.0
 10
31.8249737254
 20
15.353363914
 30
0.0
  0
SPLINE
  5
79D
100
AcDbEntity
  8
7_ALL_ROUNDS
100
AcDbSpline
 62
7
  6
CONTINUOUS
 70
0
 71
3
 72
11
 73
7
 74
0
 42
0.0000001
 43
0.0000001
 44
0.0000000001
 40
0.0
 40
0.0
 40
0.0
 40
0.0
 40
0.2372271621
 40
0.4999751797
 40
0.762736697
 40
1.0
 40
1.0
 40
1.0
 40
1.0
 10
31.3483269127
 20
14.8170737306
 30
0.0
 10
31.3483269127
 20
14.8033833506
 30
0.0
 10
31.3431934277
 20
14.7745103517
 30
0.0
 10
31.3252873612
 20
14.7339433409
 30
0.0
 10
31.2991068661
 20
14.698151203
 30
0.0
 10
31.2766676105
 20
14.6792664043
 30
0.0
 10
31.2648103637
 20
14.672418827
 30
0.0
  0
SPLINE
  5
79E
100
AcDbEntity
  8
7_ALL_ROUNDS
100
AcDbSpline
 62
7
  6
CONTINUOUS
 70
0
 71
3
 72
10
 73
6
 74
0
 42
0.0000001
 43
0.0000001
 44
0.0000000001
 40
0.0
 40
0.0
 40
0.0
 40
0.0
 40
0.5477715192
 40
0.781611194
 40
1.0
 40
1.0
 40
1.0
 40
1.0
 10
30.1234175279
 20
14.0132627954
 30
0.0
 10
30.1136464848
 20
14.0076200037
 30
0.0
 10
30.0980568635
 20
14.001389355
 30
0.0
 10
30.0772008172
 20
14.0019013124
 30
0.0
 10
30.0682490359
 20
14.0051621043
 30
0.0
 10
30.06435346
 20
14.0074118089
 30
0.0
  0
SPLINE
  5
79F
100
AcDbEntity
  8
0
100
AcDbSpline
 62
7
  6
CONTINUOUS
 70
0
 71
3
 72
13
 73
9
 74
0
 42
0.0000001
 43
0.0000001
 44
0.0000000001
 40
0.0
 40
0.0
 40
0.0
 40
0.0
 40
0.3000768051
 40
0.5817515043
 40
0.7056331117
 40
0.815183785
 40
0.9116352101
 40
1.0
 40
1.0
 40
1.0
 40
1.0
 10
30.2115288002
 20
13.7185616455
 30
0.0
 10
30.1916643322
 20
13.7214265985
 30
0.0
 10
30.1522996095
 20
13.7218111858
 30
0.0
 10
30.1057721714
 20
13.7102400841
 30
0.0
 10
30.0754302874
 20
13.6935046541
 30
0.0
 10
30.0586751399
 20
13.6788122953
 30
0.0
 10
30.0478442506
 20
13.6619848418
 30
0.0
 10
30.0452420426
 20
13.6495253876
 30
0.0
 10
30.0452396526
 20
13.6436152957
 30
0.0
  0
SPLINE
  5
7A0
100
AcDbEntity
  8
0
100
AcDbSpline
 62
7
  6
CONTINUOUS
 70
0
 71
3
 72
9
 73
5
 74
0
 42
0.0000001
 43
0.0000001
 44
0.0000000001
 40
0.0
 40
0.0
 40
0.0
 40
0.0
 40
0.550776636
 40
1.0
 40
1.0
 40
1.0
 40
1.0
 10
29.9633441424
 20
13.5752346427
 30
0.0
 10
29.9576494839
 20
13.5719459691
 30
0.0
 10
29.9478667953
 20
13.5644548525
 30
0.0
 10
29.9431692118
 20
13.5524901245
 30
0.0
 10
29.9431669635
 20
13.5471265752
 30
0.0
  0
SPLINE
  5
7A1
100
AcDbEntity
  8
7_ALL_ROUNDS
100
AcDbSpline
 62
9
  6
CONTINUOUS
 70
0
 71
3
 72
9
 73
5
 74
0
 42
0.0000001
 43
0.0000001
 44
0.0000000001
 40
0.0
 40
0.0
 40
0.0
 40
0.0
 40
0.2793566439
 40
1.0
 40
1.0
 40
1.0
 40
1.0
 10
31.4454863371
 20
15.0261962473
 30
0.0
 10
31.4454863371
 20
15.0278955625
 30
0.0
 10
31.4451573769
 20
15.033948893
 30
0.0
 10
31.4433068002
 20
15.0400992106
 30
0.0
 10
31.4407673542
 20
15.0436723817
 30
0.0
  0
SPLINE
  5
7A2
100
AcDbEntity
  8
7_ALL_ROUNDS
100
AcDbSpline
 62
9
  6
CONTINUOUS
 70
0
 71
3
 72
9
 73
5
 74
0
 42
0.0000001
 43
0.0000001
 44
0.0000000001
 40
0.0
 40
0.0
 40
0.0
 40
0.0
 40
0.2793566439
 40
1.0
 40
1.0
 40
1.0
 40
1.0
 10
29.9143496061
 20
14.1419625464
 30
0.0
 10
29.9143496061
 20
14.1436618616
 30
0.0
 10
29.914020646
 20
14.149715192
 30
0.0
 10
29.9121700693
 20
14.1558655097
 30
0.0
 10
29.9096306233
 20
14.1594386808
 30
0.0
  0
SPLINE
  5
7A3
100
AcDbEntity
  8
7_ALL_ROUNDS
100
AcDbSpline
 62
7
  6
CONTINUOUS
 70
0
 71
3
 72
11
 73
7
 74
0
 42
0.0000001
 43
0.0000001
 44
0.0000000001
 40
0.0
 40
0.0
 40
0.0
 40
0.0
 40
0.2372509404
 40
0.5
 40
0.7627490596
 40
1.0
 40
1.0
 40
1.0
 40
1.0
 10
29.8171901817
 20
13.3059452883
 30
0.0
 10
29.8290471289
 20
13.299097884
 30
0.0
 10
29.8566196755
 20
13.2891030954
 30
0.0
 10
29.9007067307
 20
13.2843244067
 30
0.0
 10
29.9447937859
 20
13.2891030954
 30
0.0
 10
29.9723663325
 20
13.299097884
 30
0.0
 10
29.9842232797
 20
13.3059452883
 30
0.0
  0
SPLINE
  5
7A4
100
AcDbEntity
  8
7_ALL_ROUNDS
100
AcDbSpline
 62
7
  6
CONTINUOUS
 70
0
 71
3
 72
9
 73
5
 74
0
 42
0.0000001
 43
0.0000001
 44
0.0000000001
 40
0.0
 40
0.0
 40
0.0
 40
0.0
 40
0.2661914984
 40
1.0
 40
1.0
 40
1.0
 40
1.0
 10
32.1834924023
 20
14.5760264224
 30
0.0
 10
32.1856292918
 20
14.5772604792
 30
0.0
 10
32.1934924494
 20
14.5821631208
 30
0.0
 10
32.200710125
 20
14.5881922183
 30
0.0
 10
32.2052128443
 20
14.5932911888
 30
0.0
  0
SPLINE
  5
7A5
100
AcDbEntity
  8
7_ALL_ROUNDS
100
AcDbSpline
 62
7
  6
CONTINUOUS
 70
0
 71
3
 72
9
 73
5
 74
0
 42
0.0000001
 43
0.0000001
 44
0.0000000001
 40
0.0
 40
0.0
 40
0.0
 40
0.0
 40
0.5234795183
 40
1.0
 40
1.0
 40
1.0
 40
1.0
 10
32.2052128443
 20
14.5932911888
 30
0.0
 10
32.2091518469
 20
14.597751795
 30
0.0
 10
32.2156165132
 20
14.6073834896
 30
0.0
 10
32.2180806023
 20
14.6188403158
 30
0.0
 10
32.2180806023
 20
14.6242573515
 30
0.0
  0
SPLINE
  5
7A6
100
AcDbEntity
  8
0
100
AcDbSpline
 62
7
  6
CONTINUOUS
 70
0
 71
3
 72
13
 73
9
 74
0
 42
0.0000001
 43
0.0000001
 44
0.0000000001
 40
0.0
 40
0.0
 40
0.0
 40
0.0
 40
0.2698920414
 40
0.561344991
 40
0.6954831937
 40
0.8131552701
 40
0.9128613965
 40
1.0
 40
1.0
 40
1.0
 40
1.0
 10
29.9285455804
 20
14.0116115313
 30
0.0
 10
29.9440736287
 20
14.020579002
 30
0.0
 10
29.9713372663
 20
14.0477034369
 30
0.0
 10
29.9927494706
 20
14.0895410493
 30
0.0
 10
30.0000427169
 20
14.1251309785
 30
0.0
 10
29.999482094
 20
14.1487298702
 30
0.0
 10
29.9928660767
 20
14.1683207748
 30
0.0
 10
29.9837641449
 20
14.1776114708
 30
0.0
 10
29.9787505517
 20
14.1805065164
 30
0.0
  0
SPLINE
  5
7A7
100
AcDbEntity
  8
0
100
AcDbSpline
 62
7
  6
CONTINUOUS
 70
0
 71
3
 72
13
 73
9
 74
0
 42
0.0000001
 43
0.0000001
 44
0.0000000001
 40
0.0
 40
0.0
 40
0.0
 40
0.0
 40
0.2698920414
 40
0.561344991
 40
0.6954831937
 40
0.8131552701
 40
0.9128613965
 40
1.0
 40
1.0
 40
1.0
 40
1.0
 10
31.4596823113
 20
14.8958452322
 30
0.0
 10
31.4752103597
 20
14.9048127029
 30
0.0
 10
31.5024739972
 20
14.9319371378
 30
0.0
 10
31.5238862015
 20
14.9737747502
 30
0.0
 10
31.5311794478
 20
15.0093646794
 30
0.0
 10
31.5306188249
 20
15.0329635711
 30
0.0
 10
31.5240028076
 20
15.0525544757
 30
0.0
 10
31.5149008758
 20
15.0618451717
 30
0.0
 10
31.5098872826
 20
15.0647402173
 30
0.0
  0
SPLINE
  5
7A8
100
AcDbEntity
  8
7_ALL_ROUNDS
100
AcDbSpline
 62
7
  6
CONTINUOUS
 70
0
 71
3
 72
11
 73
7
 74
0
 42
0.0000001
 43
0.0000001
 44
0.0000000001
 40
0.0
 40
0.0
 40
0.0
 40
0.0
 40
0.237263303
 40
0.5000248203
 40
0.7627728379
 40
1.0
 40
1.0
 40
1.0
 40
1.0
 10
29.5944793845
 20
14.0613548171
 30
0.0
 10
29.5826221378
 20
14.0545072398
 30
0.0
 10
29.5601828821
 20
14.0356224411
 30
0.0
 10
29.534002387
 20
13.9998303032
 30
0.0
 10
29.5160963205
 20
13.9592632924
 30
0.0
 10
29.5109628356
 20
13.9303902935
 30
0.0
 10
29.5109628356
 20
13.9166999136
 30
0.0
  0
SPLINE
  5
7A9
100
AcDbEntity
  8
7_ALL_ROUNDS
100
AcDbSpline
 62
7
  6
CONTINUOUS
 70
0
 71
3
 72
11
 73
7
 74
0
 42
0.0000001
 43
0.0000001
 44
0.0000000001
 40
0.0
 40
0.0
 40
0.0
 40
0.0
 40
0.237263303
 40
0.5000248203
 40
0.7627728379
 40
1.0
 40
1.0
 40
1.0
 40
1.0
 10
31.236971514
 20
14.6884958034
 30
0.0
 10
31.2488287608
 20
14.6953433807
 30
0.0
 10
31.2712680165
 20
14.7142281794
 30
0.0
 10
31.2974485116
 20
14.7500203173
 30
0.0
 10
31.315354578
 20
14.7905873281
 30
0.0
 10
31.320488063
 20
14.8194603269
 30
0.0
 10
31.320488063
 20
14.8331507069
 30
0.0
  0
SPLINE
  5
7AA
100
AcDbEntity
  8
7_ALL_ROUNDS
100
AcDbSpline
 62
7
  6
CONTINUOUS
 70
0
 71
3
 72
11
 73
7
 74
0
 42
0.0000001
 43
0.0000001
 44
0.0000000001
 40
0.0
 40
0.0
 40
0.0
 40
0.0
 40
0.237263303
 40
0.5000248203
 40
0.7627728379
 40
1.0
 40
1.0
 40
1.0
 40
1.0
 10
31.4318434616
 20
15.1224352582
 30
0.0
 10
31.4199862149
 20
15.1155876809
 30
0.0
 10
31.3975469592
 20
15.0967028822
 30
0.0
 10
31.3713664641
 20
15.0609107443
 30
0.0
 10
31.3534603976
 20
15.0203437335
 30
0.0
 10
31.3483269127
 20
14.9914707346
 30
0.0
 10
31.3483269127
 20
14.9777803546
 30
0.0
  0
SPLINE
  5
7AB
100
AcDbEntity
  8
7_ALL_ROUNDS
100
AcDbSpline
 62
7
  6
CONTINUOUS
 70
0
 71
3
 72
10
 73
6
 74
0
 42
0.0000001
 43
0.0000001
 44
0.0000000001
 40
0.0
 40
0.0
 40
0.0
 40
0.0
 40
0.218388806
 40
0.4522284808
 40
1.0
 40
1.0
 40
1.0
 40
1.0
 10
31.852812575
 20
15.3372869377
 30
0.0
 10
31.8489169992
 20
15.3395366423
 30
0.0
 10
31.8399652178
 20
15.3427974341
 30
0.0
 10
31.8191091716
 20
15.3433093916
 30
0.0
 10
31.8035195502
 20
15.3370787428
 30
0.0
 10
31.7937485071
 20
15.3314359512
 30
0.0
  0
SPLINE
  5
7AC
100
AcDbEntity
  8
7_ALL_ROUNDS
100
AcDbSpline
 62
9
  6
CONTINUOUS
 70
0
 71
3
 72
9
 73
5
 74
0
 42
0.0000001
 43
0.0000001
 44
0.0000000001
 40
0.0
 40
0.0
 40
0.0
 40
0.0
 40
0.2245008438
 40
1.0
 40
1.0
 40
1.0
 40
1.0
 10
29.862152899
 20
14.0770240027
 30
0.0
 10
29.8635081005
 20
14.0769034531
 30
0.0
 10
29.8696047949
 20
14.0769922925
 30
0.0
 10
29.8754811629
 20
14.0793393163
 30
0.0
 10
29.879551036
 20
14.081689674
 30
0.0
  0
SPLINE
  5
7AD
100
AcDbEntity
  8
0
100
AcDbSpline
 62
7
  6
CONTINUOUS
 70
0
 71
3
 72
9
 73
5
 74
0
 42
0.0000001
 43
0.0000001
 44
0.0000000001
 40
0.0
 40
0.0
 40
0.0
 40
0.0
 40
0.23302503
 40
1.0
 40
1.0
 40
1.0
 40
1.0
 10
27.9305513408
 20
14.7517906621
 30
0.0
 10
27.9305513407
 20
14.7524048673
 30
0.0
 10
27.9304159208
 20
14.755040178
 30
0.0
 10
27.9298164862
 20
14.7576406139
 30
0.0
 10
27.9291736422
 20
14.759557267
 30
0.0
  0
SPLINE
  5
7AE
100
AcDbEntity
  8
0
100
AcDbSpline
 62
7
  6
CONTINUOUS
 70
0
 71
3
 72
11
 73
7
 74
0
 42
0.0000001
 43
0.0000001
 44
0.0000000001
 40
0.0
 40
0.0
 40
0.0
 40
0.0
 40
0.2978819403
 40
0.5828108245
 40
0.8181255306
 40
1.0
 40
1.0
 40
1.0
 40
1.0
 10
27.9291736422
 20
14.759557267
 30
0.0
 10
27.9281910902
 20
14.7624867666
 30
0.0
 10
27.9254096691
 20
14.7679625902
 30
0.0
 10
27.9196479391
 20
14.774311282
 30
0.0
 10
27.9131918237
 20
14.7780971188
 30
0.0
 10
27.9084207946
 20
14.7778198691
 30
0.0
 10
27.9067874923
 20
14.7768757213
 30
0.0
  0
SPLINE
  5
7AF
100
AcDbEntity
  8
0
100
AcDbSpline
 62
7
  6
CONTINUOUS
 70
0
 71
3
 72
9
 73
5
 74
0
 42
0.0000001
 43
0.0000001
 44
0.0000000001
 40
0.0
 40
0.0
 40
0.0
 40
0.0
 40
0.23302503
 40
1.0
 40
1.0
 40
1.0
 40
1.0
 10
27.7891299845
 20
14.8334617021
 30
0.0
 10
27.7891299845
 20
14.8340759073
 30
0.0
 10
27.7889945645
 20
14.836711218
 30
0.0
 10
27.78839513
 20
14.8393116539
 30
0.0
 10
27.787752286
 20
14.841228307
 30
0.0
  0
SPLINE
  5
7B0
100
AcDbEntity
  8
0
100
AcDbSpline
 62
7
  6
CONTINUOUS
 70
0
 71
3
 72
11
 73
7
 74
0
 42
0.0000001
 43
0.0000001
 44
0.0000000001
 40
0.0
 40
0.0
 40
0.0
 40
0.0
 40
0.2978819403
 40
0.5828108245
 40
0.8181255306
 40
1.0
 40
1.0
 40
1.0
 40
1.0
 10
27.787752286
 20
14.841228307
 30
0.0
 10
27.786769734
 20
14.8441578066
 30
0.0
 10
27.7839883128
 20
14.8496336302
 30
0.0
 10
27.7782265828
 20
14.855982322
 30
0.0
 10
27.7717704675
 20
14.8597681589
 30
0.0
 10
27.7669994384
 20
14.8594909091
 30
0.0
 10
27.7653661361
 20
14.8585467613
 30
0.0
  0
SPLINE
  5
7B1
100
AcDbEntity
  8
0
100
AcDbSpline
 62
7
  6
CONTINUOUS
 70
0
 71
3
 72
9
 73
5
 74
0
 42
0.0000001
 43
0.0000001
 44
0.0000000001
 40
0.0
 40
0.0
 40
0.0
 40
0.0
 40
0.23302503
 40
1.0
 40
1.0
 40
1.0
 40
1.0
 10
27.6477086283
 20
14.9151327421
 30
0.0
 10
27.6477086283
 20
14.9157469473
 30
0.0
 10
27.6475732083
 20
14.918382258
 30
0.0
 10
27.6469737737
 20
14.9209826939
 30
0.0
 10
27.6463309297
 20
14.922899347
 30
0.0
  0
SPLINE
  5
7B2
100
AcDbEntity
  8
0
100
AcDbSpline
 62
7
  6
CONTINUOUS
 70
0
 71
3
 72
11
 73
7
 74
0
 42
0.0000001
 43
0.0000001
 44
0.0000000001
 40
0.0
 40
0.0
 40
0.0
 40
0.0
 40
0.2978819403
 40
0.5828108245
 40
0.8181255306
 40
1.0
 40
1.0
 40
1.0
 40
1.0
 10
27.6463309297
 20
14.922899347
 30
0.0
 10
27.6453483778
 20
14.9258288466
 30
0.0
 10
27.6425669566
 20
14.9313046702
 30
0.0
 10
27.6368052266
 20
14.937653362
 30
0.0
 10
27.6303491112
 20
14.9414391989
 30
0.0
 10
27.6255780821
 20
14.9411619491
 30
0.0
 10
27.6239447798
 20
14.9402178013
 30
0.0
  0
SPLINE
  5
7B3
100
AcDbEntity
  8
0
100
AcDbSpline
 62
7
  6
CONTINUOUS
 70
0
 71
3
 72
13
 73
9
 74
0
 42
0.0000001
 43
0.0000001
 44
0.0000000001
 40
0.0
 40
0.0
 40
0.0
 40
0.0
 40
0.2816971137
 40
0.5791322646
 40
0.709197864
 40
0.8183839855
 40
0.9103825654
 40
1.0
 40
1.0
 40
1.0
 40
1.0
 10
27.911064146
 20
14.7469675692
 30
0.0
 10
27.911064146
 20
14.7493511275
 30
0.0
 10
27.9096233489
 20
14.7542235794
 30
0.0
 10
27.9060197851
 20
14.7591958427
 30
0.0
 10
27.9022751043
 20
14.7618429069
 30
0.0
 10
27.8995540835
 20
14.7627396182
 30
0.0
 10
27.8969965924
 20
14.7623940135
 30
0.0
 10
27.8957934073
 20
14.7612802951
 30
0.0
 10
27.895381949
 20
14.7606433436
 30
0.0
  0
SPLINE
  5
7B4
100
AcDbEntity
  8
0
100
AcDbSpline
 62
7
  6
CONTINUOUS
 70
0
 71
3
 72
13
 73
9
 74
0
 42
0.0000001
 43
0.0000001
 44
0.0000000001
 40
0.0
 40
0.0
 40
0.0
 40
0.0
 40
0.2816971137
 40
0.5791322646
 40
0.709197864
 40
0.8183839855
 40
0.9103825654
 40
1.0
 40
1.0
 40
1.0
 40
1.0
 10
27.7696427898
 20
14.8286386092
 30
0.0
 10
27.7696427898
 20
14.8310221675
 30
0.0
 10
27.7682019927
 20
14.8358946195
 30
0.0
 10
27.7645984289
 20
14.8408668828
 30
0.0
 10
27.7608537481
 20
14.8435139469
 30
0.0
 10
27.7581327273
 20
14.8444106582
 30
0.0
 10
27.7555752362
 20
14.8440650536
 30
0.0
 10
27.7543720511
 20
14.8429513351
 30
0.0
 10
27.7539605927
 20
14.8423143836
 30
0.0
  0
SPLINE
  5
7B5
100
AcDbEntity
  8
0
100
AcDbSpline
 62
7
  6
CONTINUOUS
 70
0
 71
3
 72
13
 73
9
 74
0
 42
0.0000001
 43
0.0000001
 44
0.0000000001
 40
0.0
 40
0.0
 40
0.0
 40
0.0
 40
0.2816971137
 40
0.5791322646
 40
0.709197864
 40
0.8183839855
 40
0.9103825654
 40
1.0
 40
1.0
 40
1.0
 40
1.0
 10
27.6282214335
 20
14.9103096492
 30
0.0
 10
27.6282214336
 20
14.9126932075
 30
0.0
 10
27.6267806365
 20
14.9175656595
 30
0.0
 10
27.6231770727
 20
14.9225379228
 30
0.0
 10
27.6194323918
 20
14.9251849869
 30
0.0
 10
27.6167113711
 20
14.9260816982
 30
0.0
 10
27.6141538799
 20
14.9257360936
 30
0.0
 10
27.6129506949
 20
14.9246223751
 30
0.0
 10
27.6125392365
 20
14.9239854236
 30
0.0
  0
SPLINE
  5
7B6
100
AcDbEntity
  8
7_ALL_ROUNDS
100
AcDbSpline
 62
7
  6
CONTINUOUS
 70
0
 71
3
 72
9
 73
5
 74
0
 42
0.0000001
 43
0.0000001
 44
0.0000000001
 40
0.0
 40
0.0
 40
0.0
 40
0.0
 40
0.4493101626
 40
1.0
 40
1.0
 40
1.0
 40
1.0
 10
26.9150507187
 20
15.2196699742
 30
0.0
 10
26.9137219061
 20
15.218907433
 30
0.0
 10
26.9100932665
 20
15.2183609735
 30
0.0
 10
26.9068438193
 20
15.2197130638
 30
0.0
 10
26.9052177496
 20
15.2206521214
 30
0.0
  0
SPLINE
  5
7B7
100
AcDbEntity
  8
0
100
AcDbSpline
 62
7
  6
CONTINUOUS
 70
0
 71
3
 72
13
 73
9
 74
0
 42
0.0000001
 43
0.0000001
 44
0.0000000001
 40
0.0
 40
0.0
 40
0.0
 40
0.0
 40
0.090916099
 40
0.1885484425
 40
0.2969079315
 40
0.4178799085
 40
0.6940246608
 40
1.0
 40
1.0
 40
1.0
 40
1.0
 10
27.9361049057
 20
14.6119607409
 30
0.0
 10
27.931568742
 20
14.6094489708
 30
0.0
 10
27.9211815621
 20
14.6058727033
 30
0.0
 10
27.904030694
 20
14.6055851436
 30
0.0
 10
27.8857601955
 20
14.6100790216
 30
0.0
 10
27.8596165917
 20
14.6225858914
 30
0.0
 10
27.8284357224
 20
14.6487259311
 30
0.0
 10
27.8085370598
 20
14.6756606401
 30
0.0
 10
27.7997229524
 20
14.6907215183
 30
0.0
  0
SPLINE
  5
7B8
100
AcDbEntity
  8
0
100
AcDbSpline
 62
7
  6
CONTINUOUS
 70
0
 71
3
 72
13
 73
9
 74
0
 42
0.0000001
 43
0.0000001
 44
0.0000000001
 40
0.0
 40
0.0
 40
0.0
 40
0.0
 40
0.090916099
 40
0.1885484425
 40
0.2969079315
 40
0.4178799085
 40
0.6940246608
 40
1.0
 40
1.0
 40
1.0
 40
1.0
 10
27.7946835495
 20
14.6936317809
 30
0.0
 10
27.7901473858
 20
14.6911200108
 30
0.0
 10
27.7797602059
 20
14.6875437434
 30
0.0
 10
27.7626093378
 20
14.6872561836
 30
0.0
 10
27.7443388393
 20
14.6917500616
 30
0.0
 10
27.7181952354
 20
14.7042569314
 30
0.0
 10
27.6870143662
 20
14.7303969711
 30
0.0
 10
27.6671157036
 20
14.7573316801
 30
0.0
 10
27.6583015961
 20
14.7723925584
 30
0.0
  0
SPLINE
  5
7B9
100
AcDbEntity
  8
7_ALL_ROUNDS
100
AcDbSpline
 62
7
  6
CONTINUOUS
 70
0
 71
3
 72
9
 73
5
 74
0
 42
0.0000001
 43
0.0000001
 44
0.0000000001
 40
0.0
 40
0.0
 40
0.0
 40
0.0
 40
0.2237451652
 40
1.0
 40
1.0
 40
1.0
 40
1.0
 10
30.0522674675
 20
14.0183066076
 30
0.0
 10
30.0556105059
 20
14.0178964678
 30
0.0
 10
30.0707676502
 20
14.0177088455
 30
0.0
 10
30.0854596626
 20
14.0234960254
 30
0.0
 10
30.0955786783
 20
14.0293397718
 30
0.0
  0
SPLINE
  5
7BA
100
AcDbEntity
  8
0
100
AcDbSpline
 62
7
  6
CONTINUOUS
 70
0
 71
3
 72
13
 73
9
 74
0
 42
0.0000001
 43
0.0000001
 44
0.0000000001
 40
0.0
 40
0.0
 40
0.0
 40
0.0
 40
0.090916099
 40
0.1885484425
 40
0.2969079315
 40
0.4178799085
 40
0.6940246608
 40
1.0
 40
1.0
 40
1.0
 40
1.0
 10
27.6532621932
 20
14.7753028209
 30
0.0
 10
27.6487260295
 20
14.7727910508
 30
0.0
 10
27.6383388497
 20
14.7692147834
 30
0.0
 10
27.6211879815
 20
14.7689272236
 30
0.0
 10
27.602917483
 20
14.7734211016
 30
0.0
 10
27.5767738792
 20
14.7859279714
 30
0.0
 10
27.5455930099
 20
14.8120680111
 30
0.0
 10
27.5256943474
 20
14.8390027201
 30
0.0
 10
27.5168802399
 20
14.8540635984
 30
0.0
  0
SPLINE
  5
7BB
100
AcDbEntity
  8
0
100
AcDbSpline
 62
7
  6
CONTINUOUS
 70
0
 71
3
 72
9
 73
5
 74
0
 42
0.0000001
 43
0.0000001
 44
0.0000000001
 40
0.0
 40
0.0
 40
0.0
 40
0.0
 40
0.4504001297
 40
1.0
 40
1.0
 40
1.0
 40
1.0
 10
27.9067155137
 20
14.7410165199
 30
0.0
 10
27.9079167207
 20
14.7410783771
 30
0.0
 10
27.9106233311
 20
14.7425874544
 30
0.0
 10
27.911064146
 20
14.7454998566
 30
0.0
 10
27.911064146
 20
14.7469675692
 30
0.0
  0
SPLINE
  5
7BC
100
AcDbEntity
  8
0
100
AcDbSpline
 62
7
  6
CONTINUOUS
 70
0
 71
3
 72
9
 73
5
 74
0
 42
0.0000001
 43
0.0000001
 44
0.0000000001
 40
0.0
 40
0.0
 40
0.0
 40
0.0
 40
0.4504001297
 40
1.0
 40
1.0
 40
1.0
 40
1.0
 10
27.7652941575
 20
14.8226875599
 30
0.0
 10
27.7664953645
 20
14.8227494171
 30
0.0
 10
27.7692019748
 20
14.8242584944
 30
0.0
 10
27.7696427898
 20
14.8271708966
 30
0.0
 10
27.7696427898
 20
14.8286386092
 30
0.0
  0
SPLINE
  5
7BD
100
AcDbEntity
  8
0
100
AcDbSpline
 62
7
  6
CONTINUOUS
 70
0
 71
3
 72
9
 73
5
 74
0
 42
0.0000001
 43
0.0000001
 44
0.0000000001
 40
0.0
 40
0.0
 40
0.0
 40
0.0
 40
0.2283039004
 40
1.0
 40
1.0
 40
1.0
 40
1.0
 10
27.1919866595
 20
15.1466441696
 30
0.0
 10
27.1919866595
 20
15.1441208173
 30
0.0
 10
27.1931263013
 20
15.1330807621
 30
0.0
 10
27.1977312882
 20
15.1225548161
 30
0.0
 10
27.2024682703
 20
15.1154619244
 30
0.0
  0
SPLINE
  5
7BE
100
AcDbEntity
  8
0
100
AcDbSpline
 62
7
  6
CONTINUOUS
 70
0
 71
3
 72
9
 73
5
 74
0
 42
0.0000001
 43
0.0000001
 44
0.0000000001
 40
0.0
 40
0.0
 40
0.0
 40
0.0
 40
0.2671428917
 40
1.0
 40
1.0
 40
1.0
 40
1.0
 10
27.2024682703
 20
15.1154619244
 30
0.0
 10
27.2036681977
 20
15.1136652202
 30
0.0
 10
27.2084776272
 20
15.1071740234
 30
0.0
 10
27.2145615021
 20
15.1014995816
 30
0.0
 10
27.219680915
 20
15.0985126555
 30
0.0
  0
SPLINE
  5
7BF
100
AcDbEntity
  8
0
100
AcDbSpline
 62
7
  6
CONTINUOUS
 70
0
 71
3
 72
9
 73
5
 74
0
 42
0.0000001
 43
0.0000001
 44
0.0000000001
 40
0.0
 40
0.0
 40
0.0
 40
0.0
 40
0.4504001297
 40
1.0
 40
1.0
 40
1.0
 40
1.0
 10
27.6238728013
 20
14.9043585999
 30
0.0
 10
27.6250740082
 20
14.9044204572
 30
0.0
 10
27.6277806186
 20
14.9059295345
 30
0.0
 10
27.6282214335
 20
14.9088419366
 30
0.0
 10
27.6282214335
 20
14.9103096492
 30
0.0
  0
SPLINE
  5
7C0
100
AcDbEntity
  8
7_ALL_ROUNDS
100
AcDbSpline
 62
7
  6
CONTINUOUS
 70
0
 71
3
 72
9
 73
5
 74
0
 42
0.0000001
 43
0.0000001
 44
0.0000000001
 40
0.0
 40
0.0
 40
0.0
 40
0.0
 40
0.7583843041
 40
1.0
 40
1.0
 40
1.0
 40
1.0
 10
26.6092725499
 20
15.4283294064
 30
0.0
 10
26.6080223925
 20
15.4306915655
 30
0.0
 10
26.6060012404
 20
15.4336372375
 30
0.0
 10
26.6035392051
 20
15.4361625015
 30
0.0
 10
26.6029165554
 20
15.4367432764
 30
0.0
  0
SPLINE
  5
7C1
100
AcDbEntity
  8
7_ALL_ROUNDS
100
AcDbSpline
 62
7
  6
CONTINUOUS
 70
0
 71
3
 72
9
 73
5
 74
0
 42
0.0000001
 43
0.0000001
 44
0.0000000001
 40
0.0
 40
0.0
 40
0.0
 40
0.0
 40
0.2730795566
 40
1.0
 40
1.0
 40
1.0
 40
1.0
 10
26.945891274
 20
15.238674875
 30
0.0
 10
26.9453705463
 20
15.2387906096
 30
0.0
 10
26.9434429332
 20
15.2390880142
 30
0.0
 10
26.941374398
 20
15.2387086719
 30
0.0
 10
26.9401441594
 20
15.2379995738
 30
0.0
  0
ENDSEC
  0
SECTION
  2
OBJECTS
  0
DICTIONARY
  5
C
100
AcDbDictionary
280
0
281
1
  3
ACAD_GROUP
350
D
  3
ACAD_MLINESTYLE
350
17
  3
ACAD_LAYOUT
350
1A
  3
ACAD_PLOTSETTINGS
350
19
  3
ACAD_PLOTSTYLENAME
350
E
  0
DICTIONARY
  5
D
102
{ACAD_REACTORS
330
C
102
}
100
AcDbDictionary
280
0
281
1
  0
ACDBDICTIONARYWDFLT
  5
E
102
{ACAD_REACTORS
330
C
102
}
100
AcDbDictionary
281
1
  3
Normal
350
F
100
AcDbDictionaryWithDefault
340
F
  0
DICTIONARY
  5
17
102
{ACAD_REACTORS
330
C
102
}
100
AcDbDictionary
280
0
281
1
  3
Standard
350
18
  0
DICTIONARY
  5
19
102
{ACAD_REACTORS
330
C
102
}
100
AcDbDictionary
281
1
  0
DICTIONARY
  5
1A
102
{ACAD_REACTORS
330
C
102
}
100
AcDbDictionary
281
1
  3
Model
350
7C2
  3
Layout1
350
7C3
  0
ACDBPLACEHOLDER
  5
F
102
{ACAD_REACTORS
330
E
102
}
  0
MLINESTYLE
  5
18
102
{ACAD_REACTORS
330
17
102
}
100
AcDbMlineStyle
  2
STANDARD
 70
0
  3

 62
256
 51
90.0
 52
90.0
 71
2
 49
0.5
 62
256
  6
BYLAYER
 49
-0.5
 62
256
  6
BYLAYER
  0
LAYOUT
  5
7C2
102
{ACAD_REACTORS
330
1A
102
}
100
AcDbPlotSettings
  1

  2
none_device
  4
ANSI_D_(34.00_x_22.00_Inches)
  6

 40
0.0
 41
0.0
 42
0.0
 43
0.0
 44
863.6
 45
558.8
 46
0.0
 47
0.0
 48
0.0
 49
0.0
140
0.0
141
0.0
142
1.0
143
1.0
 70
1024
 72
0
 73
0
 74
0
  7

 75
0
147
1.0
148
0.0
149
0.0
100
AcDbLayout
  1
Model
 70
0
 71
0
 10
0.0
 20
0.0
 11
34.0
 21
22.0
 12
0.0
 22
0.0
 32
0.0
 14
0.0
 24
0.0
 34
0.0
 15
0.0
 25
0.0
 35
0.0
146
0.0
 13
0.0
 23
0.0
 33
0.0
 16
1.0
 26
0.0
 36
0.0
 17
0.0
 27
1.0
 37
0.0
 76
0
330
210
345
0
346
0
  0
LAYOUT
  5
7C3
102
{ACAD_REACTORS
330
1A
102
}
100
AcDbPlotSettings
  1

  2
none_device
  4
ANSI_D_(34.00_x_22.00_Inches)
  6

 40
0.0
 41
0.0
 42
0.0
 43
0.0
 44
863.6
 45
558.8
 46
0.0
 47
0.0
 48
0.0
 49
0.0
140
0.0
141
0.0
142
1.0
143
1.0
 70
0
 72
0
 73
0
 74
0
  7

 75
0
147
1.0
148
0.0
149
0.0
100
AcDbLayout
  1
Layout1
 70
0
 71
1
 10
0.0
 20
0.0
 11
34.0
 21
22.0
 12
0.0
 22
0.0
 32
0.0
 14
0.0
 24
0.0
 34
0.0
 15
0.0
 25
0.0
 35
0.0
146
0.0
 13
0.0
 23
0.0
 33
0.0
 16
1.0
 26
0.0
 36
0.0
 17
0.0
 27
1.0
 37
0.0
 76
0
330
211
345
0
346
0
  0
ENDSEC
  0
EOF
